  0
SECTION
  2
HEADER
  9
$ACADVER
  1
AC1015
  9
$DWGCODEPAGE
  3
ANSI_1252
  9
$EXTMAX
 10
297.0
 20
210.0
 30
0.0
  9
$EXTMIN
 10
0.0
 20
0.0
 30
0.0
  9
$LIMMIN
 10
0.0
 20
0.0
  9
$LIMMAX
 10
297.0
 20
210.0
  9
$VIEWCTR
 10
148.5
 20
105.0
  9
$VIEWSIZE
 40
210.0
  9
$CLAYER
  8
0
  9
$LTSCALE
 40
16.335
  9
$CELTYPE
  6
BYLAYER
  9
$DIMSCALE
 40
1.0
  9
$DIMASZ
 40
3.0
  9
$DIMEXO
 40
1.85625
  9
$DIMDLI
 40
11.286
  9
$DIMEXE
 40
5.346
  9
$DIMCEN
 40
2.673
  9
$DIMLFAC
 40
1.0
  9
$DIMBLK
  1
_FILLED
  9
$DIMTXT
 40
3.0
  9
$DIMTOL
 70
1
  9
$DIMLIM
 70
0
  9
$DIMTFAC
 40
1.0
  9
$DIMTP
 40
0.01
  9
$DIMTM
 40
0.01
  9
$PDMODE
 70
3
  9
$PDSIZE
 40
3.0
  9
$HANDSEED
  5
33B
  9
$TILEMODE
 70
1
  9
$MEASUREMENT
 70
1
  9
$INSUNITS
 70
4
  0
ENDSEC
  0
SECTION
  2
CLASSES
  0
CLASS
  1
ACDBDICTIONARYWDFLT
  2
AcDbDictionaryWithDefault
  3
AutoCAD 2000
 90
0
280
0
281
0
  0
CLASS
  1
ACDBPLACEHOLDER
  2
AcDbPlaceHolder
  3
AutoCAD 2000
 90
0
280
0
281
0
  0
CLASS
  1
LAYOUT
  2
AcDbLayout
  3
AutoCAD 2000
 90
0
280
0
281
0
  0
ENDSEC
  0
SECTION
  2
TABLES
  0
TABLE
  2
VPORT
  5
8
100
AcDbSymbolTable
 70
2
  0
VPORT
  5
1F4
100
AcDbSymbolTableRecord
100
AcDbViewportTableRecord
  2
*ACTIVE
 70
0
 10
0.0
 20
0.0
 11
1.0
 21
1.0
 12
148.5
 22
105.0
 13
0.0
 23
0.0
 14
1.0
 24
1.0
 15
0.0
 25
0.0
 16
0.0
 26
0.0
 36
1.0
 17
0.0
 27
0.0
 37
0.0
 40
210.0
 41
1.4142857143
 42
50.0
 43
0.0
 44
0.0
 50
0.0
 51
0.0
 71
0
 72
100
 73
1
 74
1
 75
0
 76
0
 77
0
 78
0
  0
ENDTAB
  0
TABLE
  2
LTYPE
  5
5
100
AcDbSymbolTable
 70
6
  0
LTYPE
  5
14
100
AcDbSymbolTableRecord
100
AcDbLinetypeTableRecord
  2
BYBLOCK
 70
0
  3

 72
65
 73
0
 40
0.0
  0
LTYPE
  5
15
100
AcDbSymbolTableRecord
100
AcDbLinetypeTableRecord
  2
BYLAYER
 70
0
  3

 72
65
 73
0
 40
0.0
  0
LTYPE
  5
16
100
AcDbSymbolTableRecord
100
AcDbLinetypeTableRecord
  2
CONTINUOUS
 70
64
  3
Solid line
 72
65
 73
0
 40
0.0
  0
LTYPE
  5
1F5
100
AcDbSymbolTableRecord
100
AcDbLinetypeTableRecord
  2
CENTER
 70
64
  3
____ _ ____ _ ____ _ ____ _ ____ _ ____ _ ____
 72
65
 73
4
 40
0.6
 49
0.375
 74
0
 49
-0.075
 74
0
 49
0.075
 74
0
 49
-0.075
 74
0
  0
LTYPE
  5
1F6
100
AcDbSymbolTableRecord
100
AcDbLinetypeTableRecord
  2
HIDDEN
 70
64
  3
- - - - - - - - - - - - - - - - - - - -
 72
65
 73
2
 40
0.2
 49
0.1
 74
0
 49
-0.1
 74
0
  0
LTYPE
  5
1F7
100
AcDbSymbolTableRecord
100
AcDbLinetypeTableRecord
  2
PHANTOM
 70
64
  3
_____ _ _ _____ _ _ _____ _ _ _____
 72
65
 73
6
 40
0.8
 49
0.45
 74
0
 49
-0.05
 74
0
 49
0.1
 74
0
 49
-0.05
 74
0
 49
0.1
 74
0
 49
-0.05
 74
0
  0
LTYPE
  5
1F8
100
AcDbSymbolTableRecord
100
AcDbLinetypeTableRecord
  2
DOT
 70
64
  3
. . . . . . . . . . . . . . . . . . . .
 72
65
 73
2
 40
0.2
 49
0.1
 74
0
 49
-0.1
 74
0
  0
LTYPE
  5
1F9
100
AcDbSymbolTableRecord
100
AcDbLinetypeTableRecord
  2
DASHED
 70
64
  3
- - - - - - - - - - - - - - - - - - - -
 72
65
 73
2
 40
0.2
 49
0.1
 74
0
 49
-0.1
 74
0
  0
ENDTAB
  0
TABLE
  2
LAYER
  5
2
100
AcDbSymbolTable
 70
36
  0
LAYER
  5
10
100
AcDbSymbolTableRecord
100
AcDbLayerTableRecord
  2
0
 70
0
 62
7
  6
CONTINUOUS
370
-3
390
F
  0
LAYER
  5
1FA
100
AcDbSymbolTableRecord
100
AcDbLayerTableRecord
  2
DEFAULT_1
 70
0
 62
7
  6
CENTER
370
-3
390
F
  0
LAYER
  5
1FB
100
AcDbSymbolTableRecord
100
AcDbLayerTableRecord
  2
DEFAULT_2
 70
0
 62
7
  6
HIDDEN
370
-3
390
F
  0
LAYER
  5
1FC
100
AcDbSymbolTableRecord
100
AcDbLayerTableRecord
  2
DEFAULT_3
 70
0
 62
7
  6
PHANTOM
370
-3
390
F
  0
LAYER
  5
1FD
100
AcDbSymbolTableRecord
100
AcDbLayerTableRecord
  2
ASSI
 70
0
 62
7
  6
CONTINUOUS
370
-3
390
F
  0
LAYER
  5
1FE
100
AcDbSymbolTableRecord
100
AcDbLayerTableRecord
  2
COORDINATE
 70
0
 62
7
  6
CONTINUOUS
370
-3
390
F
  0
LAYER
  5
1FF
100
AcDbSymbolTableRecord
100
AcDbLayerTableRecord
  2
COORD_ORIGINE
 70
0
 62
7
  6
CONTINUOUS
370
-3
390
F
  0
LAYER
  5
200
100
AcDbSymbolTableRecord
100
AcDbLayerTableRecord
  2
CURVE
 70
0
 62
7
  6
CONTINUOUS
370
-3
390
F
  0
LAYER
  5
201
100
AcDbSymbolTableRecord
100
AcDbLayerTableRecord
  2
IMPORT
 70
0
 62
7
  6
CONTINUOUS
370
-3
390
F
  0
LAYER
  5
202
100
AcDbSymbolTableRecord
100
AcDbLayerTableRecord
  2
PIANI
 70
0
 62
7
  6
CONTINUOUS
370
-3
390
F
  0
LAYER
  5
203
100
AcDbSymbolTableRecord
100
AcDbLayerTableRecord
  2
PIANI_ORIGINE
 70
0
 62
7
  6
CONTINUOUS
370
-3
390
F
  0
LAYER
  5
204
100
AcDbSymbolTableRecord
100
AcDbLayerTableRecord
  2
PUNTI
 70
0
 62
7
  6
CONTINUOUS
370
-3
390
F
  0
LAYER
  5
205
100
AcDbSymbolTableRecord
100
AcDbLayerTableRecord
  2
RACCORDO
 70
0
 62
7
  6
CONTINUOUS
370
-3
390
F
  0
LAYER
  5
206
100
AcDbSymbolTableRecord
100
AcDbLayerTableRecord
  2
SNAPLINE
 70
0
 62
7
  6
CONTINUOUS
370
-3
390
F
  0
LAYER
  5
207
100
AcDbSymbolTableRecord
100
AcDbLayerTableRecord
  2
SUPERFICI
 70
0
 62
7
  6
CONTINUOUS
370
-3
390
F
  0
LAYER
  5
208
100
AcDbSymbolTableRecord
100
AcDbLayerTableRecord
  2
TRASH
 70
0
 62
7
  6
CONTINUOUS
370
-3
390
F
  0
ENDTAB
  0
TABLE
  2
STYLE
  5
3
100
AcDbSymbolTable
 70
1
  0
STYLE
  5
11
100
AcDbSymbolTableRecord
100
AcDbTextStyleTableRecord
  2
STANDARD
 70
0
 40
0.0
 41
0.8
 50
0.0
 71
0
 42
0.2
  3
txt
  4

  0
STYLE
  5
209
100
AcDbSymbolTableRecord
100
AcDbTextStyleTableRecord
  2
TEXTSTYLE_1
 70
0
 40
0.0
 41
0.8
 50
0.0
 71
0
 42
0.2
  3
gdt
  4

  0
ENDTAB
  0
TABLE
  2
VIEW
  5
6
100
AcDbSymbolTable
 70
0
  0
ENDTAB
  0
TABLE
  2
UCS
  5
7
100
AcDbSymbolTable
 70
0
  0
ENDTAB
  0
TABLE
  2
APPID
  5
9
100
AcDbSymbolTable
 70
1
  0
APPID
  5
20A
100
AcDbSymbolTableRecord
100
AcDbRegAppTableRecord
  2
ACAD
 70
0
  0
ENDTAB
  0
TABLE
  2
BLOCK_RECORD
  5
1
100
AcDbSymbolTable
 70
0
  0
BLOCK_RECORD
  5
20B
100
AcDbSymbolTableRecord
100
AcDbBlockTableRecord
  2
*Model_Space
  0
BLOCK_RECORD
  5
20C
100
AcDbSymbolTableRecord
100
AcDbBlockTableRecord
  2
*Paper_Space
  0
BLOCK_RECORD
  5
20D
100
AcDbSymbolTableRecord
100
AcDbBlockTableRecord
  2
_FILLED
  0
BLOCK_RECORD
  5
20E
100
AcDbSymbolTableRecord
100
AcDbBlockTableRecord
  2
*D0
  0
BLOCK_RECORD
  5
20F
100
AcDbSymbolTableRecord
100
AcDbBlockTableRecord
  2
*D1
  0
ENDTAB
  0
TABLE
  2
DIMSTYLE
  5
A
100
AcDbSymbolTable
 70
1
100
AcDbDimStyleTable
 71
0
  0
DIMSTYLE
105
210
100
AcDbSymbolTableRecord
100
AcDbDimStyleTableRecord
  2
STANDARD
 70
0
  3

  4

 40
1.0
 41
3.0
 42
0.0625
 43
0.38
 44
0.18
 45
0.0
 46
0.0
 47
0.01
 48
0.01
140
3.0
141
0.09
142
0.0
143
25.4
144
1.0
145
0.0
146
1.0
147
0.09
 71
1.0
 72
0.0
 73
0
 74
0
 75
0
 76
0
 77
1
 78
8
170
0
171
2
172
0
173
0
174
0
175
0
176
0
177
0
178
0
270
2
271
2
272
2
273
2
274
2
275
0
280
0
281
0
282
0
283
1
284
8
285
0
286
0
287
3
288
0
340
11
341
20D
342
20D
343
20D
344
20D
  0
DIMSTYLE
105
211
100
AcDbSymbolTableRecord
100
AcDbDimStyleTableRecord
  2
DIMSTYLE_1
 70
0
  3

  4

 40
1.0
 41
3.0
 42
0.0625
 43
0.38
 44
0.18
 45
0.0
 46
0.0
 47
0.0
 48
0.0
140
3.0
141
0.09
142
0.0
143
25.4
144
1.0
145
0.0
146
1.0
147
0.09
 71
0.0
 72
0.0
 73
0
 74
0
 75
0
 76
0
 77
1
 78
8
170
0
171
2
172
0
173
0
174
0
175
0
176
0
177
0
178
0
270
2
271
2
272
2
273
2
274
2
275
0
280
0
281
0
282
0
283
1
284
8
285
0
286
0
287
3
288
0
340
11
341
20D
342
20D
343
20D
344
20D
  0
ENDTAB
  0
ENDSEC
  0
SECTION
  2
BLOCKS
  0
BLOCK
  5
20
100
AcDbEntity
  8
0
100
AcDbBlockBegin
  2
*Model_Space
 70
0
 10
0.0
 20
0.0
 30
0.0
  3
*Model_Space
  1

  0
ENDBLK
  5
21
100
AcDbEntity
  8
0
100
AcDbBlockEnd
  0
BLOCK
  5
1C
100
AcDbEntity
  8
0
100
AcDbBlockBegin
  2
*Paper_Space
 70
0
 10
0.0
 20
0.0
 30
0.0
  3
*Paper_Space
  1

  0
ENDBLK
  5
1D
100
AcDbEntity
  8
0
100
AcDbBlockEnd
  0
BLOCK
  5
212
100
AcDbEntity
  8
0
100
AcDbBlockBegin
  2
_FILLED
 70
64
 10
0.0
 20
0.0
  3
_FILLED
  1

  0
SOLID
  5
213
100
AcDbEntity
  8
0
  6
BYBLOCK
 62
0
100
AcDbTrace
 10
0.0
 20
0.0
 11
-1.0
 21
0.3166666667
 12
-1.0
 22
-0.3166666667
 13
-1.0
 23
-0.3166666667
  0
ENDBLK
  5
214
100
AcDbEntity
  8
0
  6
BYBLOCK
 62
0
100
AcDbBlockEnd
  0
BLOCK
  5
215
100
AcDbEntity
  8
0
100
AcDbBlockBegin
 62
7
  6
CONTINUOUS
  2
*D0
 70
65
 10
0.0
 20
0.0
  3
*D0
  1

  0
MTEXT
  5
216
100
AcDbEntity
  8
0
100
AcDbMText
 62
7
  6
CONTINUOUS
  7
STANDARD
 71
2
 72
1
 10
-66.5579763557
 20
46.9459587629
 30
0.0
 11
1.0
 21
0.0
 31
0.0
 44
0.9
  1
50
 40
3.0
 41
4.5
  0
LINE
  5
217
100
AcDbEntity
  8
0
100
AcDbLine
 62
7
  6
CONTINUOUS
 10
-41.5579763557
 20
32.9875985478
 11
-41.5579763557
 21
44.6959587629
  0
LINE
  5
218
100
AcDbEntity
  8
0
100
AcDbLine
 62
7
  6
CONTINUOUS
 10
-91.5579763557
 20
32.6959587629
 11
-91.5579763557
 21
44.6959587629
  0
LINE
  5
219
100
AcDbEntity
  8
0
100
AcDbLine
 62
7
  6
CONTINUOUS
 10
-41.5579763557
 20
43.1959587629
 11
-66.5579763557
 21
43.1959587629
  0
LINE
  5
21A
100
AcDbEntity
  8
0
100
AcDbLine
 62
7
  6
CONTINUOUS
 10
-91.5579763557
 20
43.1959587629
 11
-66.5579763557
 21
43.1959587629
  0
INSERT
  5
21B
100
AcDbEntity
  8
0
100
AcDbBlockReference
 62
7
  6
CONTINUOUS
  2
_FILLED
 10
-41.5579763557
 20
43.1959587629
 41
3.0
 42
3.0
 43
3.0
  0
INSERT
  5
21C
100
AcDbEntity
  8
0
100
AcDbBlockReference
 62
7
  6
CONTINUOUS
  2
_FILLED
 10
-91.5579763557
 20
43.1959587629
 41
3.0
 42
3.0
 43
3.0
 50
180.0
  0
ENDBLK
  5
21D
100
AcDbEntity
  8
0
  6
BYBLOCK
 62
0
100
AcDbBlockEnd
  0
BLOCK
  5
21E
100
AcDbEntity
  8
0
100
AcDbBlockBegin
 62
7
  6
CONTINUOUS
  2
*D1
 70
65
 10
0.0
 20
0.0
  3
*D1
  1

  0
MTEXT
  5
21F
100
AcDbEntity
  8
0
100
AcDbMText
 62
7
  6
CONTINUOUS
  7
STANDARD
 71
2
 72
1
 10
5.6828041237
 20
46.9459587629
 30
0.0
 11
1.0
 21
0.0
 31
0.0
 44
0.9
  1
60
 40
3.0
 41
4.7142857143
  0
LINE
  5
220
100
AcDbEntity
  8
0
100
AcDbLine
 62
7
  6
CONTINUOUS
 10
-24.3171958763
 20
0.6959587629
 11
-24.3171958763
 21
44.6959587629
  0
LINE
  5
221
100
AcDbEntity
  8
0
100
AcDbLine
 62
7
  6
CONTINUOUS
 10
35.6828041237
 20
0.6959587629
 11
35.6828041237
 21
44.6959587629
  0
LINE
  5
222
100
AcDbEntity
  8
0
100
AcDbLine
 62
7
  6
CONTINUOUS
 10
-24.3171958763
 20
43.1959587629
 11
5.6828041237
 21
43.1959587629
  0
LINE
  5
223
100
AcDbEntity
  8
0
100
AcDbLine
 62
7
  6
CONTINUOUS
 10
35.6828041237
 20
43.1959587629
 11
5.6828041237
 21
43.1959587629
  0
INSERT
  5
224
100
AcDbEntity
  8
0
100
AcDbBlockReference
 62
7
  6
CONTINUOUS
  2
_FILLED
 10
-24.3171958763
 20
43.1959587629
 41
3.0
 42
3.0
 43
3.0
 50
180.0
  0
INSERT
  5
225
100
AcDbEntity
  8
0
100
AcDbBlockReference
 62
7
  6
CONTINUOUS
  2
_FILLED
 10
35.6828041237
 20
43.1959587629
 41
3.0
 42
3.0
 43
3.0
  0
ENDBLK
  5
226
100
AcDbEntity
  8
0
  6
BYBLOCK
 62
0
100
AcDbBlockEnd
  0
ENDSEC
  0
SECTION
  2
ENTITIES
  0
DIMENSION
  5
227
100
AcDbEntity
  8
0
100
AcDbDimension
 62
7
  6
CONTINUOUS
  2
*D0
 10
-91.5579763557
 20
43.1959587629
 11
-68.8079763557
 21
45.4459587629
 70
160
 71
2
 42
50.0
  3
DIMSTYLE_1
100
AcDbAlignedDimension
 13
-41.5579763557
 23
32.9875985478
 14
-91.5579763557
 24
32.6959587629
 50
180.0
100
AcDbRotatedDimension
  0
DIMENSION
  5
228
100
AcDbEntity
  8
0
100
AcDbDimension
 62
7
  6
CONTINUOUS
  2
*D1
 10
35.6828041237
 20
43.1959587629
 11
3.3256612666
 21
45.4459587629
 70
160
 71
2
 42
60.0
  3
DIMSTYLE_1
100
AcDbAlignedDimension
 13
-24.3171958763
 23
0.6959587629
 14
35.6828041237
 24
0.6959587629
100
AcDbRotatedDimension
  0
LINE
  5
229
100
AcDbEntity
  8
0
100
AcDbLine
 62
7
  6
CONTINUOUS
 10
4.6828041237
 20
18.1681595185
 11
4.4095086571
 21
17.1482069517
  0
LINE
  5
22A
100
AcDbEntity
  8
0
100
AcDbLine
 62
7
  6
CONTINUOUS
 10
4.9328041237
 20
13.6751093296
 11
4.6591925509
 21
12.6539770382
  0
LINE
  5
22B
100
AcDbEntity
  8
0
100
AcDbLine
 62
7
  6
CONTINUOUS
 10
22.6350523125
 20
-1.0773367037
 11
23.6550048793
 21
-0.8040412371
  0
LINE
  5
22C
100
AcDbEntity
  8
0
100
AcDbLine
 62
7
  6
CONTINUOUS
 10
18.140822399
 20
-0.82765281
 11
19.1619546904
 21
-0.5540412371
  0
LINE
  5
22D
100
AcDbEntity
  8
0
100
AcDbLine
 62
7
  6
CONTINUOUS
 10
15.1512864557
 20
-0.5772438815
 11
16.1708926054
 21
-0.3040412371
  0
LINE
  5
22E
100
AcDbEntity
  8
0
100
AcDbLine
 62
7
  6
CONTINUOUS
 10
-12.2893966319
 20
-0.8040412371
 11
-11.2694440651
 21
-1.0773367037
  0
LINE
  5
22F
100
AcDbEntity
  8
0
100
AcDbLine
 62
7
  6
CONTINUOUS
 10
-7.796346443
 20
-0.5540412371
 11
-6.7752141516
 21
-0.82765281
  0
LINE
  5
230
100
AcDbEntity
  8
0
100
AcDbLine
 62
7
  6
CONTINUOUS
 10
-4.805284358
 20
-0.3040412371
 11
-3.7856782082
 21
-0.5772438815
  0
LINE
  5
231
100
AcDbEntity
  8
0
100
AcDbLine
 62
7
  6
CONTINUOUS
 10
4.4095086571
 20
-16.7562894259
 11
4.6828041237
 21
-17.7762419927
  0
LINE
  5
232
100
AcDbEntity
  8
0
100
AcDbLine
 62
7
  6
CONTINUOUS
 10
4.6591925509
 20
-12.2620595124
 11
4.9328041237
 21
-13.2831918038
  0
LINE
  5
233
100
AcDbEntity
  8
0
100
AcDbLine
 62
7
  6
CONTINUOUS
 10
3.9031333371
 20
-34.0237973996
 11
3.9031333371
 21
-33.8816183916
  0
LINE
  5
234
100
AcDbEntity
  8
0
100
AcDbLine
 62
7
  6
CONTINUOUS
 10
3.9031333371
 20
34.273535914
 11
3.9031333371
 21
34.4157149254
  0
LINE
  5
235
100
AcDbEntity
  8
0
100
AcDbLine
 62
7
  6
CONTINUOUS
 10
4.6571627566
 20
-34.7476070869
 11
4.6571627566
 21
-34.6061775092
  0
LINE
  5
236
100
AcDbEntity
  8
0
100
AcDbLine
 62
7
  6
CONTINUOUS
 10
4.6571627566
 20
34.9980952174
 11
4.6571627566
 21
35.1395246127
  0
LINE
  5
237
100
AcDbEntity
  8
0
100
AcDbLine
 62
7
  6
CONTINUOUS
 10
5.9172712077
 20
9.6930649109
 11
6.1828041237
 21
10.6840472446
  0
LINE
  5
238
100
AcDbEntity
  8
0
100
AcDbLine
 62
7
  6
CONTINUOUS
 10
-28.5369520388
 20
-1.5837120238
 11
-28.3947730465
 21
-1.5837120238
  0
LINE
  5
239
100
AcDbEntity
  8
0
100
AcDbLine
 62
7
  6
CONTINUOUS
 10
39.7603812961
 20
-1.5837120238
 11
39.9025602862
 21
-1.5837120238
  0
LINE
  5
23A
100
AcDbEntity
  8
0
100
AcDbLine
 62
7
  6
CONTINUOUS
 10
-29.2607617261
 20
-0.8296826042
 11
-29.1193323264
 21
-0.8296826042
  0
LINE
  5
23B
100
AcDbEntity
  8
0
100
AcDbLine
 62
7
  6
CONTINUOUS
 10
40.4849403923
 20
-0.8296826042
 11
40.6263699735
 21
-0.8296826042
  0
LINE
  5
23C
100
AcDbEntity
  8
0
100
AcDbLine
 62
7
  6
CONTINUOUS
 10
6.1828041237
 20
-10.2921297188
 11
5.9172712077
 21
-9.3011473851
  0
LINE
  5
23D
100
AcDbEntity
  8
0
100
AcDbLine
 62
7
  6
CONTINUOUS
 10
6.7084454908
 20
-34.7476070869
 11
6.7084454908
 21
-34.6061776872
  0
LINE
  5
23E
100
AcDbEntity
  8
0
100
AcDbLine
 62
7
  6
CONTINUOUS
 10
6.7084454908
 20
34.9980950315
 11
6.7084454908
 21
35.1395246127
  0
LINE
  5
23F
100
AcDbEntity
  8
0
100
AcDbLine
 62
7
  6
CONTINUOUS
 10
7.4624749104
 20
-34.0237973996
 11
7.4624749104
 21
-33.8816183827
  0
LINE
  5
240
100
AcDbEntity
  8
0
100
AcDbLine
 62
7
  6
CONTINUOUS
 10
7.4624749104
 20
34.2735359115
 11
7.4624749104
 21
34.4157149254
  0
LINE
  5
241
100
AcDbEntity
  8
0
100
AcDbLine
 62
7
  6
CONTINUOUS
 10
5.4483370397
 20
-9.3011473851
 11
5.1828041237
 21
-10.2921297188
  0
LINE
  5
242
100
AcDbEntity
  8
0
100
AcDbLine
 62
7
  6
CONTINUOUS
 10
-3.7856782082
 20
0.9691614073
 11
-4.805284358
 21
0.6959587629
  0
LINE
  5
243
100
AcDbEntity
  8
0
100
AcDbLine
 62
7
  6
CONTINUOUS
 10
-29.2607617261
 20
1.22160013
 11
-29.1193321483
 21
1.22160013
  0
LINE
  5
244
100
AcDbEntity
  8
0
100
AcDbLine
 62
7
  6
CONTINUOUS
 10
40.4849405782
 20
1.22160013
 11
40.6263699735
 21
1.22160013
  0
LINE
  5
245
100
AcDbEntity
  8
0
100
AcDbLine
 62
7
  6
CONTINUOUS
 10
-28.5369520388
 20
1.9756295495
 11
-28.3947730546
 21
1.9756295495
  0
LINE
  5
246
100
AcDbEntity
  8
0
100
AcDbLine
 62
7
  6
CONTINUOUS
 10
39.7603812995
 20
1.9756295495
 11
39.9025602862
 21
1.9756295495
  0
LINE
  5
247
100
AcDbEntity
  8
0
100
AcDbLine
 62
7
  6
CONTINUOUS
 10
16.1708926054
 20
0.6959587629
 11
15.1512864557
 21
0.9691614073
  0
LINE
  5
248
100
AcDbEntity
  8
0
100
AcDbLine
 62
7
  6
CONTINUOUS
 10
5.1828041237
 20
10.6840472446
 11
5.4483370397
 21
9.6930649109
  0
LINE
  5
249
100
AcDbEntity
  8
0
100
AcDbLine
 62
7
  6
CONTINUOUS
 10
6.4328041237
 20
-13.2831918038
 11
6.7064156966
 21
-12.2620595124
  0
LINE
  5
24A
100
AcDbEntity
  8
0
100
AcDbLine
 62
7
  6
CONTINUOUS
 10
6.6828041237
 20
-17.7762419927
 11
6.9560995903
 21
-16.7562894259
  0
LINE
  5
24B
100
AcDbEntity
  8
0
100
AcDbLine
 62
7
  6
CONTINUOUS
 10
-6.7752141516
 20
1.2195703357
 11
-7.796346443
 21
0.9459587629
  0
LINE
  5
24C
100
AcDbEntity
  8
0
100
AcDbLine
 62
7
  6
CONTINUOUS
 10
-11.2694440651
 20
1.4692542295
 11
-12.2893966319
 21
1.1959587629
  0
LINE
  5
24D
100
AcDbEntity
  8
0
100
AcDbLine
 62
7
  6
CONTINUOUS
 10
19.1619546904
 20
0.9459587629
 11
18.140822399
 21
1.2195703357
  0
LINE
  5
24E
100
AcDbEntity
  8
0
100
AcDbLine
 62
7
  6
CONTINUOUS
 10
23.6550048793
 20
1.1959587629
 11
22.6350523125
 21
1.4692542295
  0
LINE
  5
24F
100
AcDbEntity
  8
0
100
AcDbLine
 62
7
  6
CONTINUOUS
 10
6.7064156966
 20
12.6539770382
 11
6.4328041237
 21
13.6751093296
  0
LINE
  5
250
100
AcDbEntity
  8
0
100
AcDbLine
 62
7
  6
CONTINUOUS
 10
6.9560995903
 20
17.1482069517
 11
6.6828041237
 21
18.1681595185
  0
LINE
  5
251
100
AcDbEntity
  8
0
100
AcDbLine
 62
7
  6
CONTINUOUS
 10
-62.2079763557
 20
-34.8040412371
 11
-41.5579763557
 21
-34.8040412371
  0
LINE
  5
252
100
AcDbEntity
  8
0
100
AcDbLine
 62
7
  6
CONTINUOUS
 10
-42.5579763557
 20
-34.7960046001
 11
-41.5579763557
 21
-34.7960046001
  0
LINE
  5
253
100
AcDbEntity
  8
0
100
AcDbLine
 62
7
  6
CONTINUOUS
 10
-41.5579763557
 20
-33.9958165639
 11
-42.5579763557
 21
-33.9958165639
  0
LINE
  5
254
100
AcDbEntity
  8
ASSI
100
AcDbLine
 62
7
  6
CONTINUOUS
 10
-53.0579763557
 20
-33.4900917625
 11
-43.5866839423
 21
-33.4900917625
  0
LINE
  5
255
100
AcDbEntity
  8
0
100
AcDbLine
 62
7
  6
CONTINUOUS
 10
-53.0579763557
 20
-33.1919132867
 11
-41.5579763557
 21
-33.1919132867
  0
LINE
  5
256
100
AcDbEntity
  8
0
100
AcDbLine
 62
7
  6
CONTINUOUS
 10
-55.0579763557
 20
-32.4957833137
 11
-41.5579763557
 21
-32.4957833137
  0
LINE
  5
257
100
AcDbEntity
  8
0
100
AcDbLine
 62
7
  6
CONTINUOUS
 10
-55.0579763557
 20
-32.095681022
 11
-41.5579763557
 21
-32.095681022
  0
LINE
  5
258
100
AcDbEntity
  8
0
100
AcDbLine
 62
7
  6
CONTINUOUS
 10
-91.5579763557
 20
-31.8040412371
 11
-83.5540855228
 21
-31.8040412371
  0
LINE
  5
259
100
AcDbEntity
  8
0
100
AcDbLine
 62
7
  6
CONTINUOUS
 10
-83.5540855228
 20
-31.8040412371
 11
-62.2079763557
 21
-34.8040412371
  0
LINE
  5
25A
100
AcDbEntity
  8
0
100
AcDbLine
 62
7
  6
CONTINUOUS
 10
-91.5579763557
 20
-31.8040412371
 11
-91.5579763557
 21
32.1959587629
  0
LINE
  5
25B
100
AcDbEntity
  8
0
100
AcDbLine
 62
7
  6
CONTINUOUS
 10
-83.5540855228
 20
-31.8040412371
 11
-83.5540855228
 21
32.1959587629
  0
LINE
  5
25C
100
AcDbEntity
  8
RACCORDO
100
AcDbLine
 62
7
  6
CONTINUOUS
 10
-41.5579763557
 20
-17.7921490324
 11
-40.3579763557
 21
-17.7921490324
  0
LINE
  5
25D
100
AcDbEntity
  8
RACCORDO
100
AcDbLine
 62
253
  6
CONTINUOUS
 10
-41.5579763557
 20
-17.7853366805
 11
-40.3579763557
 21
-17.7853366805
  0
LINE
  5
25E
100
AcDbEntity
  8
RACCORDO
100
AcDbLine
 62
253
  6
CONTINUOUS
 10
-40.3579763557
 20
-17.7006406077
 11
-41.5579763557
 21
-17.7006406077
  0
LINE
  5
25F
100
AcDbEntity
  8
RACCORDO
100
AcDbLine
 62
253
  6
CONTINUOUS
 10
-40.3579763557
 20
-17.4407835951
 11
-41.5579763557
 21
-17.4407835951
  0
LINE
  5
260
100
AcDbEntity
  8
RACCORDO
100
AcDbLine
 62
253
  6
CONTINUOUS
 10
-40.3579763557
 20
-16.8863829963
 11
-41.5579763557
 21
-16.8863829963
  0
LINE
  5
261
100
AcDbEntity
  8
RACCORDO
100
AcDbLine
 62
253
  6
CONTINUOUS
 10
-40.3579763557
 20
-16.5120091578
 11
-41.5579763557
 21
-16.5120091578
  0
LINE
  5
262
100
AcDbEntity
  8
ASSI
100
AcDbLine
 62
7
  6
CONTINUOUS
 10
-55.0579763557
 20
-13.3040412371
 11
-41.5579763557
 21
-13.3040412371
  0
LINE
  5
263
100
AcDbEntity
  8
ASSI
100
AcDbLine
 62
7
  6
CONTINUOUS
 10
-55.0579763557
 20
-12.3040412371
 11
-41.5579763557
 21
-12.3040412371
  0
LINE
  5
264
100
AcDbEntity
  8
RACCORDO
100
AcDbLine
 62
253
  6
CONTINUOUS
 10
-41.5579763557
 20
-10.4287204304
 11
-40.3579763557
 21
-10.4287204304
  0
LINE
  5
265
100
AcDbEntity
  8
ASSI
100
AcDbLine
 62
7
  6
CONTINUOUS
 10
-53.0579763557
 20
-10.3040412371
 11
-41.5579763557
 21
-10.3040412371
  0
LINE
  5
266
100
AcDbEntity
  8
RACCORDO
100
AcDbLine
 62
253
  6
CONTINUOUS
 10
-41.5579763557
 20
-10.1386008405
 11
-40.3579763557
 21
-10.1386008405
  0
LINE
  5
267
100
AcDbEntity
  8
RACCORDO
100
AcDbLine
 62
253
  6
CONTINUOUS
 10
-40.3579763557
 20
-9.9584651663
 11
-41.5579763557
 21
-9.9584651663
  0
LINE
  5
268
100
AcDbEntity
  8
ASSI
100
AcDbLine
 62
7
  6
CONTINUOUS
 10
-41.5579763557
 20
-9.9486764696
 11
-40.2820844656
 21
-9.9486764696
  0
LINE
  5
269
100
AcDbEntity
  8
ASSI
100
AcDbLine
 62
7
  6
CONTINUOUS
 10
-53.0579763557
 20
-9.3040412371
 11
-43.5866839423
 21
-9.3040412371
  0
LINE
  5
26A
100
AcDbEntity
  8
ASSI
100
AcDbLine
 62
7
  6
CONTINUOUS
 10
-42.5579763557
 20
-0.5540412371
 11
-43.5866839423
 21
-0.8296826042
  0
LINE
  5
26B
100
AcDbEntity
  8
0
100
AcDbLine
 62
7
  6
CONTINUOUS
 10
-67.4306386355
 20
-34.0237973996
 11
-67.4306386355
 21
-33.6417695718
  0
LINE
  5
26C
100
AcDbEntity
  8
0
100
AcDbLine
 62
7
  6
CONTINUOUS
 10
-67.4306386355
 20
34.0336870832
 11
-67.4306386355
 21
34.4157149254
  0
LINE
  5
26D
100
AcDbEntity
  8
ASSI
100
AcDbLine
 62
7
  6
CONTINUOUS
 10
-62.5024488018
 20
1.22160013
 11
-63.5311563885
 21
0.9459587629
  0
LINE
  5
26E
100
AcDbEntity
  8
ASSI
100
AcDbLine
 62
7
  6
CONTINUOUS
 10
-42.5579763557
 20
-0.5540412371
 11
-41.5579763557
 21
-0.5540412371
  0
LINE
  5
26F
100
AcDbEntity
  8
ASSI
100
AcDbLine
 62
7
  6
CONTINUOUS
 10
-68.4743842207
 20
-1.3040412371
 11
-67.4306386355
 21
-1.5837120238
  0
LINE
  5
270
100
AcDbEntity
  8
ASSI
100
AcDbLine
 62
7
  6
CONTINUOUS
 10
-63.5311563885
 20
-0.5540412371
 11
-62.5024488018
 21
-0.8296826042
  0
LINE
  5
271
100
AcDbEntity
  8
ASSI
100
AcDbLine
 62
7
  6
CONTINUOUS
 10
-67.4306386355
 20
1.9756295495
 11
-68.4743842207
 21
1.6959587629
  0
LINE
  5
272
100
AcDbEntity
  8
ASSI
100
AcDbLine
 62
7
  6
CONTINUOUS
 10
-42.5579763557
 20
0.9459587629
 11
-41.5579763557
 21
0.9459587629
  0
LINE
  5
273
100
AcDbEntity
  8
0
100
AcDbLine
 62
7
  6
CONTINUOUS
 10
-62.5024488018
 20
-34.7476070869
 11
-62.5024488018
 21
-34.4602681179
  0
LINE
  5
274
100
AcDbEntity
  8
0
100
AcDbLine
 62
7
  6
CONTINUOUS
 10
-62.5024488018
 20
34.852185628
 11
-62.5024488018
 21
35.1395246127
  0
LINE
  5
275
100
AcDbEntity
  8
ASSI
100
AcDbLine
 62
7
  6
CONTINUOUS
 10
-62.2079763557
 20
-34.8040412371
 11
-62.2079763557
 21
-34.7106666827
  0
LINE
  5
276
100
AcDbEntity
  8
ASSI
100
AcDbLine
 62
7
  6
CONTINUOUS
 10
-62.2079763557
 20
-34.4230028044
 11
-62.2079763557
 21
-33.2685373487
  0
LINE
  5
277
100
AcDbEntity
  8
ASSI
100
AcDbLine
 62
7
  6
CONTINUOUS
 10
-62.2079763557
 20
-32.8777845995
 11
-62.2079763557
 21
-11.2551328881
  0
LINE
  5
278
100
AcDbEntity
  8
ASSI
100
AcDbLine
 62
7
  6
CONTINUOUS
 10
-62.2079763557
 20
-10.0572114786
 11
-62.2079763557
 21
-4.9545266511
  0
LINE
  5
279
100
AcDbEntity
  8
ASSI
100
AcDbLine
 62
7
  6
CONTINUOUS
 10
-62.2079763557
 20
-2.3589384953
 11
-62.2079763557
 21
2.7508560211
  0
LINE
  5
27A
100
AcDbEntity
  8
ASSI
100
AcDbLine
 62
7
  6
CONTINUOUS
 10
-62.2079763557
 20
5.3464441769
 11
-62.2079763557
 21
10.4491290043
  0
LINE
  5
27B
100
AcDbEntity
  8
ASSI
100
AcDbLine
 62
7
  6
CONTINUOUS
 10
-62.2079763557
 20
11.6470504139
 11
-62.2079763557
 21
33.2697021253
  0
LINE
  5
27C
100
AcDbEntity
  8
ASSI
100
AcDbLine
 62
7
  6
CONTINUOUS
 10
-62.2079763557
 20
33.6604548744
 11
-62.2079763557
 21
34.8149203302
  0
LINE
  5
27D
100
AcDbEntity
  8
ASSI
100
AcDbLine
 62
7
  6
CONTINUOUS
 10
-62.2079763557
 20
35.1025842085
 11
-62.2079763557
 21
35.1959587629
  0
LINE
  5
27E
100
AcDbEntity
  8
ASSI
100
AcDbLine
 62
7
  6
CONTINUOUS
 10
-43.5866839423
 20
1.22160013
 11
-42.5579763557
 21
0.9459587629
  0
LINE
  5
27F
100
AcDbEntity
  8
ASSI
100
AcDbLine
 62
253
  6
CONTINUOUS
 10
-55.0579763557
 20
-32.4957833137
 11
-55.0579763557
 21
-32.095681022
  0
LINE
  5
280
100
AcDbEntity
  8
ASSI
100
AcDbLine
 62
253
  6
CONTINUOUS
 10
-55.0579763557
 20
32.4875985478
 11
-55.0579763557
 21
32.8877008394
  0
LINE
  5
281
100
AcDbEntity
  8
ASSI
100
AcDbLine
 62
7
  6
CONTINUOUS
 10
-53.0579763557
 20
9.6959587629
 11
-43.5866839423
 21
9.6959587629
  0
LINE
  5
282
100
AcDbEntity
  8
ASSI
100
AcDbLine
 62
7
  6
CONTINUOUS
 10
-41.5579763557
 20
10.3405939954
 11
-40.2820844656
 21
10.3405939954
  0
LINE
  5
283
100
AcDbEntity
  8
RACCORDO
100
AcDbLine
 62
253
  6
CONTINUOUS
 10
-40.3579763557
 20
10.5127593752
 11
-41.5579763557
 21
10.5127593752
  0
LINE
  5
284
100
AcDbEntity
  8
ASSI
100
AcDbLine
 62
7
  6
CONTINUOUS
 10
-53.0579763557
 20
10.6959587629
 11
-41.5579763557
 21
10.6959587629
  0
LINE
  5
285
100
AcDbEntity
  8
RACCORDO
100
AcDbLine
 62
253
  6
CONTINUOUS
 10
-40.3579763557
 20
11.1154032472
 11
-41.5579763557
 21
11.1154032472
  0
LINE
  5
286
100
AcDbEntity
  8
RACCORDO
100
AcDbLine
 62
253
  6
CONTINUOUS
 10
-40.3579763557
 20
11.5890100744
 11
-41.5579763557
 21
11.5890100744
  0
LINE
  5
287
100
AcDbEntity
  8
0
100
AcDbLine
 62
253
  6
CONTINUOUS
 10
-53.0579763557
 20
-33.4900917625
 11
-53.0579763557
 21
-33.1919132867
  0
LINE
  5
288
100
AcDbEntity
  8
0
100
AcDbLine
 62
253
  6
CONTINUOUS
 10
-53.0579763557
 20
33.5838308125
 11
-53.0579763557
 21
33.8820092883
  0
LINE
  5
289
100
AcDbEntity
  8
ASSI
100
AcDbLine
 62
7
  6
CONTINUOUS
 10
-55.0579763557
 20
12.6959587629
 11
-41.5579763557
 21
12.6959587629
  0
LINE
  5
28A
100
AcDbEntity
  8
ASSI
100
AcDbLine
 62
7
  6
CONTINUOUS
 10
-55.0579763557
 20
13.6959587629
 11
-41.5579763557
 21
13.6959587629
  0
LINE
  5
28B
100
AcDbEntity
  8
RACCORDO
100
AcDbLine
 62
253
  6
CONTINUOUS
 10
-41.5579763557
 20
18.0743921902
 11
-40.3579763557
 21
18.0743921902
  0
LINE
  5
28C
100
AcDbEntity
  8
RACCORDO
100
AcDbLine
 62
7
  6
CONTINUOUS
 10
-41.5579763557
 20
18.1840665581
 11
-40.3579763557
 21
18.1840665581
  0
LINE
  5
28D
100
AcDbEntity
  8
ASSI
100
AcDbLine
 62
7
  6
CONTINUOUS
 10
-43.5866839423
 20
35.180927818
 11
-43.5866839423
 21
33.8820092883
  0
LINE
  5
28E
100
AcDbEntity
  8
ASSI
100
AcDbLine
 62
7
  6
CONTINUOUS
 10
-43.5866839423
 20
9.6959587629
 11
-43.5866839423
 21
1.22160013
  0
LINE
  5
28F
100
AcDbEntity
  8
ASSI
100
AcDbLine
 62
7
  6
CONTINUOUS
 10
-43.5866839423
 20
-0.8296826042
 11
-43.5866839423
 21
-9.3040412371
  0
LINE
  5
290
100
AcDbEntity
  8
0
100
AcDbLine
 62
7
  6
CONTINUOUS
 10
-43.5866839423
 20
-33.4900917625
 11
-43.5866839423
 21
-33.1919132867
  0
LINE
  5
291
100
AcDbEntity
  8
ASSI
100
AcDbLine
 62
7
  6
CONTINUOUS
 10
-43.5866839423
 20
-33.4900917625
 11
-43.5866839423
 21
-34.7890102922
  0
LINE
  5
292
100
AcDbEntity
  8
0
100
AcDbLine
 62
7
  6
CONTINUOUS
 10
-43.5866839423
 20
33.5838308125
 11
-43.5866839423
 21
33.8820092883
  0
LINE
  5
293
100
AcDbEntity
  8
0
100
AcDbLine
 62
7
  6
CONTINUOUS
 10
-42.5579763557
 20
35.1879221259
 11
-42.5579763557
 21
33.5838308125
  0
LINE
  5
294
100
AcDbEntity
  8
0
100
AcDbLine
 62
7
  6
CONTINUOUS
 10
-42.5579763557
 20
32.8877008394
 11
-42.5579763557
 21
32.4875985478
  0
LINE
  5
295
100
AcDbEntity
  8
ASSI
100
AcDbLine
 62
7
  6
CONTINUOUS
 10
-42.5579763557
 20
13.6959587629
 11
-42.5579763557
 21
12.6959587629
  0
LINE
  5
296
100
AcDbEntity
  8
0
100
AcDbLine
 62
7
  6
CONTINUOUS
 10
-42.5579763557
 20
10.6959587629
 11
-42.5579763557
 21
0.9459587629
  0
LINE
  5
297
100
AcDbEntity
  8
0
100
AcDbLine
 62
7
  6
CONTINUOUS
 10
-42.5579763557
 20
-0.5540412371
 11
-42.5579763557
 21
-10.3040412371
  0
LINE
  5
298
100
AcDbEntity
  8
ASSI
100
AcDbLine
 62
7
  6
CONTINUOUS
 10
-42.5579763557
 20
-12.3040412371
 11
-42.5579763557
 21
-13.3040412371
  0
LINE
  5
299
100
AcDbEntity
  8
0
100
AcDbLine
 62
7
  6
CONTINUOUS
 10
-42.5579763557
 20
-32.095681022
 11
-42.5579763557
 21
-32.4957833137
  0
LINE
  5
29A
100
AcDbEntity
  8
0
100
AcDbLine
 62
7
  6
CONTINUOUS
 10
-42.5579763557
 20
-33.1919132867
 11
-42.5579763557
 21
-34.7960046001
  0
LINE
  5
29B
100
AcDbEntity
  8
0
100
AcDbLine
 62
7
  6
CONTINUOUS
 10
-41.5579763557
 20
-13.3040412371
 11
-41.5579763557
 21
-34.8040412371
  0
LINE
  5
29C
100
AcDbEntity
  8
ASSI
100
AcDbLine
 62
7
  6
CONTINUOUS
 10
-41.5579763557
 20
-13.3040412371
 11
-41.5579763557
 21
13.6959587629
  0
LINE
  5
29D
100
AcDbEntity
  8
0
100
AcDbLine
 62
7
  6
CONTINUOUS
 10
-41.5579763557
 20
13.6959587629
 11
-41.5579763557
 21
35.1959587629
  0
LINE
  5
29E
100
AcDbEntity
  8
RACCORDO
100
AcDbLine
 62
253
  6
CONTINUOUS
 10
-40.3579763557
 20
18.1840665581
 11
-40.3579763557
 21
10.5127593752
  0
LINE
  5
29F
100
AcDbEntity
  8
RACCORDO
100
AcDbLine
 62
253
  6
CONTINUOUS
 10
-40.3579763557
 20
-9.9584651663
 11
-40.3579763557
 21
-17.4407835951
  0
LINE
  5
2A0
100
AcDbEntity
  8
RACCORDO
100
AcDbLine
 62
253
  6
CONTINUOUS
 10
-40.3579763557
 20
-17.7006406077
 11
-40.3579763557
 21
-17.7921490324
  0
LINE
  5
2A1
100
AcDbEntity
  8
RACCORDO
100
AcDbLine
 62
7
  6
CONTINUOUS
 10
-40.0579763557
 20
17.884065373
 11
-40.0579763557
 21
10.6725268583
  0
LINE
  5
2A2
100
AcDbEntity
  8
RACCORDO
100
AcDbLine
 62
7
  6
CONTINUOUS
 10
-40.0579763557
 20
-10.2806093326
 11
-40.0579763557
 21
-17.4921478472
  0
LINE
  5
2A3
100
AcDbEntity
  8
0
100
AcDbLine
 62
7
  6
CONTINUOUS
 10
-91.5579763557
 20
32.1959587629
 11
-83.5540855228
 21
32.1959587629
  0
LINE
  5
2A4
100
AcDbEntity
  8
0
100
AcDbLine
 62
7
  6
CONTINUOUS
 10
-83.5540855228
 20
32.1959587629
 11
-62.2079763557
 21
35.1959587629
  0
LINE
  5
2A5
100
AcDbEntity
  8
0
100
AcDbLine
 62
7
  6
CONTINUOUS
 10
-55.0579763557
 20
32.4875985478
 11
-41.5579763557
 21
32.4875985478
  0
LINE
  5
2A6
100
AcDbEntity
  8
0
100
AcDbLine
 62
7
  6
CONTINUOUS
 10
-55.0579763557
 20
32.8877008394
 11
-41.5579763557
 21
32.8877008394
  0
LINE
  5
2A7
100
AcDbEntity
  8
0
100
AcDbLine
 62
7
  6
CONTINUOUS
 10
-53.0579763557
 20
33.5838308125
 11
-41.5579763557
 21
33.5838308125
  0
LINE
  5
2A8
100
AcDbEntity
  8
ASSI
100
AcDbLine
 62
7
  6
CONTINUOUS
 10
-53.0579763557
 20
33.8820092883
 11
-43.5866839423
 21
33.8820092883
  0
LINE
  5
2A9
100
AcDbEntity
  8
0
100
AcDbLine
 62
7
  6
CONTINUOUS
 10
-41.5579763557
 20
34.3877340897
 11
-42.5579763557
 21
34.3877340897
  0
LINE
  5
2AA
100
AcDbEntity
  8
0
100
AcDbLine
 62
7
  6
CONTINUOUS
 10
-42.5579763557
 20
35.1879221259
 11
-41.5579763557
 21
35.1879221259
  0
LINE
  5
2AB
100
AcDbEntity
  8
0
100
AcDbLine
 62
7
  6
CONTINUOUS
 10
-62.2079763557
 20
35.1959587629
 11
-41.5579763557
 21
35.1959587629
  0
ARC
  5
2AC
100
AcDbEntity
  8
ASSI
100
AcDbCircle
 62
7
  6
CONTINUOUS
 10
-36.1570164451
 20
0.1312446743
 40
76.7911235035
100
AcDbArc
 50
0.8135687934
 51
1.9549364493
  0
ARC
  5
2AD
100
AcDbEntity
  8
ASSI
100
AcDbCircle
 62
7
  6
CONTINUOUS
 10
5.5937104661
 20
-42.6530462455
 40
77.8005749128
100
AcDbArc
 50
88.0524732042
 51
89.1790316166
  0
CIRCLE
  5
2AE
100
AcDbEntity
  8
ASSI
100
AcDbCircle
 62
7
  6
CONTINUOUS
 10
5.6828041237
 20
0.1959587629
 40
35.0
  0
CIRCLE
  5
2AF
100
AcDbEntity
  8
0
100
AcDbCircle
 62
7
  6
CONTINUOUS
 10
5.6828041237
 20
0.1959587629
 40
32.0
  0
CIRCLE
  5
2B0
100
AcDbEntity
  8
RACCORDO
100
AcDbCircle
 62
253
  6
CONTINUOUS
 10
5.6828041237
 20
0.1959587629
 40
31.5
  0
CIRCLE
  5
2B1
100
AcDbEntity
  8
RACCORDO
100
AcDbCircle
 62
7
  6
CONTINUOUS
 10
5.6828041237
 20
0.1959587629
 40
30.0
  0
ARC
  5
2B2
100
AcDbEntity
  8
ASSI
100
AcDbCircle
 62
7
  6
CONTINUOUS
 10
5.6828041237
 20
0.1959587629
 40
21.3
100
AcDbArc
 50
302.4497572827
 51
327.5502427173
  0
ARC
  5
2B3
100
AcDbEntity
  8
ASSI
100
AcDbCircle
 62
7
  6
CONTINUOUS
 10
5.6828041237
 20
0.1959587629
 40
21.3
100
AcDbArc
 50
122.4497572827
 51
147.5502427173
  0
ARC
  5
2B4
100
AcDbEntity
  8
ASSI
100
AcDbCircle
 62
7
  6
CONTINUOUS
 10
5.6828041237
 20
0.1959587629
 40
19.7019511731
100
AcDbArc
 50
302.4497572827
 51
327.5502427173
  0
ARC
  5
2B5
100
AcDbEntity
  8
ASSI
100
AcDbCircle
 62
7
  6
CONTINUOUS
 10
5.6828041237
 20
0.1959587629
 40
19.7019511731
100
AcDbArc
 50
122.4497572827
 51
147.5502427173
  0
ARC
  5
2B6
100
AcDbEntity
  8
0
100
AcDbCircle
 62
7
  6
CONTINUOUS
 10
5.6828041237
 20
0.1959587629
 40
18.0
100
AcDbArc
 50
93.1847385367
 51
176.8152614633
  0
ARC
  5
2B7
100
AcDbEntity
  8
0
100
AcDbCircle
 62
7
  6
CONTINUOUS
 10
5.6828041237
 20
0.1959587629
 40
18.0
100
AcDbArc
 50
183.1847385367
 51
266.8152614633
  0
ARC
  5
2B8
100
AcDbEntity
  8
0
100
AcDbCircle
 62
7
  6
CONTINUOUS
 10
5.6828041237
 20
0.1959587629
 40
18.0
100
AcDbArc
 50
273.1847385367
 51
356.8152614633
  0
ARC
  5
2B9
100
AcDbEntity
  8
0
100
AcDbCircle
 62
7
  6
CONTINUOUS
 10
5.6828041237
 20
0.1959587629
 40
18.0
100
AcDbArc
 50
3.1847385367
 51
86.8152614633
  0
ARC
  5
2BA
100
AcDbEntity
  8
0
100
AcDbCircle
 62
7
  6
CONTINUOUS
 10
5.6828041237
 20
0.1959587629
 40
17.0
100
AcDbArc
 50
94.2954612435
 51
175.7045387565
  0
ARC
  5
2BB
100
AcDbEntity
  8
0
100
AcDbCircle
 62
7
  6
CONTINUOUS
 10
5.6828041237
 20
0.1959587629
 40
17.0
100
AcDbArc
 50
184.2954612435
 51
265.7045387565
  0
ARC
  5
2BC
100
AcDbEntity
  8
0
100
AcDbCircle
 62
7
  6
CONTINUOUS
 10
5.6828041237
 20
0.1959587629
 40
17.0
100
AcDbArc
 50
274.2954612435
 51
355.7045387565
  0
ARC
  5
2BD
100
AcDbEntity
  8
0
100
AcDbCircle
 62
7
  6
CONTINUOUS
 10
5.6828041237
 20
0.1959587629
 40
17.0
100
AcDbArc
 50
4.2954612435
 51
85.7045387565
  0
ARC
  5
2BE
100
AcDbEntity
  8
0
100
AcDbCircle
 62
7
  6
CONTINUOUS
 10
5.6828041237
 20
0.1959587629
 40
13.5
100
AcDbArc
 50
93.1847385367
 51
176.8152614633
  0
ARC
  5
2BF
100
AcDbEntity
  8
0
100
AcDbCircle
 62
7
  6
CONTINUOUS
 10
5.6828041237
 20
0.1959587629
 40
13.5
100
AcDbArc
 50
183.1847385367
 51
266.8152614633
  0
ARC
  5
2C0
100
AcDbEntity
  8
0
100
AcDbCircle
 62
7
  6
CONTINUOUS
 10
5.6828041237
 20
0.1959587629
 40
13.5
100
AcDbArc
 50
273.1847385367
 51
356.8152614633
  0
ARC
  5
2C1
100
AcDbEntity
  8
0
100
AcDbCircle
 62
7
  6
CONTINUOUS
 10
5.6828041237
 20
0.1959587629
 40
13.5
100
AcDbArc
 50
3.1847385367
 51
86.8152614633
  0
ARC
  5
2C2
100
AcDbEntity
  8
0
100
AcDbCircle
 62
7
  6
CONTINUOUS
 10
5.6828041237
 20
0.1959587629
 40
12.5
100
AcDbArc
 50
94.6971495355
 51
175.3028504645
  0
ARC
  5
2C3
100
AcDbEntity
  8
0
100
AcDbCircle
 62
7
  6
CONTINUOUS
 10
5.6828041237
 20
0.1959587629
 40
12.5
100
AcDbArc
 50
184.6971495355
 51
265.3028504645
  0
ARC
  5
2C4
100
AcDbEntity
  8
0
100
AcDbCircle
 62
7
  6
CONTINUOUS
 10
5.6828041237
 20
0.1959587629
 40
12.5
100
AcDbArc
 50
274.6971495355
 51
355.3028504645
  0
ARC
  5
2C5
100
AcDbEntity
  8
0
100
AcDbCircle
 62
7
  6
CONTINUOUS
 10
5.6828041237
 20
0.1959587629
 40
12.5
100
AcDbArc
 50
4.6971495355
 51
85.3028504645
  0
ARC
  5
2C6
100
AcDbEntity
  8
0
100
AcDbCircle
 62
7
  6
CONTINUOUS
 10
5.6828041237
 20
0.1959587629
 40
10.5
100
AcDbArc
 50
92.7294026368
 51
177.2705973632
  0
ARC
  5
2C7
100
AcDbEntity
  8
0
100
AcDbCircle
 62
7
  6
CONTINUOUS
 10
5.6828041237
 20
0.1959587629
 40
10.5
100
AcDbArc
 50
182.7294026368
 51
267.2705973632
  0
ARC
  5
2C8
100
AcDbEntity
  8
0
100
AcDbCircle
 62
7
  6
CONTINUOUS
 10
5.6828041237
 20
0.1959587629
 40
10.5
100
AcDbArc
 50
2.7294026368
 51
87.2705973632
  0
ARC
  5
2C9
100
AcDbEntity
  8
0
100
AcDbCircle
 62
7
  6
CONTINUOUS
 10
5.6828041237
 20
0.1959587629
 40
10.5
100
AcDbArc
 50
272.7294026368
 51
357.2705973632
  0
ARC
  5
2CA
100
AcDbEntity
  8
0
100
AcDbCircle
 62
7
  6
CONTINUOUS
 10
5.6828041237
 20
0.1959587629
 40
9.5
100
AcDbArc
 50
91.4142461664
 51
175.331546806
  0
ARC
  5
2CB
100
AcDbEntity
  8
0
100
AcDbCircle
 62
7
  6
CONTINUOUS
 10
5.6828041237
 20
0.1959587629
 40
9.5
100
AcDbArc
 50
184.668453194
 51
268.5857538336
  0
ARC
  5
2CC
100
AcDbEntity
  8
0
100
AcDbCircle
 62
7
  6
CONTINUOUS
 10
5.6828041237
 20
0.1959587629
 40
9.5
100
AcDbArc
 50
4.668453194
 51
88.5857538336
  0
ARC
  5
2CD
100
AcDbEntity
  8
0
100
AcDbCircle
 62
7
  6
CONTINUOUS
 10
5.6828041237
 20
0.1959587629
 40
9.5
100
AcDbArc
 50
271.4142461664
 51
355.331546806
  0
CIRCLE
  5
2CE
100
AcDbEntity
  8
0
100
AcDbCircle
 62
7
  6
CONTINUOUS
 10
5.6828041237
 20
0.1959587629
 40
2.55
  0
ARC
  5
2CF
100
AcDbEntity
  8
ASSI
100
AcDbCircle
 62
7
  6
CONTINUOUS
 10
-37.166200899
 20
0.2850518029
 40
77.8005749126
100
AcDbArc
 50
358.0524736591
 51
359.1790320716
  0
ARC
  5
2D0
100
AcDbEntity
  8
ASSI
100
AcDbCircle
 62
7
  6
CONTINUOUS
 10
5.6180895914
 20
42.0357777279
 40
76.7911219114
100
AcDbArc
 50
270.8135691414
 51
271.954936821
  0
ARC
  5
2D1
100
AcDbEntity
  8
ASSI
100
AcDbCircle
 62
7
  6
CONTINUOUS
 10
-11.6171958763
 20
11.1959587629
 40
0.7990244135
100
AcDbArc
 50
147.5502427173
 51
327.5502427173
  0
ARC
  5
2D2
100
AcDbEntity
  8
ASSI
100
AcDbCircle
 62
7
  6
CONTINUOUS
 10
-5.3171958763
 20
17.4959587629
 40
0.7990244135
100
AcDbArc
 50
302.4497572827
 51
122.4497572827
  0
ARC
  5
2D3
100
AcDbEntity
  8
ASSI
100
AcDbCircle
 62
7
  6
CONTINUOUS
 10
48.5318115154
 20
0.1068655957
 40
77.8005772839
100
AcDbArc
 50
178.0524736248
 51
179.1790320029
  0
ARC
  5
2D4
100
AcDbEntity
  8
ASSI
100
AcDbCircle
 62
7
  6
CONTINUOUS
 10
5.747518739
 20
-41.6438617926
 40
76.7911235033
100
AcDbArc
 50
90.8135691865
 51
91.9549368424
  0
ARC
  5
2D5
100
AcDbEntity
  8
ASSI
100
AcDbCircle
 62
7
  6
CONTINUOUS
 10
22.9828041237
 20
-10.8040412371
 40
0.7990244135
100
AcDbArc
 50
327.5502427173
 51
147.5502427173
  0
ARC
  5
2D6
100
AcDbEntity
  8
ASSI
100
AcDbCircle
 62
7
  6
CONTINUOUS
 10
16.6828041237
 20
-17.1040412371
 40
0.7990244135
100
AcDbArc
 50
122.4497572827
 51
302.4497572827
  0
ARC
  5
2D7
100
AcDbEntity
  8
ASSI
100
AcDbCircle
 62
7
  6
CONTINUOUS
 10
5.7718978427
 20
43.0449661418
 40
77.800577284
100
AcDbArc
 50
268.0524732184
 51
269.1790315965
  0
ARC
  5
2D8
100
AcDbEntity
  8
ASSI
100
AcDbCircle
 62
7
  6
CONTINUOUS
 10
47.5226231024
 20
0.2606727397
 40
76.7911219112
100
AcDbArc
 50
180.8135687269
 51
181.9549364064
  0
ARC
  5
2D9
100
AcDbEntity
  8
ASSI
100
AcDbCircle
 62
7
  6
CONTINUOUS
 10
-57.8552842413
 20
70.3857445468
 40
35.8361616131
100
AcDbArc
 50
260.8868944867
 51
263.0235749909
  0
ARC
  5
2DA
100
AcDbEntity
  8
ASSI
100
AcDbCircle
 62
7
  6
CONTINUOUS
 10
-57.8552843339
 20
-69.9938263371
 40
35.8361609231
100
AcDbArc
 50
96.976424995
 51
99.1131055404
  0
ARC
  5
2DB
100
AcDbEntity
  8
ASSI
100
AcDbCircle
 62
7
  6
CONTINUOUS
 10
-57.9204339873
 20
-70.0811723883
 40
35.6294218167
100
AcDbArc
 50
96.9115597222
 51
97.3888145741
  0
ARC
  5
2DC
100
AcDbEntity
  8
ASSI
100
AcDbCircle
 62
7
  6
CONTINUOUS
 10
-57.9235530582
 20
70.4482120648
 40
35.604349328
100
AcDbArc
 50
262.6110145731
 51
263.0886055073
  0
ARC
  5
2DD
100
AcDbEntity
  8
ASSI
100
AcDbCircle
 62
7
  6
CONTINUOUS
 10
-55.0579763557
 20
0.1959587629
 40
13.5
100
AcDbArc
 50
90.0
 51
173.6206297916
  0
ARC
  5
2DE
100
AcDbEntity
  8
ASSI
100
AcDbCircle
 62
7
  6
CONTINUOUS
 10
-55.0579763557
 20
0.1959587629
 40
13.5
100
AcDbArc
 50
186.3793702084
 51
270.0
  0
ARC
  5
2DF
100
AcDbEntity
  8
ASSI
100
AcDbCircle
 62
7
  6
CONTINUOUS
 10
-55.0579763557
 20
0.1959587629
 40
12.5
100
AcDbArc
 50
90.0
 51
171.8147767403
  0
ARC
  5
2E0
100
AcDbEntity
  8
ASSI
100
AcDbCircle
 62
7
  6
CONTINUOUS
 10
-55.0579763557
 20
0.1959587629
 40
12.5
100
AcDbArc
 50
188.1852232597
 51
270.0
  0
ARC
  5
2E1
100
AcDbEntity
  8
ASSI
100
AcDbCircle
 62
7
  6
CONTINUOUS
 10
-53.0579763557
 20
0.1959587629
 40
10.5
100
AcDbArc
 50
90.0
 51
175.9039562418
  0
ARC
  5
2E2
100
AcDbEntity
  8
ASSI
100
AcDbCircle
 62
7
  6
CONTINUOUS
 10
-53.0579763557
 20
0.1959587629
 40
10.5
100
AcDbArc
 50
184.0960437582
 51
270.0
  0
ARC
  5
2E3
100
AcDbEntity
  8
ASSI
100
AcDbCircle
 62
7
  6
CONTINUOUS
 10
-53.0579763557
 20
0.1959587629
 40
9.5
100
AcDbArc
 50
90.0
 51
173.8021385522
  0
ARC
  5
2E4
100
AcDbEntity
  8
ASSI
100
AcDbCircle
 62
7
  6
CONTINUOUS
 10
-53.0579763557
 20
0.1959587629
 40
9.5
100
AcDbArc
 50
186.1978614478
 51
270.0
  0
ARC
  5
2E5
100
AcDbEntity
  8
0
100
AcDbCircle
 62
7
  6
CONTINUOUS
 10
-39.9118110257
 20
0.1959587629
 40
3.6748729167
100
AcDbArc
 50
136.060250832
 51
164.383066081
  0
ARC
  5
2E6
100
AcDbEntity
  8
0
100
AcDbCircle
 62
7
  6
CONTINUOUS
 10
-39.9118110257
 20
0.1959587629
 40
3.6748729167
100
AcDbArc
 50
195.616933919
 51
223.939749168
  0
ARC
  5
2E7
100
AcDbEntity
  8
RACCORDO
100
AcDbCircle
 62
7
  6
CONTINUOUS
 10
-40.3579763557
 20
-17.4921490324
 40
0.3
100
AcDbArc
 50
270.0
 51
359.9999978792
  0
ARC
  5
2E8
100
AcDbEntity
  8
RACCORDO
100
AcDbCircle
 62
7
  6
CONTINUOUS
 10
-40.3579763557
 20
17.8840665581
 40
0.3
100
AcDbArc
 50
0.0000021208
 51
90.0
  0
ARC
  5
2E9
100
AcDbEntity
  8
RACCORDO
100
AcDbCircle
 62
253
  6
CONTINUOUS
 10
-40.3513737168
 20
-17.4882557022
 40
0.2933973611
100
AcDbArc
 50
359.2401680717
 51
359.9998910909
  0
ARC
  5
2EA
100
AcDbEntity
  8
RACCORDO
100
AcDbCircle
 62
253
  6
CONTINUOUS
 10
-40.2731124711
 20
17.8212820668
 40
0.2151361453
100
AcDbArc
 50
0.0302074369
 51
12.8902077011
  0
ARC
  5
2EB
100
AcDbEntity
  8
RACCORDO
100
AcDbCircle
 62
7
  6
CONTINUOUS
 10
-40.2641057784
 20
-17.4200120524
 40
0.2061294664
100
AcDbArc
 50
343.9633125809
 51
359.9627147143
  0
SPLINE
  5
2EC
100
AcDbEntity
  8
ASSI
100
AcDbSpline
 62
7
  6
CONTINUOUS
 70
0
 71
3
 72
15
 73
11
 74
9
 42
0.0000001
 43
0.0000001
 44
0.0000000001
 12
4.3946842133
 22
-0.3023367886
 32
0.0
 13
4.404781408
 23
-0.0505728789
 33
0.0
 40
0.0
 40
0.0
 40
0.0
 40
0.0
 40
0.1160196836
 40
0.2355659656
 40
0.3580620048
 40
0.4829760366
 40
0.6101085731
 40
0.7389103282
 40
0.8690494376
 40
1.0
 40
1.0
 40
1.0
 40
1.0
 10
0.5323187097
 20
-34.4230028044
 30
0.0
 10
0.7022753337
 20
-34.434695144
 30
0.0
 10
1.0474061483
 20
-34.4576969981
 30
0.0
 10
1.5721840693
 20
-34.4899105487
 30
0.0
 10
2.1101906211
 20
-34.5196312333
 30
0.0
 10
2.6595156408
 20
-34.5461983313
 30
0.0
 10
3.218276056
 20
-34.5690367867
 30
0.0
 10
3.7848698059
 20
-34.5876712667
 30
0.0
 10
4.3572042211
 20
-34.6017059692
 30
0.0
 10
4.7405345896
 20
-34.6077933202
 30
0.0
 10
4.9328041237
 20
-34.6100008359
 30
0.0
 11
0.5323187097
 21
-34.4230028044
 31
0.0
 11
1.0422674553
 21
-34.4569138737
 31
0.0
 11
1.567891944
 21
-34.4891153039
 31
0.0
 11
2.1066772648
 21
-34.518825242
 31
0.0
 11
2.6562922689
 21
-34.5453621681
 31
0.0
 11
3.2158544459
 21
-34.5681977724
 31
0.0
 11
3.7829297097
 21
-34.5868205841
 31
0.0
 11
4.3560300255
 21
-34.6008541602
 31
0.0
 11
4.9328041237
 21
-34.6100008359
 31
0.0
  0
SPLINE
  5
2ED
100
AcDbEntity
  8
ASSI
100
AcDbSpline
 62
7
  6
CONTINUOUS
 70
0
 71
3
 72
25
 73
21
 74
19
 42
0.0000001
 43
0.0000001
 44
0.0000000001
 12
9.9503498181
 22
-1.0750018096
 32
0.0
 13
10.0042520543
 23
-0.282897909
 33
0.0
 40
0.0
 40
0.0
 40
0.0
 40
0.0
 40
0.0367178997
 40
0.0763582009
 40
0.1189012766
 40
0.1642239771
 40
0.2121686503
 40
0.2625818145
 40
0.3154806132
 40
0.3707244725
 40
0.4281116129
 40
0.4874097679
 40
0.5480386472
 40
0.6097393831
 40
0.6724666106
 40
0.7361946792
 40
0.8009946286
 40
0.8666943663
 40
0.9331043955
 40
1.0
 40
1.0
 40
1.0
 40
1.0
 10
-5.7682875273
 20
-32.8777845995
 30
0.0
 10
-5.6465022116
 20
-32.890941869
 30
0.0
 10
-5.3934575604
 20
-32.9203387591
 30
0.0
 10
-4.999962074
 20
-32.9704137864
 30
0.0
 10
-4.5783929391
 20
-33.0271761511
 30
0.0
 10
-4.1296268871
 20
-33.089517183
 30
0.0
 10
-3.6549608198
 20
-33.1562227577
 30
0.0
 10
-3.155220305
 20
-33.2261197954
 30
0.0
 10
-2.6311752776
 20
-33.2980350653
 30
0.0
 10
-2.0837628029
 20
-33.370770695
 30
0.0
 10
-1.5147595578
 20
-33.4430371764
 30
0.0
 10
-0.9274206399
 20
-33.5134175768
 30
0.0
 10
-0.3252225987
 20
-33.5805914124
 30
0.0
 10
0.2889426092
 20
-33.6434580264
 30
0.0
 10
0.9139943209
 20
-33.7012219367
 30
0.0
 10
1.5499254683
 20
-33.7532507599
 30
0.0
 10
2.196288642
 20
-33.7989117468
 30
0.0
 10
2.8520719834
 20
-33.8375882393
 30
0.0
 10
3.5152567589
 20
-33.868701518
 30
0.0
 10
3.9597239608
 20
-33.8840583616
 30
0.0
 10
4.1828041237
 20
-33.8903665705
 30
0.0
 11
-5.7682875273
 21
-32.8777845995
 31
0.0
 11
-5.403221351
 21
-32.9198521479
 31
0.0
 11
-5.0096290863
 21
-32.9696506655
 31
0.0
 11
-4.587622488
 21
-33.0262241477
 31
0.0
 11
-4.1383069984
 21
-33.0884288816
 31
0.0
 11
-3.6631086888
 21
-33.1550263827
 31
0.0
 11
-3.1634033995
 21
-33.2247609649
 31
0.0
 11
-2.6388763121
 21
-33.2966052017
 31
0.0
 11
-2.0907832681
 21
-33.3693118075
 31
0.0
 11
-1.521002313
 21
-33.4415734285
 31
0.0
 11
-0.9317364315
 21
-33.5120953497
 31
0.0
 11
-0.3286793262
 21
-33.5792896744
 31
0.0
 11
0.2856336147
 21
-33.6421083647
 31
0.0
 11
0.9107645348
 21
-33.699826842
 31
0.0
 11
1.546450626
 21
-33.751791649
 31
0.0
 11
2.1933751531
 21
-33.797455866
 31
0.0
 11
2.8497757496
 21
-33.8361393949
 31
0.0
 11
3.5136948179
 21
-33.867264402
 31
0.0
 11
4.1828041237
 21
-33.8903665705
 31
0.0
  0
SPLINE
  5
2EE
100
AcDbEntity
  8
ASSI
100
AcDbSpline
 62
7
  6
CONTINUOUS
 70
0
 71
3
 72
25
 73
21
 74
19
 42
0.0000001
 43
0.0000001
 44
0.0000000001
 12
0.282897909
 22
-10.0042520551
 32
0.0
 13
1.0750018097
 23
-9.9503498189
 33
0.0
 40
0.0
 40
0.0
 40
0.0
 40
0.0
 40
0.0668949871
 40
0.1333052178
 40
0.1990048491
 40
0.2638032802
 40
0.327529709
 40
0.3902557226
 40
0.4519542872
 40
0.5125785811
 40
0.5718766307
 40
0.6292660702
 40
0.6845125413
 40
0.7374134204
 40
0.7878287029
 40
0.8357750687
 40
0.8810982891
 40
0.9236411246
 40
0.9632813629
 40
1.0
 40
1.0
 40
1.0
 40
1.0
 10
-28.4035212097
 20
-1.3040412371
 30
0.0
 10
-28.397213059
 20
-1.527119341
 30
0.0
 10
-28.3818562891
 20
-1.9715851566
 30
0.0
 10
-28.3507431549
 20
-2.6347681948
 30
0.0
 10
-28.3120669974
 20
-3.2905467996
 30
0.0
 10
-28.2664069247
 20
-3.9368991197
 30
0.0
 10
-28.2143796016
 20
-4.5728157548
 30
0.0
 10
-28.1566176715
 20
-5.1978508136
 30
0.0
 10
-28.0937543333
 20
-5.8119896262
 30
0.0
 10
-28.0265838493
 20
-6.4141650057
 30
0.0
 10
-27.9562052875
 20
-7.0014961084
 30
0.0
 10
-27.8839374596
 20
-7.5705153437
 30
0.0
 10
-27.8111991593
 20
-8.1179509924
 30
0.0
 10
-27.7392809931
 20
-8.642018556
 30
0.0
 10
-27.6693812853
 20
-9.1417785424
 30
0.0
 10
-27.6026736836
 20
-9.6164589147
 30
0.0
 10
-27.5403317234
 20
-10.0652314809
 30
0.0
 10
-27.4835692333
 20
-10.4868013289
 30
0.0
 10
-27.4334939618
 20
-10.8802982446
 30
0.0
 10
-27.4040967724
 20
-11.1333451267
 30
0.0
 10
-27.3909392387
 20
-11.2551328881
 30
0.0
 11
-28.4035212097
 21
-1.3040412371
 31
0.0
 11
-28.3804192928
 21
-1.9731443684
 31
0.0
 11
-28.3492942544
 21
-2.6370654539
 31
0.0
 11
-28.3106108435
 21
-3.2934649914
 31
0.0
 11
-28.2649478414
 21
-3.9403743705
 31
0.0
 11
-28.2129846793
 21
-4.5760441309
 31
0.0
 11
-28.1552677536
 21
-5.2011629932
 31
0.0
 11
-28.0924518366
 21
-5.8154543727
 31
0.0
 11
-28.0252633945
 21
-6.4184659581
 31
0.0
 11
-27.9547424862
 21
-7.0077308995
 31
0.0
 11
-27.882478648
 21
-7.5775347669
 31
0.0
 11
-27.8097690132
 21
-8.1256537781
 31
0.0
 11
-27.7379221504
 21
-8.6502015211
 31
0.0
 11
-27.6681847001
 21
-9.1499278159
 31
0.0
 11
-27.6015848421
 21
-9.6251429009
 31
0.0
 11
-27.5393793756
 21
-10.074463542
 31
0.0
 11
-27.4828061803
 21
-10.4964677537
 31
0.0
 11
-27.4330076772
 21
-10.8900593857
 31
0.0
 11
-27.3909392387
 21
-11.2551328881
 31
0.0
  0
SPLINE
  5
2EF
100
AcDbEntity
  8
ASSI
100
AcDbSpline
 62
7
  6
CONTINUOUS
 70
0
 71
3
 72
15
 73
11
 74
9
 42
0.0000001
 43
0.0000001
 44
0.0000000001
 12
0.0505728789
 22
-4.4047814078
 32
0.0
 13
0.3023367886
 23
-4.3946842131
 33
0.0
 40
0.0
 40
0.0
 40
0.0
 40
0.0
 40
0.1309220189
 40
0.2610572793
 40
0.3898718805
 40
0.5170242597
 40
0.6419579716
 40
0.7644666954
 40
0.8840084386
 40
1.0
 40
1.0
 40
1.0
 40
1.0
 10
-29.123155475
 20
-0.5540412371
 30
0.0
 10
-29.1209484406
 20
-0.746268862
 30
0.0
 10
-29.1148622129
 20
-1.129551675
 30
0.0
 10
-29.1008293568
 20
-1.7018574253
 30
0.0
 10
-29.0821944161
 20
-2.2684935319
 30
0.0
 10
-29.0593531398
 20
-2.8273307949
 30
0.0
 10
-29.0327820077
 20
-3.3767323705
 30
0.0
 10
-29.0030583071
 20
-3.9147796772
 30
0.0
 10
-28.9708457947
 20
-4.4395282737
 30
0.0
 10
-28.947846949
 20
-4.7846112232
 30
0.0
 10
-28.9361574436
 20
-4.9545266511
 30
0.0
 11
-29.123155475
 21
-0.5540412371
 31
0.0
 11
-29.1140113403
 21
-1.1306896238
 31
0.0
 11
-29.0999793205
 21
-1.7037730171
 31
0.0
 11
-29.0813555872
 21
-2.2709048691
 31
0.0
 11
-29.058516749
 21
-2.8305543956
 31
0.0
 11
-29.0319753258
 21
-3.380255976
 31
0.0
 11
-29.002261562
 21
-3.9190970473
 31
0.0
 11
-28.9700605939
 21
-4.4447015331
 31
0.0
 11
-28.9361574436
 21
-4.9545266511
 31
0.0
  0
SPLINE
  5
2F0
100
AcDbEntity
  8
ASSI
100
AcDbSpline
 62
7
  6
CONTINUOUS
 70
0
 71
3
 72
15
 73
11
 74
9
 42
0.0000001
 43
0.0000001
 44
0.0000000001
 12
-0.3023367886
 22
-4.3946842133
 32
0.0
 13
-0.0505728789
 23
-4.404781408
 33
0.0
 40
0.0
 40
0.0
 40
0.0
 40
0.0
 40
0.1160196836
 40
0.2355659656
 40
0.3580620048
 40
0.4829760366
 40
0.6101085731
 40
0.7389103282
 40
0.8690494376
 40
1.0
 40
1.0
 40
1.0
 40
1.0
 10
-28.9361574436
 20
5.3464441769
 30
0.0
 10
-28.9478497831
 20
5.1764875529
 30
0.0
 10
-28.9708516373
 20
4.8313567383
 30
0.0
 10
-29.0030651879
 20
4.3065788172
 30
0.0
 10
-29.0327858725
 20
3.7685722655
 30
0.0
 10
-29.0593529704
 20
3.2192472458
 30
0.0
 10
-29.0821914258
 20
2.6604868306
 30
0.0
 10
-29.1008259059
 20
2.0938930807
 30
0.0
 10
-29.1148606084
 20
1.5215586655
 30
0.0
 10
-29.1209479594
 20
1.138228297
 30
0.0
 10
-29.123155475
 20
0.9459587629
 30
0.0
 11
-28.9361574436
 21
5.3464441769
 31
0.0
 11
-28.9700685129
 21
4.8364954313
 31
0.0
 11
-29.002269943
 21
4.3108709426
 31
0.0
 11
-29.0319798812
 21
3.7720856218
 31
0.0
 11
-29.0585168072
 21
3.2224706176
 31
0.0
 11
-29.0813524116
 21
2.6629084407
 31
0.0
 11
-29.0999752233
 21
2.0958331769
 31
0.0
 11
-29.1140087993
 21
1.5227328611
 31
0.0
 11
-29.123155475
 21
0.9459587629
 31
0.0
  0
SPLINE
  5
2F1
100
AcDbEntity
  8
ASSI
100
AcDbSpline
 62
7
  6
CONTINUOUS
 70
0
 71
3
 72
25
 73
21
 74
19
 42
0.0000001
 43
0.0000001
 44
0.0000000001
 12
-1.0750018097
 22
-9.9503498184
 32
0.0
 13
-0.282897909
 23
-10.0042520546
 33
0.0
 40
0.0
 40
0.0
 40
0.0
 40
0.0
 40
0.0367186886
 40
0.0763597053
 40
0.1189035409
 40
0.1642271959
 40
0.2121732021
 40
0.2625882902
 40
0.3154894744
 40
0.370735531
 40
0.4281239229
 40
0.4874198248
 40
0.5480413781
 40
0.6097374018
 40
0.6724621209
 40
0.7361893713
 40
0.8009901564
 40
0.8666917892
 40
0.9331036873
 40
1.0
 40
1.0
 40
1.0
 40
1.0
 10
-27.3909392387
 20
11.6470504139
 30
0.0
 10
-27.4040967909
 20
11.5252624819
 30
0.0
 10
-27.4334943027
 20
11.27221285
 30
0.0
 10
-27.4835703924
 20
10.8787098839
 30
0.0
 10
-27.5403339497
 20
10.4571327298
 30
0.0
 10
-27.6026764625
 20
10.0083566191
 30
0.0
 10
-27.6693840146
 20
9.5336766423
 30
0.0
 10
-27.7392835764
 20
9.0339174737
 30
0.0
 10
-27.8112015415
 20
8.5098509056
 30
0.0
 10
-27.8839392412
 20
7.9624190705
 30
0.0
 10
-27.95620548
 20
7.3934117731
 30
0.0
 10
-28.0265817202
 20
6.8061003374
 30
0.0
 10
-28.0937497066
 20
6.2039496186
 30
0.0
 10
-28.1566113364
 20
5.5898326851
 30
0.0
 10
-28.2143731046
 20
4.9648077091
 30
0.0
 10
-28.2664017785
 20
4.3288848877
 30
0.0
 10
-28.3120637709
 20
3.6825153878
 30
0.0
 10
-28.3507415848
 20
3.0267167517
 30
0.0
 10
-28.381855764
 20
2.3635170811
 30
0.0
 10
-28.397212934
 20
1.9190412876
 30
0.0
 10
-28.4035212097
 20
1.6959587629
 30
0.0
 11
-27.3909392387
 21
11.6470504139
 31
0.0
 11
-27.4330077393
 21
11.2819764003
 31
0.0
 11
-27.4828072576
 21
10.888377044
 31
0.0
 11
-27.5393818564
 21
10.4663629215
 31
0.0
 11
-27.6015879779
 21
10.01703798
 31
0.0
 11
-27.6681873474
 21
9.5418264602
 31
0.0
 11
-27.7379245004
 21
9.0421020895
 31
0.0
 11
-27.8097717142
 21
8.5175513115
 31
0.0
 11
-27.8824807138
 21
7.9694364012
 31
0.0
 11
-27.9547431652
 21
7.3996429261
 31
0.0
 11
-28.0252615603
 21
6.8103993326
 31
0.0
 11
-28.0924472212
 21
6.2074150364
 31
0.0
 11
-28.155261081
 21
5.593149008
 31
0.0
 11
-28.2129775796
 21
4.9680431172
 31
0.0
 11
-28.264942248
 21
4.3323652302
 31
0.0
 11
-28.3106076087
 21
3.6854323992
 31
0.0
 11
-28.3492926696
 21
3.0290128931
 31
0.0
 11
-28.3804187525
 21
2.3650751511
 31
0.0
 11
-28.4035212097
 21
1.6959587629
 31
0.0
  0
SPLINE
  5
2F2
100
AcDbEntity
  8
ASSI
100
AcDbSpline
 62
7
  6
CONTINUOUS
 70
0
 71
3
 72
25
 73
21
 74
19
 42
0.0000001
 43
0.0000001
 44
0.0000000001
 12
-10.0042520545
 22
-0.282897909
 32
0.0
 13
-9.9503498183
 23
-1.0750018096
 33
0.0
 40
0.0
 40
0.0
 40
0.0
 40
0.0
 40
0.0668950391
 40
0.1333043631
 40
0.199003404
 40
0.2638028117
 40
0.3275306399
 40
0.3902580502
 40
0.4519594287
 40
0.5125894295
 40
0.5718893431
 40
0.6292776749
 40
0.6845221017
 40
0.7374209804
 40
0.7878338782
 40
0.8357780636
 40
0.8811001704
 40
0.9236426529
 40
0.96328245
 40
1.0
 40
1.0
 40
1.0
 40
1.0
 10
4.1828041237
 20
34.2822840963
 30
0.0
 10
3.9597258461
 20
34.2759759407
 30
0.0
 10
3.5152628802
 20
34.260619267
 30
0.0
 10
2.8520846563
 20
34.2295064082
 30
0.0
 10
2.1963077774
 20
34.1908304893
 30
0.0
 10
1.5499495071
 20
34.1451701047
 30
0.0
 10
0.9140203293
 20
34.0931417288
 30
0.0
 10
0.2889666491
 20
34.035377909
 30
0.0
 10
-0.3252050416
 20
33.9725108448
 30
0.0
 10
-0.9274147763
 20
33.9053358215
 30
0.0
 10
-1.5147671801
 20
33.8349537952
 30
0.0
 10
-2.0837820538
 20
33.7626857327
 30
0.0
 10
-2.6312005932
 20
33.6899491709
 30
0.0
 10
-3.1552468669
 20
33.6180336326
 30
0.0
 10
-3.654985148
 20
33.5481368632
 30
0.0
 10
-4.1296467635
 20
33.4814319256
 30
0.0
 10
-4.5784072893
 20
33.4190917144
 30
0.0
 10
-4.9999708428
 20
33.3623301712
 30
0.0
 10
-5.3934615481
 20
33.3122558119
 30
0.0
 10
-5.6465033717
 20
33.2828592695
 30
0.0
 10
-5.7682875273
 20
33.2697021253
 30
0.0
 11
4.1828041237
 21
34.2822840963
 31
0.0
 11
3.5137004716
 21
34.2591821582
 31
0.0
 11
2.849788449
 21
34.2280575935
 31
0.0
 11
2.1933948029
 21
34.189374666
 31
0.0
 11
1.5464756657
 21
34.1437110846
 31
0.0
 11
0.9107919484
 21
34.091746757
 31
0.0
 11
0.285659183
 21
34.0340283815
 31
0.0
 11
-0.328660178
 21
33.9712092489
 31
0.0
 11
-0.9317284515
 21
33.904013799
 31
0.0
 11
-1.5210118096
 21
33.8334897817
 31
0.0
 11
-2.0908045808
 21
33.7612265628
 31
0.0
 11
-2.6389032394
 21
33.6885190896
 31
0.0
 11
-3.1634311073
 21
33.6166746509
 31
0.0
 11
-3.6631337492
 21
33.5469403949
 31
0.0
 11
-4.138327226
 21
33.4803435816
 31
0.0
 11
-4.587636836
 21
33.4181397119
 31
0.0
 11
-5.0096375599
 21
33.3615670828
 31
0.0
 11
-5.403224826
 21
33.3117692515
 31
0.0
 11
-5.7682875273
 21
33.2697021253
 31
0.0
  0
SPLINE
  5
2F3
100
AcDbEntity
  8
ASSI
100
AcDbSpline
 62
7
  6
CONTINUOUS
 70
0
 71
3
 72
15
 73
11
 74
9
 42
0.0000001
 43
0.0000001
 44
0.0000000001
 12
-4.4047814078
 22
-0.0505728789
 32
0.0
 13
-4.3946842131
 23
-0.3023367886
 33
0.0
 40
0.0
 40
0.0
 40
0.0
 40
0.0
 40
0.1309217404
 40
0.2610573923
 40
0.3898720833
 40
0.5170252255
 40
0.6419590445
 40
0.7644661423
 40
0.8840075037
 40
1.0
 40
1.0
 40
1.0
 40
1.0
 10
4.9328041237
 20
35.0019183616
 30
0.0
 10
4.7405769077
 20
34.9997113319
 30
0.0
 10
4.3572939287
 20
34.9936251052
 30
0.0
 10
3.7849878806
 20
34.9795922448
 30
0.0
 10
3.218349948
 20
34.9609572383
 30
0.0
 10
2.6595112775
 20
34.9381158842
 30
0.0
 10
2.1101108122
 20
34.9115447734
 30
0.0
 10
1.5720662927
 20
34.8818212204
 30
0.0
 10
1.0473192676
 20
34.8496088235
 30
0.0
 10
0.7022355072
 20
34.8266099298
 30
0.0
 10
0.5323187097
 20
34.8149203302
 30
0.0
 11
4.9328041237
 21
35.0019183616
 31
0.0
 11
4.3561569635
 21
34.9927742517
 31
0.0
 11
3.7830718461
 21
34.9787421928
 31
0.0
 11
3.215939599
 21
34.9601184408
 31
0.0
 11
2.6562867148
 21
34.9372794458
 31
0.0
 11
2.1065846649
 21
34.9107379677
 31
0.0
 11
1.5677507461
 21
34.8810245906
 31
0.0
 11
1.0421479377
 21
34.8488237438
 31
0.0
 11
0.5323187097
 21
34.8149203302
 31
0.0
  0
SPLINE
  5
2F4
100
AcDbEntity
  8
ASSI
100
AcDbSpline
 62
7
  6
CONTINUOUS
 70
0
 71
3
 72
15
 73
11
 74
9
 42
0.0000001
 43
0.0000001
 44
0.0000000001
 12
4.4047814078
 22
0.0505728789
 32
0.0
 13
4.3946842131
 23
0.3023367886
 33
0.0
 40
0.0
 40
0.0
 40
0.0
 40
0.0
 40
0.1309220189
 40
0.2610572793
 40
0.3898718805
 40
0.5170242597
 40
0.6419579716
 40
0.7644666954
 40
0.8840084386
 40
1.0
 40
1.0
 40
1.0
 40
1.0
 10
6.4328041237
 20
-34.6100008359
 30
0.0
 10
6.6250317486
 20
-34.6077938014
 30
0.0
 10
7.0083145616
 20
-34.6017075738
 30
0.0
 10
7.5806203119
 20
-34.5876747176
 30
0.0
 10
8.1472564185
 20
-34.5690397769
 30
0.0
 10
8.7060936815
 20
-34.5461985006
 30
0.0
 10
9.2554952571
 20
-34.5196273685
 30
0.0
 10
9.7935425638
 20
-34.489903668
 30
0.0
 10
10.3182911603
 20
-34.4576911555
 30
0.0
 10
10.6633741098
 20
-34.4346923098
 30
0.0
 10
10.8332895377
 20
-34.4230028044
 30
0.0
 11
6.4328041237
 21
-34.6100008359
 31
0.0
 11
7.0094525104
 21
-34.6008567012
 31
0.0
 11
7.5825359036
 21
-34.5868246813
 31
0.0
 11
8.1496677557
 21
-34.568200948
 31
0.0
 11
8.7093172822
 21
-34.5453621099
 31
0.0
 11
9.2590188626
 21
-34.5188206866
 31
0.0
 11
9.7978599339
 21
-34.4891069228
 31
0.0
 11
10.3234644197
 21
-34.4569059547
 31
0.0
 11
10.8332895377
 21
-34.4230028044
 31
0.0
  0
SPLINE
  5
2F5
100
AcDbEntity
  8
ASSI
100
AcDbSpline
 62
7
  6
CONTINUOUS
 70
0
 71
3
 72
25
 73
21
 74
19
 42
0.0000001
 43
0.0000001
 44
0.0000000001
 12
10.0042520548
 22
0.282897909
 32
0.0
 13
9.9503498186
 23
1.0750018097
 33
0.0
 40
0.0
 40
0.0
 40
0.0
 40
0.0
 40
0.0668941785
 40
0.1333024082
 40
0.1990000248
 40
0.2637975489
 40
0.3275247966
 40
0.3902534031
 40
0.4519568516
 40
0.5125887035
 40
0.5718892742
 40
0.6292775972
 40
0.6845219071
 40
0.7374203698
 40
0.7878336637
 40
0.835778612
 40
0.8811007847
 40
0.9236427693
 40
0.9632822128
 40
1.0
 40
1.0
 40
1.0
 40
1.0
 10
7.1828041237
 20
-33.8903665705
 30
0.0
 10
7.4058795312
 20
-33.8840584961
 30
0.0
 10
7.8503359801
 20
-33.8687020835
 30
0.0
 10
8.5135029506
 20
-33.8375899251
 30
0.0
 10
9.1692651869
 20
-33.7989151871
 30
0.0
 10
9.8156105508
 20
-33.7532562088
 30
0.0
 10
10.4515355618
 20
-33.7012287784
 30
0.0
 10
11.0765982134
 20
-33.6434646659
 30
0.0
 10
11.6907869232
 20
-33.5805962013
 30
0.0
 10
12.2930118529
 20
-33.5134196234
 30
0.0
 10
12.8803725391
 20
-33.4430366337
 30
0.0
 10
13.4493891719
 20
-33.3707683526
 30
0.0
 10
13.996805921
 20
-33.298032036
 30
0.0
 10
14.5208517449
 20
-33.2261165753
 30
0.0
 10
15.0205924814
 20
-33.1562194677
 30
0.0
 10
15.4952581431
 20
-33.0895139578
 30
0.0
 10
15.9440197645
 20
-33.02717361
 30
0.0
 10
16.3655807239
 20
-32.9704124409
 30
0.0
 10
16.7590693958
 20
-32.920338339
 30
0.0
 10
17.0121108323
 20
-32.8909418287
 30
0.0
 10
17.1338957747
 20
-32.8777845995
 30
0.0
 11
7.1828041237
 21
-33.8903665705
 31
0.0
 11
7.851899169
 21
-33.8672649832
 31
0.0
 11
8.5158002606
 21
-33.8361411027
 31
0.0
 11
9.1721796956
 21
-33.7974593288
 31
0.0
 11
9.8190800623
 21
-33.7517975646
 31
0.0
 11
10.4547580372
 21
-33.6998343089
 31
0.0
 11
11.0799027742
 21
-33.6421153655
 31
0.0
 11
11.6942427791
 21
-33.5792944671
 31
0.0
 11
12.2973294816
 21
-33.5120971085
 31
0.0
 11
12.8866193723
 21
-33.4415723405
 31
0.0
 11
13.4564120564
 21
-33.3693091373
 31
0.0
 11
14.0045095567
 21
-33.2966018246
 31
0.0
 11
14.5290333015
 21
-33.224757964
 31
0.0
 11
15.0287398707
 21
-33.1550231672
 31
0.0
 11
15.5039409087
 21
-33.0884252965
 31
0.0
 11
15.9532511752
 21
-33.0262213533
 31
0.0
 11
16.3752469625
 21
-32.9696494059
 31
0.0
 11
16.7688307164
 21
-32.9198520121
 31
0.0
 11
17.1338957747
 21
-32.8777845995
 31
0.0
  0
SPLINE
  5
2F6
100
AcDbEntity
  8
ASSI
100
AcDbSpline
 62
7
  6
CONTINUOUS
 70
0
 71
3
 72
25
 73
21
 74
19
 42
0.0000001
 43
0.0000001
 44
0.0000000001
 12
1.0750018097
 22
9.9503498187
 32
0.0
 13
0.282897909
 23
10.0042520549
 33
0.0
 40
0.0
 40
0.0
 40
0.0
 40
0.0
 40
0.0367189024
 40
0.0763595326
 40
0.1189028313
 40
0.164226512
 40
0.2121732452
 40
0.2625887047
 40
0.3154894721
 40
0.3707354433
 40
0.4281239006
 40
0.4874205839
 40
0.5480441076
 40
0.6097422464
 40
0.6724681655
 40
0.7361948059
 40
0.8009936557
 40
0.8666938088
 40
0.9331045697
 40
1.0
 40
1.0
 40
1.0
 40
1.0
 10
38.7565474861
 20
-11.2551328881
 30
0.0
 10
38.7697051149
 20
-11.1333442467
 30
0.0
 10
38.7991025717
 20
-10.8802951884
 30
0.0
 10
38.84917836
 20
-10.4867945704
 30
0.0
 10
38.9059414887
 20
-10.0652203807
 30
0.0
 10
38.9682840818
 20
-9.6164435544
 30
0.0
 10
39.0349921586
 20
-9.1417598644
 30
0.0
 10
39.1048920332
 20
-8.6419984435
 30
0.0
 10
39.1768099303
 20
-8.1179323062
 30
0.0
 10
39.2495474401
 20
-7.5705019161
 30
0.0
 10
39.3218140025
 20
-7.0014920993
 30
0.0
 10
39.3921913348
 20
-6.4141713286
 30
0.0
 10
39.4593609748
 20
-5.8120044565
 30
0.0
 10
39.5222240457
 20
-5.1978699445
 30
0.0
 10
39.5799860922
 20
-4.5728359305
 30
0.0
 10
39.6320137795
 20
-3.9369175314
 30
0.0
 10
39.6776743169
 20
-3.290561391
 30
0.0
 10
39.7163509095
 20
-2.6347778967
 30
0.0
 10
39.7474643641
 20
-1.9715898798
 30
0.0
 10
39.7628212646
 20
-1.5271208191
 30
0.0
 10
39.7691294571
 20
-1.3040412371
 30
0.0
 11
38.7565474861
 21
-11.2551328881
 31
0.0
 11
38.7986162449
 21
-10.8900567495
 31
0.0
 11
38.8484152809
 21
-10.4964612321
 31
0.0
 11
38.9049891419
 21
-10.074452432
 31
0.0
 11
38.9671952783
 21
-9.625127233
 31
0.0
 11
39.0337956546
 21
-9.1499085077
 31
0.0
 11
39.1035333173
 21
-8.6501804543
 31
0.0
 11
39.1753799585
 21
-8.1256338084
 31
0.0
 11
39.2480888481
 21
-7.5775197454
 31
0.0
 11
39.3203513853
 21
-7.007725622
 31
0.0
 11
39.3908706811
 21
-6.4184742598
 31
0.0
 11
39.4580583749
 21
-5.8154703476
 31
0.0
 11
39.52087403
 21
-5.2011832246
 31
0.0
 11
39.5785910797
 21
-4.5760653233
 31
0.0
 11
39.6305546321
 21
-3.9403934698
 31
0.0
 11
39.6762181225
 21
-3.2934799244
 31
0.0
 11
39.7149019864
 21
-2.6370751826
 31
0.0
 11
39.7460273596
 21
-1.9731488007
 31
0.0
 11
39.7691294571
 21
-1.3040412371
 31
0.0
  0
SPLINE
  5
2F7
100
AcDbEntity
  8
ASSI
100
AcDbSpline
 62
7
  6
CONTINUOUS
 70
0
 71
3
 72
15
 73
11
 74
9
 42
0.0000001
 43
0.0000001
 44
0.0000000001
 12
0.3023367886
 22
4.3946842133
 32
0.0
 13
0.0505728789
 23
4.404781408
 33
0.0
 40
0.0
 40
0.0
 40
0.0
 40
0.0
 40
0.1160188669
 40
0.2355656727
 40
0.3580634753
 40
0.4829775035
 40
0.6101093158
 40
0.7389109246
 40
0.8690494577
 40
1.0
 40
1.0
 40
1.0
 40
1.0
 10
40.301765691
 20
-4.9545266511
 30
0.0
 10
40.3134579482
 20
-4.7845712235
 30
0.0
 10
40.336459779
 20
-4.4394408384
 30
0.0
 10
40.3686734763
 20
-3.9146607631
 30
0.0
 10
40.3983943302
 20
-3.3766508624
 30
0.0
 10
40.4249614551
 20
-2.8273243215
 30
0.0
 10
40.4477998202
 20
-2.2685651873
 30
0.0
 10
40.4664342062
 20
-1.7019735599
 30
0.0
 10
40.4804688703
 20
-1.1296402347
 30
0.0
 10
40.4865562072
 20
-0.7463107419
 30
0.0
 10
40.4887637225
 20
-0.5540412371
 30
0.0
 11
40.301765691
 21
-4.9545266511
 31
0.0
 11
40.3356765303
 21
-4.4445814959
 31
0.0
 11
40.3678781153
 21
-3.918954705
 31
0.0
 11
40.3975884639
 21
-3.380161627
 31
0.0
 11
40.4241253429
 21
-2.8305466368
 31
0.0
 11
40.4469607797
 21
-2.2709876455
 31
0.0
 11
40.4655835462
 21
-1.7039130249
 31
0.0
 11
40.4796170485
 21
-1.1308152471
 31
0.0
 11
40.4887637225
 21
-0.5540412371
 31
0.0
  0
SPLINE
  5
2F8
100
AcDbEntity
  8
ASSI
100
AcDbSpline
 62
7
  6
CONTINUOUS
 70
0
 71
3
 72
15
 73
11
 74
9
 42
0.0000001
 43
0.0000001
 44
0.0000000001
 12
-0.0505728789
 22
4.4047814078
 32
0.0
 13
-0.3023367886
 23
4.3946842131
 33
0.0
 40
0.0
 40
0.0
 40
0.0
 40
0.0
 40
0.1309217404
 40
0.2610573923
 40
0.3898720833
 40
0.5170252255
 40
0.6419590445
 40
0.7644661423
 40
0.8840075037
 40
1.0
 40
1.0
 40
1.0
 40
1.0
 10
40.4887637225
 20
0.9459587629
 30
0.0
 10
40.4865566927
 20
1.1381859789
 30
0.0
 10
40.480470466
 20
1.5214689579
 30
0.0
 10
40.4664376056
 20
2.093775006
 30
0.0
 10
40.4478025991
 20
2.6604129386
 30
0.0
 10
40.4249612451
 20
3.2192516091
 30
0.0
 10
40.3983901342
 20
3.7686520744
 30
0.0
 10
40.3686665813
 20
4.3066965939
 30
0.0
 10
40.3364541843
 20
4.831443619
 30
0.0
 10
40.3134552906
 20
5.1765273794
 30
0.0
 10
40.301765691
 20
5.3464441769
 30
0.0
 11
40.4887637225
 21
0.9459587629
 31
0.0
 11
40.4796196126
 21
1.5226059231
 31
0.0
 11
40.4655875536
 21
2.0956910405
 31
0.0
 11
40.4469638016
 21
2.6628232876
 31
0.0
 11
40.4241248067
 21
3.2224761718
 31
0.0
 11
40.3975833286
 21
3.7721782217
 31
0.0
 11
40.3678699514
 21
4.3110121405
 31
0.0
 11
40.3356691046
 21
4.8366149489
 31
0.0
 11
40.301765691
 21
5.3464441769
 31
0.0
  0
SPLINE
  5
2F9
100
AcDbEntity
  8
ASSI
100
AcDbSpline
 62
7
  6
CONTINUOUS
 70
0
 71
3
 72
25
 73
21
 74
19
 42
0.0000001
 43
0.0000001
 44
0.0000000001
 12
-0.282897909
 22
10.0042520548
 32
0.0
 13
-1.0750018097
 23
9.9503498185
 33
0.0
 40
0.0
 40
0.0
 40
0.0
 40
0.0
 40
0.066895837
 40
0.1333071577
 40
0.199008221
 40
0.2638085529
 40
0.3275355818
 40
0.3902604166
 40
0.4519569219
 40
0.5125793366
 40
0.5718767101
 40
0.6292661451
 40
0.6845127235
 40
0.7374140135
 40
0.7878289022
 40
0.8357745096
 40
0.8810976687
 40
0.9236410059
 40
0.9632816001
 40
1.0
 40
1.0
 40
1.0
 40
1.0
 10
39.7691294571
 20
1.6959587629
 30
0.0
 10
39.7628212263
 20
1.9190397012
 30
0.0
 10
39.7474641974
 20
2.3635119841
 30
0.0
 10
39.7163503654
 20
3.0267062514
 30
0.0
 10
39.6776730244
 20
3.6824995678
 30
0.0
 10
39.6320115347
 20
4.3288649418
 30
0.0
 10
39.5799832493
 20
4.9647859239
 30
0.0
 10
39.5222215933
 20
5.5898121691
 30
0.0
 10
39.4593596506
 20
6.2039339628
 30
0.0
 10
39.3921907309
 20
6.806094026
 30
0.0
 10
39.3218131551
 20
7.3934166457
 30
0.0
 10
39.2495455633
 20
7.9624339828
 30
0.0
 10
39.1768070304
 20
8.5098713295
 30
0.0
 10
39.1048887928
 20
9.0339393025
 30
0.0
 10
39.0349894225
 20
9.5336968392
 30
0.0
 10
38.9682823879
 20
10.0083732026
 30
0.0
 10
38.905940558
 20
10.4571447157
 30
0.0
 10
38.8491776889
 20
10.878717193
 30
0.0
 10
38.7991021573
 20
11.2722161623
 30
0.0
 10
38.7697049349
 20
11.5252634392
 30
0.0
 10
38.7565474861
 20
11.6470504139
 30
0.0
 11
39.7691294571
 21
1.6959587629
 31
0.0
 11
39.7460271938
 21
2.3650703938
 31
0.0
 11
39.7149014746
 21
3.0290023684
 31
0.0
 11
39.676216907
 21
3.6854161934
 31
0.0
 11
39.6305520754
 21
4.332344515
 31
0.0
 11
39.5785878234
 21
4.9680202121
 31
0.0
 11
39.5208714456
 21
5.5931272768
 31
0.0
 11
39.4580572788
 21
6.2073981178
 31
0.0
 11
39.3908707725
 21
6.8103909958
 31
0.0
 11
39.3203506362
 21
7.3996492143
 31
0.0
 11
39.2480867989
 21
7.9694530357
 31
0.0
 11
39.1753770166
 21
8.5175731107
 31
0.0
 11
39.1035295829
 21
9.0421249275
 31
0.0
 11
39.0337926705
 21
9.5418473173
 31
0.0
 11
38.9671938637
 21
10.0170548851
 31
0.0
 11
38.9049884641
 21
10.4663749155
 31
0.0
 11
38.8484145818
 21
10.8883841014
 31
0.0
 11
38.7986156383
 21
11.2819792679
 31
0.0
 11
38.7565474861
 21
11.6470504139
 31
0.0
  0
SPLINE
  5
2FA
100
AcDbEntity
  8
ASSI
100
AcDbSpline
 62
7
  6
CONTINUOUS
 70
0
 71
3
 72
25
 73
21
 74
19
 42
0.0000001
 43
0.0000001
 44
0.0000000001
 12
-9.9503498184
 22
1.0750018097
 32
0.0
 13
-10.0042520546
 23
0.282897909
 33
0.0
 40
0.0
 40
0.0
 40
0.0
 40
0.0
 40
0.0367181135
 40
0.0763580301
 40
0.1189005726
 40
0.1642233034
 40
0.2121687079
 40
0.2625822457
 40
0.3154806224
 40
0.3707243866
 40
0.4281115792
 40
0.4874104967
 40
0.5480413193
 40
0.6097441816
 40
0.6724726271
 40
0.736200105
 40
0.8009981357
 40
0.8666964006
 40
0.9331052882
 40
1.0
 40
1.0
 40
1.0
 40
1.0
 10
17.1338957747
 20
33.2697021253
 30
0.0
 10
17.0121097502
 20
33.2828594714
 30
0.0
 10
16.7590656662
 20
33.3122563071
 30
0.0
 10
16.3655725093
 20
33.3623310354
 30
0.0
 10
15.9440063044
 20
33.4190929765
 30
0.0
 10
15.495239495
 20
33.4814340947
 30
0.0
 10
15.0205696783
 20
33.5481401994
 30
0.0
 10
14.5208269071
 20
33.6180375501
 30
0.0
 10
13.9967823525
 20
33.6899527457
 30
0.0
 10
13.4493714156
 20
33.7626881728
 30
0.0
 10
12.8803657893
 20
33.8349549606
 30
0.0
 10
12.2930177327
 20
33.9053364311
 30
0.0
 10
11.6908036533
 20
33.9725119113
 30
0.0
 10
11.0766208603
 20
34.035379972
 30
0.0
 10
10.4515599494
 20
34.0931441793
 30
0.0
 10
9.8156330453
 20
34.1451720326
 30
0.0
 10
9.1692830881
 20
34.1908315745
 30
0.0
 10
8.5135148251
 20
34.2295068481
 30
0.0
 10
7.8503417293
 20
34.2606193995
 30
0.0
 10
7.4058813095
 20
34.2759759716
 30
0.0
 10
7.1828041237
 20
34.2822840963
 30
0.0
 11
17.1338957747
 21
33.2697021253
 31
0.0
 11
16.7688274751
 21
33.3117699317
 31
0.0
 11
16.3752390285
 21
33.3615679696
 31
0.0
 11
15.9532377157
 21
33.4181407192
 31
0.0
 11
15.5039219233
 21
33.4803454746
 31
0.0
 11
15.0287163651
 21
33.5469439886
 31
0.0
 11
14.5290073726
 21
33.616679083
 31
0.0
 11
14.0044844687
 21
33.6885227397
 31
0.0
 11
13.4563923675
 21
33.7612292225
 31
0.0
 11
12.8866108958
 21
33.8334909129
 31
0.0
 11
12.2973374332
 21
33.904013714
 31
0.0
 11
11.6942609814
 21
33.9712100453
 31
0.0
 11
11.0799268336
 21
34.0340305473
 31
0.0
 11
10.4547837251
 21
34.0917495959
 31
0.0
 11
9.8191034741
 21
34.1437133047
 31
0.0
 11
9.1721980668
 21
34.1893756633
 31
0.0
 11
8.5158121652
 21
34.2280579979
 31
0.0
 11
7.8519045019
 21
34.2591822916
 31
0.0
 11
7.1828041237
 21
34.2822840963
 31
0.0
  0
SPLINE
  5
2FB
100
AcDbEntity
  8
ASSI
100
AcDbSpline
 62
7
  6
CONTINUOUS
 70
0
 71
3
 72
15
 73
11
 74
9
 42
0.0000001
 43
0.0000001
 44
0.0000000001
 12
-4.3946842133
 22
0.3023367886
 32
0.0
 13
-4.404781408
 23
0.0505728789
 33
0.0
 40
0.0
 40
0.0
 40
0.0
 40
0.0
 40
0.1160188669
 40
0.2355656727
 40
0.3580634753
 40
0.4829775035
 40
0.6101093158
 40
0.7389109246
 40
0.8690494577
 40
1.0
 40
1.0
 40
1.0
 40
1.0
 10
10.8332895377
 20
34.8149203302
 30
0.0
 10
10.6633341101
 20
34.8266125874
 30
0.0
 10
10.318203725
 20
34.8496144182
 30
0.0
 10
9.7934236497
 20
34.8818281155
 30
0.0
 10
9.255413749
 20
34.9115489693
 30
0.0
 10
8.7060872081
 20
34.9381160943
 30
0.0
 10
8.1473280739
 20
34.9609544593
 30
0.0
 10
7.5807364465
 20
34.9795888454
 30
0.0
 10
7.0084031213
 20
34.9936235095
 30
0.0
 10
6.6250736285
 20
34.9997108463
 30
0.0
 10
6.4328041237
 20
35.0019183616
 30
0.0
 11
10.8332895377
 21
34.8149203302
 31
0.0
 11
10.3233443825
 21
34.8488311695
 31
0.0
 11
9.7977175916
 21
34.8810327545
 31
0.0
 11
9.2589245136
 21
34.9107431031
 31
0.0
 11
8.7093095234
 21
34.9372799821
 31
0.0
 11
8.1497505321
 21
34.9601154188
 31
0.0
 11
7.5826759115
 21
34.9787381853
 31
0.0
 11
7.0095781337
 21
34.9927716877
 31
0.0
 11
6.4328041237
 21
35.0019183616
 31
0.0
  0
SPLINE
  5
2FC
100
AcDbEntity
  8
ASSI
100
AcDbSpline
 62
7
  6
CONTINUOUS
 70
0
 71
3
 72
23
 73
19
 74
17
 42
0.0000001
 43
0.0000001
 44
0.0000000001
 12
8.4713718674
 22
0.8099065892
 32
0.0
 13
8.5057094211
 23
0.2701800173
 33
0.0
 40
0.0
 40
0.0
 40
0.0
 40
0.0
 40
0.0438534426
 40
0.0908538689
 40
0.1408961815
 40
0.1938958326
 40
0.2496918096
 40
0.3082061271
 40
0.3692354284
 40
0.4326273779
 40
0.4982861014
 40
0.5659813684
 40
0.6354031667
 40
0.7062762062
 40
0.7784638933
 40
0.8516365421
 40
0.9255891399
 40
1.0
 40
1.0
 40
1.0
 40
1.0
 10
-4.5703661177
 20
33.6604548744
 30
0.0
 10
-4.4465331778
 20
33.6722939385
 30
0.0
 10
-4.1901314661
 20
33.6984018255
 30
0.0
 10
-3.7928541584
 20
33.7421397796
 30
0.0
 10
-3.3700336477
 20
33.7908872304
 30
0.0
 10
-2.9225616234
 20
33.8436355249
 30
0.0
 10
-2.4512421737
 20
33.8993627175
 30
0.0
 10
-1.9572123298
 20
33.9569975313
 30
0.0
 10
-1.4415891287
 20
34.0154742715
 30
0.0
 10
-0.9055503521
 20
34.073738899
 30
0.0
 10
-0.3503640002
 20
34.1307566562
 30
0.0
 10
0.2222387916
 20
34.1854900095
 30
0.0
 10
0.8099980574
 20
34.2369254544
 30
0.0
 10
1.4108943521
 20
34.2841681996
 30
0.0
 10
2.0228294483
 20
34.3264170824
 30
0.0
 10
2.6438822879
 20
34.3629928245
 30
0.0
 10
3.2715863332
 20
34.3933059706
 30
0.0
 10
3.6921609523
 20
34.4090134829
 30
0.0
 10
3.9031333371
 20
34.4157149254
 30
0.0
 11
-4.5703661177
 21
33.6604548744
 31
0.0
 11
-4.1990653254
 21
33.697985737
 31
0.0
 11
-3.801468501
 21
33.7415247573
 31
0.0
 11
-3.3783880137
 21
33.79010134
 31
0.0
 11
-2.930442344
 21
33.8427324268
 31
0.0
 11
-2.4588857984
 21
33.8983381846
 31
0.0
 11
-1.9642685045
 21
33.9559117439
 31
0.0
 11
-1.4482046713
 21
34.014325964
 31
0.0
 11
-0.9118875622
 21
34.0725233326
 31
0.0
 11
-0.3560468545
 21
34.1295236662
 31
0.0
 11
0.2174328189
 21
34.1842678902
 31
0.0
 11
0.8059684357
 21
34.2357091278
 31
0.0
 11
1.4072466156
 21
34.2829296136
 31
0.0
 11
2.0201078521
 21
34.3251989385
 31
0.0
 11
2.6417320352
 21
34.3617730675
 31
0.0
 11
3.2703373677
 21
34.3921020234
 31
0.0
 11
3.9031333371
 21
34.4157149254
 31
0.0
  0
SPLINE
  5
2FD
100
AcDbEntity
  8
ASSI
100
AcDbSpline
 62
7
  6
CONTINUOUS
 70
0
 71
3
 72
23
 73
19
 74
17
 42
0.0000001
 43
0.0000001
 44
0.0000000001
 12
-8.5057094184
 22
0.2701800172
 32
0.0
 13
-8.4713718647
 23
0.8099065889
 33
0.0
 40
0.0
 40
0.0
 40
0.0
 40
0.0
 40
0.0744030324
 40
0.1483567387
 40
0.2215381694
 40
0.2937410019
 40
0.3646341461
 40
0.4340782863
 40
0.501793767
 40
0.5674665855
 40
0.6308642756
 40
0.6918925253
 40
0.750400226
 40
0.8061845131
 40
0.8591681253
 40
0.9091909634
 40
0.9561696279
 40
1.0
 40
1.0
 40
1.0
 40
1.0
 10
3.9031333371
 20
-34.0237973996
 30
0.0
 10
3.692183146
 20
-34.0170966621
 30
0.0
 10
3.2716275674
 20
-34.0013901083
 30
0.0
 10
2.643917645
 20
-33.9710773445
 30
0.0
 10
2.0227938942
 20
-33.9344976255
 30
0.0
 10
1.4107342413
 20
-33.8922393216
 30
0.0
 10
0.8096752422
 20
-33.8449816223
 30
0.0
 10
0.2217392073
 20
-33.7935271828
 30
0.0
 10
-0.3510231281
 20
-33.738774044
 30
0.0
 10
-0.9063219977
 20
-33.6817398602
 30
0.0
 10
-1.4424132695
 20
-33.6234650974
 30
0.0
 10
-1.9580306573
 20
-33.5649856422
 30
0.0
 10
-2.4520057306
 20
-33.5073552519
 30
0.0
 10
-2.9232283746
 20
-33.4516390589
 30
0.0
 10
-3.3705675277
 20
-33.3989073517
 30
0.0
 10
-3.7932268484
 20
-33.3501803437
 30
0.0
 10
-4.1903230571
 20
-33.3064643776
 30
0.0
 10
-4.446598324
 20
-33.2803701844
 30
0.0
 10
-4.5703661177
 20
-33.2685373487
 30
0.0
 11
3.9031333371
 21
-34.0237973996
 31
0.0
 11
3.2704039223
 21
-34.0001873485
 31
0.0
 11
2.6417891347
 21
-33.9698586033
 31
0.0
 11
2.0200903346
 21
-33.9332802916
 31
0.0
 11
1.4071005715
 21
-33.8910012989
 31
0.0
 11
0.8056519929
 21
-33.8437653017
 31
0.0
 11
0.2169272701
 21
-33.7923040553
 31
0.0
 11
-0.3567232189
 21
-33.7375390447
 31
0.0
 11
-0.9126827611
 21
-33.6805217119
 31
0.0
 11
-1.4490479675
 21
-33.6223147482
 31
0.0
 11
-1.9651025365
 21
-33.5638982442
 31
0.0
 11
-2.4596636757
 21
-33.5063292825
 31
0.0
 11
-2.9311213737
 21
-33.4507347397
 31
0.0
 11
-3.3789315883
 21
-33.3981204631
 31
0.0
 11
-3.8018476305
 21
-33.3495645391
 31
0.0
 11
-4.1992605676
 21
-33.306047553
 31
0.0
 11
-4.5703661177
 21
-33.2685373487
 31
0.0
  0
SPLINE
  5
2FE
100
AcDbEntity
  8
ASSI
100
AcDbSpline
 62
7
  6
CONTINUOUS
 70
0
 71
3
 72
23
 73
19
 74
17
 42
0.0000001
 43
0.0000001
 44
0.0000000001
 12
0.2701800172
 22
8.5057094185
 32
0.0
 13
0.8099065889
 23
8.4713718647
 33
0.0
 40
0.0
 40
0.0
 40
0.0
 40
0.0
 40
0.0744023792
 40
0.1483559527
 40
0.2215373663
 40
0.2937399174
 40
0.364632279
 40
0.4340761759
 40
0.5017927049
 40
0.5674683015
 40
0.6308663025
 40
0.6918943165
 40
0.7504016219
 40
0.8061855224
 40
0.8591688339
 40
0.9091914239
 40
0.9561698611
 40
1.0
 40
1.0
 40
1.0
 40
1.0
 10
-28.5369520388
 20
1.9756295495
 30
0.0
 10
-28.5302513601
 20
2.1865778887
 30
0.0
 10
-28.5145449102
 20
2.6071312399
 30
0.0
 10
-28.4842323221
 20
3.2348388898
 30
0.0
 10
-28.4476527449
 20
3.8559614233
 30
0.0
 10
-28.4053947312
 20
4.4680180221
 30
0.0
 10
-28.3581374387
 20
5.069073333
 30
0.0
 10
-28.3066831362
 20
5.6570094437
 30
0.0
 10
-28.2519291301
 20
6.2297819068
 30
0.0
 10
-28.1948937238
 20
6.7850924495
 30
0.0
 10
-28.1366180012
 20
7.3211917583
 30
0.0
 10
-28.0781385847
 20
7.8368082368
 30
0.0
 10
-28.0205084975
 20
8.330780439
 30
0.0
 10
-27.9647926598
 20
8.802000033
 30
0.0
 10
-27.9120612746
 20
9.2493365522
 30
0.0
 10
-27.8633345387
 20
9.6719936883
 30
0.0
 10
-27.8196188133
 20
10.0690879012
 30
0.0
 10
-27.7935247606
 20
10.3253618692
 30
0.0
 10
-27.7816919878
 20
10.4491290043
 30
0.0
 11
-28.5369520388
 21
1.9756295495
 31
0.0
 11
-28.5133422256
 21
2.6083534108
 31
0.0
 11
-28.4830136006
 21
3.236967073
 31
0.0
 11
-28.4464353674
 21
3.8586657311
 31
0.0
 11
-28.404156618
 21
4.4716531111
 31
0.0
 11
-28.356921257
 21
5.073095059
 31
0.0
 11
-28.3054603328
 21
5.6618177314
 31
0.0
 11
-28.2506945761
 21
6.2354771112
 31
0.0
 11
-28.1936748153
 21
6.7914601694
 31
0.0
 11
-28.1354674826
 21
7.3278279981
 31
0.0
 11
-28.0770511408
 21
7.843880566
 31
0.0
 11
-28.0194825358
 21
8.3384383605
 31
0.0
 11
-27.9638883719
 21
8.80989279
 31
0.0
 11
-27.9112744041
 21
9.257700465
 31
0.0
 11
-27.8627187397
 21
9.6806144115
 31
0.0
 11
-27.8192019834
 21
10.0780254279
 31
0.0
 11
-27.7816919878
 21
10.4491290043
 31
0.0
  0
SPLINE
  5
2FF
100
AcDbEntity
  8
ASSI
100
AcDbSpline
 62
7
  6
CONTINUOUS
 70
0
 71
3
 72
23
 73
19
 74
17
 42
0.0000001
 43
0.0000001
 44
0.0000000001
 12
-8.4713718673
 22
-0.8099065892
 32
0.0
 13
-8.505709421
 23
-0.2701800173
 33
0.0
 40
0.0
 40
0.0
 40
0.0
 40
0.0
 40
0.043853355
 40
0.0908540648
 40
0.1408958299
 40
0.1938953466
 40
0.2496909074
 40
0.3082047391
 40
0.3692339669
 40
0.4326253955
 40
0.4982842978
 40
0.5659800782
 40
0.6354027005
 40
0.7062756496
 40
0.7784630493
 40
0.8516357767
 40
0.9255885667
 40
1.0
 40
1.0
 40
1.0
 40
1.0
 10
15.9359743652
 20
-33.2685373487
 30
0.0
 10
15.8121416726
 20
-33.280376389
 30
0.0
 10
15.5557394076
 20
-33.3064843294
 30
0.0
 10
15.1584630919
 20
-33.3502221793
 30
0.0
 10
14.7356437032
 20
-33.3989694949
 30
0.0
 10
14.288174772
 20
-33.4517174194
 30
0.0
 10
13.8168582422
 20
-33.5074442689
 30
0.0
 10
13.3228311493
 20
-33.5650787841
 30
0.0
 10
12.8072109984
 20
-33.6235552268
 30
0.0
 10
12.2711734021
 20
-33.6818198032
 30
0.0
 10
11.7159865777
 20
-33.7388377149
 30
0.0
 10
11.143379514
 20
-33.7935715771
 30
0.0
 10
10.5556167296
 20
-33.8450073944
 30
0.0
 10
9.9547191764
 20
-33.8922502785
 30
0.0
 10
9.3427849311
 20
-33.934499161
 30
0.0
 10
8.7217321425
 20
-33.9710749712
 30
0.0
 10
8.0940257086
 20
-34.0013882941
 30
0.0
 10
7.6734489201
 20
-34.0170959055
 30
0.0
 10
7.4624749104
 20
-34.0237973996
 30
0.0
 11
15.9359743652
 21
-33.2685373487
 31
0.0
 11
15.5646743142
 21
-33.3060681328
 31
0.0
 11
15.1670750915
 21
-33.3496074181
 31
0.0
 11
14.7439992333
 21
-33.3981834678
 31
0.0
 11
14.2960546986
 21
-33.4508144161
 31
0.0
 11
13.8245016713
 21
-33.506419763
 31
0.0
 11
13.3298884868
 21
-33.5639928678
 31
0.0
 11
12.8138252797
 21
-33.622407065
 31
0.0
 11
12.2775125866
 21
-33.6806040327
 31
0.0
 11
11.7216703757
 21
-33.7376046254
 31
0.0
 11
11.1481863626
 21
-33.7923493629
 31
0.0
 11
10.5596437657
 21
-33.8437912734
 31
0.0
 11
9.9583663556
 21
-33.8910117388
 31
0.0
 11
9.3455075637
 21
-33.933280954
 31
0.0
 11
8.723882717
 21
-33.9698551929
 31
0.0
 11
8.0952757528
 21
-34.0001842889
 31
0.0
 11
7.4624749104
 21
-34.0237973996
 31
0.0
  0
SPLINE
  5
300
100
AcDbEntity
  8
ASSI
100
AcDbSpline
 62
7
  6
CONTINUOUS
 70
0
 71
3
 72
23
 73
19
 74
17
 42
0.0000001
 43
0.0000001
 44
0.0000000001
 12
-0.2701800172
 22
-8.5057094184
 32
0.0
 13
-0.8099065889
 23
-8.4713718646
 33
0.0
 40
0.0
 40
0.0
 40
0.0
 40
0.0
 40
0.0744030997
 40
0.148356917
 40
0.2215383675
 40
0.2937405072
 40
0.3646325857
 40
0.4340770638
 40
0.5017938601
 40
0.5674694311
 40
0.6308668261
 40
0.6918947427
 40
0.7504016021
 40
0.8061851883
 40
0.8591685188
 40
0.909190759
 40
0.9561697055
 40
1.0
 40
1.0
 40
1.0
 40
1.0
 10
39.9025602862
 20
-1.5837120238
 30
0.0
 10
39.8958595426
 20
-1.7946624057
 30
0.0
 10
39.8801529679
 20
-2.2152184898
 30
0.0
 10
39.8498401656
 20
-2.8429289729
 30
0.0
 10
39.8132605237
 20
-3.4640511311
 30
0.0
 10
39.7710025726
 20
-4.0761058642
 30
0.0
 10
39.7237452706
 20
-4.677160852
 30
0.0
 10
39.6722907848
 20
-5.2650985569
 30
0.0
 10
39.6175364908
 20
-5.8378733377
 30
0.0
 10
39.560501127
 20
-6.3931828456
 30
0.0
 10
39.5022255921
 20
-6.9292800946
 30
0.0
 10
39.4437465273
 20
-7.4448933314
 30
0.0
 10
39.3861167193
 20
-7.9388631168
 30
0.0
 10
39.3304011308
 20
-8.4100806228
 30
0.0
 10
39.2776699559
 20
-8.8574153243
 30
0.0
 10
39.2289431488
 20
-9.2800729617
 30
0.0
 10
39.1852272994
 20
-9.6771680601
 30
0.0
 10
39.15913305
 20
-9.9334439039
 30
0.0
 10
39.1473002353
 20
-10.0572114786
 30
0.0
 11
39.9025602862
 21
-1.5837120238
 31
0.0
 11
39.8789502106
 21
-2.2164420111
 31
0.0
 11
39.8486214086
 21
-2.8450577416
 31
0.0
 11
39.8120430706
 21
-3.4667567084
 31
0.0
 11
39.7697644956
 21
-4.0797405908
 31
0.0
 11
39.7225292882
 21
-4.6811801342
 31
0.0
 11
39.6710678909
 21
-5.2699077305
 31
0.0
 11
39.616301853
 21
-5.8435693685
 31
0.0
 11
39.5592820517
 21
-6.3995522038
 31
0.0
 11
39.501075238
 21
-6.9359149006
 31
0.0
 11
39.4426589736
 21
-7.4519666433
 31
0.0
 11
39.3850908028
 21
-7.9465206675
 31
0.0
 11
39.3294969526
 21
-8.4179724408
 31
0.0
 11
39.276882962
 21
-8.8657802759
 31
0.0
 11
39.2283276202
 21
-9.2886912633
 31
0.0
 11
39.1848103702
 21
-9.686106585
 31
0.0
 11
39.1473002353
 21
-10.0572114786
 31
0.0
  0
SPLINE
  5
301
100
AcDbEntity
  8
ASSI
100
AcDbSpline
 62
7
  6
CONTINUOUS
 70
0
 71
3
 72
23
 73
19
 74
17
 42
0.0000001
 43
0.0000001
 44
0.0000000001
 12
-0.8099065892
 22
8.4713718673
 32
0.0
 13
-0.2701800173
 23
8.505709421
 33
0.0
 40
0.0
 40
0.0
 40
0.0
 40
0.0
 40
0.0438524563
 40
0.0908523093
 40
0.1408932615
 40
0.1938920117
 40
0.2496868458
 40
0.3082000852
 40
0.369229032
 40
0.432620931
 40
0.4982829929
 40
0.5659804383
 40
0.6354035062
 40
0.7062762683
 40
0.7784638093
 40
0.8516367517
 40
0.9255894301
 40
1.0
 40
1.0
 40
1.0
 40
1.0
 10
-27.7816919878
 20
-10.0572114786
 30
0.0
 10
-27.7935307856
 20
-9.9333813237
 30
0.0
 10
-27.8196381899
 20
-9.6769840101
 30
0.0
 10
-27.8633751633
 20
-9.2797149276
 30
0.0
 10
-27.9121216144
 20
-8.856902396
 30
0.0
 10
-27.9648687353
 20
-8.4094399568
 30
0.0
 10
-28.0205949083
 20
-7.938129304
 30
0.0
 10
-28.0782289852
 20
-7.4441067296
 30
0.0
 10
-28.1367054596
 20
-6.9284877326
 30
0.0
 10
-28.1949712756
 20
-6.3924407151
 30
0.0
 10
-28.251990887
 20
-5.8372389653
 30
0.0
 10
-28.3067262045
 20
-5.2646170223
 30
0.0
 10
-28.3581624563
 20
-4.6768487985
 30
0.0
 10
-28.4054053736
 20
-4.0759501099
 30
0.0
 10
-28.4476542318
 20
-3.4640153815
 30
0.0
 10
-28.4842300067
 20
-2.8429618953
 30
0.0
 10
-28.5145431415
 20
-2.2152576109
 30
0.0
 10
-28.5302506224
 20
-1.7946835856
 30
0.0
 10
-28.5369520388
 20
-1.5837120238
 30
0.0
 11
-27.7816919878
 21
-10.0572114786
 31
0.0
 11
-27.8192219673
 21
-9.685919033
 31
0.0
 11
-27.8627603854
 21
-9.288327051
 31
0.0
 11
-27.9113355767
 21
-8.8652580571
 31
0.0
 11
-27.963965728
 21
-8.4173199968
 31
0.0
 11
-28.0195703697
 21
-7.9457731131
 31
0.0
 11
-28.0771429795
 21
-7.4511649453
 31
0.0
 11
-28.135557067
 21
-6.9351041331
 31
0.0
 11
-28.1937546764
 21
-6.3987874825
 31
0.0
 11
-28.2507581683
 21
-5.8429185398
 31
0.0
 11
-28.3055042816
 21
-5.2694204239
 31
0.0
 11
-28.3569464805
 21
-4.6808740459
 31
0.0
 11
-28.4041667659
 21
-4.0795982187
 31
0.0
 11
-28.4464360063
 21
-3.4667382218
 31
0.0
 11
-28.4830102764
 21
-2.8451115449
 31
0.0
 11
-28.5133392425
 21
-2.2165055254
 31
0.0
 11
-28.5369520388
 21
-1.5837120238
 31
0.0
  0
SPLINE
  5
302
100
AcDbEntity
  8
ASSI
100
AcDbSpline
 62
7
  6
CONTINUOUS
 70
0
 71
3
 72
23
 73
19
 74
17
 42
0.0000001
 43
0.0000001
 44
0.0000000001
 12
0.8099065892
 22
-8.4713718674
 32
0.0
 13
0.2701800173
 23
-8.5057094211
 33
0.0
 40
0.0
 40
0.0
 40
0.0
 40
0.0
 40
0.0438525467
 40
0.0908521192
 40
0.1408936221
 40
0.1938925099
 40
0.2496877636
 40
0.3082014941
 40
0.3692305204
 40
0.4326229179
 40
0.4982848046
 40
0.5659817286
 40
0.6354039672
 40
0.7062768226
 40
0.778464657
 40
0.8516375226
 40
0.9255900067
 40
1.0
 40
1.0
 40
1.0
 40
1.0
 10
39.1473002353
 20
10.4491290043
 30
0.0
 10
39.1591390574
 20
10.3252985942
 30
0.0
 10
39.1852464102
 20
10.0689018173
 30
0.0
 10
39.2289834907
 20
9.6716317175
 30
0.0
 10
39.2777300804
 20
9.2488180375
 30
0.0
 10
39.3304775748
 20
8.8013524778
 30
0.0
 10
39.3862040946
 20
8.3300388718
 30
0.0
 10
39.4438384747
 20
7.8360135046
 30
0.0
 10
39.5023152423
 20
7.3203914885
 30
0.0
 10
39.5605811047
 20
6.7843433264
 30
0.0
 10
39.6176005535
 20
6.2291421251
 30
0.0
 10
39.6723353592
 20
5.6565244815
 30
0.0
 10
39.7237712363
 20
5.0687598055
 30
0.0
 10
39.7710140157
 20
4.4678623654
 30
0.0
 10
39.8132628762
 20
3.855926756
 30
0.0
 10
39.8498385836
 20
3.2348732027
 30
0.0
 10
39.8801515407
 20
2.6071713172
 30
0.0
 10
39.8958589217
 20
2.1865994767
 30
0.0
 10
39.9025602862
 20
1.9756295495
 30
0.0
 11
39.1473002353
 21
10.4491290043
 31
0.0
 11
39.1848302956
 21
10.0778357936
 31
0.0
 11
39.2283684519
 21
9.6802461841
 31
0.0
 11
39.2769441794
 21
9.2571725347
 31
0.0
 11
39.3295744724
 21
8.8092333123
 31
0.0
 11
39.3851795284
 21
8.3376828817
 31
0.0
 11
39.4427525975
 21
7.8430705601
 31
0.0
 11
39.501166713
 21
7.3270090696
 31
0.0
 11
39.559364702
 21
6.7906881929
 31
0.0
 11
39.6163679377
 21
6.2348207227
 31
0.0
 11
39.6711135306
 21
5.6613270154
 31
0.0
 11
39.7225550529
 21
5.0727876615
 31
0.0
 11
39.7697753608
 21
4.4715110398
 31
0.0
 11
39.8120447145
 21
3.8586485486
 31
0.0
 11
39.8486188751
 21
3.2370225194
 31
0.0
 11
39.8789477
 21
2.6084181491
 31
0.0
 11
39.9025602862
 21
1.9756295495
 31
0.0
  0
SPLINE
  5
303
100
AcDbEntity
  8
ASSI
100
AcDbSpline
 62
7
  6
CONTINUOUS
 70
0
 71
3
 72
23
 73
19
 74
17
 42
0.0000001
 43
0.0000001
 44
0.0000000001
 12
8.5057094183
 22
-0.2701800172
 32
0.0
 13
8.4713718646
 23
-0.8099065889
 33
0.0
 40
0.0
 40
0.0
 40
0.0
 40
0.0
 40
0.0744037506
 40
0.1483577004
 40
0.2215391721
 40
0.2937416009
 40
0.3646344661
 40
0.4340791821
 40
0.5017949207
 40
0.5674677166
 40
0.6308647774
 40
0.6918929352
 40
0.7504001942
 40
0.8061841696
 40
0.8591678031
 40
0.9091902939
 40
0.95616947
 40
1.0
 40
1.0
 40
1.0
 40
1.0
 10
7.4624749104
 20
34.4157149254
 30
0.0
 10
7.6734271377
 20
34.4090141231
 30
0.0
 10
8.0939854421
 20
34.3933074449
 30
0.0
 10
8.7216982019
 20
34.362994467
 30
0.0
 10
9.3428216101
 20
34.3264146814
 30
0.0
 10
9.9548794421
 20
34.2841564364
 30
0.0
 10
10.5559381358
 20
34.2368987254
 30
0.0
 10
11.1438757345
 20
34.1854441044
 30
0.0
 10
11.716640354
 20
34.1306906808
 30
0.0
 10
12.2719381054
 20
34.0736565481
 30
0.0
 10
12.8080272754
 20
34.0153819781
 30
0.0
 10
13.3236413839
 20
33.9569028795
 30
0.0
 10
13.8176140752
 20
33.8992727646
 30
0.0
 10
14.2888346573
 20
33.8435568178
 30
0.0
 10
14.7361720132
 20
33.7908253183
 30
0.0
 10
15.1588318555
 20
33.7420982366
 30
0.0
 10
15.5559289698
 20
33.6983821441
 30
0.0
 10
15.8122061256
 20
33.6722877528
 30
0.0
 10
15.9359743652
 20
33.6604548744
 30
0.0
 11
7.4624749104
 21
34.4157149254
 31
0.0
 11
8.0952104317
 21
34.3921046127
 31
0.0
 11
8.7238272858
 21
34.3617756908
 31
0.0
 11
9.3455264285
 21
34.3251972724
 31
0.0
 11
9.95851276
 21
34.2829184491
 31
0.0
 11
10.5599589683
 21
34.2356826019
 31
0.0
 11
11.1486885684
 21
34.1842208857
 31
0.0
 11
11.7223412369
 21
34.1294556012
 31
0.0
 11
12.2783005804
 21
34.0724382254
 31
0.0
 11
12.8146604591
 21
34.0142318024
 31
0.0
 11
13.3307142488
 21
33.9558153712
 31
0.0
 11
13.8252716548
 21
33.8982468398
 31
0.0
 11
14.2967267177
 21
33.8426526082
 31
0.0
 11
14.7445371122
 21
33.7900383062
 31
0.0
 11
15.1674502161
 21
33.7414827024
 31
0.0
 11
15.5648674789
 21
33.6979652202
 31
0.0
 11
15.9359743652
 21
33.6604548744
 31
0.0
  0
SPLINE
  5
304
100
AcDbEntity
  8
ASSI
100
AcDbSpline
 62
7
  6
CONTINUOUS
 70
0
 71
3
 72
26
 73
22
 74
20
 42
0.0000001
 43
0.0000001
 44
0.0000000001
 12
8.9510476171
 22
2.3658157838
 32
0.0
 13
9.2584198309
 23
0.0
 33
0.0
 40
0.0
 40
0.0
 40
0.0
 40
0.0
 40
0.0337983377
 40
0.0707602629
 40
0.1107564694
 40
0.1535971698
 40
0.1991489313
 40
0.247168634
 40
0.2974810371
 40
0.3498088585
 40
0.4039677293
 40
0.4596873546
 40
0.5167638723
 40
0.5749837652
 40
0.6341282919
 40
0.6940612522
 40
0.7545617426
 40
0.815555613
 40
0.8768498588
 40
0.9383860346
 40
1.0
 40
1.0
 40
1.0
 40
1.0
 10
-62.2079763557
 20
-34.4230028044
 30
0.0
 10
-62.1071328457
 20
-34.3963492575
 30
0.0
 10
-61.8957938357
 20
-34.341349159
 30
0.0
 10
-61.56431569
 20
-34.2579286429
 30
0.0
 10
-61.2049866959
 20
-34.1708853314
 30
0.0
 10
-60.8190054667
 20
-34.0813398781
 30
0.0
 10
-60.4079248706
 20
-33.9905111537
 30
0.0
 10
-59.9732729232
 20
-33.8996086163
 30
0.0
 10
-59.5170364163
 20
-33.8099148967
 30
0.0
 10
-59.0410543179
 20
-33.7226365692
 30
0.0
 10
-58.5474869437
 20
-33.6389774078
 30
0.0
 10
-58.0383068594
 20
-33.5600285121
 30
0.0
 10
-57.5156113079
 20
-33.4868085682
 30
0.0
 10
-56.9813750604
 20
-33.420217395
 30
0.0
 10
-56.4373985735
 20
-33.3610260613
 30
0.0
 10
-55.88553423
 20
-33.3099053334
 30
0.0
 10
-55.3272159889
 20
-33.2673787714
 30
0.0
 10
-54.7640736527
 20
-33.2338854484
 30
0.0
 10
-54.1972530017
 20
-33.2097355584
 30
0.0
 10
-53.6281922474
 20
-33.1951606613
 30
0.0
 10
-53.2481256752
 20
-33.1919132867
 30
0.0
 10
-53.0579763557
 20
-33.1919132867
 30
0.0
 11
-62.2079763557
 21
-34.4230028044
 31
0.0
 11
-61.9051429631
 21
-34.3441969545
 31
0.0
 11
-61.5732800336
 21
-34.2606864123
 31
0.0
 11
-61.2133850728
 21
-34.1735144851
 31
0.0
 11
-60.8270070126
 21
-34.0838871724
 31
0.0
 11
-60.4151994261
 21
-33.9929097663
 31
0.0
 11
-59.9800252719
 21
-33.9019115694
 31
0.0
 11
-59.5229580079
 21
-33.8120695211
 31
0.0
 11
-59.0464270461
 21
-33.7247066444
 31
0.0
 11
-58.5520500781
 21
-33.6409271173
 31
0.0
 11
-58.0422632212
 21
-33.5619012931
 31
0.0
 11
-57.5189321688
 21
-33.4886093176
 31
0.0
 11
-56.9840451852
 21
-33.4219533742
 31
0.0
 11
-56.4396719194
 21
-33.3627340735
 31
0.0
 11
-55.887151629
 21
-33.3115662536
 31
0.0
 11
-55.3286296509
 21
-33.2690358791
 31
0.0
 11
-54.764918377
 21
-33.2355181872
 31
0.0
 11
-54.1979445902
 21
-33.2113686905
 31
0.0
 11
-53.6284035049
 21
-33.1967857654
 31
0.0
 11
-53.0579763557
 21
-33.1919132867
 31
0.0
  0
SPLINE
  5
305
100
AcDbEntity
  8
ASSI
100
AcDbSpline
 62
7
  6
CONTINUOUS
 70
0
 71
3
 72
18
 73
14
 74
12
 42
0.0000001
 43
0.0000001
 44
0.0000000001
 12
7.0435431015
 22
1.5226983116
 32
0.0
 13
7.2062548922
 23
-0.0
 33
0.0
 40
0.0
 40
0.0
 40
0.0
 40
0.0
 40
0.0862941534
 40
0.174219754
 40
0.2634202103
 40
0.3538336996
 40
0.4452040386
 40
0.5371639638
 40
0.6293642752
 40
0.7217404714
 40
0.8142987685
 40
0.9070949569
 40
1.0
 40
1.0
 40
1.0
 40
1.0
 10
-62.2079763557
 20
-32.8777845995
 30
0.0
 10
-62.005370826
 20
-32.8339846123
 30
0.0
 10
-61.5955806758
 20
-32.74897813
 30
0.0
 10
-60.9738546817
 20
-32.6311699359
 30
0.0
 10
-60.340358415
 20
-32.5228588858
 30
0.0
 10
-59.6967805265
 20
-32.425064357
 30
0.0
 10
-59.0448792076
 20
-32.3387031399
 30
0.0
 10
-58.3871464873
 20
-32.2646270535
 30
0.0
 10
-57.7256617049
 20
-32.203440407
 30
0.0
 10
-57.0616421443
 20
-32.1555136718
 30
0.0
 10
-56.3953517805
 20
-32.1210703365
 30
0.0
 10
-55.7272261246
 20
-32.100306499
 30
0.0
 10
-55.2811421628
 20
-32.095681022
 30
0.0
 10
-55.0579763557
 20
-32.095681022
 30
0.0
 11
-62.2079763557
 21
-32.8777845995
 31
0.0
 11
-61.5990735261
 21
-32.7515138593
 31
0.0
 11
-60.9765295276
 21
-32.633589995
 31
0.0
 11
-60.3429160252
 21
-32.5252971316
 31
0.0
 11
-59.6987622806
 21
-32.4274514513
 31
0.0
 11
-59.0460227575
 21
-32.3410127327
 31
0.0
 11
-58.3874959977
 21
-32.2668769273
 31
0.0
 11
-57.7258990482
 21
-32.205704952
 31
0.0
 11
-57.0619383915
 21
-32.157802438
 31
0.0
 11
-56.3958283869
 21
-32.1233829392
 31
0.0
 11
-55.7274378187
 21
-32.1026198227
 31
0.0
 11
-55.0579763557
 21
-32.095681022
 31
0.0
  0
SPLINE
  5
306
100
AcDbEntity
  8
RACCORDO
100
AcDbSpline
 62
7
  6
CONTINUOUS
 70
0
 71
3
 72
14
 73
10
 74
8
 42
0.0000001
 43
0.0000001
 44
0.0000000001
 12
0.0
 22
0.3263154053
 32
0.0
 13
-0.2171463177
 23
0.2435759029
 33
0.0
 40
0.0
 40
0.0
 40
0.0
 40
0.0
 40
0.139707691
 40
0.2799650204
 40
0.4209173136
 40
0.5628338146
 40
0.7061499388
 40
0.851536858
 40
1.0
 40
1.0
 40
1.0
 40
1.0
 10
-40.0579763557
 20
-10.2806093326
 30
0.0
 10
-40.0579763557
 20
-10.2654130753
 30
0.0
 10
-40.0593054591
 20
-10.2349439138
 30
0.0
 10
-40.0653268164
 20
-10.1894993346
 30
0.0
 10
-40.0754985976
 20
-10.1445447179
 30
0.0
 10
-40.0900096249
 20
-10.1004397178
 30
0.0
 10
-40.1091461243
 20
-10.0575889812
 30
0.0
 10
-40.1333100132
 20
-10.0165167003
 30
0.0
 10
-40.1529072015
 20
-9.991120865
 30
0.0
 10
-40.1636532763
 20
-9.9790668504
 30
0.0
 11
-40.0579763557
 21
-10.2806093326
 31
0.0
 11
-40.0599691972
 21
-10.2350641385
 31
0.0
 11
-40.0659978394
 21
-10.1896947992
 31
0.0
 11
-40.0761784146
 21
-10.1448407343
 31
0.0
 11
-40.0906956642
 21
-10.1008654798
 31
0.0
 11
-40.1098249071
 21
-10.0581904864
 31
0.0
 11
-40.1339612451
 21
-10.0173471302
 31
0.0
 11
-40.1636532763
 21
-9.9790668504
 31
0.0
  0
SPLINE
  5
307
100
AcDbEntity
  8
RACCORDO
100
AcDbSpline
 62
7
  6
CONTINUOUS
 70
0
 71
3
 72
14
 73
10
 74
8
 42
0.0000001
 43
0.0000001
 44
0.0000000001
 12
0.0
 22
-0.3263154053
 32
0.0
 13
-0.2171463177
 23
-0.2435759029
 33
0.0
 40
0.0
 40
0.0
 40
0.0
 40
0.0
 40
0.139707691
 40
0.2799650204
 40
0.4209173136
 40
0.5628338146
 40
0.7061499388
 40
0.851536858
 40
1.0
 40
1.0
 40
1.0
 40
1.0
 10
-40.0579763557
 20
10.6725268583
 30
0.0
 10
-40.0579763557
 20
10.6573306011
 30
0.0
 10
-40.0593054591
 20
10.6268614396
 30
0.0
 10
-40.0653268164
 20
10.5814168604
 30
0.0
 10
-40.0754985976
 20
10.5364622437
 30
0.0
 10
-40.0900096249
 20
10.4923572436
 30
0.0
 10
-40.1091461243
 20
10.4495065069
 30
0.0
 10
-40.1333100132
 20
10.4084342261
 30
0.0
 10
-40.1529072015
 20
10.3830383908
 30
0.0
 10
-40.1636532763
 20
10.3709843761
 30
0.0
 11
-40.0579763557
 21
10.6725268583
 31
0.0
 11
-40.0599691972
 21
10.6269816643
 31
0.0
 11
-40.0659978394
 21
10.581612325
 31
0.0
 11
-40.0761784146
 21
10.53675826
 31
0.0
 11
-40.0906956642
 21
10.4927830056
 31
0.0
 11
-40.1098249071
 21
10.4501080121
 31
0.0
 11
-40.1339612451
 21
10.409264656
 31
0.0
 11
-40.1636532763
 21
10.3709843761
 31
0.0
  0
SPLINE
  5
308
100
AcDbEntity
  8
ASSI
100
AcDbSpline
 62
7
  6
CONTINUOUS
 70
0
 71
3
 72
18
 73
14
 74
12
 42
0.0000001
 43
0.0000001
 44
0.0000000001
 12
-7.206254892
 22
0.0
 32
0.0
 13
-7.0435431014
 23
1.5226983116
 33
0.0
 40
0.0
 40
0.0
 40
0.0
 40
0.0
 40
0.0929079901
 40
0.1857060863
 40
0.2782646968
 40
0.3706391109
 40
0.4628385097
 40
0.5547978716
 40
0.6461678585
 40
0.7365810874
 40
0.8257812663
 40
0.9137064651
 40
1.0
 40
1.0
 40
1.0
 40
1.0
 10
-55.0579763557
 20
32.4875985478
 30
0.0
 10
-55.2811492417
 20
32.4875985478
 30
0.0
 10
-55.7272448664
 20
32.4922242925
 30
0.0
 10
-56.3953829155
 20
32.5129890962
 30
0.0
 10
-57.0616742948
 20
32.5474332256
 30
0.0
 10
-57.7256881028
 20
32.5953601724
 30
0.0
 10
-58.3871650519
 20
32.6565465193
 30
0.0
 10
-59.044893373
 20
32.7306224236
 30
0.0
 10
-59.6967918599
 20
32.816983509
 30
0.0
 10
-60.3403676055
 20
32.9147779079
 30
0.0
 10
-60.9738616216
 20
33.0230887275
 30
0.0
 10
-61.5955845333
 20
33.140896443
 30
0.0
 10
-62.0053722782
 20
33.225902452
 30
0.0
 10
-62.2079763557
 20
33.2697021253
 30
0.0
 11
-55.0579763557
 21
32.4875985478
 31
0.0
 11
-55.7274590518
 21
32.4945377886
 31
0.0
 11
-56.3958633437
 21
32.515301912
 31
0.0
 11
-57.061975566
 21
32.5497222663
 31
0.0
 11
-57.7259233679
 21
32.5976244803
 31
0.0
 11
-58.3875137304
 21
32.6587962718
 31
0.0
 11
-59.046036421
 21
32.7329319332
 31
0.0
 11
-59.698773397
 21
32.8193705584
 31
0.0
 11
-60.3429252577
 21
32.9172161485
 31
0.0
 11
-60.9765367635
 21
33.0255088253
 31
0.0
 11
-61.5990778981
 21
33.1434322531
 31
0.0
 11
-62.2079763557
 21
33.2697021253
 31
0.0
  0
SPLINE
  5
309
100
AcDbEntity
  8
ASSI
100
AcDbSpline
 62
7
  6
CONTINUOUS
 70
0
 71
3
 72
26
 73
22
 74
20
 42
0.0000001
 43
0.0000001
 44
0.0000000001
 12
-9.2584198309
 22
0.0
 32
0.0
 13
-8.9510476171
 23
2.3658157838
 33
0.0
 40
0.0
 40
0.0
 40
0.0
 40
0.0
 40
0.061613969
 40
0.1231501488
 40
0.1844443986
 40
0.2454382726
 40
0.3059387664
 40
0.3658717298
 40
0.4250162606
 40
0.4832361581
 40
0.5403126774
 40
0.5960322998
 40
0.650191174
 40
0.7025190146
 40
0.7528314238
 40
0.8008510897
 40
0.846402889
 40
0.8892435936
 40
0.929239727
 40
0.9662016616
 40
1.0
 40
1.0
 40
1.0
 40
1.0
 10
-53.0579763557
 20
33.5838308125
 30
0.0
 10
-53.2481256865
 20
33.5838308125
 30
0.0
 10
-53.6281922821
 20
33.5870781875
 30
0.0
 10
-54.1972530721
 20
33.6016530864
 30
0.0
 10
-54.7640737587
 20
33.6258029794
 30
0.0
 10
-55.3272161286
 20
33.6592963064
 30
0.0
 10
-55.8855344008
 20
33.7018228734
 30
0.0
 10
-56.4373987763
 20
33.7529436074
 30
0.0
 10
-56.9813752992
 20
33.8121349485
 30
0.0
 10
-57.5156115775
 20
33.8787261295
 30
0.0
 10
-58.0383071387
 20
33.9519460791
 30
0.0
 10
-58.547487229
 20
34.0308949798
 30
0.0
 10
-59.0410546626
 20
34.1145541553
 30
0.0
 10
-59.517036847
 20
34.2018325038
 30
0.0
 10
-59.9732733174
 20
34.2915262226
 30
0.0
 10
-60.4079252856
 20
34.3824287687
 30
0.0
 10
-60.8190058966
 20
34.4732575005
 30
0.0
 10
-61.2049870314
 20
34.5628029378
 30
0.0
 10
-61.5643158464
 20
34.6498462082
 30
0.0
 10
-61.8957938037
 20
34.7332666764
 30
0.0
 10
-62.1071328437
 20
34.7882667828
 30
0.0
 10
-62.2079763557
 20
34.8149203302
 30
0.0
 11
-53.0579763557
 21
33.5838308125
 31
0.0
 11
-53.6284035387
 21
33.5887032918
 31
0.0
 11
-54.1979446604
 21
33.6032862186
 31
0.0
 11
-54.7649184837
 21
33.6274357184
 31
0.0
 11
-55.3286297919
 21
33.6609534144
 31
0.0
 11
-55.8871518
 21
33.7034837938
 31
0.0
 11
-56.4396721194
 21
33.7546516194
 31
0.0
 11
-56.9840454222
 21
33.8138709276
 31
0.0
 11
-57.5189324478
 21
33.8805268803
 31
0.0
 11
-58.0422635137
 21
33.953818862
 31
0.0
 11
-58.5520503445
 21
34.0328446863
 31
0.0
 11
-59.046427343
 21
34.1166242226
 31
0.0
 11
-59.5229584778
 21
34.2039871362
 31
0.0
 11
-59.980025796
 21
34.2938292016
 31
0.0
 11
-60.4151996155
 21
34.3848273329
 31
0.0
 11
-60.827007544
 21
34.4758048186
 31
0.0
 11
-61.2133856402
 21
34.5654321455
 31
0.0
 11
-61.5732799435
 21
34.6526039158
 31
0.0
 11
-61.905142957
 21
34.7361144787
 31
0.0
 11
-62.2079763557
 21
34.8149203302
 31
0.0
  0
SPLINE
  5
30A
100
AcDbEntity
  8
ASSI
100
AcDbSpline
 62
7
  6
CONTINUOUS
 70
0
 71
3
 72
25
 73
21
 74
19
 42
0.0000001
 43
0.0000001
 44
0.0000000001
 12
-6.3418986507
 22
0.4278083871
 32
0.0
 13
-6.1622651186
 23
1.5585849732
 33
0.0
 40
0.0
 40
0.0
 40
0.0
 40
0.0
 40
0.0873928048
 40
0.1723274968
 40
0.2546617652
 40
0.3340625153
 40
0.4101877515
 40
0.482748141
 40
0.5516998577
 40
0.6167662223
 40
0.6776282107
 40
0.733982772
 40
0.7852982479
 40
0.8314445338
 40
0.8724632296
 40
0.9083718673
 40
0.9391950527
 40
0.9648091474
 40
0.9851063885
 40
1.0
 40
1.0
 40
1.0
 40
1.0
 10
-62.2079763557
 20
33.2697021253
 30
0.0
 10
-62.3927217927
 20
33.2821645836
 30
0.0
 10
-62.7568156923
 20
33.309824758
 30
0.0
 10
-63.2941064101
 20
33.3596102629
 30
0.0
 10
-63.8137003027
 20
33.416122862
 30
0.0
 10
-64.3138457322
 20
33.4782544828
 30
0.0
 10
-64.7925232559
 20
33.5447842368
 30
0.0
 10
-65.248357034
 20
33.6145198514
 30
0.0
 10
-65.6801381734
 20
33.6862806566
 30
0.0
 10
-66.0866212735
 20
33.758879985
 30
0.0
 10
-66.4660450618
 20
33.8310316701
 30
0.0
 10
-66.8161412569
 20
33.9013408222
 30
0.0
 10
-67.1350550123
 20
33.9684866679
 30
0.0
 10
-67.4216572366
 20
34.0313307282
 30
0.0
 10
-67.6759533634
 20
34.0890613385
 30
0.0
 10
-67.8982576394
 20
34.1410391837
 30
0.0
 10
-68.0885297697
 20
34.1866419336
 30
0.0
 10
-68.2464574258
 20
34.225270856
 30
0.0
 10
-68.3714841693
 20
34.2563512117
 30
0.0
 10
-68.4437914265
 20
34.2745464433
 30
0.0
 10
-68.4743842207
 20
34.2822840963
 30
0.0
 11
-62.2079763557
 21
33.2697021253
 31
0.0
 11
-62.7618770723
 21
33.3117699317
 31
0.0
 11
-63.2994468438
 21
33.3615679696
 31
0.0
 11
-63.819722405
 21
33.4181407192
 31
0.0
 11
-64.3205702239
 21
33.4803454746
 31
0.0
 11
-64.7998408782
 21
33.5469439886
 31
0.0
 11
-65.2557549412
 21
33.616679083
 31
0.0
 11
-65.6881050584
 21
33.6885227397
 31
0.0
 11
-66.0952462091
 21
33.7612292225
 31
0.0
 11
-66.4752951298
 21
33.8334909129
 31
0.0
 11
-66.8264915168
 21
33.904013714
 31
0.0
 11
-67.1456720189
 21
33.9712100453
 31
0.0
 11
-67.4321860861
 21
34.0340305473
 31
0.0
 11
-67.6864446192
 21
34.0917495959
 31
0.0
 11
-67.908697257
 21
34.1437133047
 31
0.0
 11
-68.0992236085
 21
34.1893756633
 31
0.0
 11
-68.2573727599
 21
34.2280579979
 31
0.0
 11
-68.3825777962
 21
34.2591822916
 31
0.0
 11
-68.4743842207
 21
34.2822840963
 31
0.0
  0
SPLINE
  5
30B
100
AcDbEntity
  8
ASSI
100
AcDbSpline
 62
7
  6
CONTINUOUS
 70
0
 71
3
 72
25
 73
21
 74
19
 42
0.0000001
 43
0.0000001
 44
0.0000000001
 12
6.1622651189
 22
1.5585849733
 32
0.0
 13
6.3418986509
 23
0.4278083871
 33
0.0
 40
0.0
 40
0.0
 40
0.0
 40
0.0
 40
0.0148934707
 40
0.0351904385
 40
0.0608041516
 40
0.0916269143
 40
0.1275352032
 40
0.1685537746
 40
0.2147002953
 40
0.2660165101
 40
0.3223726466
 40
0.3832359962
 40
0.4483032778
 40
0.5172554424
 40
0.5898158338
 40
0.6659406789
 40
0.7453407337
 40
0.8276741308
 40
0.9126079316
 40
1.0
 40
1.0
 40
1.0
 40
1.0
 10
-68.4743842207
 20
-33.8903665705
 30
0.0
 10
-68.4437917157
 20
-33.8826289906
 30
0.0
 10
-68.3714853095
 20
-33.8644339723
 30
0.0
 10
-68.2464602035
 20
-33.8333540177
 30
0.0
 10
-68.088534769
 20
-33.794725622
 30
0.0
 10
-67.8982650223
 20
-33.74912341
 30
0.0
 10
-67.6759626067
 20
-33.6971459452
 30
0.0
 10
-67.4216669883
 20
-33.6394153769
 30
0.0
 10
-67.1350630231
 20
-33.5765708544
 30
0.0
 10
-66.8161439954
 20
-33.5094238361
 30
0.0
 10
-66.4660401646
 20
-33.4391131547
 30
0.0
 10
-66.0866083358
 20
-33.3669600469
 30
0.0
 10
-65.6801195147
 20
-33.2943598972
 30
0.0
 10
-65.2483354744
 20
-33.2225988795
 30
0.0
 10
-64.7925015272
 20
-33.1528635454
 30
0.0
 10
-64.3138262379
 20
-33.0863344089
 30
0.0
 10
-63.8136848919
 20
-33.0242035669
 30
0.0
 10
-63.294096155
 20
-32.9676917345
 30
0.0
 10
-62.7568106985
 20
-32.91790684
 30
0.0
 10
-62.392720236
 20
-32.8902469528
 30
0.0
 10
-62.2079763557
 20
-32.8777845995
 30
0.0
 11
-68.4743842207
 21
-33.8903665705
 31
0.0
 11
-68.3825786643
 21
-33.8672649832
 31
0.0
 11
-68.257375315
 21
-33.8361411027
 31
0.0
 11
-68.099228524
 21
-33.7974593288
 31
0.0
 11
-67.9087047926
 21
-33.7517975646
 31
0.0
 11
-67.686454326
 21
-33.6998343089
 31
0.0
 11
-67.4321965799
 21
-33.6421153655
 31
0.0
 11
-67.1456810713
 21
-33.5792944671
 31
0.0
 11
-66.826495986
 21
-33.5120971085
 31
0.0
 11
-66.4752897815
 21
-33.4415723405
 31
0.0
 11
-66.095232342
 21
-33.3693091373
 31
0.0
 11
-65.6880854184
 21
-33.2966018246
 31
0.0
 11
-65.2557324487
 21
-33.224757964
 31
0.0
 11
-64.7998183279
 21
-33.1550231672
 31
0.0
 11
-64.3205500936
 21
-33.0884252965
 31
0.0
 11
-63.8197066279
 21
-33.0262213533
 31
0.0
 11
-63.2994365502
 21
-32.9696494059
 31
0.0
 11
-62.7618724081
 21
-32.9198520121
 31
0.0
 11
-62.2079763557
 21
-32.8777845995
 31
0.0
  0
SPLINE
  5
30C
100
AcDbEntity
  8
RACCORDO
100
AcDbSpline
 62
7
  6
CONTINUOUS
 70
0
 71
3
 72
11
 73
7
 74
5
 42
0.0000001
 43
0.0000001
 44
0.0000000001
 12
-0.1065209496
 22
-0.0626497923
 32
0.0
 13
-0.1236546743
 23
0.0000318046
 33
0.0
 40
0.0
 40
0.0
 40
0.0
 40
0.0
 40
0.2706699158
 40
0.5369090578
 40
0.8026702838
 40
1.0
 40
1.0
 40
1.0
 40
1.0
 10
-40.1636532763
 20
10.3709843761
 30
0.0
 10
-40.1732639485
 20
10.3653319048
 30
0.0
 10
-40.19329215
 20
10.3556833172
 30
0.0
 10
-40.2250400208
 20
10.3460536187
 30
0.0
 10
-40.2548161183
 20
10.3414230051
 30
0.0
 10
-40.2739048334
 20
10.3405919538
 30
0.0
 10
-40.282038414
 20
10.3405940458
 30
0.0
 11
-40.1636532763
 21
10.3709843761
 31
0.0
 11
-40.1937644515
 21
10.3564187936
 31
0.0
 11
-40.2252286469
 21
10.3468004126
 31
0.0
 11
-40.2576699758
 21
10.3416831698
 31
0.0
 11
-40.282038414
 21
10.3405940458
 31
0.0
  0
SPLINE
  5
30D
100
AcDbEntity
  8
RACCORDO
100
AcDbSpline
 62
7
  6
CONTINUOUS
 70
0
 71
3
 72
11
 73
7
 74
5
 42
0.0000001
 43
0.0000001
 44
0.0000000001
 12
-0.1065209496
 22
0.0626497923
 32
0.0
 13
-0.1236546743
 23
-0.0000318046
 33
0.0
 40
0.0
 40
0.0
 40
0.0
 40
0.0
 40
0.2706699158
 40
0.5369090578
 40
0.8026702838
 40
1.0
 40
1.0
 40
1.0
 40
1.0
 10
-40.1636532763
 20
-9.9790668504
 30
0.0
 10
-40.1732639485
 20
-9.973414379
 30
0.0
 10
-40.19329215
 20
-9.9637657914
 30
0.0
 10
-40.2250400208
 20
-9.9541360929
 30
0.0
 10
-40.2548161183
 20
-9.9495054793
 30
0.0
 10
-40.2739048334
 20
-9.948674428
 30
0.0
 10
-40.282038414
 20
-9.94867652
 30
0.0
 11
-40.1636532763
 21
-9.9790668504
 31
0.0
 11
-40.1937644515
 21
-9.9645012678
 31
0.0
 11
-40.2252286469
 21
-9.9548828868
 31
0.0
 11
-40.2576699758
 21
-9.949765644
 31
0.0
 11
-40.282038414
 21
-9.94867652
 31
0.0
  0
SPLINE
  5
30E
100
AcDbEntity
  8
ASSI
100
AcDbSpline
 62
7
  6
CONTINUOUS
 70
0
 71
3
 72
30
 73
26
 74
24
 42
0.0000001
 43
0.0000001
 44
0.0000000001
 12
8.9541104751
 22
-2.3471220664
 32
0.0
 13
9.2566233797
 23
0.0
 33
0.0
 40
0.0
 40
0.0
 40
0.0
 40
0.0
 40
0.0175564434
 40
0.0383107386
 40
0.0622308076
 40
0.0892387501
 40
0.1192823324
 40
0.1522319763
 40
0.1880181742
 40
0.2265136957
 40
0.2675205957
 40
0.3108445214
 40
0.3563390617
 40
0.4037875439
 40
0.4529789151
 40
0.5037373276
 40
0.5558166382
 40
0.6090669767
 40
0.6632540996
 40
0.7182623722
 40
0.7738760413
 40
0.830005379
 40
0.8864706189
 40
0.9431870095
 40
1.0
 40
1.0
 40
1.0
 40
1.0
 10
-62.2079763557
 20
35.1025842085
 30
0.0
 10
-62.1555755777
 20
35.0888485033
 30
0.0
 10
-62.0411704505
 20
35.059099518
 30
0.0
 10
-61.8551275494
 20
35.0115775646
 30
0.0
 10
-61.6405539946
 20
34.957924084
 30
0.0
 10
-61.3978246884
 20
34.8987303312
 30
0.0
 10
-61.1275992764
 20
34.8347143259
 30
0.0
 10
-60.8305084378
 20
34.766636471
 30
0.0
 10
-60.5074078564
 20
34.695352006
 30
0.0
 10
-60.1593628779
 20
34.6217955423
 30
0.0
 10
-59.7878253162
 20
34.5469971358
 30
0.0
 10
-59.3943201919
 20
34.4719947711
 30
0.0
 10
-58.9804475288
 20
34.3978237998
 30
0.0
 10
-58.547879659
 20
34.3255018805
 30
0.0
 10
-58.0984032646
 20
34.2560178517
 30
0.0
 10
-57.6339213141
 20
34.1903177331
 30
0.0
 10
-57.1561773623
 20
34.1292507574
 30
0.0
 10
-56.6671203798
 20
34.0736113255
 30
0.0
 10
-56.1683249775
 20
34.0240616957
 30
0.0
 10
-55.6615908425
 20
33.9811989072
 30
0.0
 10
-55.1482939444
 20
33.9454911959
 30
0.0
 10
-54.6300246026
 20
33.9173346738
 30
0.0
 10
-54.1079828846
 20
33.8970152695
 30
0.0
 10
-53.5835809094
 20
33.8847441186
 30
0.0
 10
-53.2332751743
 20
33.8820092883
 30
0.0
 10
-53.0579763557
 20
33.8820092883
 30
0.0
 11
-62.2079763557
 21
35.1025842085
 31
0.0
 11
-62.0506932905
 21
35.0616863169
 31
0.0
 11
-61.8645548654
 21
35.0141411544
 31
0.0
 11
-61.6497487672
 21
34.9604313344
 31
0.0
 11
-61.4068638441
 21
34.9012022038
 31
0.0
 11
-61.1362507894
 21
34.8370978583
 31
0.0
 11
-60.8389528737
 21
34.7689770803
 31
0.0
 11
-60.5154716271
 21
34.6976143134
 31
0.0
 11
-60.1668326487
 21
34.6239392119
 31
0.0
 11
-59.7947117965
 21
34.5490314697
 31
0.0
 11
-59.400768683
 21
34.4739548319
 31
0.0
 11
-58.9862450686
 21
34.3996774194
 31
0.0
 11
-58.553043475
 21
34.3272605641
 31
0.0
 11
-58.1030409796
 21
34.2577067665
 31
0.0
 11
-57.6378187527
 21
34.1919137632
 31
0.0
 11
-57.1596294134
 21
34.1308015915
 31
0.0
 11
-56.6698691801
 21
34.0750934888
 31
0.0
 11
-56.170735067
 21
34.0255207878
 31
0.0
 11
-55.6633552785
 21
33.9826129229
 31
0.0
 11
-55.1498010543
 21
33.9468954991
 31
0.0
 11
-54.6309976219
 21
33.9187165965
 31
0.0
 11
-54.1087154517
 21
33.8983926905
 31
0.0
 11
-53.5838567935
 21
33.8861138565
 31
0.0
 11
-53.0579763557
 21
33.8820092883
 31
0.0
  0
SPLINE
  5
30F
100
AcDbEntity
  8
ASSI
100
AcDbSpline
 62
7
  6
CONTINUOUS
 70
0
 71
3
 72
19
 73
15
 74
13
 42
0.0000001
 43
0.0000001
 44
0.0000000001
 12
-7.2049502719
 22
0.0
 32
0.0
 13
-7.0459208036
 23
-1.5054263353
 33
0.0
 40
0.0
 40
0.0
 40
0.0
 40
0.0
 40
0.0860889404
 40
0.1721436805
 40
0.2579927368
 40
0.3436248373
 40
0.4288402949
 40
0.5135815
 40
0.597646625
 40
0.6808377036
 40
0.7629569049
 40
0.8436700363
 40
0.9228015822
 40
1.0
 40
1.0
 40
1.0
 40
1.0
 10
-55.0579763557
 20
-32.4957833137
 30
0.0
 10
-55.2647318673
 20
-32.4957833137
 30
0.0
 10
-55.6781714819
 20
-32.4997062871
 30
0.0
 10
-56.297564341
 20
-32.5173272906
 30
0.0
 10
-56.9154203754
 20
-32.5465775078
 30
0.0
 10
-57.5306080612
 20
-32.5872540737
 30
0.0
 10
-58.1422853187
 20
-32.6390860936
 30
0.0
 10
-58.749170554
 20
-32.7016808438
 30
0.0
 10
-59.350009064
 20
-32.7745514944
 30
0.0
 10
-59.9432399405
 20
-32.8570687306
 30
0.0
 10
-60.5270210672
 20
-32.948449866
 30
0.0
 10
-61.0996034138
 20
-33.0478044493
 30
0.0
 10
-61.6589142365
 20
-33.1540731557
 30
0.0
 10
-62.0266650431
 20
-33.229798505
 30
0.0
 10
-62.2079763557
 20
-33.2685373487
 30
0.0
 11
-55.0579763557
 21
-32.4957833137
 31
0.0
 11
-55.6782149894
 21
-32.5016664714
 31
0.0
 11
-56.2979845434
 21
-32.519291814
 31
0.0
 11
-56.9158312385
 21
-32.548531228
 31
0.0
 11
-57.5314629234
 21
-32.5892228868
 31
0.0
 11
-58.143245052
 21
-32.6410460172
 31
0.0
 11
-58.7505814733
 21
-32.7036663498
 31
0.0
 11
-59.3518633104
 21
-32.7765671516
 31
0.0
 11
-59.9455386596
 21
-32.859120503
 31
0.0
 11
-60.5300894444
 21
-32.9505949291
 31
0.0
 11
-61.1030663334
 21
-33.0499900556
 31
0.0
 11
-61.6631898844
 21
-33.1563851691
 31
0.0
 11
-62.2079763557
 21
-33.2685373487
 31
0.0
  0
SPLINE
  5
310
100
AcDbEntity
  8
RACCORDO
100
AcDbSpline
 62
253
  6
CONTINUOUS
 70
0
 71
3
 72
18
 73
14
 74
12
 42
0.0000001
 43
0.0000001
 44
0.0000000001
 12
0.0
 22
-0.3080933
 32
0.0
 13
-0.3080933
 23
0.0
 33
0.0
 40
0.0
 40
0.0
 40
0.0
 40
0.0
 40
0.0216837548
 40
0.0567421283
 40
0.1085631307
 40
0.1772739923
 40
0.2619584805
 40
0.3611439091
 40
0.472965356
 40
0.5952531968
 40
0.7255992064
 40
0.861416764
 40
1.0
 40
1.0
 40
1.0
 40
1.0
 10
-40.0579763557
 20
11.1571551775
 30
0.0
 10
-40.0579763557
 20
11.1549283043
 30
0.0
 10
-40.0616970293
 20
11.1495516957
 30
0.0
 10
-40.0715655421
 20
11.144430005
 30
0.0
 10
-40.0866620029
 20
11.1389756868
 30
0.0
 10
-40.1071586821
 20
11.1340201895
 30
0.0
 10
-40.1326899646
 20
11.1293691188
 30
0.0
 10
-40.162785888
 20
11.1252686317
 30
0.0
 10
-40.1968403962
 20
11.1217712695
 30
0.0
 10
-40.2341682861
 20
11.118971301
 30
0.0
 10
-40.2740122333
 20
11.1169259063
 30
0.0
 10
-40.3155629932
 20
11.1156809902
 30
0.0
 10
-40.3437441668
 20
11.1154032472
 30
0.0
 10
-40.3579763557
 20
11.1154032472
 30
0.0
 11
-40.0579763557
 21
11.1571551775
 31
0.0
 11
-40.0610299231
 21
11.1512132583
 31
0.0
 11
-40.0701284636
 21
11.1453922994
 31
0.0
 11
-40.0850867571
 21
11.1398107988
 31
0.0
 11
-40.1056002958
 21
11.1345823797
 31
0.0
 11
-40.1312514834
 21
11.1298134778
 31
0.0
 11
-40.1615181355
 21
11.1256011739
 31
0.0
 11
-40.1957841104
 21
11.1220312186
 31
0.0
 11
-40.2333518518
 21
11.1191762858
 31
0.0
 11
-40.2734565886
 21
11.1170944937
 31
0.0
 11
-40.3152819042
 21
11.1158282216
 31
0.0
 11
-40.3579763557
 21
11.1154032472
 31
0.0
  0
SPLINE
  5
311
100
AcDbEntity
  8
RACCORDO
100
AcDbSpline
 62
7
  6
CONTINUOUS
 70
0
 71
3
 72
13
 73
9
 74
7
 42
0.0000001
 43
0.0000001
 44
0.0000000001
 12
-0.2074998307
 22
0.1220400433
 32
0.0
 13
-0.1871936444
 23
0.1513555133
 33
0.0
 40
0.0
 40
0.0
 40
0.0
 40
0.0
 40
0.1474455383
 40
0.3055853106
 40
0.4718841666
 40
0.644247101
 40
0.8208502093
 40
1.0
 40
1.0
 40
1.0
 40
1.0
 10
-40.1636532763
 20
10.3709843761
 30
0.0
 10
-40.1738515844
 20
10.3769824628
 30
0.0
 10
-40.1946122739
 20
10.3900532476
 30
0.0
 10
-40.2258664226
 20
10.4114383579
 30
0.0
 10
-40.2581433022
 20
10.4348416266
 30
0.0
 10
-40.2911190659
 20
10.4597870711
 30
0.0
 10
-40.3245153672
 20
10.4858762114
 30
0.0
 10
-40.3467977883
 20
10.503720939
 30
0.0
 10
-40.3579763557
 20
10.5127593752
 30
0.0
 11
-40.1636532763
 21
10.3709843761
 31
0.0
 11
-40.1937644515
 21
10.3897769254
 31
0.0
 11
-40.2252286469
 21
10.4112065235
 31
0.0
 11
-40.2576699758
 21
10.4346625256
 31
0.0
 11
-40.2907829179
 21
10.4596658673
 31
0.0
 11
-40.324301533
 21
10.4858170368
 31
0.0
 11
-40.3579763557
 21
10.5127593752
 31
0.0
  0
SPLINE
  5
312
100
AcDbEntity
  8
RACCORDO
100
AcDbSpline
 62
253
  6
CONTINUOUS
 70
0
 71
3
 72
18
 73
14
 74
12
 42
0.0000001
 43
0.0000001
 44
0.0000000001
 12
0.0
 22
0.3701749656
 32
0.0
 13
-0.3701749656
 23
0.0000000004
 33
0.0
 40
0.0
 40
0.0
 40
0.0
 40
0.0
 40
0.0625288784
 40
0.1280355098
 40
0.1989068545
 40
0.2766595092
 40
0.3619616051
 40
0.4547836855
 40
0.5545605915
 40
0.6603264025
 40
0.7708213762
 40
0.8845788908
 40
1.0
 40
1.0
 40
1.0
 40
1.0
 10
-40.0579763557
 20
11.4277876501
 30
0.0
 10
-40.0579763557
 20
11.4355031919
 30
0.0
 10
-40.0601397829
 20
11.4513733684
 30
0.0
 10
-40.0696264173
 20
11.4742545183
 30
0.0
 10
-40.0849968768
 20
11.4959730771
 30
0.0
 10
-40.1058292149
 20
11.5161463675
 30
0.0
 10
-40.1316760492
 20
11.5344562943
 30
0.0
 10
-40.1620264414
 20
11.5505847086
 30
0.0
 10
-40.1962869508
 20
11.5642346079
 30
0.0
 10
-40.2337824334
 20
11.5751429994
 30
0.0
 10
-40.2737687457
 20
11.5830947159
 30
0.0
 10
-40.3154433456
 20
11.5879307311
 30
0.0
 10
-40.343734354
 20
11.5890100744
 30
0.0
 10
-40.3579763557
 20
11.5890100744
 30
0.0
 11
-40.0579763557
 21
11.4277876501
 31
0.0
 11
-40.0610299181
 21
11.4507319746
 31
0.0
 11
-40.0701284454
 21
11.4732092227
 31
0.0
 11
-40.0850867211
 21
11.4947618232
 31
0.0
 11
-40.1056002414
 21
11.5149510277
 31
0.0
 11
-40.1312514135
 21
11.5333658418
 31
0.0
 11
-40.1615180567
 21
11.5496313918
 31
0.0
 11
-40.1957840312
 21
11.5634165566
 31
0.0
 11
-40.2333517815
 21
11.5744407082
 31
0.0
 11
-40.2734565361
 21
11.582479425
 31
0.0
 11
-40.3152818761
 21
11.5873690603
 31
0.0
 11
-40.3579763557
 21
11.5890100744
 31
0.0
  0
SPLINE
  5
313
100
AcDbEntity
  8
RACCORDO
100
AcDbSpline
 62
253
  6
CONTINUOUS
 70
0
 71
3
 72
17
 73
13
 74
11
 42
0.0000001
 43
0.0000001
 44
0.0000000001
 12
-0.0862290907
 22
0.3772332835
 32
0.0
 13
-0.3865089972
 23
0.0
 33
0.0
 40
0.0
 40
0.0
 40
0.0
 40
0.0
 40
0.0629544337
 40
0.1586350534
 40
0.2562861573
 40
0.3562574735
 40
0.4586938526
 40
0.5635373525
 40
0.6705452279
 40
0.7793185819
 40
0.8893375254
 40
1.0
 40
1.0
 40
1.0
 40
1.0
 10
-40.0633978997
 20
17.8692753951
 30
0.0
 10
-40.0652074008
 20
17.8771915643
 30
0.0
 10
-40.0708801572
 20
17.8968808019
 30
0.0
 10
-40.0843388566
 20
17.9271920138
 30
0.0
 10
-40.1050149179
 20
17.9590019878
 30
0.0
 10
-40.1308245153
 20
17.9879719844
 30
0.0
 10
-40.1612289864
 20
18.0135239288
 30
0.0
 10
-40.1956037285
 20
18.0351531245
 30
0.0
 10
-40.2332490249
 20
18.0524336347
 30
0.0
 10
-40.2734059327
 20
18.0650256138
 30
0.0
 10
-40.3152572331
 20
18.072681339
 30
0.0
 10
-40.3437190083
 20
18.0743921902
 30
0.0
 10
-40.3579763557
 20
18.0743921902
 30
0.0
 11
-40.0633978997
 21
17.8692753951
 31
0.0
 11
-40.0701284632
 21
17.8926728967
 31
0.0
 11
-40.0850867563
 21
17.9264941166
 31
0.0
 11
-40.1056002948
 21
17.9581758318
 31
0.0
 11
-40.1312514821
 21
17.9870730938
 31
0.0
 11
-40.1615181341
 21
18.0125976376
 31
0.0
 11
-40.195784109
 21
18.0342298572
 31
0.0
 11
-40.2333518505
 21
18.0515293828
 31
0.0
 11
-40.2734565877
 21
18.064144046
 31
0.0
 11
-40.3152819037
 21
18.0718170485
 31
0.0
 11
-40.3579763557
 21
18.0743921902
 31
0.0
  0
SPLINE
  5
314
100
AcDbEntity
  8
ASSI
100
AcDbSpline
 62
7
  6
CONTINUOUS
 70
0
 71
3
 72
23
 73
19
 74
17
 42
0.0000001
 43
0.0000001
 44
0.0000000001
 12
5.1577150666
 22
-1.1389994562
 32
0.0
 13
5.2702831558
 23
-0.3513686488
 33
0.0
 40
0.0
 40
0.0
 40
0.0
 40
0.0
 40
0.0208667708
 40
0.048089939
 40
0.0815869176
 40
0.1212790465
 40
0.16697883
 40
0.2185790331
 40
0.2758477255
 40
0.3384622991
 40
0.4061124761
 40
0.478612092
 40
0.5557080535
 40
0.6370519135
 40
0.7224507181
 40
0.8115688779
 40
0.9041803956
 40
1.0
 40
1.0
 40
1.0
 40
1.0
 10
-67.4306386355
 20
34.4157149254
 30
0.0
 10
-67.3947636828
 20
34.4077925118
 30
0.0
 10
-67.3120589889
 20
34.3896547373
 30
0.0
 10
-67.1716434804
 20
34.3593559528
 30
0.0
 10
-66.998670423
 20
34.3228051814
 30
0.0
 10
-66.7936470417
 20
34.2805913148
 30
0.0
 10
-66.5571122613
 20
34.2333899889
 30
0.0
 10
-66.2898624156
 20
34.1820019599
 30
0.0
 10
-65.9929248867
 20
34.1273349645
 30
0.0
 10
-65.6676820866
 20
34.0704060155
 30
0.0
 10
-65.3154460532
 20
34.0122460042
 30
0.0
 10
-64.9374201557
 20
33.953889363
 30
0.0
 10
-64.5348896433
 20
33.8963982805
 30
0.0
 10
-64.1091716222
 20
33.8408378479
 30
0.0
 10
-63.6617505451
 20
33.788281701
 30
0.0
 10
-63.1939223355
 20
33.7397561298
 30
0.0
 10
-62.7071741812
 20
33.6962725965
 30
0.0
 10
-62.3763085048
 20
33.6716775428
 30
0.0
 10
-62.2079763557
 20
33.6604548744
 30
0.0
 11
-67.4306386355
 21
34.4157149254
 31
0.0
 11
-67.3229792421
 21
34.3921046127
 31
0.0
 11
-67.1824218328
 21
34.3617756908
 31
0.0
 11
-67.0093137418
 21
34.3251972724
 31
0.0
 11
-66.8039678275
 21
34.2829184491
 31
0.0
 11
-66.5672491659
 21
34.2356826019
 31
0.0
 11
-66.2996002258
 21
34.1842208857
 31
0.0
 11
-66.0021068126
 21
34.1294556012
 31
0.0
 11
-65.6763296409
 21
34.0724382254
 31
0.0
 11
-65.3237751659
 21
34.0142318024
 31
0.0
 11
-64.9453152656
 21
33.9558153712
 31
0.0
 11
-64.542185469
 21
33.8982468398
 31
0.0
 11
-64.1161404933
 21
33.8426526082
 31
0.0
 11
-63.6681444867
 21
33.7900383062
 31
0.0
 11
-63.1999348732
 21
33.7414827024
 31
0.0
 11
-62.7127019448
 21
33.6979652202
 31
0.0
 11
-62.2079763557
 21
33.6604548744
 31
0.0
  0
SPLINE
  5
315
100
AcDbEntity
  8
RACCORDO
100
AcDbSpline
 62
253
  6
CONTINUOUS
 70
0
 71
3
 72
18
 73
14
 74
12
 42
0.0000001
 43
0.0000001
 44
0.0000000001
 12
0.0
 22
0.3300380661
 32
0.0
 13
-0.3300380661
 23
0.0
 33
0.0
 40
0.0
 40
0.0
 40
0.0
 40
0.0
 40
0.0410318506
 40
0.0889235388
 40
0.14778097
 40
0.21919896
 40
0.3032825145
 40
0.3992678436
 40
0.5058338919
 40
0.6212714833
 40
0.7435914309
 40
0.8706062056
 40
1.0
 40
1.0
 40
1.0
 40
1.0
 10
-40.0579763557
 20
-16.9790880946
 30
0.0
 10
-40.0579763557
 20
-16.9745740704
 30
0.0
 10
-40.0604765592
 20
-16.9647249745
 30
0.0
 10
-40.0704562701
 20
-16.951557228
 30
0.0
 10
-40.0859102966
 20
-16.9392952417
 30
0.0
 10
-40.1066474531
 20
-16.9279064468
 30
0.0
 10
-40.1323420003
 20
-16.9175243092
 30
0.0
 10
-40.162543795
 20
-16.9083449562
 30
0.0
 10
-40.1966728338
 20
-16.9005556127
 30
0.0
 10
-40.2340553274
 20
-16.8943200926
 30
0.0
 10
-40.2739424838
 20
-16.8897698271
 30
0.0
 10
-40.3155291275
 20
-16.8870007768
 30
0.0
 10
-40.3437413964
 20
-16.8863829963
 30
0.0
 10
-40.3579763557
 20
-16.8863829963
 30
0.0
 11
-40.0579763557
 21
-16.9790880946
 31
0.0
 11
-40.0610299231
 21
-16.9658947836
 31
0.0
 11
-40.0701284636
 21
-16.9529700503
 31
0.0
 11
-40.0850867571
 21
-16.940577005
 31
0.0
 11
-40.1056002958
 21
-16.9289679345
 31
0.0
 11
-40.1312514834
 21
-16.9183791659
 31
0.0
 11
-40.1615181355
 21
-16.9090262561
 31
0.0
 11
-40.1957841104
 21
-16.9010996032
 31
0.0
 11
-40.2333518518
 21
-16.8947605711
 31
0.0
 11
-40.2734565886
 21
-16.8901382042
 31
0.0
 11
-40.3152819042
 21
-16.8873266006
 31
0.0
 11
-40.3579763557
 21
-16.8863829963
 31
0.0
  0
SPLINE
  5
316
100
AcDbEntity
  8
RACCORDO
100
AcDbSpline
 62
7
  6
CONTINUOUS
 70
0
 71
3
 72
10
 73
6
 74
4
 42
0.0000001
 43
0.0000001
 44
0.0000000001
 12
-0.0767696137
 22
-0.0000197456
 32
0.0
 13
-0.0743911071
 23
-0.0187697184
 33
0.0
 40
0.0
 40
0.0
 40
0.0
 40
0.0
 40
0.1139278714
 40
0.5525136031
 40
1.0
 40
1.0
 40
1.0
 40
1.0
 10
-40.282038414
 20
-9.94867652
 30
0.0
 10
-40.2849538136
 20
-9.9486772698
 30
0.0
 10
-40.299092319
 20
-9.9489028577
 30
0.0
 10
-40.3246139271
 20
-9.9512068763
 30
0.0
 10
-40.3468800195
 20
-9.9556654351
 30
0.0
 10
-40.3579763557
 20
-9.9584651663
 30
0.0
 11
-40.282038414
 21
-9.94867652
 31
0.0
 11
-40.2907829179
 21
-9.948814836
 31
0.0
 11
-40.324301533
 21
-9.9517785484
 31
0.0
 11
-40.3579763557
 21
-9.9584651663
 31
0.0
  0
SPLINE
  5
317
100
AcDbEntity
  8
ASSI
100
AcDbSpline
 62
7
  6
CONTINUOUS
 70
0
 71
3
 72
23
 73
19
 74
17
 42
0.0000001
 43
0.0000001
 44
0.0000000001
 12
-5.2702831451
 22
-0.351368648
 32
0.0
 13
-5.1577150562
 23
-1.1389994539
 33
0.0
 40
0.0
 40
0.0
 40
0.0
 40
0.0
 40
0.0958669719
 40
0.1885142334
 40
0.2776571015
 40
0.3630699927
 40
0.4444182525
 40
0.5215101529
 40
0.5939987566
 40
0.6616316904
 40
0.7242234822
 40
0.781468006
 40
0.8330469382
 40
0.8787312484
 40
0.9184142004
 40
0.9519073693
 40
0.9791307397
 40
1.0
 40
1.0
 40
1.0
 40
1.0
 10
-62.2079763557
 20
-33.2685373487
 30
0.0
 10
-62.3763917178
 20
-33.2797655648
 30
0.0
 10
-62.707403251
 20
-33.3043727162
 30
0.0
 10
-63.1943400559
 20
-33.3478781531
 30
0.0
 10
-63.6622980897
 20
-33.3964242502
 30
0.0
 10
-64.1097937684
 20
-33.4489972318
 30
0.0
 10
-64.5355359169
 20
-33.5045690555
 30
0.0
 10
-64.9380467382
 20
-33.5620650754
 30
0.0
 10
-65.3160153756
 20
-33.6204196652
 30
0.0
 10
-65.6681618577
 20
-33.67857041
 30
0.0
 10
-65.9932926297
 20
-33.7354838239
 30
0.0
 10
-66.2901115533
 20
-33.7901316277
 30
0.0
 10
-66.5572558078
 20
-33.8415008088
 30
0.0
 10
-66.793711176
 20
-33.888686922
 30
0.0
 10
-66.9986854432
 20
-33.930890849
 30
0.0
 10
-67.1716364815
 20
-33.9674369474
 30
0.0
 10
-67.3120500766
 20
-33.9977352656
 30
0.0
 10
-67.3947594028
 20
-34.0158740409
 30
0.0
 10
-67.4306386355
 20
-34.0237973996
 30
0.0
 11
-62.2079763557
 21
-33.2685373487
 31
0.0
 11
-62.7129513091
 21
-33.3060681328
 31
0.0
 11
-63.2003718391
 21
-33.3496074181
 31
0.0
 11
-63.6687105396
 21
-33.3981834678
 31
0.0
 11
-64.116779507
 21
-33.4508144161
 31
0.0
 11
-64.5428464678
 21
-33.506419763
 31
0.0
 11
-64.9459539418
 21
-33.5639928678
 31
0.0
 11
-65.3243553313
 21
-33.622407065
 31
0.0
 11
-65.6768190558
 21
-33.6806040327
 31
0.0
 11
-66.0024770017
 21
-33.7376046254
 31
0.0
 11
-66.2998443936
 21
-33.7923493629
 31
0.0
 11
-66.5673827307
 21
-33.8437912734
 31
0.0
 11
-66.8040211198
 21
-33.8910117388
 31
0.0
 11
-67.0093195233
 21
-33.933280954
 31
0.0
 11
-67.1824079295
 21
-33.9698551929
 31
0.0
 11
-67.3229663939
 21
-34.0001842889
 31
0.0
 11
-67.4306386355
 21
-34.0237973996
 31
0.0
  0
SPLINE
  5
318
100
AcDbEntity
  8
RACCORDO
100
AcDbSpline
 62
7
  6
CONTINUOUS
 70
0
 71
3
 72
13
 73
9
 74
7
 42
0.0000001
 43
0.0000001
 44
0.0000000001
 12
-0.1870180531
 22
0.1760268485
 32
0.0
 13
-0.2028508152
 23
0.1575206348
 33
0.0
 40
0.0
 40
0.0
 40
0.0
 40
0.0
 40
0.1601320989
 40
0.3255166408
 40
0.4938912957
 40
0.6634487633
 40
0.8326335065
 40
1.0
 40
1.0
 40
1.0
 40
1.0
 10
-40.1636532763
 20
-17.6085708468
 30
0.0
 10
-40.1736358074
 20
-17.5991749972
 30
0.0
 10
-40.1940353128
 20
-17.5801883249
 30
0.0
 10
-40.225352055
 20
-17.5517783675
 30
0.0
 10
-40.2576729548
 20
-17.5232803116
 30
0.0
 10
-40.290679017
 20
-17.4950747183
 30
0.0
 10
-40.3240943824
 20
-17.4674903116
 30
0.0
 10
-40.3466595458
 20
-17.4495714872
 30
0.0
 10
-40.3579763557
 20
-17.4407835951
 30
0.0
 11
-40.1636532763
 21
-17.6085708468
 31
0.0
 11
-40.1937644515
 21
-17.5805581107
 31
0.0
 11
-40.2252286469
 21
-17.5520243005
 31
0.0
 11
-40.2576699758
 21
-17.5234312609
 31
0.0
 11
-40.2907829179
 21
-17.4951487544
 31
0.0
 11
-40.324301533
 21
-17.4674984116
 31
0.0
 11
-40.3579763557
 21
-17.4407835951
 31
0.0
  0
SPLINE
  5
319
100
AcDbEntity
  8
RACCORDO
100
AcDbSpline
 62
253
  6
CONTINUOUS
 70
0
 71
3
 72
18
 73
14
 74
12
 42
0.0000001
 43
0.0000001
 44
0.0000000001
 12
0.0
 22
0.3700181012
 32
0.0
 13
-0.3700181012
 23
0.0
 33
0.0
 40
0.0
 40
0.0
 40
0.0
 40
0.0
 40
0.0624630118
 40
0.1279128013
 40
0.1987423008
 40
0.27647043
 40
0.3617650981
 40
0.454595269
 40
0.5543935697
 40
0.6601915805
 40
0.770726928
 40
0.8845302936
 40
1.0
 40
1.0
 40
1.0
 40
1.0
 10
-40.0579763557
 20
-10.5897004182
 30
0.0
 10
-40.0579763557
 20
-10.5819962698
 30
0.0
 10
-40.0601403034
 20
-10.5661478501
 30
0.0
 10
-40.0696281871
 20
-10.5433002298
 30
0.0
 10
-40.0849994437
 20
-10.5216145971
 30
0.0
 10
-40.1058319559
 20
-10.5014723557
 30
0.0
 10
-40.1316785743
 20
-10.4831906612
 30
0.0
 10
-40.1620285776
 20
-10.4670870527
 30
0.0
 10
-40.1962886454
 20
-10.4534580767
 30
0.0
 10
-40.2337836852
 20
-10.4425663596
 30
0.0
 10
-40.2737695667
 20
-10.4346267737
 30
0.0
 10
-40.3154437577
 20
-10.4297981268
 30
0.0
 10
-40.3437343952
 20
-10.4287204304
 30
0.0
 10
-40.3579763557
 20
-10.4287204304
 30
0.0
 11
-40.0579763557
 21
-10.5897004182
 31
0.0
 11
-40.0610299233
 21
-10.5667905766
 31
0.0
 11
-40.0701284642
 21
-10.5443471135
 31
0.0
 11
-40.0850867582
 21
-10.5228269131
 31
0.0
 11
-40.1056002975
 21
-10.5026680646
 31
0.0
 11
-40.1312514854
 21
-10.484280944
 31
0.0
 11
-40.1615181377
 21
-10.4680398599
 31
0.0
 11
-40.1957841126
 21
-10.454275434
 31
0.0
 11
-40.2333518537
 21
-10.4432678702
 31
0.0
 11
-40.27345659
 21
-10.4352412508
 31
0.0
 11
-40.3152819049
 21
-10.4303589745
 31
0.0
 11
-40.3579763557
 21
-10.4287204304
 31
0.0
  0
SPLINE
  5
31A
100
AcDbEntity
  8
RACCORDO
100
AcDbSpline
 62
253
  6
CONTINUOUS
 70
0
 71
3
 72
18
 73
14
 74
12
 42
0.0000001
 43
0.0000001
 44
0.0000000001
 12
0.0
 22
0.434853544
 32
0.0
 13
-0.434853544
 23
0.0000000003
 33
0.0
 40
0.0
 40
0.0
 40
0.0
 40
0.0
 40
0.0831459119
 40
0.1669617856
 40
0.2520485265
 40
0.3388806137
 40
0.4277679905
 40
0.5188391615
 40
0.6120429751
 40
0.7071645072
 40
0.8038504134
 40
0.9016400733
 40
1.0
 40
1.0
 40
1.0
 40
1.0
 10
-40.0579763557
 20
-16.7651601869
 30
0.0
 10
-40.0579763557
 20
-16.7531080888
 30
0.0
 10
-40.0600386048
 20
-16.7288576103
 30
0.0
 10
-40.0692365361
 20
-16.693333074
 30
0.0
 10
-40.0843381057
 20
-16.6593005295
 30
0.0
 10
-40.1050138312
 20
-16.6274711738
 30
0.0
 10
-40.1308232091
 20
-16.5984833433
 30
0.0
 10
-40.1612276127
 20
-16.5729155415
 30
0.0
 10
-40.1956024382
 20
-16.5512728466
 30
0.0
 10
-40.2332479454
 20
-16.5339815116
 30
0.0
 10
-40.2734051625
 20
-16.5213816273
 30
0.0
 10
-40.315256827
 20
-16.51372109
 30
0.0
 10
-40.3437189681
 20
-16.5120091578
 30
0.0
 10
-40.3579763557
 20
-16.5120091578
 30
0.0
 11
-40.0579763557
 21
-16.7651601869
 31
0.0
 11
-40.0610299184
 21
-16.7291330668
 31
0.0
 11
-40.0701284465
 21
-16.6938393492
 31
0.0
 11
-40.0850867233
 21
-16.6599975113
 31
0.0
 11
-40.1056002447
 21
-16.6282964748
 31
0.0
 11
-40.1312514178
 21
-16.5993815822
 31
0.0
 11
-40.1615180614
 21
-16.5738414587
 31
0.0
 11
-40.195784036
 21
-16.5521960298
 31
0.0
 11
-40.2333517857
 21
-16.5348859367
 31
0.0
 11
-40.2734565392
 21
-16.5222635655
 31
0.0
 11
-40.3152818778
 21
-16.5145858735
 31
0.0
 11
-40.3579763557
 21
-16.5120091578
 31
0.0
  0
SPLINE
  5
31B
100
AcDbEntity
  8
ASSI
100
AcDbSpline
 62
7
  6
CONTINUOUS
 70
0
 71
3
 72
30
 73
26
 74
24
 42
0.0000001
 43
0.0000001
 44
0.0000000001
 12
-9.2566233798
 22
0.0
 32
0.0
 13
-8.9541104751
 23
-2.3471220664
 33
0.0
 40
0.0
 40
0.0
 40
0.0
 40
0.0
 40
0.0568129753
 40
0.1135293507
 40
0.1699945754
 40
0.2261238984
 40
0.2817375535
 40
0.3367458124
 40
0.3909329217
 40
0.4441832475
 40
0.4962625485
 40
0.5470209532
 40
0.5962123118
 40
0.6436607784
 40
0.6891553226
 40
0.7324792884
 40
0.7734863443
 40
0.8119819146
 40
0.8477680889
 40
0.8807176977
 40
0.9107612764
 40
0.9377692162
 40
0.9616892755
 40
0.9824435611
 40
1.0
 40
1.0
 40
1.0
 40
1.0
 10
-53.0579763557
 20
-33.4900917625
 30
0.0
 10
-53.2332751274
 20
-33.4900917625
 30
0.0
 10
-53.5835807685
 20
-33.4928265913
 30
0.0
 10
-54.1079826032
 20
-33.5050977357
 30
0.0
 10
-54.6300241826
 20
-33.5254171292
 30
0.0
 10
-55.1482933896
 20
-33.5535736365
 30
0.0
 10
-55.6615901577
 20
-33.5892813293
 30
0.0
 10
-56.1683241663
 20
-33.6321440959
 30
0.0
 10
-56.6671194471
 20
-33.681693701
 30
0.0
 10
-57.1561763212
 20
-33.7373331063
 30
0.0
 10
-57.6339201828
 20
-33.7984000554
 30
0.0
 10
-58.098402044
 20
-33.8641001457
 30
0.0
 10
-58.5478783309
 20
-33.9335841416
 30
0.0
 10
-58.9804461297
 20
-34.0059060319
 30
0.0
 10
-59.3943188821
 20
-34.0800770024
 30
0.0
 10
-59.7878246148
 20
-34.1550794695
 30
0.0
 10
-60.1593629176
 20
-34.2298780216
 30
0.0
 10
-60.5074084414
 20
-34.3034346062
 30
0.0
 10
-60.8305089915
 20
-34.3747190705
 30
0.0
 10
-61.1275996418
 20
-34.4427968857
 30
0.0
 10
-61.3978249292
 20
-34.5068128633
 30
0.0
 10
-61.6405541874
 20
-34.5660066059
 30
0.0
 10
-61.8551276762
 20
-34.619660071
 30
0.0
 10
-62.0411705062
 20
-34.6671820066
 30
0.0
 10
-62.1555755911
 20
-34.696930981
 30
0.0
 10
-62.2079763557
 20
-34.7106666827
 30
0.0
 11
-53.0579763557
 21
-33.4900917625
 31
0.0
 11
-53.5838566528
 21
-33.4941963286
 31
0.0
 11
-54.10871517
 21
-33.506475156
 31
0.0
 11
-54.6309972007
 21
-33.5267990511
 31
0.0
 11
-55.1498004978
 21
-33.5549779388
 31
0.0
 11
-55.6633545923
 21
-33.5906953443
 31
0.0
 11
-56.1707342558
 21
-33.6336031873
 31
0.0
 11
-56.6698682447
 21
-33.6831758633
 31
0.0
 11
-57.1596283628
 21
-33.7388839388
 31
0.0
 11
-57.6378176163
 21
-33.7999960843
 31
0.0
 11
-58.1030397736
 21
-33.8657890621
 31
0.0
 11
-58.5530421564
 21
-33.935342826
 31
0.0
 11
-58.98624361
 21
-34.0077596408
 31
0.0
 11
-59.4007672635
 21
-34.0820370435
 31
0.0
 11
-59.7947107441
 21
-34.1571137375
 31
0.0
 11
-60.1668330111
 21
-34.2320217609
 31
0.0
 11
-60.5154724307
 21
-34.3056969613
 31
0.0
 11
-60.8389534619
 21
-34.3770596869
 31
0.0
 11
-61.1362510601
 21
-34.4451803956
 31
0.0
 11
-61.4068640823
 21
-34.5092847353
 31
0.0
 11
-61.6497489809
 21
-34.5685138614
 31
0.0
 11
-61.8645549922
 21
-34.6222236607
 31
0.0
 11
-62.0506933307
 21
-34.6697688015
 31
0.0
 11
-62.2079763557
 21
-34.7106666827
 31
0.0
  0
SPLINE
  5
31C
100
AcDbEntity
  8
RACCORDO
100
AcDbSpline
 62
253
  6
CONTINUOUS
 70
0
 71
3
 72
18
 73
14
 74
12
 42
0.0000001
 43
0.0000001
 44
0.0000000001
 12
0.0
 22
0.4593886317
 32
0.0
 13
-0.4593886317
 23
0.0000000003
 33
0.0
 40
0.0
 40
0.0
 40
0.0
 40
0.0
 40
0.088638397
 40
0.177464102
 40
0.2666481414
 40
0.3563306862
 40
0.4466095885
 40
0.5375329763
 40
0.6290963132
 40
0.7212438355
 40
0.8138739146
 40
0.9068476638
 40
1.0
 40
1.0
 40
1.0
 40
1.0
 10
-40.0579763557
 20
-10.4239177954
 30
0.0
 10
-40.0579763557
 20
-10.4103446381
 30
0.0
 10
-40.060024105
 20
-10.3831256879
 30
0.0
 10
-40.0691718808
 20
-10.3431829402
 30
0.0
 10
-40.0842069575
 20
-10.3048843919
 30
0.0
 10
-40.1048180672
 20
-10.2690240128
 30
0.0
 10
-40.1305801159
 20
-10.236328386
 30
0.0
 10
-40.1609638581
 20
-10.2074615222
 30
0.0
 10
-40.1953477912
 20
-10.1830067554
 30
0.0
 10
-40.2330300532
 20
-10.1634571341
 30
0.0
 10
-40.2732471261
 20
-10.1492058604
 30
0.0
 10
-40.3151725934
 20
-10.140539121
 30
0.0
 10
-40.3437119809
 20
-10.1386008405
 30
0.0
 10
-40.3579763557
 20
-10.1386008405
 30
0.0
 11
-40.0579763557
 21
-10.4239177954
 31
0.0
 11
-40.0610299201
 21
-10.3833129787
 31
0.0
 11
-40.0701284529
 21
-10.3435347549
 31
0.0
 11
-40.0850867359
 21
-10.3053928929
 31
0.0
 11
-40.1056002639
 21
-10.269663851
 31
0.0
 11
-40.1312514425
 21
-10.2370749698
 31
0.0
 11
-40.1615180894
 21
-10.2082896662
 31
0.0
 11
-40.1957840641
 21
-10.1838939274
 31
0.0
 11
-40.2333518108
 21
-10.1643843822
 31
0.0
 11
-40.273456558
 21
-10.1501581905
 31
0.0
 11
-40.3152818878
 21
-10.1415049579
 31
0.0
 11
-40.3579763557
 21
-10.1386008405
 31
0.0
  0
SPLINE
  5
31D
100
AcDbEntity
  8
RACCORDO
100
AcDbSpline
 62
253
  6
CONTINUOUS
 70
0
 71
3
 72
18
 73
14
 74
12
 42
0.0000001
 43
0.0000001
 44
0.0000000001
 12
-0.0061626986
 22
-0.4647400421
 32
0.0
 13
-0.4646604878
 23
0.0000000001
 33
0.0
 40
0.0
 40
0.0
 40
0.0
 40
0.0
 40
0.0828545167
 40
0.1741165078
 40
0.2654477668
 40
0.3568757629
 40
0.4484200562
 40
0.5400907304
 40
0.6318876108
 40
0.7238003199
 40
0.8158091518
 40
0.9078866855
 40
1.0
 40
1.0
 40
1.0
 40
1.0
 10
-40.0580021551
 20
-17.4921464974
 30
0.0
 10
-40.0581723575
 20
-17.504981768
 30
0.0
 10
-40.0602991687
 20
-17.5319637838
 30
0.0
 10
-40.0691528979
 20
-17.5722524992
 30
0.0
 10
-40.0841670449
 20
-17.6121090944
 30
0.0
 10
-40.1047558179
 20
-17.6494396198
 30
0.0
 10
-40.1304990653
 20
-17.6834871715
 30
0.0
 10
-40.1608717116
 20
-17.7135581928
 30
0.0
 10
-40.195254963
 20
-17.7390414904
 30
0.0
 10
-40.232947741
 20
-17.7594192011
 30
0.0
 10
-40.2731858142
 20
-17.7742775187
 30
0.0
 10
-40.3151393686
 20
-17.7833148431
 30
0.0
 10
-40.3437092165
 20
-17.7853366805
 30
0.0
 10
-40.3579763557
 20
-17.7853366805
 30
0.0
 11
-40.0580021551
 21
-17.4921464974
 31
0.0
 11
-40.06102992
 21
-17.5305351903
 31
0.0
 11
-40.0701284522
 21
-17.5719534482
 31
0.0
 11
-40.0850867347
 21
-17.6116678782
 31
0.0
 11
-40.105600262
 21
-17.6488700093
 31
0.0
 11
-40.1312514401
 21
-17.6828025127
 31
0.0
 11
-40.1615180867
 21
-17.7127746195
 31
0.0
 11
-40.1957840615
 21
-17.7381761821
 31
0.0
 11
-40.2333518084
 21
-17.7584900961
 31
0.0
 11
-40.2734565562
 21
-17.7733028267
 31
0.0
 11
-40.3152818869
 21
-17.7823128277
 31
0.0
 11
-40.3579763557
 21
-17.7853366805
 31
0.0
  0
SPLINE
  5
31E
100
AcDbEntity
  8
RACCORDO
100
AcDbSpline
 62
7
  6
CONTINUOUS
 70
0
 71
3
 72
13
 73
9
 74
7
 42
0.0000001
 43
0.0000001
 44
0.0000000001
 12
-0.1591982755
 22
-0.1498420621
 32
0.0
 13
-0.2172266429
 23
-0.0246844108
 33
0.0
 40
0.0
 40
0.0
 40
0.0
 40
0.0
 40
0.1801033212
 40
0.3535231271
 40
0.5213355243
 40
0.6844761803
 40
0.8437778606
 40
1.0
 40
1.0
 40
1.0
 40
1.0
 10
-40.1636532763
 20
-17.6085708468
 30
0.0
 10
-40.1732106557
 20
-17.6175665311
 30
0.0
 10
-40.1929582535
 20
-17.634208226
 30
0.0
 10
-40.2245392151
 20
-17.6554508048
 30
0.0
 10
-40.2570941678
 20
-17.6726620593
 30
0.0
 10
-40.2903180754
 20
-17.6859798749
 30
0.0
 10
-40.3239434833
 20
-17.6954917317
 30
0.0
 10
-40.3466644854
 20
-17.6993551905
 30
0.0
 10
-40.3579763557
 20
-17.7006406077
 30
0.0
 11
-40.1636532763
 21
-17.6085708468
 31
0.0
 11
-40.1937644515
 21
-17.6339422809
 31
0.0
 11
-40.2252286469
 21
-17.6550956236
 31
0.0
 11
-40.2576699758
 21
-17.6722293345
 31
0.0
 11
-40.2907829179
 21
-17.6854821499
 31
0.0
 11
-40.324301533
 21
-17.6949394954
 31
0.0
 11
-40.3579763557
 21
-17.7006406077
 31
0.0
  0
SPLINE
  5
31F
100
AcDbEntity
  8
ASSI
100
AcDbSpline
 62
7
  6
CONTINUOUS
 70
0
 71
3
 72
19
 73
15
 74
13
 42
0.0000001
 43
0.0000001
 44
0.0000000001
 12
7.0459208036
 22
-1.5054263353
 32
0.0
 13
7.2049502719
 23
0.0
 33
0.0
 40
0.0
 40
0.0
 40
0.0
 40
0.0
 40
0.0771984178
 40
0.1563299637
 40
0.2370430951
 40
0.3191622964
 40
0.402353375
 40
0.4864185
 40
0.5711597051
 40
0.6563751627
 40
0.7420072632
 40
0.8278563195
 40
0.9139110596
 40
1.0
 40
1.0
 40
1.0
 40
1.0
 10
-62.2079763557
 20
33.6604548744
 30
0.0
 10
-62.0266650431
 20
33.6217160307
 30
0.0
 10
-61.6589142365
 20
33.5459906815
 30
0.0
 10
-61.0996034138
 20
33.4397219751
 30
0.0
 10
-60.5270210672
 20
33.3403673918
 30
0.0
 10
-59.9432399405
 20
33.2489862564
 30
0.0
 10
-59.350009064
 20
33.1664690202
 30
0.0
 10
-58.749170554
 20
33.0935983696
 30
0.0
 10
-58.1422853187
 20
33.0310036194
 30
0.0
 10
-57.5306080612
 20
32.9791715994
 30
0.0
 10
-56.9154203754
 20
32.9384950335
 30
0.0
 10
-56.297564341
 20
32.9092448164
 30
0.0
 10
-55.6781714819
 20
32.8916238129
 30
0.0
 10
-55.2647318673
 20
32.8877008394
 30
0.0
 10
-55.0579763557
 20
32.8877008394
 30
0.0
 11
-62.2079763557
 21
33.6604548744
 31
0.0
 11
-61.6631898844
 21
33.5483026949
 31
0.0
 11
-61.1030663334
 21
33.4419075813
 31
0.0
 11
-60.5300894444
 21
33.3425124549
 31
0.0
 11
-59.9455386596
 21
33.2510380288
 31
0.0
 11
-59.3518633104
 21
33.1684846774
 31
0.0
 11
-58.7505814733
 21
33.0955838756
 31
0.0
 11
-58.143245052
 21
33.032963543
 31
0.0
 11
-57.5314629234
 21
32.9811404125
 31
0.0
 11
-56.9158312385
 21
32.9404487538
 31
0.0
 11
-56.2979845434
 21
32.9112093397
 31
0.0
 11
-55.6782149894
 21
32.8935839972
 31
0.0
 11
-55.0579763557
 21
32.8877008394
 31
0.0
  0
SPLINE
  5
320
100
AcDbEntity
  8
RACCORDO
100
AcDbSpline
 62
7
  6
CONTINUOUS
 70
0
 71
3
 72
12
 73
8
 74
6
 42
0.0000001
 43
0.0000001
 44
0.0000000001
 12
-0.0459898107
 22
-0.1606410932
 32
0.0
 13
-0.1367288354
 23
-0.0958365544
 33
0.0
 40
0.0
 40
0.0
 40
0.0
 40
0.0
 40
0.1785912021
 40
0.3647182392
 40
0.5612668
 40
0.7716457036
 40
1.0
 40
1.0
 40
1.0
 40
1.0
 10
-40.0659978394
 20
-17.4769558969
 30
0.0
 10
-40.0687356313
 20
-17.4865189255
 30
0.0
 10
-40.075707745
 20
-17.5056532124
 30
0.0
 10
-40.0903825544
 20
-17.5333403071
 30
0.0
 10
-40.1097246688
 20
-17.5602135352
 30
0.0
 10
-40.1341332392
 20
-17.5859358654
 30
0.0
 10
-40.1532457373
 20
-17.6012759505
 30
0.0
 10
-40.1636532763
 20
-17.6085708468
 30
0.0
 11
-40.0659978394
 21
-17.4769558969
 31
0.0
 11
-40.0761784146
 21
-17.5049838274
 31
0.0
 11
-40.0906956642
 21
-17.5324626162
 31
0.0
 11
-40.1098249071
 21
-17.5591289117
 31
0.0
 11
-40.1339612451
 21
-17.5846506731
 31
0.0
 11
-40.1636532763
 21
-17.6085708468
 31
0.0
  0
ELLIPSE
  5
321
100
AcDbEntity
  8
ASSI
100
AcDbEllipse
 62
7
  6
CONTINUOUS
 10
5.6828041237
 20
-24.7095145062
 30
0.0
 11
-0.0
 21
47.4837186195
 31
0.0
 40
0.8514070372
 41
-1.0438390961
 42
-1.0371098141
  0
ELLIPSE
  5
322
100
AcDbEntity
  8
ASSI
100
AcDbEllipse
 62
7
  6
CONTINUOUS
 10
5.6828041237
 20
25.101432032
 30
0.0
 11
-0.0
 21
47.4837186195
 31
0.0
 40
0.8514070372
 41
-4.1854317497
 42
-4.1787024677
  0
ELLIPSE
  5
323
100
AcDbEntity
  8
ASSI
100
AcDbEllipse
 62
7
  6
CONTINUOUS
 10
5.6828041237
 20
25.101432032
 30
0.0
 11
-0.0
 21
47.4837186195
 31
0.0
 40
0.8514070372
 41
-2.1044828395
 42
-2.0977535574
  0
ELLIPSE
  5
324
100
AcDbEntity
  8
ASSI
100
AcDbEllipse
 62
7
  6
CONTINUOUS
 10
30.5882773928
 20
0.1959587629
 30
0.0
 11
47.4837186195
 21
0.0
 31
0.0
 40
0.8514070372
 41
2.0977535574
 42
2.1044828395
  0
ELLIPSE
  5
325
100
AcDbEntity
  8
ASSI
100
AcDbEllipse
 62
7
  6
CONTINUOUS
 10
30.5882773928
 20
0.1959587629
 30
0.0
 11
47.4837186195
 21
0.0
 31
0.0
 40
0.8514070372
 41
-2.1044828395
 42
-2.0977535574
  0
ELLIPSE
  5
326
100
AcDbEntity
  8
ASSI
100
AcDbEllipse
 62
7
  6
CONTINUOUS
 10
5.6828041237
 20
-23.9222036889
 30
0.0
 11
0.0
 21
45.9826652202
 31
0.0
 40
0.8514070372
 41
1.0565433911
 42
1.0635153241
  0
ELLIPSE
  5
327
100
AcDbEntity
  8
ASSI
100
AcDbEllipse
 62
7
  6
CONTINUOUS
 10
5.6828041237
 20
-23.9222036889
 30
0.0
 11
0.0
 21
45.9826652202
 31
0.0
 40
0.8514070372
 41
-1.0635153241
 42
-1.0565433911
  0
ELLIPSE
  5
328
100
AcDbEntity
  8
ASSI
100
AcDbEllipse
 62
7
  6
CONTINUOUS
 10
-19.2226691454
 20
0.1959587629
 30
0.0
 11
47.4837186195
 21
0.0
 31
0.0
 40
0.8514070372
 41
1.0371098141
 42
1.0438390961
  0
ELLIPSE
  5
329
100
AcDbEntity
  8
ASSI
100
AcDbEllipse
 62
7
  6
CONTINUOUS
 10
5.6828041237
 20
24.3141212147
 30
0.0
 11
-0.0
 21
45.9826652202
 31
0.0
 40
0.8514070372
 41
-4.2051079777
 42
-4.1981360447
  0
ELLIPSE
  5
32A
100
AcDbEntity
  8
ASSI
100
AcDbEllipse
 62
7
  6
CONTINUOUS
 10
-19.2226691454
 20
0.1959587629
 30
0.0
 11
47.4837186195
 21
0.0
 31
0.0
 40
0.8514070372
 41
-1.0438390961
 42
-1.0371098141
  0
ELLIPSE
  5
32B
100
AcDbEntity
  8
ASSI
100
AcDbEllipse
 62
7
  6
CONTINUOUS
 10
5.6828041237
 20
24.3141212147
 30
0.0
 11
-0.0
 21
45.9826652202
 31
0.0
 40
0.8514070372
 41
-2.0850492625
 42
-2.0780773295
  0
ELLIPSE
  5
32C
100
AcDbEntity
  8
ASSI
100
AcDbEllipse
 62
7
  6
CONTINUOUS
 10
29.8009665755
 20
0.1959587629
 30
0.0
 11
45.9826652202
 21
-0.0
 31
0.0
 40
0.8514070372
 41
-2.0850492625
 42
-2.0780773295
  0
ELLIPSE
  5
32D
100
AcDbEntity
  8
ASSI
100
AcDbEllipse
 62
7
  6
CONTINUOUS
 10
29.8009665755
 20
0.1959587629
 30
0.0
 11
45.9826652202
 21
-0.0
 31
0.0
 40
0.8514070372
 41
2.0780773295
 42
2.0850492625
  0
ELLIPSE
  5
32E
100
AcDbEntity
  8
ASSI
100
AcDbEllipse
 62
7
  6
CONTINUOUS
 10
-18.4353583281
 20
0.1959587629
 30
0.0
 11
45.9826652202
 21
0.0
 31
0.0
 40
0.8514070372
 41
-1.0635153241
 42
-1.0565433911
  0
ELLIPSE
  5
32F
100
AcDbEntity
  8
ASSI
100
AcDbEllipse
 62
7
  6
CONTINUOUS
 10
-18.4353583281
 20
0.1959587629
 30
0.0
 11
45.9826652202
 21
0.0
 31
0.0
 40
0.8514070372
 41
1.0565433911
 42
1.0635153241
  0
ELLIPSE
  5
330
100
AcDbEntity
  8
ASSI
100
AcDbEllipse
 62
7
  6
CONTINUOUS
 10
5.6828041237
 20
-24.7095145062
 30
0.0
 11
-0.0
 21
47.4837186195
 31
0.0
 40
0.8514070372
 41
1.0371098141
 42
1.0438390961
  0
ELLIPSE
  5
331
100
AcDbEntity
  8
0
100
AcDbEllipse
 62
7
  6
CONTINUOUS
 10
-39.75893825
 20
0.1959587629
 30
0.0
 11
127.6361376189
 21
0.0
 31
0.0
 40
0.2679491924
 41
1.5927279095
 42
1.6007903376
  0
ELLIPSE
  5
332
100
AcDbEntity
  8
0
100
AcDbEllipse
 62
7
  6
CONTINUOUS
 10
-39.75893825
 20
0.1959587629
 30
0.0
 11
127.6361376189
 21
0.0
 31
0.0
 40
0.2679491924
 41
-1.6007903376
 42
-1.5927279095
  0
ELLIPSE
  5
333
100
AcDbEntity
  8
ASSI
100
AcDbEllipse
 62
7
  6
CONTINUOUS
 10
15.9377472234
 20
0.1959587629
 30
0.0
 11
171.6096428693
 21
-0.0
 31
0.0
 40
0.2281338281
 41
2.0780773295
 42
2.0850492625
  0
ELLIPSE
  5
334
100
AcDbEntity
  8
ASSI
100
AcDbEllipse
 62
7
  6
CONTINUOUS
 10
15.9377472234
 20
0.1959587629
 30
0.0
 11
171.6096428693
 21
-0.0
 31
0.0
 40
0.2281338281
 41
-2.0850492625
 42
-2.0780773295
  0
ELLIPSE
  5
335
100
AcDbEntity
  8
0
100
AcDbEllipse
 62
7
  6
CONTINUOUS
 10
-39.75893825
 20
0.1959587629
 30
0.0
 11
130.6217782649
 21
0.0
 31
0.0
 40
0.2679491924
 41
1.5922265385
 42
1.6001045615
  0
ELLIPSE
  5
336
100
AcDbEntity
  8
0
100
AcDbEllipse
 62
7
  6
CONTINUOUS
 10
-39.75893825
 20
0.1959587629
 30
0.0
 11
130.6217782649
 21
0.0
 31
0.0
 40
0.2679491924
 41
-1.6001045615
 42
-1.5922265385
  0
ELLIPSE
  5
337
100
AcDbEntity
  8
ASSI
100
AcDbEllipse
 62
7
  6
CONTINUOUS
 10
26.6182971326
 20
0.1959587629
 30
0.0
 11
177.2116504204
 21
-0.0
 31
0.0
 40
0.2281338281
 41
2.0977535574
 42
2.1044828395
  0
ELLIPSE
  5
338
100
AcDbEntity
  8
ASSI
100
AcDbEllipse
 62
7
  6
CONTINUOUS
 10
26.6182971326
 20
0.1959587629
 30
0.0
 11
177.2116504204
 21
-0.0
 31
0.0
 40
0.2281338281
 41
-2.1044828395
 42
-2.0977535574
  0
ENDSEC
  0
SECTION
  2
OBJECTS
  0
DICTIONARY
  5
C
100
AcDbDictionary
280
0
281
1
  3
ACAD_GROUP
350
D
  3
ACAD_MLINESTYLE
350
17
  3
ACAD_LAYOUT
350
1A
  3
ACAD_PLOTSETTINGS
350
19
  3
ACAD_PLOTSTYLENAME
350
E
  0
DICTIONARY
  5
D
102
{ACAD_REACTORS
330
C
102
}
100
AcDbDictionary
280
0
281
1
  0
ACDBDICTIONARYWDFLT
  5
E
102
{ACAD_REACTORS
330
C
102
}
100
AcDbDictionary
281
1
  3
Normal
350
F
100
AcDbDictionaryWithDefault
340
F
  0
DICTIONARY
  5
17
102
{ACAD_REACTORS
330
C
102
}
100
AcDbDictionary
280
0
281
1
  3
Standard
350
18
  0
DICTIONARY
  5
19
102
{ACAD_REACTORS
330
C
102
}
100
AcDbDictionary
281
1
  0
DICTIONARY
  5
1A
102
{ACAD_REACTORS
330
C
102
}
100
AcDbDictionary
281
1
  3
Model
350
339
  3
Layout1
350
33A
  0
ACDBPLACEHOLDER
  5
F
102
{ACAD_REACTORS
330
E
102
}
  0
MLINESTYLE
  5
18
102
{ACAD_REACTORS
330
17
102
}
100
AcDbMlineStyle
  2
STANDARD
 70
0
  3

 62
256
 51
90.0
 52
90.0
 71
2
 49
0.5
 62
256
  6
BYLAYER
 49
-0.5
 62
256
  6
BYLAYER
  0
LAYOUT
  5
339
102
{ACAD_REACTORS
330
1A
102
}
100
AcDbPlotSettings
  1

  2
none_device
  4
ISO_A4_(297.00_x_210.00_MM)
  6

 40
0.0
 41
0.0
 42
0.0
 43
0.0
 44
297.0
 45
210.0
 46
0.0
 47
0.0
 48
0.0
 49
0.0
140
0.0
141
0.0
142
1.0
143
1.0
 70
1024
 72
1
 73
0
 74
0
  7

 75
0
147
1.0
148
0.0
149
0.0
100
AcDbLayout
  1
Model
 70
0
 71
0
 10
0.0
 20
0.0
 11
297.0
 21
210.0
 12
0.0
 22
0.0
 32
0.0
 14
0.0
 24
0.0
 34
0.0
 15
0.0
 25
0.0
 35
0.0
146
0.0
 13
0.0
 23
0.0
 33
0.0
 16
1.0
 26
0.0
 36
0.0
 17
0.0
 27
1.0
 37
0.0
 76
0
330
20B
345
0
346
0
  0
LAYOUT
  5
33A
102
{ACAD_REACTORS
330
1A
102
}
100
AcDbPlotSettings
  1

  2
none_device
  4
ISO_A4_(297.00_x_210.00_MM)
  6

 40
0.0
 41
0.0
 42
0.0
 43
0.0
 44
297.0
 45
210.0
 46
0.0
 47
0.0
 48
0.0
 49
0.0
140
0.0
141
0.0
142
1.0
143
1.0
 70
0
 72
1
 73
0
 74
0
  7

 75
0
147
1.0
148
0.0
149
0.0
100
AcDbLayout
  1
Layout1
 70
0
 71
1
 10
0.0
 20
0.0
 11
297.0
 21
210.0
 12
0.0
 22
0.0
 32
0.0
 14
0.0
 24
0.0
 34
0.0
 15
0.0
 25
0.0
 35
0.0
146
0.0
 13
0.0
 23
0.0
 33
0.0
 16
1.0
 26
0.0
 36
0.0
 17
0.0
 27
1.0
 37
0.0
 76
0
330
20C
345
0
346
0
  0
ENDSEC
  0
EOF
