0
SECTION
2
HEADER
9
$ACADVER
1
AC1014
9
$HANDSEED
5
       2A1
9
$EXTMAX
10
297.0000000000
20
210.0000000000
9
$EXTMIN
10
0.0000000000
20
0.0000000000
9
$LIMMIN
10
0.0000000000
20
0.0000000000
9
$LIMMAX
10
297.0000000000
20
210.0000000000
9
$VIEWCTR
10
148.5000000000
20
105.0000000000
9
$VIEWSIZE
40
210.0000000000
9
$CLAYER
8
0
9
$LTSCALE
40
16.3350000000
9
$CELTYPE
6
BYLAYER
9
$DIMSCALE
40
1
9
$DIMASZ
40
3.0000000000
9
$DIMEXO
40
1.8562500000
9
$DIMDLI
40
11.2860000000
9
$DIMEXE
40
5.3460000000
9
$DIMCEN
40
2.6730000000
9
$DIMLFAC
40
1.0000000000
9
$DIMTXT
40
3.0000000000
9
$DIMTOL
70
1
9
$DIMLIM
70
0
9
$DIMTFAC
40
1.0000000000
9
$DIMTP
40
0.0100000000
9
$DIMTM
40
0.0100000000
9
$MEASUREMENT
70
1
0
ENDSEC
0
SECTION
2
CLASSES
0
ENDSEC
0
SECTION
2
TABLES
0
TABLE
2
VPORT
5
8
100
AcDbSymbolTable
70
2
0
VPORT
5
1F4
100
AcDbSymbolTableRecord
100
AcDbViewportTableRecord
2
*ACTIVE
70
0
10
0.0
20
0.0
11
1.0
21
1.0
12
148.5000000000
22
105.0000000000
13
0.0
23
0.0
14
1.0
24
1.0
15
0.0
25
0.0
16
0.0
26
0.0
36
1.0
17
0.0
27
0.0
37
0.0
40
210.0000000000
41
1.4142857143
42
50.0
43
0.0
44
0.0
50
0.0
51
0.0
71
0
72
100
73
1
74
1
75
0
76
0
77
0
78
0
0
ENDTAB
0
TABLE
2
LTYPE
5
5
100
AcDbSymbolTable
70
6
0
LTYPE
5
14
100
AcDbSymbolTableRecord
100
AcDbLinetypeTableRecord
2
BYBLOCK
70
0
3

72
65
73
0
40
0.0
0
LTYPE
5
15
100
AcDbSymbolTableRecord
100
AcDbLinetypeTableRecord
2
BYLAYER
70
0
3

72
65
73
0
40
0.0
0
LTYPE
5
16
100
AcDbSymbolTableRecord
100
AcDbLinetypeTableRecord
2
CONTINUOUS
70
64
3
Solid line
72
65
73
0
40
0
0
LTYPE
5
1F5
100
AcDbSymbolTableRecord
100
AcDbLinetypeTableRecord
2
CENTER
70
64
3
____ _ ____ _ ____ _ ____ _ ____ _ ____ _ ____
72
65
73
4
40
0.6
49
0.375
74
0
49
-0.075
74
0
49
0.075
74
0
49
-0.075
74
0
0
LTYPE
5
1F6
100
AcDbSymbolTableRecord
100
AcDbLinetypeTableRecord
2
HIDDEN
70
64
3
- - - - - - - - - - - - - - - - - - - -
72
65
73
2
40
0.2
49
0.1
74
0
49
-0.1
74
0
0
LTYPE
5
1F7
100
AcDbSymbolTableRecord
100
AcDbLinetypeTableRecord
2
PHANTOM
70
64
3
_____ _ _ _____ _ _ _____ _ _ _____
72
65
73
6
40
0.8
49
0.45
74
0
49
-0.05
74
0
49
0.1
74
0
49
-0.05
74
0
49
0.1
74
0
49
-0.05
74
0
0
LTYPE
5
1F8
100
AcDbSymbolTableRecord
100
AcDbLinetypeTableRecord
2
DOT
70
64
3
. . . . . . . . . . . . . . . . . . . .
72
65
73
2
40
0.2
49
0.1
74
0
49
-0.1
74
0
0
LTYPE
5
1F9
100
AcDbSymbolTableRecord
100
AcDbLinetypeTableRecord
2
DASHED
70
64
3
- - - - - - - - - - - - - - - - - - - -
72
65
73
2
40
0.2
49
0.1
74
0
49
-0.1
74
0
0
ENDTAB
0
TABLE
2
LAYER
5
2
100
AcDbSymbolTable
70
36
0
LAYER
5
10
100
AcDbSymbolTableRecord
100
AcDbLayerTableRecord
2
0
70
0
62
7
6
CONTINUOUS
0
LAYER
5
1FA
100
AcDbSymbolTableRecord
100
AcDbLayerTableRecord
2
DEFAULT_1
70
0
62
7
6
CENTER
0
LAYER
5
1FB
100
AcDbSymbolTableRecord
100
AcDbLayerTableRecord
2
DEFAULT_2
70
0
62
8
6
HIDDEN
0
LAYER
5
1FC
100
AcDbSymbolTableRecord
100
AcDbLayerTableRecord
2
DEFAULT_3
70
0
62
7
6
PHANTOM
0
LAYER
5
1FD
100
AcDbSymbolTableRecord
100
AcDbLayerTableRecord
2
ASSI
70
0
62
7
6
CONTINUOUS
0
LAYER
5
1FE
100
AcDbSymbolTableRecord
100
AcDbLayerTableRecord
2
COLOR9
70
0
62
7
6
CONTINUOUS
0
LAYER
5
1FF
100
AcDbSymbolTableRecord
100
AcDbLayerTableRecord
2
COORDINATE
70
0
62
7
6
CONTINUOUS
0
LAYER
5
200
100
AcDbSymbolTableRecord
100
AcDbLayerTableRecord
2
COORD_ORIGINE
70
0
62
7
6
CONTINUOUS
0
LAYER
5
201
100
AcDbSymbolTableRecord
100
AcDbLayerTableRecord
2
CURVE
70
0
62
7
6
CONTINUOUS
0
LAYER
5
202
100
AcDbSymbolTableRecord
100
AcDbLayerTableRecord
2
DRAFT
70
0
62
7
6
CONTINUOUS
0
LAYER
5
203
100
AcDbSymbolTableRecord
100
AcDbLayerTableRecord
2
INTF_YELLOW
70
0
62
7
6
CONTINUOUS
0
LAYER
5
204
100
AcDbSymbolTableRecord
100
AcDbLayerTableRecord
2
NOTE
70
0
62
7
6
CONTINUOUS
0
LAYER
5
205
100
AcDbSymbolTableRecord
100
AcDbLayerTableRecord
2
PIANI
70
0
62
7
6
CONTINUOUS
0
LAYER
5
206
100
AcDbSymbolTableRecord
100
AcDbLayerTableRecord
2
PIANI_ORIGINE
70
0
62
7
6
CONTINUOUS
0
LAYER
5
207
100
AcDbSymbolTableRecord
100
AcDbLayerTableRecord
2
PIANI_RIFERIMENTO
70
0
62
7
6
CONTINUOUS
0
LAYER
5
208
100
AcDbSymbolTableRecord
100
AcDbLayerTableRecord
2
PUNTI
70
0
62
7
6
CONTINUOUS
0
LAYER
5
209
100
AcDbSymbolTableRecord
100
AcDbLayerTableRecord
2
RACCORDO
70
0
62
7
6
CONTINUOUS
0
LAYER
5
20A
100
AcDbSymbolTableRecord
100
AcDbLayerTableRecord
2
SNAPLINE
70
0
62
7
6
CONTINUOUS
0
LAYER
5
20B
100
AcDbSymbolTableRecord
100
AcDbLayerTableRecord
2
SUPERFICI
70
0
62
7
6
CONTINUOUS
0
LAYER
5
20C
100
AcDbSymbolTableRecord
100
AcDbLayerTableRecord
2
TRASH
70
0
62
7
6
CONTINUOUS
0
LAYER
5
20D
100
AcDbSymbolTableRecord
100
AcDbLayerTableRecord
2
XSEC_DATUMS
70
0
62
7
6
CONTINUOUS
0
ENDTAB
0
TABLE
2
STYLE
5
3
100
AcDbSymbolTable
70
1
0
STYLE
5
11
100
AcDbSymbolTableRecord
100
AcDbTextStyleTableRecord
2
STANDARD
70
0
40
0.0
41
0.8000000000
50
0.0
71
0
42
0.2
3
txt
4

0
ENDTAB
0
TABLE
2
VIEW
5
6
100
AcDbSymbolTable
70
0
0
ENDTAB
0
TABLE
2
UCS
5
7
100
AcDbSymbolTable
70
0
0
ENDTAB
0
TABLE
2
APPID
5
9
100
AcDbSymbolTable
70
1
0
APPID
5
20E
100
AcDbSymbolTableRecord
100
AcDbRegAppTableRecord
2
ACAD
70
0
0
ENDTAB
0
TABLE
2
DIMSTYLE
5
A
100
AcDbSymbolTable
70
1
0
DIMSTYLE
105
20F
100
AcDbSymbolTableRecord
100
AcDbDimStyleTableRecord
2
STANDARD
70
0
3

4

5

6

7

40
1.0
41
3.0000000000
42
0.0625
43
0.38
44
0.18
45
0.0
46
0.0
47
0.0100000000
48
0.0100000000
140
3.0000000000
141
0.09
142
0.0
143
25.4
144
1.0000000000
145
0.0
146
1.0000000000
147
0.09
71
1
72
0
73
0
74
0
75
0
76
0
77
1
78
8
170
0
171
2
172
0
173
0
174
0
175
0
176
0
177
0
178
0
270
2
271
2
272
2
273
2
274
2
340
11
275
0
280
0
281
0
282
0
283
1
284
8
285
0
286
0
287
3
288
0
0
DIMSTYLE
105
210
100
AcDbSymbolTableRecord
100
AcDbDimStyleTableRecord
2
DIMSTYLE_1
70
0
3

4

5

6

7

40
1.0
41
3.0000000000
42
0.0625
43
0.38
44
0.18
45
0.0
46
0.0
47
0.0000000000
48
0.0000000000
140
3.0000000000
141
0.09
142
0.0
143
25.4
144
1.0000000000
145
0.0
146
1.0000000000
147
0.09
71
0
72
0
73
0
74
0
75
0
76
0
77
1
78
8
170
0
171
2
172
0
173
0
174
0
175
0
176
0
177
0
178
0
270
2
271
2
272
2
273
2
274
2
340
11
275
0
280
0
281
0
282
0
283
1
284
8
285
0
286
0
287
3
288
0
0
ENDTAB
0
TABLE
2
BLOCK_RECORD
5
1
100
AcDbSymbolTable
70
0
0
BLOCK_RECORD
5
1B
100
AcDbSymbolTableRecord
100
AcDbBlockTableRecord
2
*MODEL_SPACE
0
BLOCK_RECORD
5
1C
100
AcDbSymbolTableRecord
100
AcDbBlockTableRecord
2
*PAPER_SPACE
0
BLOCK_RECORD
5
211
100
AcDbSymbolTableRecord
100
AcDbBlockTableRecord
2
*D0
0
BLOCK_RECORD
5
212
100
AcDbSymbolTableRecord
100
AcDbBlockTableRecord
2
*D1
0
BLOCK_RECORD
5
213
100
AcDbSymbolTableRecord
100
AcDbBlockTableRecord
2
*D2
0
ENDTAB
0
ENDSEC
0
SECTION
2
BLOCKS
0
BLOCK
5
1E
100
AcDbEntity
8
0
100
AcDbBlockBegin
2
*MODEL_SPACE
70
0
10
0.0
20
0.0
30
0.0
3
*MODEL_SPACE
1

0
ENDBLK
5
1F
100
AcDbEntity
8
0
100
AcDbBlockEnd
0
BLOCK
5
20
100
AcDbEntity
8
0
100
AcDbBlockBegin
2
*PAPER_SPACE
70
0
10
0.0
20
0.0
30
0.0
3
*PAPER_SPACE
1

0
ENDBLK
5
21
100
AcDbEntity
8
0
100
AcDbBlockEnd
0
BLOCK
5
214
100
AcDbEntity
8
0
100
AcDbBlockBegin
62
7
6
CONTINUOUS
2
*D0
70
65
10
0.0000000000
20
0.0000000000
3
*D0
1

0
TEXT
5
215
100
AcDbEntity
8
0
100
AcDbText
62
7
6
CONTINUOUS
10
-12.9949014186
20
31.1997729474
7
STANDARD
40
3.0000000000
1
6
41
0.7857142857
72
0
100
AcDbText
0
LINE
5
216
100
AcDbEntity
8
0
100
AcDbLine
62
7
6
CONTINUOUS
10
-9.1255606168
20
22.0499443015
11
-9.1255606168
21
31.9497729474
0
LINE
5
217
100
AcDbEntity
8
0
100
AcDbLine
62
7
6
CONTINUOUS
10
-15.1255606168
20
0.4497729640
11
-15.1255606168
21
31.9497729474
0
LINE
5
218
100
AcDbEntity
8
0
100
AcDbLine
62
7
6
CONTINUOUS
10
-9.1255606168
20
30.4497729474
11
-5.1255606168
21
30.4497729474
0
LINE
5
219
100
AcDbEntity
8
0
100
AcDbLine
62
7
6
CONTINUOUS
10
-5.1255606168
20
30.4497729474
11
-12.1255606168
21
30.4497729474
0
LINE
5
21A
100
AcDbEntity
8
0
100
AcDbLine
62
7
6
CONTINUOUS
10
-15.1255606168
20
30.4497729474
11
-19.1255606168
21
30.4497729474
0
LINE
5
21B
100
AcDbEntity
8
0
100
AcDbLine
62
7
6
CONTINUOUS
10
-19.1255606168
20
30.4497729474
11
-12.1255606168
21
30.4497729474
0
SOLID
5
21C
100
AcDbEntity
8
0
100
AcDbTrace
62
7
6
CONTINUOUS
10
-6.1255606168
20
31.3997729474
11
-9.1255606168
21
30.4497729474
12
-6.1255606168
22
29.4997729474
13
-6.1255606168
23
29.4997729474
0
SOLID
5
21D
100
AcDbEntity
8
0
100
AcDbTrace
62
7
6
CONTINUOUS
10
-18.1255606168
20
29.4997729474
11
-15.1255606168
21
30.4497729474
12
-18.1255606168
22
31.3997729474
13
-18.1255606168
23
31.3997729474
0
ENDBLK
5
21E
100
AcDbEntity
8
0
100
AcDbBlockEnd
0
BLOCK
5
21F
100
AcDbEntity
8
0
100
AcDbBlockBegin
62
7
6
CONTINUOUS
2
*D1
70
65
10
0.0000000000
20
0.0000000000
3
*D1
1

0
TEXT
5
220
100
AcDbEntity
8
0
100
AcDbText
62
7
6
CONTINUOUS
10
38.8103925041
20
-4.2077474982
7
STANDARD
40
3.0000000000
1
44,2
50
90.0000000000
41
0.7321428571
72
0
100
AcDbText
0
LINE
5
221
100
AcDbEntity
8
0
100
AcDbLine
62
7
6
CONTINUOUS
10
31.3105639897
20
22.0497729640
11
41.0603925041
21
22.0497729640
0
LINE
5
222
100
AcDbEntity
8
0
100
AcDbLine
62
7
6
CONTINUOUS
10
31.3105639897
20
-22.1502270360
11
41.0603925041
21
-22.1502270360
0
LINE
5
223
100
AcDbEntity
8
0
100
AcDbLine
62
7
6
CONTINUOUS
10
39.5603925041
20
22.0497729640
11
39.5603925041
21
-0.0502270360
0
LINE
5
224
100
AcDbEntity
8
0
100
AcDbLine
62
7
6
CONTINUOUS
10
39.5603925041
20
-22.1502270360
11
39.5603925041
21
-0.0502270360
0
SOLID
5
225
100
AcDbEntity
8
0
100
AcDbTrace
62
7
6
CONTINUOUS
10
40.5103925041
20
19.0497729640
11
39.5603925041
21
22.0497729640
12
38.6103925041
22
19.0497729640
13
38.6103925041
23
19.0497729640
0
SOLID
5
226
100
AcDbEntity
8
0
100
AcDbTrace
62
7
6
CONTINUOUS
10
38.6103925041
20
-19.1502270360
11
39.5603925041
21
-22.1502270360
12
40.5103925041
22
-19.1502270360
13
40.5103925041
23
-19.1502270360
0
ENDBLK
5
227
100
AcDbEntity
8
0
100
AcDbBlockEnd
0
BLOCK
5
228
100
AcDbEntity
8
0
100
AcDbBlockBegin
62
7
6
CONTINUOUS
2
*D2
70
65
10
0.0000000000
20
0.0000000000
3
*D2
1

0
TEXT
5
229
100
AcDbEntity
8
0
100
AcDbText
62
7
6
CONTINUOUS
10
18.1526576299
20
31.1997729474
7
STANDARD
40
3.0000000000
1
22
41
0.7857142857
72
0
100
AcDbText
0
LINE
5
22A
100
AcDbEntity
8
0
100
AcDbLine
62
7
6
CONTINUOUS
10
31.3103926521
20
22.0499443015
11
31.3103926521
21
31.9497729474
0
LINE
5
22B
100
AcDbEntity
8
0
100
AcDbLine
62
7
6
CONTINUOUS
10
9.3103926521
20
22.0499443015
11
9.3103926521
21
31.9497729474
0
LINE
5
22C
100
AcDbEntity
8
0
100
AcDbLine
62
7
6
CONTINUOUS
10
31.3103926521
20
30.4497729474
11
20.3103926521
21
30.4497729474
0
LINE
5
22D
100
AcDbEntity
8
0
100
AcDbLine
62
7
6
CONTINUOUS
10
9.3103926521
20
30.4497729474
11
20.3103926521
21
30.4497729474
0
SOLID
5
22E
100
AcDbEntity
8
0
100
AcDbTrace
62
7
6
CONTINUOUS
10
28.3103926521
20
29.4997729474
11
31.3103926521
21
30.4497729474
12
28.3103926521
22
31.3997729474
13
28.3103926521
23
31.3997729474
0
SOLID
5
22F
100
AcDbEntity
8
0
100
AcDbTrace
62
7
6
CONTINUOUS
10
12.3103926521
20
31.3997729474
11
9.3103926521
21
30.4497729474
12
12.3103926521
22
29.4997729474
13
12.3103926521
23
29.4997729474
0
ENDBLK
5
230
100
AcDbEntity
8
0
100
AcDbBlockEnd
0
ENDSEC
0
SECTION
2
ENTITIES
0
DIMENSION
5
231
100
AcDbEntity
8
0
100
AcDbDimension
62
7
6
CONTINUOUS
2
*D0
10
-15.1255606168
20
30.4497729474
11
-11.8163299900
21
32.6997729474
70
160
3
DIMSTYLE_1
100
AcDbAlignedDimension
13
-9.1255606168
23
22.0499443015
14
-15.1255606168
24
0.4497729640
50
180.000000
100
AcDbRotatedDimension
0
DIMENSION
5
232
100
AcDbEntity
8
0
100
AcDbDimension
62
7
6
CONTINUOUS
2
*D1
10
39.5603925041
20
-22.1502270360
11
37.3103925041
21
0.1851096447
70
160
3
DIMSTYLE_1
100
AcDbAlignedDimension
13
31.3105639897
23
22.0497729640
14
31.3105639897
24
-22.1502270360
50
270.000000
100
AcDbRotatedDimension
0
DIMENSION
5
233
100
AcDbEntity
8
0
100
AcDbDimension
62
7
6
CONTINUOUS
2
*D2
10
9.3103926521
20
30.4497729474
11
20.5098004870
21
32.6997729474
70
160
3
DIMSTYLE_1
100
AcDbAlignedDimension
13
31.3103926521
23
22.0499443015
14
9.3103926521
24
22.0499443015
50
180.000000
100
AcDbRotatedDimension
0
LINE
5
234
100
AcDbEntity
8
0
100
AcDbLine
62
7
6
CONTINUOUS
10
9.8102213146
20
-22.1502270360
11
30.8105639897
21
-22.1502270360
0
LINE
5
235
100
AcDbEntity
8
0
100
AcDbLine
62
9
6
CONTINUOUS
10
9.9140976096
20
-22.0463507411
11
30.7066876947
21
-22.0463507411
0
LINE
5
236
100
AcDbEntity
8
0
100
AcDbLine
62
9
6
CONTINUOUS
10
9.9267028888
20
-21.1950806788
11
30.6940824155
21
-21.1950806788
0
LINE
5
237
100
AcDbEntity
8
0
100
AcDbLine
62
7
6
CONTINUOUS
10
16.7103924978
20
-13.0502270456
11
17.9603925261
21
-13.0502270456
0
LINE
5
238
100
AcDbEntity
8
0
100
AcDbLine
62
7
6
CONTINUOUS
10
19.5603926398
20
-13.0502270456
11
21.0603926761
21
-13.0502270456
0
LINE
5
239
100
AcDbEntity
8
0
100
AcDbLine
62
7
6
CONTINUOUS
10
22.6603925358
20
-13.0502270456
11
23.9103925641
21
-13.0502270456
0
LINE
5
23A
100
AcDbEntity
8
0
100
AcDbLine
62
7
6
CONTINUOUS
10
16.7103924861
20
-12.0502270390
11
17.9603925378
21
-12.0502270390
0
LINE
5
23B
100
AcDbEntity
8
0
100
AcDbLine
62
7
6
CONTINUOUS
10
19.5603926281
20
-12.0502270390
11
21.0603926878
21
-12.0502270390
0
LINE
5
23C
100
AcDbEntity
8
0
100
AcDbLine
62
7
6
CONTINUOUS
10
22.6603925241
20
-12.0502270390
11
23.9103925758
21
-12.0502270390
0
LINE
5
23D
100
AcDbEntity
8
0
100
AcDbLine
62
7
6
CONTINUOUS
10
9.3103926521
20
-21.6503983735
11
9.3103926521
21
21.5499443015
0
LINE
5
23E
100
AcDbEntity
8
0
100
AcDbLine
62
9
6
CONTINUOUS
10
9.9522254878
20
-9.5502270360
11
9.9522254878
21
9.4497729640
0
LINE
5
23F
100
AcDbEntity
8
0
100
AcDbLine
62
9
6
CONTINUOUS
10
30.8105639897
20
22.0497729640
11
30.7066876947
21
21.9458966690
0
LINE
5
240
100
AcDbEntity
8
0
100
AcDbLine
62
9
6
CONTINUOUS
10
9.9522254878
20
-9.5502270360
11
30.6685598165
21
-9.5502270360
0
LINE
5
241
100
AcDbEntity
8
0
100
AcDbLine
62
9
6
CONTINUOUS
10
30.7066876947
20
-22.0463507411
11
30.8105639897
21
-22.1502270360
0
LINE
5
242
100
AcDbEntity
8
0
100
AcDbLine
62
9
6
CONTINUOUS
10
31.3103926521
20
21.5499443015
11
31.2065163572
21
21.4460680065
0
LINE
5
243
100
AcDbEntity
8
0
100
AcDbLine
62
9
6
CONTINUOUS
10
31.2065163572
20
-21.5465220786
11
31.3103926521
21
-21.6503983735
0
LINE
5
244
100
AcDbEntity
8
0
100
AcDbLine
62
9
6
CONTINUOUS
10
9.3103926521
20
-21.6503983735
11
9.4142689471
21
-21.5465220786
0
LINE
5
245
100
AcDbEntity
8
0
100
AcDbLine
62
9
6
CONTINUOUS
10
9.8102213146
20
-22.1502270360
11
9.9140976096
21
-22.0463507411
0
LINE
5
246
100
AcDbEntity
8
0
100
AcDbLine
62
9
6
CONTINUOUS
10
9.4142689471
20
21.4460680065
11
9.3103926521
21
21.5499443015
0
LINE
5
247
100
AcDbEntity
8
0
100
AcDbLine
62
9
6
CONTINUOUS
10
9.9140976096
20
21.9458966690
11
9.8102213146
21
22.0497729640
0
LINE
5
248
100
AcDbEntity
8
0
100
AcDbLine
62
9
6
CONTINUOUS
10
9.9522254878
20
9.4497729640
11
30.6685598165
21
9.4497729640
0
LINE
5
249
100
AcDbEntity
8
0
100
AcDbLine
62
9
6
CONTINUOUS
10
30.6685598165
20
9.4497729640
11
30.6685598165
21
-9.5502270360
0
LINE
5
24A
100
AcDbEntity
8
0
100
AcDbLine
62
7
6
CONTINUOUS
10
31.3103926521
20
-21.6503983735
11
31.3103926521
21
21.5499443015
0
LINE
5
24B
100
AcDbEntity
8
0
100
AcDbLine
62
9
6
CONTINUOUS
10
9.9267028888
20
21.0946266067
11
30.6940824155
21
21.0946266067
0
LINE
5
24C
100
AcDbEntity
8
0
100
AcDbLine
62
9
6
CONTINUOUS
10
9.9140976096
20
21.9458966690
11
30.7066876947
21
21.9458966690
0
LINE
5
24D
100
AcDbEntity
8
0
100
AcDbLine
62
7
6
CONTINUOUS
10
9.8102213146
20
22.0497729640
11
30.8105639897
21
22.0497729640
0
LINE
5
24E
100
AcDbEntity
8
0
100
AcDbLine
62
7
6
CONTINUOUS
10
-13.0924362790
20
-22.0463507411
11
-9.1255606168
21
-22.1502270360
0
LINE
5
24F
100
AcDbEntity
8
0
100
AcDbLine
62
9
6
CONTINUOUS
10
-13.0924362790
20
-21.5465220786
11
-9.1255606168
21
-21.6503983735
0
LINE
5
250
100
AcDbEntity
8
0
100
AcDbLine
62
9
6
CONTINUOUS
10
-14.5484812026
20
-9.5407270360
11
-15.0353024485
21
-9.5502270356
0
LINE
5
251
100
AcDbEntity
8
0
100
AcDbLine
62
7
6
CONTINUOUS
10
-9.1255606168
20
-22.1502270360
11
-9.1255606168
21
22.0497729640
0
LINE
5
252
100
AcDbEntity
8
0
100
AcDbLine
62
9
6
CONTINUOUS
10
-14.5484812026
20
9.4402729640
11
-15.0353024698
21
9.4497729640
0
LINE
5
253
100
AcDbEntity
8
0
100
AcDbLine
62
9
6
CONTINUOUS
10
-9.1255606168
20
21.5499443015
11
-13.0924362790
21
21.4460680065
0
LINE
5
254
100
AcDbEntity
8
0
100
AcDbLine
62
7
6
CONTINUOUS
10
-9.1255606168
20
22.0497729640
11
-13.0924362790
21
21.9458966690
0
ARC
5
255
100
AcDbEntity
8
0
100
AcDbCircle
62
7
6
CONTINUOUS
10
484.8744393832
20
-0.0502270360
40
500.0000000000
100
AcDbArc
50
178.9113146800
51
181.0886853200
0
ARC
5
256
100
AcDbEntity
8
0
100
AcDbCircle
62
7
6
CONTINUOUS
10
-13.0662593307
20
20.9462393440
40
1.0000000000
100
AcDbArc
50
91.5000000000
51
171.4665223736
0
ARC
5
257
100
AcDbEntity
8
0
100
AcDbCircle
62
7
6
CONTINUOUS
10
74.9484510633
20
7.7397729640
40
90.0000000000
100
AcDbArc
50
171.4665223736
51
178.9113146800
0
ARC
5
258
100
AcDbEntity
8
0
100
AcDbCircle
62
7
6
CONTINUOUS
10
74.9484510633
20
-7.8402270360
40
90.0000000000
100
AcDbArc
50
181.0886853200
51
188.5334776264
0
ARC
5
259
100
AcDbEntity
8
0
100
AcDbCircle
62
7
6
CONTINUOUS
10
-13.0662593307
20
-21.0466934161
40
1.0000000000
100
AcDbArc
50
188.5334776264
51
268.5000000000
0
SPLINE
5
25A
100
AcDbEntity
8
0
100
AcDbSpline
62
7
6
CONTINUOUS
70
0
71
3
72
8
73
4
74
2
42
0.0000001000
43
0.0000001000
44
0.0000000001
12
-0.0218203398
22
-0.0476063668
32
0.0000000000
13
-0.0197325943
23
-0.0485428781
33
0.0000000000
40
0.0000000000
40
0.0000000000
40
0.0000000000
40
0.0000000000
40
1.0000000000
40
1.0000000000
40
1.0000000000
40
1.0000000000
10
22.6603925241
20
-12.0502270390
30
0.0000000000
10
22.6531190776
20
-12.0660958280
30
0.0000000000
10
22.6461899549
20
-12.0821298582
30
0.0000000000
10
22.6396124234
20
-12.0983108175
30
0.0000000000
11
22.6603925241
21
-12.0502270390
31
0.0000000000
11
22.6396124234
21
-12.0983108175
31
0.0000000000
0
SPLINE
5
25B
100
AcDbEntity
8
0
100
AcDbSpline
62
7
6
CONTINUOUS
70
0
71
3
72
14
73
10
74
8
42
0.0000001000
43
0.0000001000
44
0.0000000001
12
-0.3490089105
22
-0.8585742312
32
0.0000000000
13
0.3491283753
23
-0.8585234528
33
0.0000000000
40
0.0000000000
40
0.0000000000
40
0.0000000000
40
0.0000000000
40
0.1024676237
40
0.2614899159
40
0.4204929460
40
0.5794876735
40
0.7384836858
40
0.8974899374
40
1.0000000000
40
1.0000000000
40
1.0000000000
40
1.0000000000
10
22.6396124234
20
-12.0983108175
30
0.0000000000
10
22.6276917189
20
-12.1276361713
30
0.0000000000
10
22.6002179771
20
-12.2037038954
30
0.0000000000
10
22.5685850564
20
-12.3299381323
30
0.0000000000
10
22.5505060092
20
-12.4764816105
30
0.0000000000
10
22.5505152551
20
-12.6241206290
30
0.0000000000
10
22.5686113658
20
-12.7706547584
30
0.0000000000
10
22.6002600984
20
-12.8968912169
30
0.0000000000
10
22.6277459883
20
-12.9729631505
30
0.0000000000
10
22.6396757121
20
-13.0022989148
30
0.0000000000
11
22.6396124234
21
-12.0983108175
31
0.0000000000
11
22.6073580444
21
-12.1876256671
31
0.0000000000
11
22.5715517959
21
-12.3305005868
31
0.0000000000
11
22.5535204196
21
-12.4766681075
31
0.0000000000
11
22.5535296394
21
-12.6239359227
31
0.0000000000
11
22.5715781242
21
-12.7700947821
31
0.0000000000
11
22.6073969871
21
-12.9129512226
31
0.0000000000
11
22.6396757121
21
-13.0022989148
31
0.0000000000
0
SPLINE
5
25C
100
AcDbEntity
8
0
100
AcDbSpline
62
7
6
CONTINUOUS
70
0
71
3
72
8
73
4
74
2
42
0.0000001000
43
0.0000001000
44
0.0000000001
12
0.0196760645
22
-0.0483843881
32
0.0000000000
13
0.0217503850
23
-0.0474537405
33
0.0000000000
40
0.0000000000
40
0.0000000000
40
0.0000000000
40
0.0000000000
40
1.0000000000
40
1.0000000000
40
1.0000000000
40
1.0000000000
10
22.6396757121
20
-13.0022989148
30
0.0000000000
10
22.6462344003
20
-13.0184270442
30
0.0000000000
10
22.6531424075
20
-13.0344091321
30
0.0000000000
10
22.6603925358
20
-13.0502270456
30
0.0000000000
11
22.6396757121
21
-13.0022989148
31
0.0000000000
11
22.6603925358
21
-13.0502270456
31
0.0000000000
0
SPLINE
5
25D
100
AcDbEntity
8
0
100
AcDbSpline
62
7
6
CONTINUOUS
70
0
71
3
72
8
73
4
74
2
42
0.0000001000
43
0.0000001000
44
0.0000000001
12
0.0218089003
22
0.0475813955
32
0.0000000000
13
0.0197233535
23
0.0485169450
33
0.0000000000
40
0.0000000000
40
0.0000000000
40
0.0000000000
40
0.0000000000
40
1.0000000000
40
1.0000000000
40
1.0000000000
40
1.0000000000
10
23.9103925641
20
-13.0502270456
30
0.0000000000
10
23.9176621976
20
-13.0343665805
30
0.0000000000
10
23.9245878679
20
-13.0183410488
30
0.0000000000
10
23.9311623191
20
-13.0021687338
30
0.0000000000
11
23.9103925641
21
-13.0502270456
31
0.0000000000
11
23.9311623191
21
-13.0021687338
31
0.0000000000
0
SPLINE
5
25E
100
AcDbEntity
8
0
100
AcDbSpline
62
7
6
CONTINUOUS
70
0
71
3
72
14
73
10
74
8
42
0.0000001000
43
0.0000001000
44
0.0000000001
12
0.3490257562
22
0.8585590406
32
0.0000000000
13
-0.3491008577
23
0.8585271274
33
0.0000000000
40
0.0000000000
40
0.0000000000
40
0.0000000000
40
0.0000000000
40
0.1024644933
40
0.2614607041
40
0.4204502786
40
0.5794474462
40
0.7384611124
40
0.8974960764
40
1.0000000000
40
1.0000000000
40
1.0000000000
40
1.0000000000
10
23.9311623191
20
-13.0021687338
30
0.0000000000
10
23.9430832348
20
-12.9728447948
30
0.0000000000
10
23.9705555405
20
-12.8967868799
30
0.0000000000
10
24.0021896001
20
-12.7705677183
30
0.0000000000
10
24.0202748373
20
-12.6240378275
30
0.0000000000
10
24.0202741694
20
-12.4763979212
30
0.0000000000
10
24.0021838557
20
-12.3298489568
30
0.0000000000
10
23.9705366527
20
-12.2036002337
30
0.0000000000
10
23.9430506037
20
-12.1275215980
30
0.0000000000
10
23.9311225345
20
-12.0981874650
30
0.0000000000
11
23.9311623191
21
-13.0021687338
31
0.0000000000
11
23.9634176353
21
-12.9128581443
31
0.0000000000
11
23.9992229592
21
-12.7700091042
31
0.0000000000
11
24.0172603938
21
-12.6238560679
31
0.0000000000
11
24.0172597280
21
-12.4765871624
31
0.0000000000
11
23.9992168770
21
-12.3304123108
31
0.0000000000
11
23.9633967312
21
-12.1875299809
31
0.0000000000
11
23.9311225345
21
-12.0981874650
31
0.0000000000
0
SPLINE
5
25F
100
AcDbEntity
8
0
100
AcDbSpline
62
7
6
CONTINUOUS
70
0
71
3
72
8
73
4
74
2
42
0.0000001000
43
0.0000001000
44
0.0000000001
12
-0.0196878011
22
0.0484172723
32
0.0000000000
13
-0.0217649043
23
0.0474854103
33
0.0000000000
40
0.0000000000
40
0.0000000000
40
0.0000000000
40
0.0000000000
40
1.0000000000
40
1.0000000000
40
1.0000000000
40
1.0000000000
10
23.9311225345
20
-12.0981874650
30
0.0000000000
10
23.9245599341
20
-12.0820483742
30
0.0000000000
10
23.9176475439
20
-12.0660555091
30
0.0000000000
10
23.9103925758
20
-12.0502270390
30
0.0000000000
11
23.9311225345
21
-12.0981874650
31
0.0000000000
11
23.9103925758
21
-12.0502270390
31
0.0000000000
0
SPLINE
5
260
100
AcDbEntity
8
0
100
AcDbSpline
62
7
6
CONTINUOUS
70
0
71
3
72
8
73
4
74
2
42
0.0000001000
43
0.0000001000
44
0.0000000001
12
-0.0218203398
22
-0.0476063668
32
0.0000000000
13
-0.0197325943
23
-0.0485428781
33
0.0000000000
40
0.0000000000
40
0.0000000000
40
0.0000000000
40
0.0000000000
40
1.0000000000
40
1.0000000000
40
1.0000000000
40
1.0000000000
10
16.7103924861
20
-12.0502270390
30
0.0000000000
10
16.7031190396
20
-12.0660958280
30
0.0000000000
10
16.6961899169
20
-12.0821298582
30
0.0000000000
10
16.6896123854
20
-12.0983108175
30
0.0000000000
11
16.7103924861
21
-12.0502270390
31
0.0000000000
11
16.6896123854
21
-12.0983108175
31
0.0000000000
0
SPLINE
5
261
100
AcDbEntity
8
0
100
AcDbSpline
62
7
6
CONTINUOUS
70
0
71
3
72
14
73
10
74
8
42
0.0000001000
43
0.0000001000
44
0.0000000001
12
-0.3490089105
22
-0.8585742312
32
0.0000000000
13
0.3491283753
23
-0.8585234528
33
0.0000000000
40
0.0000000000
40
0.0000000000
40
0.0000000000
40
0.0000000000
40
0.1024676237
40
0.2614899159
40
0.4204929460
40
0.5794876735
40
0.7384836858
40
0.8974899374
40
1.0000000000
40
1.0000000000
40
1.0000000000
40
1.0000000000
10
16.6896123854
20
-12.0983108175
30
0.0000000000
10
16.6776916809
20
-12.1276361713
30
0.0000000000
10
16.6502179391
20
-12.2037038954
30
0.0000000000
10
16.6185850184
20
-12.3299381323
30
0.0000000000
10
16.6005059712
20
-12.4764816105
30
0.0000000000
10
16.6005152171
20
-12.6241206290
30
0.0000000000
10
16.6186113278
20
-12.7706547584
30
0.0000000000
10
16.6502600604
20
-12.8968912169
30
0.0000000000
10
16.6777459503
20
-12.9729631505
30
0.0000000000
10
16.6896756741
20
-13.0022989148
30
0.0000000000
11
16.6896123854
21
-12.0983108175
31
0.0000000000
11
16.6573580064
21
-12.1876256671
31
0.0000000000
11
16.6215517579
21
-12.3305005868
31
0.0000000000
11
16.6035203816
21
-12.4766681075
31
0.0000000000
11
16.6035296014
21
-12.6239359227
31
0.0000000000
11
16.6215780862
21
-12.7700947821
31
0.0000000000
11
16.6573969491
21
-12.9129512226
31
0.0000000000
11
16.6896756741
21
-13.0022989148
31
0.0000000000
0
SPLINE
5
262
100
AcDbEntity
8
0
100
AcDbSpline
62
7
6
CONTINUOUS
70
0
71
3
72
8
73
4
74
2
42
0.0000001000
43
0.0000001000
44
0.0000000001
12
0.0196760645
22
-0.0483843881
32
0.0000000000
13
0.0217503850
23
-0.0474537405
33
0.0000000000
40
0.0000000000
40
0.0000000000
40
0.0000000000
40
0.0000000000
40
1.0000000000
40
1.0000000000
40
1.0000000000
40
1.0000000000
10
16.6896756741
20
-13.0022989148
30
0.0000000000
10
16.6962343623
20
-13.0184270442
30
0.0000000000
10
16.7031423695
20
-13.0344091321
30
0.0000000000
10
16.7103924978
20
-13.0502270456
30
0.0000000000
11
16.6896756741
21
-13.0022989148
31
0.0000000000
11
16.7103924978
21
-13.0502270456
31
0.0000000000
0
SPLINE
5
263
100
AcDbEntity
8
0
100
AcDbSpline
62
7
6
CONTINUOUS
70
0
71
3
72
8
73
4
74
2
42
0.0000001000
43
0.0000001000
44
0.0000000001
12
0.0218089003
22
0.0475813955
32
0.0000000000
13
0.0197233535
23
0.0485169450
33
0.0000000000
40
0.0000000000
40
0.0000000000
40
0.0000000000
40
0.0000000000
40
1.0000000000
40
1.0000000000
40
1.0000000000
40
1.0000000000
10
17.9603925261
20
-13.0502270456
30
0.0000000000
10
17.9676621596
20
-13.0343665805
30
0.0000000000
10
17.9745878299
20
-13.0183410488
30
0.0000000000
10
17.9811622811
20
-13.0021687338
30
0.0000000000
11
17.9603925261
21
-13.0502270456
31
0.0000000000
11
17.9811622811
21
-13.0021687338
31
0.0000000000
0
SPLINE
5
264
100
AcDbEntity
8
0
100
AcDbSpline
62
7
6
CONTINUOUS
70
0
71
3
72
14
73
10
74
8
42
0.0000001000
43
0.0000001000
44
0.0000000001
12
0.3490257562
22
0.8585590406
32
0.0000000000
13
-0.3491008577
23
0.8585271274
33
0.0000000000
40
0.0000000000
40
0.0000000000
40
0.0000000000
40
0.0000000000
40
0.1024644933
40
0.2614607041
40
0.4204502786
40
0.5794474462
40
0.7384611124
40
0.8974960764
40
1.0000000000
40
1.0000000000
40
1.0000000000
40
1.0000000000
10
17.9811622811
20
-13.0021687338
30
0.0000000000
10
17.9930831968
20
-12.9728447948
30
0.0000000000
10
18.0205555025
20
-12.8967868799
30
0.0000000000
10
18.0521895621
20
-12.7705677183
30
0.0000000000
10
18.0702747993
20
-12.6240378275
30
0.0000000000
10
18.0702741314
20
-12.4763979212
30
0.0000000000
10
18.0521838177
20
-12.3298489568
30
0.0000000000
10
18.0205366147
20
-12.2036002337
30
0.0000000000
10
17.9930505657
20
-12.1275215980
30
0.0000000000
10
17.9811224965
20
-12.0981874650
30
0.0000000000
11
17.9811622811
21
-13.0021687338
31
0.0000000000
11
18.0134175973
21
-12.9128581443
31
0.0000000000
11
18.0492229212
21
-12.7700091042
31
0.0000000000
11
18.0672603558
21
-12.6238560679
31
0.0000000000
11
18.0672596900
21
-12.4765871624
31
0.0000000000
11
18.0492168390
21
-12.3304123108
31
0.0000000000
11
18.0133966932
21
-12.1875299809
31
0.0000000000
11
17.9811224965
21
-12.0981874650
31
0.0000000000
0
SPLINE
5
265
100
AcDbEntity
8
0
100
AcDbSpline
62
7
6
CONTINUOUS
70
0
71
3
72
8
73
4
74
2
42
0.0000001000
43
0.0000001000
44
0.0000000001
12
-0.0196878011
22
0.0484172723
32
0.0000000000
13
-0.0217649043
23
0.0474854103
33
0.0000000000
40
0.0000000000
40
0.0000000000
40
0.0000000000
40
0.0000000000
40
1.0000000000
40
1.0000000000
40
1.0000000000
40
1.0000000000
10
17.9811224965
20
-12.0981874650
30
0.0000000000
10
17.9745598961
20
-12.0820483742
30
0.0000000000
10
17.9676475059
20
-12.0660555091
30
0.0000000000
10
17.9603925378
20
-12.0502270390
30
0.0000000000
11
17.9811224965
21
-12.0981874650
31
0.0000000000
11
17.9603925378
21
-12.0502270390
31
0.0000000000
0
SPLINE
5
266
100
AcDbEntity
8
0
100
AcDbSpline
62
7
6
CONTINUOUS
70
0
71
3
72
8
73
4
74
2
42
0.0000001000
43
0.0000001000
44
0.0000000001
12
-0.0218203444
22
-0.0476063658
32
0.0000000000
13
-0.0197325985
23
-0.0485428775
33
0.0000000000
40
0.0000000000
40
0.0000000000
40
0.0000000000
40
0.0000000000
40
1.0000000000
40
1.0000000000
40
1.0000000000
40
1.0000000000
10
19.5603926281
20
-12.0502270390
30
0.0000000000
10
19.5531191800
20
-12.0660958276
30
0.0000000000
10
19.5461900559
20
-12.0821298575
30
0.0000000000
10
19.5396125230
20
-12.0983108167
30
0.0000000000
11
19.5603926281
21
-12.0502270390
31
0.0000000000
11
19.5396125230
21
-12.0983108167
31
0.0000000000
0
SPLINE
5
267
100
AcDbEntity
8
0
100
AcDbSpline
62
7
6
CONTINUOUS
70
0
71
3
72
14
73
10
74
8
42
0.0000001000
43
0.0000001000
44
0.0000000001
12
-0.3490089825
22
-0.8585742141
32
0.0000000000
13
0.3491284474
23
-0.8585234356
33
0.0000000000
40
0.0000000000
40
0.0000000000
40
0.0000000000
40
0.0000000000
40
0.1024676234
40
0.2614899157
40
0.4204929460
40
0.5794876735
40
0.7384836859
40
0.8974899377
40
1.0000000000
40
1.0000000000
40
1.0000000000
40
1.0000000000
10
19.5396125230
20
-12.0983108167
30
0.0000000000
10
19.5276918160
20
-12.1276361698
30
0.0000000000
10
19.5002180685
20
-12.2037038929
30
0.0000000000
10
19.4685851411
20
-12.3299381298
30
0.0000000000
10
19.4505060899
20
-12.4764816095
30
0.0000000000
10
19.4505153358
20
-12.6241206301
30
0.0000000000
10
19.4686114505
20
-12.7706547610
30
0.0000000000
10
19.5002601899
20
-12.8968912194
30
0.0000000000
10
19.5277460855
20
-12.9729631521
30
0.0000000000
10
19.5396758118
20
-13.0022989157
30
0.0000000000
11
19.5396125230
21
-12.0983108167
31
0.0000000000
11
19.5073581374
21
-12.1876256648
31
0.0000000000
11
19.4715518812
21
-12.3305005845
31
0.0000000000
11
19.4535205010
21
-12.4766681065
31
0.0000000000
11
19.4535297208
21
-12.6239359236
31
0.0000000000
11
19.4715782095
21
-12.7700947844
31
0.0000000000
11
19.5073970801
21
-12.9129512249
31
0.0000000000
11
19.5396758118
21
-13.0022989157
31
0.0000000000
0
SPLINE
5
268
100
AcDbEntity
8
0
100
AcDbSpline
62
7
6
CONTINUOUS
70
0
71
3
72
8
73
4
74
2
42
0.0000001000
43
0.0000001000
44
0.0000000001
12
0.0196760687
22
-0.0483843874
32
0.0000000000
13
0.0217503895
23
-0.0474537395
33
0.0000000000
40
0.0000000000
40
0.0000000000
40
0.0000000000
40
0.0000000000
40
1.0000000000
40
1.0000000000
40
1.0000000000
40
1.0000000000
10
19.5396758118
20
-13.0022989157
30
0.0000000000
10
19.5462345013
20
-13.0184270449
30
0.0000000000
10
19.5531425099
20
-13.0344091325
30
0.0000000000
10
19.5603926398
20
-13.0502270456
30
0.0000000000
11
19.5396758118
21
-13.0022989157
31
0.0000000000
11
19.5603926398
21
-13.0502270456
31
0.0000000000
0
SPLINE
5
269
100
AcDbEntity
8
0
100
AcDbSpline
62
7
6
CONTINUOUS
70
0
71
3
72
8
73
4
74
2
42
0.0000001000
43
0.0000001000
44
0.0000000001
12
0.0218088957
22
0.0475813965
32
0.0000000000
13
0.0197233493
23
0.0485169457
33
0.0000000000
40
0.0000000000
40
0.0000000000
40
0.0000000000
40
0.0000000000
40
1.0000000000
40
1.0000000000
40
1.0000000000
40
1.0000000000
10
21.0603926761
20
-13.0502270456
30
0.0000000000
10
21.0676623081
20
-13.0343665801
30
0.0000000000
10
21.0745879769
20
-13.0183410482
30
0.0000000000
10
21.0811624267
20
-13.0021687330
30
0.0000000000
11
21.0603926761
21
-13.0502270456
31
0.0000000000
11
21.0811624267
21
-13.0021687330
31
0.0000000000
0
SPLINE
5
26A
100
AcDbEntity
8
0
100
AcDbSpline
62
7
6
CONTINUOUS
70
0
71
3
72
14
73
10
74
8
42
0.0000001000
43
0.0000001000
44
0.0000000001
12
0.3490256841
22
0.8585590578
32
0.0000000000
13
-0.3491007856
23
0.8585271446
33
0.0000000000
40
0.0000000000
40
0.0000000000
40
0.0000000000
40
0.0000000000
40
0.1024644936
40
0.2614607042
40
0.4204502787
40
0.5794474462
40
0.7384611122
40
0.8974960761
40
1.0000000000
40
1.0000000000
40
1.0000000000
40
1.0000000000
10
21.0811624267
20
-13.0021687330
30
0.0000000000
10
21.0930833400
20
-12.9728447933
30
0.0000000000
10
21.1205556399
20
-12.8967868774
30
0.0000000000
10
21.1521896928
20
-12.7705677158
30
0.0000000000
10
21.1702749260
20
-12.6240378265
30
0.0000000000
10
21.1702742582
20
-12.4763979223
30
0.0000000000
10
21.1521839484
20
-12.3298489594
30
0.0000000000
10
21.1205367522
20
-12.2036002363
30
0.0000000000
10
21.0930507089
20
-12.1275215996
30
0.0000000000
10
21.0811226421
20
-12.0981874659
30
0.0000000000
11
21.0811624267
21
-13.0021687330
31
0.0000000000
11
21.1134177363
21
-12.9128581420
31
0.0000000000
11
21.1492230525
21
-12.7700091019
31
0.0000000000
11
21.1672604832
21
-12.6238560670
31
0.0000000000
11
21.1672598174
21
-12.4765871633
31
0.0000000000
11
21.1492169703
21
-12.3304123131
31
0.0000000000
11
21.1133968322
21
-12.1875299832
31
0.0000000000
11
21.0811226421
21
-12.0981874659
31
0.0000000000
0
SPLINE
5
26B
100
AcDbEntity
8
0
100
AcDbSpline
62
7
6
CONTINUOUS
70
0
71
3
72
8
73
4
74
2
42
0.0000001000
43
0.0000001000
44
0.0000000001
12
-0.0196877969
22
0.0484172730
32
0.0000000000
13
-0.0217648997
23
0.0474854114
33
0.0000000000
40
0.0000000000
40
0.0000000000
40
0.0000000000
40
0.0000000000
40
1.0000000000
40
1.0000000000
40
1.0000000000
40
1.0000000000
10
21.0811226421
20
-12.0981874659
30
0.0000000000
10
21.0745600432
20
-12.0820483749
30
0.0000000000
10
21.0676476543
20
-12.0660555095
30
0.0000000000
10
21.0603926878
20
-12.0502270390
30
0.0000000000
11
21.0811226421
21
-12.0981874659
31
0.0000000000
11
21.0603926878
21
-12.0502270390
31
0.0000000000
0
SPLINE
5
26C
100
AcDbEntity
8
0
100
AcDbSpline
62
7
6
CONTINUOUS
70
0
71
3
72
14
73
10
74
8
42
0.0000001000
43
0.0000001000
44
0.0000000001
12
-0.4295054522
22
0.9370703243
32
0.0000000000
13
0.4295054304
23
0.9370703343
33
0.0000000000
40
0.0000000000
40
0.0000000000
40
0.0000000000
40
0.0000000000
40
0.1427515707
40
0.2856276015
40
0.4284944317
40
0.5713601073
40
0.7142332434
40
0.8571236876
40
1.0000000000
40
1.0000000000
40
1.0000000000
40
1.0000000000
10
22.6603925358
20
-13.0502270456
30
0.0000000000
10
22.6399550098
20
-13.0056376254
30
0.0000000000
10
22.6045017079
20
-12.9138096119
30
0.0000000000
10
22.5686113658
20
-12.7706547584
30
0.0000000000
10
22.5505152551
20
-12.6241206290
30
0.0000000000
10
22.5505060092
20
-12.4764816105
30
0.0000000000
10
22.5685850564
20
-12.3299381323
30
0.0000000000
10
22.6044712990
20
-12.1867306021
30
0.0000000000
10
22.6399371401
20
-12.0948554236
30
0.0000000000
10
22.6603925241
20
-12.0502270390
30
0.0000000000
11
22.6603925358
21
-13.0502270456
31
0.0000000000
11
22.6073969871
21
-12.9129512226
31
0.0000000000
11
22.5715781242
21
-12.7700947821
31
0.0000000000
11
22.5535296394
21
-12.6239359227
31
0.0000000000
11
22.5535204196
21
-12.4766681075
31
0.0000000000
11
22.5715517959
21
-12.3305005868
31
0.0000000000
11
22.6073580444
21
-12.1876256671
31
0.0000000000
11
22.6603925241
21
-12.0502270390
31
0.0000000000
0
SPLINE
5
26D
100
AcDbEntity
8
0
100
AcDbSpline
62
7
6
CONTINUOUS
70
0
71
3
72
14
73
10
74
8
42
0.0000001000
43
0.0000001000
44
0.0000000001
12
0.4295055144
22
-0.9370703094
32
0.0000000000
13
-0.4295055362
23
-0.9370702994
33
0.0000000000
40
0.0000000000
40
0.0000000000
40
0.0000000000
40
0.0000000000
40
0.1427791188
40
0.2856798121
40
0.4285613681
40
0.5714280994
40
0.7142880080
40
0.8571538796
40
1.0000000000
40
1.0000000000
40
1.0000000000
40
1.0000000000
10
23.9103925758
20
-12.0502270390
30
0.0000000000
10
23.9308340487
20
-12.0948250634
30
0.0000000000
10
23.9662927898
20
-12.1866703873
30
0.0000000000
10
24.0021838557
20
-12.3298489568
30
0.0000000000
10
24.0202741694
20
-12.4763979212
30
0.0000000000
10
24.0202748373
20
-12.6240378275
30
0.0000000000
10
24.0021896001
20
-12.7705677183
30
0.0000000000
10
23.9663038312
20
-12.9137511012
30
0.0000000000
10
23.9308436307
20
-13.0056080933
30
0.0000000000
10
23.9103925641
20
-13.0502270456
30
0.0000000000
11
23.9103925758
21
-12.0502270390
31
0.0000000000
11
23.9633967312
21
-12.1875299809
31
0.0000000000
11
23.9992168770
21
-12.3304123108
31
0.0000000000
11
24.0172597280
21
-12.4765871624
31
0.0000000000
11
24.0172603938
21
-12.6238560679
31
0.0000000000
11
23.9992229592
21
-12.7700091042
31
0.0000000000
11
23.9634176353
21
-12.9128581443
31
0.0000000000
11
23.9103925641
21
-13.0502270456
31
0.0000000000
0
SPLINE
5
26E
100
AcDbEntity
8
0
100
AcDbSpline
62
7
6
CONTINUOUS
70
0
71
3
72
14
73
10
74
8
42
0.0000001000
43
0.0000001000
44
0.0000000001
12
-0.4295055402
22
0.9370702982
32
0.0000000000
13
0.4295055184
23
0.9370703082
33
0.0000000000
40
0.0000000000
40
0.0000000000
40
0.0000000000
40
0.0000000000
40
0.1427515707
40
0.2856276015
40
0.4284944316
40
0.5713601073
40
0.7142332434
40
0.8571236876
40
1.0000000000
40
1.0000000000
40
1.0000000000
40
1.0000000000
10
19.5603926398
20
-13.0502270456
30
0.0000000000
10
19.5399551096
20
-13.0056376267
30
0.0000000000
10
19.5045018003
20
-12.9138096146
30
0.0000000000
10
19.4686114505
20
-12.7706547610
30
0.0000000000
10
19.4505153358
20
-12.6241206301
30
0.0000000000
10
19.4505060899
20
-12.4764816095
30
0.0000000000
10
19.4685851411
20
-12.3299381298
30
0.0000000000
10
19.5044713913
20
-12.1867305994
30
0.0000000000
10
19.5399372399
20
-12.0948554224
30
0.0000000000
10
19.5603926281
20
-12.0502270390
30
0.0000000000
11
19.5603926398
21
-13.0502270456
31
0.0000000000
11
19.5073970801
21
-12.9129512249
31
0.0000000000
11
19.4715782095
21
-12.7700947844
31
0.0000000000
11
19.4535297208
21
-12.6239359236
31
0.0000000000
11
19.4535205010
21
-12.4766681065
31
0.0000000000
11
19.4715518812
21
-12.3305005845
31
0.0000000000
11
19.5073581374
21
-12.1876256648
31
0.0000000000
11
19.5603926281
21
-12.0502270390
31
0.0000000000
0
SPLINE
5
26F
100
AcDbEntity
8
0
100
AcDbSpline
62
7
6
CONTINUOUS
70
0
71
3
72
14
73
10
74
8
42
0.0000001000
43
0.0000001000
44
0.0000000001
12
0.4295054264
22
-0.9370703356
32
0.0000000000
13
-0.4295054482
23
-0.9370703256
33
0.0000000000
40
0.0000000000
40
0.0000000000
40
0.0000000000
40
0.0000000000
40
0.1427791188
40
0.2856798121
40
0.4285613681
40
0.5714280995
40
0.7142880080
40
0.8571538796
40
1.0000000000
40
1.0000000000
40
1.0000000000
40
1.0000000000
10
21.0603926878
20
-12.0502270390
30
0.0000000000
10
21.0808341566
20
-12.0948250646
30
0.0000000000
10
21.1162928901
20
-12.1866703900
30
0.0000000000
10
21.1521839484
20
-12.3298489594
30
0.0000000000
10
21.1702742582
20
-12.4763979223
30
0.0000000000
10
21.1702749260
20
-12.6240378265
30
0.0000000000
10
21.1521896928
20
-12.7705677158
30
0.0000000000
10
21.1163039315
20
-12.9137510985
30
0.0000000000
10
21.0808437385
20
-13.0056080921
30
0.0000000000
10
21.0603926761
20
-13.0502270456
30
0.0000000000
11
21.0603926878
21
-12.0502270390
31
0.0000000000
11
21.1133968322
21
-12.1875299832
31
0.0000000000
11
21.1492169703
21
-12.3304123131
31
0.0000000000
11
21.1672598174
21
-12.4765871633
31
0.0000000000
11
21.1672604832
21
-12.6238560670
31
0.0000000000
11
21.1492230525
21
-12.7700091019
31
0.0000000000
11
21.1134177363
21
-12.9128581420
31
0.0000000000
11
21.0603926761
21
-13.0502270456
31
0.0000000000
0
SPLINE
5
270
100
AcDbEntity
8
0
100
AcDbSpline
62
7
6
CONTINUOUS
70
0
71
3
72
14
73
10
74
8
42
0.0000001000
43
0.0000001000
44
0.0000000001
12
-0.4295054522
22
0.9370703243
32
0.0000000000
13
0.4295054304
23
0.9370703343
33
0.0000000000
40
0.0000000000
40
0.0000000000
40
0.0000000000
40
0.0000000000
40
0.1427515707
40
0.2856276015
40
0.4284944317
40
0.5713601073
40
0.7142332434
40
0.8571236876
40
1.0000000000
40
1.0000000000
40
1.0000000000
40
1.0000000000
10
16.7103924978
20
-13.0502270456
30
0.0000000000
10
16.6899549718
20
-13.0056376254
30
0.0000000000
10
16.6545016699
20
-12.9138096119
30
0.0000000000
10
16.6186113278
20
-12.7706547584
30
0.0000000000
10
16.6005152171
20
-12.6241206290
30
0.0000000000
10
16.6005059712
20
-12.4764816105
30
0.0000000000
10
16.6185850184
20
-12.3299381323
30
0.0000000000
10
16.6544712610
20
-12.1867306021
30
0.0000000000
10
16.6899371021
20
-12.0948554236
30
0.0000000000
10
16.7103924861
20
-12.0502270390
30
0.0000000000
11
16.7103924978
21
-13.0502270456
31
0.0000000000
11
16.6573969491
21
-12.9129512226
31
0.0000000000
11
16.6215780862
21
-12.7700947821
31
0.0000000000
11
16.6035296014
21
-12.6239359227
31
0.0000000000
11
16.6035203816
21
-12.4766681075
31
0.0000000000
11
16.6215517579
21
-12.3305005868
31
0.0000000000
11
16.6573580064
21
-12.1876256671
31
0.0000000000
11
16.7103924861
21
-12.0502270390
31
0.0000000000
0
SPLINE
5
271
100
AcDbEntity
8
0
100
AcDbSpline
62
7
6
CONTINUOUS
70
0
71
3
72
14
73
10
74
8
42
0.0000001000
43
0.0000001000
44
0.0000000001
12
0.4295055144
22
-0.9370703094
32
0.0000000000
13
-0.4295055362
23
-0.9370702994
33
0.0000000000
40
0.0000000000
40
0.0000000000
40
0.0000000000
40
0.0000000000
40
0.1427791188
40
0.2856798121
40
0.4285613681
40
0.5714280994
40
0.7142880080
40
0.8571538796
40
1.0000000000
40
1.0000000000
40
1.0000000000
40
1.0000000000
10
17.9603925378
20
-12.0502270390
30
0.0000000000
10
17.9808340107
20
-12.0948250634
30
0.0000000000
10
18.0162927518
20
-12.1866703873
30
0.0000000000
10
18.0521838177
20
-12.3298489568
30
0.0000000000
10
18.0702741314
20
-12.4763979212
30
0.0000000000
10
18.0702747993
20
-12.6240378275
30
0.0000000000
10
18.0521895621
20
-12.7705677183
30
0.0000000000
10
18.0163037932
20
-12.9137511012
30
0.0000000000
10
17.9808435927
20
-13.0056080933
30
0.0000000000
10
17.9603925261
20
-13.0502270456
30
0.0000000000
11
17.9603925378
21
-12.0502270390
31
0.0000000000
11
18.0133966932
21
-12.1875299809
31
0.0000000000
11
18.0492168390
21
-12.3304123108
31
0.0000000000
11
18.0672596900
21
-12.4765871624
31
0.0000000000
11
18.0672603558
21
-12.6238560679
31
0.0000000000
11
18.0492229212
21
-12.7700091042
31
0.0000000000
11
18.0134175973
21
-12.9128581443
31
0.0000000000
11
17.9603925261
21
-13.0502270456
31
0.0000000000
0
SPLINE
5
272
100
AcDbEntity
8
0
100
AcDbSpline
62
7
6
CONTINUOUS
70
0
71
3
72
15
73
11
74
9
42
0.0000001000
43
0.0000001000
44
0.0000000001
12
-0.7838926164
22
0.0000000000
32
0.0000000000
13
-0.0000000000
23
0.7838926164
33
0.0000000000
40
0.0000000000
40
0.0000000000
40
0.0000000000
40
0.0000000000
40
0.1249999603
40
0.2499995854
40
0.3750001243
40
0.5000004202
40
0.6250005916
40
0.7500008347
40
0.8750001723
40
1.0000000000
40
1.0000000000
40
1.0000000000
40
1.0000000000
10
9.8102213146
20
-22.1502270360
30
0.0000000000
10
9.7775591327
20
-22.1502270360
30
0.0000000000
10
9.7120539014
20
-22.1437871225
30
0.0000000000
10
9.6177096245
20
-22.1151706191
30
0.0000000000
10
9.5307229369
20
-22.0686908886
30
0.0000000000
10
9.4544892975
20
-22.0061299656
30
0.0000000000
10
9.3919285182
20
-21.9298963105
30
0.0000000000
10
9.3454489548
20
-21.8429097482
30
0.0000000000
10
9.3168325479
20
-21.7485656418
30
0.0000000000
10
9.3103926521
20
-21.6830605209
30
0.0000000000
10
9.3103926521
20
-21.6503983735
30
0.0000000000
11
9.8102213146
21
-22.1502270360
31
0.0000000000
11
9.7127061083
21
-22.1406276761
31
0.0000000000
11
9.6189361237
21
-22.1121935121
31
0.0000000000
11
9.5325150810
21
-22.0660106641
31
0.0000000000
11
9.4567680744
21
-22.0038511457
31
0.0000000000
11
9.3946087108
21
-21.9281041382
31
0.0000000000
11
9.3484260495
21
-21.8416832587
31
0.0000000000
11
9.3199919917
21
-21.7479134774
31
0.0000000000
11
9.3103926521
21
-21.6503983735
31
0.0000000000
0
SPLINE
5
273
100
AcDbEntity
8
0
100
AcDbSpline
62
7
6
CONTINUOUS
70
0
71
3
72
15
73
11
74
9
42
0.0000001000
43
0.0000001000
44
0.0000000001
12
0.0000000000
22
0.7838926164
32
0.0000000000
13
0.7838926164
23
0.0000000000
33
0.0000000000
40
0.0000000000
40
0.0000000000
40
0.0000000000
40
0.0000000000
40
0.1249999603
40
0.2499995854
40
0.3750001243
40
0.5000004202
40
0.6250005916
40
0.7500008347
40
0.8750001723
40
1.0000000000
40
1.0000000000
40
1.0000000000
40
1.0000000000
10
9.3103926521
20
21.5499443015
30
0.0000000000
10
9.3103926521
20
21.5826064834
30
0.0000000000
10
9.3168325656
20
21.6481117147
30
0.0000000000
10
9.3454490690
20
21.7424559916
30
0.0000000000
10
9.3919287995
20
21.8294426792
30
0.0000000000
10
9.4544897226
20
21.9056763186
30
0.0000000000
10
9.5307233777
20
21.9682370979
30
0.0000000000
10
9.6177099400
20
22.0147166613
30
0.0000000000
10
9.7120540464
20
22.0433330682
30
0.0000000000
10
9.7775591673
20
22.0497729640
30
0.0000000000
10
9.8102213146
20
22.0497729640
30
0.0000000000
11
9.3103926521
21
21.5499443015
31
0.0000000000
11
9.3199920121
21
21.6474595078
31
0.0000000000
11
9.3484261761
21
21.7412294924
31
0.0000000000
11
9.3946090241
21
21.8276505351
31
0.0000000000
11
9.4567685424
21
21.9033975417
31
0.0000000000
11
9.5325155499
21
21.9655569053
31
0.0000000000
11
9.6189364294
21
22.0117395666
31
0.0000000000
11
9.7127062107
21
22.0401736244
31
0.0000000000
11
9.8102213146
21
22.0497729640
31
0.0000000000
0
SPLINE
5
274
100
AcDbEntity
8
0
100
AcDbSpline
62
7
6
CONTINUOUS
70
0
71
3
72
15
73
11
74
9
42
0.0000001000
43
0.0000001000
44
0.0000000001
12
0.0000000000
22
-0.7838926164
32
0.0000000000
13
-0.7838926164
23
0.0000000000
33
0.0000000000
40
0.0000000000
40
0.0000000000
40
0.0000000000
40
0.0000000000
40
0.1249999603
40
0.2499995854
40
0.3750001243
40
0.5000004202
40
0.6250005916
40
0.7500008347
40
0.8750001723
40
1.0000000000
40
1.0000000000
40
1.0000000000
40
1.0000000000
10
31.3103926521
20
-21.6503983735
30
0.0000000000
10
31.3103926521
20
-21.6830605555
30
0.0000000000
10
31.3039527386
20
-21.7485657868
30
0.0000000000
10
31.2753362352
20
-21.8429100637
30
0.0000000000
10
31.2288565048
20
-21.9298967513
30
0.0000000000
10
31.1662955817
20
-22.0061303907
30
0.0000000000
10
31.0900619266
20
-22.0686911700
30
0.0000000000
10
31.0030753643
20
-22.1151707334
30
0.0000000000
10
30.9087312579
20
-22.1437871402
30
0.0000000000
10
30.8432261370
20
-22.1502270360
30
0.0000000000
10
30.8105639897
20
-22.1502270360
30
0.0000000000
11
31.3103926521
21
-21.6503983735
31
0.0000000000
11
31.3007932922
21
-21.7479135799
31
0.0000000000
11
31.2723591282
21
-21.8416835645
31
0.0000000000
11
31.2261762802
21
-21.9281046072
31
0.0000000000
11
31.1640167618
21
-22.0038516138
31
0.0000000000
11
31.0882697544
21
-22.0660109774
31
0.0000000000
11
31.0018488748
21
-22.1121936387
31
0.0000000000
11
30.9080790935
21
-22.1406276964
31
0.0000000000
11
30.8105639897
21
-22.1502270360
31
0.0000000000
0
SPLINE
5
275
100
AcDbEntity
8
0
100
AcDbSpline
62
7
6
CONTINUOUS
70
0
71
3
72
15
73
11
74
9
42
0.0000001000
43
0.0000001000
44
0.0000000001
12
0.7838926164
22
0.0000000000
32
0.0000000000
13
0.0000000000
23
-0.7838926164
33
0.0000000000
40
0.0000000000
40
0.0000000000
40
0.0000000000
40
0.0000000000
40
0.1249999603
40
0.2499995854
40
0.3750001243
40
0.5000004202
40
0.6250005916
40
0.7500008347
40
0.8750001723
40
1.0000000000
40
1.0000000000
40
1.0000000000
40
1.0000000000
10
30.8105639897
20
22.0497729640
30
0.0000000000
10
30.8432261716
20
22.0497729640
30
0.0000000000
10
30.9087314029
20
22.0433330505
30
0.0000000000
10
31.0030756798
20
22.0147165471
30
0.0000000000
10
31.0900623674
20
21.9682368166
30
0.0000000000
10
31.1662960068
20
21.9056758935
30
0.0000000000
10
31.2288567861
20
21.8294422384
30
0.0000000000
10
31.2753363495
20
21.7424556761
30
0.0000000000
10
31.3039527563
20
21.6481115697
30
0.0000000000
10
31.3103926521
20
21.5826064488
30
0.0000000000
10
31.3103926521
20
21.5499443015
30
0.0000000000
11
30.8105639897
21
22.0497729640
31
0.0000000000
11
30.9080791960
21
22.0401736040
31
0.0000000000
11
31.0018491806
21
22.0117394400
31
0.0000000000
11
31.0882702233
21
21.9655565920
31
0.0000000000
11
31.1640172299
21
21.9033970737
31
0.0000000000
11
31.2261765935
21
21.8276500662
31
0.0000000000
11
31.2723592548
21
21.7412291867
31
0.0000000000
11
31.3007933125
21
21.6474594054
31
0.0000000000
11
31.3103926521
21
21.5499443015
31
0.0000000000
0
SPLINE
5
276
100
AcDbEntity
8
0
100
AcDbSpline
62
9
6
CONTINUOUS
70
0
71
3
72
12
73
8
74
6
42
0.0000001000
43
0.0000001000
44
0.0000000001
12
0.0005356709
22
-0.7817393703
32
0.0000000000
13
0.7817393703
23
-0.0005356707
33
0.0000000000
40
0.0000000000
40
0.0000000000
40
0.0000000000
40
0.0000000000
40
0.1999725721
40
0.3999817669
40
0.6000062777
40
0.8000195929
40
1.0000000000
40
1.0000000000
40
1.0000000000
40
1.0000000000
10
9.4142689471
20
-21.5465220786
30
0.0000000000
10
9.4143046536
20
-21.5986308895
30
0.0000000000
10
9.4309474913
20
-21.7035795692
30
0.0000000000
10
9.5031439440
20
-21.8450436088
30
0.0000000000
10
9.6155690671
20
-21.9574708598
30
0.0000000000
10
9.7570348775
20
-22.0296710241
30
0.0000000000
10
9.8619867570
20
-22.0463150333
30
0.0000000000
10
9.9140976095
20
-22.0463507412
30
0.0000000000
11
9.4142689471
21
-21.5465220786
31
0.0000000000
11
9.4388158844
21
-21.7009092959
31
0.0000000000
11
9.5098455886
21
-21.8401992741
31
0.0000000000
11
9.6204127599
21
-21.9507685365
31
0.0000000000
11
9.7597044955
21
-22.0218018847
31
0.0000000000
11
9.9140976095
21
-22.0463507412
31
0.0000000000
0
SPLINE
5
277
100
AcDbEntity
8
0
100
AcDbSpline
62
9
6
CONTINUOUS
70
0
71
3
72
13
73
9
74
7
42
0.0000001000
43
0.0000001000
44
0.0000000001
12
0.3806570254
22
0.7616728641
32
0.0000000000
13
0.0016818411
23
0.8514942714
33
0.0000000000
40
0.0000000000
40
0.0000000000
40
0.0000000000
40
0.0000000000
40
0.0388747995
40
0.1388024965
40
0.2944534630
40
0.4974691005
40
0.7369561643
40
1.0000000000
40
1.0000000000
40
1.0000000000
40
1.0000000000
10
9.9140976096
20
-22.0463507411
30
0.0000000000
10
9.9190302648
20
-22.0364807811
30
0.0000000000
10
9.9144005756
20
-21.9947937918
30
0.0000000000
10
9.9226562903
20
-21.9132814300
30
0.0000000000
10
9.9218792527
20
-21.7820793550
30
0.0000000000
10
9.9250088338
20
-21.6127386653
30
0.0000000000
10
9.9259545035
20
-21.4123368257
30
0.0000000000
10
9.9265554228
20
-21.2697407852
30
0.0000000000
10
9.9267028888
20
-21.1950806788
30
0.0000000000
11
9.9140976096
21
-22.0463507411
31
0.0000000000
11
9.9171053864
21
-22.0133859409
31
0.0000000000
11
9.9199323220
21
-21.9283448869
31
0.0000000000
11
9.9224273756
21
-21.7958322094
31
0.0000000000
11
9.9244555312
21
-21.6229771179
31
0.0000000000
11
9.9259064319
21
-21.4190600189
31
0.0000000000
11
9.9267028888
21
-21.1950806788
31
0.0000000000
0
SPLINE
5
278
100
AcDbEntity
8
0
100
AcDbSpline
62
9
6
CONTINUOUS
70
0
71
3
72
13
73
9
74
7
42
0.0000001000
43
0.0000001000
44
0.0000000001
12
0.3004932473
22
0.3020805378
32
0.0000000000
13
0.0016772595
23
0.4260821867
33
0.0000000000
40
0.0000000000
40
0.0000000000
40
0.0000000000
40
0.0000000000
40
0.0390053668
40
0.1389509341
40
0.2947877186
40
0.4982821756
40
0.7382137399
40
1.0000000000
40
1.0000000000
40
1.0000000000
40
1.0000000000
10
9.4142689471
20
-21.5465220786
30
0.0000000000
10
9.4181758969
20
-21.5425944912
30
0.0000000000
10
9.4158009184
20
-21.5198717618
30
0.0000000000
10
9.4221067456
20
-21.4807430177
30
0.0000000000
10
9.4223511394
20
-21.4141562846
30
0.0000000000
10
9.4250760928
20
-21.3296241481
30
0.0000000000
10
9.4261642017
20
-21.2292755153
30
0.0000000000
10
9.4267278651
20
-21.1580678682
30
0.0000000000
10
9.4268742263
20
-21.1208870474
30
0.0000000000
11
9.4142689471
21
-21.5465220786
31
0.0000000000
11
9.4172638870
21
-21.5301745366
31
0.0000000000
11
9.4200965636
21
-21.4876834967
31
0.0000000000
11
9.4225971331
21
-21.4213308059
31
0.0000000000
11
9.4246298530
21
-21.3346486015
31
0.0000000000
11
9.4260823492
21
-21.2324275629
31
0.0000000000
11
9.4268742263
21
-21.1208870474
31
0.0000000000
0
SPLINE
5
279
100
AcDbEntity
8
0
100
AcDbSpline
62
9
6
CONTINUOUS
70
0
71
3
72
12
73
8
74
6
42
0.0000001000
43
0.0000001000
44
0.0000000001
12
0.0880310120
22
-0.5047724870
32
0.0000000000
13
0.5123873984
23
-0.0019689311
33
0.0000000000
40
0.0000000000
40
0.0000000000
40
0.0000000000
40
0.0000000000
40
0.0695900773
40
0.2162777783
40
0.4337159057
40
0.7031599901
40
1.0000000000
40
1.0000000000
40
1.0000000000
40
1.0000000000
10
9.4268742263
20
-21.1208870474
30
0.0000000000
10
9.4289162546
20
-21.1325960996
30
0.0000000000
10
9.4698897989
20
-21.1511676611
30
0.0000000000
10
9.5364912532
20
-21.1672715252
30
0.0000000000
10
9.6464827419
20
-21.1826784234
30
0.0000000000
10
9.7790149803
20
-21.1923134649
30
0.0000000000
10
9.8760038620
20
-21.1948858542
30
0.0000000000
10
9.9267028888
20
-21.1950806734
30
0.0000000000
11
9.4268742263
21
-21.1208870474
31
0.0000000000
11
9.4544801552
21
-21.1434560244
31
0.0000000000
11
9.5268113791
21
-21.1638874410
31
0.0000000000
11
9.6370172424
21
-21.1802461913
31
0.0000000000
11
9.7746598958
21
-21.1909829007
31
0.0000000000
11
9.9267028888
21
-21.1950806734
31
0.0000000000
0
SPLINE
5
27A
100
AcDbEntity
8
0
100
AcDbSpline
62
9
6
CONTINUOUS
70
0
71
3
72
10
73
6
74
4
42
0.0000001000
43
0.0000001000
44
0.0000000001
12
0.0454998796
22
11.6447977341
32
0.0000000000
13
0.0057626841
23
11.6448851991
33
0.0000000000
40
0.0000000000
40
0.0000000000
40
0.0000000000
40
0.0000000000
40
0.3320148751
40
0.6655565454
40
1.0000000000
40
1.0000000000
40
1.0000000000
40
1.0000000000
10
9.9267028888
20
-21.1950806788
30
0.0000000000
10
9.9317384344
20
-19.9063319905
30
0.0000000000
10
9.9403394786
20
-17.3229021243
30
0.0000000000
10
9.9488389892
20
-13.4412818060
30
0.0000000000
10
9.9515830571
20
-10.8484122474
30
0.0000000000
10
9.9522254878
20
-9.5502270360
30
0.0000000000
11
9.9267028888
21
-21.1950806788
31
0.0000000000
11
9.9395870860
21
-17.3288265689
31
0.0000000000
11
9.9480999336
21
-13.4447809620
31
0.0000000000
11
9.9522254878
21
-9.5502270360
31
0.0000000000
0
SPLINE
5
27B
100
AcDbEntity
8
0
100
AcDbSpline
62
9
6
CONTINUOUS
70
0
71
3
72
10
73
6
74
4
42
0.0000001000
43
0.0000001000
44
0.0000000001
12
0.0454998756
22
11.5801037905
32
0.0000000000
13
0.0057626848
23
11.5801917440
33
0.0000000000
40
0.0000000000
40
0.0000000000
40
0.0000000000
40
0.0000000000
40
0.3320111773
40
0.6655577738
40
1.0000000000
40
1.0000000000
40
1.0000000000
40
1.0000000000
10
9.4268742263
20
-21.1208870474
30
0.0000000000
10
9.4319097154
20
-19.8393124164
30
0.0000000000
10
9.4405107922
20
-17.2702302672
30
0.0000000000
10
9.4490103191
20
-13.4101744790
30
0.0000000000
10
9.4517543969
20
-10.8316954049
30
0.0000000000
10
9.4523968253
20
-9.5407270360
30
0.0000000000
11
9.4268742263
21
-21.1208870474
31
0.0000000000
11
9.4397583043
21
-17.2761550645
31
0.0000000000
11
9.4482712942
21
-13.4136304248
31
0.0000000000
11
9.4523968253
21
-9.5407270360
31
0.0000000000
0
SPLINE
5
27C
100
AcDbEntity
8
0
100
AcDbSpline
62
9
6
CONTINUOUS
70
0
71
3
72
12
73
8
74
6
42
0.0000001000
43
0.0000001000
44
0.0000000001
12
0.4046164661
22
-0.2938362453
32
0.0000000000
13
0.5000541589
23
-0.0002487483
33
0.0000000000
40
0.0000000000
40
0.0000000000
40
0.0000000000
40
0.0000000000
40
0.0555750126
40
0.2003450939
40
0.4207646183
40
0.6959972274
40
1.0000000000
40
1.0000000000
40
1.0000000000
40
1.0000000000
10
9.4523968253
20
-9.5407270360
30
0.0000000000
10
9.4598923470
20
-9.5461703537
30
0.0000000000
10
9.4969188730
20
-9.5401238217
30
0.0000000000
10
9.5638284510
20
-9.5492751635
30
0.0000000000
10
9.6721802554
20
-9.5476065436
30
0.0000000000
10
9.8048424817
20
-9.5502326159
30
0.0000000000
10
9.9015528708
20
-9.5502018293
30
0.0000000000
10
9.9522254878
20
-9.5502270360
30
0.0000000000
11
9.4523968253
21
-9.5407270360
31
0.0000000000
11
9.4800367394
21
-9.5436163484
31
0.0000000000
11
9.5523823568
21
-9.5462321076
31
0.0000000000
11
9.6625841671
21
-9.5483266597
31
0.0000000000
11
9.8002085259
21
-9.5497016976
31
0.0000000000
11
9.9522254878
21
-9.5502270360
31
0.0000000000
0
SPLINE
5
27D
100
AcDbEntity
8
0
100
AcDbSpline
62
9
6
CONTINUOUS
70
0
71
3
72
10
73
6
74
4
42
0.0000001000
43
0.0000001000
44
0.0000000001
12
0.0094453642
22
18.9809983461
32
0.0000000000
13
-0.0094453649
23
18.9809983461
33
0.0000000000
40
0.0000000000
40
0.0000000000
40
0.0000000000
40
0.0000000000
40
0.3333309576
40
0.6666688049
40
1.0000000000
40
1.0000000000
40
1.0000000000
40
1.0000000000
10
9.4523968253
20
-9.5407270360
30
0.0000000000
10
9.4534463027
20
-7.4317422513
30
0.0000000000
10
9.4548454025
20
-3.2137287070
30
0.0000000000
10
9.4548454031
20
3.1132716295
30
0.0000000000
10
9.4534463035
20
7.3312866765
30
0.0000000000
10
9.4523968253
20
9.4402729640
30
0.0000000000
11
9.4523968253
21
-9.5407270360
31
0.0000000000
11
9.4544956204
21
-3.2137722466
31
0.0000000000
11
9.4544956211
21
3.1133136663
31
0.0000000000
11
9.4523968253
21
9.4402729640
31
0.0000000000
0
SPLINE
5
27E
100
AcDbEntity
8
0
100
AcDbSpline
62
9
6
CONTINUOUS
70
0
71
3
72
12
73
8
74
6
42
0.0000001000
43
0.0000001000
44
0.0000000001
12
0.4046168455
22
0.2938357228
32
0.0000000000
13
0.5000541588
23
0.0002487483
33
0.0000000000
40
0.0000000000
40
0.0000000000
40
0.0000000000
40
0.0000000000
40
0.0555750295
40
0.2003451180
40
0.4207646404
40
0.6959972405
40
1.0000000000
40
1.0000000000
40
1.0000000000
40
1.0000000000
10
9.4523968253
20
9.4402729640
30
0.0000000000
10
9.4598923563
20
9.4457162736
30
0.0000000000
10
9.4969188713
20
9.4396697600
30
0.0000000000
10
9.5638284666
20
9.4488210846
30
0.0000000000
10
9.6721802633
20
9.4471524736
30
0.0000000000
10
9.8048424883
20
9.4497785423
30
0.0000000000
10
9.9015528730
20
9.4497477566
30
0.0000000000
10
9.9522254878
20
9.4497729633
30
0.0000000000
11
9.4523968253
21
9.4402729640
31
0.0000000000
11
9.4800367479
21
9.4431622762
31
0.0000000000
11
9.5523823689
21
9.4457780352
31
0.0000000000
11
9.6625841782
21
9.4478725872
31
0.0000000000
11
9.8002085325
21
9.4492476249
31
0.0000000000
11
9.9522254878
21
9.4497729633
31
0.0000000000
0
SPLINE
5
27F
100
AcDbEntity
8
0
100
AcDbSpline
62
9
6
CONTINUOUS
70
0
71
3
72
10
73
6
74
4
42
0.0000001000
43
0.0000001000
44
0.0000000001
12
-0.0057627125
22
11.6448851991
32
0.0000000000
13
-0.0454999083
23
11.6447977340
33
0.0000000000
40
0.0000000000
40
0.0000000000
40
0.0000000000
40
0.0000000000
40
0.3344434556
40
0.6679851259
40
1.0000000000
40
1.0000000000
40
1.0000000000
40
1.0000000000
10
9.9522254878
20
9.4497729640
30
0.0000000000
10
9.9515830539
20
10.7479581794
30
0.0000000000
10
9.9488389933
20
13.3408277418
30
0.0000000000
10
9.9403394745
20
17.2224480601
30
0.0000000000
10
9.9317384375
20
19.8058779223
30
0.0000000000
10
9.9267028888
20
21.0946266067
30
0.0000000000
11
9.9522254878
21
9.4497729640
31
0.0000000000
11
9.9480999345
21
13.3443269019
31
0.0000000000
11
9.9395870850
21
17.2283725085
31
0.0000000000
11
9.9267028888
21
21.0946266067
31
0.0000000000
0
SPLINE
5
280
100
AcDbEntity
8
0
100
AcDbSpline
62
9
6
CONTINUOUS
70
0
71
3
72
10
73
6
74
4
42
0.0000001000
43
0.0000001000
44
0.0000000001
12
-0.0057627129
22
11.5801917440
32
0.0000000000
13
-0.0454999043
23
11.5801037904
33
0.0000000000
40
0.0000000000
40
0.0000000000
40
0.0000000000
40
0.0000000000
40
0.3344397263
40
0.6679863314
40
1.0000000000
40
1.0000000000
40
1.0000000000
40
1.0000000000
10
9.4523968253
20
9.4402729640
30
0.0000000000
10
9.4517543986
20
10.7312316832
30
0.0000000000
10
9.4490103491
20
13.3097011409
30
0.0000000000
10
9.4405108470
20
17.1697569292
30
0.0000000000
10
9.4319097563
20
19.7388487279
30
0.0000000000
10
9.4268742263
20
21.0204329754
30
0.0000000000
11
9.4523968253
21
9.4402729640
31
0.0000000000
11
9.4482713424
21
13.3131474041
31
0.0000000000
11
9.4397583834
21
17.1756721432
31
0.0000000000
11
9.4268742263
21
21.0204329754
31
0.0000000000
0
SPLINE
5
281
100
AcDbEntity
8
0
100
AcDbSpline
62
9
6
CONTINUOUS
70
0
71
3
72
12
73
8
74
6
42
0.0000001000
43
0.0000001000
44
0.0000000001
12
0.0881212121
22
0.5047549185
32
0.0000000000
13
0.5123855964
23
0.0019688459
33
0.0000000000
40
0.0000000000
40
0.0000000000
40
0.0000000000
40
0.0000000000
40
0.0695940028
40
0.2162842741
40
0.4337222074
40
0.7031637934
40
1.0000000000
40
1.0000000000
40
1.0000000000
40
1.0000000000
10
9.4268742265
20
21.0204329754
30
0.0000000000
10
9.4289184624
20
21.0321422805
30
0.0000000000
10
9.4698923711
20
21.0507110368
30
0.0000000000
10
9.5364957262
20
21.0668157890
30
0.0000000000
10
9.6464863904
20
21.0822212137
30
0.0000000000
10
9.7790172790
20
21.0918560559
30
0.0000000000
10
9.8760046898
20
21.0944282378
30
0.0000000000
10
9.9267028887
20
21.0946230460
30
0.0000000000
11
9.4268742265
21
21.0204329754
31
0.0000000000
11
9.4544833643
21
21.0430010068
31
0.0000000000
11
9.5268159562
21
21.0634314529
31
0.0000000000
11
9.6370214472
21
21.0797893645
31
0.0000000000
11
9.7746623743
21
21.0905254983
31
0.0000000000
11
9.9267028887
21
21.0946230460
31
0.0000000000
0
SPLINE
5
282
100
AcDbEntity
8
0
100
AcDbSpline
62
9
6
CONTINUOUS
70
0
71
3
72
13
73
9
74
7
42
0.0000001000
43
0.0000001000
44
0.0000000001
12
-0.0016806748
22
0.8514942984
32
0.0000000000
13
-0.3796462489
23
0.7621772042
33
0.0000000000
40
0.0000000000
40
0.0000000000
40
0.0000000000
40
0.0000000000
40
0.2630436416
40
0.5025265329
40
0.7055416102
40
0.8611947634
40
0.9611250357
40
1.0000000000
40
1.0000000000
40
1.0000000000
40
1.0000000000
10
9.9267028888
20
21.0946266067
30
0.0000000000
10
9.9265555252
20
21.1692866604
30
0.0000000000
10
9.9259550871
20
21.3118817029
30
0.0000000000
10
9.9250070027
20
21.5122812079
30
0.0000000000
10
9.9218845610
20
21.6816238512
30
0.0000000000
10
9.9226472632
20
21.8128205334
30
0.0000000000
10
9.9144170578
20
21.8943469068
30
0.0000000000
10
9.9190171877
20
21.9360201318
30
0.0000000000
10
9.9140976096
20
21.9458966690
30
0.0000000000
11
9.9267028888
21
21.0946266067
31
0.0000000000
11
9.9259064300
21
21.3186057880
31
0.0000000000
11
9.9244555808
21
21.5225193404
31
0.0000000000
11
9.9224282917
21
21.6953739700
31
0.0000000000
11
9.9199327461
21
21.8278885044
31
0.0000000000
11
9.9171056252
21
21.9129317487
31
0.0000000000
11
9.9140976096
21
21.9458966690
31
0.0000000000
0
SPLINE
5
283
100
AcDbEntity
8
0
100
AcDbSpline
62
9
6
CONTINUOUS
70
0
71
3
72
13
73
9
74
7
42
0.0000001000
43
0.0000001000
44
0.0000000001
12
-0.0016757221
22
0.4260821711
32
0.0000000000
13
-0.2997217633
23
0.3028459825
33
0.0000000000
40
0.0000000000
40
0.0000000000
40
0.0000000000
40
0.0000000000
40
0.2616919514
40
0.5014664101
40
0.7048866667
40
0.8609111099
40
0.9609709965
40
1.0000000000
40
1.0000000000
40
1.0000000000
40
1.0000000000
10
9.4268742263
20
21.0204329754
30
0.0000000000
10
9.4267280520
20
21.0576004003
30
0.0000000000
10
9.4261649202
20
21.1287727349
30
0.0000000000
10
9.4250762273
20
21.2290735056
30
0.0000000000
10
9.4223569170
20
21.3136037354
30
0.0000000000
10
9.4221053681
20
21.3802142002
30
0.0000000000
10
9.4158120433
20
21.4194048700
30
0.0000000000
10
9.4181682277
20
21.4421280809
30
0.0000000000
10
9.4142689471
20
21.4460680065
30
0.0000000000
11
9.4268742263
21
21.0204329754
31
0.0000000000
11
9.4260827422
21
21.1319333034
31
0.0000000000
11
9.4246317453
21
21.2340874109
31
0.0000000000
11
9.4226012405
21
21.3207380384
31
0.0000000000
11
9.4200995849
21
21.3871707003
31
0.0000000000
11
9.4172649850
21
21.4297104277
31
0.0000000000
11
9.4142689471
21
21.4460680065
31
0.0000000000
0
SPLINE
5
284
100
AcDbEntity
8
0
100
AcDbSpline
62
9
6
CONTINUOUS
70
0
71
3
72
12
73
8
74
6
42
0.0000001000
43
0.0000001000
44
0.0000000001
12
0.0005356733
22
0.7817393695
32
0.0000000000
13
0.7817393695
23
0.0005356729
33
0.0000000000
40
0.0000000000
40
0.0000000000
40
0.0000000000
40
0.0000000000
40
0.1999768525
40
0.3999879278
40
0.6000120718
40
0.8000231472
40
1.0000000000
40
1.0000000000
40
1.0000000000
40
1.0000000000
10
9.4142689471
20
21.4460680065
30
0.0000000000
10
9.4143046545
20
21.4981779327
30
0.0000000000
10
9.4309481176
20
21.6031282638
30
0.0000000000
10
9.5031464636
20
21.7445931084
30
0.0000000000
10
9.6155725075
20
21.8570191524
30
0.0000000000
10
9.7570373521
20
21.9292174986
30
0.0000000000
10
9.8619876833
20
21.9458609616
30
0.0000000000
10
9.9140976096
20
21.9458966690
30
0.0000000000
11
9.4142689471
21
21.4460680065
31
0.0000000000
11
9.4388169333
21
21.6004584451
31
0.0000000000
11
9.5098484560
21
21.7397491458
31
0.0000000000
11
9.6204164700
21
21.8503171599
31
0.0000000000
11
9.7597071708
21
21.9213486828
31
0.0000000000
11
9.9140976096
21
21.9458966690
31
0.0000000000
0
SPLINE
5
285
100
AcDbEntity
8
0
100
AcDbSpline
62
9
6
CONTINUOUS
70
0
71
3
72
12
73
8
74
6
42
0.0000001000
43
0.0000001000
44
0.0000000001
12
-0.0005356733
22
-0.7817393695
32
0.0000000000
13
-0.7817393695
23
-0.0005356730
33
0.0000000000
40
0.0000000000
40
0.0000000000
40
0.0000000000
40
0.0000000000
40
0.1999768524
40
0.3999879276
40
0.6000120717
40
0.8000231471
40
1.0000000000
40
1.0000000000
40
1.0000000000
40
1.0000000000
10
31.2065163572
20
-21.5465220786
30
0.0000000000
10
31.2064806498
20
-21.5986320048
30
0.0000000000
10
31.1898371867
20
-21.7035823358
30
0.0000000000
10
31.1176388407
20
-21.8450471803
30
0.0000000000
10
31.0052127969
20
-21.9574732243
30
0.0000000000
10
30.8637479523
20
-22.0296715706
30
0.0000000000
10
30.7587976210
20
-22.0463150337
30
0.0000000000
10
30.7066876947
20
-22.0463507411
30
0.0000000000
11
31.2065163572
21
-21.5465220786
31
0.0000000000
11
31.1819683710
21
-21.7009125171
31
0.0000000000
11
31.1109368483
21
-21.8402032178
31
0.0000000000
11
31.0003688344
21
-21.9507712319
31
0.0000000000
11
30.8610781336
21
-22.0218027548
31
0.0000000000
11
30.7066876947
21
-22.0463507411
31
0.0000000000
0
SPLINE
5
286
100
AcDbEntity
8
0
100
AcDbSpline
62
9
6
CONTINUOUS
70
0
71
3
72
12
73
8
74
6
42
0.0000001000
43
0.0000001000
44
0.0000000001
12
-0.0880987669
22
-0.5047593339
32
0.0000000000
13
-0.5123860865
23
-0.0019688163
33
0.0000000000
40
0.0000000000
40
0.0000000000
40
0.0000000000
40
0.0000000000
40
0.0695930882
40
0.2162827327
40
0.4337207017
40
0.7031628815
40
1.0000000000
40
1.0000000000
40
1.0000000000
40
1.0000000000
10
31.1939110779
20
-21.1208870474
30
0.0000000000
10
31.1918673895
20
-21.1325963011
30
0.0000000000
10
31.1508935918
20
-21.1511658086
30
0.0000000000
10
31.0842906791
20
-21.1672703605
30
0.0000000000
10
30.9742998184
20
-21.1826761771
30
0.0000000000
10
30.8417685919
20
-21.1923110722
30
0.0000000000
10
30.7447808187
20
-21.1948833008
30
0.0000000000
10
30.6940824155
20
-21.1950781067
30
0.0000000000
11
31.1939110779
21
-21.1208870474
31
0.0000000000
11
31.1663027319
21
-21.1434553610
31
0.0000000000
11
31.0939704776
21
-21.1638860848
31
0.0000000000
11
30.9837648946
21
-21.1802442275
31
0.0000000000
11
30.8461235415
21
-21.1909805113
31
0.0000000000
11
30.6940824155
21
-21.1950781067
31
0.0000000000
0
SPLINE
5
287
100
AcDbEntity
8
0
100
AcDbSpline
62
9
6
CONTINUOUS
70
0
71
3
72
13
73
9
74
7
42
0.0000001000
43
0.0000001000
44
0.0000000001
12
0.0016818411
22
-0.8514942714
32
0.0000000000
13
0.3806570283
23
-0.7616728626
33
0.0000000000
40
0.0000000000
40
0.0000000000
40
0.0000000000
40
0.0000000000
40
0.2630438357
40
0.5025308995
40
0.7055465370
40
0.8611975035
40
0.9611252005
40
1.0000000000
40
1.0000000000
40
1.0000000000
40
1.0000000000
10
30.6940824155
20
-21.1950806788
30
0.0000000000
10
30.6942298815
20
-21.2697407852
30
0.0000000000
10
30.6948308008
20
-21.4123368257
30
0.0000000000
10
30.6957764705
20
-21.6127386653
30
0.0000000000
10
30.6989060516
20
-21.7820793550
30
0.0000000000
10
30.6981290140
20
-21.9132814300
30
0.0000000000
10
30.7063847287
20
-21.9947937918
30
0.0000000000
10
30.7017550395
20
-22.0364807811
30
0.0000000000
10
30.7066876947
20
-22.0463507411
30
0.0000000000
11
30.6940824155
21
-21.1950806788
31
0.0000000000
11
30.6948788724
21
-21.4190600189
31
0.0000000000
11
30.6963297731
21
-21.6229771179
31
0.0000000000
11
30.6983579287
21
-21.7958322094
31
0.0000000000
11
30.7008529823
21
-21.9283448869
31
0.0000000000
11
30.7036799179
21
-22.0133859409
31
0.0000000000
11
30.7066876947
21
-22.0463507411
31
0.0000000000
0
SPLINE
5
288
100
AcDbEntity
8
0
100
AcDbSpline
62
9
6
CONTINUOUS
70
0
71
3
72
13
73
9
74
7
42
0.0000001000
43
0.0000001000
44
0.0000000001
12
0.0016772595
22
-0.4260821867
32
0.0000000000
13
0.3004932447
23
-0.3020805404
33
0.0000000000
40
0.0000000000
40
0.0000000000
40
0.0000000000
40
0.0000000000
40
0.2617862601
40
0.5017178244
40
0.7052122814
40
0.8610490658
40
0.9609946333
40
1.0000000000
40
1.0000000000
40
1.0000000000
40
1.0000000000
10
31.1939110780
20
-21.1208870474
30
0.0000000000
10
31.1940574392
20
-21.1580678682
30
0.0000000000
10
31.1946211025
20
-21.2292755153
30
0.0000000000
10
31.1957092115
20
-21.3296241481
30
0.0000000000
10
31.1984341649
20
-21.4141562846
30
0.0000000000
10
31.1986785588
20
-21.4807430177
30
0.0000000000
10
31.2049843858
20
-21.5198717618
30
0.0000000000
10
31.2026094074
20
-21.5425944912
30
0.0000000000
10
31.2065163572
20
-21.5465220786
30
0.0000000000
11
31.1939110780
21
-21.1208870474
31
0.0000000000
11
31.1947029551
21
-21.2324275629
31
0.0000000000
11
31.1961554513
21
-21.3346486015
31
0.0000000000
11
31.1981881712
21
-21.4213308059
31
0.0000000000
11
31.2006887407
21
-21.4876834967
31
0.0000000000
11
31.2035214172
21
-21.5301745367
31
0.0000000000
11
31.2065163572
21
-21.5465220786
31
0.0000000000
0
SPLINE
5
289
100
AcDbEntity
8
0
100
AcDbSpline
62
9
6
CONTINUOUS
70
0
71
3
72
12
73
8
74
6
42
0.0000001000
43
0.0000001000
44
0.0000000001
12
-0.4046166914
22
-0.2938359350
32
0.0000000000
13
-0.5000541588
23
-0.0002487483
33
0.0000000000
40
0.0000000000
40
0.0000000000
40
0.0000000000
40
0.0000000000
40
0.0555750226
40
0.2003451082
40
0.4207646314
40
0.6959972351
40
1.0000000000
40
1.0000000000
40
1.0000000000
40
1.0000000000
10
31.1683884790
20
-9.5407270360
30
0.0000000000
10
31.1608929517
20
-9.5461703489
30
0.0000000000
10
31.1238664323
20
-9.5401238279
30
0.0000000000
10
31.0569568440
20
-9.5492751594
30
0.0000000000
10
30.9486050442
20
-9.5476065448
30
0.0000000000
10
30.8159428186
20
-9.5502326149
30
0.0000000000
10
30.7192324321
20
-9.5502018289
30
0.0000000000
10
30.6685598165
20
-9.5502270356
30
0.0000000000
11
31.1683884790
21
-9.5407270360
31
0.0000000000
11
31.1407485598
21
-9.5436163483
31
0.0000000000
11
31.0684029403
21
-9.5462321074
31
0.0000000000
11
30.9582011306
21
-9.5483266594
31
0.0000000000
11
30.8205767745
21
-9.5497016973
31
0.0000000000
11
30.6685598165
21
-9.5502270356
31
0.0000000000
0
SPLINE
5
28A
100
AcDbEntity
8
0
100
AcDbSpline
62
9
6
CONTINUOUS
70
0
71
3
72
10
73
6
74
4
42
0.0000001000
43
0.0000001000
44
0.0000000001
12
0.0057626841
22
-11.6448851991
32
0.0000000000
13
0.0454998796
23
-11.6447977341
33
0.0000000000
40
0.0000000000
40
0.0000000000
40
0.0000000000
40
0.0000000000
40
0.3344434546
40
0.6679851249
40
1.0000000000
40
1.0000000000
40
1.0000000000
40
1.0000000000
10
30.6685598165
20
-9.5502270360
30
0.0000000000
10
30.6692022472
20
-10.8484122474
30
0.0000000000
10
30.6719463151
20
-13.4412818060
30
0.0000000000
10
30.6804458257
20
-17.3229021243
30
0.0000000000
10
30.6890468699
20
-19.9063319905
30
0.0000000000
10
30.6940824155
20
-21.1950806788
30
0.0000000000
11
30.6685598165
21
-9.5502270360
31
0.0000000000
11
30.6726853707
21
-13.4447809620
31
0.0000000000
11
30.6811982183
21
-17.3288265689
31
0.0000000000
11
30.6940824155
21
-21.1950806788
31
0.0000000000
0
SPLINE
5
28B
100
AcDbEntity
8
0
100
AcDbSpline
62
9
6
CONTINUOUS
70
0
71
3
72
10
73
6
74
4
42
0.0000001000
43
0.0000001000
44
0.0000000001
12
0.0057626848
22
-11.5801917440
32
0.0000000000
13
0.0454998756
23
-11.5801037905
33
0.0000000000
40
0.0000000000
40
0.0000000000
40
0.0000000000
40
0.0000000000
40
0.3344422262
40
0.6679888227
40
1.0000000000
40
1.0000000000
40
1.0000000000
40
1.0000000000
10
31.1683884790
20
-9.5407270360
30
0.0000000000
10
31.1690309074
20
-10.8316954049
30
0.0000000000
10
31.1717749852
20
-13.4101744790
30
0.0000000000
10
31.1802745121
20
-17.2702302672
30
0.0000000000
10
31.1888755889
20
-19.8393124164
30
0.0000000000
10
31.1939110780
20
-21.1208870474
30
0.0000000000
11
31.1683884790
21
-9.5407270360
31
0.0000000000
11
31.1725140101
21
-13.4136304248
31
0.0000000000
11
31.1810270000
21
-17.2761550645
31
0.0000000000
11
31.1939110780
21
-21.1208870474
31
0.0000000000
0
SPLINE
5
28C
100
AcDbEntity
8
0
100
AcDbSpline
62
9
6
CONTINUOUS
70
0
71
3
72
12
73
8
74
6
42
0.0000001000
43
0.0000001000
44
0.0000000001
12
-0.4046164632
22
0.2938362493
32
0.0000000000
13
-0.5000541589
23
0.0002487483
33
0.0000000000
40
0.0000000000
40
0.0000000000
40
0.0000000000
40
0.0000000000
40
0.0555750125
40
0.2003450937
40
0.4207646181
40
0.6959972273
40
1.0000000000
40
1.0000000000
40
1.0000000000
40
1.0000000000
10
31.1683884790
20
9.4402729640
30
0.0000000000
10
31.1608929573
20
9.4457162817
30
0.0000000000
10
31.1238664313
20
9.4396697496
30
0.0000000000
10
31.0569568534
20
9.4488210915
30
0.0000000000
10
30.9486050489
20
9.4471524715
30
0.0000000000
10
30.8159428226
20
9.4497785438
30
0.0000000000
10
30.7192324335
20
9.4497477572
30
0.0000000000
10
30.6685598165
20
9.4497729640
30
0.0000000000
11
31.1683884790
21
9.4402729640
31
0.0000000000
11
31.1407485649
21
9.4431622763
31
0.0000000000
11
31.0684029476
21
9.4457780355
31
0.0000000000
11
30.9582011373
21
9.4478725877
31
0.0000000000
11
30.8205767784
21
9.4492476256
31
0.0000000000
11
30.6685598165
21
9.4497729640
31
0.0000000000
0
SPLINE
5
28D
100
AcDbEntity
8
0
100
AcDbSpline
62
9
6
CONTINUOUS
70
0
71
3
72
10
73
6
74
4
42
0.0000001000
43
0.0000001000
44
0.0000000001
12
-0.0094453649
22
-18.9809983461
32
0.0000000000
13
0.0094453642
23
-18.9809983461
33
0.0000000000
40
0.0000000000
40
0.0000000000
40
0.0000000000
40
0.0000000000
40
0.3333311951
40
0.6666690424
40
1.0000000000
40
1.0000000000
40
1.0000000000
40
1.0000000000
10
31.1683884790
20
9.4402729640
30
0.0000000000
10
31.1673390007
20
7.3312866765
30
0.0000000000
10
31.1659399012
20
3.1132716295
30
0.0000000000
10
31.1659399018
20
-3.2137287070
30
0.0000000000
10
31.1673390016
20
-7.4317422513
30
0.0000000000
10
31.1683884790
20
-9.5407270360
30
0.0000000000
11
31.1683884790
21
9.4402729640
31
0.0000000000
11
31.1662896831
21
3.1133136663
31
0.0000000000
11
31.1662896839
21
-3.2137722466
31
0.0000000000
11
31.1683884790
21
-9.5407270360
31
0.0000000000
0
SPLINE
5
28E
100
AcDbEntity
8
0
100
AcDbSpline
62
9
6
CONTINUOUS
70
0
71
3
72
12
73
8
74
6
42
0.0000001000
43
0.0000001000
44
0.0000000001
12
-0.0880309169
22
0.5047725051
32
0.0000000000
13
-0.5123873999
23
0.0019689286
33
0.0000000000
40
0.0000000000
40
0.0000000000
40
0.0000000000
40
0.0000000000
40
0.0695900725
40
0.2162777706
40
0.4337158983
40
0.7031599856
40
1.0000000000
40
1.0000000000
40
1.0000000000
40
1.0000000000
10
31.1939110780
20
21.0204329754
30
0.0000000000
10
31.1918690520
20
21.0321420271
30
0.0000000000
10
31.1508955079
20
21.0507135911
30
0.0000000000
10
31.0842940560
20
21.0668174541
30
0.0000000000
10
30.9743025663
20
21.0822243536
30
0.0000000000
10
30.8417703265
20
21.0918593954
30
0.0000000000
10
30.7447814432
20
21.0944317846
30
0.0000000000
10
30.6940824155
20
21.0946266035
30
0.0000000000
11
31.1939110780
21
21.0204329754
31
0.0000000000
11
31.1663051525
21
21.0430019528
31
0.0000000000
11
31.0939739301
21
21.0634333702
31
0.0000000000
11
30.9837680665
21
21.0797921211
31
0.0000000000
11
30.8461254113
21
21.0905288311
31
0.0000000000
11
30.6940824155
21
21.0946266035
31
0.0000000000
0
SPLINE
5
28F
100
AcDbEntity
8
0
100
AcDbSpline
62
9
6
CONTINUOUS
70
0
71
3
72
10
73
6
74
4
42
0.0000001000
43
0.0000001000
44
0.0000000001
12
-0.0454999083
22
-11.6447977340
32
0.0000000000
13
-0.0057627125
23
-11.6448851991
33
0.0000000000
40
0.0000000000
40
0.0000000000
40
0.0000000000
40
0.0000000000
40
0.3320148741
40
0.6655565444
40
1.0000000000
40
1.0000000000
40
1.0000000000
40
1.0000000000
10
30.6940824155
20
21.0946266067
30
0.0000000000
10
30.6890468667
20
19.8058779223
30
0.0000000000
10
30.6804458298
20
17.2224480601
30
0.0000000000
10
30.6719463110
20
13.3408277418
30
0.0000000000
10
30.6692022503
20
10.7479581794
30
0.0000000000
10
30.6685598165
20
9.4497729640
30
0.0000000000
11
30.6940824155
21
21.0946266067
31
0.0000000000
11
30.6811982193
21
17.2283725085
31
0.0000000000
11
30.6726853698
21
13.3443269019
31
0.0000000000
11
30.6685598165
21
9.4497729640
31
0.0000000000
0
SPLINE
5
290
100
AcDbEntity
8
0
100
AcDbSpline
62
9
6
CONTINUOUS
70
0
71
3
72
10
73
6
74
4
42
0.0000001000
43
0.0000001000
44
0.0000000001
12
-0.0454999043
22
-11.5801037904
32
0.0000000000
13
-0.0057627129
23
-11.5801917440
33
0.0000000000
40
0.0000000000
40
0.0000000000
40
0.0000000000
40
0.0000000000
40
0.3320136686
40
0.6655602737
40
1.0000000000
40
1.0000000000
40
1.0000000000
40
1.0000000000
10
31.1939110780
20
21.0204329754
30
0.0000000000
10
31.1888755479
20
19.7388487279
30
0.0000000000
10
31.1802744573
20
17.1697569292
30
0.0000000000
10
31.1717749551
20
13.3097011409
30
0.0000000000
10
31.1690309057
20
10.7312316832
30
0.0000000000
10
31.1683884790
20
9.4402729640
30
0.0000000000
11
31.1939110780
21
21.0204329754
31
0.0000000000
11
31.1810269209
21
17.1756721432
31
0.0000000000
11
31.1725139619
21
13.3131474041
31
0.0000000000
11
31.1683884790
21
9.4402729640
31
0.0000000000
0
SPLINE
5
291
100
AcDbEntity
8
0
100
AcDbSpline
62
9
6
CONTINUOUS
70
0
71
3
72
12
73
8
74
6
42
0.0000001000
43
0.0000001000
44
0.0000000001
12
-0.0005356742
22
0.7817393692
32
0.0000000000
13
-0.7817393692
23
0.0005356740
33
0.0000000000
40
0.0000000000
40
0.0000000000
40
0.0000000000
40
0.0000000000
40
0.1999737511
40
0.3999834745
40
0.6000078949
40
0.8000205929
40
1.0000000000
40
1.0000000000
40
1.0000000000
40
1.0000000000
10
31.2065163572
20
21.4460680065
30
0.0000000000
10
31.2064806503
20
21.4981771245
30
0.0000000000
10
31.1898376395
20
21.6031262617
30
0.0000000000
10
31.1176406612
20
21.7445905273
30
0.0000000000
10
31.0052152777
20
21.8570174470
30
0.0000000000
10
30.8637497337
20
21.9292171048
30
0.0000000000
10
30.7587982867
20
21.9458609612
30
0.0000000000
10
30.7066876948
20
21.9458966691
30
0.0000000000
11
31.2065163572
21
21.4460680065
31
0.0000000000
11
31.1819691305
21
21.6004561109
31
0.0000000000
11
31.1109389202
21
21.7397462946
31
0.0000000000
11
31.0003715083
21
21.8503152161
31
0.0000000000
11
30.8610800559
21
21.9213480570
31
0.0000000000
11
30.7066876948
21
21.9458966691
31
0.0000000000
0
SPLINE
5
292
100
AcDbEntity
8
0
100
AcDbSpline
62
9
6
CONTINUOUS
70
0
71
3
72
13
73
9
74
7
42
0.0000001000
43
0.0000001000
44
0.0000000001
12
-0.3796462550
22
-0.7621772011
32
0.0000000000
13
-0.0016806747
23
-0.8514942984
33
0.0000000000
40
0.0000000000
40
0.0000000000
40
0.0000000000
40
0.0000000000
40
0.0388749643
40
0.1388052366
40
0.2944583898
40
0.4974734671
40
0.7369563584
40
1.0000000000
40
1.0000000000
40
1.0000000000
40
1.0000000000
10
30.7066876947
20
21.9458966690
30
0.0000000000
10
30.7017681165
20
21.9360201318
30
0.0000000000
10
30.7063682466
20
21.8943469068
30
0.0000000000
10
30.6981380410
20
21.8128205334
30
0.0000000000
10
30.6989007433
20
21.6816238512
30
0.0000000000
10
30.6957783016
20
21.5122812079
30
0.0000000000
10
30.6948302172
20
21.3118817029
30
0.0000000000
10
30.6942297791
20
21.1692866604
30
0.0000000000
10
30.6940824155
20
21.0946266067
30
0.0000000000
11
30.7066876947
21
21.9458966690
31
0.0000000000
11
30.7036796791
21
21.9129317487
31
0.0000000000
11
30.7008525582
21
21.8278885044
31
0.0000000000
11
30.6983570126
21
21.6953739700
31
0.0000000000
11
30.6963297234
21
21.5225193404
31
0.0000000000
11
30.6948788743
21
21.3186057880
31
0.0000000000
11
30.6940824155
21
21.0946266067
31
0.0000000000
0
SPLINE
5
293
100
AcDbEntity
8
0
100
AcDbSpline
62
9
6
CONTINUOUS
70
0
71
3
72
13
73
9
74
7
42
0.0000001000
43
0.0000001000
44
0.0000000001
12
-0.2997217763
22
-0.3028459697
32
0.0000000000
13
-0.0016757221
23
-0.4260821711
33
0.0000000000
40
0.0000000000
40
0.0000000000
40
0.0000000000
40
0.0000000000
40
0.0390290036
40
0.1390888901
40
0.2951133333
40
0.4985335899
40
0.7383080486
40
1.0000000000
40
1.0000000000
40
1.0000000000
40
1.0000000000
10
31.2065163572
20
21.4460680065
30
0.0000000000
10
31.2026170764
20
21.4421280810
30
0.0000000000
10
31.2049732612
20
21.4194048698
30
0.0000000000
10
31.1986799361
20
21.3802142003
30
0.0000000000
10
31.1984283874
20
21.3136037354
30
0.0000000000
10
31.1957090770
20
21.2290735056
30
0.0000000000
10
31.1946203841
20
21.1287727349
30
0.0000000000
10
31.1940572523
20
21.0576004003
30
0.0000000000
10
31.1939110780
20
21.0204329754
30
0.0000000000
11
31.2065163572
21
21.4460680065
31
0.0000000000
11
31.2035203193
21
21.4297104277
31
0.0000000000
11
31.2006857194
21
21.3871707003
31
0.0000000000
11
31.1981840637
21
21.3207380384
31
0.0000000000
11
31.1961535590
21
21.2340874109
31
0.0000000000
11
31.1947025621
21
21.1319333034
31
0.0000000000
11
31.1939110780
21
21.0204329754
31
0.0000000000
0
SPLINE
5
294
100
AcDbEntity
8
0
100
AcDbSpline
62
9
6
CONTINUOUS
70
0
71
3
72
13
73
9
74
7
42
0.0000001000
43
0.0000001000
44
0.0000000001
12
-0.6960229623
22
-0.0184159841
32
0.0000000000
13
-0.1034123812
23
-0.6885441104
33
0.0000000000
40
0.0000000000
40
0.0000000000
40
0.0000000000
40
0.0000000000
40
0.1659960015
40
0.3330407517
40
0.5001635321
40
0.6671687297
40
0.8340800834
40
1.0000000000
40
1.0000000000
40
1.0000000000
40
1.0000000000
10
-13.0924362790
20
21.4460680065
30
0.0000000000
10
-13.1309486219
20
21.4450490133
30
0.0000000000
10
-13.2082788269
20
21.4340257807
30
0.0000000000
10
-13.3172506147
20
21.3911737679
30
0.0000000000
10
-13.4136327292
20
21.3241693068
30
0.0000000000
10
-13.4918777747
20
21.2367100441
30
0.0000000000
10
-13.5476925827
20
21.1338644205
30
0.0000000000
10
-13.5680930788
20
21.0585140358
30
0.0000000000
10
-13.5738124700
20
21.0204329754
30
0.0000000000
11
-13.0924362790
21
21.4460680065
31
0.0000000000
11
-13.2068503505
21
21.4297104277
31
0.0000000000
11
-13.3150993516
21
21.3871707003
31
0.0000000000
11
-13.4106337276
21
21.3207380384
31
0.0000000000
11
-13.4881755753
21
21.2340874109
31
0.0000000000
11
-13.5435869134
21
21.1319333034
31
0.0000000000
11
-13.5738124700
21
21.0204329754
31
0.0000000000
0
SPLINE
5
295
100
AcDbEntity
8
0
100
AcDbSpline
62
9
6
CONTINUOUS
70
0
71
3
72
12
73
8
74
6
42
0.0000001000
43
0.0000001000
44
0.0000000001
12
-0.0130830486
22
0.4999632445
32
0.0000000000
13
0.4999630104
23
0.0130919922
33
0.0000000000
40
0.0000000000
40
0.0000000000
40
0.0000000000
40
0.0000000000
40
0.3087680831
40
0.5872965221
40
0.8083749419
40
0.9504474066
40
1.0000000000
40
1.0000000000
40
1.0000000000
40
1.0000000000
10
-13.0924362790
20
21.4460680065
30
0.0000000000
10
-13.0937828217
20
21.4975255707
30
0.0000000000
10
-13.0966221003
20
21.5963139592
30
0.0000000000
10
-13.0958890435
20
21.7275867110
30
0.0000000000
10
-13.1026909789
20
21.8434853518
30
0.0000000000
10
-13.0889594514
20
21.8952126629
30
0.0000000000
10
-13.1006944292
20
21.9456804217
30
0.0000000000
10
-13.0924362746
20
21.9458966691
30
0.0000000000
11
-13.0924362790
21
21.4460680065
31
0.0000000000
11
-13.0958362871
21
21.6004561109
31
0.0000000000
11
-13.0976237392
21
21.7397462946
31
0.0000000000
11
-13.0976237770
21
21.8503152161
31
0.0000000000
11
-13.0958363577
21
21.9213480570
31
0.0000000000
11
-13.0924362746
21
21.9458966691
31
0.0000000000
0
SPLINE
5
296
100
AcDbEntity
8
0
100
AcDbSpline
62
9
6
CONTINUOUS
70
0
71
3
72
10
73
6
74
4
42
0.0000001000
43
0.0000001000
44
0.0000000001
12
-1.7254981385
22
-11.4996421687
32
0.0000000000
13
-0.2209449136
23
-11.6262761527
33
0.0000000000
40
0.0000000000
40
0.0000000000
40
0.0000000000
40
0.0000000000
40
0.3333325520
40
0.6666707585
40
1.0000000000
40
1.0000000000
40
1.0000000000
40
1.0000000000
10
-13.5738124700
20
21.0204329754
30
0.0000000000
10
-13.7655340360
20
19.7426979515
30
0.0000000000
10
-14.0936796935
20
17.1785410097
30
0.0000000000
10
-14.4188633719
20
13.3149853278
30
0.0000000000
10
-14.5239320691
20
10.7320655677
30
0.0000000000
10
-14.5484812026
20
9.4402729640
30
0.0000000000
11
-13.5738124700
21
21.0204329754
31
0.0000000000
11
-14.0658385806
21
17.1756721432
31
0.0000000000
11
-14.3909353671
21
13.3131474041
31
0.0000000000
11
-14.5484812026
21
9.4402729640
31
0.0000000000
0
SPLINE
5
297
100
AcDbEntity
8
0
100
AcDbSpline
62
9
6
CONTINUOUS
70
0
71
3
72
12
73
8
74
6
42
0.0000001000
43
0.0000001000
44
0.0000000001
12
-0.4816676000
22
0.0723230104
32
0.0000000000
13
0.0722746829
23
0.4816748539
33
0.0000000000
40
0.0000000000
40
0.0000000000
40
0.0000000000
40
0.0000000000
40
0.3107996591
40
0.5896463584
40
0.8101305819
40
0.9513712895
40
1.0000000000
40
1.0000000000
40
1.0000000000
40
1.0000000000
10
-13.5738124700
20
21.0204329754
30
0.0000000000
10
-13.6237131787
20
21.0279256310
30
0.0000000000
10
-13.7194362464
20
21.0414525353
30
0.0000000000
10
-13.8454012677
20
21.0640747514
30
0.0000000000
10
-13.9585624676
20
21.0726196950
30
0.0000000000
10
-14.0046372425
20
21.0967661632
30
0.0000000000
10
-14.0563601810
20
21.0868188612
30
0.0000000000
10
-14.0551886395
20
21.0946266035
30
0.0000000000
11
-13.5738124700
21
21.0204329754
31
0.0000000000
11
-13.7235009023
21
21.0430019528
31
0.0000000000
11
-13.8577723588
21
21.0634333702
31
0.0000000000
11
-13.9639096826
21
21.0797921211
31
0.0000000000
11
-14.0318603646
21
21.0905288311
31
0.0000000000
11
-14.0551886395
21
21.0946266035
31
0.0000000000
0
SPLINE
5
298
100
AcDbEntity
8
0
100
AcDbSpline
62
9
6
CONTINUOUS
70
0
71
3
72
10
73
6
74
4
42
0.0000001000
43
0.0000001000
44
0.0000000001
12
-0.3606581435
22
-18.9785887347
32
0.0000000000
13
0.3606581152
23
-18.9785887352
33
0.0000000000
40
0.0000000000
40
0.0000000000
40
0.0000000000
40
0.0000000000
40
0.3333401036
40
0.6666601339
40
1.0000000000
40
1.0000000000
40
1.0000000000
40
1.0000000000
10
-14.5484812026
20
9.4402729640
30
0.0000000000
10
-14.5885551436
20
7.3314980523
30
0.0000000000
10
-14.6419885292
20
3.1135168193
30
0.0000000000
10
-14.6419885047
20
-3.2139738970
30
0.0000000000
10
-14.5885551119
20
-7.4319536267
30
0.0000000000
10
-14.5484812026
20
-9.5407270360
30
0.0000000000
11
-14.5484812026
21
9.4402729640
31
0.0000000000
11
-14.6286309831
21
3.1133136663
31
0.0000000000
11
-14.6286309555
21
-3.2137722466
31
0.0000000000
11
-14.5484812026
21
-9.5407270360
31
0.0000000000
0
SPLINE
5
299
100
AcDbEntity
8
0
100
AcDbSpline
62
9
6
CONTINUOUS
70
0
71
3
72
10
73
6
74
4
42
0.0000001000
43
0.0000001000
44
0.0000000001
12
0.2209438363
22
-11.6262761732
32
0.0000000000
13
1.7254970730
23
-11.4996423286
33
0.0000000000
40
0.0000000000
40
0.0000000000
40
0.0000000000
40
0.0000000000
40
0.3333317353
40
0.6666699418
40
1.0000000000
40
1.0000000000
40
1.0000000000
40
1.0000000000
10
-14.5484812026
20
-9.5407270360
30
0.0000000000
10
-14.5239320051
20
-10.8325293068
30
0.0000000000
10
-14.4188622209
20
-13.4154587168
30
0.0000000000
10
-14.0936775995
20
-17.2790143193
30
0.0000000000
10
-13.7655324833
20
-19.8431615654
30
0.0000000000
10
-13.5738124700
20
-21.1208870474
30
0.0000000000
11
-14.5484812026
21
-9.5407270360
31
0.0000000000
11
-14.3909335259
21
-13.4136304248
31
0.0000000000
11
-14.0658355570
21
-17.2761550645
31
0.0000000000
11
-13.5738124700
21
-21.1208870474
31
0.0000000000
0
SPLINE
5
29A
100
AcDbEntity
8
0
100
AcDbSpline
62
9
6
CONTINUOUS
70
0
71
3
72
13
73
9
74
7
42
0.0000001000
43
0.0000001000
44
0.0000000001
12
0.1035051610
22
-0.6885301704
32
0.0000000000
13
0.6960254347
23
-0.0183223430
33
0.0000000000
40
0.0000000000
40
0.0000000000
40
0.0000000000
40
0.0000000000
40
0.1659812648
40
0.3330163255
40
0.5001363479
40
0.6671446545
40
0.8340656536
40
1.0000000000
40
1.0000000000
40
1.0000000000
40
1.0000000000
10
-13.5738124700
20
-21.1208870474
30
0.0000000000
10
-13.5680858308
20
-21.1589814170
30
0.0000000000
10
-13.5476788554
20
-21.2343744455
30
0.0000000000
10
-13.4918117180
20
-21.3372748418
30
0.0000000000
10
-13.4135142088
20
-21.4247281879
30
0.0000000000
10
-13.3171325011
20
-21.4916799257
30
0.0000000000
10
-13.2082214623
20
-21.5344866687
30
0.0000000000
10
-13.1309344542
20
-21.5455086432
30
0.0000000000
10
-13.0924362790
20
-21.5465220786
30
0.0000000000
11
-13.5738124700
21
-21.1208870474
31
0.0000000000
11
-13.5435719032
21
-21.2324275629
31
0.0000000000
11
-13.4881033115
21
-21.3346486015
31
0.0000000000
11
-13.4104768718
21
-21.4213308059
31
0.0000000000
11
-13.3149839753
21
-21.4876834967
31
0.0000000000
11
-13.2068084207
21
-21.5301745367
31
0.0000000000
11
-13.0924362790
21
-21.5465220786
31
0.0000000000
0
SPLINE
5
29B
100
AcDbEntity
8
0
100
AcDbSpline
62
9
6
CONTINUOUS
70
0
71
3
72
12
73
8
74
6
42
0.0000001000
43
0.0000001000
44
0.0000000001
12
-0.4816505024
22
-0.0723204930
32
0.0000000000
13
0.0724277813
23
-0.4816343807
33
0.0000000000
40
0.0000000000
40
0.0000000000
40
0.0000000000
40
0.0000000000
40
0.3108013381
40
0.5896482723
40
0.8101319341
40
0.9513718660
40
1.0000000000
40
1.0000000000
40
1.0000000000
40
1.0000000000
10
-13.5738124700
20
-21.1208870474
30
0.0000000000
10
-13.6237116769
20
-21.1283794828
30
0.0000000000
10
-13.7194319640
20
-21.1419060020
30
0.0000000000
10
-13.8453915596
20
-21.1645272974
30
0.0000000000
10
-13.9585515005
20
-21.1730723765
30
0.0000000000
10
-14.0046188214
20
-21.1972170327
30
0.0000000000
10
-14.0563455588
20
-21.1872711130
30
0.0000000000
10
-14.0551715495
20
-21.1950781067
30
0.0000000000
11
-13.5738124700
21
-21.1208870474
31
0.0000000000
11
-13.7234963975
21
-21.1434553610
31
0.0000000000
11
-13.8577632009
21
-21.1638860848
31
0.0000000000
11
-13.9638964862
21
-21.1802442275
31
0.0000000000
11
-14.0318443818
21
-21.1909805113
31
0.0000000000
11
-14.0551715495
21
-21.1950781067
31
0.0000000000
0
SPLINE
5
29C
100
AcDbEntity
8
0
100
AcDbSpline
62
9
6
CONTINUOUS
70
0
71
3
72
12
73
8
74
6
42
0.0000001000
43
0.0000001000
44
0.0000000001
12
-0.0130830273
22
-0.4999632459
32
0.0000000000
13
0.4999630112
23
-0.0130919922
33
0.0000000000
40
0.0000000000
40
0.0000000000
40
0.0000000000
40
0.0000000000
40
0.3087727501
40
0.5873022217
40
0.8083788267
40
0.9504486573
40
1.0000000000
40
1.0000000000
40
1.0000000000
40
1.0000000000
10
-13.0924362790
20
-21.5465220786
30
0.0000000000
10
-13.0937828398
20
-21.5979804207
30
0.0000000000
10
-13.0966221446
20
-21.6967697823
30
0.0000000000
10
-13.0958890495
20
-21.8280431370
30
0.0000000000
10
-13.1026909053
20
-21.9439411857
30
0.0000000000
10
-13.0889596022
20
-21.9956677980
30
0.0000000000
10
-13.1006942252
20
-22.0461344991
30
0.0000000000
10
-13.0924362790
20
-22.0463507411
30
0.0000000000
11
-13.0924362790
21
-21.5465220786
31
0.0000000000
11
-13.0958363232
21
-21.7009125171
31
0.0000000000
11
-13.0976237523
21
-21.8402032178
31
0.0000000000
11
-13.0976237518
21
-21.9507712319
31
0.0000000000
11
-13.0958363218
21
-22.0218027548
31
0.0000000000
11
-13.0924362790
21
-22.0463507411
31
0.0000000000
0
ENDSEC
0
SECTION
2
OBJECTS
0
DICTIONARY
5
29D
100
AcDbDictionary
3
ACAD_GROUP
350
29E
3
ACAD_MLINESTYLE
350
29F
0
DICTIONARY
5
29E
102
{ACAD_REACTORS
330
29D
102
}
100
AcDbDictionary
0
DICTIONARY
5
29F
102
{ACAD_REACTORS
330
29D
102
}
100
AcDbDictionary
3
STANDARD
350
2A0
0
MLINESTYLE
5
2A0
102
{ACAD_REACTORS
330
29F
102
}
100
AcDbMlineStyle
2
STANDARD
70
0
3

62
256
51
90.0
52
90.0
71
2
49
0.5
62
256
6
BYLAYER
49
-0.5
62
256
6
BYLAYER
0
ENDSEC
0
EOF
