  0
SECTION
  2
HEADER
  9
$ACADVER
  1
AC1021
  9
$DWGCODEPAGE
  3
ANSI_1252
  9
$EXTMAX
 10
558.8
 20
431.8
 30
0.0
  9
$EXTMIN
 10
0.0
 20
0.0
 30
0.0
  9
$LIMMIN
 10
0.0
 20
0.0
  9
$LIMMAX
 10
558.8
 20
431.8
  9
$VIEWCTR
 10
279.4
 20
215.9
  9
$VIEWSIZE
 40
431.8
  9
$CLAYER
  8
0
  9
$LTSCALE
 40
30.734
  9
$CELTYPE
  6
BYLAYER
  9
$DIMSCALE
 40
1.0
  9
$DIMASZ
 40
3.0
  9
$DIMEXO
 40
0.5
  9
$DIMDLI
 40
21.2344
  9
$DIMEXE
 40
1.5
  9
$DIMCEN
 40
5.0292
  9
$DIMLFAC
 40
1.0
  9
$DIMBLK
  1
_FILLED
  9
$DIMALT
 70
0
  9
$DIMALTF
 40
25.4
  9
$DIMTXT
 40
3.0
  9
$DIMTOL
 70
1
  9
$DIMLIM
 70
0
  9
$DIMTFAC
 40
1.0
  9
$DIMTP
 40
0.01
  9
$DIMTM
 40
0.01
  9
$DIMGAP
 40
0.625
  9
$DIMDSEP
 70
44
  9
$AUNITS
 70
0
  9
$PDMODE
 70
3
  9
$PDSIZE
 40
3.0
  9
$HANDSEED
  5
2F8
  9
$TILEMODE
 70
1
  9
$MEASUREMENT
 70
1
  9
$INSUNITS
 70
4
  0
ENDSEC
  0
SECTION
  2
CLASSES
  0
CLASS
  1
ACDBDICTIONARYWDFLT
  2
AcDbDictionaryWithDefault
  3
AutoCAD 2000
 90
0
 91
1
280
0
281
0
  0
CLASS
  1
ACDBPLACEHOLDER
  2
AcDbPlaceHolder
  3
AutoCAD 2000
 90
0
 91
1
280
0
281
0
  0
CLASS
  1
LAYOUT
  2
AcDbLayout
  3
AutoCAD 2000
 90
0
 91
0
280
0
281
0
  0
ENDSEC
  0
SECTION
  2
TABLES
  0
TABLE
  2
VPORT
  5
8
100
AcDbSymbolTable
 70
2
  0
VPORT
  5
1F4
100
AcDbSymbolTableRecord
100
AcDbViewportTableRecord
  2
*ACTIVE
 70
0
 10
0.0
 20
0.0
 11
1.0
 21
1.0
 12
279.4
 22
215.9
 13
0.0
 23
0.0
 14
1.0
 24
1.0
 15
0.0
 25
0.0
 16
0.0
 26
0.0
 36
1.0
 17
0.0
 27
0.0
 37
0.0
 40
431.8
 41
1.2941176471
 42
50.0
 43
0.0
 44
0.0
 50
0.0
 51
0.0
 71
0
 72
100
 73
1
 74
1
 75
0
 76
0
 77
0
 78
0
  0
ENDTAB
  0
TABLE
  2
LTYPE
  5
5
100
AcDbSymbolTable
 70
6
  0
LTYPE
  5
14
100
AcDbSymbolTableRecord
100
AcDbLinetypeTableRecord
  2
BYBLOCK
 70
0
  3

 72
65
 73
0
 40
0.0
  0
LTYPE
  5
15
100
AcDbSymbolTableRecord
100
AcDbLinetypeTableRecord
  2
BYLAYER
 70
0
  3

 72
65
 73
0
 40
0.0
  0
LTYPE
  5
16
100
AcDbSymbolTableRecord
100
AcDbLinetypeTableRecord
  2
CONTINUOUS
 70
64
  3
Solid line
 72
65
 73
0
 40
0.0
  0
LTYPE
  5
1F5
100
AcDbSymbolTableRecord
100
AcDbLinetypeTableRecord
  2
CENTER
 70
64
  3
____ _ ____ _ ____ _ ____ _ ____ _ ____ _ ____
 72
65
 73
4
 40
0.6
 49
0.375
 74
0
 49
-0.075
 74
0
 49
0.075
 74
0
 49
-0.075
 74
0
  0
LTYPE
  5
1F6
100
AcDbSymbolTableRecord
100
AcDbLinetypeTableRecord
  2
HIDDEN
 70
64
  3
- - - - - - - - - - - - - - - - - - - -
 72
65
 73
2
 40
0.2
 49
0.1
 74
0
 49
-0.1
 74
0
  0
LTYPE
  5
1F7
100
AcDbSymbolTableRecord
100
AcDbLinetypeTableRecord
  2
PHANTOM
 70
64
  3
_____ _ _ _____ _ _ _____ _ _ _____
 72
65
 73
6
 40
0.8
 49
0.45
 74
0
 49
-0.05
 74
0
 49
0.1
 74
0
 49
-0.05
 74
0
 49
0.1
 74
0
 49
-0.05
 74
0
  0
LTYPE
  5
1F8
100
AcDbSymbolTableRecord
100
AcDbLinetypeTableRecord
  2
DOT
 70
64
  3
. . . . . . . . . . . . . . . . . . . .
 72
65
 73
2
 40
0.2
 49
0.1
 74
0
 49
-0.1
 74
0
  0
LTYPE
  5
1F9
100
AcDbSymbolTableRecord
100
AcDbLinetypeTableRecord
  2
DASHED
 70
64
  3
- - - - - - - - - - - - - - - - - - - -
 72
65
 73
2
 40
0.2
 49
0.1
 74
0
 49
-0.1
 74
0
  0
ENDTAB
  0
TABLE
  2
LAYER
  5
2
100
AcDbSymbolTable
 70
36
  0
LAYER
  5
10
100
AcDbSymbolTableRecord
100
AcDbLayerTableRecord
  2
0
 70
0
 62
7
  6
CONTINUOUS
370
-3
390
F
  0
LAYER
  5
1FA
100
AcDbSymbolTableRecord
100
AcDbLayerTableRecord
  2
DEFAULT_1
 70
0
 62
7
  6
CENTER
370
-3
390
F
  0
LAYER
  5
1FB
100
AcDbSymbolTableRecord
100
AcDbLayerTableRecord
  2
DEFAULT_2
 70
0
 62
7
  6
HIDDEN
370
-3
390
F
  0
LAYER
  5
1FC
100
AcDbSymbolTableRecord
100
AcDbLayerTableRecord
  2
DEFAULT_3
 70
0
 62
7
  6
PHANTOM
370
-3
390
F
  0
LAYER
  5
1FD
100
AcDbSymbolTableRecord
100
AcDbLayerTableRecord
  2
ASSI
 70
0
 62
7
  6
CONTINUOUS
370
-3
390
F
  0
LAYER
  5
1FE
100
AcDbSymbolTableRecord
100
AcDbLayerTableRecord
  2
COORDINATE
 70
0
 62
7
  6
CONTINUOUS
370
-3
390
F
  0
LAYER
  5
1FF
100
AcDbSymbolTableRecord
100
AcDbLayerTableRecord
  2
COPY_PUBLISH
 70
0
 62
7
  6
CONTINUOUS
370
-3
390
F
  0
LAYER
  5
200
100
AcDbSymbolTableRecord
100
AcDbLayerTableRecord
  2
COSMETIC
 70
0
 62
7
  6
CONTINUOUS
370
-3
390
F
  0
LAYER
  5
201
100
AcDbSymbolTableRecord
100
AcDbLayerTableRecord
  2
COSMETICI
 70
0
 62
7
  6
CONTINUOUS
370
-3
390
F
  0
LAYER
  5
202
100
AcDbSymbolTableRecord
100
AcDbLayerTableRecord
  2
CURVE
 70
0
 62
7
  6
CONTINUOUS
370
-3
390
F
  0
LAYER
  5
203
100
AcDbSymbolTableRecord
100
AcDbLayerTableRecord
  2
DRAFT
 70
0
 62
7
  6
CONTINUOUS
370
-3
390
F
  0
LAYER
  5
204
100
AcDbSymbolTableRecord
100
AcDbLayerTableRecord
  2
IMPORT_IGES
 70
0
 62
7
  6
CONTINUOUS
370
-3
390
F
  0
LAYER
  5
205
100
AcDbSymbolTableRecord
100
AcDbLayerTableRecord
  2
INTF_1
 70
0
 62
7
  6
CONTINUOUS
370
-3
390
F
  0
LAYER
  5
206
100
AcDbSymbolTableRecord
100
AcDbLayerTableRecord
  2
NOTE
 70
0
 62
7
  6
CONTINUOUS
370
-3
390
F
  0
LAYER
  5
207
100
AcDbSymbolTableRecord
100
AcDbLayerTableRecord
  2
PIANI
 70
0
 62
7
  6
CONTINUOUS
370
-3
390
F
  0
LAYER
  5
208
100
AcDbSymbolTableRecord
100
AcDbLayerTableRecord
  2
PUNTI
 70
0
 62
7
  6
CONTINUOUS
370
-3
390
F
  0
LAYER
  5
209
100
AcDbSymbolTableRecord
100
AcDbLayerTableRecord
  2
RACCORDO
 70
0
 62
7
  6
CONTINUOUS
370
-3
390
F
  0
LAYER
  5
20A
100
AcDbSymbolTableRecord
100
AcDbLayerTableRecord
  2
RGB____0____0____0__
 70
0
 62
7
  6
CONTINUOUS
370
-3
390
F
  0
LAYER
  5
20B
100
AcDbSymbolTableRecord
100
AcDbLayerTableRecord
  2
SIMBOLI
 70
0
 62
7
  6
CONTINUOUS
370
-3
390
F
  0
LAYER
  5
20C
100
AcDbSymbolTableRecord
100
AcDbLayerTableRecord
  2
SMUSSO
 70
0
 62
7
  6
CONTINUOUS
370
-3
390
F
  0
LAYER
  5
20D
100
AcDbSymbolTableRecord
100
AcDbLayerTableRecord
  2
SNAPLINE
 70
0
 62
7
  6
CONTINUOUS
370
-3
390
F
  0
LAYER
  5
20E
100
AcDbSymbolTableRecord
100
AcDbLayerTableRecord
  2
SUPERFICI
 70
0
 62
7
  6
CONTINUOUS
370
-3
390
F
  0
LAYER
  5
20F
100
AcDbSymbolTableRecord
100
AcDbLayerTableRecord
  2
TRASH
 70
0
 62
7
  6
CONTINUOUS
370
-3
390
F
  0
ENDTAB
  0
TABLE
  2
STYLE
  5
3
100
AcDbSymbolTable
 70
1
  0
STYLE
  5
11
100
AcDbSymbolTableRecord
100
AcDbTextStyleTableRecord
  2
STANDARD
 70
0
 40
0.0
 41
0.8
 50
0.0
 71
0
 42
0.2
  3
txt
  4

  0
STYLE
  5
210
100
AcDbSymbolTableRecord
100
AcDbTextStyleTableRecord
  2
TEXTSTYLE_1
 70
0
 40
0.0
 41
0.8
 50
0.0
 71
0
 42
0.2
  3
gdt
  4

  0
ENDTAB
  0
TABLE
  2
VIEW
  5
6
100
AcDbSymbolTable
 70
0
  0
ENDTAB
  0
TABLE
  2
UCS
  5
7
100
AcDbSymbolTable
 70
0
  0
ENDTAB
  0
TABLE
  2
APPID
  5
9
100
AcDbSymbolTable
 70
1
  0
APPID
  5
211
100
AcDbSymbolTableRecord
100
AcDbRegAppTableRecord
  2
ACAD
 70
0
  0
ENDTAB
  0
TABLE
  2
BLOCK_RECORD
  5
1
100
AcDbSymbolTable
 70
0
  0
BLOCK_RECORD
  5
212
100
AcDbSymbolTableRecord
100
AcDbBlockTableRecord
  2
*Model_Space
  0
BLOCK_RECORD
  5
213
100
AcDbSymbolTableRecord
100
AcDbBlockTableRecord
  2
*Paper_Space
  0
BLOCK_RECORD
  5
214
100
AcDbSymbolTableRecord
100
AcDbBlockTableRecord
  2
_FILLED
  0
BLOCK_RECORD
  5
215
100
AcDbSymbolTableRecord
100
AcDbBlockTableRecord
  2
*D0
  0
BLOCK_RECORD
  5
216
100
AcDbSymbolTableRecord
100
AcDbBlockTableRecord
  2
*D1
  0
BLOCK_RECORD
  5
217
100
AcDbSymbolTableRecord
100
AcDbBlockTableRecord
  2
*D2
  0
ENDTAB
  0
TABLE
  2
DIMSTYLE
  5
A
100
AcDbSymbolTable
 70
1
100
AcDbDimStyleTable
 71
0
  0
DIMSTYLE
105
218
100
AcDbSymbolTableRecord
100
AcDbDimStyleTableRecord
  2
STANDARD
 70
0
  3

  4

 40
1.0
 41
3.0
 42
0.5
 43
0.38
 44
1.5
 45
0.0
 46
0.0
 47
0.01
 48
0.01
140
3.0
141
0.09
142
0.0
143
25.4
144
1.0
145
0.0
146
1.0
147
0.625
 71
1.0
 72
0.0
 73
0
 74
0
 75
0
 76
0
 77
1
 78
8
170
0
171
1
172
0
173
0
174
0
175
0
176
0
177
0
178
0
270
2
271
2
272
2
273
2
274
2
275
0
280
0
281
0
282
0
283
1
284
8
285
0
286
0
287
3
288
0
340
11
278
44
341
214
342
214
343
214
344
214
  0
DIMSTYLE
105
219
100
AcDbSymbolTableRecord
100
AcDbDimStyleTableRecord
  2
DIMSTYLE_1
 70
0
  3

  4

 40
1.0
 41
3.0
 42
0.5
 43
0.38
 44
1.5
 45
0.0
 46
0.0
 47
0.0
 48
0.0
140
3.0
141
0.09
142
0.0
143
25.4
144
1.0
145
0.0
146
1.0
147
0.75
 71
0.0
 72
0.0
 73
0
 74
0
 75
0
 76
0
 77
1
 78
8
170
0
171
1
172
0
173
0
174
0
175
0
176
0
177
0
178
0
270
2
271
2
272
2
273
2
274
2
275
0
280
0
281
0
282
0
283
1
284
8
285
0
286
0
287
3
288
0
340
11
278
44
341
214
342
214
343
214
344
214
  0
ENDTAB
  0
ENDSEC
  0
SECTION
  2
BLOCKS
  0
BLOCK
  5
20
100
AcDbEntity
  8
0
100
AcDbBlockBegin
  2
*Model_Space
 70
0
 10
0.0
 20
0.0
 30
0.0
  3
*Model_Space
  1

  0
ENDBLK
  5
21
100
AcDbEntity
  8
0
100
AcDbBlockEnd
  0
BLOCK
  5
1C
100
AcDbEntity
  8
0
100
AcDbBlockBegin
  2
*Paper_Space
 70
0
 10
0.0
 20
0.0
 30
0.0
  3
*Paper_Space
  1

  0
ENDBLK
  5
1D
100
AcDbEntity
  8
0
100
AcDbBlockEnd
  0
BLOCK
  5
21A
100
AcDbEntity
  8
0
100
AcDbBlockBegin
  2
_FILLED
 70
64
 10
0.0
 20
0.0
  3
_FILLED
  1

  0
SOLID
  5
21B
100
AcDbEntity
  8
0
  6
BYBLOCK
 62
0
100
AcDbTrace
 10
0.0
 20
0.0
 11
-1.0
 21
0.3166666667
 12
-1.0
 22
-0.3166666667
 13
-1.0
 23
-0.3166666667
  0
ENDBLK
  5
21C
100
AcDbEntity
  8
0
  6
BYBLOCK
 62
0
100
AcDbBlockEnd
  0
BLOCK
  5
21D
100
AcDbEntity
  8
0
100
AcDbBlockBegin
 62
7
  6
CONTINUOUS
  2
*D0
 70
65
 10
0.0
 20
0.0
  3
*D0
  1

  0
MTEXT
  5
21E
100
AcDbEntity
  8
0
100
AcDbMText
 62
7
  6
CONTINUOUS
  7
STANDARD
 71
2
 72
1
 10
-0.0
 20
88.25
 30
0.0
 11
1.0
 21
0.0
 31
0.0
 44
0.9
  1
179
 40
3.0
 41
9.6428571429
  0
LINE
  5
21F
100
AcDbEntity
  8
0
100
AcDbLine
 62
7
  6
CONTINUOUS
 10
-89.5
 20
67.0
 11
-89.5
 21
86.0
  0
LINE
  5
220
100
AcDbEntity
  8
0
100
AcDbLine
 62
7
  6
CONTINUOUS
 10
89.5
 20
67.0
 11
89.5
 21
86.0
  0
LINE
  5
221
100
AcDbEntity
  8
0
100
AcDbLine
 62
7
  6
CONTINUOUS
 10
-89.5
 20
84.5
 11
-0.0
 21
84.5
  0
LINE
  5
222
100
AcDbEntity
  8
0
100
AcDbLine
 62
7
  6
CONTINUOUS
 10
89.5
 20
84.5
 11
-0.0
 21
84.5
  0
INSERT
  5
223
100
AcDbEntity
  8
0
100
AcDbBlockReference
 62
7
  6
CONTINUOUS
  2
_FILLED
 10
-89.5
 20
84.5
 41
3.0
 42
3.0
 43
3.0
 50
180.0
  0
INSERT
  5
224
100
AcDbEntity
  8
0
100
AcDbBlockReference
 62
7
  6
CONTINUOUS
  2
_FILLED
 10
89.5
 20
84.5
 41
3.0
 42
3.0
 43
3.0
 50
0.0
  0
ENDBLK
  5
225
100
AcDbEntity
  8
0
  6
BYBLOCK
 62
0
100
AcDbBlockEnd
  0
BLOCK
  5
226
100
AcDbEntity
  8
0
100
AcDbBlockBegin
 62
7
  6
CONTINUOUS
  2
*D1
 70
65
 10
0.0
 20
0.0
  3
*D1
  1

  0
MTEXT
  5
227
100
AcDbEntity
  8
0
100
AcDbMText
 62
7
  6
CONTINUOUS
  7
STANDARD
 71
2
 72
1
 10
93.75
 20
0.0
 30
0.0
 11
0.0
 21
1.0
 31
0.0
 44
0.9
  1
153
 40
3.0
 41
9.0
  0
LINE
  5
228
100
AcDbEntity
  8
0
100
AcDbLine
 62
7
  6
CONTINUOUS
 10
80.0
 20
76.5
 11
99.0
 21
76.5
  0
LINE
  5
229
100
AcDbEntity
  8
0
100
AcDbLine
 62
7
  6
CONTINUOUS
 10
80.0
 20
-76.5
 11
99.0
 21
-76.5
  0
LINE
  5
22A
100
AcDbEntity
  8
0
100
AcDbLine
 62
7
  6
CONTINUOUS
 10
97.5
 20
76.5
 11
97.5
 21
0.0
  0
LINE
  5
22B
100
AcDbEntity
  8
0
100
AcDbLine
 62
7
  6
CONTINUOUS
 10
97.5
 20
-76.5
 11
97.5
 21
0.0
  0
INSERT
  5
22C
100
AcDbEntity
  8
0
100
AcDbBlockReference
 62
7
  6
CONTINUOUS
  2
_FILLED
 10
97.5
 20
76.5
 41
3.0
 42
3.0
 43
3.0
 50
90.0
  0
INSERT
  5
22D
100
AcDbEntity
  8
0
100
AcDbBlockReference
 62
7
  6
CONTINUOUS
  2
_FILLED
 10
97.5
 20
-76.5
 41
3.0
 42
3.0
 43
3.0
 50
270.0
  0
ENDBLK
  5
22E
100
AcDbEntity
  8
0
  6
BYBLOCK
 62
0
100
AcDbBlockEnd
  0
BLOCK
  5
22F
100
AcDbEntity
  8
0
100
AcDbBlockBegin
 62
7
  6
CONTINUOUS
  2
*D2
 70
65
 10
0.0
 20
0.0
  3
*D2
  1

  0
MTEXT
  5
230
100
AcDbEntity
  8
0
100
AcDbMText
 62
7
  6
CONTINUOUS
  7
STANDARD
 71
3
 72
1
 10
-157.101652382
 20
88.25
 30
0.0
 11
1.0
 21
0.0
 31
0.0
 44
0.9
  1
4
 40
3.0
 41
3.5357142857
  0
LINE
  5
231
100
AcDbEntity
  8
0
100
AcDbLine
 62
7
  6
CONTINUOUS
 10
-147.071308502
 20
77.0
 11
-147.071308502
 21
86.0
  0
LINE
  5
232
100
AcDbEntity
  8
0
100
AcDbLine
 62
7
  6
CONTINUOUS
 10
-151.071308502
 20
74.9999999795
 11
-151.071308502
 21
86.0
  0
LINE
  5
233
100
AcDbEntity
  8
0
100
AcDbLine
 62
7
  6
CONTINUOUS
 10
-147.071308502
 20
84.5
 11
-143.071308502
 21
84.5
  0
LINE
  5
234
100
AcDbEntity
  8
0
100
AcDbLine
 62
7
  6
CONTINUOUS
 10
-143.071308502
 20
84.5
 11
-149.071308502
 21
84.5
  0
LINE
  5
235
100
AcDbEntity
  8
0
100
AcDbLine
 62
7
  6
CONTINUOUS
 10
-151.071308502
 20
84.5
 11
-159.4587952391
 21
84.5
  0
LINE
  5
236
100
AcDbEntity
  8
0
100
AcDbLine
 62
7
  6
CONTINUOUS
 10
-159.4587952391
 20
84.5
 11
-149.071308502
 21
84.5
  0
INSERT
  5
237
100
AcDbEntity
  8
0
100
AcDbBlockReference
 62
7
  6
CONTINUOUS
  2
_FILLED
 10
-147.071308502
 20
84.5
 41
3.0
 42
3.0
 43
3.0
 50
180.0
  0
INSERT
  5
238
100
AcDbEntity
  8
0
100
AcDbBlockReference
 62
7
  6
CONTINUOUS
  2
_FILLED
 10
-151.071308502
 20
84.5
 41
3.0
 42
3.0
 43
3.0
  0
ENDBLK
  5
239
100
AcDbEntity
  8
0
  6
BYBLOCK
 62
0
100
AcDbBlockEnd
  0
ENDSEC
  0
SECTION
  2
ENTITIES
  0
DIMENSION
  5
23A
100
AcDbEntity
  8
0
100
AcDbDimension
 62
7
  6
CONTINUOUS
  2
*D0
 10
89.5
 20
84.5
 11
-0.4285714664
 21
84.5
 70
160
 71
2
 42
179.0
  3
DIMSTYLE_1
100
AcDbAlignedDimension
 13
-89.5
 23
66.5
 14
89.5
 24
66.5
100
AcDbRotatedDimension
  0
DIMENSION
  5
23B
100
AcDbEntity
  8
0
100
AcDbDimension
 62
7
  6
CONTINUOUS
  2
*D1
 10
97.5
 20
-76.5
 11
97.5
 21
-0.4285694458
 70
160
 71
2
 42
153.0
  3
DIMSTYLE_1
100
AcDbAlignedDimension
 13
79.5
 23
76.5
 14
79.5
 24
-76.5
 50
270.0
100
AcDbRotatedDimension
  0
DIMENSION
  5
23C
100
AcDbEntity
  8
0
100
AcDbDimension
 62
7
  6
CONTINUOUS
  2
*D2
 10
-151.071308502
 20
84.5
 11
-158.7088009644
 21
84.5
 70
160
 71
3
 42
4.0
  3
DIMSTYLE_1
100
AcDbAlignedDimension
 13
-147.071308502
 23
76.5
 14
-151.071308502
 24
74.4999999795
 50
180.0
100
AcDbRotatedDimension
  0
LINE
  5
23D
100
AcDbEntity
  8
RACCORDO
100
AcDbLine
 62
7
  6
CONTINUOUS
 10
-89.5
 20
66.5
 11
-89.5
 21
-66.5
  0
LINE
  5
23E
100
AcDbEntity
  8
RACCORDO
100
AcDbLine
 62
250
  6
CONTINUOUS
 10
-87.5
 20
66.5
 11
-87.5
 21
-66.5
  0
LINE
  5
23F
100
AcDbEntity
  8
RACCORDO
100
AcDbLine
 62
250
  6
CONTINUOUS
 10
-79.5
 20
-74.5
 11
-79.5
 21
-76.5
  0
LINE
  5
240
100
AcDbEntity
  8
RACCORDO
100
AcDbLine
 62
250
  6
CONTINUOUS
 10
-79.5
 20
74.5
 11
-79.5
 21
76.5
  0
LINE
  5
241
100
AcDbEntity
  8
RACCORDO
100
AcDbLine
 62
7
  6
CONTINUOUS
 10
-79.5
 20
-76.5
 11
79.5
 21
-76.5
  0
LINE
  5
242
100
AcDbEntity
  8
RACCORDO
100
AcDbLine
 62
250
  6
CONTINUOUS
 10
-79.5
 20
-74.5
 11
79.5
 21
-74.5
  0
LINE
  5
243
100
AcDbEntity
  8
0
100
AcDbLine
 62
7
  6
CONTINUOUS
 10
-6.0
 20
-72.0
 11
6.0
 21
-72.0
  0
LINE
  5
244
100
AcDbEntity
  8
0
100
AcDbLine
 62
7
  6
CONTINUOUS
 10
2.4709750891
 20
-65.6778035706
 11
2.0777623057
 21
-65.711091446
  0
LINE
  5
245
100
AcDbEntity
  8
0
100
AcDbLine
 62
7
  6
CONTINUOUS
 10
0.1012957633
 20
-65.6778035706
 11
-0.2919170201
 21
-65.711091446
  0
LWPOLYLINE
  5
246
100
AcDbEntity
  8
0
100
AcDbPolyline
 62
7
  6
CONTINUOUS
 90
16
 70
0
 10
3.0576735854
 20
-66.5620122768
 10
3.1310064386
 20
-66.5595313138
 10
3.2006490811
 20
-66.5537897895
 10
3.2666015129
 20
-66.5447877041
 10
3.3284720973
 20
-66.5324010006
 10
3.3866524709
 20
-66.5167537359
 10
3.4423175439
 20
-66.4982180806
 10
3.495595507
 20
-66.4769702343
 10
3.5463581694
 20
-66.4528339974
 10
3.5953958691
 20
-66.4256529408
 10
3.6428051251
 20
-66.3955960591
 10
3.6884894184
 20
-66.3624943578
 10
3.7329495302
 20
-66.325684424
 10
3.7763523873
 20
-66.2849451203
 10
3.8185310628
 20
-66.2404975841
 10
3.8594855568
 20
-66.1923418156
  0
LWPOLYLINE
  5
247
100
AcDbEntity
  8
0
100
AcDbPolyline
 62
7
  6
CONTINUOUS
 90
16
 70
0
 10
0.6879942596
 20
-66.5620122768
 10
0.7613270071
 20
-66.5595313181
 10
0.8309695622
 20
-66.5537897981
 10
0.8969219249
 20
-66.5447877168
 10
0.9587924616
 20
-66.5324010181
 10
1.0169728059
 20
-66.5167537581
 10
1.0726378583
 20
-66.4982181057
 10
1.1259158083
 20
-66.47697026
 10
1.1766784664
 20
-66.4528340217
 10
1.2257161651
 20
-66.4256529625
 10
1.2731254227
 20
-66.3955960762
 10
1.3188097208
 20
-66.3624943689
 10
1.3632698366
 20
-66.3256844302
 10
1.4066726958
 20
-66.2849451233
 10
1.4488513728
 20
-66.2404975851
 10
1.4898058674
 20
-66.1923418156
  0
LWPOLYLINE
  5
248
100
AcDbEntity
  8
0
100
AcDbPolyline
 62
7
  6
CONTINUOUS
 90
16
 70
0
 10
-1.7961121321
 20
-65.2700272566
 10
-1.6880819241
 20
-65.2673133025
 10
-1.5885288087
 20
-65.2616944558
 10
-1.4974527858
 20
-65.2531707166
 10
-1.4155053989
 20
-65.2413956145
 10
-1.3420351046
 20
-65.2267156199
 10
-1.2750872722
 20
-65.2101701439
 10
-1.2145680083
 20
-65.1918736936
 10
-1.1605712064
 20
-65.1717117619
 10
-1.1114239163
 20
-65.1503802387
 10
-1.0670489086
 20
-65.1280405419
 10
-1.0275234129
 20
-65.1045312536
 10
-0.9914061678
 20
-65.0800640089
 10
-0.9582167529
 20
-65.0547093531
 10
-0.9284355888
 20
-65.028396741
 10
-0.9020626753
 20
-65.0011261727
  0
LWPOLYLINE
  5
249
100
AcDbEntity
  8
0
100
AcDbPolyline
 62
7
  6
CONTINUOUS
 90
13
 70
0
 10
3.1512961268
 20
-64.4877625948
 10
3.1032712915
 20
-64.4889721626
 10
3.0555208446
 20
-64.4926628142
 10
3.0080447861
 20
-64.4988345495
 10
2.9610100898
 20
-64.507396658
 10
2.914249782
 20
-64.5184398503
 10
2.8672629415
 20
-64.5322362581
 10
2.8200523343
 20
-64.5486620975
 10
2.7726151944
 20
-64.5678411525
 10
2.7244423022
 20
-64.5904169074
 10
2.675363918
 20
-64.6166038568
 10
2.6255497815
 20
-64.6461875062
 10
2.5749998927
 20
-64.6791678554
  0
LWPOLYLINE
  5
24A
100
AcDbEntity
  8
0
100
AcDbPolyline
 62
7
  6
CONTINUOUS
 90
13
 70
0
 10
0.7816164374
 20
-64.4877625948
 10
0.733591943
 20
-64.4889721448
 10
0.6858417752
 20
-64.4926627735
 10
0.6383659341
 20
-64.4988344808
 10
0.5913313929
 20
-64.5073965512
 10
0.5445711784
 20
-64.5184397002
 10
0.4975843707
 20
-64.5322360744
 10
0.4503737383
 20
-64.548661889
 10
0.4029365126
 20
-64.5678409288
 10
0.3547634688
 20
-64.5904166952
 10
0.3056848651
 20
-64.6166036887
 10
0.2558704433
 20
-64.6461874087
 10
0.2053202033
 20
-64.6791678554
  0
LINE
  5
24B
100
AcDbEntity
  8
0
100
AcDbLine
 62
7
  6
CONTINUOUS
 10
-4.0971353002
 20
-66.51
 11
-3.6935200274
 21
-66.51
  0
LINE
  5
24C
100
AcDbEntity
  8
0
100
AcDbLine
 62
7
  6
CONTINUOUS
 10
-2.9819921121
 20
-66.51
 11
-2.5783767939
 21
-66.51
  0
LINE
  5
24D
100
AcDbEntity
  8
RACCORDO
100
AcDbLine
 62
250
  6
CONTINUOUS
 10
87.5
 20
-66.5
 11
89.5
 21
-66.5
  0
LINE
  5
24E
100
AcDbEntity
  8
RACCORDO
100
AcDbLine
 62
250
  6
CONTINUOUS
 10
-87.5
 20
-66.5
 11
-89.5
 21
-66.5
  0
LINE
  5
24F
100
AcDbEntity
  8
0
100
AcDbLine
 62
7
  6
CONTINUOUS
 10
-2.5783767939
 20
-65.2700272566
 11
-1.7961121321
 21
-65.2700272566
  0
LINE
  5
250
100
AcDbEntity
  8
0
100
AcDbLine
 62
7
  6
CONTINUOUS
 10
-1.789870593
 20
-64.9101022577
 11
-2.5783767939
 21
-64.9101022577
  0
LINE
  5
251
100
AcDbEntity
  8
0
100
AcDbLine
 62
7
  6
CONTINUOUS
 10
0.3696792185
 20
-63.8594543225
 11
1.5867664397
 21
-63.8594543225
  0
LINE
  5
252
100
AcDbEntity
  8
0
100
AcDbLine
 62
7
  6
CONTINUOUS
 10
2.7393585443
 20
-63.8594543225
 11
3.9564457655
 21
-63.8594543225
  0
LINE
  5
253
100
AcDbEntity
  8
0
100
AcDbLine
 62
7
  6
CONTINUOUS
 10
-2.5783767939
 20
-63.8199249989
 11
-1.7981925845
 21
-63.8199249989
  0
LINE
  5
254
100
AcDbEntity
  8
0
100
AcDbLine
 62
7
  6
CONTINUOUS
 10
3.9564457655
 20
-63.501609776
 11
2.4397675753
 21
-63.501609776
  0
LINE
  5
255
100
AcDbEntity
  8
0
100
AcDbLine
 62
7
  6
CONTINUOUS
 10
1.5867664397
 20
-63.501609776
 11
0.0700882494
 21
-63.501609776
  0
LINE
  5
256
100
AcDbEntity
  8
0
100
AcDbLine
 62
7
  6
CONTINUOUS
 10
-1.8314805508
 20
-63.46
 11
-2.9819921121
 21
-63.46
  0
LINE
  5
257
100
AcDbEntity
  8
0
100
AcDbLine
 62
7
  6
CONTINUOUS
 10
-3.6935200274
 20
-63.46
 11
-4.0971353002
 21
-63.46
  0
LINE
  5
258
100
AcDbEntity
  8
0
100
AcDbLine
 62
7
  6
CONTINUOUS
 10
6.0
 20
-62.0
 11
-6.0
 21
-62.0
  0
LWPOLYLINE
  5
259
100
AcDbEntity
  8
0
100
AcDbPolyline
 62
7
  6
CONTINUOUS
 90
10
 70
0
 10
-1.7981925845
 20
-63.8199249989
 10
-1.7333365268
 20
-63.8205599527
 10
-1.6745596951
 20
-63.821885746
 10
-1.6218620895
 20
-63.8239023787
 10
-1.5756630224
 20
-63.8266872208
 10
-1.5355431813
 20
-63.8301629023
 10
-1.5002446289
 20
-63.8340973134
 10
-1.4693480527
 20
-63.8384130841
 10
-1.4432727652
 20
-63.8431875843
 10
-1.4220187663
 20
-63.8484208141
  0
LWPOLYLINE
  5
25A
100
AcDbEntity
  8
0
100
AcDbPolyline
 62
7
  6
CONTINUOUS
 90
13
 70
0
 10
0.6879942596
 20
-66.2540996002
 10
0.648674542
 20
-66.2527734851
 10
0.6109372267
 20
-66.2495011414
 10
0.5747823135
 20
-66.2442825691
 10
0.5403848789
 20
-66.2370847181
 10
0.5075698465
 20
-66.2279406384
 10
0.4758119872
 20
-66.2169494802
 10
0.4450588773
 20
-66.2042134257
 10
0.4153629405
 20
-66.1896302926
 10
0.3863562186
 20
-66.1729926845
 10
0.3579160589
 20
-66.1542314693
 10
0.3301651143
 20
-66.133415779
 10
0.3031033845
 20
-66.1105456138
  0
LWPOLYLINE
  5
25B
100
AcDbEntity
  8
0
100
AcDbPolyline
 62
7
  6
CONTINUOUS
 90
13
 70
0
 10
3.0576735854
 20
-66.2540996002
 10
3.0183538392
 20
-66.2527734822
 10
2.9806165021
 20
-66.2495011339
 10
2.9444615743
 20
-66.2442825555
 10
2.9100641326
 20
-66.2370846963
 10
2.8772491001
 20
-66.2279406069
 10
2.8454912464
 20
-66.2169494389
 10
2.8147381476
 20
-66.2042133747
 10
2.7850422277
 20
-66.1896302318
 10
2.756035528
 20
-66.1729926148
 10
2.7275953957
 20
-66.1542313918
 10
2.6998444837
 20
-66.1334156947
 10
2.6727827919
 20
-66.1105455234
  0
LWPOLYLINE
  5
25C
100
AcDbEntity
  8
0
100
AcDbPolyline
 62
7
  6
CONTINUOUS
 90
13
 70
0
 10
0.6817529023
 20
-64.8185607141
 10
0.7338621394
 20
-64.8205290267
 10
0.7831051147
 20
-64.8250149722
 10
0.8294818281
 20
-64.8320185506
 10
0.872650631
 20
-64.8416210341
 10
0.912953172
 20
-64.8537411505
 10
0.9514143972
 20
-64.8681350834
 10
0.9881589593
 20
-64.884630117
 10
1.0230622057
 20
-64.9033989671
 10
1.0567751241
 20
-64.9247159636
 10
1.0895147106
 20
-64.9486725499
 10
1.1210639691
 20
-64.9751772826
 10
1.1514228997
 20
-65.0042301617
  0
LWPOLYLINE
  5
25D
100
AcDbEntity
  8
0
100
AcDbPolyline
 62
7
  6
CONTINUOUS
 90
13
 70
0
 10
3.0514322281
 20
-64.8185607141
 10
3.1035414652
 20
-64.8205290267
 10
3.1527844405
 20
-64.8250149722
 10
3.1991611539
 20
-64.8320185506
 10
3.2423299568
 20
-64.8416210341
 10
3.2826324978
 20
-64.8537411505
 10
3.321093723
 20
-64.8681350834
 10
3.3578382852
 20
-64.884630117
 10
3.3927415315
 20
-64.9033989671
 10
3.42645445
 20
-64.9247159636
 10
3.4591940364
 20
-64.9486725499
 10
3.4907432949
 20
-64.9751772826
 10
3.5211022255
 20
-65.0042301617
  0
LINE
  5
25E
100
AcDbEntity
  8
0
100
AcDbLine
 62
7
  6
CONTINUOUS
 10
-0.2253414512
 20
-65.0682196429
 11
0.1262615561
 21
-65.1139904147
  0
LINE
  5
25F
100
AcDbEntity
  8
0
100
AcDbLine
 62
7
  6
CONTINUOUS
 10
2.1443382382
 20
-65.0682196429
 11
2.4959412456
 21
-65.1139904147
  0
LWPOLYLINE
  5
260
100
AcDbEntity
  8
0
100
AcDbPolyline
 62
7
  6
CONTINUOUS
 90
10
 70
0
 10
-1.367463931
 20
-63.4887355656
 10
-1.4016403505
 20
-63.4832877138
 10
-1.4399584433
 20
-63.478357848
 10
-1.4824182095
 20
-63.473945968
 10
-1.5287482193
 20
-63.4699910515
 10
-1.5792199024
 20
-63.466554121
 10
-1.6346475481
 20
-63.4638182438
 10
-1.6953025863
 20
-63.4618444425
 10
-1.7609135872
 20
-63.4605716946
 10
-1.8314805508
 20
-63.46
  0
LWPOLYLINE
  5
261
100
AcDbEntity
  8
0
100
AcDbPolyline
 62
7
  6
CONTINUOUS
 90
10
 70
0
 10
-1.4220187663
 20
-63.8484208141
 10
-1.3880084714
 20
-63.8588980984
 10
-1.3555503641
 20
-63.8716252922
 10
-1.3246444446
 20
-63.8866023953
 10
-1.2954388984
 20
-63.9036715951
 10
-1.2677855399
 20
-63.9229907042
 10
-1.2412398124
 20
-63.9450331615
 10
-1.2156535305
 20
-63.9699567798
 10
-1.1911748796
 20
-63.9976037462
 10
-1.1678038597
 20
-64.0279740608
  0
LWPOLYLINE
  5
262
100
AcDbEntity
  8
0
100
AcDbPolyline
 62
7
  6
CONTINUOUS
 90
10
 70
0
 10
-0.9913036754
 20
-63.6331705314
 10
-1.0223558848
 20
-63.6122937122
 10
-1.0558533658
 20
-63.5925725606
 10
-1.0917961183
 20
-63.5740070766
 10
-1.1298633795
 20
-63.5565286539
 10
-1.1703759122
 20
-63.5402058989
 10
-1.2142960049
 20
-63.5252446306
 10
-1.2619444203
 20
-63.5117134555
 10
-1.3130003957
 20
-63.4995437672
 10
-1.367463931
 20
-63.4887355656
  0
LWPOLYLINE
  5
263
100
AcDbEntity
  8
0
100
AcDbPolyline
 62
7
  6
CONTINUOUS
 90
13
 70
0
 10
0.0071562196
 20
-66.3295786649
 10
0.0489101479
 20
-66.3644536333
 10
0.0927737974
 20
-66.3965553408
 10
0.1387471679
 20
-66.4258837876
 10
0.186500494
 20
-66.4524181885
 10
0.2363635412
 20
-66.4761793286
 10
0.2893256066
 20
-66.497229563
 10
0.3452039269
 20
-66.5157642835
 10
0.4041812655
 20
-66.5315880983
 10
0.4677952093
 20
-66.544177187
 10
0.5365582874
 20
-66.553356943
 10
0.6099579709
 20
-66.5593019729
 10
0.6879942596
 20
-66.5620122768
  0
LWPOLYLINE
  5
264
100
AcDbEntity
  8
0
100
AcDbPolyline
 62
7
  6
CONTINUOUS
 90
13
 70
0
 10
2.3768357484
 20
-66.3295788449
 10
2.4185896097
 20
-66.3644537595
 10
2.4624532039
 20
-66.3965554233
 10
2.5084265309
 20
-66.4258838362
 10
2.5561798263
 20
-66.4524182153
 10
2.6060428545
 20
-66.4761793435
 10
2.6590049087
 20
-66.49722957
 10
2.714883227
 20
-66.5157642856
 10
2.7738605713
 20
-66.5315880994
 10
2.8374745213
 20
-66.5441771877
 10
2.9062376036
 20
-66.5533569428
 10
2.9796372917
 20
-66.5593019725
 10
3.0576735854
 20
-66.5620122768
  0
LWPOLYLINE
  5
265
100
AcDbEntity
  8
0
100
AcDbPolyline
 62
7
  6
CONTINUOUS
 90
13
 70
0
 10
0.3031033845
 20
-66.1105456138
 10
0.2809843699
 20
-66.0896055588
 10
0.2597334232
 20
-66.0663950633
 10
0.2393505445
 20
-66.0409141272
 10
0.2198037642
 20
-66.013445662
 10
0.2011250519
 20
-65.9837067562
 10
0.1834103161
 20
-65.9508486757
 10
0.1665530617
 20
-65.9149106007
 10
0.1506597837
 20
-65.8758533509
 10
0.1361458756
 20
-65.8327106506
 10
0.1231498017
 20
-65.7851604078
 10
0.1115330976
 20
-65.7335247145
 10
0.1012957633
 20
-65.6778035706
  0
LWPOLYLINE
  5
266
100
AcDbEntity
  8
0
100
AcDbPolyline
 62
7
  6
CONTINUOUS
 90
13
 70
0
 10
2.6727827919
 20
-66.1105455234
 10
2.6506637945
 20
-66.0896054513
 10
2.6294128582
 20
-66.0663949399
 10
2.6090299828
 20
-66.0409139892
 10
2.5894831972
 20
-66.0134455071
 10
2.5708044725
 20
-65.9837065858
 10
2.5530897226
 20
-65.9508485008
 10
2.5362324531
 20
-65.9149104381
 10
2.5203391584
 20
-65.8758532118
 10
2.5058252349
 20
-65.8327105401
 10
2.4928291483
 20
-65.785160329
 10
2.481212433
 20
-65.7335246725
 10
2.4709750891
 20
-65.6778035706
  0
LWPOLYLINE
  5
267
100
AcDbEntity
  8
0
100
AcDbPolyline
 62
7
  6
CONTINUOUS
 90
16
 70
0
 10
1.4551760643
 20
-64.7649857173
 10
1.4165108397
 20
-64.7282596193
 10
1.3772923924
 20
-64.6943957336
 10
1.3375207224
 20
-64.6633940602
 10
1.2973062389
 20
-64.6354035353
 10
1.2565385327
 20
-64.6102752226
 10
1.2148863764
 20
-64.5875623136
 10
1.1723897699
 20
-64.5671656301
 10
1.1290087134
 20
-64.5491843503
 10
1.0842919798
 20
-64.5334691998
 10
1.0382900296
 20
-64.5199224901
 10
0.9909524025
 20
-64.5086419098
 10
0.9416764904
 20
-64.4997712509
 10
0.8902614243
 20
-64.4933584441
 10
0.8369080733
 20
-64.4893555587
 10
0.7816164374
 20
-64.4877625948
  0
LWPOLYLINE
  5
268
100
AcDbEntity
  8
0
100
AcDbPolyline
 62
7
  6
CONTINUOUS
 90
16
 70
0
 10
3.8248554802
 20
-64.7649859903
 10
3.7861902353
 20
-64.7282598383
 10
3.7469717713
 20
-64.6943959052
 10
3.7072000881
 20
-64.663394191
 10
3.6669855943
 20
-64.6354036324
 10
3.6262178815
 20
-64.6102752926
 10
3.584565724
 20
-64.5875623613
 10
3.5420691217
 20
-64.5671656604
 10
3.4986880748
 20
-64.549184368
 10
3.4539713588
 20
-64.5334692083
 10
3.4079694338
 20
-64.5199224926
 10
3.3606318397
 20
-64.5086419096
 10
3.3113559724
 20
-64.4997712493
 10
3.2599409637
 20
-64.4933584417
 10
3.2065876819
 20
-64.4893555569
 10
3.1512961268
 20
-64.4877625948
  0
LWPOLYLINE
  5
269
100
AcDbEntity
  8
0
100
AcDbPolyline
 62
7
  6
CONTINUOUS
 90
13
 70
0
 10
1.1514228997
 20
-65.0042301617
 10
1.1783885765
 20
-65.0336937538
 10
1.2032494108
 20
-65.0649418973
 10
1.2260054028
 20
-65.0979745925
 10
1.2466430166
 20
-65.1325159188
 10
1.265175788
 20
-65.1688417967
 10
1.281644324
 20
-65.2077799871
 10
1.2962192454
 20
-65.2491856502
 10
1.3087299314
 20
-65.2932036258
 10
1.3187051269
 20
-65.3410961947
 10
1.3259877468
 20
-65.393284117
 10
1.3307348762
 20
-65.4493466326
 10
1.3329465151
 20
-65.5092837414
  0
LWPOLYLINE
  5
26A
100
AcDbEntity
  8
0
100
AcDbPolyline
 62
7
  6
CONTINUOUS
 90
13
 70
0
 10
3.5211022255
 20
-65.0042301617
 10
3.5480679716
 20
-65.0336938309
 10
3.572928868
 20
-65.0649420454
 10
3.5956849149
 20
-65.0979748052
 10
3.6163225769
 20
-65.1325161956
 10
3.6348553893
 20
-65.1688421314
 10
3.6513239576
 20
-65.2077803562
 10
3.6658989002
 20
-65.2491860261
 10
3.6784095986
 20
-65.293203985
 10
3.6883848032
 20
-65.3410965085
 10
3.6956674308
 20
-65.3932843549
 10
3.7004145646
 20
-65.4493467659
 10
3.7026262045
 20
-65.5092837414
  0
LWPOLYLINE
  5
26B
100
AcDbEntity
  8
0
100
AcDbPolyline
 62
7
  6
CONTINUOUS
 90
10
 70
0
 10
-1.1678038597
 20
-64.0279740608
 10
-1.1479200924
 20
-64.058237321
 10
-1.1302703597
 20
-64.0897908875
 10
-1.1148546614
 20
-64.1226347602
 10
-1.1016453836
 20
-64.1564794262
 10
-1.0906701403
 20
-64.1916143985
 10
-1.0820117737
 20
-64.2289082157
 10
-1.075697898
 20
-64.2686503906
 10
-1.0717008991
 20
-64.3105514105
 10
-1.070020777
 20
-64.3546112752
  0
LWPOLYLINE
  5
26C
100
AcDbEntity
  8
0
100
AcDbPolyline
 62
7
  6
CONTINUOUS
 90
10
 70
0
 10
-0.7479582884
 20
-63.9262361285
 10
-0.7714315248
 20
-63.8824014803
 10
-0.7957700151
 20
-63.841568273
 10
-0.8209737592
 20
-63.8037365065
 10
-0.8470080489
 20
-63.7691508341
 10
-0.8739075924
 20
-63.7375666026
 10
-0.9017765143
 20
-63.7082498525
 10
-0.9306495229
 20
-63.6809559307
 10
-0.9604919099
 20
-63.6559294903
 10
-0.9913036754
 20
-63.6331705314
  0
LINE
  5
26D
100
AcDbEntity
  8
0
100
AcDbLine
 62
7
  6
CONTINUOUS
 10
-8.863131
 20
2.376123
 11
-7.436717
 21
-2.123329
  0
LINE
  5
26E
100
AcDbEntity
  8
0
100
AcDbLine
 62
7
  6
CONTINUOUS
 10
-6.985179
 20
-0.720989
 11
-7.842856
 21
2.376123
  0
LWPOLYLINE
  5
26F
100
AcDbEntity
  8
0
100
AcDbPolyline
 62
7
  6
CONTINUOUS
 90
13
 70
0
 10
-0.2919170201
 20
-65.711091446
 10
-0.2827475166
 20
-65.78031525
 10
-0.2706825466
 20
-65.8457150581
 10
-0.25572211
 20
-65.9072908702
 10
-0.2378015727
 20
-65.9646323632
 10
-0.2169855688
 20
-66.0181498602
 10
-0.1934680015
 20
-66.0690743303
 10
-0.1674310528
 20
-66.1175587212
 10
-0.1386925406
 20
-66.1634500852
 10
-0.1068998217
 20
-66.207520549
 10
-0.0719353481
 20
-66.2500274879
 10
-0.0339166676
 20
-66.2907135266
 10
0.0071562196
 20
-66.3295786649
  0
LINE
  5
270
100
AcDbEntity
  8
0
100
AcDbLine
 62
7
  6
CONTINUOUS
 10
1.193853
 20
-2.123329
 11
0.773104
 21
2.376123
  0
LINE
  5
271
100
AcDbEntity
  8
0
100
AcDbLine
 62
7
  6
CONTINUOUS
 10
0.08209
 20
0.802481
 11
0.275054
 21
-2.123329
  0
LWPOLYLINE
  5
272
100
AcDbEntity
  8
0
100
AcDbPolyline
 62
7
  6
CONTINUOUS
 90
16
 70
0
 10
1.7303202033
 20
-65.4759958661
 10
1.7284745755
 20
-65.4126362488
 10
1.7241392527
 20
-65.3521796135
 10
1.7173142348
 20
-65.29462596
 10
1.7078958281
 20
-65.2402562189
 10
1.6959877264
 20
-65.1887894597
 10
1.6819010109
 20
-65.1393828911
 10
1.6657416709
 20
-65.0919550215
 10
1.6474037172
 20
-65.0465873424
 10
1.6268802633
 20
-65.002681537
 10
1.6042673175
 20
-64.9601775624
 10
1.5794688716
 20
-64.9191354614
 10
1.5521900144
 20
-64.8791370453
 10
1.5223324423
 20
-64.8400429178
 10
1.4899944589
 20
-64.8019924751
 10
1.4551760643
 20
-64.7649857173
  0
LWPOLYLINE
  5
273
100
AcDbEntity
  8
0
100
AcDbPolyline
 62
7
  6
CONTINUOUS
 90
10
 70
0
 10
-0.6539226532
 20
-64.342128197
 10
-0.6553586577
 20
-64.2902001765
 10
-0.6590771013
 20
-64.2398011743
 10
-0.6650779838
 20
-64.1909311904
 10
-0.6734004241
 20
-64.1437229854
 10
-0.6840053035
 20
-64.0980437987
 10
-0.6967752652
 20
-64.0534953479
 10
-0.7116711905
 20
-64.0099448722
 10
-0.7287321982
 20
-63.9675251324
 10
-0.7479582884
 20
-63.9262361285
  0
LINE
  5
274
100
AcDbEntity
  8
0
100
AcDbLine
 62
7
  6
CONTINUOUS
 10
-6.0
 20
-62.0
 11
-6.0
 21
-72.0
  0
LINE
  5
275
100
AcDbEntity
  8
0
100
AcDbLine
 62
7
  6
CONTINUOUS
 10
-4.814188
 20
2.376393
 11
-4.814188
 21
-2.123329
  0
LINE
  5
276
100
AcDbEntity
  8
0
100
AcDbLine
 62
7
  6
CONTINUOUS
 10
-4.0971353002
 20
-63.46
 11
-4.0971353002
 21
-66.51
  0
LINE
  5
277
100
AcDbEntity
  8
0
100
AcDbLine
 62
7
  6
CONTINUOUS
 10
-3.874976
 20
-2.123329
 11
-3.874976
 21
2.376393
  0
LINE
  5
278
100
AcDbEntity
  8
0
100
AcDbLine
 62
7
  6
CONTINUOUS
 10
-3.6935200274
 20
-66.51
 11
-3.6935200274
 21
-63.46
  0
LINE
  5
279
100
AcDbEntity
  8
0
100
AcDbLine
 62
7
  6
CONTINUOUS
 10
-2.9819921121
 20
-63.46
 11
-2.9819921121
 21
-66.51
  0
LINE
  5
27A
100
AcDbEntity
  8
0
100
AcDbLine
 62
7
  6
CONTINUOUS
 10
-2.5783767939
 20
-66.51
 11
-2.5783767939
 21
-65.2700272566
  0
LINE
  5
27B
100
AcDbEntity
  8
0
100
AcDbLine
 62
7
  6
CONTINUOUS
 10
-2.5783767939
 20
-64.9101022577
 11
-2.5783767939
 21
-63.8199249989
  0
LINE
  5
27C
100
AcDbEntity
  8
0
100
AcDbLine
 62
7
  6
CONTINUOUS
 10
-2.470848
 20
-2.123329
 11
-2.268167
 21
0.814728
  0
LINE
  5
27D
100
AcDbEntity
  8
0
100
AcDbLine
 62
7
  6
CONTINUOUS
 10
-2.963094
 20
2.376123
 11
-3.369369
 21
-2.123329
  0
LINE
  5
27E
100
AcDbEntity
  8
0
100
AcDbLine
 62
7
  6
CONTINUOUS
 10
-6.101302
 20
2.376123
 11
-6.985179
 21
-0.720989
  0
LINE
  5
27F
100
AcDbEntity
  8
0
100
AcDbLine
 62
7
  6
CONTINUOUS
 10
-6.609036
 20
-2.123329
 11
-5.162732
 21
2.376123
  0
LINE
  5
280
100
AcDbEntity
  8
0
100
AcDbLine
 62
7
  6
CONTINUOUS
 10
-0.156155
 20
2.376123
 11
-1.095366
 21
-0.121987
  0
LINE
  5
281
100
AcDbEntity
  8
0
100
AcDbLine
 62
7
  6
CONTINUOUS
 10
-1.034633
 20
-2.123329
 11
0.08209
 21
0.802481
  0
LWPOLYLINE
  5
282
100
AcDbEntity
  8
0
100
AcDbPolyline
 62
7
  6
CONTINUOUS
 90
7
 70
0
 10
7.7322332597
 20
0.0035632995
 10
7.7410048733
 20
0.0054672809
 10
7.7498990793
 20
0.008125755
 10
7.7589158776
 20
0.0115387219
 10
7.7680431568
 20
0.0158619936
 10
7.7772930283
 20
0.0209397581
 10
7.796271659
 20
0.0318074461
  0
LWPOLYLINE
  5
283
100
AcDbEntity
  8
0
100
AcDbPolyline
 62
7
  6
CONTINUOUS
 90
10
 70
0
 10
6.2218553081
 20
1.6095967219
 10
6.3099614024
 20
1.6239514336
 10
6.3959476324
 20
1.6354279354
 10
6.4798139979
 20
1.6440262272
 10
6.5608513057
 20
1.6497126141
 10
6.6397687492
 20
1.652520791
 10
6.7186939086
 20
1.6525518429
 10
6.7983359773
 20
1.6498394648
 10
6.8779857619
 20
1.6443499618
 10
6.9576432625
 20
1.6360833337
  0
LINE
  5
284
100
AcDbEntity
  8
0
100
AcDbLine
 62
7
  6
CONTINUOUS
 10
-7.436717
 20
-2.123329
 11
-6.609036
 21
-2.123329
  0
LINE
  5
285
100
AcDbEntity
  8
0
100
AcDbLine
 62
7
  6
CONTINUOUS
 10
-4.814188
 20
-2.123329
 11
-3.874976
 21
-2.123329
  0
LINE
  5
286
100
AcDbEntity
  8
0
100
AcDbLine
 62
7
  6
CONTINUOUS
 10
-3.369369
 20
-2.123329
 11
-2.470848
 21
-2.123329
  0
LINE
  5
287
100
AcDbEntity
  8
0
100
AcDbLine
 62
7
  6
CONTINUOUS
 10
-1.166357
 20
-2.123329
 11
-1.034633
 21
-2.123329
  0
LINE
  5
288
100
AcDbEntity
  8
0
100
AcDbLine
 62
7
  6
CONTINUOUS
 10
0.275054
 20
-2.123329
 11
1.193853
 21
-2.123329
  0
LINE
  5
289
100
AcDbEntity
  8
0
100
AcDbLine
 62
7
  6
CONTINUOUS
 10
1.341334
 20
-2.123329
 11
2.270357
 21
-2.123329
  0
LINE
  5
28A
100
AcDbEntity
  8
0
100
AcDbLine
 62
7
  6
CONTINUOUS
 10
4.051876
 20
-2.123329
 11
5.041767
 21
-2.123329
  0
LINE
  5
28B
100
AcDbEntity
  8
0
100
AcDbLine
 62
7
  6
CONTINUOUS
 10
5.3175652652
 20
-2.1233285009
 11
6.2529981651
 21
-2.1233285009
  0
LINE
  5
28C
100
AcDbEntity
  8
0
100
AcDbLine
 62
7
  6
CONTINUOUS
 10
7.6912717989
 20
-2.1233285009
 11
8.5946845782
 21
-2.1233285009
  0
LINE
  5
28D
100
AcDbEntity
  8
0
100
AcDbLine
 62
7
  6
CONTINUOUS
 10
2.52952
 20
-1.225078
 11
3.808571
 21
-1.225078
  0
LINE
  5
28E
100
AcDbEntity
  8
0
100
AcDbLine
 62
7
  6
CONTINUOUS
 10
3.62087
 20
-0.530015
 11
2.721641
 21
-0.530015
  0
LINE
  5
28F
100
AcDbEntity
  8
0
100
AcDbLine
 62
7
  6
CONTINUOUS
 10
6.2529981651
 20
-0.3624917982
 11
6.7565811989
 21
-0.3624917982
  0
LINE
  5
290
100
AcDbEntity
  8
0
100
AcDbLine
 62
7
  6
CONTINUOUS
 10
6.7586056534
 20
0.3744096061
 11
6.2218553081
 21
0.3744096061
  0
LWPOLYLINE
  5
291
100
AcDbEntity
  8
0
100
AcDbPolyline
 62
7
  6
CONTINUOUS
 90
19
 70
0
 10
6.7565811989
 20
-0.3624917982
 10
6.7947291609
 20
-0.3639278405
 10
6.832034765
 20
-0.3677639784
 10
6.8684980115
 20
-0.374000212
 10
6.9042691237
 20
-0.3826950848
 10
6.9391978782
 20
-0.3937900533
 10
6.9728336045
 20
-0.407109487
 10
7.0049627468
 20
-0.422554746
 10
7.0357988609
 20
-0.4402244703
 10
7.0655319437
 20
-0.4602389491
 10
7.0942376632
 20
-0.4825078983
 10
7.1218403513
 20
-0.5071216019
 10
7.1483030006
 20
-0.5344712014
 10
7.1737053709
 20
-0.5646077232
 10
7.1979677024
 20
-0.597480141
 10
7.2208137079
 20
-0.6333265166
 10
7.2421512917
 20
-0.6722262042
 10
7.2620725495
 20
-0.7140998497
 10
7.2805774814
 20
-0.758947453
  0
LINE
  5
292
100
AcDbEntity
  8
0
100
AcDbLine
 62
7
  6
CONTINUOUS
 10
-2.268167
 20
0.814728
 11
-1.166357
 21
-2.123329
  0
LINE
  5
293
100
AcDbEntity
  8
0
100
AcDbLine
 62
7
  6
CONTINUOUS
 10
-1.095366
 20
-0.121987
 11
-2.024659
 21
2.376123
  0
LWPOLYLINE
  5
294
100
AcDbEntity
  8
0
100
AcDbPolyline
 62
7
  6
CONTINUOUS
 90
13
 70
0
 10
2.0777623057
 20
-65.711091446
 10
2.0869319406
 20
-65.7803155113
 10
2.0989970197
 20
-65.845715517
 10
2.113957543
 20
-65.9072914633
 10
2.1318781446
 20
-65.9646330141
 10
2.1526941904
 20
-66.0181505054
 10
2.1762117787
 20
-66.0690749449
 10
2.2022487254
 20
-66.1175592854
 10
2.2309872146
 20
-66.1634505741
 10
2.2627798964
 20
-66.2075209595
 10
2.297744321
 20
-66.2500278245
 10
2.3357629384
 20
-66.2907137863
 10
2.3768357484
 20
-66.3295788449
  0
LWPOLYLINE
  5
295
100
AcDbEntity
  8
0
100
AcDbPolyline
 62
7
  6
CONTINUOUS
 90
16
 70
0
 10
4.0999998927
 20
-65.4759958661
 10
4.0981542783
 20
-65.4126365782
 10
4.0938189663
 20
-65.3521802024
 10
4.0869939566
 20
-65.2946267385
 10
4.0775755574
 20
-65.240257105
 10
4.0656674606
 20
-65.1887903835
 10
4.0515807415
 20
-65.1393838187
 10
4.0354213871
 20
-65.091955924
 10
4.0170834104
 20
-65.0465881861
 10
3.9965599268
 20
-65.0026823096
 10
3.9739469424
 20
-64.9601782542
 10
3.949148451
 20
-64.9191360602
 10
3.9218695494
 20
-64.8791375542
 10
3.8920119365
 20
-64.8400433449
 10
3.8596739135
 20
-64.8019928236
 10
3.8248554802
 20
-64.7649859903
  0
LINE
  5
296
100
AcDbEntity
  8
0
100
AcDbLine
 62
7
  6
CONTINUOUS
 10
1.5867664397
 20
-63.8594543225
 11
1.5867664397
 21
-63.501609776
  0
LINE
  5
297
100
AcDbEntity
  8
0
100
AcDbLine
 62
7
  6
CONTINUOUS
 10
3.9564457655
 20
-63.8594543225
 11
3.9564457655
 21
-63.501609776
  0
LINE
  5
298
100
AcDbEntity
  8
0
100
AcDbLine
 62
7
  6
CONTINUOUS
 10
5.3175652652
 20
2.3235543096
 11
5.3175652652
 21
-2.1233285009
  0
LINE
  5
299
100
AcDbEntity
  8
0
100
AcDbLine
 62
7
  6
CONTINUOUS
 10
6.0
 20
-72.0
 11
6.0
 21
-62.0
  0
LINE
  5
29A
100
AcDbEntity
  8
0
100
AcDbLine
 62
7
  6
CONTINUOUS
 10
6.2218553081
 20
0.3744096061
 11
6.2218553081
 21
1.6095967219
  0
LINE
  5
29B
100
AcDbEntity
  8
0
100
AcDbLine
 62
7
  6
CONTINUOUS
 10
6.2529981651
 20
-2.1233285009
 11
6.2529981651
 21
-0.3624917982
  0
LINE
  5
29C
100
AcDbEntity
  8
0
100
AcDbLine
 62
7
  6
CONTINUOUS
 10
7.7322332597
 20
-0.023024535
 11
7.7322332597
 21
0.0035632995
  0
LWPOLYLINE
  5
29D
100
AcDbEntity
  8
0
100
AcDbPolyline
 62
7
  6
CONTINUOUS
 90
25
 70
0
 10
7.4881852809
 20
1.0736224175
 10
7.487627374
 20
1.0175088996
 10
7.4844278767
 20
0.9641062137
 10
7.4785867889
 20
0.9134143597
 10
7.4700614397
 20
0.8655353117
 10
7.4588945
 20
0.8203670956
 10
7.4452139829
 20
0.7776037895
 10
7.42899783
 20
0.7372767334
 10
7.4102680997
 20
0.6993545874
 10
7.3892189798
 20
0.6634374097
 10
7.3658582074
 20
0.6293267983
 10
7.3401780456
 20
0.5972211551
 10
7.3123494713
 20
0.5673157448
 10
7.282715292
 20
0.5397824177
 10
7.2509327003
 20
0.5144493234
 10
7.2161442515
 20
0.4909961751
 10
7.1782112416
 20
0.4692368769
 10
7.1372723745
 20
0.4493575247
 10
7.0928863177
 20
0.4315961202
 10
7.0447093187
 20
0.4158679597
 10
6.99308513
 20
0.4022577469
 10
6.9386036766
 20
0.3912575939
 10
6.8814616002
 20
0.3830315381
 10
6.8214622591
 20
0.3774155422
 10
6.7586056534
 20
0.3744096061
  0
LWPOLYLINE
  5
29E
100
AcDbEntity
  8
0
100
AcDbPolyline
 62
7
  6
CONTINUOUS
 90
13
 70
0
 10
1.3329465151
 20
-65.5092837414
 10
1.3306928956
 20
-65.5725816314
 10
1.3258211988
 20
-65.6319563839
 10
1.3183314247
 20
-65.6874079987
 10
1.3080630016
 20
-65.7385218512
 10
1.2951765012
 20
-65.785712566
 10
1.2801536384
 20
-65.8302240177
 10
1.263151096
 20
-65.8722053034
 10
1.2440121913
 20
-65.9115073258
 10
1.2227485913
 20
-65.9489266683
 10
1.1993641853
 20
-65.9847288584
 10
1.173855084
 20
-66.0186483686
 10
1.1462212876
 20
-66.0506851987
  0
LWPOLYLINE
  5
29F
100
AcDbEntity
  8
0
100
AcDbPolyline
 62
7
  6
CONTINUOUS
 90
13
 70
0
 10
3.7026262045
 20
-65.5092837414
 10
3.7003725977
 20
-65.5725813958
 10
3.6955009101
 20
-65.6319559732
 10
3.6880111417
 20
-65.6874074734
 10
3.6777427218
 20
-65.7385212851
 10
3.6648562212
 20
-65.7857120196
 10
3.6498333519
 20
-65.8302235117
 10
3.6328307937
 20
-65.8722048519
 10
3.613691867
 20
-65.9115069497
 10
3.5924282447
 20
-65.9489263678
 10
3.5690438179
 20
-65.9847286274
 10
3.5435346956
 20
-66.0186482073
 10
3.5159008777
 20
-66.0506851077
  0
LWPOLYLINE
  5
2A0
100
AcDbEntity
  8
0
100
AcDbPolyline
 62
7
  6
CONTINUOUS
 90
13
 70
0
 10
-1.070020777
 20
-64.3546112752
 10
-1.0720420649
 20
-64.4039338015
 10
-1.0763417736
 20
-64.4499694607
 10
-1.082919903
 20
-64.4927182526
 10
-1.0919126481
 20
-64.5318207567
 10
-1.1031838139
 20
-64.5676363936
 10
-1.1163248152
 20
-64.6012434252
 10
-1.1311735222
 20
-64.6327837536
 10
-1.1478920647
 20
-64.6621154766
 10
-1.166558247
 20
-64.6898911496
 10
-1.1871980038
 20
-64.7163282909
 10
-1.2097854004
 20
-64.7412093821
 10
-1.2343204367
 20
-64.7645344232
  0
LINE
  5
2A1
100
AcDbEntity
  8
0
100
AcDbLine
 62
7
  6
CONTINUOUS
 10
2.721641
 20
-0.530015
 11
3.18929
 21
1.139788
  0
LINE
  5
2A2
100
AcDbEntity
  8
0
100
AcDbLine
 62
7
  6
CONTINUOUS
 10
2.270357
 20
-2.123329
 11
2.52952
 21
-1.225078
  0
LINE
  5
2A3
100
AcDbEntity
  8
0
100
AcDbLine
 62
7
  6
CONTINUOUS
 10
2.752649
 20
2.376123
 11
1.341334
 21
-2.123329
  0
LWPOLYLINE
  5
2A4
100
AcDbEntity
  8
0
100
AcDbPolyline
 62
7
  6
CONTINUOUS
 90
72
 70
0
 10
7.796271659
 20
0.0318074461
 10
7.8060004181
 20
0.0375973695
 10
7.8159181228
 20
0.0436539415
 10
7.8260279929
 20
0.049940574
 10
7.8363268086
 20
0.0564938551
 10
7.8468349278
 20
0.0634031411
 10
7.8575542771
 20
0.0706684288
 10
7.86848293
 20
0.0782897214
 10
7.8796354651
 20
0.0863563852
 10
7.8910169627
 20
0.0948816016
 10
7.9026223426
 20
0.1038521892
 10
7.914450943
 20
0.1133179703
 10
7.9265047613
 20
0.1232828985
 10
7.9387818001
 20
0.1337430204
 10
7.951275406
 20
0.1447362974
 10
7.9639871236
 20
0.1562583058
 10
7.9769154083
 20
0.1683134695
 10
7.9900489729
 20
0.180953022
 10
8.0033912145
 20
0.1941615944
 10
8.0169387361
 20
0.2079545557
 10
8.0306700589
 20
0.2224292467
 10
8.0445901282
 20
0.2375775799
 10
8.0586939989
 20
0.2534076428
 10
8.0729453571
 20
0.2700410395
 10
8.0873516815
 20
0.287472619
 10
8.1019054935
 20
0.3057075322
 10
8.1165480428
 20
0.324882836
 10
8.1312899237
 20
0.3449943591
 10
8.146120542
 20
0.3660462727
 10
8.1609493645
 20
0.3881881472
 10
8.1757903687
 20
0.4114133501
 10
8.1906295771
 20
0.4357285138
 10
8.2053345251
 20
0.4613031067
 10
8.2199218574
 20
0.4881322849
 10
8.2343749292
 20
0.5162208922
 10
8.2485113409
 20
0.5457529276
 10
8.2623550974
 20
0.5767239321
 10
8.2758821938
 20
0.6091383648
 10
8.2888382167
 20
0.6431936021
 10
8.3012454223
 20
0.6788874008
 10
8.3130815543
 20
0.7162220042
 10
8.3240254298
 20
0.7554015182
 10
8.3341013711
 20
0.7964334236
 10
8.3432850559
 20
0.8393102397
 10
8.3511823344
 20
0.8842136305
 10
8.3578148917
 20
0.9311605245
 10
8.3631610428
 20
0.9801339932
 10
8.3667615822
 20
1.0312649154
 10
8.3686948395
 20
1.0845506735
 10
8.3688824852
 20
1.1399938851
 10
8.3666303252
 20
1.1977332814
 10
8.3621723748
 20
1.2578428888
 10
8.3552746187
 20
1.3202486809
 10
8.344540817
 20
1.3848673099
 10
8.3295555305
 20
1.4528227474
 10
8.3107341984
 20
1.5229910219
 10
8.287926899
 20
1.5919168706
 10
8.2609560817
 20
1.6588349585
 10
8.2299992971
 20
1.7245106206
 10
8.1954392753
 20
1.7877846
 10
8.1570207608
 20
1.8486154713
 10
8.1149990091
 20
1.9070446598
 10
8.070522517
 20
1.9620371842
 10
8.0231590619
 20
2.01357956
 10
7.9733408664
 20
2.0616852717
 10
7.9235130952
 20
2.1053597909
 10
7.8742626126
 20
2.1441301539
 10
7.8250025542
 20
2.1784693244
 10
7.7764174923
 20
2.2088016656
 10
7.7287356175
 20
2.2352686319
 10
7.6817287392
 20
2.2577287688
 10
7.6353968572
 20
2.2761820764
  0
LINE
  5
2A5
100
AcDbEntity
  8
0
100
AcDbLine
 62
7
  6
CONTINUOUS
 10
3.661224
 20
2.376123
 11
2.752649
 21
2.376123
  0
LINE
  5
2A6
100
AcDbEntity
  8
0
100
AcDbLine
 62
7
  6
CONTINUOUS
 10
0.773104
 20
2.376123
 11
-0.156155
 21
2.376123
  0
LINE
  5
2A7
100
AcDbEntity
  8
0
100
AcDbLine
 62
7
  6
CONTINUOUS
 10
-2.024659
 20
2.376123
 11
-2.963094
 21
2.376123
  0
LINE
  5
2A8
100
AcDbEntity
  8
0
100
AcDbLine
 62
7
  6
CONTINUOUS
 10
-5.162732
 20
2.376123
 11
-6.101302
 21
2.376123
  0
LINE
  5
2A9
100
AcDbEntity
  8
0
100
AcDbLine
 62
7
  6
CONTINUOUS
 10
-7.842856
 20
2.376123
 11
-8.863131
 21
2.376123
  0
LINE
  5
2AA
100
AcDbEntity
  8
0
100
AcDbLine
 62
7
  6
CONTINUOUS
 10
-3.874976
 20
2.376393
 11
-4.814188
 21
2.376393
  0
LWPOLYLINE
  5
2AB
100
AcDbEntity
  8
0
100
AcDbPolyline
 62
7
  6
CONTINUOUS
 90
22
 70
0
 10
6.9576432625
 20
1.6360833337
 10
7.0003458004
 20
1.6295854213
 10
7.0422877901
 20
1.6203530389
 10
7.0834692316
 20
1.6083861866
 10
7.1243552637
 20
1.5934392043
 10
7.1644807476
 20
1.575757752
 10
7.202450267
 20
1.5560788101
 10
7.2378939671
 20
1.5344918017
 10
7.2711817028
 20
1.5109073037
 10
7.3020276219
 20
1.4857940273
 10
7.3302710928
 20
1.4592867785
 10
7.3560727472
 20
1.4312507513
 10
7.3796286284
 20
1.4017502389
 10
7.4010106954
 20
1.3708166058
 10
7.4201469893
 20
1.3384184874
 10
7.4370176757
 20
1.304526083
 10
7.4517064798
 20
1.2689853714
 10
7.4641296765
 20
1.2319503738
 10
7.4740162559
 20
1.1938533532
 10
7.4812758815
 20
1.1548383975
 10
7.4859988898
 20
1.114761419
 10
7.4881852809
 20
1.0736224175
  0
LWPOLYLINE
  5
2AC
100
AcDbEntity
  8
0
100
AcDbPolyline
 62
7
  6
CONTINUOUS
 90
19
 70
0
 10
7.6353968572
 20
2.2761820764
 10
7.5470051849
 20
2.3058571687
 10
7.4536238742
 20
2.3322608729
 10
7.355252925
 20
2.3553931891
 10
7.2517484023
 20
2.375231363
 10
7.1432542411
 20
2.3917981489
 10
7.0302022472
 20
2.4051618089
 10
6.9127086596
 20
2.4153151044
 10
6.7906572392
 20
2.422265274
 10
6.664131075
 20
2.4261022963
 10
6.5332197977
 20
2.4268103488
 10
6.3978337767
 20
2.424405254
 10
6.2577872085
 20
2.4190244571
 10
6.1130811008
 20
2.4107497183
 10
5.963714446
 20
2.3994992774
 10
5.8094984177
 20
2.3851652995
 10
5.6503700738
 20
2.3677118398
 10
5.4863923563
 20
2.3471748431
 10
5.3175652652
 20
2.3235543096
  0
LWPOLYLINE
  5
2AD
100
AcDbEntity
  8
0
100
AcDbPolyline
 62
7
  6
CONTINUOUS
 90
5
 70
0
 10
7.2805774814
 20
-0.758947453
 10
7.3131373879
 20
-0.8572727932
 10
7.3457584936
 20
-0.9583586029
 10
7.3784407987
 20
-1.0622048823
 10
7.4109886372
 20
-1.1688117847
  0
LINE
  5
2AE
100
AcDbEntity
  8
0
100
AcDbLine
 62
7
  6
CONTINUOUS
 10
5.041767
 20
-2.123329
 11
3.661224
 21
2.376123
  0
LINE
  5
2AF
100
AcDbEntity
  8
0
100
AcDbLine
 62
7
  6
CONTINUOUS
 10
7.4109886372
 20
-1.1688117847
 11
7.581102788
 21
-1.7432482794
  0
LINE
  5
2B0
100
AcDbEntity
  8
0
100
AcDbLine
 62
7
  6
CONTINUOUS
 10
7.581102788
 20
-1.7432482794
 11
7.6912717989
 21
-2.1233285009
  0
LINE
  5
2B1
100
AcDbEntity
  8
0
100
AcDbLine
 62
7
  6
CONTINUOUS
 10
3.808571
 20
-1.225078
 11
4.051876
 21
-2.123329
  0
LWPOLYLINE
  5
2B2
100
AcDbEntity
  8
0
100
AcDbPolyline
 62
7
  6
CONTINUOUS
 90
22
 70
0
 10
8.384886127
 20
-1.3226873894
 10
8.2557505348
 20
-0.837979299
 10
8.2374054602
 20
-0.7725750831
 10
8.2185708855
 20
-0.7093053044
 10
8.1994116564
 20
-0.6480253944
 10
8.1797629272
 20
-0.5888799217
 10
8.1591301603
 20
-0.5323025919
 10
8.1373973768
 20
-0.4783629332
 10
8.1146805556
 20
-0.4269914175
 10
8.0908330959
 20
-0.3784131656
 10
8.0657833631
 20
-0.3326126442
 10
8.0396029918
 20
-0.2896053865
 10
8.0123602851
 20
-0.2496631138
 10
7.9839867535
 20
-0.2129343604
 10
7.9545508864
 20
-0.179270592
 10
7.9243264559
 20
-0.1484979267
 10
7.8932096942
 20
-0.1206029524
 10
7.8613043692
 20
-0.0955990812
 10
7.8291955557
 20
-0.0733526684
 10
7.7970782788
 20
-0.0538191656
 10
7.7647575135
 20
-0.0370431212
 10
7.7322332597
 20
-0.023024535
  0
LINE
  5
2B3
100
AcDbEntity
  8
0
100
AcDbLine
 62
7
  6
CONTINUOUS
 10
8.5946845782
 20
-2.1233285009
 11
8.384886127
 21
-1.3226873894
  0
LINE
  5
2B4
100
AcDbEntity
  8
0
100
AcDbLine
 62
7
  6
CONTINUOUS
 10
3.18929
 20
1.139788
 11
3.62087
 21
-0.530015
  0
LINE
  5
2B5
100
AcDbEntity
  8
0
100
AcDbLine
 62
7
  6
CONTINUOUS
 10
0.0700882494
 20
-63.501609776
 11
-0.2253414512
 21
-65.0682196429
  0
LINE
  5
2B6
100
AcDbEntity
  8
0
100
AcDbLine
 62
7
  6
CONTINUOUS
 10
2.4397675753
 20
-63.501609776
 11
2.1443382382
 21
-65.0682196429
  0
LINE
  5
2B7
100
AcDbEntity
  8
0
100
AcDbLine
 62
7
  6
CONTINUOUS
 10
0.2053202033
 20
-64.6791678554
 11
0.3696792185
 21
-63.8594543225
  0
LINE
  5
2B8
100
AcDbEntity
  8
0
100
AcDbLine
 62
7
  6
CONTINUOUS
 10
2.5749998927
 20
-64.6791678554
 11
2.7393585443
 21
-63.8594543225
  0
LWPOLYLINE
  5
2B9
100
AcDbEntity
  8
0
100
AcDbPolyline
 62
7
  6
CONTINUOUS
 90
10
 70
0
 10
0.1262615561
 20
-65.1139904147
 10
0.1439303918
 20
-65.0870397235
 10
0.1634090977
 20
-65.0609446606
 10
0.1846976738
 20
-65.0357052259
 10
0.2076320261
 20
-65.011354716
 10
0.2323762487
 20
-64.9878598343
 10
0.2594226239
 20
-64.9651206915
 10
0.2889352459
 20
-64.9431039908
 10
0.3207500207
 20
-64.9218430288
 10
0.3548669481
 20
-64.9013378056
  0
LWPOLYLINE
  5
2BA
100
AcDbEntity
  8
0
100
AcDbPolyline
 62
7
  6
CONTINUOUS
 90
10
 70
0
 10
2.4959412456
 20
-65.1139904147
 10
2.5136098906
 20
-65.0870398352
 10
2.5330884438
 20
-65.0609448525
 10
2.554376905
 20
-65.0357054669
 10
2.5773111703
 20
-65.0113549758
 10
2.6020553438
 20
-64.9878600818
 10
2.6291017373
 20
-64.9651208916
 10
2.6586144548
 20
-64.9431041076
 10
2.6904293925
 20
-64.9218430274
 10
2.7245465502
 20
-64.9013376512
  0
LWPOLYLINE
  5
2BB
100
AcDbEntity
  8
0
100
AcDbPolyline
 62
7
  6
CONTINUOUS
 90
13
 70
0
 10
1.4898058674
 20
-66.1923418156
 10
1.5276644256
 20
-66.1418113895
 10
1.562222964
 20
-66.0899875191
 10
1.5934814827
 20
-66.0368702045
 10
1.621366241
 20
-65.9826675685
 10
1.6459509795
 20
-65.9271714883
 10
1.6674569197
 20
-65.869757595
 10
1.6860303957
 20
-65.8105050086
 10
1.7015250735
 20
-65.7493346092
 10
1.7137231712
 20
-65.6853846682
 10
1.7225520952
 20
-65.6183679425
 10
1.7280844392
 20
-65.5485716751
 10
1.7303202033
 20
-65.4759958661
  0
LWPOLYLINE
  5
2BC
100
AcDbEntity
  8
0
100
AcDbPolyline
 62
7
  6
CONTINUOUS
 90
13
 70
0
 10
3.8594855568
 20
-66.1923418156
 10
3.897344115
 20
-66.1418113895
 10
3.9319026534
 20
-66.0899875191
 10
3.9631611721
 20
-66.0368702045
 10
3.9910459304
 20
-65.9826675685
 10
4.0156306689
 20
-65.9271714883
 10
4.0371366091
 20
-65.869757595
 10
4.0557100852
 20
-65.8105050086
 10
4.0712047629
 20
-65.7493346092
 10
4.0834028606
 20
-65.6853846682
 10
4.0922317846
 20
-65.6183679425
 10
4.0977641286
 20
-65.5485716751
 10
4.0999998927
 20
-65.4759958661
  0
LWPOLYLINE
  5
2BD
100
AcDbEntity
  8
0
100
AcDbPolyline
 62
7
  6
CONTINUOUS
 90
13
 70
0
 10
-0.9020626753
 20
-65.0011261727
 10
-0.8627696415
 20
-64.9557342012
 10
-0.8269698574
 20
-64.9090207049
 10
-0.7946633231
 20
-64.8609856835
 10
-0.7659626163
 20
-64.8118539975
 10
-0.7407551592
 20
-64.7614007865
 10
-0.7187032188
 20
-64.7089514696
 10
-0.6996223398
 20
-64.6546093343
 10
-0.6836969774
 20
-64.5982710932
 10
-0.6711427643
 20
-64.5389523032
 10
-0.662031578
 20
-64.4763248166
 10
-0.656291541
 20
-64.4107167812
 10
-0.6539226532
 20
-64.342128197
  0
LWPOLYLINE
  5
2BE
100
AcDbEntity
  8
0
100
AcDbPolyline
 62
7
  6
CONTINUOUS
 90
13
 70
0
 10
1.1462212876
 20
-66.0506851987
 10
1.1128266086
 20
-66.0844548863
 10
1.0788675726
 20
-66.1149125585
 10
1.0443441793
 20
-66.1420582154
 10
1.0094244341
 20
-66.1656885243
 10
0.9739403316
 20
-66.1860068179
 10
0.9373878567
 20
-66.2036230938
 10
0.8998447411
 20
-66.218729528
 10
0.861233253
 20
-66.2311339446
 10
0.8208161818
 20
-66.2408698132
 10
0.7783477908
 20
-66.2479482902
 10
0.7340738167
 20
-66.2523582193
 10
0.6879942596
 20
-66.2540996002
  0
LWPOLYLINE
  5
2BF
100
AcDbEntity
  8
0
100
AcDbPolyline
 62
7
  6
CONTINUOUS
 90
13
 70
0
 10
3.5159008777
 20
-66.0506851077
 10
3.4825062433
 20
-66.0844547977
 10
3.4485472452
 20
-66.1149124729
 10
3.4140238835
 20
-66.1420581333
 10
3.3791041662
 20
-66.1656884457
 10
3.3436200853
 20
-66.1860067433
 10
3.3070676164
 20
-66.2036230259
 10
3.2695244931
 20
-66.2187294713
 10
3.2309129818
 20
-66.2311339016
 10
3.1904958578
 20
-66.2408697831
 10
3.1480273797
 20
-66.247948271
 10
3.1037532889
 20
-66.2523582101
 10
3.0576735854
 20
-66.2540996002
  0
LWPOLYLINE
  5
2C0
100
AcDbEntity
  8
0
100
AcDbPolyline
 62
7
  6
CONTINUOUS
 90
13
 70
0
 10
-1.2343204367
 20
-64.7645344232
 10
-1.256495595
 20
-64.7834034799
 10
-1.2823108211
 20
-64.8013747963
 10
-1.3117661152
 20
-64.8184483722
 10
-1.344423601
 20
-64.83480243
 10
-1.3807211547
 20
-64.8502587475
 10
-1.4219724049
 20
-64.8642826577
 10
-1.4681064946
 20
-64.8769616414
 10
-1.5191942808
 20
-64.8882082179
 10
-1.5767619638
 20
-64.8972252787
 10
-1.6413182768
 20
-64.9037471208
 10
-1.7123544865
 20
-64.9080394472
 10
-1.789870593
 20
-64.9101022577
  0
LWPOLYLINE
  5
2C1
100
AcDbEntity
  8
0
100
AcDbPolyline
 62
7
  6
CONTINUOUS
 90
10
 70
0
 10
0.3548669481
 20
-64.9013378056
 10
0.3872034938
 20
-64.8844120725
 10
0.4205053499
 20
-64.869388954
 10
0.4547725163
 20
-64.8562684503
 10
0.4899640347
 20
-64.8450112881
 10
0.5261208634
 20
-64.8356567405
 10
0.563365877
 20
-64.8283226274
 10
0.6017400338
 20
-64.8230482219
 10
0.6412023756
 20
-64.8197942508
 10
0.6817529023
 20
-64.8185607141
  0
LWPOLYLINE
  5
2C2
100
AcDbEntity
  8
0
100
AcDbPolyline
 62
7
  6
CONTINUOUS
 90
10
 70
0
 10
2.7245465502
 20
-64.9013376512
 10
2.7568829814
 20
-64.8844119751
 10
2.790184749
 20
-64.8693889012
 10
2.824451853
 20
-64.8562684293
 10
2.859643342
 20
-64.8450112829
 10
2.8958001674
 20
-64.8356567386
 10
2.9330451833
 20
-64.8283226266
 10
2.9714193411
 20
-64.8230482235
 10
3.0108816893
 20
-64.8197942527
 10
3.0514322281
 20
-64.8185607141
  0
LINE
  5
2C3
100
AcDbEntity
  8
RACCORDO
100
AcDbLine
 62
250
  6
CONTINUOUS
 10
87.5
 20
66.5
 11
89.5
 21
66.5
  0
LINE
  5
2C4
100
AcDbEntity
  8
RACCORDO
100
AcDbLine
 62
250
  6
CONTINUOUS
 10
-87.5
 20
66.5
 11
-89.5
 21
66.5
  0
LINE
  5
2C5
100
AcDbEntity
  8
RACCORDO
100
AcDbLine
 62
250
  6
CONTINUOUS
 10
79.5
 20
-74.5
 11
79.5
 21
-76.5
  0
LINE
  5
2C6
100
AcDbEntity
  8
RACCORDO
100
AcDbLine
 62
250
  6
CONTINUOUS
 10
79.5
 20
74.5
 11
79.5
 21
76.5
  0
LINE
  5
2C7
100
AcDbEntity
  8
RACCORDO
100
AcDbLine
 62
250
  6
CONTINUOUS
 10
79.5
 20
74.5
 11
-79.5
 21
74.5
  0
LINE
  5
2C8
100
AcDbEntity
  8
RACCORDO
100
AcDbLine
 62
7
  6
CONTINUOUS
 10
79.5
 20
76.5
 11
-79.5
 21
76.5
  0
LINE
  5
2C9
100
AcDbEntity
  8
RACCORDO
100
AcDbLine
 62
250
  6
CONTINUOUS
 10
87.5
 20
-66.5
 11
87.5
 21
66.5
  0
LINE
  5
2CA
100
AcDbEntity
  8
RACCORDO
100
AcDbLine
 62
7
  6
CONTINUOUS
 10
89.5
 20
-66.5
 11
89.5
 21
66.5
  0
LINE
  5
2CB
100
AcDbEntity
  8
RACCORDO
100
AcDbLine
 62
7
  6
CONTINUOUS
 10
-147.071308502
 20
-76.5
 11
-149.071308502
 21
-76.5
  0
LINE
  5
2CC
100
AcDbEntity
  8
0
100
AcDbLine
 62
250
  6
CONTINUOUS
 10
-145.4713085025
 20
-66.505
 11
-147.071308502
 21
-66.505
  0
LINE
  5
2CD
100
AcDbEntity
  8
RACCORDO
100
AcDbLine
 62
250
  6
CONTINUOUS
 10
-147.071308502
 20
-66.5
 11
-151.071308502
 21
-66.5
  0
LINE
  5
2CE
100
AcDbEntity
  8
ASSI
100
AcDbLine
 62
7
  6
CONTINUOUS
 10
-142.871308502
 20
-59.7
 11
-145.471308502
 21
-59.9935483871
  0
LINE
  5
2CF
100
AcDbEntity
  8
ASSI
100
AcDbLine
 62
7
  6
CONTINUOUS
 10
-142.871308502
 20
-53.3
 11
-145.471308502
 21
-53.0064516129
  0
LINE
  5
2D0
100
AcDbEntity
  8
0
100
AcDbLine
 62
7
  6
CONTINUOUS
 10
-151.121308502
 20
-2.1233285009
 11
-151.121308502
 21
2.4269317999
  0
LINE
  5
2D1
100
AcDbEntity
  8
RACCORDO
100
AcDbLine
 62
7
  6
CONTINUOUS
 10
-151.071308502
 20
-74.5
 11
-151.071308502
 21
74.5
  0
LINE
  5
2D2
100
AcDbEntity
  8
RACCORDO
100
AcDbLine
 62
250
  6
CONTINUOUS
 10
-149.071308502
 20
-76.5
 11
-149.071308502
 21
76.5
  0
LINE
  5
2D3
100
AcDbEntity
  8
0
100
AcDbLine
 62
7
  6
CONTINUOUS
 10
-147.071308502
 20
-76.5
 11
-147.071308502
 21
76.5
  0
LINE
  5
2D4
100
AcDbEntity
  8
0
100
AcDbLine
 62
7
  6
CONTINUOUS
 10
-151.071308502
 20
-2.1233285009
 11
-151.121308502
 21
-2.1233285009
  0
LINE
  5
2D5
100
AcDbEntity
  8
0
100
AcDbLine
 62
250
  6
CONTINUOUS
 10
-151.071308502
 20
-0.9055179521
 11
-151.121308502
 21
-0.9055179521
  0
LINE
  5
2D6
100
AcDbEntity
  8
0
100
AcDbLine
 62
7
  6
CONTINUOUS
 10
-151.071308502
 20
-0.023024535
 11
-151.121308502
 21
-0.023024535
  0
LINE
  5
2D7
100
AcDbEntity
  8
0
100
AcDbLine
 62
7
  6
CONTINUOUS
 10
-151.071308502
 20
0.0035632995
 11
-151.121308502
 21
0.0035632995
  0
LINE
  5
2D8
100
AcDbEntity
  8
0
100
AcDbLine
 62
7
  6
CONTINUOUS
 10
-145.471308502
 20
71.7
 11
-145.471308502
 21
-71.7
  0
LINE
  5
2D9
100
AcDbEntity
  8
ASSI
100
AcDbLine
 62
7
  6
CONTINUOUS
 10
-142.871308502
 20
-53.300037495
 11
-142.871308502
 21
-59.699962505
  0
LINE
  5
2DA
100
AcDbEntity
  8
ASSI
100
AcDbLine
 62
7
  6
CONTINUOUS
 10
-142.871308502
 20
53.300037495
 11
-142.871308502
 21
59.699962505
  0
LINE
  5
2DB
100
AcDbEntity
  8
0
100
AcDbLine
 62
250
  6
CONTINUOUS
 10
-151.071308502
 20
2.2761820764
 11
-151.121308502
 21
2.2761820764
  0
LINE
  5
2DC
100
AcDbEntity
  8
0
100
AcDbLine
 62
7
  6
CONTINUOUS
 10
-151.071308502
 20
2.426927257
 11
-151.121308502
 21
2.426927257
  0
LINE
  5
2DD
100
AcDbEntity
  8
ASSI
100
AcDbLine
 62
7
  6
CONTINUOUS
 10
-145.471308502
 20
53.0064516129
 11
-142.871308502
 21
53.3
  0
LINE
  5
2DE
100
AcDbEntity
  8
ASSI
100
AcDbLine
 62
7
  6
CONTINUOUS
 10
-145.471308502
 20
59.9935483871
 11
-142.871308502
 21
59.7
  0
LINE
  5
2DF
100
AcDbEntity
  8
RACCORDO
100
AcDbLine
 62
250
  6
CONTINUOUS
 10
-147.071308502
 20
66.5
 11
-151.071308502
 21
66.5
  0
LINE
  5
2E0
100
AcDbEntity
  8
0
100
AcDbLine
 62
250
  6
CONTINUOUS
 10
-145.4713085025
 20
66.505
 11
-147.071308502
 21
66.505
  0
LINE
  5
2E1
100
AcDbEntity
  8
RACCORDO
100
AcDbLine
 62
7
  6
CONTINUOUS
 10
-147.071308502
 20
76.5
 11
-149.071308502
 21
76.5
  0
ARC
  5
2E2
100
AcDbEntity
  8
RACCORDO
100
AcDbCircle
 62
7
  6
CONTINUOUS
 10
-79.5
 20
-66.5
 40
10.0
100
AcDbArc
 50
180.0
 51
270.0
  0
ARC
  5
2E3
100
AcDbEntity
  8
RACCORDO
100
AcDbCircle
 62
7
  6
CONTINUOUS
 10
79.5
 20
-66.5
 40
10.0
100
AcDbArc
 50
270.0
 51
360.0
  0
ARC
  5
2E4
100
AcDbEntity
  8
RACCORDO
100
AcDbCircle
 62
7
  6
CONTINUOUS
 10
79.5
 20
66.5
 40
10.0
100
AcDbArc
 50
0.0
 51
90.0
  0
ARC
  5
2E5
100
AcDbEntity
  8
RACCORDO
100
AcDbCircle
 62
7
  6
CONTINUOUS
 10
-79.5
 20
66.5
 40
10.0
100
AcDbArc
 50
90.0
 51
180.0
  0
ARC
  5
2E6
100
AcDbEntity
  8
RACCORDO
100
AcDbCircle
 62
250
  6
CONTINUOUS
 10
79.5
 20
-66.5
 40
7.9999999795
100
AcDbArc
 50
270.0
 51
360.0
  0
ARC
  5
2E7
100
AcDbEntity
  8
RACCORDO
100
AcDbCircle
 62
250
  6
CONTINUOUS
 10
-79.5
 20
-66.5
 40
7.9999999795
100
AcDbArc
 50
180.0
 51
270.0
  0
ARC
  5
2E8
100
AcDbEntity
  8
RACCORDO
100
AcDbCircle
 62
250
  6
CONTINUOUS
 10
-79.5
 20
66.5
 40
7.9999999795
100
AcDbArc
 50
90.0
 51
180.0
  0
ARC
  5
2E9
100
AcDbEntity
  8
RACCORDO
100
AcDbCircle
 62
250
  6
CONTINUOUS
 10
79.5
 20
66.5
 40
7.9999999795
100
AcDbArc
 50
0.0
 51
90.0
  0
CIRCLE
  5
2EA
100
AcDbEntity
  8
0
100
AcDbCircle
 62
7
  6
CONTINUOUS
 10
-69.5
 20
56.5
 40
3.0
  0
CIRCLE
  5
2EB
100
AcDbEntity
  8
0
100
AcDbCircle
 62
7
  6
CONTINUOUS
 10
69.5
 20
56.5
 40
3.0
  0
CIRCLE
  5
2EC
100
AcDbEntity
  8
0
100
AcDbCircle
 62
7
  6
CONTINUOUS
 10
-69.5
 20
-56.5
 40
3.0
  0
CIRCLE
  5
2ED
100
AcDbEntity
  8
0
100
AcDbCircle
 62
7
  6
CONTINUOUS
 10
69.5
 20
-56.5
 40
3.0
  0
CIRCLE
  5
2EE
100
AcDbEntity
  8
0
100
AcDbCircle
 62
7
  6
CONTINUOUS
 10
-69.5
 20
56.5
 40
1.65
  0
CIRCLE
  5
2EF
100
AcDbEntity
  8
0
100
AcDbCircle
 62
7
  6
CONTINUOUS
 10
69.5
 20
56.5
 40
1.65
  0
CIRCLE
  5
2F0
100
AcDbEntity
  8
0
100
AcDbCircle
 62
7
  6
CONTINUOUS
 10
69.5
 20
-56.5
 40
1.65
  0
CIRCLE
  5
2F1
100
AcDbEntity
  8
0
100
AcDbCircle
 62
7
  6
CONTINUOUS
 10
-69.5
 20
-56.5
 40
1.65
  0
ARC
  5
2F2
100
AcDbEntity
  8
0
100
AcDbCircle
 62
7
  6
CONTINUOUS
 10
-147.9460663145
 20
-71.7
 40
2.4747578125
100
AcDbArc
 50
290.8307455528
 51
0.0012224072
  0
ARC
  5
2F3
100
AcDbEntity
  8
0
100
AcDbCircle
 62
7
  6
CONTINUOUS
 10
-147.9460663145
 20
71.7
 40
2.4747578125
100
AcDbArc
 50
359.9987775928
 51
69.1692544472
  0
ARC
  5
2F4
100
AcDbEntity
  8
RACCORDO
100
AcDbCircle
 62
7
  6
CONTINUOUS
 10
-149.071308502
 20
-74.5
 40
2.0
100
AcDbArc
 50
180.0
 51
270.0
  0
ARC
  5
2F5
100
AcDbEntity
  8
RACCORDO
100
AcDbCircle
 62
7
  6
CONTINUOUS
 10
-149.071308502
 20
74.5
 40
2.0
100
AcDbArc
 50
90.0
 51
180.0
  0
ENDSEC
  0
SECTION
  2
OBJECTS
  0
DICTIONARY
  5
C
100
AcDbDictionary
280
0
281
1
  3
ACAD_GROUP
350
D
  3
ACAD_MLINESTYLE
350
17
  3
ACAD_LAYOUT
350
1A
  3
ACAD_PLOTSETTINGS
350
19
  3
ACAD_PLOTSTYLENAME
350
E
  0
DICTIONARY
  5
D
102
{ACAD_REACTORS
330
C
102
}
100
AcDbDictionary
280
0
281
1
  0
ACDBDICTIONARYWDFLT
  5
E
102
{ACAD_REACTORS
330
C
102
}
100
AcDbDictionary
281
1
  3
Normal
350
F
100
AcDbDictionaryWithDefault
340
F
  0
DICTIONARY
  5
17
102
{ACAD_REACTORS
330
C
102
}
100
AcDbDictionary
280
0
281
1
  3
Standard
350
18
  0
DICTIONARY
  5
19
102
{ACAD_REACTORS
330
C
102
}
100
AcDbDictionary
281
1
  0
DICTIONARY
  5
1A
102
{ACAD_REACTORS
330
C
102
}
100
AcDbDictionary
281
1
  3
Model
350
2F6
  3
Layout1
350
2F7
  0
ACDBPLACEHOLDER
  5
F
102
{ACAD_REACTORS
330
E
102
}
  0
MLINESTYLE
  5
18
102
{ACAD_REACTORS
330
17
102
}
100
AcDbMlineStyle
  2
STANDARD
 70
0
  3

 62
256
 51
90.0
 52
90.0
 71
2
 49
0.5
 62
256
  6
BYLAYER
 49
-0.5
 62
256
  6
BYLAYER
  0
LAYOUT
  5
2F6
102
{ACAD_REACTORS
330
1A
102
}
100
AcDbPlotSettings
  1

  2
none_device
  4
ANSI_C_(22.00_x_17.00_Inches)
  6

 40
0.0
 41
0.0
 42
0.0
 43
0.0
 44
558.8
 45
431.8
 46
0.0
 47
0.0
 48
0.0
 49
0.0
140
0.0
141
0.0
142
1.0
143
1.0
 70
1024
 72
1
 73
0
 74
0
  7

 75
0
147
1.0
148
0.0
149
0.0
100
AcDbLayout
  1
Model
 70
0
 71
0
 10
0.0
 20
0.0
 11
558.8
 21
431.8
 12
0.0
 22
0.0
 32
0.0
 14
0.0
 24
0.0
 34
0.0
 15
0.0
 25
0.0
 35
0.0
146
0.0
 13
0.0
 23
0.0
 33
0.0
 16
1.0
 26
0.0
 36
0.0
 17
0.0
 27
1.0
 37
0.0
 76
0
330
212
345
0
346
0
  0
LAYOUT
  5
2F7
102
{ACAD_REACTORS
330
1A
102
}
100
AcDbPlotSettings
  1

  2
none_device
  4
ANSI_C_(22.00_x_17.00_Inches)
  6

 40
0.0
 41
0.0
 42
0.0
 43
0.0
 44
558.8
 45
431.8
 46
0.0
 47
0.0
 48
0.0
 49
0.0
140
0.0
141
0.0
142
1.0
143
1.0
 70
0
 72
1
 73
0
 74
0
  7

 75
0
147
1.0
148
0.0
149
0.0
100
AcDbLayout
  1
Layout1
 70
0
 71
1
 10
0.0
 20
0.0
 11
558.8
 21
431.8
 12
0.0
 22
0.0
 32
0.0
 14
0.0
 24
0.0
 34
0.0
 15
0.0
 25
0.0
 35
0.0
146
0.0
 13
0.0
 23
0.0
 33
0.0
 16
1.0
 26
0.0
 36
0.0
 17
0.0
 27
1.0
 37
0.0
 76
0
330
213
345
0
346
0
  0
ENDSEC
  0
EOF
