  0
SECTION
  2
HEADER
  9
$ACADVER
  1
AC1024
  9
$DWGCODEPAGE
  3
ANSI_1252
  9
$EXTMAX
 10
297.0
 20
210.0
 30
0.0
  9
$EXTMIN
 10
0.0
 20
0.0
 30
0.0
  9
$LIMMIN
 10
0.0
 20
0.0
  9
$LIMMAX
 10
297.0
 20
210.0
  9
$VIEWCTR
 10
148.5
 20
105.0
  9
$VIEWSIZE
 40
210.0
  9
$CLAYER
  8
0
  9
$LTSCALE
 40
16.335
  9
$CELTYPE
  6
BYLAYER
  9
$DIMSCALE
 40
1.0
  9
$DIMASZ
 40
3.0
  9
$DIMEXO
 40
0.5
  9
$DIMDLI
 40
11.286
  9
$DIMEXE
 40
1.5
  9
$DIMCEN
 40
2.673
  9
$DIMLFAC
 40
1.0
  9
$DIMBLK
  1
_FILLED
  9
$DIMALT
 70
0
  9
$DIMALTF
 40
0.0393700787
  9
$DIMTXT
 40
3.0
  9
$DIMTOL
 70
1
  9
$DIMLIM
 70
0
  9
$DIMTFAC
 40
1.0
  9
$DIMTP
 40
0.01
  9
$DIMTM
 40
0.01
  9
$DIMGAP
 40
0.625
  9
$DIMDSEP
 70
44
  9
$AUNITS
 70
0
  9
$PDMODE
 70
3
  9
$PDSIZE
 40
3.0
  9
$HANDSEED
  5
74D
  9
$TILEMODE
 70
1
  9
$MEASUREMENT
 70
1
  9
$INSUNITS
 70
4
  0
ENDSEC
  0
SECTION
  2
CLASSES
  0
CLASS
  1
ACDBDICTIONARYWDFLT
  2
AcDbDictionaryWithDefault
  3
AutoCAD 2000
 90
0
 91
1
280
0
281
0
  0
CLASS
  1
ACDBPLACEHOLDER
  2
AcDbPlaceHolder
  3
AutoCAD 2000
 90
0
 91
1
280
0
281
0
  0
CLASS
  1
LAYOUT
  2
AcDbLayout
  3
AutoCAD 2000
 90
0
 91
0
280
0
281
0
  0
ENDSEC
  0
SECTION
  2
TABLES
  0
TABLE
  2
VPORT
  5
8
100
AcDbSymbolTable
 70
2
  0
VPORT
  5
1F4
100
AcDbSymbolTableRecord
100
AcDbViewportTableRecord
  2
*ACTIVE
 70
0
 10
0.0
 20
0.0
 11
1.0
 21
1.0
 12
148.5
 22
105.0
 13
0.0
 23
0.0
 14
1.0
 24
1.0
 15
0.0
 25
0.0
 16
0.0
 26
0.0
 36
1.0
 17
0.0
 27
0.0
 37
0.0
 40
210.0
 41
1.4142857143
 42
50.0
 43
0.0
 44
0.0
 50
0.0
 51
0.0
 71
0
 72
100
 73
1
 74
1
 75
0
 76
0
 77
0
 78
0
  0
ENDTAB
  0
TABLE
  2
LTYPE
  5
5
100
AcDbSymbolTable
 70
6
  0
LTYPE
  5
14
100
AcDbSymbolTableRecord
100
AcDbLinetypeTableRecord
  2
BYBLOCK
 70
0
  3

 72
65
 73
0
 40
0.0
  0
LTYPE
  5
15
100
AcDbSymbolTableRecord
100
AcDbLinetypeTableRecord
  2
BYLAYER
 70
0
  3

 72
65
 73
0
 40
0.0
  0
LTYPE
  5
16
100
AcDbSymbolTableRecord
100
AcDbLinetypeTableRecord
  2
CONTINUOUS
 70
64
  3
Solid line
 72
65
 73
0
 40
0.0
  0
LTYPE
  5
1F5
100
AcDbSymbolTableRecord
100
AcDbLinetypeTableRecord
  2
CENTER
 70
64
  3
____ _ ____ _ ____ _ ____ _ ____ _ ____ _ ____
 72
65
 73
4
 40
0.6
 49
0.375
 74
0
 49
-0.075
 74
0
 49
0.075
 74
0
 49
-0.075
 74
0
  0
LTYPE
  5
1F6
100
AcDbSymbolTableRecord
100
AcDbLinetypeTableRecord
  2
HIDDEN
 70
64
  3
- - - - - - - - - - - - - - - - - - - -
 72
65
 73
2
 40
0.2
 49
0.1
 74
0
 49
-0.1
 74
0
  0
LTYPE
  5
1F7
100
AcDbSymbolTableRecord
100
AcDbLinetypeTableRecord
  2
PHANTOM
 70
64
  3
_____ _ _ _____ _ _ _____ _ _ _____
 72
65
 73
6
 40
0.8
 49
0.45
 74
0
 49
-0.05
 74
0
 49
0.1
 74
0
 49
-0.05
 74
0
 49
0.1
 74
0
 49
-0.05
 74
0
  0
LTYPE
  5
1F8
100
AcDbSymbolTableRecord
100
AcDbLinetypeTableRecord
  2
DOT
 70
64
  3
. . . . . . . . . . . . . . . . . . . .
 72
65
 73
2
 40
0.2
 49
0.1
 74
0
 49
-0.1
 74
0
  0
LTYPE
  5
1F9
100
AcDbSymbolTableRecord
100
AcDbLinetypeTableRecord
  2
DASHED
 70
64
  3
- - - - - - - - - - - - - - - - - - - -
 72
65
 73
2
 40
0.2
 49
0.1
 74
0
 49
-0.1
 74
0
  0
ENDTAB
  0
TABLE
  2
LAYER
  5
2
100
AcDbSymbolTable
 70
36
  0
LAYER
  5
10
100
AcDbSymbolTableRecord
100
AcDbLayerTableRecord
  2
0
 70
0
 62
7
  6
CONTINUOUS
370
-3
390
F
  0
LAYER
  5
1FA
100
AcDbSymbolTableRecord
100
AcDbLayerTableRecord
  2
DEFAULT_1
 70
0
 62
7
  6
CENTER
370
-3
390
F
  0
LAYER
  5
1FB
100
AcDbSymbolTableRecord
100
AcDbLayerTableRecord
  2
DEFAULT_2
 70
0
 62
7
  6
HIDDEN
370
-3
390
F
  0
LAYER
  5
1FC
100
AcDbSymbolTableRecord
100
AcDbLayerTableRecord
  2
DEFAULT_3
 70
0
 62
7
  6
PHANTOM
370
-3
390
F
  0
LAYER
  5
1FD
100
AcDbSymbolTableRecord
100
AcDbLayerTableRecord
  2
ASSI
 70
0
 62
7
  6
CONTINUOUS
370
-3
390
F
  0
LAYER
  5
1FE
100
AcDbSymbolTableRecord
100
AcDbLayerTableRecord
  2
COLOR5
 70
0
 62
7
  6
CONTINUOUS
370
-3
390
F
  0
LAYER
  5
1FF
100
AcDbSymbolTableRecord
100
AcDbLayerTableRecord
  2
COORDINATE
 70
0
 62
7
  6
CONTINUOUS
370
-3
390
F
  0
LAYER
  5
200
100
AcDbSymbolTableRecord
100
AcDbLayerTableRecord
  2
COORD_ORIGINE
 70
0
 62
7
  6
CONTINUOUS
370
-3
390
F
  0
LAYER
  5
201
100
AcDbSymbolTableRecord
100
AcDbLayerTableRecord
  2
COPY_PUBLISH
 70
0
 62
7
  6
CONTINUOUS
370
-3
390
F
  0
LAYER
  5
202
100
AcDbSymbolTableRecord
100
AcDbLayerTableRecord
  2
COSMETICI
 70
0
 62
7
  6
CONTINUOUS
370
-3
390
F
  0
LAYER
  5
203
100
AcDbSymbolTableRecord
100
AcDbLayerTableRecord
  2
CURVE
 70
0
 62
7
  6
CONTINUOUS
370
-3
390
F
  0
LAYER
  5
204
100
AcDbSymbolTableRecord
100
AcDbLayerTableRecord
  2
DRAFT
 70
0
 62
7
  6
CONTINUOUS
370
-3
390
F
  0
LAYER
  5
205
100
AcDbSymbolTableRecord
100
AcDbLayerTableRecord
  2
IMPORT_IGES
 70
0
 62
7
  6
CONTINUOUS
370
-3
390
F
  0
LAYER
  5
206
100
AcDbSymbolTableRecord
100
AcDbLayerTableRecord
  2
INTF_1
 70
0
 62
7
  6
CONTINUOUS
370
-3
390
F
  0
LAYER
  5
207
100
AcDbSymbolTableRecord
100
AcDbLayerTableRecord
  2
INTF_11
 70
0
 62
7
  6
CONTINUOUS
370
-3
390
F
  0
LAYER
  5
208
100
AcDbSymbolTableRecord
100
AcDbLayerTableRecord
  2
NOTE
 70
0
 62
7
  6
CONTINUOUS
370
-3
390
F
  0
LAYER
  5
209
100
AcDbSymbolTableRecord
100
AcDbLayerTableRecord
  2
PIANI
 70
0
 62
7
  6
CONTINUOUS
370
-3
390
F
  0
LAYER
  5
20A
100
AcDbSymbolTableRecord
100
AcDbLayerTableRecord
  2
PIANI_ORIGINE
 70
0
 62
7
  6
CONTINUOUS
370
-3
390
F
  0
LAYER
  5
20B
100
AcDbSymbolTableRecord
100
AcDbLayerTableRecord
  2
PUNTI
 70
0
 62
7
  6
CONTINUOUS
370
-3
390
F
  0
LAYER
  5
20C
100
AcDbSymbolTableRecord
100
AcDbLayerTableRecord
  2
RACCORDO
 70
0
 62
7
  6
CONTINUOUS
370
-3
390
F
  0
LAYER
  5
20D
100
AcDbSymbolTableRecord
100
AcDbLayerTableRecord
  2
RGB____0____0____0__
 70
0
 62
7
  6
CONTINUOUS
370
-3
390
F
  0
LAYER
  5
20E
100
AcDbSymbolTableRecord
100
AcDbLayerTableRecord
  2
SIMBOLI
 70
0
 62
7
  6
CONTINUOUS
370
-3
390
F
  0
LAYER
  5
20F
100
AcDbSymbolTableRecord
100
AcDbLayerTableRecord
  2
SMUSSO
 70
0
 62
7
  6
CONTINUOUS
370
-3
390
F
  0
LAYER
  5
210
100
AcDbSymbolTableRecord
100
AcDbLayerTableRecord
  2
SNAPLINE
 70
0
 62
7
  6
CONTINUOUS
370
-3
390
F
  0
LAYER
  5
211
100
AcDbSymbolTableRecord
100
AcDbLayerTableRecord
  2
SUPERFICI
 70
0
 62
7
  6
CONTINUOUS
370
-3
390
F
  0
LAYER
  5
212
100
AcDbSymbolTableRecord
100
AcDbLayerTableRecord
  2
TRASH
 70
0
 62
7
  6
CONTINUOUS
370
-3
390
F
  0
ENDTAB
  0
TABLE
  2
STYLE
  5
3
100
AcDbSymbolTable
 70
1
  0
STYLE
  5
11
100
AcDbSymbolTableRecord
100
AcDbTextStyleTableRecord
  2
STANDARD
 70
0
 40
0.0
 41
0.8
 50
0.0
 71
0
 42
0.2
  3
txt
  4

  0
STYLE
  5
213
100
AcDbSymbolTableRecord
100
AcDbTextStyleTableRecord
  2
TEXTSTYLE_1
 70
0
 40
0.0
 41
0.8
 50
0.0
 71
0
 42
0.2
  3
gdt
  4

  0
ENDTAB
  0
TABLE
  2
VIEW
  5
6
100
AcDbSymbolTable
 70
0
  0
ENDTAB
  0
TABLE
  2
UCS
  5
7
100
AcDbSymbolTable
 70
0
  0
ENDTAB
  0
TABLE
  2
APPID
  5
9
100
AcDbSymbolTable
 70
1
  0
APPID
  5
214
100
AcDbSymbolTableRecord
100
AcDbRegAppTableRecord
  2
ACAD
 70
0
  0
ENDTAB
  0
TABLE
  2
BLOCK_RECORD
  5
1
100
AcDbSymbolTable
 70
0
  0
BLOCK_RECORD
  5
215
100
AcDbSymbolTableRecord
100
AcDbBlockTableRecord
  2
*Model_Space
  0
BLOCK_RECORD
  5
216
100
AcDbSymbolTableRecord
100
AcDbBlockTableRecord
  2
*Paper_Space
  0
BLOCK_RECORD
  5
217
100
AcDbSymbolTableRecord
100
AcDbBlockTableRecord
  2
_FILLED
  0
BLOCK_RECORD
  5
218
100
AcDbSymbolTableRecord
100
AcDbBlockTableRecord
  2
*D0
  0
BLOCK_RECORD
  5
219
100
AcDbSymbolTableRecord
100
AcDbBlockTableRecord
  2
*D1
  0
BLOCK_RECORD
  5
21A
100
AcDbSymbolTableRecord
100
AcDbBlockTableRecord
  2
*D2
  0
BLOCK_RECORD
  5
21B
100
AcDbSymbolTableRecord
100
AcDbBlockTableRecord
  2
*D3
  0
BLOCK_RECORD
  5
21C
100
AcDbSymbolTableRecord
100
AcDbBlockTableRecord
  2
*D4
  0
BLOCK_RECORD
  5
21D
100
AcDbSymbolTableRecord
100
AcDbBlockTableRecord
  2
*D5
  0
ENDTAB
  0
TABLE
  2
DIMSTYLE
  5
A
100
AcDbSymbolTable
 70
1
100
AcDbDimStyleTable
 71
0
  0
DIMSTYLE
105
21E
100
AcDbSymbolTableRecord
100
AcDbDimStyleTableRecord
  2
STANDARD
 70
0
  3

  4

 40
1.0
 41
3.0
 42
0.5
 43
0.38
 44
1.5
 45
0.0
 46
0.0
 47
0.01
 48
0.01
140
3.0
141
0.09
142
0.0
143
25.4
144
1.0
145
0.0
146
1.0
147
0.625
 71
1
 72
0
 73
0
 74
0
 75
0
 76
0
 77
1
 78
8
 79
2
170
0
171
1
172
0
173
0
174
0
175
0
176
0
177
0
178
0
270
2
179
2
271
2
272
2
273
2
274
2
275
0
280
0
281
0
282
0
283
1
284
8
285
0
286
0
287
3
288
0
340
11
278
44
341
217
342
217
343
217
344
217
  0
DIMSTYLE
105
21F
100
AcDbSymbolTableRecord
100
AcDbDimStyleTableRecord
  2
DIMSTYLE_1
 70
0
  3

  4

 40
1.0
 41
3.0
 42
0.5
 43
0.38
 44
1.5
 45
0.0
 46
0.0
 47
0.0
 48
0.0
140
3.0
141
0.09
142
0.0
143
25.4
144
1.0
145
0.0
146
1.0
147
0.75
 71
0
 72
0
 73
0
 74
0
 75
0
 76
0
 77
1
 78
8
 79
2
170
0
171
1
172
0
173
0
174
0
175
0
176
0
177
0
178
0
270
2
179
2
271
2
272
2
273
2
274
2
275
0
280
0
281
0
282
0
283
1
284
8
285
0
286
0
287
3
288
0
340
11
278
44
341
217
342
217
343
217
344
217
  0
ENDTAB
  0
ENDSEC
  0
SECTION
  2
BLOCKS
  0
BLOCK
  5
20
100
AcDbEntity
  8
0
100
AcDbBlockBegin
  2
*Model_Space
 70
0
 10
0.0
 20
0.0
 30
0.0
  3
*Model_Space
  1

  0
ENDBLK
  5
21
100
AcDbEntity
  8
0
100
AcDbBlockEnd
  0
BLOCK
  5
1C
100
AcDbEntity
  8
0
100
AcDbBlockBegin
  2
*Paper_Space
 70
0
 10
0.0
 20
0.0
 30
0.0
  3
*Paper_Space
  1

  0
ENDBLK
  5
1D
100
AcDbEntity
  8
0
100
AcDbBlockEnd
  0
BLOCK
  5
220
100
AcDbEntity
  8
0
100
AcDbBlockBegin
  2
_FILLED
 70
64
 10
0.0
 20
0.0
  3
_FILLED
  1

  0
SOLID
  5
221
100
AcDbEntity
  8
0
  6
BYBLOCK
 62
0
100
AcDbTrace
 10
0.0
 20
0.0
 11
-1.0
 21
0.3166666667
 12
-1.0
 22
-0.3166666667
 13
-1.0
 23
-0.3166666667
  0
ENDBLK
  5
222
100
AcDbEntity
  8
0
  6
BYBLOCK
 62
0
100
AcDbBlockEnd
  0
BLOCK
  5
223
100
AcDbEntity
  8
0
100
AcDbBlockBegin
 62
7
  6
CONTINUOUS
  2
*D0
 70
65
 10
0.0
 20
0.0
  3
*D0
  1

  0
MTEXT
  5
224
100
AcDbEntity
  8
0
100
AcDbMText
 62
7
  6
CONTINUOUS
  7
STANDARD
 71
2
 72
1
 10
137.3770398172
 20
147.1270398172
 30
0.0
 11
1.0
 21
0.0
 31
0.0
 73
2
 44
0.9
  1
{\ftxt;\W0.0001;\H0.0001;\~}{\ftxt;\W2.0714285714;\H3.0; }{\ftxt;\W0.0001;\H0.0001;\~}
 40
3.0
 41
9.3214285714
  0
LINE
  5
225
100
AcDbEntity
  8
0
100
AcDbLine
 62
7
  6
CONTINUOUS
 10
67.8770398172
 20
123.883131547
 11
67.8770398172
 21
144.8770398172
  0
LINE
  5
226
100
AcDbEntity
  8
0
100
AcDbLine
 62
7
  6
CONTINUOUS
 10
206.8770398172
 20
123.883131547
 11
206.8770398172
 21
144.8770398172
  0
LINE
  5
227
100
AcDbEntity
  8
0
100
AcDbLine
 62
7
  6
CONTINUOUS
 10
67.8770398172
 20
143.3770398172
 11
137.3770398172
 21
143.3770398172
  0
LINE
  5
228
100
AcDbEntity
  8
0
100
AcDbLine
 62
7
  6
CONTINUOUS
 10
206.8770398172
 20
143.3770398172
 11
137.3770398172
 21
143.3770398172
  0
INSERT
  5
229
100
AcDbEntity
  8
0
100
AcDbBlockReference
 62
7
  6
CONTINUOUS
  2
_FILLED
 10
67.8770398172
 20
143.3770398172
 41
3.0
 42
3.0
 43
3.0
 50
180.0
  0
INSERT
  5
22A
100
AcDbEntity
  8
0
100
AcDbBlockReference
 62
7
  6
CONTINUOUS
  2
_FILLED
 10
206.8770398172
 20
143.3770398172
 41
3.0
 42
3.0
 43
3.0
 50
0.0
  0
ENDBLK
  5
22B
100
AcDbEntity
  8
0
  6
BYBLOCK
 62
0
100
AcDbBlockEnd
  0
BLOCK
  5
22C
100
AcDbEntity
  8
0
100
AcDbBlockBegin
 62
7
  6
CONTINUOUS
  2
*D1
 70
65
 10
0.0
 20
0.0
  3
*D1
  1

  0
MTEXT
  5
22D
100
AcDbEntity
  8
0
100
AcDbMText
 62
7
  6
CONTINUOUS
  7
STANDARD
 71
2
 72
1
 10
213.1270398172
 20
93.8770398172
 30
0.0
 11
0.0
 21
1.0
 31
0.0
 73
2
 44
0.9
  1
{\ftxt;\W0.0001;\H0.0001;\~}{\ftxt;\W1.5714285714;\H3.0; }{\ftxt;\W0.0001;\H0.0001;\~}
 40
3.0
 41
7.0714285714
  0
LINE
  5
22E
100
AcDbEntity
  8
0
100
AcDbLine
 62
7
  6
CONTINUOUS
 10
197.383131547
 20
133.3770398172
 11
218.3770398172
 21
133.3770398172
  0
LINE
  5
22F
100
AcDbEntity
  8
0
100
AcDbLine
 62
7
  6
CONTINUOUS
 10
197.383131547
 20
54.3770398172
 11
218.3770398172
 21
54.3770398172
  0
LINE
  5
230
100
AcDbEntity
  8
0
100
AcDbLine
 62
7
  6
CONTINUOUS
 10
216.8770398172
 20
133.3770398172
 11
216.8770398172
 21
93.8770398172
  0
LINE
  5
231
100
AcDbEntity
  8
0
100
AcDbLine
 62
7
  6
CONTINUOUS
 10
216.8770398172
 20
54.3770398172
 11
216.8770398172
 21
93.8770398172
  0
INSERT
  5
232
100
AcDbEntity
  8
0
100
AcDbBlockReference
 62
7
  6
CONTINUOUS
  2
_FILLED
 10
216.8770398172
 20
133.3770398172
 41
3.0
 42
3.0
 43
3.0
 50
90.0
  0
INSERT
  5
233
100
AcDbEntity
  8
0
100
AcDbBlockReference
 62
7
  6
CONTINUOUS
  2
_FILLED
 10
216.8770398172
 20
54.3770398172
 41
3.0
 42
3.0
 43
3.0
 50
270.0
  0
ENDBLK
  5
234
100
AcDbEntity
  8
0
  6
BYBLOCK
 62
0
100
AcDbBlockEnd
  0
BLOCK
  5
235
100
AcDbEntity
  8
0
100
AcDbBlockBegin
 62
7
  6
CONTINUOUS
  2
*D2
 70
65
 10
0.0
 20
0.0
  3
*D2
  1

  0
MTEXT
  5
236
100
AcDbEntity
  8
0
100
AcDbMText
 62
7
  6
CONTINUOUS
  7
STANDARD
 71
3
 72
1
 10
23.3339594137
 20
147.1270398172
 30
0.0
 11
1.0
 21
0.0
 31
0.0
 73
2
 44
0.9
  1
{\ftxt;\W0.0001;\H0.0001;\~}{\ftxt;\W0.7857142857;\H3.0; }{\ftxt;\W0.0001;\H0.0001;\~}
 40
3.0
 41
3.5357142857
  0
LINE
  5
237
100
AcDbEntity
  8
0
100
AcDbLine
 62
7
  6
CONTINUOUS
 10
28.338969657
 20
132.358665116
 11
28.338969657
 21
144.8770398172
  0
LINE
  5
238
100
AcDbEntity
  8
0
100
AcDbLine
 62
7
  6
CONTINUOUS
 10
30.338969657
 20
133.8770398172
 11
30.338969657
 21
144.8770398172
  0
LINE
  5
239
100
AcDbEntity
  8
0
100
AcDbLine
 62
7
  6
CONTINUOUS
 10
28.338969657
 20
143.3770398172
 11
20.9768165565
 21
143.3770398172
  0
LINE
  5
23A
100
AcDbEntity
  8
0
100
AcDbLine
 62
7
  6
CONTINUOUS
 10
20.9768165565
 20
143.3770398172
 11
29.338969657
 21
143.3770398172
  0
LINE
  5
23B
100
AcDbEntity
  8
0
100
AcDbLine
 62
7
  6
CONTINUOUS
 10
30.338969657
 20
143.3770398172
 11
34.338969657
 21
143.3770398172
  0
LINE
  5
23C
100
AcDbEntity
  8
0
100
AcDbLine
 62
7
  6
CONTINUOUS
 10
34.338969657
 20
143.3770398172
 11
29.338969657
 21
143.3770398172
  0
INSERT
  5
23D
100
AcDbEntity
  8
0
100
AcDbBlockReference
 62
7
  6
CONTINUOUS
  2
_FILLED
 10
28.338969657
 20
143.3770398172
 41
3.0
 42
3.0
 43
3.0
  0
INSERT
  5
23E
100
AcDbEntity
  8
0
100
AcDbBlockReference
 62
7
  6
CONTINUOUS
  2
_FILLED
 10
30.338969657
 20
143.3770398172
 41
3.0
 42
3.0
 43
3.0
 50
180.0
  0
ENDBLK
  5
23F
100
AcDbEntity
  8
0
  6
BYBLOCK
 62
0
100
AcDbBlockEnd
  0
BLOCK
  5
240
100
AcDbEntity
  8
0
100
AcDbBlockBegin
 62
7
  6
CONTINUOUS
  2
*D3
 70
65
 10
0.0
 20
0.0
  3
*D3
  1

  0
MTEXT
  5
241
100
AcDbEntity
  8
0
100
AcDbMText
 62
7
  6
CONTINUOUS
  7
STANDARD
 71
3
 72
1
 10
26.6083892748
 20
155.1270398172
 30
0.0
 11
1.0
 21
0.0
 31
0.0
 73
2
 44
0.9
  1
{\ftxt;\W0.0001;\H0.0001;\~}{\ftxt;\W2.5714285714;\H3.0; }{\ftxt;\W0.0001;\H0.0001;\~}
 40
3.0
 41
11.5714285714
  0
LINE
  5
242
100
AcDbEntity
  8
0
100
AcDbLine
 62
7
  6
CONTINUOUS
 10
28.338969657
 20
132.358665116
 11
28.338969657
 21
152.8770398172
  0
LINE
  5
243
100
AcDbEntity
  8
0
100
AcDbLine
 62
7
  6
CONTINUOUS
 10
41.838969657
 20
102.6770398172
 11
41.838969657
 21
152.8770398172
  0
LINE
  5
244
100
AcDbEntity
  8
0
100
AcDbLine
 62
7
  6
CONTINUOUS
 10
28.338969657
 20
151.3770398172
 11
35.088969657
 21
151.3770398172
  0
LINE
  5
245
100
AcDbEntity
  8
0
100
AcDbLine
 62
7
  6
CONTINUOUS
 10
35.088969657
 20
151.3770398172
 11
18.8941035605
 21
151.3770398172
  0
LINE
  5
246
100
AcDbEntity
  8
0
100
AcDbLine
 62
7
  6
CONTINUOUS
 10
41.838969657
 20
151.3770398172
 11
35.088969657
 21
151.3770398172
  0
INSERT
  5
247
100
AcDbEntity
  8
0
100
AcDbBlockReference
 62
7
  6
CONTINUOUS
  2
_FILLED
 10
28.338969657
 20
151.3770398172
 41
3.0
 42
3.0
 43
3.0
 50
180.0
  0
INSERT
  5
248
100
AcDbEntity
  8
0
100
AcDbBlockReference
 62
7
  6
CONTINUOUS
  2
_FILLED
 10
41.838969657
 20
151.3770398172
 41
3.0
 42
3.0
 43
3.0
  0
ENDBLK
  5
249
100
AcDbEntity
  8
0
  6
BYBLOCK
 62
0
100
AcDbBlockEnd
  0
BLOCK
  5
24A
100
AcDbEntity
  8
0
100
AcDbBlockBegin
 62
7
  6
CONTINUOUS
  2
*D4
 70
65
 10
0.0
 20
0.0
  3
*D4
  1

  0
MTEXT
  5
24B
100
AcDbEntity
  8
0
100
AcDbMText
 62
7
  6
CONTINUOUS
  7
STANDARD
 71
2
 72
1
 10
41.738969657
 20
171.1270398172
 30
0.0
 11
1.0
 21
0.0
 31
0.0
 73
2
 44
0.9
  1
{\ftxt;\W0.0001;\H0.0001;\~}{\ftxt;\W2.9285714286;\H3.0; }{\ftxt;\W0.0001;\H0.0001;\~}
 40
3.0
 41
13.1785714286
  0
LINE
  5
24C
100
AcDbEntity
  8
0
100
AcDbLine
 62
7
  6
CONTINUOUS
 10
28.338969657
 20
132.358665116
 11
28.338969657
 21
168.8770398172
  0
LINE
  5
24D
100
AcDbEntity
  8
0
100
AcDbLine
 62
7
  6
CONTINUOUS
 10
55.138969657
 20
94.3770398172
 11
55.138969657
 21
168.8770398172
  0
LINE
  5
24E
100
AcDbEntity
  8
0
100
AcDbLine
 62
7
  6
CONTINUOUS
 10
28.338969657
 20
167.3770398172
 11
41.738969657
 21
167.3770398172
  0
LINE
  5
24F
100
AcDbEntity
  8
0
100
AcDbLine
 62
7
  6
CONTINUOUS
 10
55.138969657
 20
167.3770398172
 11
41.738969657
 21
167.3770398172
  0
INSERT
  5
250
100
AcDbEntity
  8
0
100
AcDbBlockReference
 62
7
  6
CONTINUOUS
  2
_FILLED
 10
28.338969657
 20
167.3770398172
 41
3.0
 42
3.0
 43
3.0
 50
180.0
  0
INSERT
  5
251
100
AcDbEntity
  8
0
100
AcDbBlockReference
 62
7
  6
CONTINUOUS
  2
_FILLED
 10
55.138969657
 20
167.3770398172
 41
3.0
 42
3.0
 43
3.0
  0
ENDBLK
  5
252
100
AcDbEntity
  8
0
  6
BYBLOCK
 62
0
100
AcDbBlockEnd
  0
BLOCK
  5
253
100
AcDbEntity
  8
0
100
AcDbBlockBegin
 62
7
  6
CONTINUOUS
  2
*D5
 70
65
 10
0.0
 20
0.0
  3
*D5
  1

  0
MTEXT
  5
254
100
AcDbEntity
  8
0
100
AcDbMText
 62
7
  6
CONTINUOUS
  7
STANDARD
 71
2
 72
1
 10
42.738969657
 20
163.1270398172
 30
0.0
 11
1.0
 21
0.0
 31
0.0
 73
2
 44
0.9
  1
{\ftxt;\W0.0001;\H0.0001;\~}{\ftxt;\W2.9285714286;\H3.0; }{\ftxt;\W0.0001;\H0.0001;\~}
 40
3.0
 41
13.1785714286
  0
LINE
  5
255
100
AcDbEntity
  8
0
100
AcDbLine
 62
7
  6
CONTINUOUS
 10
30.338969657
 20
133.8770398172
 11
30.338969657
 21
160.8770398172
  0
LINE
  5
256
100
AcDbEntity
  8
0
100
AcDbLine
 62
7
  6
CONTINUOUS
 10
55.138969657
 20
94.3770398172
 11
55.138969657
 21
160.8770398172
  0
LINE
  5
257
100
AcDbEntity
  8
0
100
AcDbLine
 62
7
  6
CONTINUOUS
 10
30.338969657
 20
159.3770398172
 11
42.738969657
 21
159.3770398172
  0
LINE
  5
258
100
AcDbEntity
  8
0
100
AcDbLine
 62
7
  6
CONTINUOUS
 10
55.138969657
 20
159.3770398172
 11
42.738969657
 21
159.3770398172
  0
INSERT
  5
259
100
AcDbEntity
  8
0
100
AcDbBlockReference
 62
7
  6
CONTINUOUS
  2
_FILLED
 10
30.338969657
 20
159.3770398172
 41
3.0
 42
3.0
 43
3.0
 50
180.0
  0
INSERT
  5
25A
100
AcDbEntity
  8
0
100
AcDbBlockReference
 62
7
  6
CONTINUOUS
  2
_FILLED
 10
55.138969657
 20
159.3770398172
 41
3.0
 42
3.0
 43
3.0
  0
ENDBLK
  5
25B
100
AcDbEntity
  8
0
  6
BYBLOCK
 62
0
100
AcDbBlockEnd
  0
ENDSEC
  0
SECTION
  2
ENTITIES
  0
DIMENSION
  5
25C
100
AcDbEntity
  8
0
100
AcDbDimension
 62
7
  6
CONTINUOUS
  2
*D0
 10
206.8770398172
 20
143.3770398172
 11
136.9484692383
 21
143.3770398172
 70
160
 71
2
 72
2
 41
0.9
 42
139.0
  1
{\ftxt;\W0.0001;\H0.0001;\~}{\ftxt;\W2.0714285714;\H3.0; }{\ftxt;\W0.0001;\H0.0001;\~}
  3
DIMSTYLE_1
100
AcDbAlignedDimension
 13
67.8770398172
 23
123.383131547
 14
206.8770398172
 24
123.383131547
100
AcDbRotatedDimension
  0
DIMENSION
  5
25D
100
AcDbEntity
  8
0
100
AcDbDimension
 62
7
  6
CONTINUOUS
  2
*D1
 10
216.8770398172
 20
54.3770398172
 11
216.8770398172
 21
93.4484752154
 70
160
 71
2
 72
2
 41
0.9
 42
79.0
  1
{\ftxt;\W0.0001;\H0.0001;\~}{\ftxt;\W1.5714285714;\H3.0; }{\ftxt;\W0.0001;\H0.0001;\~}
  3
DIMSTYLE_1
100
AcDbAlignedDimension
 13
196.883131547
 23
133.3770398172
 14
196.883131547
 24
54.3770398172
 50
270.0
100
AcDbRotatedDimension
  0
DIMENSION
  5
25E
100
AcDbEntity
  8
0
100
AcDbDimension
 62
7
  6
CONTINUOUS
  2
*D2
 10
30.338969657
 20
143.3770398172
 11
21.7268171082
 21
143.3770398172
 70
160
 71
3
 72
2
 41
0.9
 42
2.0
  1
{\ftxt;\W0.0001;\H0.0001;\~}{\ftxt;\W0.7857142857;\H3.0; }{\ftxt;\W0.0001;\H0.0001;\~}
  3
DIMSTYLE_1
100
AcDbAlignedDimension
 13
28.338969657
 23
131.858665116
 14
30.338969657
 24
133.3770398172
100
AcDbRotatedDimension
  0
DIMENSION
  5
25F
100
AcDbEntity
  8
0
100
AcDbDimension
 62
7
  6
CONTINUOUS
  2
*D3
 10
41.838969657
 20
151.3770398172
 11
22.3226751709
 21
151.3770398172
 70
160
 71
3
 72
2
 41
0.9
 42
13.5
  1
{\ftxt;\W0.0001;\H0.0001;\~}{\ftxt;\W2.5714285714;\H3.0; }{\ftxt;\W0.0001;\H0.0001;\~}
  3
DIMSTYLE_1
100
AcDbAlignedDimension
 13
28.338969657
 23
131.858665116
 14
41.838969657
 24
102.1770398172
100
AcDbRotatedDimension
  0
DIMENSION
  5
260
100
AcDbEntity
  8
0
100
AcDbDimension
 62
7
  6
CONTINUOUS
  2
*D4
 10
55.138969657
 20
167.3770398172
 11
41.3103984947
 21
167.3770398172
 70
160
 71
2
 72
2
 41
0.9
 42
26.8
  1
{\ftxt;\W0.0001;\H0.0001;\~}{\ftxt;\W2.9285714286;\H3.0; }{\ftxt;\W0.0001;\H0.0001;\~}
  3
DIMSTYLE_1
100
AcDbAlignedDimension
 13
28.338969657
 23
131.858665116
 14
55.138969657
 24
93.8770398172
100
AcDbRotatedDimension
  0
DIMENSION
  5
261
100
AcDbEntity
  8
0
100
AcDbDimension
 62
7
  6
CONTINUOUS
  2
*D5
 10
55.138969657
 20
159.3770398172
 11
42.3103999329
 21
159.3770398172
 70
160
 71
2
 72
2
 41
0.9
 42
24.8
  1
{\ftxt;\W0.0001;\H0.0001;\~}{\ftxt;\W2.9285714286;\H3.0; }{\ftxt;\W0.0001;\H0.0001;\~}
  3
DIMSTYLE_1
100
AcDbAlignedDimension
 13
30.338969657
 23
133.3770398172
 14
55.138969657
 24
93.8770398172
100
AcDbRotatedDimension
  0
LWPOLYLINE
  5
262
100
AcDbEntity
  8
RACCORDO
100
AcDbPolyline
 62
250
  6
CONTINUOUS
 90
43
 70
0
 10
69.3954145184
 20
64.3902365481
 10
69.4021038012
 20
64.0655024189
 10
69.420340545
 20
63.7444766477
 10
69.4501247497
 20
63.4271592344
 10
69.4915179491
 20
63.1139471453
 10
69.5444586095
 20
62.8044434141
 10
69.6087621295
 20
62.4974571423
 10
69.6844936035
 20
62.1921392155
 10
69.7715879371
 20
61.8893387482
 10
69.8696652466
 20
61.590412185
 10
69.9787609381
 20
61.2954231613
 10
70.0988396054
 20
61.0043080417
 10
70.229415146
 20
60.7182323652
 10
70.3705332372
 20
60.437206947
 10
70.5221482016
 20
60.1612209719
 10
70.6836369053
 20
59.8914075327
 10
70.8550390514
 20
59.6277932867
 10
71.0363149367
 20
59.3703515766
 10
71.2267223171
 20
59.120135524
 10
71.4262977466
 20
58.8771751127
 10
71.6350046714
 20
58.641440359
 10
71.8519911852
 20
58.4138944326
 10
72.077293888
 20
58.194568432
 10
72.3108761799
 20
57.9834312586
 10
72.551776355
 20
57.7813527869
 10
72.800011234
 20
57.5883776769
 10
73.0555639961
 20
57.4044612686
 10
73.3174224727
 20
57.2303394558
 10
73.5856754194
 20
57.0660235339
 10
73.8602340807
 20
56.9115022077
 10
74.1398200217
 20
56.7674774844
 10
74.4236385374
 20
56.6342121473
 10
74.7124843328
 20
56.5114434133
 10
75.0074630892
 20
56.3990849408
 10
75.3092997432
 20
56.296736152
 10
75.6172693581
 20
56.2047976248
 10
75.9303028046
 20
56.1243847507
 10
76.2488758968
 20
56.0555271968
 10
76.5725128206
 20
55.998195296
 10
76.8987170047
 20
55.9534154387
 10
77.2266562588
 20
55.9215297551
 10
77.5571627733
 20
55.902196115
 10
77.8902365481
 20
55.8954145184
  0
LWPOLYLINE
  5
263
100
AcDbEntity
  8
RACCORDO
100
AcDbPolyline
 62
250
  6
CONTINUOUS
 90
43
 70
0
 10
67.8963282779
 20
64.3902365481
 10
67.9036609602
 20
64.0090927695
 10
67.9252969073
 20
63.6313063917
 10
67.9608882558
 20
63.2573994173
 10
68.0099255487
 20
62.8888245086
 10
68.072105864
 20
62.5250855765
 10
68.1476860017
 20
62.1637977803
 10
68.2368358253
 20
61.8044761318
 10
68.3392550935
 20
61.4486108702
 10
68.4547695536
 20
61.0968247756
 10
68.5831960944
 20
60.7496520549
 10
68.7243717485
 20
60.4075116327
 10
68.8781147362
 20
60.0708408763
 10
69.0442198688
 20
59.7400899478
 10
69.2224544414
 20
59.4157226096
 10
69.4125732649
 20
59.0981857678
 10
69.614314515
 20
58.7879155272
 10
69.827402243
 20
58.4853348189
 10
70.0515462649
 20
58.19085592
 10
70.2864388894
 20
57.9048828216
 10
70.5317587998
 20
57.6278061766
 10
70.7871740807
 20
57.3600014306
 10
71.0523385081
 20
57.1018328915
 10
71.3268863365
 20
56.8536576272
 10
71.6104363155
 20
56.6158203531
 10
71.9025856477
 20
56.3886575943
 10
72.2029477036
 20
56.1724684535
 10
72.5111503777
 20
55.9675232988
 10
72.8268449472
 20
55.7740658535
 10
73.1495341454
 20
55.5924121317
 10
73.4785997227
 20
55.4229026201
 10
73.8126736532
 20
55.2661609076
 10
74.1521713836
 20
55.1219130849
 10
74.4992490954
 20
54.9893924498
 10
74.8544076834
 20
54.8687770371
 10
75.2163914787
 20
54.7608610358
 10
75.5848037396
 20
54.6660766185
 10
75.9596586087
 20
54.5847636733
 10
76.3400078331
 20
54.5174702887
 10
76.7239433701
 20
54.464765054
 10
77.1104426514
 20
54.4269098242
 10
77.4994006487
 20
54.4040365647
 10
77.8902365481
 20
54.3963282779
  0
LINE
  5
264
100
AcDbEntity
  8
RACCORDO
100
AcDbLine
 62
7
  6
CONTINUOUS
 10
67.8770398172
 20
123.383131547
 11
67.8770398172
 21
64.3709480874
  0
LINE
  5
265
100
AcDbEntity
  8
RACCORDO
100
AcDbLine
 62
250
  6
CONTINUOUS
 10
67.8963282779
 20
123.3638430864
 11
67.8963282779
 21
64.3902365481
  0
LINE
  5
266
100
AcDbEntity
  8
RACCORDO
100
AcDbLine
 62
250
  6
CONTINUOUS
 10
69.3954145184
 20
123.3638430864
 11
69.3954145184
 21
64.3902365481
  0
LINE
  5
267
100
AcDbEntity
  8
RACCORDO
100
AcDbLine
 62
250
  6
CONTINUOUS
 10
77.8902365481
 20
55.8954145184
 11
77.8902365481
 21
54.3963282779
  0
LINE
  5
268
100
AcDbEntity
  8
RACCORDO
100
AcDbLine
 62
250
  6
CONTINUOUS
 10
77.8902365481
 20
131.858665116
 11
77.8902365481
 21
133.3577513566
  0
LWPOLYLINE
  5
269
100
AcDbEntity
  8
0
100
AcDbPolyline
 62
7
  6
CONTINUOUS
 90
5
 70
0
 43
0.3500000006
 10
136.8413269958
 20
145.8413248901
 10
137.1984647827
 20
146.055609375
 10
137.1984647827
 20
146.6984628296
 10
136.8413269958
 20
147.1270317993
 10
135.9841799927
 20
147.1270317993
  0
LWPOLYLINE
  5
26A
100
AcDbEntity
  8
0
100
AcDbPolyline
 62
7
  6
CONTINUOUS
 90
3
 70
0
 43
0.3500000006
 10
134.26989505
 20
146.2698938599
 10
135.1270420532
 20
147.1270317993
 10
135.1270420532
 20
144.1270308838
  0
LWPOLYLINE
  5
26B
100
AcDbEntity
  8
RACCORDO
100
AcDbPolyline
 62
250
  6
CONTINUOUS
 90
43
 70
0
 10
196.8638430864
 20
55.8954145184
 10
197.1885772156
 20
55.9021038012
 10
197.5096029868
 20
55.920340545
 10
197.8269204001
 20
55.9501247497
 10
198.1401324892
 20
55.9915179491
 10
198.4496362204
 20
56.0444586095
 10
198.7566224921
 20
56.1087621295
 10
199.0619404189
 20
56.1844936035
 10
199.3647408863
 20
56.2715879371
 10
199.6636674495
 20
56.3696652466
 10
199.9586564732
 20
56.4787609381
 10
200.2497715928
 20
56.5988396054
 10
200.5358472693
 20
56.729415146
 10
200.8168726874
 20
56.8705332372
 10
201.0928586626
 20
57.0221482016
 10
201.3626721018
 20
57.1836369053
 10
201.6262863478
 20
57.3550390514
 10
201.8837280579
 20
57.5363149367
 10
202.1339441105
 20
57.7267223171
 10
202.3769045217
 20
57.9262977466
 10
202.6126392754
 20
58.1350046714
 10
202.8401852019
 20
58.3519911852
 10
203.0595112025
 20
58.577293888
 10
203.2706483758
 20
58.8108761799
 10
203.4727268476
 20
59.051776355
 10
203.6657019575
 20
59.300011234
 10
203.8496183659
 20
59.5555639961
 10
204.0237401787
 20
59.8174224727
 10
204.1880561005
 20
60.0856754194
 10
204.3425774268
 20
60.3602340807
 10
204.48660215
 20
60.6398200217
 10
204.6198674871
 20
60.9236385374
 10
204.7426362212
 20
61.2124843328
 10
204.8549946937
 20
61.5074630892
 10
204.9573434824
 20
61.8092997432
 10
205.0492820096
 20
62.1172693581
 10
205.1296948837
 20
62.4303028046
 10
205.1985524377
 20
62.7488758968
 10
205.2558843385
 20
63.0725128206
 10
205.3006641958
 20
63.3987170047
 10
205.3325498794
 20
63.7266562588
 10
205.3518835195
 20
64.0571627733
 10
205.358665116
 20
64.3902365481
  0
LWPOLYLINE
  5
26C
100
AcDbEntity
  8
RACCORDO
100
AcDbPolyline
 62
250
  6
CONTINUOUS
 90
43
 70
0
 10
196.8638430864
 20
54.3963282779
 10
197.244986865
 20
54.4036609602
 10
197.6227732427
 20
54.4252969073
 10
197.9966802171
 20
54.4608882558
 10
198.3652551259
 20
54.5099255487
 10
198.728994058
 20
54.572105864
 10
199.0902818542
 20
54.6476860017
 10
199.4496035027
 20
54.7368358253
 10
199.8054687643
 20
54.8392550935
 10
200.1572548589
 20
54.9547695536
 10
200.5044275796
 20
55.0831960944
 10
200.8465680018
 20
55.2243717485
 10
201.1832387581
 20
55.3781147362
 10
201.5139896867
 20
55.5442198688
 10
201.8383570248
 20
55.7224544414
 10
202.1558938666
 20
55.9125732649
 10
202.4661641072
 20
56.114314515
 10
202.7687448156
 20
56.327402243
 10
203.0632237144
 20
56.5515462649
 10
203.3491968129
 20
56.7864388894
 10
203.6262734579
 20
57.0317587998
 10
203.8940782039
 20
57.2871740807
 10
204.1522467429
 20
57.5523385081
 10
204.4004220073
 20
57.8268863365
 10
204.6382592814
 20
58.1104363155
 10
204.8654220402
 20
58.4025856477
 10
205.081611181
 20
58.7029477036
 10
205.2865563356
 20
59.0111503777
 10
205.480013781
 20
59.3268449472
 10
205.6616675028
 20
59.6495341454
 10
205.8311770144
 20
59.9785997227
 10
205.9879187269
 20
60.3126736532
 10
206.1321665496
 20
60.6521713836
 10
206.2646871847
 20
60.9992490954
 10
206.3853025974
 20
61.3544076834
 10
206.4932185987
 20
61.7163914787
 10
206.588003016
 20
62.0848037396
 10
206.6693159612
 20
62.4596586087
 10
206.7366093458
 20
62.8400078331
 10
206.7893145805
 20
63.2239433701
 10
206.8271698103
 20
63.6104426514
 10
206.8500430698
 20
63.9994006487
 10
206.8577513566
 20
64.3902365481
  0
LINE
  5
26D
100
AcDbEntity
  8
RACCORDO
100
AcDbLine
 62
7
  6
CONTINUOUS
 10
77.8709480874
 20
54.3770398172
 11
196.883131547
 21
54.3770398172
  0
LINE
  5
26E
100
AcDbEntity
  8
RACCORDO
100
AcDbLine
 62
250
  6
CONTINUOUS
 10
77.8902365481
 20
54.3963282779
 11
196.8638430864
 21
54.3963282779
  0
LINE
  5
26F
100
AcDbEntity
  8
RACCORDO
100
AcDbLine
 62
250
  6
CONTINUOUS
 10
77.8902365481
 20
55.8954145184
 11
196.8638430864
 21
55.8954145184
  0
LWPOLYLINE
  5
270
100
AcDbEntity
  8
0
100
AcDbPolyline
 62
7
  6
CONTINUOUS
 90
10
 70
0
 43
0.3500000006
 10
138.5556119385
 20
144.1270308838
 10
139.4127498779
 20
144.9841869507
 10
139.6270434265
 20
145.8413248901
 10
139.6270434265
 20
146.6984628296
 10
139.1984653931
 20
147.1270317993
 10
138.5556119385
 20
147.1270317993
 10
138.1270429688
 20
146.6984628296
 10
138.1270429688
 20
145.8413248901
 10
138.5556119385
 20
145.4127559204
 10
139.4841810608
 20
145.4127559204
  0
LINE
  5
271
100
AcDbEntity
  8
RACCORDO
100
AcDbLine
 62
250
  6
CONTINUOUS
 10
67.8963282779
 20
64.3902365481
 11
67.8770398172
 21
64.3709480874
  0
LINE
  5
272
100
AcDbEntity
  8
RACCORDO
100
AcDbLine
 62
250
  6
CONTINUOUS
 10
69.3954145184
 20
64.3902365481
 11
67.8963282779
 21
64.3902365481
  0
LINE
  5
273
100
AcDbEntity
  8
RACCORDO
100
AcDbLine
 62
250
  6
CONTINUOUS
 10
205.358665116
 20
64.3902365481
 11
206.8577513566
 21
64.3902365481
  0
LINE
  5
274
100
AcDbEntity
  8
RACCORDO
100
AcDbLine
 62
250
  6
CONTINUOUS
 10
67.8963282779
 20
123.3638430864
 11
67.8770398172
 21
123.383131547
  0
LINE
  5
275
100
AcDbEntity
  8
RACCORDO
100
AcDbLine
 62
250
  6
CONTINUOUS
 10
77.8902365481
 20
54.3963282779
 11
77.8709480874
 21
54.3770398172
  0
LINE
  5
276
100
AcDbEntity
  8
RACCORDO
100
AcDbLine
 62
250
  6
CONTINUOUS
 10
77.8902365481
 20
133.3577513566
 11
77.8709480874
 21
133.3770398172
  0
LWPOLYLINE
  5
277
100
AcDbEntity
  8
0
100
AcDbPolyline
 62
7
  6
CONTINUOUS
 90
4
 70
0
 43
0.3500000006
 10
213.7699011841
 20
91.5198998108
 10
213.1270477295
 20
91.5198998108
 10
213.1270477295
 20
93.0199002686
 10
216.127048645
 20
92.1627532654
  0
LINE
  5
278
100
AcDbEntity
  8
RACCORDO
100
AcDbLine
 62
250
  6
CONTINUOUS
 10
196.8638430864
 20
133.3577513566
 11
196.883131547
 21
133.3770398172
  0
LINE
  5
279
100
AcDbEntity
  8
RACCORDO
100
AcDbLine
 62
250
  6
CONTINUOUS
 10
196.8638430864
 20
54.3963282779
 11
196.883131547
 21
54.3770398172
  0
LINE
  5
27A
100
AcDbEntity
  8
RACCORDO
100
AcDbLine
 62
250
  6
CONTINUOUS
 10
206.8577513566
 20
123.3638430864
 11
206.8770398172
 21
123.383131547
  0
LINE
  5
27B
100
AcDbEntity
  8
RACCORDO
100
AcDbLine
 62
250
  6
CONTINUOUS
 10
69.3954145184
 20
123.3638430864
 11
67.8963282779
 21
123.3638430864
  0
LINE
  5
27C
100
AcDbEntity
  8
RACCORDO
100
AcDbLine
 62
250
  6
CONTINUOUS
 10
205.358665116
 20
123.3638430864
 11
206.8577513566
 21
123.3638430864
  0
LINE
  5
27D
100
AcDbEntity
  8
RACCORDO
100
AcDbLine
 62
250
  6
CONTINUOUS
 10
206.8577513566
 20
64.3902365481
 11
206.8770398172
 21
64.3709480874
  0
LINE
  5
27E
100
AcDbEntity
  8
RACCORDO
100
AcDbLine
 62
250
  6
CONTINUOUS
 10
196.8638430864
 20
131.858665116
 11
77.8902365481
 21
131.858665116
  0
LWPOLYLINE
  5
27F
100
AcDbEntity
  8
RACCORDO
100
AcDbPolyline
 62
250
  6
CONTINUOUS
 90
43
 70
0
 10
77.8902365481
 20
131.858665116
 10
77.5655024189
 20
131.8519758332
 10
77.2444766477
 20
131.8337390895
 10
76.9271592344
 20
131.8039548848
 10
76.6139471453
 20
131.7625616854
 10
76.3044434141
 20
131.709621025
 10
75.9974571423
 20
131.6453175049
 10
75.6921392155
 20
131.569586031
 10
75.3893387482
 20
131.4824916973
 10
75.090412185
 20
131.3844143879
 10
74.7954231613
 20
131.2753186964
 10
74.5043080417
 20
131.1552400291
 10
74.2182323652
 20
131.0246644884
 10
73.937206947
 20
130.8835463973
 10
73.6612209719
 20
130.7319314328
 10
73.3914075327
 20
130.5704427292
 10
73.1277932867
 20
130.3990405831
 10
72.8703515766
 20
130.2177646978
 10
72.620135524
 20
130.0273573174
 10
72.3771751127
 20
129.8277818878
 10
72.141440359
 20
129.6190749631
 10
71.9138944326
 20
129.4020884493
 10
71.694568432
 20
129.1767857465
 10
71.4834312586
 20
128.9432034545
 10
71.2813527869
 20
128.7023032795
 10
71.0883776769
 20
128.4540684005
 10
70.9044612686
 20
128.1985156384
 10
70.7303394558
 20
127.9366571617
 10
70.5660235339
 20
127.6684042151
 10
70.4115022077
 20
127.3938455538
 10
70.2674774844
 20
127.1142596127
 10
70.1342121473
 20
126.8304410971
 10
70.0114434133
 20
126.5415953016
 10
69.8990849408
 20
126.2466165453
 10
69.796736152
 20
125.9447798913
 10
69.7047976248
 20
125.6368102764
 10
69.6243847507
 20
125.3237768299
 10
69.5555271968
 20
125.0052037377
 10
69.498195296
 20
124.6815668139
 10
69.4534154387
 20
124.3553626297
 10
69.4215297551
 20
124.0274233756
 10
69.402196115
 20
123.6969168612
 10
69.3954145184
 20
123.3638430864
  0
LWPOLYLINE
  5
280
100
AcDbEntity
  8
RACCORDO
100
AcDbPolyline
 62
250
  6
CONTINUOUS
 90
43
 70
0
 10
77.8902365481
 20
133.3577513566
 10
77.5090927695
 20
133.3504186742
 10
77.1313063917
 20
133.3287827272
 10
76.7573994173
 20
133.2931913786
 10
76.3888245086
 20
133.2441540858
 10
76.0250855765
 20
133.1819737705
 10
75.6637977803
 20
133.1063936328
 10
75.3044761318
 20
133.0172438091
 10
74.9486108702
 20
132.914824541
 10
74.5968247756
 20
132.7993100809
 10
74.2496520549
 20
132.6708835401
 10
73.9075116327
 20
132.529707886
 10
73.5708408763
 20
132.3759648983
 10
73.2400899478
 20
132.2098597657
 10
72.9157226096
 20
132.0316251931
 10
72.5981857678
 20
131.8415063695
 10
72.2879155272
 20
131.6397651195
 10
71.9853348189
 20
131.4266773915
 10
71.69085592
 20
131.2025333696
 10
71.4048828216
 20
130.9676407451
 10
71.1278061766
 20
130.7223208346
 10
70.8600014306
 20
130.4669055538
 10
70.6018328915
 20
130.2017411264
 10
70.3536576272
 20
129.9271932979
 10
70.1158203531
 20
129.643643319
 10
69.8886575943
 20
129.3514939867
 10
69.6724684535
 20
129.0511319308
 10
69.4675232988
 20
128.7429292568
 10
69.2740658535
 20
128.4272346873
 10
69.0924121317
 20
128.104545489
 10
68.9229026201
 20
127.7754799118
 10
68.7661609076
 20
127.4414059813
 10
68.6219130849
 20
127.1019082509
 10
68.4893924498
 20
126.7548305391
 10
68.3687770371
 20
126.3996719511
 10
68.2608610358
 20
126.0376881558
 10
68.1660766185
 20
125.6692758949
 10
68.0847636733
 20
125.2944210258
 10
68.0174702887
 20
124.9140718014
 10
67.964765054
 20
124.5301362644
 10
67.9269098242
 20
124.143636983
 10
67.9040365647
 20
123.7546789858
 10
67.8963282779
 20
123.3638430864
  0
LINE
  5
281
100
AcDbEntity
  8
RACCORDO
100
AcDbLine
 62
250
  6
CONTINUOUS
 10
196.8638430864
 20
133.3577513566
 11
77.8902365481
 21
133.3577513566
  0
LINE
  5
282
100
AcDbEntity
  8
RACCORDO
100
AcDbLine
 62
7
  6
CONTINUOUS
 10
196.883131547
 20
133.3770398172
 11
77.8709480874
 21
133.3770398172
  0
LWPOLYLINE
  5
283
100
AcDbEntity
  8
0
100
AcDbPolyline
 62
7
  6
CONTINUOUS
 90
6
 70
0
 43
0.3500000006
 10
135.9841799927
 20
144.1270308838
 10
137.0556114807
 20
144.1270308838
 10
137.2698959656
 20
144.3413334961
 10
137.2698959656
 20
145.4127559204
 10
136.8413269958
 20
145.8413248901
 10
136.4127580261
 20
145.8413248901
  0
LWPOLYLINE
  5
284
100
AcDbEntity
  8
0
100
AcDbPolyline
 62
7
  6
CONTINUOUS
 90
10
 70
0
 43
0.3500000006
 10
216.127048645
 20
94.3056071777
 10
215.2698925781
 20
95.1627541809
 10
214.4127546387
 20
95.3770386658
 10
213.5556166992
 20
95.3770386658
 10
213.1270477295
 20
94.948469696
 10
213.1270477295
 20
94.3056071777
 10
213.5556166992
 20
93.877038208
 10
214.4127546387
 20
93.877038208
 10
214.8413236084
 20
94.3056071777
 10
214.8413236084
 20
95.2341853638
  0
LINE
  5
285
100
AcDbEntity
  8
RACCORDO
100
AcDbLine
 62
250
  6
CONTINUOUS
 10
196.8638430864
 20
55.8954145184
 11
196.8638430864
 21
54.3963282779
  0
LINE
  5
286
100
AcDbEntity
  8
RACCORDO
100
AcDbLine
 62
250
  6
CONTINUOUS
 10
196.8638430864
 20
131.858665116
 11
196.8638430864
 21
133.3577513566
  0
LWPOLYLINE
  5
287
100
AcDbEntity
  8
RACCORDO
100
AcDbPolyline
 62
250
  6
CONTINUOUS
 90
43
 70
0
 10
205.358665116
 20
123.3638430864
 10
205.3519758332
 20
123.6885772156
 10
205.3337390895
 20
124.0096029868
 10
205.3039548848
 20
124.3269204001
 10
205.2625616854
 20
124.6401324892
 10
205.209621025
 20
124.9496362204
 10
205.1453175049
 20
125.2566224921
 10
205.069586031
 20
125.5619404189
 10
204.9824916973
 20
125.8647408863
 10
204.8844143879
 20
126.1636674495
 10
204.7753186964
 20
126.4586564732
 10
204.6552400291
 20
126.7497715928
 10
204.5246644884
 20
127.0358472693
 10
204.3835463973
 20
127.3168726874
 10
204.2319314328
 20
127.5928586626
 10
204.0704427292
 20
127.8626721018
 10
203.8990405831
 20
128.1262863478
 10
203.7177646978
 20
128.3837280579
 10
203.5273573174
 20
128.6339441105
 10
203.3277818878
 20
128.8769045217
 10
203.1190749631
 20
129.1126392754
 10
202.9020884493
 20
129.3401852019
 10
202.6767857465
 20
129.5595112025
 10
202.4432034545
 20
129.7706483758
 10
202.2023032795
 20
129.9727268476
 10
201.9540684005
 20
130.1657019575
 10
201.6985156384
 20
130.3496183659
 10
201.4366571617
 20
130.5237401787
 10
201.1684042151
 20
130.6880561005
 10
200.8938455538
 20
130.8425774268
 10
200.6142596127
 20
130.98660215
 10
200.3304410971
 20
131.1198674871
 10
200.0415953016
 20
131.2426362212
 10
199.7466165453
 20
131.3549946937
 10
199.4447798913
 20
131.4573434824
 10
199.1368102764
 20
131.5492820096
 10
198.8237768299
 20
131.6296948837
 10
198.5052037377
 20
131.6985524377
 10
198.1815668139
 20
131.7558843385
 10
197.8553626297
 20
131.8006641958
 10
197.5274233756
 20
131.8325498794
 10
197.1969168612
 20
131.8518835195
 10
196.8638430864
 20
131.858665116
  0
LINE
  5
288
100
AcDbEntity
  8
RACCORDO
100
AcDbLine
 62
250
  6
CONTINUOUS
 10
205.358665116
 20
64.3902365481
 11
205.358665116
 21
123.3638430864
  0
LINE
  5
289
100
AcDbEntity
  8
RACCORDO
100
AcDbLine
 62
250
  6
CONTINUOUS
 10
206.8577513566
 20
64.3902365481
 11
206.8577513566
 21
123.3638430864
  0
LINE
  5
28A
100
AcDbEntity
  8
RACCORDO
100
AcDbLine
 62
7
  6
CONTINUOUS
 10
206.8770398172
 20
64.3709480874
 11
206.8770398172
 21
123.383131547
  0
LWPOLYLINE
  5
28B
100
AcDbEntity
  8
RACCORDO
100
AcDbPolyline
 62
250
  6
CONTINUOUS
 90
43
 70
0
 10
206.8577513566
 20
123.3638430864
 10
206.8504186742
 20
123.744986865
 10
206.8287827272
 20
124.1227732427
 10
206.7931913786
 20
124.4966802171
 10
206.7441540858
 20
124.8652551259
 10
206.6819737705
 20
125.228994058
 10
206.6063936328
 20
125.5902818542
 10
206.5172438091
 20
125.9496035027
 10
206.414824541
 20
126.3054687643
 10
206.2993100809
 20
126.6572548589
 10
206.1708835401
 20
127.0044275796
 10
206.029707886
 20
127.3465680018
 10
205.8759648983
 20
127.6832387581
 10
205.7098597657
 20
128.0139896867
 10
205.5316251931
 20
128.3383570248
 10
205.3415063695
 20
128.6558938666
 10
205.1397651195
 20
128.9661641072
 10
204.9266773915
 20
129.2687448156
 10
204.7025333696
 20
129.5632237144
 10
204.4676407451
 20
129.8491968129
 10
204.2223208346
 20
130.1262734579
 10
203.9669055538
 20
130.3940782039
 10
203.7017411264
 20
130.6522467429
 10
203.4271932979
 20
130.9004220073
 10
203.143643319
 20
131.1382592814
 10
202.8514939867
 20
131.3654220402
 10
202.5511319308
 20
131.581611181
 10
202.2429292568
 20
131.7865563356
 10
201.9272346873
 20
131.980013781
 10
201.604545489
 20
132.1616675028
 10
201.2754799118
 20
132.3311770144
 10
200.9414059813
 20
132.4879187269
 10
200.6019082509
 20
132.6321665496
 10
200.2548305391
 20
132.7646871847
 10
199.8996719511
 20
132.8853025974
 10
199.5376881558
 20
132.9932185987
 10
199.1692758949
 20
133.088003016
 10
198.7944210258
 20
133.1693159612
 10
198.4140718014
 20
133.2366093458
 10
198.0301362644
 20
133.2893145805
 10
197.643636983
 20
133.3271698103
 10
197.2546789858
 20
133.3500430698
 10
196.8638430864
 20
133.3577513566
  0
LWPOLYLINE
  5
28C
100
AcDbEntity
  8
0
100
AcDbPolyline
 62
7
  6
CONTINUOUS
 90
3
 70
0
 43
0.3500000006
 10
18.8941030197
 20
154.2698963013
 10
19.751245491
 20
155.1270342407
 10
19.751245491
 20
152.1270333252
  0
LWPOLYLINE
  5
28D
100
AcDbEntity
  8
0
100
AcDbPolyline
 62
7
  6
CONTINUOUS
 90
10
 70
0
 43
0.3500000006
 10
40.7746838837
 20
171.1270391235
 10
40.1318258972
 20
170.4841856689
 10
39.7032569275
 20
169.6270477295
 10
39.7032569275
 20
168.5556071777
 10
40.1318258972
 20
168.127038208
 10
40.7746838837
 20
168.127038208
 10
41.2032573853
 20
168.5556071777
 10
41.2032573853
 20
169.4127451172
 10
40.7746838837
 20
169.8413322144
 10
39.8461147614
 20
169.8413322144
  0
LWPOLYLINE
  5
28E
100
AcDbEntity
  8
0
100
AcDbPolyline
 62
7
  6
CONTINUOUS
 90
5
 70
0
 43
0.3500000006
 10
21.4655326996
 20
153.8413273315
 10
21.8226750183
 20
154.0556118164
 10
21.8226750183
 20
154.698465271
 10
21.4655326996
 20
155.1270342407
 10
20.6083902283
 20
155.1270342407
  0
LINE
  5
28F
100
AcDbEntity
  8
RACCORDO
100
AcDbLine
 62
7
  6
CONTINUOUS
 10
29.7866204119
 20
54.3963282779
 11
30.338969657
 21
54.3770398172
  0
LWPOLYLINE
  5
290
100
AcDbEntity
  8
0
100
AcDbPolyline
 62
7
  6
CONTINUOUS
 90
3
 70
0
 43
0.3500000006
 10
23.465531044
 20
152.4127580566
 10
23.394104393
 20
152.1984735718
 10
23.2512465591
 20
151.9127488403
  0
LINE
  5
291
100
AcDbEntity
  8
DRAFT
100
AcDbLine
 62
7
  6
CONTINUOUS
 10
36.338969657
 20
65.9992625105
 11
32.838969657
 21
65.8770398172
  0
LINE
  5
292
100
AcDbEntity
  8
RACCORDO
100
AcDbLine
 62
250
  6
CONTINUOUS
 10
28.338969657
 20
64.3902365481
 11
29.7866204119
 21
64.3902365481
  0
LINE
  5
293
100
AcDbEntity
  8
RACCORDO
100
AcDbLine
 62
250
  6
CONTINUOUS
 10
29.7866204119
 20
64.3902365481
 11
30.338969657
 21
64.3709480874
  0
LINE
  5
294
100
AcDbEntity
  8
RACCORDO
100
AcDbLine
 62
7
  6
CONTINUOUS
 10
32.838969657
 20
65.8770398172
 11
30.628499808
 21
65.9542311253
  0
LWPOLYLINE
  5
295
100
AcDbEntity
  8
0
100
AcDbPolyline
 62
7
  6
CONTINUOUS
 90
3
 70
0
 43
0.3500000006
 10
42.774684494
 20
168.4127629395
 10
42.7032533112
 20
168.1984603271
 10
42.5604000092
 20
167.9127537231
  0
LWPOLYLINE
  5
296
100
AcDbEntity
  8
RACCORDO
100
AcDbPolyline
 62
250
  6
CONTINUOUS
 90
6
 70
0
 10
29.7866204119
 20
54.3963282779
 10
29.7846730748
 20
54.4036609602
 10
29.7828096884
 20
54.4252969073
 10
29.7810363339
 20
54.4608882558
 10
29.7793699205
 20
54.5099255487
 10
29.7777985744
 20
54.572105864
  0
LWPOLYLINE
  5
297
100
AcDbEntity
  8
0
100
AcDbPolyline
 62
7
  6
CONTINUOUS
 90
3
 70
0
 43
0.3500000006
 10
43.7746847992
 20
160.412760498
 10
43.7032536163
 20
160.1984760132
 10
43.5604003143
 20
159.9127512817
  0
LINE
  5
298
100
AcDbEntity
  8
DRAFT
100
AcDbLine
 62
250
  6
CONTINUOUS
 10
36.338969657
 20
75.3770398172
 11
32.838969657
 21
75.3770398172
  0
LINE
  5
299
100
AcDbEntity
  8
RACCORDO
100
AcDbLine
 62
250
  6
CONTINUOUS
 10
32.838969657
 20
75.3770398172
 11
30.338969657
 21
75.3770398172
  0
LWPOLYLINE
  5
29A
100
AcDbEntity
  8
RACCORDO
100
AcDbPolyline
 62
250
  6
CONTINUOUS
 90
11
 70
0
 10
30.628499808
 20
103.2998485092
 10
30.6277664049
 20
103.2984841995
 10
30.6270917585
 20
103.294471017
 10
30.6264807251
 20
103.2878590842
 10
30.625939853
 20
103.2787298337
 10
30.6254698755
 20
103.2671493889
 10
30.6250677175
 20
103.2531248897
 10
30.6247361381
 20
103.2366651843
 10
30.6244806033
 20
103.2178843156
 10
30.624301585
 20
103.1969534903
 10
30.6241737469
 20
103.1493664357
  0
LINE
  5
29B
100
AcDbEntity
  8
RACCORDO
100
AcDbLine
 62
250
  6
CONTINUOUS
 10
30.626266112
 20
102.9220826131
 11
30.628499808
 21
102.8001530957
  0
LINE
  5
29C
100
AcDbEntity
  8
RACCORDO
100
AcDbLine
 62
250
  6
CONTINUOUS
 10
29.7777985744
 20
54.572105864
 11
29.7748788024
 21
54.7368358253
  0
LINE
  5
29D
100
AcDbEntity
  8
RACCORDO
100
AcDbLine
 62
250
  6
CONTINUOUS
 10
30.6248498015
 20
103.031402095
 11
30.626266112
 21
102.9220826131
  0
LWPOLYLINE
  5
29E
100
AcDbEntity
  8
RACCORDO
100
AcDbPolyline
 62
250
  6
CONTINUOUS
 90
9
 70
0
 10
30.624355267
 20
84.5497150749
 10
30.6245634939
 20
84.529392265
 10
30.624852722
 20
84.5109595823
 10
30.6252317435
 20
84.4945813931
 10
30.625703721
 20
84.4806371427
 10
30.6262667312
 20
84.4694086458
 10
30.6269200004
 20
84.461128668
 10
30.6276649617
 20
84.4560022817
 10
30.628499808
 20
84.4542311253
  0
LINE
  5
29F
100
AcDbEntity
  8
RACCORDO
100
AcDbLine
 62
250
  6
CONTINUOUS
 10
29.7748788024
 20
54.7368358253
 11
29.7711767248
 21
55.0831960944
  0
LINE
  5
2A0
100
AcDbEntity
  8
RACCORDO
100
AcDbLine
 62
250
  6
CONTINUOUS
 10
30.6243526326
 20
103.0941078057
 11
30.6248498015
 21
103.031402095
  0
LINE
  5
2A1
100
AcDbEntity
  8
RACCORDO
100
AcDbLine
 62
250
  6
CONTINUOUS
 10
29.7866204119
 20
123.3638430864
 11
29.7777985744
 21
125.228994058
  0
LINE
  5
2A2
100
AcDbEntity
  8
RACCORDO
100
AcDbLine
 62
250
  6
CONTINUOUS
 10
29.7711767248
 20
55.0831960944
 11
29.7675499731
 21
55.7224544414
  0
LINE
  5
2A3
100
AcDbEntity
  8
RACCORDO
100
AcDbLine
 62
250
  6
CONTINUOUS
 10
29.7777985744
 20
125.228994058
 11
29.7711767248
 21
127.0044275796
  0
LINE
  5
2A4
100
AcDbEntity
  8
RACCORDO
100
AcDbLine
 62
250
  6
CONTINUOUS
 10
29.7711767248
 20
127.0044275796
 11
29.766883223
 21
128.6558938666
  0
LINE
  5
2A5
100
AcDbEntity
  8
RACCORDO
100
AcDbLine
 62
250
  6
CONTINUOUS
 10
30.6241737729
 20
84.596329927
 11
30.624355267
 21
84.5497150749
  0
LINE
  5
2A6
100
AcDbEntity
  8
RACCORDO
100
AcDbLine
 62
250
  6
CONTINUOUS
 10
30.6241737469
 20
103.1493664357
 11
30.6243526326
 21
103.0941078057
  0
LINE
  5
2A7
100
AcDbEntity
  8
RACCORDO
100
AcDbLine
 62
250
  6
CONTINUOUS
 10
29.7675499731
 20
55.7224544414
 11
29.765480446
 21
56.5515462649
  0
LINE
  5
2A8
100
AcDbEntity
  8
RACCORDO
100
AcDbLine
 62
250
  6
CONTINUOUS
 10
29.766883223
 20
128.6558938666
 11
29.7650465765
 21
130.1262734579
  0
LINE
  5
2A9
100
AcDbEntity
  8
RACCORDO
100
AcDbLine
 62
7
  6
CONTINUOUS
 10
28.338969657
 20
55.8954145184
 11
28.338969657
 21
131.858665116
  0
LINE
  5
2AA
100
AcDbEntity
  8
RACCORDO
100
AcDbLine
 62
250
  6
CONTINUOUS
 10
29.7866204119
 20
64.3902365481
 11
29.7866204119
 21
123.3638430864
  0
LINE
  5
2AB
100
AcDbEntity
  8
RACCORDO
100
AcDbLine
 62
7
  6
CONTINUOUS
 10
30.338969657
 20
54.3770398172
 11
30.338969657
 21
133.3770398172
  0
LINE
  5
2AC
100
AcDbEntity
  8
RACCORDO
100
AcDbLine
 62
250
  6
CONTINUOUS
 10
30.628499808
 20
121.7998485092
 11
30.628499808
 21
103.2998485092
  0
LINE
  5
2AD
100
AcDbEntity
  8
RACCORDO
100
AcDbLine
 62
250
  6
CONTINUOUS
 10
30.628499808
 20
102.8001530957
 11
30.628499808
 21
84.9539265388
  0
LINE
  5
2AE
100
AcDbEntity
  8
RACCORDO
100
AcDbLine
 62
250
  6
CONTINUOUS
 10
30.628499808
 20
84.4542311253
 11
30.628499808
 21
65.9542311253
  0
LINE
  5
2AF
100
AcDbEntity
  8
RACCORDO
100
AcDbLine
 62
250
  6
CONTINUOUS
 10
29.765480446
 20
56.5515462649
 11
29.7651554097
 21
57.8268863365
  0
LINE
  5
2B0
100
AcDbEntity
  8
RACCORDO
100
AcDbLine
 62
250
  6
CONTINUOUS
 10
29.7650465765
 20
130.1262734579
 11
29.7653960488
 21
131.1382592814
  0
LINE
  5
2B1
100
AcDbEntity
  8
RACCORDO
100
AcDbLine
 62
250
  6
CONTINUOUS
 10
29.7651554097
 20
57.8268863365
 11
29.7673545552
 21
59.3268449472
  0
LINE
  5
2B2
100
AcDbEntity
  8
RACCORDO
100
AcDbLine
 62
250
  6
CONTINUOUS
 10
29.7653960488
 20
131.1382592814
 11
29.7673545552
 21
131.980013781
  0
LINE
  5
2B3
100
AcDbEntity
  8
RACCORDO
100
AcDbLine
 62
250
  6
CONTINUOUS
 10
29.7673545552
 20
59.3268449472
 11
29.771994904
 21
60.9992490954
  0
LINE
  5
2B4
100
AcDbEntity
  8
RACCORDO
100
AcDbLine
 62
250
  6
CONTINUOUS
 10
30.6242997276
 20
84.6500866949
 11
30.6241737729
 21
84.596329927
  0
LINE
  5
2B5
100
AcDbEntity
  8
RACCORDO
100
AcDbLine
 62
250
  6
CONTINUOUS
 10
29.771994904
 20
60.9992490954
 11
29.7791424154
 21
62.8400078331
  0
LINE
  5
2B6
100
AcDbEntity
  8
RACCORDO
100
AcDbLine
 62
250
  6
CONTINUOUS
 10
29.7791424154
 20
62.8400078331
 11
29.7866204119
 21
64.3902365481
  0
LINE
  5
2B7
100
AcDbEntity
  8
RACCORDO
100
AcDbLine
 62
250
  6
CONTINUOUS
 10
29.7673545552
 20
131.980013781
 11
29.7708796439
 21
132.6321665496
  0
LINE
  5
2B8
100
AcDbEntity
  8
RACCORDO
100
AcDbLine
 62
250
  6
CONTINUOUS
 10
30.6250635554
 20
84.7428751366
 11
30.6242997276
 21
84.6500866949
  0
LINE
  5
2B9
100
AcDbEntity
  8
RACCORDO
100
AcDbLine
 62
250
  6
CONTINUOUS
 10
29.7708796439
 20
132.6321665496
 11
29.7745472826
 21
132.9932185987
  0
LINE
  5
2BA
100
AcDbEntity
  8
RACCORDO
100
AcDbLine
 62
250
  6
CONTINUOUS
 10
30.6264743751
 20
84.8450656021
 11
30.6250635554
 21
84.7428751366
  0
LWPOLYLINE
  5
2BB
100
AcDbEntity
  8
RACCORDO
100
AcDbPolyline
 62
250
  6
CONTINUOUS
 90
7
 70
0
 10
29.7745472826
 20
132.9932185987
 10
29.7775097751
 20
133.1693159612
 10
29.7791424154
 20
133.2366093458
 10
29.7808817161
 20
133.2893145805
 10
29.7827182089
 20
133.3271698103
 10
29.7846357382
 20
133.3500430698
 10
29.7866204119
 20
133.3577513566
  0
LINE
  5
2BC
100
AcDbEntity
  8
RACCORDO
100
AcDbLine
 62
250
  6
CONTINUOUS
 10
30.628499808
 20
84.9539265388
 11
30.6264743751
 21
84.8450656021
  0
LINE
  5
2BD
100
AcDbEntity
  8
0
100
AcDbLine
 62
7
  6
CONTINUOUS
 10
32.881104699
 20
93.5833313468
 11
32.9000676839
 21
93.406294204
  0
LINE
  5
2BE
100
AcDbEntity
  8
0
100
AcDbLine
 62
7
  6
CONTINUOUS
 10
33.4811462859
 20
94.1668320274
 11
33.4584298903
 21
94.3780248979
  0
LINE
  5
2BF
100
AcDbEntity
  8
0
100
AcDbLine
 62
7
  6
CONTINUOUS
 10
33.5581217795
 20
93.4243182394
 11
33.5298230682
 21
93.6922881865
  0
LINE
  5
2C0
100
AcDbEntity
  8
0
100
AcDbLine
 62
7
  6
CONTINUOUS
 10
32.8052912878
 20
94.3153390238
 11
32.8337140274
 21
94.045304544
  0
LINE
  5
2C1
100
AcDbEntity
  8
0
100
AcDbLine
 62
7
  6
CONTINUOUS
 10
32.8337140274
 20
94.045304544
 11
32.881104699
 21
93.5833313468
  0
LINE
  5
2C2
100
AcDbEntity
  8
0
100
AcDbLine
 62
7
  6
CONTINUOUS
 10
33.5298230682
 20
93.6922881865
 11
33.4811462859
 21
94.1668320274
  0
LWPOLYLINE
  5
2C3
100
AcDbEntity
  8
0
100
AcDbPolyline
 62
7
  6
CONTINUOUS
 90
12
 70
0
 10
33.2158832372
 20
92.8033079236
 10
33.2248338545
 20
92.7102339936
 10
33.2337844718
 20
92.6229238354
 10
33.2427350891
 20
92.541808742
 10
33.2516857064
 20
92.4672894038
 10
33.2606363237
 20
92.3997339295
 10
33.269586941
 20
92.339476028
 10
33.2785375582
 20
92.2868133596
 10
33.2874881755
 20
92.2420060656
 10
33.2964387928
 20
92.2052754837
 10
33.3053894101
 20
92.1768030543
 10
33.3148248749
 20
92.1558839845
  0
LWPOLYLINE
  5
2C4
100
AcDbEntity
  8
0
100
AcDbPolyline
 62
7
  6
CONTINUOUS
 90
14
 70
0
 10
33.3158832372
 20
92.8033079236
 10
33.3248338545
 20
92.7102339936
 10
33.3337844718
 20
92.6229238354
 10
33.3427350891
 20
92.541808742
 10
33.3516857064
 20
92.4672894038
 10
33.3606363237
 20
92.3997339295
 10
33.369586941
 20
92.339476028
 10
33.3785375582
 20
92.2868133596
 10
33.3874881755
 20
92.2420060656
 10
33.3964387928
 20
92.2052754837
 10
33.4053894101
 20
92.1768030543
 10
33.4143400274
 20
92.1567294242
 10
33.4232906447
 20
92.1451537521
 10
33.4309201187
 20
92.1420398187
  0
LINE
  5
2C5
100
AcDbEntity
  8
0
100
AcDbLine
 62
7
  6
CONTINUOUS
 10
33.0458215089
 20
94.9522270655
 11
33.0637227434
 21
94.7507995295
  0
LINE
  5
2C6
100
AcDbEntity
  8
0
100
AcDbLine
 62
7
  6
CONTINUOUS
 10
33.1458215089
 20
94.9522270655
 11
33.1637227434
 21
94.7507995295
  0
LINE
  5
2C7
100
AcDbEntity
  8
0
100
AcDbLine
 62
7
  6
CONTINUOUS
 10
33.1979820027
 20
93.0048818403
 11
33.2158832372
 21
92.8033079236
  0
LINE
  5
2C8
100
AcDbEntity
  8
0
100
AcDbLine
 62
7
  6
CONTINUOUS
 10
33.2979820027
 20
93.0048818403
 11
33.3158832372
 21
92.8033079236
  0
LINE
  5
2C9
100
AcDbEntity
  8
0
100
AcDbLine
 62
7
  6
CONTINUOUS
 10
33.1800807681
 20
93.2236675806
 11
33.1979820027
 21
93.0048818403
  0
LINE
  5
2CA
100
AcDbEntity
  8
0
100
AcDbLine
 62
7
  6
CONTINUOUS
 10
33.0637227434
 20
94.7507995295
 11
33.081623978
 21
94.5321285704
  0
LINE
  5
2CB
100
AcDbEntity
  8
0
100
AcDbLine
 62
7
  6
CONTINUOUS
 10
33.2800807681
 20
93.2236675806
 11
33.2979820027
 21
93.0048818403
  0
LINE
  5
2CC
100
AcDbEntity
  8
0
100
AcDbLine
 62
7
  6
CONTINUOUS
 10
33.1637227434
 20
94.7507995295
 11
33.181623978
 21
94.5321285704
  0
LINE
  5
2CD
100
AcDbEntity
  8
0
100
AcDbLine
 62
7
  6
CONTINUOUS
 10
33.144278299
 20
93.6953493601
 11
33.1800807681
 21
93.2236675806
  0
LINE
  5
2CE
100
AcDbEntity
  8
0
100
AcDbLine
 62
7
  6
CONTINUOUS
 10
33.081623978
 20
94.5321285704
 11
33.1174264471
 21
94.0605731972
  0
LINE
  5
2CF
100
AcDbEntity
  8
0
100
AcDbLine
 62
7
  6
CONTINUOUS
 10
33.244278299
 20
93.6953493601
 11
33.2800807681
 21
93.2236675806
  0
LINE
  5
2D0
100
AcDbEntity
  8
0
100
AcDbLine
 62
7
  6
CONTINUOUS
 10
33.181623978
 20
94.5321285704
 11
33.2174264471
 21
94.0605731972
  0
LINE
  5
2D1
100
AcDbEntity
  8
0
100
AcDbLine
 62
7
  6
CONTINUOUS
 10
33.1174264471
 20
94.0605731972
 11
33.144278299
 21
93.6953493601
  0
LINE
  5
2D2
100
AcDbEntity
  8
0
100
AcDbLine
 62
7
  6
CONTINUOUS
 10
33.2174264471
 20
94.0605731972
 11
33.244278299
 21
93.6953493601
  0
LWPOLYLINE
  5
2D3
100
AcDbEntity
  8
RACCORDO
100
AcDbPolyline
 62
250
  6
CONTINUOUS
 90
5
 70
0
 10
32.8269275292
 20
102.458384168
 10
32.8259588019
 20
102.4805882189
 10
32.8250561582
 20
102.5049928408
 10
32.8242294922
 20
102.5313305758
 10
32.8234878658
 20
102.5593127656
  0
LINE
  5
2D4
100
AcDbEntity
  8
RACCORDO
100
AcDbLine
 62
250
  6
CONTINUOUS
 10
32.8234878658
 20
102.5593127656
 11
32.822291229
 21
102.6189691489
  0
LINE
  5
2D5
100
AcDbEntity
  8
RACCORDO
100
AcDbLine
 62
250
  6
CONTINUOUS
 10
32.822291229
 20
102.6189691489
 11
32.8215185787
 21
102.6813537501
  0
LINE
  5
2D6
100
AcDbEntity
  8
RACCORDO
100
AcDbLine
 62
7
  6
CONTINUOUS
 10
32.8415876177
 20
102.3814260977
 11
32.838969657
 21
102.6815060436
  0
LINE
  5
2D7
100
AcDbEntity
  8
RACCORDO
100
AcDbLine
 62
250
  6
CONTINUOUS
 10
32.8333773588
 20
85.4028771304
 11
32.8330095291
 21
85.4397118993
  0
LINE
  5
2D8
100
AcDbEntity
  8
RACCORDO
100
AcDbLine
 62
250
  6
CONTINUOUS
 10
32.8346063893
 20
101.8813842119
 11
32.8330095291
 21
102.1313637021
  0
LINE
  5
2D9
100
AcDbEntity
  8
RACCORDO
100
AcDbLine
 62
250
  6
CONTINUOUS
 10
32.8330095291
 20
85.4397118993
 11
32.8327992995
 21
85.5191689549
  0
LINE
  5
2DA
100
AcDbEntity
  8
RACCORDO
100
AcDbLine
 62
250
  6
CONTINUOUS
 10
32.028499808
 20
85.8726954225
 11
32.028499808
 21
101.8813842119
  0
LINE
  5
2DB
100
AcDbEntity
  8
RACCORDO
100
AcDbLine
 62
7
  6
CONTINUOUS
 10
32.338969657
 20
85.8726954225
 11
32.338969657
 21
101.8813842119
  0
LINE
  5
2DC
100
AcDbEntity
  8
0
100
AcDbLine
 62
7
  6
CONTINUOUS
 10
32.6234996032
 20
92.4270398172
 11
32.6234996032
 21
95.3270398172
  0
LINE
  5
2DD
100
AcDbEntity
  8
0
100
AcDbLine
 62
7
  6
CONTINUOUS
 10
32.7389622167
 20
95.1270527042
 11
32.738969657
 21
92.6270398172
  0
LINE
  5
2DE
100
AcDbEntity
  8
RACCORDO
100
AcDbLine
 62
250
  6
CONTINUOUS
 10
32.8346063893
 20
101.8813842119
 11
32.8346063893
 21
95.2927132704
  0
LINE
  5
2DF
100
AcDbEntity
  8
RACCORDO
100
AcDbLine
 62
250
  6
CONTINUOUS
 10
32.8346063893
 20
92.6270398172
 11
32.8346063893
 21
85.8726954225
  0
LINE
  5
2E0
100
AcDbEntity
  8
RACCORDO
100
AcDbLine
 62
7
  6
CONTINUOUS
 10
32.838969657
 20
85.0727563288
 11
32.838969657
 21
84.3770398172
  0
LINE
  5
2E1
100
AcDbEntity
  8
DRAFT
100
AcDbLine
 62
7
  6
CONTINUOUS
 10
32.838969657
 20
65.8770398172
 11
32.838969657
 21
84.3770398172
  0
LINE
  5
2E2
100
AcDbEntity
  8
RACCORDO
100
AcDbLine
 62
7
  6
CONTINUOUS
 10
32.838969657
 20
102.6813233057
 11
32.838969657
 21
103.3770398172
  0
LINE
  5
2E3
100
AcDbEntity
  8
DRAFT
100
AcDbLine
 62
7
  6
CONTINUOUS
 10
32.838969657
 20
103.3770398172
 11
32.838969657
 21
121.8770398172
  0
LINE
  5
2E4
100
AcDbEntity
  8
RACCORDO
100
AcDbLine
 62
250
  6
CONTINUOUS
 10
32.8330095291
 20
102.1313637021
 11
32.8328227773
 21
102.2643782533
  0
LINE
  5
2E5
100
AcDbEntity
  8
RACCORDO
100
AcDbLine
 62
250
  6
CONTINUOUS
 10
32.8327992995
 20
85.5191689549
 11
32.8331713819
 21
85.6614039225
  0
LINE
  5
2E6
100
AcDbEntity
  8
RACCORDO
100
AcDbLine
 62
250
  6
CONTINUOUS
 10
32.8328227773
 20
102.2643782533
 11
32.8330095291
 21
102.3143677351
  0
LINE
  5
2E7
100
AcDbEntity
  8
RACCORDO
100
AcDbLine
 62
250
  6
CONTINUOUS
 10
32.8331713819
 20
85.6614039225
 11
32.8346063893
 21
85.8726954225
  0
LINE
  5
2E8
100
AcDbEntity
  8
RACCORDO
100
AcDbLine
 62
7
  6
CONTINUOUS
 10
32.8415876177
 20
85.3726535367
 11
32.838969657
 21
85.0727563288
  0
LWPOLYLINE
  5
2E9
100
AcDbEntity
  8
RACCORDO
100
AcDbPolyline
 62
250
  6
CONTINUOUS
 90
6
 70
0
 10
32.8330095291
 20
102.3143677351
 10
32.8333773588
 20
102.3512025041
 10
32.8336258924
 20
102.3643205237
 10
32.8339150912
 20
102.3737634625
 10
32.8342427547
 20
102.379459461
 10
32.8346063893
 20
102.3813651735
  0
LINE
  5
2EA
100
AcDbEntity
  8
RACCORDO
100
AcDbLine
 62
250
  6
CONTINUOUS
 10
32.8215185796
 20
85.0727258841
 11
32.8222912245
 21
85.1351101579
  0
LWPOLYLINE
  5
2EB
100
AcDbEntity
  8
RACCORDO
100
AcDbPolyline
 62
250
  6
CONTINUOUS
 90
13
 70
0
 10
32.8222912245
 20
85.1351101579
 10
32.8234878544
 20
85.1947663665
 10
32.8242294777
 20
85.2227485286
 10
32.8250561411
 20
85.2490862696
 10
32.8259587831
 20
85.2734909282
 10
32.8269275097
 20
85.2956950401
 10
32.8279517034
 20
85.3154552741
 10
32.8290201383
 20
85.3325550687
 10
32.8301211038
 20
85.3468070274
 10
32.8312425338
 20
85.358054976
 10
32.8323721376
 20
85.3661756508
 10
32.8334975342
 20
85.3710800585
 10
32.834606389
 20
85.372714461
  0
LINE
  5
2EC
100
AcDbEntity
  8
0
100
AcDbLine
 62
7
  6
CONTINUOUS
 10
32.7389622167
 20
95.1270527042
 11
32.9309205741
 21
95.4595343321
  0
LWPOLYLINE
  5
2ED
100
AcDbEntity
  8
0
100
AcDbPolyline
 62
7
  6
CONTINUOUS
 90
4
 70
0
 10
32.9309205741
 20
95.4595343321
 10
32.9334095514
 20
95.4635421865
 10
32.9411877425
 20
95.4721174958
 10
32.9482268306
 20
95.4746373215
  0
LINE
  5
2EE
100
AcDbEntity
  8
RACCORDO
100
AcDbLine
 62
7
  6
CONTINUOUS
 10
36.338969657
 20
84.4992625105
 11
32.838969657
 21
84.3770398172
  0
LINE
  5
2EF
100
AcDbEntity
  8
RACCORDO
100
AcDbLine
 62
250
  6
CONTINUOUS
 10
36.338969657
 20
84.998957924
 11
32.838969657
 21
84.8767352307
  0
LINE
  5
2F0
100
AcDbEntity
  8
RACCORDO
100
AcDbLine
 62
7
  6
CONTINUOUS
 10
41.838969657
 20
84.5515904665
 11
36.338969657
 21
84.4555876094
  0
LINE
  5
2F1
100
AcDbEntity
  8
RACCORDO
100
AcDbLine
 62
250
  6
CONTINUOUS
 10
41.838969657
 20
84.7515904677
 11
36.338969657
 21
84.6555876106
  0
LINE
  5
2F2
100
AcDbEntity
  8
RACCORDO
100
AcDbLine
 62
250
  6
CONTINUOUS
 10
30.628499808
 20
84.9539265388
 11
30.338969657
 21
84.9539265388
  0
LINE
  5
2F3
100
AcDbEntity
  8
RACCORDO
100
AcDbLine
 62
250
  6
CONTINUOUS
 10
36.338969657
 20
85.1770398172
 11
41.838969657
 21
85.1770398172
  0
LINE
  5
2F4
100
AcDbEntity
  8
RACCORDO
100
AcDbLine
 62
7
  6
CONTINUOUS
 10
41.838969657
 20
85.3770398172
 11
36.338969657
 21
85.3770398172
  0
LINE
  5
2F5
100
AcDbEntity
  8
RACCORDO
100
AcDbLine
 62
250
  6
CONTINUOUS
 10
41.838969657
 20
85.5770398172
 11
36.338969657
 21
85.5770398172
  0
LINE
  5
2F6
100
AcDbEntity
  8
RACCORDO
100
AcDbLine
 62
250
  6
CONTINUOUS
 10
32.028499808
 20
85.8726954225
 11
32.8346063893
 21
85.8726954225
  0
LINE
  5
2F7
100
AcDbEntity
  8
RACCORDO
100
AcDbLine
 62
250
  6
CONTINUOUS
 10
32.8215185796
 20
85.0727258841
 11
36.338969657
 21
85.0422122915
  0
LINE
  5
2F8
100
AcDbEntity
  8
RACCORDO
100
AcDbLine
 62
7
  6
CONTINUOUS
 10
32.8346063893
 20
85.372714461
 11
36.338969657
 21
85.3421323461
  0
LINE
  5
2F9
100
AcDbEntity
  8
RACCORDO
100
AcDbLine
 62
250
  6
CONTINUOUS
 10
32.8346063893
 20
85.8726954225
 11
36.338969657
 21
85.8421133076
  0
LINE
  5
2FA
100
AcDbEntity
  8
RACCORDO
100
AcDbLine
 62
7
  6
CONTINUOUS
 10
32.838969657
 20
84.3770398172
 11
30.628499808
 21
84.4542311253
  0
LINE
  5
2FB
100
AcDbEntity
  8
RACCORDO
100
AcDbLine
 62
250
  6
CONTINUOUS
 10
32.838969657
 20
84.8767352307
 11
30.628499808
 21
84.9539265388
  0
LWPOLYLINE
  5
2FC
100
AcDbEntity
  8
RACCORDO
100
AcDbPolyline
 62
250
  6
CONTINUOUS
 90
25
 70
0
 10
32.8215185796
 20
85.0727258841
 10
32.7689101406
 20
85.0750621401
 10
32.7172986225
 20
85.0805640312
 10
32.6666840253
 20
85.0892315572
 10
32.6169987953
 20
85.1011142043
 10
32.5683104863
 20
85.1161624864
 10
32.5208217589
 20
85.134227945
 10
32.4744007803
 20
85.1553611166
 10
32.4291793835
 20
85.1795114648
 10
32.385755728
 20
85.2063789213
 10
32.3441545061
 20
85.2360118797
 10
32.3043510257
 20
85.2683619464
 10
32.2668693692
 20
85.3029838724
 10
32.2317531518
 20
85.3399116173
 10
32.1989587584
 20
85.3791112215
 10
32.1688794268
 20
85.4200355574
 10
32.1416419036
 20
85.4623518326
 10
32.1171194422
 20
85.5063928395
 10
32.0953250404
 20
85.552609828
 10
32.0760176261
 20
85.6012944908
 10
32.0594382716
 20
85.6521551353
 10
32.046323191
 20
85.7047679335
 10
32.0369177893
 20
85.7589916095
 10
32.0309766616
 20
85.8149674392
 10
32.028499808
 20
85.8726954225
  0
LINE
  5
2FD
100
AcDbEntity
  8
0
100
AcDbLine
 62
7
  6
CONTINUOUS
 10
33.0286687153
 20
92.6460545513
 11
33.3148248749
 21
92.1558839845
  0
LWPOLYLINE
  5
2FE
100
AcDbEntity
  8
RACCORDO
100
AcDbPolyline
 62
250
  6
CONTINUOUS
 90
5
 70
0
 10
32.8346063893
 20
85.372714461
 10
32.8342427547
 20
85.3746201734
 10
32.8339150912
 20
85.3803161719
 10
32.8336258924
 20
85.3897591108
 10
32.8333773588
 20
85.4028771304
  0
LWPOLYLINE
  5
2FF
100
AcDbEntity
  8
0
100
AcDbPolyline
 62
7
  6
CONTINUOUS
 90
6
 70
0
 10
32.738969657
 20
94.8397809828
 10
32.7484419541
 20
94.7778599277
 10
32.7579150634
 20
94.7109494876
 10
32.767388985
 20
94.63941865
 10
32.7768640126
 20
94.5636597223
 10
32.7863398524
 20
94.4840931732
  0
LWPOLYLINE
  5
300
100
AcDbEntity
  8
0
100
AcDbPolyline
 62
7
  6
CONTINUOUS
 90
6
 70
0
 10
33.4358154975
 20
94.5724809273
 10
33.4283588452
 20
94.6320838415
 10
33.4209466808
 20
94.6887657552
 10
33.4135814785
 20
94.7423648499
 10
33.4062607641
 20
94.7927719751
 10
33.3989845376
 20
94.8398741539
  0
LWPOLYLINE
  5
301
100
AcDbEntity
  8
0
100
AcDbPolyline
 62
7
  6
CONTINUOUS
 90
13
 70
0
 10
32.9190307419
 20
93.2396790963
 10
32.9285123166
 20
93.1614438029
 10
32.9379939047
 20
93.0871749252
 10
32.9474753685
 20
93.0172851307
 10
32.9569568457
 20
92.9521607176
 10
32.9664387378
 20
92.8921602526
 10
32.9759212746
 20
92.8376157777
 10
32.9854042265
 20
92.7888319452
 10
32.9948873053
 20
92.7460812167
 10
33.0043705783
 20
92.709600643
 10
33.0138539784
 20
92.6795930866
 10
33.0233370158
 20
92.6562262374
 10
33.0286687153
 20
92.6460545513
  0
LWPOLYLINE
  5
302
100
AcDbEntity
  8
0
100
AcDbPolyline
 62
7
  6
CONTINUOUS
 90
3
 70
0
 10
33.4584298903
 20
94.3780248979
 10
33.4508510201
 20
94.4452655423
 10
33.4358154975
 20
94.5724809273
  0
LINE
  5
303
100
AcDbEntity
  8
0
100
AcDbLine
 62
7
  6
CONTINUOUS
 10
32.9000676839
 20
93.406294204
 11
32.9190307419
 21
93.2396790963
  0
LINE
  5
304
100
AcDbEntity
  8
0
100
AcDbLine
 62
7
  6
CONTINUOUS
 10
33.5769952807
 20
93.2572038034
 11
33.5581217795
 21
93.4243182394
  0
LINE
  5
305
100
AcDbEntity
  8
0
100
AcDbLine
 62
7
  6
CONTINUOUS
 10
32.7863398524
 20
94.4840931732
 11
32.8052912878
 21
94.3153390238
  0
LWPOLYLINE
  5
306
100
AcDbEntity
  8
0
100
AcDbPolyline
 62
7
  6
CONTINUOUS
 90
4
 70
0
 10
33.018969657
 20
95.2134538766
 10
33.0279202743
 20
95.1324360504
 10
33.0368708916
 20
95.0452168316
 10
33.0458215089
 20
94.9522270655
  0
LWPOLYLINE
  5
307
100
AcDbEntity
  8
0
100
AcDbPolyline
 62
7
  6
CONTINUOUS
 90
4
 70
0
 10
33.118969657
 20
95.2134538766
 10
33.1279202743
 20
95.1324360504
 10
33.1368708916
 20
95.0452168316
 10
33.1458215089
 20
94.9522270655
  0
LINE
  5
308
100
AcDbEntity
  8
0
100
AcDbLine
 62
7
  6
CONTINUOUS
 10
36.0023416078
 20
94.342338004
 11
36.0268413295
 21
94.1118846736
  0
LINE
  5
309
100
AcDbEntity
  8
0
100
AcDbLine
 62
7
  6
CONTINUOUS
 10
33.6698738726
 20
93.6915030084
 11
33.698590916
 21
93.4197540842
  0
LINE
  5
30A
100
AcDbEntity
  8
0
100
AcDbLine
 62
7
  6
CONTINUOUS
 10
33.6031221696
 20
94.3352136622
 11
33.6319298984
 21
94.0626399856
  0
LINE
  5
30B
100
AcDbEntity
  8
0
100
AcDbLine
 62
7
  6
CONTINUOUS
 10
34.3586206684
 20
93.4197540842
 11
34.3299036255
 21
93.6915030084
  0
LINE
  5
30C
100
AcDbEntity
  8
0
100
AcDbLine
 62
7
  6
CONTINUOUS
 10
34.2919596518
 20
94.0626399856
 11
34.2631519234
 21
94.3352136622
  0
LINE
  5
30D
100
AcDbEntity
  8
0
100
AcDbLine
 62
7
  6
CONTINUOUS
 10
34.4699141684
 20
93.691118664
 11
34.4988871062
 21
93.417055623
  0
LINE
  5
30E
100
AcDbEntity
  8
0
100
AcDbLine
 62
7
  6
CONTINUOUS
 10
34.4035891842
 20
94.330950928
 11
34.4319887278
 21
94.0620754926
  0
LINE
  5
30F
100
AcDbEntity
  8
0
100
AcDbLine
 62
7
  6
CONTINUOUS
 10
35.1589168489
 20
93.417055623
 11
35.1299439113
 21
93.691118664
  0
LINE
  5
310
100
AcDbEntity
  8
0
100
AcDbLine
 62
7
  6
CONTINUOUS
 10
35.092018471
 20
94.0620754926
 11
35.0636189277
 21
94.330950928
  0
LINE
  5
311
100
AcDbEntity
  8
0
100
AcDbLine
 62
7
  6
CONTINUOUS
 10
35.2699117207
 20
93.691146784
 11
35.2988796319
 21
93.4171276478
  0
LINE
  5
312
100
AcDbEntity
  8
0
100
AcDbLine
 62
7
  6
CONTINUOUS
 10
35.9589093766
 20
93.4171276478
 11
35.929941465
 21
93.691146784
  0
LINE
  5
313
100
AcDbEntity
  8
0
100
AcDbLine
 62
7
  6
CONTINUOUS
 10
36.0699572897
 20
93.6906953108
 11
36.0989955516
 21
93.4160607898
  0
LINE
  5
314
100
AcDbEntity
  8
0
100
AcDbLine
 62
7
  6
CONTINUOUS
 10
35.2037486726
 20
94.3294964254
 11
35.2321278591
 21
94.060729268
  0
LINE
  5
315
100
AcDbEntity
  8
0
100
AcDbLine
 62
7
  6
CONTINUOUS
 10
35.8921576028
 20
94.060729268
 11
35.863778416
 21
94.3294964254
  0
LINE
  5
316
100
AcDbEntity
  8
0
100
AcDbLine
 62
7
  6
CONTINUOUS
 10
33.6319298984
 20
94.0626399856
 11
33.6698738726
 21
93.6915030084
  0
LINE
  5
317
100
AcDbEntity
  8
0
100
AcDbLine
 62
7
  6
CONTINUOUS
 10
34.3299036255
 20
93.6915030084
 11
34.2919596518
 21
94.0626399856
  0
LINE
  5
318
100
AcDbEntity
  8
0
100
AcDbLine
 62
7
  6
CONTINUOUS
 10
34.4319887278
 20
94.0620754926
 11
34.4699141684
 21
93.691118664
  0
LINE
  5
319
100
AcDbEntity
  8
0
100
AcDbLine
 62
7
  6
CONTINUOUS
 10
35.1299439113
 20
93.691118664
 11
35.092018471
 21
94.0620754926
  0
LINE
  5
31A
100
AcDbEntity
  8
0
100
AcDbLine
 62
7
  6
CONTINUOUS
 10
35.2321278591
 20
94.060729268
 11
35.2699117207
 21
93.691146784
  0
LINE
  5
31B
100
AcDbEntity
  8
0
100
AcDbLine
 62
7
  6
CONTINUOUS
 10
35.929941465
 20
93.691146784
 11
35.8921576028
 21
94.060729268
  0
LINE
  5
31C
100
AcDbEntity
  8
0
100
AcDbLine
 62
7
  6
CONTINUOUS
 10
36.0268413295
 20
94.1118846736
 11
36.0699572897
 21
93.6906953108
  0
LWPOLYLINE
  5
31D
100
AcDbEntity
  8
0
100
AcDbPolyline
 62
7
  6
CONTINUOUS
 90
13
 70
0
 10
35.6146486693
 20
92.8165826184
 10
35.6235992866
 20
92.7227486795
 10
35.6325499039
 20
92.6346166768
 10
35.6415005212
 20
92.5526219628
 10
35.6504511385
 20
92.4771695734
 10
35.6594017558
 20
92.4086322269
 10
35.6683523731
 20
92.3473484829
 10
35.6773029903
 20
92.29362107
 10
35.6862536076
 20
92.2477153899
 10
35.6952042249
 20
92.2098582071
 10
35.7041548422
 20
92.1802365281
 10
35.7131054595
 20
92.1589966782
 10
35.7148258656
 20
92.1558840115
  0
LWPOLYLINE
  5
31E
100
AcDbEntity
  8
0
100
AcDbPolyline
 62
7
  6
CONTINUOUS
 90
14
 70
0
 10
35.7146486693
 20
92.8165826184
 10
35.7235992866
 20
92.7227486795
 10
35.7325499039
 20
92.6346166768
 10
35.7415005212
 20
92.5526219628
 10
35.7504511385
 20
92.4771695734
 10
35.7594017558
 20
92.4086322269
 10
35.7683523731
 20
92.3473484829
 10
35.7773029903
 20
92.29362107
 10
35.7862536076
 20
92.2477153899
 10
35.7952042249
 20
92.2098582071
 10
35.8041548422
 20
92.1802365281
 10
35.8131054595
 20
92.1589966782
 10
35.8220560768
 20
92.1462435779
 10
35.8309211229
 20
92.1420398336
  0
LWPOLYLINE
  5
31F
100
AcDbEntity
  8
0
100
AcDbPolyline
 62
7
  6
CONTINUOUS
 90
13
 70
0
 10
34.0124881755
 20
92.8400230739
 10
34.0214387928
 20
92.7448819757
 10
34.0303894101
 20
92.655333473
 10
34.0393400274
 20
92.5718199143
 10
34.0482906447
 20
92.4947538368
 10
34.0572412619
 20
92.4245159284
 10
34.0661918792
 20
92.3614531478
 10
34.0751424965
 20
92.3058770099
 10
34.0840931138
 20
92.2580620475
 10
34.0930437311
 20
92.2182444551
 10
34.1019943484
 20
92.1866209219
 10
34.1109449656
 20
92.1633476605
 10
34.1148248508
 20
92.1558840432
  0
LWPOLYLINE
  5
320
100
AcDbEntity
  8
0
100
AcDbPolyline
 62
7
  6
CONTINUOUS
 90
15
 70
0
 10
34.1124881755
 20
92.8400230739
 10
34.1214387928
 20
92.7448819757
 10
34.1303894101
 20
92.655333473
 10
34.1393400274
 20
92.5718199143
 10
34.1482906447
 20
92.4947538368
 10
34.1572412619
 20
92.4245159284
 10
34.1661918792
 20
92.3614531478
 10
34.1751424965
 20
92.3058770099
 10
34.1840931138
 20
92.2580620475
 10
34.1930437311
 20
92.2182444551
 10
34.2019943484
 20
92.1866209219
 10
34.2109449656
 20
92.1633476605
 10
34.2198955829
 20
92.1485396349
 10
34.2288462002
 20
92.1422699932
 10
34.2309201497
 20
92.1420398302
  0
LWPOLYLINE
  5
321
100
AcDbEntity
  8
0
100
AcDbPolyline
 62
7
  6
CONTINUOUS
 90
13
 70
0
 10
36.4112536076
 20
92.8535601604
 10
36.4202042249
 20
92.7576837275
 10
36.4291548422
 20
92.6673366731
 10
36.4381054595
 20
92.5829652914
 10
36.4470560768
 20
92.5049863583
 10
36.456006694
 20
92.433785072
 10
36.4649573113
 20
92.3697131508
 10
36.4739079286
 20
92.3130870953
 10
36.4828585459
 20
92.2641866251
 10
36.4918091632
 20
92.2232532973
 10
36.5007597805
 20
92.1904893128
 10
36.5097103977
 20
92.1660565178
 10
36.5148248195
 20
92.1558839899
  0
LWPOLYLINE
  5
322
100
AcDbEntity
  8
0
100
AcDbPolyline
 62
7
  6
CONTINUOUS
 90
13
 70
0
 10
34.8090931138
 20
92.8774854992
 10
34.8180437311
 20
92.7803442046
 10
34.8269943484
 20
92.6886203253
 10
34.8359449656
 20
92.6027669554
 10
34.8448955829
 20
92.5232081903
 10
34.8538462002
 20
92.4503370315
 10
34.8627968175
 20
92.3845134453
 10
34.8717474348
 20
92.3260625848
 10
34.8806980521
 20
92.2752731833
 10
34.8896486693
 20
92.2323961287
 10
34.8985992866
 20
92.1976432236
 10
34.9075499039
 20
92.1711861392
 10
34.9148256022
 20
92.1558840575
  0
LWPOLYLINE
  5
323
100
AcDbEntity
  8
0
100
AcDbPolyline
 62
7
  6
CONTINUOUS
 90
15
 70
0
 10
34.9090931138
 20
92.8774854992
 10
34.9180437311
 20
92.7803442046
 10
34.9269943484
 20
92.6886203253
 10
34.9359449656
 20
92.6027669554
 10
34.9448955829
 20
92.5232081903
 10
34.9538462002
 20
92.4503370315
 10
34.9627968175
 20
92.3845134453
 10
34.9717474348
 20
92.3260625848
 10
34.9806980521
 20
92.2752731833
 10
34.9896486693
 20
92.2323961287
 10
34.9985992866
 20
92.1976432236
 10
35.0075499039
 20
92.1711861392
 10
35.0165005212
 20
92.1531555674
 10
35.0254511385
 20
92.1436405752
 10
35.0309209055
 20
92.1420398405
  0
LINE
  5
324
100
AcDbEntity
  8
0
100
AcDbLine
 62
7
  6
CONTINUOUS
 10
35.444586941
 20
94.9653866554
 11
35.4624881755
 21
94.7653003647
  0
LINE
  5
325
100
AcDbEntity
  8
0
100
AcDbLine
 62
7
  6
CONTINUOUS
 10
35.544586941
 20
94.9653866554
 11
35.5624881755
 21
94.7653003647
  0
LINE
  5
326
100
AcDbEntity
  8
0
100
AcDbLine
 62
7
  6
CONTINUOUS
 10
35.5967474348
 20
93.0194763524
 11
35.6146486693
 21
92.8165826184
  0
LINE
  5
327
100
AcDbEntity
  8
0
100
AcDbLine
 62
7
  6
CONTINUOUS
 10
35.6967474348
 20
93.0194763524
 11
35.7146486693
 21
92.8165826184
  0
LINE
  5
328
100
AcDbEntity
  8
0
100
AcDbLine
 62
7
  6
CONTINUOUS
 10
34.6479820027
 20
94.928968797
 11
34.6658832372
 21
94.7252424654
  0
LINE
  5
329
100
AcDbEntity
  8
0
100
AcDbLine
 62
7
  6
CONTINUOUS
 10
34.7479820027
 20
94.928968797
 11
34.7658832372
 21
94.7252424654
  0
LINE
  5
32A
100
AcDbEntity
  8
0
100
AcDbLine
 62
7
  6
CONTINUOUS
 10
33.994586941
 20
93.0451778545
 11
34.0124881755
 21
92.8400230739
  0
LINE
  5
32B
100
AcDbEntity
  8
0
100
AcDbLine
 62
7
  6
CONTINUOUS
 10
34.094586941
 20
93.0451778545
 11
34.1124881755
 21
92.8400230739
  0
LINE
  5
32C
100
AcDbEntity
  8
0
100
AcDbLine
 62
7
  6
CONTINUOUS
 10
36.2501424965
 20
94.9054040078
 11
36.2680437311
 21
94.6994359971
  0
LINE
  5
32D
100
AcDbEntity
  8
0
100
AcDbLine
 62
7
  6
CONTINUOUS
 10
36.3933523731
 20
93.0599817542
 11
36.4112536076
 21
92.8535601604
  0
LINE
  5
32E
100
AcDbEntity
  8
0
100
AcDbLine
 62
7
  6
CONTINUOUS
 10
33.8513770644
 20
94.8918018087
 11
33.869278299
 21
94.6845799007
  0
LINE
  5
32F
100
AcDbEntity
  8
0
100
AcDbLine
 62
7
  6
CONTINUOUS
 10
33.9513770644
 20
94.8918018087
 11
33.969278299
 21
94.6845799007
  0
LINE
  5
330
100
AcDbEntity
  8
0
100
AcDbLine
 62
7
  6
CONTINUOUS
 10
34.7911918792
 20
93.0860765238
 11
34.8090931138
 21
92.8774854992
  0
LINE
  5
331
100
AcDbEntity
  8
0
100
AcDbLine
 62
7
  6
CONTINUOUS
 10
34.8911918792
 20
93.0860765238
 11
34.9090931138
 21
92.8774854992
  0
LINE
  5
332
100
AcDbEntity
  8
0
100
AcDbLine
 62
7
  6
CONTINUOUS
 10
35.4624881755
 20
94.7653003647
 11
35.4803894101
 21
94.547684526
  0
LINE
  5
333
100
AcDbEntity
  8
0
100
AcDbLine
 62
7
  6
CONTINUOUS
 10
35.5624881755
 20
94.7653003647
 11
35.5803894101
 21
94.547684526
  0
LINE
  5
334
100
AcDbEntity
  8
0
100
AcDbLine
 62
7
  6
CONTINUOUS
 10
35.5788462002
 20
93.2392938303
 11
35.5967474348
 21
93.0194763524
  0
LINE
  5
335
100
AcDbEntity
  8
0
100
AcDbLine
 62
7
  6
CONTINUOUS
 10
35.6788462002
 20
93.2392938303
 11
35.6967474348
 21
93.0194763524
  0
LINE
  5
336
100
AcDbEntity
  8
0
100
AcDbLine
 62
7
  6
CONTINUOUS
 10
34.6658832372
 20
94.7252424654
 11
34.6837844718
 21
94.5047771542
  0
LINE
  5
337
100
AcDbEntity
  8
0
100
AcDbLine
 62
7
  6
CONTINUOUS
 10
34.7658832372
 20
94.7252424654
 11
34.7837844718
 21
94.5047771542
  0
LINE
  5
338
100
AcDbEntity
  8
0
100
AcDbLine
 62
7
  6
CONTINUOUS
 10
33.9766857064
 20
93.2667491561
 11
33.994586941
 21
93.0451778545
  0
LINE
  5
339
100
AcDbEntity
  8
0
100
AcDbLine
 62
7
  6
CONTINUOUS
 10
34.0766857064
 20
93.2667491561
 11
34.094586941
 21
93.0451778545
  0
LINE
  5
33A
100
AcDbEntity
  8
0
100
AcDbLine
 62
7
  6
CONTINUOUS
 10
36.3754511385
 20
93.282527783
 11
36.3933523731
 21
93.0599817542
  0
LINE
  5
33B
100
AcDbEntity
  8
0
100
AcDbLine
 62
7
  6
CONTINUOUS
 10
36.2680437311
 20
94.6994359971
 11
36.2859449656
 21
94.4772382173
  0
LINE
  5
33C
100
AcDbEntity
  8
0
100
AcDbLine
 62
7
  6
CONTINUOUS
 10
33.869278299
 20
94.6845799007
 11
33.8871795335
 21
94.4614214618
  0
LINE
  5
33D
100
AcDbEntity
  8
0
100
AcDbLine
 62
7
  6
CONTINUOUS
 10
33.969278299
 20
94.6845799007
 11
33.9871795335
 21
94.4614214618
  0
LINE
  5
33E
100
AcDbEntity
  8
0
100
AcDbLine
 62
7
  6
CONTINUOUS
 10
34.7643400274
 20
93.4268576664
 11
34.7911918792
 21
93.0860765238
  0
LINE
  5
33F
100
AcDbEntity
  8
0
100
AcDbLine
 62
7
  6
CONTINUOUS
 10
34.8643400274
 20
93.4268576664
 11
34.8911918792
 21
93.0860765238
  0
LINE
  5
340
100
AcDbEntity
  8
0
100
AcDbLine
 62
7
  6
CONTINUOUS
 10
35.4803894101
 20
94.547684526
 11
35.5161918792
 21
94.077303704
  0
LINE
  5
341
100
AcDbEntity
  8
0
100
AcDbLine
 62
7
  6
CONTINUOUS
 10
35.5803894101
 20
94.547684526
 11
35.6161918792
 21
94.077303704
  0
LWPOLYLINE
  5
342
100
AcDbEntity
  8
0
100
AcDbPolyline
 62
7
  6
CONTINUOUS
 90
3
 70
0
 10
34.6837844718
 20
94.5047771542
 10
34.719586941
 20
94.0312772876
 10
34.7643400274
 20
93.4268576664
  0
LWPOLYLINE
  5
343
100
AcDbEntity
  8
0
100
AcDbPolyline
 62
7
  6
CONTINUOUS
 90
3
 70
0
 10
34.7837844718
 20
94.5047771542
 10
34.819586941
 20
94.0312772876
 10
34.8643400274
 20
93.4268576664
  0
LWPOLYLINE
  5
344
100
AcDbEntity
  8
0
100
AcDbPolyline
 62
7
  6
CONTINUOUS
 90
3
 70
0
 10
33.8871795335
 20
94.4614214618
 10
33.93193262
 20
93.8632416814
 10
33.9766857064
 20
93.2667491561
  0
LWPOLYLINE
  5
345
100
AcDbEntity
  8
0
100
AcDbPolyline
 62
7
  6
CONTINUOUS
 90
3
 70
0
 10
33.9871795335
 20
94.4614214618
 10
34.03193262
 20
93.8632416814
 10
34.0766857064
 20
93.2667491561
  0
LINE
  5
346
100
AcDbEntity
  8
0
100
AcDbLine
 62
7
  6
CONTINUOUS
 10
35.5161918792
 20
94.077303704
 11
35.5788462002
 21
93.2392938303
  0
LINE
  5
347
100
AcDbEntity
  8
0
100
AcDbLine
 62
7
  6
CONTINUOUS
 10
35.6161918792
 20
94.077303704
 11
35.6788462002
 21
93.2392938303
  0
LWPOLYLINE
  5
348
100
AcDbEntity
  8
0
100
AcDbPolyline
 62
7
  6
CONTINUOUS
 90
3
 70
0
 10
36.2859449656
 20
94.4772382173
 10
36.3306980521
 20
93.8800681034
 10
36.3754511385
 20
93.282527783
  0
LINE
  5
349
100
AcDbEntity
  8
DRAFT
100
AcDbLine
 62
7
  6
CONTINUOUS
 10
36.338969657
 20
121.754817124
 11
36.338969657
 21
103.254817124
  0
LINE
  5
34A
100
AcDbEntity
  8
RACCORDO
100
AcDbLine
 62
7
  6
CONTINUOUS
 10
36.338969657
 20
103.254817124
 11
36.338969657
 21
101.9119663269
  0
LINE
  5
34B
100
AcDbEntity
  8
RACCORDO
100
AcDbLine
 62
7
  6
CONTINUOUS
 10
36.338969657
 20
85.8421133076
 11
36.338969657
 21
84.4992625105
  0
LINE
  5
34C
100
AcDbEntity
  8
DRAFT
100
AcDbLine
 62
7
  6
CONTINUOUS
 10
36.338969657
 20
84.4992625105
 11
36.338969657
 21
65.9992625105
  0
LINE
  5
34D
100
AcDbEntity
  8
0
100
AcDbLine
 62
7
  6
CONTINUOUS
 10
32.6234996032
 20
92.4270398172
 11
32.738969657
 21
92.6270398172
  0
LINE
  5
34E
100
AcDbEntity
  8
0
100
AcDbLine
 62
7
  6
CONTINUOUS
 10
33.714824687
 20
95.598195616
 11
33.4388708358
 21
95.1254307812
  0
LINE
  5
34F
100
AcDbEntity
  8
0
100
AcDbLine
 62
7
  6
CONTINUOUS
 10
34.5148252086
 20
95.5981955775
 11
34.2388713461
 21
95.1254307366
  0
LINE
  5
350
100
AcDbEntity
  8
0
100
AcDbLine
 62
7
  6
CONTINUOUS
 10
35.3148258738
 20
95.5981955914
 11
35.0388720186
 21
95.1254307573
  0
LINE
  5
351
100
AcDbEntity
  8
0
100
AcDbLine
 62
7
  6
CONTINUOUS
 10
33.4470154642
 20
92.1558841578
 11
33.7220279965
 21
92.6270398172
  0
LINE
  5
352
100
AcDbEntity
  8
0
100
AcDbLine
 62
7
  6
CONTINUOUS
 10
36.1148254196
 20
95.5981956735
 11
35.83887159
 21
95.1254308549
  0
LINE
  5
353
100
AcDbEntity
  8
0
100
AcDbLine
 62
7
  6
CONTINUOUS
 10
34.2470155487
 20
92.1558842148
 11
34.5220280593
 21
92.6270398172
  0
LWPOLYLINE
  5
354
100
AcDbEntity
  8
0
100
AcDbPolyline
 62
7
  6
CONTINUOUS
 90
4
 70
0
 10
36.1148254196
 20
95.5981956735
 10
36.1158832372
 20
95.5999535712
 10
36.1248338545
 20
95.6100576341
 10
36.1309206348
 20
95.6120398157
  0
LWPOLYLINE
  5
355
100
AcDbEntity
  8
0
100
AcDbPolyline
 62
7
  6
CONTINUOUS
 90
4
 70
0
 10
33.714824687
 20
95.598195616
 10
33.7171178051
 20
95.6018558217
 10
33.7260684224
 20
95.6107804324
 10
33.7309199646
 20
95.6120398108
  0
LWPOLYLINE
  5
356
100
AcDbEntity
  8
0
100
AcDbPolyline
 62
7
  6
CONTINUOUS
 90
4
 70
0
 10
35.3148258738
 20
95.5981955914
 10
35.319278299
 20
95.6047910003
 10
35.3282289163
 20
95.6116519461
 10
35.3309211605
 20
95.6120397942
  0
LINE
  5
357
100
AcDbEntity
  8
0
100
AcDbLine
 62
7
  6
CONTINUOUS
 10
33.018969657
 20
95.2134538766
 11
32.7389622167
 21
94.8398840803
  0
LWPOLYLINE
  5
358
100
AcDbEntity
  8
0
100
AcDbPolyline
 62
7
  6
CONTINUOUS
 90
3
 70
0
 10
34.5148252086
 20
95.5981955775
 10
34.5226733607
 20
95.6084014447
 10
34.530920516
 20
95.6120397979
  0
LWPOLYLINE
  5
359
100
AcDbEntity
  8
0
100
AcDbPolyline
 62
7
  6
CONTINUOUS
 90
3
 70
0
 10
33.3148248749
 20
92.1558839845
 10
33.3232906447
 20
92.1451537521
 10
33.3309201187
 20
92.1420398187
  0
LWPOLYLINE
  5
35A
100
AcDbEntity
  8
0
100
AcDbPolyline
 62
7
  6
CONTINUOUS
 90
3
 70
0
 10
35.7148258656
 20
92.1558840115
 10
35.7220560768
 20
92.1462435779
 10
35.7309211229
 20
92.1420398336
  0
LINE
  5
35B
100
AcDbEntity
  8
0
100
AcDbLine
 62
7
  6
CONTINUOUS
 10
33.3989845376
 20
94.8398741539
 11
33.118969657
 21
95.2134538766
  0
LWPOLYLINE
  5
35C
100
AcDbEntity
  8
0
100
AcDbPolyline
 62
7
  6
CONTINUOUS
 90
4
 70
0
 10
34.1148248508
 20
92.1558840432
 10
34.1198955829
 20
92.1485396349
 10
34.1288462002
 20
92.1422699932
 10
34.1309201497
 20
92.1420398302
  0
LWPOLYLINE
  5
35D
100
AcDbEntity
  8
0
100
AcDbPolyline
 62
7
  6
CONTINUOUS
 90
4
 70
0
 10
34.9148256022
 20
92.1558840575
 10
34.9165005212
 20
92.1531555674
 10
34.9254511385
 20
92.1436405752
 10
34.9309209055
 20
92.1420398405
  0
LINE
  5
35E
100
AcDbEntity
  8
0
100
AcDbLine
 62
7
  6
CONTINUOUS
 10
33.3092653822
 20
95.0558122794
 11
33.2349293761
 21
95.1778077362
  0
LINE
  5
35F
100
AcDbEntity
  8
0
100
AcDbLine
 62
7
  6
CONTINUOUS
 10
33.2349293761
 20
95.1778077362
 11
33.1211005529
 21
95.3664851921
  0
LINE
  5
360
100
AcDbEntity
  8
0
100
AcDbLine
 62
7
  6
CONTINUOUS
 10
33.1211005529
 20
95.3664851921
 11
33.0643616729
 21
95.4612002728
  0
LINE
  5
361
100
AcDbEntity
  8
0
100
AcDbLine
 62
7
  6
CONTINUOUS
 10
33.8286686751
 20
92.6460546158
 11
34.1148248508
 21
92.1558840432
  0
LINE
  5
362
100
AcDbEntity
  8
0
100
AcDbLine
 62
7
  6
CONTINUOUS
 10
34.6286694288
 20
92.6460546214
 11
34.9148256022
 21
92.1558840575
  0
LINE
  5
363
100
AcDbEntity
  8
0
100
AcDbLine
 62
7
  6
CONTINUOUS
 10
35.4286697065
 20
92.6460545683
 11
35.7148258656
 21
92.1558840115
  0
LINE
  5
364
100
AcDbEntity
  8
0
100
AcDbLine
 62
7
  6
CONTINUOUS
 10
34.1331715704
 20
95.1080247763
 11
33.8470153432
 21
95.5981954436
  0
LINE
  5
365
100
AcDbEntity
  8
0
100
AcDbLine
 62
7
  6
CONTINUOUS
 10
36.2286686579
 20
92.646054558
 11
36.5148248195
 21
92.1558839899
  0
LINE
  5
366
100
AcDbEntity
  8
0
100
AcDbLine
 62
7
  6
CONTINUOUS
 10
32.6234996032
 20
95.3270398172
 11
32.7389622167
 21
95.1270527042
  0
LINE
  5
367
100
AcDbEntity
  8
0
100
AcDbLine
 62
7
  6
CONTINUOUS
 10
34.6470159228
 20
95.5981954068
 11
34.6495252126
 21
95.593550489
  0
LINE
  5
368
100
AcDbEntity
  8
0
100
AcDbLine
 62
7
  6
CONTINUOUS
 10
33.8470153432
 20
95.5981954436
 11
33.8529202743
 21
95.586203773
  0
LWPOLYLINE
  5
369
100
AcDbEntity
  8
0
100
AcDbPolyline
 62
7
  6
CONTINUOUS
 90
8
 70
0
 10
33.0643616729
 20
95.4612002728
 10
33.0723005098
 20
95.444613516
 10
33.080078701
 20
95.4219232193
 10
33.0878568922
 20
95.3928498182
 10
33.0956350834
 20
95.3574098971
 10
33.1034132746
 20
95.3156464468
 10
33.1111914658
 20
95.2676290366
 10
33.118969657
 20
95.2134538766
  0
LWPOLYLINE
  5
36A
100
AcDbEntity
  8
0
100
AcDbPolyline
 62
7
  6
CONTINUOUS
 90
12
 70
0
 10
34.6495252126
 20
95.593550489
 10
34.6584758298
 20
95.5715669901
 10
34.6674264471
 20
95.5412129308
 10
34.6763770644
 20
95.5026382529
 10
34.6853276817
 20
95.456033506
 10
34.694278299
 20
95.4016289067
 10
34.7032289163
 20
95.3396932005
 10
34.7121795335
 20
95.2705323351
 10
34.7211301508
 20
95.1944879486
 10
34.7300807681
 20
95.1119356823
 10
34.7390313854
 20
95.0232833246
 10
34.7479820027
 20
94.928968797
  0
LWPOLYLINE
  5
36B
100
AcDbEntity
  8
0
100
AcDbPolyline
 62
7
  6
CONTINUOUS
 90
12
 70
0
 10
33.8529202743
 20
95.586203773
 10
33.8618708916
 20
95.5610296387
 10
33.8708215089
 20
95.5275369825
 10
33.8797721261
 20
95.4858912508
 10
33.8887227434
 20
95.4362981643
 10
33.8976733607
 20
95.3790027019
 10
33.906623978
 20
95.3142878904
 10
33.9155745953
 20
95.2424734063
 10
33.9245252126
 20
95.1639139969
 10
33.9334758298
 20
95.0789977279
 10
33.9424264471
 20
94.9881440664
 10
33.9513770644
 20
94.8918018087
  0
LWPOLYLINE
  5
36C
100
AcDbEntity
  8
0
100
AcDbPolyline
 62
7
  6
CONTINUOUS
 90
7
 70
0
 10
33.3989845376
 20
94.8398741539
 10
33.3819661724
 20
94.8909594978
 10
33.3648990866
 20
94.937644565
 10
33.3477832802
 20
94.9796798648
 10
33.3305819098
 20
95.0169081232
 10
33.3133318187
 20
95.0490203851
 10
33.3092653822
 20
95.0558122794
  0
LWPOLYLINE
  5
36D
100
AcDbEntity
  8
0
100
AcDbPolyline
 62
7
  6
CONTINUOUS
 90
13
 70
0
 10
36.1183777561
 20
93.245201553
 10
36.1280172908
 20
93.1654333607
 10
36.137585974
 20
93.0902824256
 10
36.1470411226
 20
93.0203842805
 10
36.1564254198
 20
92.9556780454
 10
36.1658257273
 20
92.8958772706
 10
36.1752843576
 20
92.8411017085
 10
36.1847589982
 20
92.7919625132
 10
36.1942095737
 20
92.7489307976
 10
36.2036137037
 20
92.712276748
 10
36.2129937686
 20
92.6820432223
 10
36.2223768335
 20
92.6582859503
 10
36.2286686579
 20
92.646054558
  0
LWPOLYLINE
  5
36E
100
AcDbEntity
  8
0
100
AcDbPolyline
 62
7
  6
CONTINUOUS
 90
13
 70
0
 10
34.5182272825
 20
93.2464816941
 10
34.5278465562
 20
93.1668170308
 10
34.5373881392
 20
93.0917974979
 10
34.546795397
 20
93.02214737
 10
34.5561249642
 20
92.957678494
 10
34.5654989289
 20
92.8978725594
 10
34.574961261
 20
92.8428840662
 10
34.5844679907
 20
92.7933872669
 10
34.5940092969
 20
92.7497822402
 10
34.603608714
 20
92.7122972502
 10
34.6132427077
 20
92.6813307455
 10
34.6228308535
 20
92.6573050334
 10
34.6286694288
 20
92.6460546214
  0
LWPOLYLINE
  5
36F
100
AcDbEntity
  8
0
100
AcDbPolyline
 62
7
  6
CONTINUOUS
 90
13
 70
0
 10
35.3182173687
 20
93.2465690614
 10
35.3278359783
 20
93.1669055673
 10
35.3373796986
 20
93.0918647917
 10
35.3468090266
 20
93.0220523107
 10
35.3561634654
 20
92.9574247324
 10
35.3655159563
 20
92.8977706898
 10
35.3748859001
 20
92.8433016109
 10
35.3842538959
 20
92.794437974
 10
35.393634682
 20
92.7513776931
 10
35.4030374492
 20
92.7143457545
 10
35.4124530066
 20
92.6836145674
 10
35.4218685202
 20
92.6594068102
 10
35.4286697065
 20
92.6460545683
  0
LWPOLYLINE
  5
370
100
AcDbEntity
  8
0
100
AcDbPolyline
 62
7
  6
CONTINUOUS
 90
13
 70
0
 10
34.2440007837
 20
94.5043121182
 10
34.2344999665
 20
94.5831712841
 10
34.2250355739
 20
94.6578212921
 10
34.2156462488
 20
94.7276192513
 10
34.2062933482
 20
94.7925503228
 10
34.1968568194
 20
94.8530566723
 10
34.1872745406
 20
94.9090123975
 10
34.1776086337
 20
94.9595366534
 10
34.1679254111
 20
95.0038988301
 10
34.1582200015
 20
95.0418255937
 10
34.1484972762
 20
95.0730371809
 10
34.138838162
 20
95.0971424785
 10
34.1331715704
 20
95.1080247763
  0
LWPOLYLINE
  5
371
100
AcDbEntity
  8
0
100
AcDbPolyline
 62
7
  6
CONTINUOUS
 90
13
 70
0
 10
33.7176321671
 20
93.2515270678
 10
33.727064201
 20
93.1731449973
 10
33.7364835028
 20
93.0987217274
 10
33.7458696943
 20
93.0287948959
 10
33.7552431537
 20
92.9635610681
 10
33.7646991733
 20
92.9027678222
 10
33.7742913252
 20
92.8465887214
 10
33.7839660373
 20
92.7958482823
 10
33.7936578856
 20
92.751274203
 10
33.8033718973
 20
92.7131404943
 10
33.8131030452
 20
92.6817289991
 10
33.8227708234
 20
92.6574324428
 10
33.8286686751
 20
92.6460546158
  0
LWPOLYLINE
  5
372
100
AcDbEntity
  8
0
100
AcDbPolyline
 62
7
  6
CONTINUOUS
 90
13
 70
0
 10
35.0447440766
 20
94.4979950668
 10
35.0353393293
 20
94.5763615938
 10
35.0259245871
 20
94.6509914227
 10
35.0165134184
 20
94.7213656616
 10
35.0070922547
 20
94.7871963404
 10
34.9975936211
 20
94.8485249162
 10
34.9879756718
 20
94.9051159926
 10
34.9782802527
 20
94.9562274736
 10
34.9685654259
 20
95.0011676986
 10
34.9588231844
 20
95.0396656595
 10
34.9490615352
 20
95.071416459
 10
34.939362562
 20
95.0960141265
 10
34.9331721547
 20
95.1080247445
  0
LWPOLYLINE
  5
373
100
AcDbEntity
  8
0
100
AcDbPolyline
 62
7
  6
CONTINUOUS
 90
13
 70
0
 10
35.8447336563
 20
94.4980884196
 10
35.835177025
 20
94.5776861755
 10
35.8256505306
 20
94.6531066737
 10
35.8162010852
 20
94.7236282705
 10
35.8067817767
 20
94.7892867655
 10
35.7973004398
 20
94.850337122
 10
35.7877080746
 20
94.90661135
 10
35.7780536808
 20
94.9573511215
 10
35.7683920921
 20
95.0019134311
 10
35.7587165226
 20
95.0400520646
 10
35.7490337581
 20
95.0714986564
 10
35.7394189895
 20
95.0958927047
 10
35.7331727667
 20
95.1080247709
  0
LWPOLYLINE
  5
374
100
AcDbEntity
  8
0
100
AcDbPolyline
 62
7
  6
CONTINUOUS
 90
3
 70
0
 10
35.9777409837
 20
94.5564481684
 10
35.9941353122
 20
94.4160957275
 10
36.0023416078
 20
94.342338004
  0
LINE
  5
375
100
AcDbEntity
  8
0
100
AcDbLine
 62
7
  6
CONTINUOUS
 10
33.5839710296
 20
94.5043121182
 11
33.6031221696
 21
94.3352136622
  0
LINE
  5
376
100
AcDbEntity
  8
0
100
AcDbLine
 62
7
  6
CONTINUOUS
 10
34.2631519234
 20
94.3352136622
 11
34.2440007837
 21
94.5043121182
  0
LINE
  5
377
100
AcDbEntity
  8
0
100
AcDbLine
 62
7
  6
CONTINUOUS
 10
34.4988871062
 20
93.417055623
 11
34.5182272825
 21
93.2464816941
  0
LINE
  5
378
100
AcDbEntity
  8
0
100
AcDbLine
 62
7
  6
CONTINUOUS
 10
35.178257025
 20
93.2464816942
 11
35.1589168489
 21
93.417055623
  0
LINE
  5
379
100
AcDbEntity
  8
0
100
AcDbLine
 62
7
  6
CONTINUOUS
 10
35.2988796319
 20
93.4171276478
 11
35.3182173687
 21
93.2465690614
  0
LINE
  5
37A
100
AcDbEntity
  8
0
100
AcDbLine
 62
7
  6
CONTINUOUS
 10
35.9782471137
 20
93.2465690614
 11
35.9589093766
 21
93.4171276478
  0
LINE
  5
37B
100
AcDbEntity
  8
0
100
AcDbLine
 62
7
  6
CONTINUOUS
 10
36.0989955516
 20
93.4160607898
 11
36.1183777561
 21
93.245201553
  0
LINE
  5
37C
100
AcDbEntity
  8
0
100
AcDbLine
 62
7
  6
CONTINUOUS
 10
33.698590916
 20
93.4197540842
 11
33.7176321671
 21
93.2515270678
  0
LINE
  5
37D
100
AcDbEntity
  8
0
100
AcDbLine
 62
7
  6
CONTINUOUS
 10
34.3776619193
 20
93.2515270678
 11
34.3586206684
 21
93.4197540842
  0
LINE
  5
37E
100
AcDbEntity
  8
0
100
AcDbLine
 62
7
  6
CONTINUOUS
 10
34.384714333
 20
94.4979950668
 11
34.4035891842
 21
94.330950928
  0
LINE
  5
37F
100
AcDbEntity
  8
0
100
AcDbLine
 62
7
  6
CONTINUOUS
 10
35.0636189277
 20
94.330950928
 11
35.0447440766
 21
94.4979950668
  0
LINE
  5
380
100
AcDbEntity
  8
0
100
AcDbLine
 62
7
  6
CONTINUOUS
 10
35.1847039131
 20
94.4980884196
 11
35.2037486726
 21
94.3294964254
  0
LINE
  5
381
100
AcDbEntity
  8
0
100
AcDbLine
 62
7
  6
CONTINUOUS
 10
35.863778416
 20
94.3294964254
 11
35.8447336563
 21
94.4980884196
  0
LINE
  5
382
100
AcDbEntity
  8
0
100
AcDbLine
 62
7
  6
CONTINUOUS
 10
36.6868710903
 20
94.1118846736
 11
36.6623713687
 21
94.342338004
  0
LINE
  5
383
100
AcDbEntity
  8
0
100
AcDbLine
 62
7
  6
CONTINUOUS
 10
36.7590253121
 20
93.4160607898
 11
36.7299870504
 21
93.6906953108
  0
LINE
  5
384
100
AcDbEntity
  8
0
100
AcDbLine
 62
7
  6
CONTINUOUS
 10
36.8029024875
 20
94.3372198418
 11
36.8318905962
 21
94.0630218329
  0
LINE
  5
385
100
AcDbEntity
  8
0
100
AcDbLine
 62
7
  6
CONTINUOUS
 10
37.4919203487
 20
94.0630218329
 11
37.4629322405
 21
94.3372198418
  0
LINE
  5
386
100
AcDbEntity
  8
0
100
AcDbLine
 62
7
  6
CONTINUOUS
 10
37.6698072996
 20
93.692156792
 11
37.6981432339
 21
93.4238544477
  0
LINE
  5
387
100
AcDbEntity
  8
0
100
AcDbLine
 62
7
  6
CONTINUOUS
 10
37.6029270888
 20
94.3370016929
 11
37.6319009899
 21
94.0629278835
  0
LINE
  5
388
100
AcDbEntity
  8
0
100
AcDbLine
 62
7
  6
CONTINUOUS
 10
38.3581729761
 20
93.4238544477
 11
38.329837042
 21
93.692156792
  0
LINE
  5
389
100
AcDbEntity
  8
0
100
AcDbLine
 62
7
  6
CONTINUOUS
 10
38.2919307326
 20
94.0629278835
 11
38.2629568317
 21
94.3370016929
  0
LINE
  5
38A
100
AcDbEntity
  8
0
100
AcDbLine
 62
7
  6
CONTINUOUS
 10
38.4698807243
 20
93.6914475984
 11
38.4986367308
 21
93.4193457388
  0
LINE
  5
38B
100
AcDbEntity
  8
0
100
AcDbLine
 62
7
  6
CONTINUOUS
 10
38.403162744
 20
94.3348538771
 11
38.4319346618
 21
94.0626051129
  0
LINE
  5
38C
100
AcDbEntity
  8
0
100
AcDbLine
 62
7
  6
CONTINUOUS
 10
39.1586664764
 20
93.4193457388
 11
39.1299104695
 21
93.6914475984
  0
LINE
  5
38D
100
AcDbEntity
  8
0
100
AcDbLine
 62
7
  6
CONTINUOUS
 10
39.0919644063
 20
94.0626051129
 11
39.0631924881
 21
94.3348538771
  0
LINE
  5
38E
100
AcDbEntity
  8
0
100
AcDbLine
 62
7
  6
CONTINUOUS
 10
36.8696809858
 20
93.6933762234
 11
36.8981565111
 21
93.4237261933
  0
LINE
  5
38F
100
AcDbEntity
  8
0
100
AcDbLine
 62
7
  6
CONTINUOUS
 10
37.5581862628
 20
93.4237261933
 11
37.5297107378
 21
93.6933762234
  0
LINE
  5
390
100
AcDbEntity
  8
0
100
AcDbLine
 62
7
  6
CONTINUOUS
 10
36.7299870504
 20
93.6906953108
 11
36.6868710903
 21
94.1118846736
  0
LINE
  5
391
100
AcDbEntity
  8
0
100
AcDbLine
 62
7
  6
CONTINUOUS
 10
36.8318905962
 20
94.0630218329
 11
36.8696809858
 21
93.6933762234
  0
LINE
  5
392
100
AcDbEntity
  8
0
100
AcDbLine
 62
7
  6
CONTINUOUS
 10
37.5297107378
 20
93.6933762234
 11
37.4919203487
 21
94.0630218329
  0
LINE
  5
393
100
AcDbEntity
  8
0
100
AcDbLine
 62
7
  6
CONTINUOUS
 10
37.6319009899
 20
94.0629278835
 11
37.6698072996
 21
93.692156792
  0
LINE
  5
394
100
AcDbEntity
  8
0
100
AcDbLine
 62
7
  6
CONTINUOUS
 10
38.329837042
 20
93.692156792
 11
38.2919307326
 21
94.0629278835
  0
LINE
  5
395
100
AcDbEntity
  8
0
100
AcDbLine
 62
7
  6
CONTINUOUS
 10
38.4319346618
 20
94.0626051129
 11
38.4698807243
 21
93.6914475984
  0
LINE
  5
396
100
AcDbEntity
  8
0
100
AcDbLine
 62
7
  6
CONTINUOUS
 10
39.1299104695
 20
93.6914475984
 11
39.0919644063
 21
94.0626051129
  0
LWPOLYLINE
  5
397
100
AcDbEntity
  8
0
100
AcDbPolyline
 62
7
  6
CONTINUOUS
 90
12
 70
0
 10
37.2168091632
 20
92.7934241049
 10
37.2257597805
 20
92.7009258388
 10
37.2347103977
 20
92.6142373002
 10
37.243661015
 20
92.5337867097
 10
37.2526116323
 20
92.4599714744
 10
37.2615622496
 20
92.3931562236
 10
37.2705128669
 20
92.3336710089
 10
37.2794634842
 20
92.2818096729
 10
37.2884141014
 20
92.2378283982
 10
37.2973647187
 20
92.2019444416
 10
37.306315336
 20
92.1743350611
 10
37.3148248947
 20
92.155884046
  0
LWPOLYLINE
  5
398
100
AcDbEntity
  8
0
100
AcDbPolyline
 62
7
  6
CONTINUOUS
 90
14
 70
0
 10
37.3168091632
 20
92.7934241049
 10
37.3257597805
 20
92.7009258388
 10
37.3347103977
 20
92.6142373002
 10
37.343661015
 20
92.5337867097
 10
37.3526116323
 20
92.4599714744
 10
37.3615622496
 20
92.3931562236
 10
37.3705128669
 20
92.3336710089
 10
37.3794634842
 20
92.2818096729
 10
37.3884141014
 20
92.2378283982
 10
37.3973647187
 20
92.2019444416
 10
37.406315336
 20
92.1743350611
 10
37.4152659533
 20
92.1551366404
 10
37.4242165706
 20
92.1444440149
 10
37.4309201956
 20
92.1420398312
  0
LWPOLYLINE
  5
399
100
AcDbEntity
  8
0
100
AcDbPolyline
 62
7
  6
CONTINUOUS
 90
13
 70
0
 10
38.0134141014
 20
92.8299436238
 10
38.0223647187
 20
92.7353592836
 10
38.031315336
 20
92.6464145738
 10
38.0402659533
 20
92.5635488602
 10
38.0492165706
 20
92.4871714799
 10
38.0581671879
 20
92.4176597192
 10
38.0671178051
 20
92.3553569499
 10
38.0760684224
 20
92.300570933
 10
38.0850190397
 20
92.2535722987
 10
38.093969657
 20
92.2145932092
 10
38.1029202743
 20
92.1838262121
 10
38.1118708916
 20
92.1614232895
 10
38.1148256532
 20
92.1558840564
  0
LWPOLYLINE
  5
39A
100
AcDbEntity
  8
0
100
AcDbPolyline
 62
7
  6
CONTINUOUS
 90
15
 70
0
 10
38.1134141014
 20
92.8299436238
 10
38.1223647187
 20
92.7353592836
 10
38.131315336
 20
92.6464145738
 10
38.1402659533
 20
92.5635488602
 10
38.1492165706
 20
92.4871714799
 10
38.1581671879
 20
92.4176597192
 10
38.1671178051
 20
92.3553569499
 10
38.1760684224
 20
92.300570933
 10
38.1850190397
 20
92.2535722987
 10
38.193969657
 20
92.2145932092
 10
38.2029202743
 20
92.1838262121
 10
38.2118708916
 20
92.1614232895
 10
38.2208215089
 20
92.1474951065
 10
38.2297721261
 20
92.1421104654
 10
38.2309209549
 20
92.1420398408
  0
LWPOLYLINE
  5
39B
100
AcDbEntity
  8
0
100
AcDbPolyline
 62
7
  6
CONTINUOUS
 90
15
 70
0
 10
36.5112536076
 20
92.8535601604
 10
36.5202042249
 20
92.7576837275
 10
36.5291548422
 20
92.6673366731
 10
36.5381054595
 20
92.5829652914
 10
36.5470560768
 20
92.5049863583
 10
36.556006694
 20
92.433785072
 10
36.5649573113
 20
92.3697131508
 10
36.5739079286
 20
92.3130870953
 10
36.5828585459
 20
92.2641866251
 10
36.5918091632
 20
92.2232532973
 10
36.6007597805
 20
92.1904893128
 10
36.6097103977
 20
92.1660565178
 10
36.618661015
 20
92.1500756043
 10
36.6276116323
 20
92.1426255137
 10
36.630920069
 20
92.1420398192
  0
LWPOLYLINE
  5
39C
100
AcDbEntity
  8
0
100
AcDbPolyline
 62
7
  6
CONTINUOUS
 90
13
 70
0
 10
38.8100190397
 20
92.867203018
 10
38.818969657
 20
92.7705999903
 10
38.8279202743
 20
92.6794625254
 10
38.8368708916
 20
92.5942408223
 10
38.8458215089
 20
92.5153558577
 10
38.8547721261
 20
92.4431973061
 10
38.8637227434
 20
92.3781216152
 10
38.8726733607
 20
92.3204502448
 10
38.881623978
 20
92.2704680794
 10
38.8905745953
 20
92.2284220202
 10
38.8995252126
 20
92.1945197661
 10
38.9084758298
 20
92.1689287873
 10
38.9148258316
 20
92.1558840054
  0
LWPOLYLINE
  5
39D
100
AcDbEntity
  8
0
100
AcDbPolyline
 62
7
  6
CONTINUOUS
 90
15
 70
0
 10
38.9100190397
 20
92.867203018
 10
38.918969657
 20
92.7705999903
 10
38.9279202743
 20
92.6794625254
 10
38.9368708916
 20
92.5942408223
 10
38.9458215089
 20
92.5153558577
 10
38.9547721261
 20
92.4431973061
 10
38.9637227434
 20
92.3781216152
 10
38.9726733607
 20
92.3204502448
 10
38.981623978
 20
92.2704680794
 10
38.9905745953
 20
92.2284220202
 10
38.9995252126
 20
92.1945197661
 10
39.0084758298
 20
92.1689287873
 10
39.0174264471
 20
92.1517754983
 10
39.0263770644
 20
92.1431446331
 10
39.0309210835
 20
92.142039832
  0
LINE
  5
39E
100
AcDbEntity
  8
0
100
AcDbLine
 62
7
  6
CONTINUOUS
 10
37.1989079286
 20
92.9939957001
 11
37.2168091632
 21
92.7934241049
  0
LINE
  5
39F
100
AcDbEntity
  8
0
100
AcDbLine
 62
7
  6
CONTINUOUS
 10
37.2989079286
 20
92.9939957001
 11
37.3168091632
 21
92.7934241049
  0
LINE
  5
3A0
100
AcDbEntity
  8
0
100
AcDbLine
 62
7
  6
CONTINUOUS
 10
37.0467474348
 20
94.9422907515
 11
37.0646486693
 21
94.7398705143
  0
LINE
  5
3A1
100
AcDbEntity
  8
0
100
AcDbLine
 62
7
  6
CONTINUOUS
 10
37.1467474348
 20
94.9422907515
 11
37.1646486693
 21
94.7398705143
  0
LINE
  5
3A2
100
AcDbEntity
  8
0
100
AcDbLine
 62
7
  6
CONTINUOUS
 10
37.9955128669
 20
93.0341367479
 11
38.0134141014
 21
92.8299436238
  0
LINE
  5
3A3
100
AcDbEntity
  8
0
100
AcDbLine
 62
7
  6
CONTINUOUS
 10
38.0955128669
 20
93.0341367479
 11
38.1134141014
 21
92.8299436238
  0
LINE
  5
3A4
100
AcDbEntity
  8
0
100
AcDbLine
 62
7
  6
CONTINUOUS
 10
38.6489079286
 20
94.9189133906
 11
38.6668091632
 21
94.7142198157
  0
LINE
  5
3A5
100
AcDbEntity
  8
0
100
AcDbLine
 62
7
  6
CONTINUOUS
 10
38.7489079286
 20
94.9189133906
 11
38.7668091632
 21
94.7142198157
  0
LINE
  5
3A6
100
AcDbEntity
  8
0
100
AcDbLine
 62
7
  6
CONTINUOUS
 10
36.3501424965
 20
94.9054040078
 11
36.3680437311
 21
94.6994359971
  0
LINE
  5
3A7
100
AcDbEntity
  8
0
100
AcDbLine
 62
7
  6
CONTINUOUS
 10
36.4933523731
 20
93.0599817542
 11
36.5112536076
 21
92.8535601604
  0
LINE
  5
3A8
100
AcDbEntity
  8
0
100
AcDbLine
 62
7
  6
CONTINUOUS
 10
38.7921178051
 20
93.0748723296
 11
38.8100190397
 21
92.867203018
  0
LINE
  5
3A9
100
AcDbEntity
  8
0
100
AcDbLine
 62
7
  6
CONTINUOUS
 10
38.8921178051
 20
93.0748723296
 11
38.9100190397
 21
92.867203018
  0
LINE
  5
3AA
100
AcDbEntity
  8
0
100
AcDbLine
 62
7
  6
CONTINUOUS
 10
37.8523029903
 20
94.8815487501
 11
37.8702042249
 21
94.6734000349
  0
LINE
  5
3AB
100
AcDbEntity
  8
0
100
AcDbLine
 62
7
  6
CONTINUOUS
 10
37.9523029903
 20
94.8815487501
 11
37.9702042249
 21
94.6734000349
  0
LINE
  5
3AC
100
AcDbEntity
  8
0
100
AcDbLine
 62
7
  6
CONTINUOUS
 10
37.181006694
 20
93.2119938751
 11
37.1989079286
 21
92.9939957001
  0
LINE
  5
3AD
100
AcDbEntity
  8
0
100
AcDbLine
 62
7
  6
CONTINUOUS
 10
37.281006694
 20
93.2119938751
 11
37.2989079286
 21
92.9939957001
  0
LINE
  5
3AE
100
AcDbEntity
  8
0
100
AcDbLine
 62
7
  6
CONTINUOUS
 10
37.0646486693
 20
94.7398705143
 11
37.0825499039
 21
94.5204226067
  0
LINE
  5
3AF
100
AcDbEntity
  8
0
100
AcDbLine
 62
7
  6
CONTINUOUS
 10
37.1646486693
 20
94.7398705143
 11
37.1825499039
 21
94.5204226067
  0
LINE
  5
3B0
100
AcDbEntity
  8
0
100
AcDbLine
 62
7
  6
CONTINUOUS
 10
37.9776116323
 20
93.2549642657
 11
37.9955128669
 21
93.0341367479
  0
LINE
  5
3B1
100
AcDbEntity
  8
0
100
AcDbLine
 62
7
  6
CONTINUOUS
 10
38.0776116323
 20
93.2549642657
 11
38.0955128669
 21
93.0341367479
  0
LINE
  5
3B2
100
AcDbEntity
  8
0
100
AcDbLine
 62
7
  6
CONTINUOUS
 10
38.6668091632
 20
94.7142198157
 11
38.6847103977
 21
94.4930047459
  0
LINE
  5
3B3
100
AcDbEntity
  8
0
100
AcDbLine
 62
7
  6
CONTINUOUS
 10
38.7668091632
 20
94.7142198157
 11
38.7847103977
 21
94.4930047459
  0
LINE
  5
3B4
100
AcDbEntity
  8
0
100
AcDbLine
 62
7
  6
CONTINUOUS
 10
36.4754511385
 20
93.282527783
 11
36.4933523731
 21
93.0599817542
  0
LINE
  5
3B5
100
AcDbEntity
  8
0
100
AcDbLine
 62
7
  6
CONTINUOUS
 10
36.3680437311
 20
94.6994359971
 11
36.3859449656
 21
94.4772382173
  0
LINE
  5
3B6
100
AcDbEntity
  8
0
100
AcDbLine
 62
7
  6
CONTINUOUS
 10
38.7652659533
 20
93.4146900442
 11
38.7921178051
 21
93.0748723296
  0
LINE
  5
3B7
100
AcDbEntity
  8
0
100
AcDbLine
 62
7
  6
CONTINUOUS
 10
38.8652659533
 20
93.4146900442
 11
38.8921178051
 21
93.0748723296
  0
LINE
  5
3B8
100
AcDbEntity
  8
0
100
AcDbLine
 62
7
  6
CONTINUOUS
 10
37.8702042249
 20
94.6734000349
 11
37.8970560768
 21
94.3330804953
  0
LINE
  5
3B9
100
AcDbEntity
  8
0
100
AcDbLine
 62
7
  6
CONTINUOUS
 10
37.9702042249
 20
94.6734000349
 11
37.9970560768
 21
94.3330804953
  0
LINE
  5
3BA
100
AcDbEntity
  8
0
100
AcDbLine
 62
7
  6
CONTINUOUS
 10
37.1452042249
 20
93.6828024832
 11
37.181006694
 21
93.2119938751
  0
LINE
  5
3BB
100
AcDbEntity
  8
0
100
AcDbLine
 62
7
  6
CONTINUOUS
 10
37.2452042249
 20
93.6828024832
 11
37.281006694
 21
93.2119938751
  0
LWPOLYLINE
  5
3BC
100
AcDbEntity
  8
0
100
AcDbPolyline
 62
7
  6
CONTINUOUS
 90
3
 70
0
 10
37.0825499039
 20
94.5204226067
 10
37.118352373
 20
94.0480172789
 10
37.1452042249
 20
93.6828024832
  0
LWPOLYLINE
  5
3BD
100
AcDbEntity
  8
0
100
AcDbPolyline
 62
7
  6
CONTINUOUS
 90
3
 70
0
 10
37.1825499039
 20
94.5204226067
 10
37.218352373
 20
94.0480172789
 10
37.2452042249
 20
93.6828024832
  0
LWPOLYLINE
  5
3BE
100
AcDbEntity
  8
0
100
AcDbPolyline
 62
7
  6
CONTINUOUS
 90
3
 70
0
 10
36.3859449656
 20
94.4772382173
 10
36.4306980521
 20
93.8800681034
 10
36.4754511385
 20
93.282527783
  0
LINE
  5
3BF
100
AcDbEntity
  8
0
100
AcDbLine
 62
7
  6
CONTINUOUS
 10
37.8970560768
 20
94.3330804953
 11
37.9776116323
 21
93.2549642657
  0
LINE
  5
3C0
100
AcDbEntity
  8
0
100
AcDbLine
 62
7
  6
CONTINUOUS
 10
37.9970560768
 20
94.3330804953
 11
38.0776116323
 21
93.2549642657
  0
LINE
  5
3C1
100
AcDbEntity
  8
0
100
AcDbLine
 62
7
  6
CONTINUOUS
 10
38.6847103977
 20
94.4930047459
 11
38.7652659533
 21
93.4146900442
  0
LINE
  5
3C2
100
AcDbEntity
  8
0
100
AcDbLine
 62
7
  6
CONTINUOUS
 10
38.7847103977
 20
94.4930047459
 11
38.8652659533
 21
93.4146900442
  0
LINE
  5
3C3
100
AcDbEntity
  8
0
100
AcDbLine
 62
7
  6
CONTINUOUS
 10
36.9148246927
 20
95.5981956118
 11
36.6388708401
 21
95.125430776
  0
LINE
  5
3C4
100
AcDbEntity
  8
0
100
AcDbLine
 62
7
  6
CONTINUOUS
 10
35.0470163075
 20
92.1558842273
 11
35.3220288128
 21
92.6270398172
  0
LINE
  5
3C5
100
AcDbEntity
  8
0
100
AcDbLine
 62
7
  6
CONTINUOUS
 10
37.7148252675
 20
95.5981955766
 11
37.4388714049
 21
95.1254307357
  0
LINE
  5
3C6
100
AcDbEntity
  8
0
100
AcDbLine
 62
7
  6
CONTINUOUS
 10
35.8470164773
 20
92.1558841796
 11
36.1220290005
 21
92.6270398172
  0
LINE
  5
3C7
100
AcDbEntity
  8
0
100
AcDbLine
 62
7
  6
CONTINUOUS
 10
38.5148258938
 20
95.5981955949
 11
38.2388720398
 21
95.1254307617
  0
LINE
  5
3C8
100
AcDbEntity
  8
0
100
AcDbLine
 62
7
  6
CONTINUOUS
 10
36.6470154201
 20
92.1558841631
 11
36.9220279504
 21
92.6270398172
  0
LINE
  5
3C9
100
AcDbEntity
  8
0
100
AcDbLine
 62
7
  6
CONTINUOUS
 10
39.3148253071
 20
95.5981956785
 11
39.0388714802
 21
95.1254308625
  0
LINE
  5
3CA
100
AcDbEntity
  8
0
100
AcDbLine
 62
7
  6
CONTINUOUS
 10
37.4470155965
 20
92.1558842174
 11
37.7220281061
 21
92.6270398172
  0
LWPOLYLINE
  5
3CB
100
AcDbEntity
  8
0
100
AcDbPolyline
 62
7
  6
CONTINUOUS
 90
4
 70
0
 10
37.7148252675
 20
95.5981955766
 10
37.7180437311
 20
95.6031744238
 10
37.7269943484
 20
95.6112149667
 10
37.7309205751
 20
95.6120397971
  0
LWPOLYLINE
  5
3CC
100
AcDbEntity
  8
0
100
AcDbPolyline
 62
7
  6
CONTINUOUS
 90
4
 70
0
 10
39.3148253071
 20
95.5981956785
 10
39.3202042249
 20
95.6058981849
 10
39.3291548422
 20
95.6118729902
 10
39.3309205193
 20
95.6120398172
  0
LWPOLYLINE
  5
3CD
100
AcDbEntity
  8
0
100
AcDbPolyline
 62
7
  6
CONTINUOUS
 90
3
 70
0
 10
36.9148246927
 20
95.5981956118
 10
36.9214387928
 20
95.6072317122
 10
36.9309199743
 20
95.6120398099
  0
LWPOLYLINE
  5
3CE
100
AcDbEntity
  8
0
100
AcDbPolyline
 62
7
  6
CONTINUOUS
 90
3
 70
0
 10
38.5148258938
 20
95.5981955949
 10
38.5235992866
 20
95.6091718169
 10
38.530921177
 20
95.6120397948
  0
LWPOLYLINE
  5
3CF
100
AcDbEntity
  8
0
100
AcDbPolyline
 62
7
  6
CONTINUOUS
 90
4
 70
0
 10
49.4309199663
 20
92.142039822
 10
49.4359449656
 20
92.1433908521
 10
49.4448955829
 20
92.1524811378
 10
49.4470135327
 20
92.1558810829
  0
LWPOLYLINE
  5
3D0
100
AcDbEntity
  8
0
100
AcDbPolyline
 62
7
  6
CONTINUOUS
 90
4
 70
0
 10
45.4309209741
 20
92.1420398282
 10
45.4350190397
 20
92.1429384368
 10
45.443969657
 20
92.1511432244
 10
45.4470163113
 20
92.1558841595
  0
LWPOLYLINE
  5
3D1
100
AcDbEntity
  8
0
100
AcDbPolyline
 62
7
  6
CONTINUOUS
 90
4
 70
0
 10
51.8309208205
 20
92.1420398237
 10
51.8347103977
 20
92.1428082461
 10
51.843661015
 20
92.1507182367
 10
51.8470143405
 20
92.1558810442
  0
LWPOLYLINE
  5
3D2
100
AcDbEntity
  8
0
100
AcDbPolyline
 62
7
  6
CONTINUOUS
 90
5
 70
0
 10
52.616086303
 20
92.7965316415
 10
52.620671336
 20
92.7972493745
 10
52.6292463581
 20
92.8024094037
 10
52.6378213802
 20
92.812457033
 10
52.6420636419
 20
92.8191978972
  0
LWPOLYLINE
  5
3D3
100
AcDbEntity
  8
0
100
AcDbPolyline
 62
7
  6
CONTINUOUS
 90
4
 70
0
 10
47.8309210807
 20
92.142039841
 10
47.8337844718
 20
92.1424785654
 10
47.8427350891
 20
92.1495031541
 10
47.8470164741
 20
92.1558842203
  0
LWPOLYLINE
  5
3D4
100
AcDbEntity
  8
0
100
AcDbPolyline
 62
7
  6
CONTINUOUS
 90
4
 70
0
 10
50.2309204079
 20
92.142039835
 10
50.2325499039
 20
92.1421819203
 10
50.2415005212
 20
92.1480264195
 10
50.2470140094
 20
92.1558811255
  0
LWPOLYLINE
  5
3D5
100
AcDbEntity
  8
RACCORDO
100
AcDbPolyline
 62
7
  6
CONTINUOUS
 90
19
 70
0
 10
32.028499808
 20
90.9414981518
 10
32.0540029104
 20
90.9415726938
 10
32.0795237239
 20
90.942506222
 10
32.1048729271
 20
90.9442987366
 10
32.1298418031
 20
90.9469570623
 10
32.1542527187
 20
90.9504743743
 10
32.177955648
 20
90.9548301981
 10
32.2007746112
 20
90.9600489989
 10
32.2224831528
 20
90.9661063114
 10
32.2428577806
 20
90.9729082646
 10
32.2616985191
 20
90.9804714101
 10
32.2788443313
 20
90.9887791962
 10
32.2941416089
 20
90.9976880973
 10
32.3074372567
 20
91.0072272139
 10
32.3185671843
 20
91.0173674455
 10
32.3273845041
 20
91.0278779649
 10
32.3337780427
 20
91.0386818298
 10
32.3376628745
 20
91.0498559825
 10
32.338969657
 20
91.061400423
  0
LINE
  5
3D6
100
AcDbEntity
  8
RACCORDO
100
AcDbLine
 62
7
  6
CONTINUOUS
 10
32.028499808
 20
90.9414981518
 11
30.628499808
 21
90.9607133623
  0
LWPOLYLINE
  5
3D7
100
AcDbEntity
  8
RACCORDO
100
AcDbPolyline
 62
7
  6
CONTINUOUS
 90
19
 70
0
 10
30.628499808
 20
90.9607133623
 10
30.6042368723
 20
90.9614366822
 10
30.5800583477
 20
90.9629469773
 10
30.5561308298
 20
90.9652442476
 10
30.5326282641
 20
90.9683377636
 10
30.5097179387
 20
90.9722182547
 10
30.4875606714
 20
90.9768579098
 10
30.4663198104
 20
90.9822770869
 10
30.4461789335
 20
90.9884554279
 10
30.4273244086
 20
90.9953040479
 10
30.4099284219
 20
91.0028358116
 10
30.3941295622
 20
91.0110378541
 10
30.3800562269
 20
91.0197826965
 10
30.3678367429
 20
91.029100288
 10
30.3576213558
 20
91.0389606794
 10
30.3495463261
 20
91.0491465435
 10
30.3437042704
 20
91.059585438
 10
30.3401602811
 20
91.0703498053
 10
30.338969657
 20
91.0814396454
  0
LWPOLYLINE
  5
3D8
100
AcDbEntity
  8
0
100
AcDbPolyline
 62
7
  6
CONTINUOUS
 90
15
 70
0
 10
34.510935025
 20
92.6270398172
 10
34.501875382
 20
92.630202809
 10
34.4923696629
 20
92.6403044853
 10
34.4828005741
 20
92.6574324428
 10
34.473132796
 20
92.6817289991
 10
34.4634016483
 20
92.7131404943
 10
34.4536876367
 20
92.751274203
 10
34.4439957886
 20
92.7958482823
 10
34.4343210766
 20
92.8465887214
 10
34.4247289249
 20
92.9027678222
 10
34.4152729054
 20
92.9635610681
 10
34.4058994461
 20
93.0287948959
 10
34.3965132547
 20
93.0987217274
 10
34.387093953
 20
93.1731449973
 10
34.3776619193
 20
93.2515270678
  0
LWPOLYLINE
  5
3D9
100
AcDbEntity
  8
0
100
AcDbPolyline
 62
7
  6
CONTINUOUS
 90
15
 70
0
 10
35.3109357764
 20
92.6270398172
 10
35.3018202375
 20
92.6302419418
 10
35.2923633403
 20
92.6403145741
 10
35.2828605954
 20
92.6573050334
 10
35.2732724496
 20
92.6813307455
 10
35.263638456
 20
92.7122972502
 10
35.2540390389
 20
92.7497822402
 10
35.2444977328
 20
92.7933872669
 10
35.2349910032
 20
92.8428840662
 10
35.2255286711
 20
92.8978725594
 10
35.2161547065
 20
92.957678494
 10
35.2068251394
 20
93.02214737
 10
35.1974178815
 20
93.0917974979
 10
35.1878762986
 20
93.1668170308
 10
35.178257025
 20
93.2464816942
  0
LWPOLYLINE
  5
3DA
100
AcDbEntity
  8
0
100
AcDbPolyline
 62
7
  6
CONTINUOUS
 90
15
 70
0
 10
33.7109349987
 20
92.6270398172
 10
33.7016191095
 20
92.6303841963
 10
33.6920795572
 20
92.6407215214
 10
33.6824770531
 20
92.6581325581
 10
33.6727782101
 20
92.6827521727
 10
33.6630164153
 20
92.7145253801
 10
33.6532732445
 20
92.7530486517
 10
33.6435566674
 20
92.7980186808
 10
33.6338587143
 20
92.8491656209
 10
33.6242370528
 20
92.9058012278
 10
33.6147357206
 20
92.9671701124
 10
33.60531068
 20
93.0330507537
 10
33.5958874853
 20
93.1035397552
 10
33.58644046
 20
93.1784576208
 10
33.5769952807
 20
93.2572038034
  0
LWPOLYLINE
  5
3DB
100
AcDbEntity
  8
0
100
AcDbPolyline
 62
7
  6
CONTINUOUS
 90
15
 70
0
 10
37.7109350705
 20
92.6270398172
 10
37.701347918
 20
92.6305816916
 10
37.6919576752
 20
92.6408986976
 10
37.6825014763
 20
92.6580794798
 10
37.6729217314
 20
92.6823369748
 10
37.6632760305
 20
92.7135909962
 10
37.6536307354
 20
92.7515172854
 10
37.6439892868
 20
92.7958805193
 10
37.6343482441
 20
92.8464379903
 10
37.6247636472
 20
92.9025545353
 10
37.6152846275
 20
92.9634827765
 10
37.6058620537
 20
93.0290648458
 10
37.5964045719
 20
93.0995572154
 10
37.5868664211
 20
93.1749923716
 10
37.5772933622
 20
93.2546626702
  0
LWPOLYLINE
  5
3DC
100
AcDbEntity
  8
0
100
AcDbPolyline
 62
7
  6
CONTINUOUS
 90
15
 70
0
 10
36.9109349489
 20
92.6270398172
 10
36.9011748239
 20
92.6307105988
 10
36.8917892086
 20
92.6411452468
 10
36.8824065932
 20
92.6582859503
 10
36.8730235284
 20
92.6820432223
 10
36.8636434636
 20
92.712276748
 10
36.8542393336
 20
92.7489307976
 10
36.8447887582
 20
92.7919625132
 10
36.8353141176
 20
92.8411017085
 10
36.8258554874
 20
92.8958772706
 10
36.8164551799
 20
92.9556780454
 10
36.8070708828
 20
93.0203842805
 10
36.7976157343
 20
93.0902824256
 10
36.7880470511
 20
93.1654333607
 10
36.7784075165
 20
93.245201553
  0
LWPOLYLINE
  5
3DD
100
AcDbEntity
  8
0
100
AcDbPolyline
 62
7
  6
CONTINUOUS
 90
15
 70
0
 10
36.1109359964
 20
92.6270398172
 10
36.100702851
 20
92.6310748286
 10
36.091300581
 20
92.6418745441
 10
36.081898267
 20
92.6594068102
 10
36.0724827533
 20
92.6836145674
 10
36.0630671957
 20
92.7143457545
 10
36.0536644283
 20
92.7513776931
 10
36.044283642
 20
92.794437974
 10
36.034915646
 20
92.8433016109
 10
36.025545702
 20
92.8977706898
 10
36.0161932111
 20
92.9574247324
 10
36.0068387721
 20
93.0220523107
 10
35.9974094439
 20
93.0918647917
 10
35.9878657234
 20
93.1669055673
 10
35.9782471137
 20
93.2465690614
  0
LWPOLYLINE
  5
3DE
100
AcDbEntity
  8
0
100
AcDbPolyline
 62
7
  6
CONTINUOUS
 90
3
 70
0
 10
37.3148248947
 20
92.155884046
 10
37.3242165706
 20
92.1444440149
 10
37.3309201956
 20
92.1420398312
  0
LWPOLYLINE
  5
3DF
100
AcDbEntity
  8
0
100
AcDbPolyline
 62
7
  6
CONTINUOUS
 90
3
 70
0
 10
39.7148247745
 20
92.1558839952
 10
39.7229820027
 20
92.1454106294
 10
39.7309200295
 20
92.1420398198
  0
LWPOLYLINE
  5
3E0
100
AcDbEntity
  8
0
100
AcDbPolyline
 62
7
  6
CONTINUOUS
 90
4
 70
0
 10
38.1148256532
 20
92.1558840564
 10
38.1208215089
 20
92.1474951065
 10
38.1297721261
 20
92.1421104654
 10
38.1309209549
 20
92.1420398408
  0
LWPOLYLINE
  5
3E1
100
AcDbEntity
  8
RACCORDO
100
AcDbPolyline
 62
250
  6
CONTINUOUS
 90
8
 70
0
 10
32.8346063893
 20
102.3813651735
 10
32.8334975386
 20
102.3829995621
 10
32.832372146
 20
102.3879039313
 10
32.8312425458
 20
102.3960245478
 10
32.8301211189
 20
102.4072724224
 10
32.829020156
 20
102.4215242976
 10
32.8279517226
 20
102.4386240091
 10
32.8269275292
 20
102.458384168
  0
LWPOLYLINE
  5
3E2
100
AcDbEntity
  8
0
100
AcDbPolyline
 62
7
  6
CONTINUOUS
 90
4
 70
0
 10
36.5148248195
 20
92.1558839899
 10
36.518661015
 20
92.1500756043
 10
36.5276116323
 20
92.1426255137
 10
36.530920069
 20
92.1420398192
  0
LWPOLYLINE
  5
3E3
100
AcDbEntity
  8
0
100
AcDbPolyline
 62
7
  6
CONTINUOUS
 90
4
 70
0
 10
38.9148258316
 20
92.1558840054
 10
38.9174264471
 20
92.1517754983
 10
38.9263770644
 20
92.1431446331
 10
38.9309210835
 20
92.142039832
  0
LINE
  5
3E4
100
AcDbEntity
  8
0
100
AcDbLine
 62
7
  6
CONTINUOUS
 10
34.9331721547
 20
95.1080247445
 11
34.6470159228
 21
95.5981954068
  0
LINE
  5
3E5
100
AcDbEntity
  8
0
100
AcDbLine
 62
7
  6
CONTINUOUS
 10
37.0286687186
 20
92.6460546182
 11
37.3148248947
 21
92.155884046
  0
LINE
  5
3E6
100
AcDbEntity
  8
0
100
AcDbLine
 62
7
  6
CONTINUOUS
 10
35.7331727667
 20
95.1080247709
 11
35.447016545
 21
95.5981954225
  0
LINE
  5
3E7
100
AcDbEntity
  8
0
100
AcDbLine
 62
7
  6
CONTINUOUS
 10
37.8286694805
 20
92.6460546195
 11
38.1148256532
 21
92.1558840564
  0
LINE
  5
3E8
100
AcDbEntity
  8
0
100
AcDbLine
 62
7
  6
CONTINUOUS
 10
36.5331721501
 20
95.1080248551
 11
36.2470159464
 21
95.5981955063
  0
LINE
  5
3E9
100
AcDbEntity
  8
0
100
AcDbLine
 62
7
  6
CONTINUOUS
 10
38.6286696737
 20
92.6460545622
 11
38.9148258316
 21
92.1558840054
  0
LINE
  5
3EA
100
AcDbEntity
  8
0
100
AcDbLine
 62
7
  6
CONTINUOUS
 10
37.3331715848
 20
95.108024772
 11
37.0470153566
 21
95.5981954395
  0
LINE
  5
3EB
100
AcDbEntity
  8
0
100
AcDbLine
 62
7
  6
CONTINUOUS
 10
39.4286686111
 20
92.6460545644
 11
39.7148247745
 21
92.1558839952
  0
LINE
  5
3EC
100
AcDbEntity
  8
0
100
AcDbLine
 62
7
  6
CONTINUOUS
 10
37.0470153566
 20
95.5981954395
 11
37.0482906447
 21
95.5959181978
  0
LWPOLYLINE
  5
3ED
100
AcDbEntity
  8
0
100
AcDbPolyline
 62
7
  6
CONTINUOUS
 90
3
 70
0
 10
36.2470159464
 20
95.5981955063
 10
36.2516857064
 20
95.5890171832
 10
36.2606363237
 20
95.5650016529
  0
LINE
  5
3EE
100
AcDbEntity
  8
0
100
AcDbLine
 62
7
  6
CONTINUOUS
 10
36.5406512042
 20
95.0931506498
 11
36.5331721501
 21
95.1080248551
  0
LINE
  5
3EF
100
AcDbEntity
  8
0
100
AcDbLine
 62
7
  6
CONTINUOUS
 10
37.847015982
 20
95.598195406
 11
37.8538462002
 21
95.583990817
  0
LWPOLYLINE
  5
3F0
100
AcDbEntity
  8
0
100
AcDbPolyline
 62
7
  6
CONTINUOUS
 90
12
 70
0
 10
35.447016545
 20
95.5981954225
 10
35.4550807681
 20
95.5808993162
 10
35.4640313854
 20
95.5537054332
 10
35.4729820027
 20
95.5182292089
 10
35.48193262
 20
95.4746458871
 10
35.4908832372
 20
95.423170759
 10
35.4998338545
 20
95.3640580994
 10
35.5087844718
 20
95.2975999108
 10
35.5177350891
 20
95.2241244809
 10
35.5266857064
 20
95.1439947611
 10
35.5356363237
 20
95.0576065735
 10
35.544586941
 20
94.9653866554
  0
LWPOLYLINE
  5
3F1
100
AcDbEntity
  8
0
100
AcDbPolyline
 62
7
  6
CONTINUOUS
 90
12
 70
0
 10
37.0482906447
 20
95.5959181978
 10
37.0572412619
 20
95.5750981784
 10
37.0661918792
 20
95.5458901433
 10
37.0751424965
 20
95.508438374
 10
37.0840931138
 20
95.4629278738
 10
37.0930437311
 20
95.4095834546
 10
37.1019943484
 20
95.3486686257
 10
37.1109449656
 20
95.2804842927
 10
37.1198955829
 20
95.2053672707
 10
37.1288462002
 20
95.1236886206
 10
37.1377968175
 20
95.0358518163
 10
37.1467474348
 20
94.9422907515
  0
LWPOLYLINE
  5
3F2
100
AcDbEntity
  8
0
100
AcDbPolyline
 62
7
  6
CONTINUOUS
 90
13
 70
0
 10
35.8806214431
 20
95.0931506498
 10
35.8886819467
 20
95.0724250966
 10
35.8967640641
 20
95.0468355132
 10
35.9048677955
 20
95.0164467845
 10
35.9130093463
 20
94.981270034
 10
35.921172511
 20
94.9414686131
 10
35.9293086732
 20
94.89744646
 10
35.9373912707
 20
94.8495894562
 10
35.9454468657
 20
94.7979938584
 10
35.9535065275
 20
94.7426841868
 10
35.9615684066
 20
94.6838904477
 10
35.9696343525
 20
94.6218309297
 10
35.9777409837
 20
94.5564481684
  0
LWPOLYLINE
  5
3F3
100
AcDbEntity
  8
0
100
AcDbPolyline
 62
7
  6
CONTINUOUS
 90
12
 70
0
 10
37.8538462002
 20
95.583990817
 10
37.8627968175
 20
95.5579502888
 10
37.8717474348
 20
95.5236064634
 10
37.8806980521
 20
95.4811289911
 10
37.8896486693
 20
95.4307277003
 10
37.8985992866
 20
95.3726515615
 10
37.9075499039
 20
95.3071874569
 10
37.9165005212
 20
95.2346587636
 10
37.9254511385
 20
95.1554237559
 10
37.9344017558
 20
95.0698738359
 10
37.943352373
 20
94.9784315997
 10
37.9523029903
 20
94.8815487501
  0
LWPOLYLINE
  5
3F4
100
AcDbEntity
  8
0
100
AcDbPolyline
 62
7
  6
CONTINUOUS
 90
11
 70
0
 10
36.1606363237
 20
95.5650016529
 10
36.169586941
 20
95.5326479423
 10
36.1785375582
 20
95.4921158742
 10
36.1874881755
 20
95.4436056694
 10
36.1964387928
 20
95.3873569587
 10
36.2053894101
 20
95.3236476
 10
36.2143400274
 20
95.2527923047
 10
36.2232906447
 20
95.1751410838
 10
36.2322412619
 20
95.0910775188
 10
36.2411918792
 20
95.0010168664
 10
36.2501424965
 20
94.9054040078
  0
LWPOLYLINE
  5
3F5
100
AcDbEntity
  8
0
100
AcDbPolyline
 62
7
  6
CONTINUOUS
 90
11
 70
0
 10
36.2606363237
 20
95.5650016529
 10
36.269586941
 20
95.5326479423
 10
36.2785375582
 20
95.4921158742
 10
36.2874881755
 20
95.4436056694
 10
36.2964387928
 20
95.3873569587
 10
36.3053894101
 20
95.3236476
 10
36.3143400274
 20
95.2527923047
 10
36.3232906447
 20
95.1751410838
 10
36.3322412619
 20
95.0910775188
 10
36.3411918792
 20
95.0010168664
 10
36.3501424965
 20
94.9054040078
  0
LWPOLYLINE
  5
3F6
100
AcDbEntity
  8
0
100
AcDbPolyline
 62
7
  6
CONTINUOUS
 90
13
 70
0
 10
36.6377707447
 20
94.5564481684
 10
36.6296641135
 20
94.6218309297
 10
36.6215981676
 20
94.6838904477
 10
36.6135362885
 20
94.7426841868
 10
36.6054766267
 20
94.7979938584
 10
36.5974210318
 20
94.8495894562
 10
36.5893384343
 20
94.89744646
 10
36.5812022721
 20
94.9414686131
 10
36.5730391074
 20
94.981270034
 10
36.5648975566
 20
95.0164467845
 10
36.5567938252
 20
95.0468355132
 10
36.5487117078
 20
95.0724250966
 10
36.5406512042
 20
95.0931506498
  0
LWPOLYLINE
  5
3F7
100
AcDbEntity
  8
0
100
AcDbPolyline
 62
7
  6
CONTINUOUS
 90
13
 70
0
 10
37.4435768447
 20
94.5079088635
 10
37.4339481669
 20
94.5876349218
 10
37.4243938743
 20
94.6627312454
 10
37.4149547392
 20
94.7325815982
 10
37.4055899893
 20
94.7972379803
 10
37.3962231695
 20
94.8569312435
 10
37.3868280149
 20
94.9114798449
 10
37.3774307904
 20
94.96040875
 10
37.3680338367
 20
95.0034377822
 10
37.3586394922
 20
95.0403247878
 10
37.3492454185
 20
95.0708810379
 10
37.3398469402
 20
95.094951159
 10
37.3331715848
 20
95.108024772
  0
LWPOLYLINE
  5
3F8
100
AcDbEntity
  8
0
100
AcDbPolyline
 62
7
  6
CONTINUOUS
 90
13
 70
0
 10
38.2436103722
 20
94.5076304747
 10
38.2339859414
 20
94.5873352705
 10
38.2244405225
 20
94.6623801388
 10
38.2150270628
 20
94.7320685696
 10
38.2056926151
 20
94.7965601788
 10
38.1963285283
 20
94.856292709
 10
38.1869024941
 20
94.911072767
 10
38.1774468207
 20
94.9603333895
 10
38.1679497816
 20
95.0037980347
 10
38.1583805023
 20
95.041255152
 10
38.1487698572
 20
95.0722582
 10
38.139198743
 20
95.0963693454
 10
38.1331722136
 20
95.1080247444
  0
LWPOLYLINE
  5
3F9
100
AcDbEntity
  8
0
100
AcDbPolyline
 62
7
  6
CONTINUOUS
 90
13
 70
0
 10
38.5177207318
 20
93.250783795
 10
38.5271784269
 20
93.1722274305
 10
38.5366143782
 20
93.0977250452
 10
38.5460013039
 20
93.0278540322
 10
38.5553664859
 20
92.9627420954
 10
38.5648150451
 20
92.902061991
 10
38.5744042139
 20
92.8459675367
 10
38.58407676
 20
92.7953082237
 10
38.5937661074
 20
92.7508171619
 10
38.6034768558
 20
92.7127686594
 10
38.6132044055
 20
92.6814410891
 10
38.6228683812
 20
92.6572249749
 10
38.6286696738
 20
92.6460545622
  0
LWPOLYLINE
  5
3FA
100
AcDbEntity
  8
0
100
AcDbPolyline
 62
7
  6
CONTINUOUS
 90
13
 70
0
 10
39.0440861863
 20
94.5035968336
 10
39.0346141952
 20
94.5822552912
 10
39.0251693104
 20
94.6568047037
 10
39.0157829841
 20
94.7266436973
 10
39.0064237641
 20
94.7916861197
 10
38.9969808449
 20
94.8523028652
 10
38.9873952721
 20
94.9083497725
 10
38.9777260001
 20
94.9589659427
 10
38.9680390867
 20
95.003420502
 10
38.9583295388
 20
95.0414392189
 10
38.9486023494
 20
95.0727403014
 10
38.9389385555
 20
95.0969304117
 10
38.9331727785
 20
95.1080247751
  0
LWPOLYLINE
  5
3FB
100
AcDbEntity
  8
0
100
AcDbPolyline
 62
7
  6
CONTINUOUS
 90
13
 70
0
 10
36.9172636109
 20
93.2546626702
 10
36.9268366699
 20
93.1749923716
 10
36.9363748208
 20
93.0995572154
 10
36.9458323028
 20
93.0290648458
 10
36.9552548767
 20
92.9634827765
 10
36.9647338966
 20
92.9025545353
 10
36.9743184935
 20
92.8464379903
 10
36.9839595364
 20
92.7958805193
 10
36.9936009851
 20
92.7515172854
 10
37.0032462804
 20
92.7135909962
 10
37.0128919814
 20
92.6823369748
 10
37.0224717264
 20
92.6580794798
 10
37.0286687185
 20
92.6460546182
  0
LWPOLYLINE
  5
3FC
100
AcDbEntity
  8
0
100
AcDbPolyline
 62
7
  6
CONTINUOUS
 90
13
 70
0
 10
37.7170150828
 20
93.2567861903
 10
37.7264437443
 20
93.1781934596
 10
37.7358781025
 20
93.10338736
 10
37.7452975951
 20
93.0329346103
 10
37.7547227844
 20
92.9670612882
 10
37.7642247042
 20
92.9056978151
 10
37.7738464237
 20
92.8490719297
 10
37.7835448736
 20
92.7979332016
 10
37.7932618804
 20
92.7529728058
 10
37.803005245
 20
92.7144610441
 10
37.8127671664
 20
92.6827001858
 10
37.8224660671
 20
92.6580934437
 10
37.8286694805
 20
92.6460546195
  0
LINE
  5
3FD
100
AcDbEntity
  8
0
100
AcDbLine
 62
7
  6
CONTINUOUS
 10
36.7784075165
 20
93.245201553
 11
36.7590253121
 21
93.4160607898
  0
LWPOLYLINE
  5
3FE
100
AcDbEntity
  8
0
100
AcDbPolyline
 62
7
  6
CONTINUOUS
 90
3
 70
0
 10
36.6623713687
 20
94.342338004
 10
36.6541650732
 20
94.4160957275
 10
36.6377707447
 20
94.5564481684
  0
LINE
  5
3FF
100
AcDbEntity
  8
0
100
AcDbLine
 62
7
  6
CONTINUOUS
 10
36.7835470915
 20
94.5079088635
 11
36.8029024875
 21
94.3372198418
  0
LINE
  5
400
100
AcDbEntity
  8
0
100
AcDbLine
 62
7
  6
CONTINUOUS
 10
37.4629322405
 20
94.3372198418
 11
37.4435768447
 21
94.5079088635
  0
LINE
  5
401
100
AcDbEntity
  8
0
100
AcDbLine
 62
7
  6
CONTINUOUS
 10
37.5835806291
 20
94.5076304747
 11
37.6029270888
 21
94.3370016929
  0
LINE
  5
402
100
AcDbEntity
  8
0
100
AcDbLine
 62
7
  6
CONTINUOUS
 10
38.2629568317
 20
94.3370016929
 11
38.2436103722
 21
94.5076304747
  0
LINE
  5
403
100
AcDbEntity
  8
0
100
AcDbLine
 62
7
  6
CONTINUOUS
 10
38.4986367308
 20
93.4193457388
 11
38.5177207318
 21
93.250783795
  0
LINE
  5
404
100
AcDbEntity
  8
0
100
AcDbLine
 62
7
  6
CONTINUOUS
 10
38.3840564424
 20
94.5035968336
 11
38.403162744
 21
94.3348538771
  0
LINE
  5
405
100
AcDbEntity
  8
0
100
AcDbLine
 62
7
  6
CONTINUOUS
 10
39.1777504778
 20
93.250783795
 11
39.1586664764
 21
93.4193457388
  0
LINE
  5
406
100
AcDbEntity
  8
0
100
AcDbLine
 62
7
  6
CONTINUOUS
 10
39.0631924881
 20
94.3348538771
 11
39.0440861863
 21
94.5035968336
  0
LINE
  5
407
100
AcDbEntity
  8
0
100
AcDbLine
 62
7
  6
CONTINUOUS
 10
36.8981565111
 20
93.4237261933
 11
36.9172636109
 21
93.2546626702
  0
LINE
  5
408
100
AcDbEntity
  8
0
100
AcDbLine
 62
7
  6
CONTINUOUS
 10
37.5772933622
 20
93.2546626702
 11
37.5581862628
 21
93.4237261933
  0
LINE
  5
409
100
AcDbEntity
  8
0
100
AcDbLine
 62
7
  6
CONTINUOUS
 10
37.6981432339
 20
93.4238544477
 11
37.7170150828
 21
93.2567861903
  0
LINE
  5
40A
100
AcDbEntity
  8
0
100
AcDbLine
 62
7
  6
CONTINUOUS
 10
38.3770448249
 20
93.2567861903
 11
38.3581729761
 21
93.4238544477
  0
LINE
  5
40B
100
AcDbEntity
  8
0
100
AcDbLine
 62
7
  6
CONTINUOUS
 10
39.269891365
 20
93.691334617
 11
39.298829138
 21
93.417579182
  0
LINE
  5
40C
100
AcDbEntity
  8
0
100
AcDbLine
 62
7
  6
CONTINUOUS
 10
39.2033552315
 20
94.3330864566
 11
39.2319446092
 21
94.062499221
  0
LINE
  5
40D
100
AcDbEntity
  8
0
100
AcDbLine
 62
7
  6
CONTINUOUS
 10
39.9588588982
 20
93.417579182
 11
39.9299211254
 21
93.691334617
  0
LINE
  5
40E
100
AcDbEntity
  8
0
100
AcDbLine
 62
7
  6
CONTINUOUS
 10
39.8919743698
 20
94.062499221
 11
39.8633849921
 21
94.3330864566
  0
LINE
  5
40F
100
AcDbEntity
  8
0
100
AcDbLine
 62
7
  6
CONTINUOUS
 10
40.0699059245
 20
93.6911925141
 11
40.098866906
 21
93.4172341399
  0
LINE
  5
410
100
AcDbEntity
  8
0
100
AcDbLine
 62
7
  6
CONTINUOUS
 10
40.0038655113
 20
94.3284165961
 11
40.0320896818
 21
94.0610891791
  0
LINE
  5
411
100
AcDbEntity
  8
0
100
AcDbLine
 62
7
  6
CONTINUOUS
 10
40.7588966568
 20
93.4172341399
 11
40.7299356757
 21
93.6911925141
  0
LINE
  5
412
100
AcDbEntity
  8
0
100
AcDbLine
 62
7
  6
CONTINUOUS
 10
40.6921194335
 20
94.0610891791
 11
40.6638952634
 21
94.3284165961
  0
LINE
  5
413
100
AcDbEntity
  8
0
100
AcDbLine
 62
7
  6
CONTINUOUS
 10
40.8699621171
 20
93.6906542636
 11
40.8990068195
 21
93.4159640159
  0
LINE
  5
414
100
AcDbEntity
  8
0
100
AcDbLine
 62
7
  6
CONTINUOUS
 10
40.8032354195
 20
94.334186224
 11
40.8320404412
 21
94.0615744831
  0
LINE
  5
415
100
AcDbEntity
  8
0
100
AcDbLine
 62
7
  6
CONTINUOUS
 10
41.5590365614
 20
93.4159640159
 11
41.5299918591
 21
93.6906542636
  0
LINE
  5
416
100
AcDbEntity
  8
0
100
AcDbLine
 62
7
  6
CONTINUOUS
 10
41.4920701835
 20
94.0615744831
 11
41.463265162
 21
94.334186224
  0
LINE
  5
417
100
AcDbEntity
  8
0
100
AcDbLine
 62
7
  6
CONTINUOUS
 10
41.602930342
 20
94.336976084
 11
41.6319023363
 21
94.0629188037
  0
LINE
  5
418
100
AcDbEntity
  8
0
100
AcDbLine
 62
7
  6
CONTINUOUS
 10
41.6696842923
 20
93.6933547148
 11
41.6980944702
 21
93.4243035754
  0
LINE
  5
419
100
AcDbEntity
  8
0
100
AcDbLine
 62
7
  6
CONTINUOUS
 10
39.2319446092
 20
94.062499221
 11
39.269891365
 21
93.691334617
  0
LINE
  5
41A
100
AcDbEntity
  8
0
100
AcDbLine
 62
7
  6
CONTINUOUS
 10
39.9299211254
 20
93.691334617
 11
39.8919743698
 21
94.062499221
  0
LINE
  5
41B
100
AcDbEntity
  8
0
100
AcDbLine
 62
7
  6
CONTINUOUS
 10
40.0320896818
 20
94.0610891791
 11
40.0699059245
 21
93.6911925141
  0
LINE
  5
41C
100
AcDbEntity
  8
0
100
AcDbLine
 62
7
  6
CONTINUOUS
 10
40.7299356757
 20
93.6911925141
 11
40.6921194335
 21
94.0610891791
  0
LINE
  5
41D
100
AcDbEntity
  8
0
100
AcDbLine
 62
7
  6
CONTINUOUS
 10
40.8320404412
 20
94.0615744831
 11
40.8699621171
 21
93.6906542636
  0
LINE
  5
41E
100
AcDbEntity
  8
0
100
AcDbLine
 62
7
  6
CONTINUOUS
 10
41.5299918591
 20
93.6906542636
 11
41.4920701835
 21
94.0615744831
  0
LINE
  5
41F
100
AcDbEntity
  8
0
100
AcDbLine
 62
7
  6
CONTINUOUS
 10
41.6319023363
 20
94.0629188037
 11
41.6696842923
 21
93.6933547148
  0
LWPOLYLINE
  5
420
100
AcDbEntity
  8
0
100
AcDbPolyline
 62
7
  6
CONTINUOUS
 90
12
 70
0
 10
39.6155745953
 20
92.8066132853
 10
39.6245252126
 20
92.7133487628
 10
39.6334758298
 20
92.6258326215
 10
39.6424264471
 20
92.5444971713
 10
39.6513770644
 20
92.469744191
 10
39.6603276817
 20
92.4019429433
 10
39.669278299
 20
92.3414283508
 10
39.6782289163
 20
92.2884993416
 10
39.6871795335
 20
92.2434173728
 10
39.6961301508
 20
92.2064051387
 10
39.7050807681
 20
92.1776454709
 10
39.7148247745
 20
92.1558839952
  0
LWPOLYLINE
  5
421
100
AcDbEntity
  8
0
100
AcDbPolyline
 62
7
  6
CONTINUOUS
 90
14
 70
0
 10
39.7155745953
 20
92.8066132853
 10
39.7245252126
 20
92.7133487628
 10
39.7334758298
 20
92.6258326215
 10
39.7424264471
 20
92.5444971713
 10
39.7513770644
 20
92.469744191
 10
39.7603276817
 20
92.4019429433
 10
39.769278299
 20
92.3414283508
 10
39.7782289163
 20
92.2884993416
 10
39.7871795335
 20
92.2434173728
 10
39.7961301508
 20
92.2064051387
 10
39.8050807681
 20
92.1776454709
 10
39.8140313854
 20
92.1572804351
 10
39.8229820027
 20
92.1454106294
 10
39.8309200295
 20
92.1420398198
  0
LWPOLYLINE
  5
422
100
AcDbEntity
  8
0
100
AcDbPolyline
 62
7
  6
CONTINUOUS
 90
13
 70
0
 10
42.0143400274
 20
92.8199138945
 10
42.0232906447
 20
92.7258914514
 10
42.0322412619
 20
92.6375554231
 10
42.0411918792
 20
92.5553421704
 10
42.0501424965
 20
92.4796578091
 10
42.0590931138
 20
92.4108762037
 10
42.0680437311
 20
92.3493371205
 10
42.0769943484
 20
92.2953445496
 10
42.0859449656
 20
92.249165203
 10
42.0948955829
 20
92.2110271972
 10
42.1038462002
 20
92.1811189261
 10
42.1127968175
 20
92.1595881306
 10
42.1148257878
 20
92.1558839988
  0
LWPOLYLINE
  5
423
100
AcDbEntity
  8
0
100
AcDbPolyline
 62
7
  6
CONTINUOUS
 90
13
 70
0
 10
40.4121795335
 20
92.8433988127
 10
40.4211301508
 20
92.7480730632
 10
40.4300807681
 20
92.6583241442
 10
40.4390313854
 20
92.5745953941
 10
40.4479820027
 20
92.4973004128
 10
40.45693262
 20
92.4268210191
 10
40.4658832373
 20
92.3635053644
 10
40.4748338545
 20
92.3076662128
 10
40.4837844718
 20
92.2595793964
 10
40.4927350891
 20
92.2194824525
 10
40.5016857064
 20
92.1875734501
 10
40.5106363237
 20
92.1640100121
 10
40.5148249422
 20
92.1558840485
  0
LWPOLYLINE
  5
424
100
AcDbEntity
  8
0
100
AcDbPolyline
 62
7
  6
CONTINUOUS
 90
15
 70
0
 10
40.5121795335
 20
92.8433988127
 10
40.5211301508
 20
92.7480730632
 10
40.5300807681
 20
92.6583241442
 10
40.5390313854
 20
92.5745953941
 10
40.5479820027
 20
92.4973004128
 10
40.55693262
 20
92.4268210191
 10
40.5658832373
 20
92.3635053644
 10
40.5748338545
 20
92.3076662128
 10
40.5837844718
 20
92.2595793964
 10
40.5927350891
 20
92.2194824525
 10
40.6016857064
 20
92.1875734501
 10
40.6106363237
 20
92.1640100121
 10
40.619586941
 20
92.1489085361
 10
40.6285375582
 20
92.1423436195
 10
40.6309202448
 20
92.1420398322
  0
LWPOLYLINE
  5
425
100
AcDbEntity
  8
0
100
AcDbPolyline
 62
7
  6
CONTINUOUS
 90
13
 70
0
 10
41.2087844718
 20
92.8809272893
 10
41.2177350891
 20
92.7836075297
 10
41.2266857064
 20
92.6916890658
 10
41.2356363237
 20
92.6056259534
 10
41.244586941
 20
92.5258433238
 10
41.2535375582
 20
92.4527352846
 10
41.2624881755
 20
92.3866629723
 10
41.2714387928
 20
92.3279527687
 10
41.2803894101
 20
92.2768946885
 10
41.2893400274
 20
92.2337409468
 10
41.2982906447
 20
92.198704713
 10
41.3072412619
 20
92.1719590582
 10
41.314825701
 20
92.1558840549
  0
LWPOLYLINE
  5
426
100
AcDbEntity
  8
0
100
AcDbPolyline
 62
7
  6
CONTINUOUS
 90
15
 70
0
 10
41.3087844718
 20
92.8809272893
 10
41.3177350891
 20
92.7836075297
 10
41.3266857064
 20
92.6916890658
 10
41.3356363237
 20
92.6056259534
 10
41.344586941
 20
92.5258433238
 10
41.3535375582
 20
92.4527352846
 10
41.3624881755
 20
92.3866629723
 10
41.3714387928
 20
92.3279527687
 10
41.3803894101
 20
92.2768946885
 10
41.3893400274
 20
92.2337409468
 10
41.3982906447
 20
92.198704713
 10
41.4072412619
 20
92.1719590582
 10
41.4161918792
 20
92.1536360996
 10
41.4251424965
 20
92.1438263488
 10
41.4309210008
 20
92.142039841
  0
LINE
  5
427
100
AcDbEntity
  8
0
100
AcDbLine
 62
7
  6
CONTINUOUS
 10
39.4455128669
 20
94.9555226067
 11
39.4634141014
 21
94.7544281994
  0
LINE
  5
428
100
AcDbEntity
  8
0
100
AcDbLine
 62
7
  6
CONTINUOUS
 10
39.5455128669
 20
94.9555226067
 11
39.5634141014
 21
94.7544281994
  0
LINE
  5
429
100
AcDbEntity
  8
0
100
AcDbLine
 62
7
  6
CONTINUOUS
 10
39.5976733607
 20
93.0085185302
 11
39.6155745953
 21
92.8066132853
  0
LINE
  5
42A
100
AcDbEntity
  8
0
100
AcDbLine
 62
7
  6
CONTINUOUS
 10
39.6976733607
 20
93.0085185302
 11
39.7155745953
 21
92.8066132853
  0
LINE
  5
42B
100
AcDbEntity
  8
0
100
AcDbLine
 62
7
  6
CONTINUOUS
 10
41.9964387928
 20
93.0231344285
 11
42.0143400274
 21
92.8199138945
  0
LINE
  5
42C
100
AcDbEntity
  8
0
100
AcDbLine
 62
7
  6
CONTINUOUS
 10
41.0476733607
 20
94.9323115301
 11
41.0655745953
 21
94.7289102417
  0
LINE
  5
42D
100
AcDbEntity
  8
0
100
AcDbLine
 62
7
  6
CONTINUOUS
 10
41.1476733607
 20
94.9323115301
 11
41.1655745953
 21
94.7289102417
  0
LINE
  5
42E
100
AcDbEntity
  8
0
100
AcDbLine
 62
7
  6
CONTINUOUS
 10
40.394278299
 20
93.0488720348
 11
40.4121795335
 21
92.8433988127
  0
LINE
  5
42F
100
AcDbEntity
  8
0
100
AcDbLine
 62
7
  6
CONTINUOUS
 10
40.494278299
 20
93.0488720348
 11
40.5121795335
 21
92.8433988127
  0
LINE
  5
430
100
AcDbEntity
  8
0
100
AcDbLine
 62
7
  6
CONTINUOUS
 10
40.2510684224
 20
94.8952107735
 11
40.268969657
 21
94.6883006136
  0
LINE
  5
431
100
AcDbEntity
  8
0
100
AcDbLine
 62
7
  6
CONTINUOUS
 10
40.3510684224
 20
94.8952107735
 11
40.368969657
 21
94.6883006136
  0
LINE
  5
432
100
AcDbEntity
  8
0
100
AcDbLine
 62
7
  6
CONTINUOUS
 10
41.1908832373
 20
93.0898234431
 11
41.2087844718
 21
92.8809272893
  0
LINE
  5
433
100
AcDbEntity
  8
0
100
AcDbLine
 62
7
  6
CONTINUOUS
 10
41.2908832373
 20
93.0898234431
 11
41.3087844718
 21
92.8809272893
  0
LINE
  5
434
100
AcDbEntity
  8
0
100
AcDbLine
 62
7
  6
CONTINUOUS
 10
41.8532289163
 20
94.8712401997
 11
41.8711301508
 21
94.6621750549
  0
LINE
  5
435
100
AcDbEntity
  8
0
100
AcDbLine
 62
7
  6
CONTINUOUS
 10
39.4634141014
 20
94.7544281994
 11
39.481315336
 21
94.5360187716
  0
LINE
  5
436
100
AcDbEntity
  8
0
100
AcDbLine
 62
7
  6
CONTINUOUS
 10
39.5634141014
 20
94.7544281994
 11
39.581315336
 21
94.5360187716
  0
LINE
  5
437
100
AcDbEntity
  8
0
100
AcDbLine
 62
7
  6
CONTINUOUS
 10
39.5797721261
 20
93.2275638154
 11
39.5976733607
 21
93.0085185302
  0
LINE
  5
438
100
AcDbEntity
  8
0
100
AcDbLine
 62
7
  6
CONTINUOUS
 10
39.6797721261
 20
93.2275638154
 11
39.6976733607
 21
93.0085185302
  0
LINE
  5
439
100
AcDbEntity
  8
0
100
AcDbLine
 62
7
  6
CONTINUOUS
 10
41.0655745953
 20
94.7289102417
 11
41.0834758298
 21
94.508697589
  0
LINE
  5
43A
100
AcDbEntity
  8
0
100
AcDbLine
 62
7
  6
CONTINUOUS
 10
41.1655745953
 20
94.7289102417
 11
41.1834758298
 21
94.508697589
  0
LINE
  5
43B
100
AcDbEntity
  8
0
100
AcDbLine
 62
7
  6
CONTINUOUS
 10
41.9785375582
 20
93.2432065246
 11
41.9964387928
 21
93.0231344285
  0
LINE
  5
43C
100
AcDbEntity
  8
0
100
AcDbLine
 62
7
  6
CONTINUOUS
 10
40.3763770644
 20
93.2706888683
 11
40.394278299
 21
93.0488720348
  0
LINE
  5
43D
100
AcDbEntity
  8
0
100
AcDbLine
 62
7
  6
CONTINUOUS
 10
40.4763770644
 20
93.2706888683
 11
40.494278299
 21
93.0488720348
  0
LINE
  5
43E
100
AcDbEntity
  8
0
100
AcDbLine
 62
7
  6
CONTINUOUS
 10
40.268969657
 20
94.6883006136
 11
40.2868708916
 21
94.4653805007
  0
LINE
  5
43F
100
AcDbEntity
  8
0
100
AcDbLine
 62
7
  6
CONTINUOUS
 10
40.368969657
 20
94.6883006136
 11
40.3868708916
 21
94.4653805007
  0
LINE
  5
440
100
AcDbEntity
  8
0
100
AcDbLine
 62
7
  6
CONTINUOUS
 10
41.1640313854
 20
93.4309221509
 11
41.1908832373
 21
93.0898234431
  0
LINE
  5
441
100
AcDbEntity
  8
0
100
AcDbLine
 62
7
  6
CONTINUOUS
 10
41.2640313854
 20
93.4309221509
 11
41.2908832373
 21
93.0898234431
  0
LINE
  5
442
100
AcDbEntity
  8
0
100
AcDbLine
 62
7
  6
CONTINUOUS
 10
41.8711301508
 20
94.6621750549
 11
41.8979820027
 21
94.3209006048
  0
LINE
  5
443
100
AcDbEntity
  8
0
100
AcDbLine
 62
7
  6
CONTINUOUS
 10
39.543969657
 20
93.699530377
 11
39.5797721261
 21
93.2275638154
  0
LINE
  5
444
100
AcDbEntity
  8
0
100
AcDbLine
 62
7
  6
CONTINUOUS
 10
39.481315336
 20
94.5360187716
 11
39.5171178052
 21
94.0647525231
  0
LINE
  5
445
100
AcDbEntity
  8
0
100
AcDbLine
 62
7
  6
CONTINUOUS
 10
39.643969657
 20
93.699530377
 11
39.6797721261
 21
93.2275638154
  0
LINE
  5
446
100
AcDbEntity
  8
0
100
AcDbLine
 62
7
  6
CONTINUOUS
 10
39.581315336
 20
94.5360187716
 11
39.6171178052
 21
94.0647525231
  0
LWPOLYLINE
  5
447
100
AcDbEntity
  8
0
100
AcDbPolyline
 62
7
  6
CONTINUOUS
 90
3
 70
0
 10
41.0834758298
 20
94.508697589
 10
41.119278299
 20
94.0354674685
 10
41.1640313854
 20
93.4309221509
  0
LWPOLYLINE
  5
448
100
AcDbEntity
  8
0
100
AcDbPolyline
 62
7
  6
CONTINUOUS
 90
3
 70
0
 10
41.1834758298
 20
94.508697589
 10
41.219278299
 20
94.0354674685
 10
41.2640313854
 20
93.4309221509
  0
LINE
  5
449
100
AcDbEntity
  8
0
100
AcDbLine
 62
7
  6
CONTINUOUS
 10
39.5171178052
 20
94.0647525231
 11
39.543969657
 21
93.699530377
  0
LINE
  5
44A
100
AcDbEntity
  8
0
100
AcDbLine
 62
7
  6
CONTINUOUS
 10
39.6171178052
 20
94.0647525231
 11
39.643969657
 21
93.699530377
  0
LWPOLYLINE
  5
44B
100
AcDbEntity
  8
0
100
AcDbPolyline
 62
7
  6
CONTINUOUS
 90
3
 70
0
 10
40.2868708916
 20
94.4653805007
 10
40.331623978
 20
93.8674482468
 10
40.3763770644
 20
93.2706888683
  0
LWPOLYLINE
  5
44C
100
AcDbEntity
  8
0
100
AcDbPolyline
 62
7
  6
CONTINUOUS
 90
3
 70
0
 10
40.3868708916
 20
94.4653805007
 10
40.431623978
 20
93.8674482468
 10
40.4763770644
 20
93.2706888683
  0
LINE
  5
44D
100
AcDbEntity
  8
0
100
AcDbLine
 62
7
  6
CONTINUOUS
 10
41.8979820027
 20
94.3209006048
 11
41.9785375582
 21
93.2432065246
  0
LWPOLYLINE
  5
44E
100
AcDbEntity
  8
0
100
AcDbPolyline
 62
7
  6
CONTINUOUS
 90
2
 70
0
 43
0.3500000006
 10
41.7032575378
 20
160.1270357666
 10
41.7032575378
 20
161.6270452881
  0
LINE
  5
44F
100
AcDbEntity
  8
RACCORDO
100
AcDbLine
 62
7
  6
CONTINUOUS
 10
41.838969657
 20
103.202489168
 11
41.838969657
 21
95.6120397954
  0
LINE
  5
450
100
AcDbEntity
  8
RACCORDO
100
AcDbLine
 62
7
  6
CONTINUOUS
 10
41.838969657
 20
92.6270398172
 11
41.838969657
 21
84.5515904665
  0
LINE
  5
451
100
AcDbEntity
  8
0
100
AcDbLine
 62
7
  6
CONTINUOUS
 10
40.1148247055
 20
95.5981956078
 11
39.8388708515
 21
95.1254307711
  0
LINE
  5
452
100
AcDbEntity
  8
0
100
AcDbLine
 62
7
  6
CONTINUOUS
 10
38.2470163551
 20
92.1558842261
 11
38.5220288608
 21
92.6270398172
  0
LINE
  5
453
100
AcDbEntity
  8
0
100
AcDbLine
 62
7
  6
CONTINUOUS
 10
40.9148253267
 20
95.5981955759
 11
40.6388714641
 21
95.1254307352
  0
LINE
  5
454
100
AcDbEntity
  8
0
100
AcDbLine
 62
7
  6
CONTINUOUS
 10
39.0470164324
 20
92.1558841733
 11
39.3220289581
 21
92.6270398172
  0
LINE
  5
455
100
AcDbEntity
  8
0
100
AcDbLine
 62
7
  6
CONTINUOUS
 10
41.7148259074
 20
95.5981955988
 11
41.4388720547
 21
95.1254307665
  0
LINE
  5
456
100
AcDbEntity
  8
0
100
AcDbLine
 62
7
  6
CONTINUOUS
 10
39.8470153859
 20
92.1558841683
 11
40.1220279142
 21
92.6270398172
  0
LINE
  5
457
100
AcDbEntity
  8
0
100
AcDbLine
 62
7
  6
CONTINUOUS
 10
42.5148251944
 20
95.5981956723
 11
42.238871365
 21
95.1254308542
  0
LINE
  5
458
100
AcDbEntity
  8
0
100
AcDbLine
 62
7
  6
CONTINUOUS
 10
40.6470156474
 20
92.1558842198
 11
40.922028156
 21
92.6270398172
  0
LWPOLYLINE
  5
459
100
AcDbEntity
  8
0
100
AcDbPolyline
 62
7
  6
CONTINUOUS
 90
4
 70
0
 10
40.1148247055
 20
95.5981956078
 10
40.1168091632
 20
95.6013956987
 10
40.1257597805
 20
95.6106151062
 10
40.1309199906
 20
95.612039809
  0
LWPOLYLINE
  5
45A
100
AcDbEntity
  8
0
100
AcDbPolyline
 62
7
  6
CONTINUOUS
 90
4
 70
0
 10
41.7148259074
 20
95.5981955988
 10
41.718969657
 20
95.6044018381
 10
41.7279202743
 20
95.611557919
 10
41.7309211868
 20
95.6120397954
  0
LWPOLYLINE
  5
45B
100
AcDbEntity
  8
0
100
AcDbPolyline
 62
7
  6
CONTINUOUS
 90
3
 70
0
 10
40.9148253267
 20
95.5981955759
 10
40.9223647187
 20
95.6081240198
 10
40.9309206342
 20
95.6120397964
  0
LWPOLYLINE
  5
45C
100
AcDbEntity
  8
0
100
AcDbPolyline
 62
7
  6
CONTINUOUS
 90
3
 70
0
 10
42.5148251944
 20
95.5981956723
 10
42.5245252126
 20
95.6098517137
 10
42.5309204137
 20
95.6120398171
  0
LWPOLYLINE
  5
45D
100
AcDbEntity
  8
0
100
AcDbPolyline
 62
7
  6
CONTINUOUS
 90
3
 70
0
 10
35.8309211229
 20
92.1420398336
 10
35.8399573113
 20
92.1464073851
 10
35.8470164773
 20
92.1558841796
  0
LWPOLYLINE
  5
45E
100
AcDbEntity
  8
0
100
AcDbPolyline
 62
7
  6
CONTINUOUS
 90
3
 70
0
 10
38.2309209549
 20
92.1420398408
 10
38.2387227434
 20
92.1452959653
 10
38.2470163551
 20
92.1558842261
  0
LWPOLYLINE
  5
45F
100
AcDbEntity
  8
0
100
AcDbPolyline
 62
7
  6
CONTINUOUS
 90
3
 70
0
 10
34.2309201497
 20
92.1420398302
 10
34.2377968175
 20
92.1445697055
 10
34.2470155487
 20
92.1558842148
  0
LWPOLYLINE
  5
460
100
AcDbEntity
  8
0
100
AcDbPolyline
 62
7
  6
CONTINUOUS
 90
4
 70
0
 10
36.630920069
 20
92.1420398192
 10
36.6365622496
 20
92.1437430472
 10
36.6455128669
 20
92.1534226838
 10
36.6470154201
 20
92.1558841631
  0
LWPOLYLINE
  5
461
100
AcDbEntity
  8
0
100
AcDbPolyline
 62
7
  6
CONTINUOUS
 90
4
 70
0
 10
39.0309210835
 20
92.142039832
 10
39.0353276817
 20
92.143078827
 10
39.044278299
 20
92.1515784058
 10
39.0470164324
 20
92.1558841733
  0
LWPOLYLINE
  5
462
100
AcDbEntity
  8
0
100
AcDbPolyline
 62
7
  6
CONTINUOUS
 90
4
 70
0
 10
35.0309209055
 20
92.1420398405
 10
35.0344017558
 20
92.1426881646
 10
35.0433523731
 20
92.1503030403
 10
35.0470163075
 20
92.1558842273
  0
LWPOLYLINE
  5
463
100
AcDbEntity
  8
0
100
AcDbPolyline
 62
7
  6
CONTINUOUS
 90
4
 70
0
 10
41.4309210008
 20
92.142039841
 10
41.4340931138
 20
92.1425782637
 10
41.4430437311
 20
92.14989801
 10
41.447016399
 20
92.1558842245
  0
LWPOLYLINE
  5
464
100
AcDbEntity
  8
0
100
AcDbPolyline
 62
7
  6
CONTINUOUS
 90
4
 70
0
 10
37.4309201956
 20
92.1420398312
 10
37.4331671879
 20
92.1423100033
 10
37.4421178051
 20
92.148745147
 10
37.4470155965
 20
92.1558842174
  0
LWPOLYLINE
  5
465
100
AcDbEntity
  8
0
100
AcDbPolyline
 62
7
  6
CONTINUOUS
 90
4
 70
0
 10
43.830920297
 20
92.1420398332
 10
43.8328585459
 20
92.1422408624
 10
43.8418091632
 20
92.1483807062
 10
43.847015701
 20
92.1558842219
  0
LWPOLYLINE
  5
466
100
AcDbEntity
  8
0
100
AcDbPolyline
 62
7
  6
CONTINUOUS
 90
4
 70
0
 10
33.4309201187
 20
92.1420398187
 10
33.4322412619
 20
92.1421332185
 10
33.4411918792
 20
92.1476827435
 10
33.4470154642
 20
92.1558841578
  0
LWPOLYLINE
  5
467
100
AcDbEntity
  8
0
100
AcDbPolyline
 62
7
  6
CONTINUOUS
 90
4
 70
0
 10
39.8309200295
 20
92.1420398198
 10
39.83193262
 20
92.1420946873
 10
39.8408832372
 20
92.1473489883
 10
39.8470153859
 20
92.1558841683
  0
LINE
  5
468
100
AcDbEntity
  8
0
100
AcDbLine
 62
7
  6
CONTINUOUS
 10
33.3309201187
 20
92.1420398187
 11
33.4309201187
 21
92.1420398187
  0
LINE
  5
469
100
AcDbEntity
  8
0
100
AcDbLine
 62
7
  6
CONTINUOUS
 10
34.1309201497
 20
92.1420398302
 11
34.2309201497
 21
92.1420398302
  0
LINE
  5
46A
100
AcDbEntity
  8
0
100
AcDbLine
 62
7
  6
CONTINUOUS
 10
34.9309209055
 20
92.1420398405
 11
35.0309209055
 21
92.1420398405
  0
LINE
  5
46B
100
AcDbEntity
  8
0
100
AcDbLine
 62
7
  6
CONTINUOUS
 10
35.7309211229
 20
92.1420398336
 11
35.8309211229
 21
92.1420398336
  0
LINE
  5
46C
100
AcDbEntity
  8
0
100
AcDbLine
 62
7
  6
CONTINUOUS
 10
36.530920069
 20
92.1420398192
 11
36.630920069
 21
92.1420398192
  0
LINE
  5
46D
100
AcDbEntity
  8
0
100
AcDbLine
 62
7
  6
CONTINUOUS
 10
37.3309201956
 20
92.1420398312
 11
37.4309201956
 21
92.1420398312
  0
LINE
  5
46E
100
AcDbEntity
  8
0
100
AcDbLine
 62
7
  6
CONTINUOUS
 10
38.1309209549
 20
92.1420398408
 11
38.2309209549
 21
92.1420398408
  0
LINE
  5
46F
100
AcDbEntity
  8
0
100
AcDbLine
 62
7
  6
CONTINUOUS
 10
38.9309210835
 20
92.142039832
 11
39.0309210835
 21
92.142039832
  0
LINE
  5
470
100
AcDbEntity
  8
0
100
AcDbLine
 62
7
  6
CONTINUOUS
 10
39.7309200295
 20
92.1420398198
 11
39.8309200295
 21
92.1420398198
  0
LINE
  5
471
100
AcDbEntity
  8
0
100
AcDbLine
 62
7
  6
CONTINUOUS
 10
40.5309202448
 20
92.1420398322
 11
40.6309202448
 21
92.1420398322
  0
LINE
  5
472
100
AcDbEntity
  8
0
100
AcDbLine
 62
7
  6
CONTINUOUS
 10
41.3309210008
 20
92.142039841
 11
41.4309210008
 21
92.142039841
  0
LINE
  5
473
100
AcDbEntity
  8
0
100
AcDbLine
 62
7
  6
CONTINUOUS
 10
42.1309210341
 20
92.1420398302
 11
42.2309210341
 21
92.1420398302
  0
LINE
  5
474
100
AcDbEntity
  8
0
100
AcDbLine
 62
7
  6
CONTINUOUS
 10
42.9309199995
 20
92.1420398205
 11
43.0309199995
 21
92.1420398205
  0
LINE
  5
475
100
AcDbEntity
  8
0
100
AcDbLine
 62
7
  6
CONTINUOUS
 10
43.730920297
 20
92.1420398332
 11
43.830920297
 21
92.1420398332
  0
LINE
  5
476
100
AcDbEntity
  8
0
100
AcDbLine
 62
7
  6
CONTINUOUS
 10
44.5309210429
 20
92.1420398411
 11
44.6309210429
 21
92.1420398411
  0
LINE
  5
477
100
AcDbEntity
  8
0
100
AcDbLine
 62
7
  6
CONTINUOUS
 10
45.3309209741
 20
92.1420398282
 11
45.4309209741
 21
92.1420398282
  0
LINE
  5
478
100
AcDbEntity
  8
0
100
AcDbLine
 62
7
  6
CONTINUOUS
 10
46.1309199786
 20
92.1420398212
 11
46.2309199786
 21
92.1420398212
  0
LINE
  5
479
100
AcDbEntity
  8
0
100
AcDbLine
 62
7
  6
CONTINUOUS
 10
46.9309203515
 20
92.1420398341
 11
47.0309203515
 21
92.1420398341
  0
LINE
  5
47A
100
AcDbEntity
  8
0
100
AcDbLine
 62
7
  6
CONTINUOUS
 10
47.7309210807
 20
92.142039841
 11
47.8309210807
 21
92.142039841
  0
LINE
  5
47B
100
AcDbEntity
  8
0
100
AcDbLine
 62
7
  6
CONTINUOUS
 10
48.5309209031
 20
92.1420398261
 11
48.6309209031
 21
92.1420398261
  0
LINE
  5
47C
100
AcDbEntity
  8
0
100
AcDbLine
 62
7
  6
CONTINUOUS
 10
49.3309199663
 20
92.142039822
 11
49.4309199663
 21
92.142039822
  0
LINE
  5
47D
100
AcDbEntity
  8
0
100
AcDbLine
 62
7
  6
CONTINUOUS
 10
50.1309204079
 20
92.142039835
 11
50.2309204079
 21
92.142039835
  0
LINE
  5
47E
100
AcDbEntity
  8
0
100
AcDbLine
 62
7
  6
CONTINUOUS
 10
50.9309211137
 20
92.1420398409
 11
51.0309211137
 21
92.1420398409
  0
LINE
  5
47F
100
AcDbEntity
  8
0
100
AcDbLine
 62
7
  6
CONTINUOUS
 10
51.7309208205
 20
92.1420398237
 11
51.8309208205
 21
92.1420398237
  0
LINE
  5
480
100
AcDbEntity
  8
0
100
AcDbLine
 62
7
  6
CONTINUOUS
 10
32.338969657
 20
92.4270398172
 11
32.6234996032
 21
92.4270398172
  0
LINE
  5
481
100
AcDbEntity
  8
0
100
AcDbLine
 62
7
  6
CONTINUOUS
 10
32.738969657
 20
92.6270398172
 11
33.0398133603
 21
92.6270398172
  0
LINE
  5
482
100
AcDbEntity
  8
0
100
AcDbLine
 62
7
  6
CONTINUOUS
 10
33.7109349987
 20
92.6270398172
 11
33.8398133586
 21
92.6270398172
  0
LINE
  5
483
100
AcDbEntity
  8
0
100
AcDbLine
 62
7
  6
CONTINUOUS
 10
34.510935025
 20
92.6270398172
 11
34.6398141157
 21
92.6270398172
  0
LINE
  5
484
100
AcDbEntity
  8
0
100
AcDbLine
 62
7
  6
CONTINUOUS
 10
35.3109357764
 20
92.6270398172
 11
35.4398143618
 21
92.6270398172
  0
LINE
  5
485
100
AcDbEntity
  8
0
100
AcDbLine
 62
7
  6
CONTINUOUS
 10
36.1109359964
 20
92.6270398172
 11
36.239813307
 21
92.6270398172
  0
LINE
  5
486
100
AcDbEntity
  8
0
100
AcDbLine
 62
7
  6
CONTINUOUS
 10
36.9109349489
 20
92.6270398172
 11
37.0398134035
 21
92.6270398172
  0
LINE
  5
487
100
AcDbEntity
  8
0
100
AcDbLine
 62
7
  6
CONTINUOUS
 10
37.7109350705
 20
92.6270398172
 11
37.8398141663
 21
92.6270398172
  0
LINE
  5
488
100
AcDbEntity
  8
0
100
AcDbLine
 62
7
  6
CONTINUOUS
 10
38.5109358256
 20
92.6270398172
 11
38.6398143254
 21
92.6270398172
  0
LINE
  5
489
100
AcDbEntity
  8
0
100
AcDbLine
 62
7
  6
CONTINUOUS
 10
39.3109359577
 20
92.6270398172
 11
39.4398132639
 21
92.6270398172
  0
LINE
  5
48A
100
AcDbEntity
  8
0
100
AcDbLine
 62
7
  6
CONTINUOUS
 10
40.110934909
 20
92.6270398172
 11
40.239813452
 21
92.6270398172
  0
LINE
  5
48B
100
AcDbEntity
  8
0
100
AcDbLine
 62
7
  6
CONTINUOUS
 10
40.9109351193
 20
92.6270398172
 11
41.0398142137
 21
92.6270398172
  0
LINE
  5
48C
100
AcDbEntity
  8
0
100
AcDbLine
 62
7
  6
CONTINUOUS
 10
41.7109358715
 20
92.6270398172
 11
41.839814279
 21
92.6270398172
  0
LINE
  5
48D
100
AcDbEntity
  8
0
100
AcDbLine
 62
7
  6
CONTINUOUS
 10
42.5109359089
 20
92.6270398172
 11
42.6398132307
 21
92.6270398172
  0
LINE
  5
48E
100
AcDbEntity
  8
0
100
AcDbLine
 62
7
  6
CONTINUOUS
 10
43.3109348788
 20
92.6270398172
 11
43.4398135035
 21
92.6270398172
  0
LINE
  5
48F
100
AcDbEntity
  8
0
100
AcDbLine
 62
7
  6
CONTINUOUS
 10
44.110935171
 20
92.6270398172
 11
44.2398142573
 21
92.6270398172
  0
LINE
  5
490
100
AcDbEntity
  8
0
100
AcDbLine
 62
7
  6
CONTINUOUS
 10
44.9109359136
 20
92.6270398172
 11
45.0398142222
 21
92.6270398172
  0
LINE
  5
491
100
AcDbEntity
  8
0
100
AcDbLine
 62
7
  6
CONTINUOUS
 10
45.7109358497
 20
92.6270398172
 11
45.8398132067
 21
92.6270398172
  0
LINE
  5
492
100
AcDbEntity
  8
0
100
AcDbLine
 62
7
  6
CONTINUOUS
 10
46.5109348576
 20
92.6270398172
 11
46.6398135575
 21
92.6270398172
  0
LINE
  5
493
100
AcDbEntity
  8
0
100
AcDbLine
 62
7
  6
CONTINUOUS
 10
47.3109352252
 20
92.6270398172
 11
47.4398142968
 21
92.6270398172
  0
LINE
  5
494
100
AcDbEntity
  8
0
100
AcDbLine
 62
7
  6
CONTINUOUS
 10
48.1109359514
 20
92.6270398172
 11
48.2398141545
 21
92.6270398172
  0
LINE
  5
495
100
AcDbEntity
  8
0
100
AcDbLine
 62
7
  6
CONTINUOUS
 10
48.9109357796
 20
92.6270398172
 11
49.0398131916
 21
92.6270398172
  0
LINE
  5
496
100
AcDbEntity
  8
0
100
AcDbLine
 62
7
  6
CONTINUOUS
 10
49.710934845
 20
92.6270398172
 11
49.8398136136
 21
92.6270398172
  0
LINE
  5
497
100
AcDbEntity
  8
0
100
AcDbLine
 62
7
  6
CONTINUOUS
 10
50.5109352812
 20
92.6270398172
 11
50.6398143316
 21
92.6270398172
  0
LINE
  5
498
100
AcDbEntity
  8
0
100
AcDbLine
 62
7
  6
CONTINUOUS
 10
51.3109359844
 20
92.6270398172
 11
51.4398140753
 21
92.6270398172
  0
LINE
  5
499
100
AcDbEntity
  8
0
100
AcDbLine
 62
7
  6
CONTINUOUS
 10
52.110935698
 20
92.6270398172
 11
52.121202704
 21
92.6270398172
  0
LINE
  5
49A
100
AcDbEntity
  8
0
100
AcDbLine
 62
7
  6
CONTINUOUS
 10
52.516086303
 20
92.7965316415
 11
52.616086303
 21
92.7965316415
  0
LWPOLYLINE
  5
49B
100
AcDbEntity
  8
0
100
AcDbPolyline
 62
7
  6
CONTINUOUS
 90
16
 70
0
 10
48.9109357796
 20
92.6270398172
 10
48.9093598994
 20
92.6271355591
 10
48.8999660077
 20
92.6316762869
 10
48.8905279325
 20
92.6430621331
 10
48.8810292556
 20
92.6613635971
 10
48.8714373851
 20
92.6867067929
 10
48.861784913
 20
92.7190261462
 10
48.8521531972
 20
92.7579068845
 10
48.842549543
 20
92.8030478569
 10
48.8329666451
 20
92.8541789765
 10
48.8234639467
 20
92.9106019746
 10
48.8140881284
 20
92.9715465925
 10
48.8047925096
 20
93.0368159041
 10
48.795496491
 20
93.1065648114
 10
48.7861886079
 20
93.1805156906
 10
48.776880325
 20
93.2581906812
  0
LWPOLYLINE
  5
49C
100
AcDbEntity
  8
0
100
AcDbPolyline
 62
7
  6
CONTINUOUS
 90
14
 70
0
 10
52.6568578977
 20
92.8489154632
 10
52.6519294586
 20
92.8493740393
 10
52.6466048846
 20
92.8554970313
 10
52.6412496453
 20
92.8675404857
 10
52.6358457136
 20
92.8856314712
 10
52.6304111167
 20
92.9097598343
 10
52.6249880495
 20
92.9396529179
 10
52.6195781183
 20
92.9751113502
 10
52.6141797168
 20
93.015923523
 10
52.6088302204
 20
93.0615038426
 10
52.6035568376
 20
93.1112068323
 10
52.5983323599
 20
93.1648656157
 10
52.5931125371
 20
93.2225904761
 10
52.5878920504
 20
93.2841363642
  0
LWPOLYLINE
  5
49D
100
AcDbEntity
  8
0
100
AcDbPolyline
 62
7
  6
CONTINUOUS
 90
5
 70
0
 10
35.8509057544
 20
95.1270398172
 10
35.8554274199
 20
95.1262516603
 10
35.8638464082
 20
95.1205892183
 10
35.872244416
 20
95.1095260698
 10
35.8806214431
 20
95.0931506498
  0
LWPOLYLINE
  5
49E
100
AcDbEntity
  8
0
100
AcDbPolyline
 62
7
  6
CONTINUOUS
 90
15
 70
0
 10
33.7309199646
 20
95.6120398108
 10
33.7350190397
 20
95.6111407618
 10
33.743969657
 20
95.6029350303
 10
33.7529202743
 20
95.586203773
 10
33.7618708916
 20
95.5610296387
 10
33.7708215089
 20
95.5275369825
 10
33.7797721261
 20
95.4858912508
 10
33.7887227434
 20
95.4362981643
 10
33.7976733607
 20
95.3790027019
 10
33.806623978
 20
95.3142878904
 10
33.8155745953
 20
95.2424734063
 10
33.8245252126
 20
95.1639139969
 10
33.8334758298
 20
95.0789977279
 10
33.8424264471
 20
94.9881440664
 10
33.8513770644
 20
94.8918018087
  0
LWPOLYLINE
  5
49F
100
AcDbEntity
  8
0
100
AcDbPolyline
 62
7
  6
CONTINUOUS
 90
4
 70
0
 10
33.8309199646
 20
95.6120398108
 10
33.8350190397
 20
95.6111407618
 10
33.843969657
 20
95.6029350303
 10
33.8470153432
 20
95.5981954436
  0
LWPOLYLINE
  5
4A0
100
AcDbEntity
  8
0
100
AcDbPolyline
 62
7
  6
CONTINUOUS
 90
15
 70
0
 10
40.110934909
 20
92.6270398172
 10
40.102406182
 20
92.6298430964
 10
40.0929431803
 20
92.6394988216
 10
40.0834165636
 20
92.6561211135
 10
40.0737855759
 20
92.6798696514
 10
40.0640909731
 20
92.710689206
 10
40.0544126646
 20
92.7481986946
 10
40.0447595176
 20
92.792104809
 10
40.0351226649
 20
92.8421544377
 10
40.0255554133
 20
92.8977049396
 10
40.016119275
 20
92.9579094724
 10
40.0067527379
 20
93.022661102
 10
39.9973245724
 20
93.0925052803
 10
39.9877800738
 20
93.1675892932
 10
39.9781739467
 20
93.2471806379
  0
LWPOLYLINE
  5
4A1
100
AcDbEntity
  8
0
100
AcDbPolyline
 62
7
  6
CONTINUOUS
 90
15
 70
0
 10
44.9109359136
 20
92.6270398172
 10
44.9022633784
 20
92.6299383846
 10
44.8928007663
 20
92.6396978731
 10
44.8832788776
 20
92.6564137529
 10
44.8736572703
 20
92.6802352943
 10
44.8639763864
 20
92.7110976134
 10
44.8543162099
 20
92.7486096257
 10
44.8446883915
 20
92.7924562262
 10
44.8350812804
 20
92.8423872986
 10
44.8255399086
 20
92.8978049089
 10
44.8161237283
 20
92.9578855934
 10
44.8067732873
 20
93.0225199319
 10
44.7973552599
 20
93.0922771169
 10
44.7878124079
 20
93.1673345479
 10
44.7782019696
 20
93.2469497848
  0
LWPOLYLINE
  5
4A2
100
AcDbEntity
  8
0
100
AcDbPolyline
 62
7
  6
CONTINUOUS
 90
14
 70
0
 10
35.3309211605
 20
95.6120397942
 10
35.3371795335
 20
95.60994431
 10
35.3461301508
 20
95.5996765266
 10
35.3550807681
 20
95.5808993162
 10
35.3640313854
 20
95.5537054332
 10
35.3729820027
 20
95.5182292089
 10
35.38193262
 20
95.4746458871
 10
35.3908832372
 20
95.423170759
 10
35.3998338545
 20
95.3640580994
 10
35.4087844718
 20
95.2975999108
 10
35.4177350891
 20
95.2241244809
 10
35.4266857064
 20
95.1439947611
 10
35.4356363237
 20
95.0576065735
 10
35.444586941
 20
94.9653866554
  0
LWPOLYLINE
  5
4A3
100
AcDbEntity
  8
0
100
AcDbPolyline
 62
7
  6
CONTINUOUS
 90
3
 70
0
 10
35.4309211605
 20
95.6120397942
 10
35.4371795335
 20
95.60994431
 10
35.447016545
 20
95.5981954225
  0
LWPOLYLINE
  5
4A4
100
AcDbEntity
  8
0
100
AcDbPolyline
 62
7
  6
CONTINUOUS
 90
15
 70
0
 10
33.4509050869
 20
95.1270398172
 10
33.459755832
 20
95.1240209469
 10
33.4692503137
 20
95.1140872939
 10
33.4788084066
 20
95.0971424785
 10
33.4884675209
 20
95.0730371809
 10
33.4981902463
 20
95.0418255937
 10
33.5078956561
 20
95.0038988301
 10
33.5175788788
 20
94.9595366534
 10
33.5272447858
 20
94.9090123975
 10
33.5368270647
 20
94.8530566724
 10
33.5462635936
 20
94.7925503229
 10
33.5556164944
 20
94.7276192513
 10
33.5650058196
 20
94.6578212921
 10
33.5744702124
 20
94.5831712841
 10
33.5839710296
 20
94.5043121182
  0
LWPOLYLINE
  5
4A5
100
AcDbEntity
  8
0
100
AcDbPolyline
 62
7
  6
CONTINUOUS
 90
15
 70
0
 10
38.2509063057
 20
95.1270398172
 10
38.2598445162
 20
95.1239610107
 10
38.2693449668
 20
95.1139552538
 10
38.2789088128
 20
95.0969304116
 10
38.2885726067
 20
95.0727403014
 10
38.2982997959
 20
95.0414392189
 10
38.3080093437
 20
95.003420502
 10
38.317696257
 20
94.9589659426
 10
38.3273655289
 20
94.9083497725
 10
38.3369511016
 20
94.8523028651
 10
38.3463940207
 20
94.7916861197
 10
38.3557532406
 20
94.7266436973
 10
38.3651395668
 20
94.6568047036
 10
38.3745844514
 20
94.5822552911
 10
38.3840564424
 20
94.5035968336
  0
LWPOLYLINE
  5
4A6
100
AcDbEntity
  8
0
100
AcDbPolyline
 62
7
  6
CONTINUOUS
 90
15
 70
0
 10
39.3109359577
 20
92.6270398172
 10
39.3019630402
 20
92.630142576
 10
39.2924623718
 20
92.6401739319
 10
39.2828981293
 20
92.6572249749
 10
39.2732341534
 20
92.6814410891
 10
39.2635066035
 20
92.7127686595
 10
39.2537958549
 20
92.7508171619
 10
39.2441065073
 20
92.7953082238
 10
39.234433961
 20
92.8459675367
 10
39.224844792
 20
92.9020619911
 10
39.2153962326
 20
92.9627420954
 10
39.2060310504
 20
93.0278540323
 10
39.1966441245
 20
93.0977250452
 10
39.187208173
 20
93.1722274305
 10
39.1777504778
 20
93.250783795
  0
LWPOLYLINE
  5
4A7
100
AcDbEntity
  8
0
100
AcDbPolyline
 62
7
  6
CONTINUOUS
 90
15
 70
0
 10
39.0509056387
 20
95.1270398172
 10
39.0600111503
 20
95.123844713
 10
39.0695274098
 20
95.1136944941
 10
39.0791114499
 20
95.0964932941
 10
39.0888018774
 20
95.0720800186
 10
39.0985600856
 20
95.0405046777
 10
39.1083007819
 20
95.0021735989
 10
39.1180166015
 20
94.9573834582
 10
39.1277149092
 20
94.9064031737
 10
39.137332507
 20
94.8499511647
 10
39.1468249792
 20
94.7887913721
 10
39.1562367415
 20
94.723149587
 10
39.1656378434
 20
94.6529686912
 10
39.1750337984
 20
94.5786013437
 10
39.184419093
 20
94.5005058716
  0
LWPOLYLINE
  5
4A8
100
AcDbEntity
  8
0
100
AcDbPolyline
 62
7
  6
CONTINUOUS
 90
15
 70
0
 10
34.2509056436
 20
95.1270398172
 10
34.2601844489
 20
95.1237220126
 10
34.2697272951
 20
95.1134070709
 10
34.2793328173
 20
95.0960141265
 10
34.2890317906
 20
95.071416459
 10
34.2987934398
 20
95.0396656595
 10
34.3085356815
 20
95.0011676986
 10
34.3182505084
 20
94.9562274736
 10
34.3279459276
 20
94.9051159926
 10
34.337563877
 20
94.8485249162
 10
34.3470625107
 20
94.7871963404
 10
34.3564836744
 20
94.7213656616
 10
34.3658948433
 20
94.6509914227
 10
34.3753095856
 20
94.5763615938
 10
34.384714333
 20
94.4979950668
  0
LWPOLYLINE
  5
4A9
100
AcDbEntity
  8
0
100
AcDbPolyline
 62
7
  6
CONTINUOUS
 90
15
 70
0
 10
44.110935171
 20
92.6270398172
 10
44.1016568974
 20
92.6303572426
 10
44.092137715
 20
92.6406376027
 10
44.0825556746
 20
92.6579619627
 10
44.0728779398
 20
92.6824637825
 10
44.0631373468
 20
92.7140898479
 10
44.0534147574
 20
92.7524417188
 10
44.0437163884
 20
92.7972281314
 10
44.0340360228
 20
92.8481761766
 10
44.0244358724
 20
92.9045736821
 10
44.0149611311
 20
92.9656540249
 10
44.0055666049
 20
93.031198841
 10
43.9961789227
 20
93.1012937538
 10
43.986790969
 20
93.175606077
 10
43.9774098593
 20
93.2536717921
  0
LWPOLYLINE
  5
4AA
100
AcDbEntity
  8
0
100
AcDbPolyline
 62
7
  6
CONTINUOUS
 90
15
 70
0
 10
38.5109358256
 20
92.6270398172
 10
38.5016404224
 20
92.6303694983
 10
38.4920996259
 20
92.6406936134
 10
38.4824958087
 20
92.6580934437
 10
38.472796908
 20
92.6827001859
 10
38.4630349867
 20
92.7144610441
 10
38.4532916221
 20
92.7529728059
 10
38.4435746154
 20
92.7979332016
 10
38.4338761655
 20
92.8490719297
 10
38.424254446
 20
92.9056978151
 10
38.4147525263
 20
92.9670612882
 10
38.4053273371
 20
93.0329346103
 10
38.3959078445
 20
93.10338736
 10
38.3864734864
 20
93.1781934596
 10
38.3770448249
 20
93.2567861903
  0
LWPOLYLINE
  5
4AB
100
AcDbEntity
  8
0
100
AcDbPolyline
 62
7
  6
CONTINUOUS
 90
15
 70
0
 10
37.450905703
 20
95.1270398172
 10
37.4602234366
 20
95.1236941277
 10
37.4696764523
 20
95.1134805761
 10
37.4791689989
 20
95.0963693453
 10
37.4887401131
 20
95.0722582
 10
37.4983507583
 20
95.041255152
 10
37.5079200378
 20
95.0037980347
 10
37.517417077
 20
94.9603333895
 10
37.5268727504
 20
94.911072767
 10
37.5362987847
 20
94.856292709
 10
37.5456628717
 20
94.7965601788
 10
37.5549973195
 20
94.7320685696
 10
37.5644107792
 20
94.6623801388
 10
37.5739561982
 20
94.5873352705
 10
37.5835806291
 20
94.5076304747
  0
LWPOLYLINE
  5
4AC
100
AcDbEntity
  8
0
100
AcDbPolyline
 62
7
  6
CONTINUOUS
 90
15
 70
0
 10
43.3109348788
 20
92.6270398172
 10
43.3015251999
 20
92.6304518415
 10
43.2919975868
 20
92.6408403286
 10
43.2824074038
 20
92.6582840085
 10
43.2727142825
 20
92.6829371988
 10
43.2629585913
 20
92.7147336192
 10
43.2532216984
 20
92.7532695249
 10
43.2435120389
 20
92.7982391659
 10
43.2338211778
 20
92.8493744754
 10
43.2242051778
 20
92.9059972309
 10
43.2147109383
 20
92.9673358097
 10
43.2052915599
 20
93.0331879547
 10
43.1958624075
 20
93.1037317785
 10
43.1863850871
 20
93.178906975
 10
43.1768979927
 20
93.2580317787
  0
LWPOLYLINE
  5
4AD
100
AcDbEntity
  8
0
100
AcDbPolyline
 62
7
  6
CONTINUOUS
 90
15
 70
0
 10
35.0509062894
 20
95.1270398172
 10
35.0604789795
 20
95.1235086124
 10
35.0699001155
 20
95.1131569594
 10
35.0793892474
 20
95.0958927047
 10
35.0890040158
 20
95.0714986564
 10
35.0986867803
 20
95.0400520646
 10
35.1083623497
 20
95.0019134311
 10
35.1180239383
 20
94.9573511215
 10
35.127678332
 20
94.9066113499
 10
35.1372706971
 20
94.850337122
 10
35.146752034
 20
94.7892867655
 10
35.1561713423
 20
94.7236282705
 10
35.1656207876
 20
94.6531066737
 10
35.1751472819
 20
94.5776861755
 10
35.1847039131
 20
94.4980884196
  0
LWPOLYLINE
  5
4AE
100
AcDbEntity
  8
0
100
AcDbPolyline
 62
7
  6
CONTINUOUS
 90
15
 70
0
 10
42.5109359089
 20
92.6270398172
 10
42.5013614831
 20
92.6305723109
 10
42.491951072
 20
92.6409095956
 10
42.4824731692
 20
92.6581429846
 10
42.4728700111
 20
92.6824890337
 10
42.4631993614
 20
92.7138697132
 10
42.4535332392
 20
92.7519379907
 10
42.4438770369
 20
92.796438701
 10
42.4342253622
 20
92.8471264904
 10
42.4246340575
 20
92.903357826
 10
42.4151522127
 20
92.9643771746
 10
42.405730738
 20
93.0300196857
 10
42.3962782057
 20
93.1005367942
 10
42.3867485218
 20
93.1759586555
 10
42.3771877803
 20
93.2555706195
  0
LWPOLYLINE
  5
4AF
100
AcDbEntity
  8
0
100
AcDbPolyline
 62
7
  6
CONTINUOUS
 90
15
 70
0
 10
41.7109358715
 20
92.6270398172
 10
41.7012637705
 20
92.6306447064
 10
41.691884475
 20
92.6410067909
 10
41.6825043557
 20
92.6580749626
 10
41.673117411
 20
92.6817756229
 10
41.6637296424
 20
92.7119729516
 10
41.6543153858
 20
92.748612913
 10
41.6448507859
 20
92.7916642818
 10
41.6353596979
 20
92.8408557252
 10
41.625888023
 20
92.8956841298
 10
41.616480904
 20
92.9555124409
 10
41.6070931979
 20
93.0202300605
 10
41.5976353773
 20
93.0901381018
 10
41.5880641223
 20
93.165301268
 10
41.5784227526
 20
93.2450782967
  0
LWPOLYLINE
  5
4B0
100
AcDbEntity
  8
0
100
AcDbPolyline
 62
7
  6
CONTINUOUS
 90
15
 70
0
 10
40.9109351193
 20
92.6270398172
 10
40.9009007427
 20
92.6309196681
 10
40.8914782508
 20
92.6416064652
 10
40.8820385305
 20
92.6590941891
 10
40.8725518473
 20
92.6834102699
 10
40.8630479356
 20
92.7144117965
 10
40.8535845026
 20
92.7517150078
 10
40.8441949635
 20
92.7948687086
 10
40.834845903
 20
92.8436813217
 10
40.8254947822
 20
92.898075432
 10
40.8161524447
 20
92.9576892209
 10
40.8068080469
 20
93.0222651637
 10
40.7973865182
 20
93.092032159
 10
40.7878469298
 20
93.1670491146
 10
40.7782302105
 20
93.2467035701
  0
LWPOLYLINE
  5
4B1
100
AcDbEntity
  8
0
100
AcDbPolyline
 62
7
  6
CONTINUOUS
 90
15
 70
0
 10
36.6509050969
 20
95.1270398172
 10
36.6610208111
 20
95.1230968404
 10
36.6704212006
 20
95.1123844962
 10
36.6798171855
 20
95.094951159
 10
36.6892156639
 20
95.0708810379
 10
36.6986097378
 20
95.0403247878
 10
36.7080040824
 20
95.0034377822
 10
36.7174010363
 20
94.96040875
 10
36.7267982609
 20
94.9114798449
 10
36.7361934156
 20
94.8569312435
 10
36.7455602355
 20
94.7972379803
 10
36.7549249856
 20
94.7325815982
 10
36.7643641207
 20
94.6627312454
 10
36.7739184136
 20
94.5876349218
 10
36.7835470915
 20
94.5079088635
  0
LWPOLYLINE
  5
4B2
100
AcDbEntity
  8
0
100
AcDbPolyline
 62
7
  6
CONTINUOUS
 90
15
 70
0
 10
45.7109358497
 20
92.6270398172
 10
45.7007650159
 20
92.6310258686
 10
45.6913504048
 20
92.641799298
 10
45.6819229502
 20
92.6593517538
 10
45.6724562649
 20
92.6836915723
 10
45.662976736
 20
92.714671683
 10
45.6535330907
 20
92.7519384168
 10
45.6441549177
 20
92.795069726
 10
45.6348126283
 20
92.8438699645
 10
45.6254661832
 20
92.8982554388
 10
45.6161264122
 20
92.9578683844
 10
45.6067824855
 20
93.022454831
 10
45.5973618754
 20
93.0922275368
 10
45.5878246152
 20
93.1672370439
 10
45.5782106715
 20
93.2468773334
  0
LWPOLYLINE
  5
4B3
100
AcDbEntity
  8
0
100
AcDbPolyline
 62
7
  6
CONTINUOUS
 90
10
 70
0
 10
32.9482268306
 20
95.4746373215
 10
32.956744125
 20
95.4709086954
 10
32.9645223162
 20
95.4609302484
 10
32.9723005076
 20
95.4446135159
 10
32.980078699
 20
95.4219232193
 10
32.9878568905
 20
95.3928498181
 10
32.995635082
 20
95.357409897
 10
33.0034132736
 20
95.3156464467
 10
33.0111914653
 20
95.2676290366
 10
33.018969657
 20
95.2134538766
  0
LWPOLYLINE
  5
4B4
100
AcDbEntity
  8
0
100
AcDbPolyline
 62
7
  6
CONTINUOUS
 90
3
 70
0
 10
33.0482268332
 20
95.4746373215
 10
33.0567441274
 20
95.4709086955
 10
33.0643616729
 20
95.4612002728
  0
LWPOLYLINE
  5
4B5
100
AcDbEntity
  8
0
100
AcDbPolyline
 62
7
  6
CONTINUOUS
 90
14
 70
0
 10
36.9309199743
 20
95.6120398099
 10
36.9393400274
 20
95.6082473551
 10
36.9482906447
 20
95.5959181978
 10
36.9572412619
 20
95.5750981784
 10
36.9661918792
 20
95.5458901433
 10
36.9751424965
 20
95.508438374
 10
36.9840931138
 20
95.4629278738
 10
36.9930437311
 20
95.4095834546
 10
37.0019943484
 20
95.3486686257
 10
37.0109449656
 20
95.2804842927
 10
37.0198955829
 20
95.2053672707
 10
37.0288462002
 20
95.1236886206
 10
37.0377968175
 20
95.0358518163
 10
37.0467474348
 20
94.9422907515
  0
LWPOLYLINE
  5
4B6
100
AcDbEntity
  8
0
100
AcDbPolyline
 62
7
  6
CONTINUOUS
 90
3
 70
0
 10
37.0309199743
 20
95.6120398099
 10
37.0393400274
 20
95.6082473551
 10
37.0470153566
 20
95.5981954395
  0
LWPOLYLINE
  5
4B7
100
AcDbEntity
  8
0
100
AcDbPolyline
 62
7
  6
CONTINUOUS
 90
14
 70
0
 10
34.530920516
 20
95.6120397979
 10
34.5405745953
 20
95.6070548341
 10
34.5495252126
 20
95.593550489
 10
34.5584758298
 20
95.5715669901
 10
34.5674264471
 20
95.5412129308
 10
34.5763770644
 20
95.5026382529
 10
34.5853276817
 20
95.456033506
 10
34.594278299
 20
95.4016289067
 10
34.6032289163
 20
95.3396932005
 10
34.6121795335
 20
95.2705323351
 10
34.6211301508
 20
95.1944879486
 10
34.6300807681
 20
95.1119356823
 10
34.6390313854
 20
95.0232833246
 10
34.6479820027
 20
94.928968797
  0
LWPOLYLINE
  5
4B8
100
AcDbEntity
  8
0
100
AcDbPolyline
 62
7
  6
CONTINUOUS
 90
3
 70
0
 10
34.630920516
 20
95.6120397979
 10
34.6405745953
 20
95.6070548341
 10
34.6470159228
 20
95.5981954068
  0
LWPOLYLINE
  5
4B9
100
AcDbEntity
  8
0
100
AcDbPolyline
 62
7
  6
CONTINUOUS
 90
3
 70
0
 10
42.1148257878
 20
92.1558839988
 10
42.1217474348
 20
92.146541169
 10
42.1309210341
 20
92.1420398302
  0
LWPOLYLINE
  5
4BA
100
AcDbEntity
  8
0
100
AcDbPolyline
 62
7
  6
CONTINUOUS
 90
4
 70
0
 10
40.5148249422
 20
92.1558840485
 10
40.519586941
 20
92.1489085361
 10
40.5285375582
 20
92.1423436195
 10
40.5309202448
 20
92.1420398322
  0
LWPOLYLINE
  5
4BB
100
AcDbEntity
  8
0
100
AcDbPolyline
 62
7
  6
CONTINUOUS
 90
4
 70
0
 10
42.9148247393
 20
92.1558840003
 10
42.9183523731
 20
92.1504848958
 10
42.9273029903
 20
92.1427398553
 10
42.9309199995
 20
92.1420398205
  0
LWPOLYLINE
  5
4BC
100
AcDbEntity
  8
0
100
AcDbPolyline
 62
7
  6
CONTINUOUS
 90
4
 70
0
 10
41.314825701
 20
92.1558840549
 10
41.3161918792
 20
92.1536360996
 10
41.3251424965
 20
92.1438263488
 10
41.3309210008
 20
92.142039841
  0
LINE
  5
4BD
100
AcDbEntity
  8
0
100
AcDbLine
 62
7
  6
CONTINUOUS
 10
38.1331722136
 20
95.1080247444
 11
37.847015982
 21
95.598195406
  0
LINE
  5
4BE
100
AcDbEntity
  8
0
100
AcDbLine
 62
7
  6
CONTINUOUS
 10
40.2286687658
 20
92.6460546203
 11
40.5148249422
 21
92.1558840485
  0
LINE
  5
4BF
100
AcDbEntity
  8
0
100
AcDbLine
 62
7
  6
CONTINUOUS
 10
38.9331727785
 20
95.1080247751
 11
38.6470165579
 21
95.5981954261
  0
LINE
  5
4C0
100
AcDbEntity
  8
0
100
AcDbLine
 62
7
  6
CONTINUOUS
 10
41.0286695292
 20
92.6460546173
 11
41.314825701
 21
92.1558840549
  0
LINE
  5
4C1
100
AcDbEntity
  8
0
100
AcDbLine
 62
7
  6
CONTINUOUS
 10
39.73317204
 20
95.1080248497
 11
39.4470158337
 21
95.5981955046
  0
LINE
  5
4C2
100
AcDbEntity
  8
0
100
AcDbLine
 62
7
  6
CONTINUOUS
 10
41.8286696313
 20
92.6460545557
 11
42.1148257878
 21
92.1558839988
  0
LINE
  5
4C3
100
AcDbEntity
  8
0
100
AcDbLine
 62
7
  6
CONTINUOUS
 10
40.5331716056
 20
95.108024768
 11
40.2470153765
 21
95.5981954356
  0
LINE
  5
4C4
100
AcDbEntity
  8
0
100
AcDbLine
 62
7
  6
CONTINUOUS
 10
42.6286685742
 20
92.6460545705
 11
42.9148247393
 21
92.1558840003
  0
LINE
  5
4C5
100
AcDbEntity
  8
0
100
AcDbLine
 62
7
  6
CONTINUOUS
 10
41.0470160409
 20
95.5981954055
 11
41.0492165706
 21
95.594158038
  0
LINE
  5
4C6
100
AcDbEntity
  8
0
100
AcDbLine
 62
7
  6
CONTINUOUS
 10
38.6470165579
 20
95.5981954261
 11
38.6504511385
 21
95.5916693661
  0
LINE
  5
4C7
100
AcDbEntity
  8
0
100
AcDbLine
 62
7
  6
CONTINUOUS
 10
40.2470153765
 20
95.5981954356
 11
40.2526116323
 21
95.5869219224
  0
LWPOLYLINE
  5
4C8
100
AcDbEntity
  8
0
100
AcDbPolyline
 62
7
  6
CONTINUOUS
 90
12
 70
0
 10
39.4470158337
 20
95.5981955046
 10
39.456006694
 20
95.5784726742
 10
39.4649573113
 20
95.5504143476
 10
39.4739079286
 20
95.5140899042
 10
39.4828585459
 20
95.46967878
 10
39.4918091632
 20
95.4174003573
 10
39.5007597805
 20
95.3575128813
 10
39.5097103977
 20
95.290312184
 10
39.518661015
 20
95.2161302235
 10
39.5276116323
 20
95.1353334434
 10
39.5365622496
 20
95.0483209632
 10
39.5455128669
 20
94.9555226067
  0
LWPOLYLINE
  5
4C9
100
AcDbEntity
  8
0
100
AcDbPolyline
 62
7
  6
CONTINUOUS
 90
12
 70
0
 10
41.0492165706
 20
95.594158038
 10
41.0581671879
 20
95.5724654664
 10
41.0671178052
 20
95.5423978959
 10
41.0760684224
 20
95.5041038531
 10
41.0850190397
 20
95.4577725013
 10
41.093969657
 20
95.4036327065
 10
41.1029202743
 20
95.341951906
 10
41.1118708916
 20
95.2730347885
 10
41.1208215089
 20
95.1972217879
 10
41.1297721261
 20
95.1148874023
 10
41.1387227434
 20
95.026438344
 10
41.1476733607
 20
94.9323115301
  0
LWPOLYLINE
  5
4CA
100
AcDbEntity
  8
0
100
AcDbPolyline
 62
7
  6
CONTINUOUS
 90
12
 70
0
 10
38.6504511385
 20
95.5916693661
 10
38.6594017558
 20
95.5688147856
 10
38.668352373
 20
95.5376032252
 10
38.6773029903
 20
95.4981888624
 10
38.6862536076
 20
95.4507663947
 10
38.6952042249
 20
95.3955700777
 10
38.7041548422
 20
95.3328725682
 10
38.7131054595
 20
95.2629835769
 10
38.7220560768
 20
95.1862483392
 10
38.731006694
 20
95.1030459092
 10
38.7399573113
 20
95.0137872873
 10
38.7489079286
 20
94.9189133906
  0
LWPOLYLINE
  5
4CB
100
AcDbEntity
  8
0
100
AcDbPolyline
 62
7
  6
CONTINUOUS
 90
12
 70
0
 10
40.2526116323
 20
95.5869219224
 10
40.2615622496
 20
95.5620371251
 10
40.2705128669
 20
95.5288288327
 10
40.2794634842
 20
95.4874610868
 10
40.2884141014
 20
95.4381382349
 10
40.2973647187
 20
95.3811039206
 10
40.306315336
 20
95.3166398806
 10
40.3152659533
 20
95.2450645525
 10
40.3242165706
 20
95.1667315021
 10
40.3331671879
 20
95.0820276767
 10
40.3421178052
 20
94.9913714936
 10
40.3510684224
 20
94.8952107735
  0
LWPOLYLINE
  5
4CC
100
AcDbEntity
  8
0
100
AcDbPolyline
 62
7
  6
CONTINUOUS
 90
13
 70
0
 10
40.9183930108
 20
93.2450782967
 10
40.9280343805
 20
93.165301268
 10
40.9376056356
 20
93.0901381018
 10
40.9470634563
 20
93.0202300605
 10
40.9564511623
 20
92.9555124409
 10
40.9658582814
 20
92.8956841298
 10
40.9753299564
 20
92.8408557252
 10
40.9848210444
 20
92.7916642818
 10
40.9942856443
 20
92.748612913
 10
41.003699901
 20
92.7119729516
 10
41.0130876695
 20
92.6817756229
 10
41.0224746143
 20
92.6580749625
 10
41.0286695292
 20
92.6460546173
  0
LWPOLYLINE
  5
4CD
100
AcDbEntity
  8
0
100
AcDbPolyline
 62
7
  6
CONTINUOUS
 90
13
 70
0
 10
39.3181441867
 20
93.247180638
 10
39.3277503138
 20
93.1675892932
 10
39.3372948125
 20
93.0925052803
 10
39.3467229781
 20
93.022661102
 10
39.3560895153
 20
92.9579094724
 10
39.3655256536
 20
92.8977049396
 10
39.3750929052
 20
92.8421544377
 10
39.3847297581
 20
92.792104809
 10
39.3943829051
 20
92.7481986946
 10
39.4040612138
 20
92.710689206
 10
39.4137558166
 20
92.6798696514
 10
39.4233868044
 20
92.6561211135
 10
39.4286686111
 20
92.6460545644
  0
LWPOLYLINE
  5
4CE
100
AcDbEntity
  8
0
100
AcDbPolyline
 62
7
  6
CONTINUOUS
 90
13
 70
0
 10
40.11820046
 20
93.2467035701
 10
40.1278171794
 20
93.1670491146
 10
40.137356768
 20
93.092032159
 10
40.1467782968
 20
93.0222651637
 10
40.1561226948
 20
92.9576892209
 10
40.1654650323
 20
92.898075432
 10
40.1748161533
 20
92.8436813217
 10
40.1841652139
 20
92.7948687086
 10
40.1935547531
 20
92.7517150078
 10
40.2030181863
 20
92.7144117965
 10
40.2125220981
 20
92.6834102699
 10
40.2220087814
 20
92.6590941891
 10
40.2286687658
 20
92.6460546203
  0
LWPOLYLINE
  5
4CF
100
AcDbEntity
  8
0
100
AcDbPolyline
 62
7
  6
CONTINUOUS
 90
13
 70
0
 10
41.443969627
 20
94.5045831676
 10
41.4343449576
 20
94.5844326178
 10
41.4247759345
 20
94.6598160042
 10
41.4153077234
 20
94.7300569702
 10
41.4058951584
 20
94.79521242
 10
41.396446282
 20
94.8555741464
 10
41.386911753
 20
94.9110220117
 10
41.3773409125
 20
94.9608520759
 10
41.3677898258
 20
95.0044773175
 10
41.3582717057
 20
95.0416437991
 10
41.3487733395
 20
95.0722483577
 10
41.3393111547
 20
95.0961260284
 10
41.3331722721
 20
95.1080247447
  0
LWPOLYLINE
  5
4D0
100
AcDbEntity
  8
0
100
AcDbPolyline
 62
7
  6
CONTINUOUS
 90
13
 70
0
 10
39.8444488538
 20
94.5005058716
 10
39.8350635593
 20
94.5786013437
 10
39.8256676042
 20
94.6529686912
 10
39.8162665024
 20
94.723149587
 10
39.8068547401
 20
94.7887913721
 10
39.797362268
 20
94.8499511647
 10
39.7877446701
 20
94.9064031737
 10
39.7780463625
 20
94.9573834582
 10
39.7683305429
 20
95.0021735989
 10
39.7585898466
 20
95.0405046777
 10
39.7488316385
 20
95.0720800186
 10
39.739141211
 20
95.0964932941
 10
39.73317204
 20
95.1080248498
  0
LWPOLYLINE
  5
4D1
100
AcDbEntity
  8
0
100
AcDbPolyline
 62
7
  6
CONTINUOUS
 90
13
 70
0
 10
41.7171580332
 20
93.2555706195
 10
41.7267187745
 20
93.1759586555
 10
41.7362484581
 20
93.1005367942
 10
41.7457009902
 20
93.0300196856
 10
41.7551224648
 20
92.9643771746
 10
41.7646043093
 20
92.903357826
 10
41.7741956138
 20
92.8471264904
 10
41.7838472883
 20
92.7964387009
 10
41.7935034904
 20
92.7519379907
 10
41.8031696123
 20
92.7138697132
 10
41.8128402617
 20
92.6824890336
 10
41.8224434196
 20
92.6581429846
 10
41.8286696313
 20
92.6460545557
  0
LWPOLYLINE
  5
4D2
100
AcDbEntity
  8
0
100
AcDbPolyline
 62
7
  6
CONTINUOUS
 90
13
 70
0
 10
40.6449887737
 20
94.4959039082
 10
40.6354899749
 20
94.5751304362
 10
40.6260055437
 20
94.6503626163
 10
40.6165777504
 20
94.7208956098
 10
40.6071643247
 20
94.7867073196
 10
40.5976765509
 20
94.848008841
 10
40.5880666728
 20
94.9046043705
 10
40.5783824466
 20
94.9557180722
 10
40.568678425
 20
95.0006797046
 10
40.5589454408
 20
95.0392222739
 10
40.5491926613
 20
95.0710344967
 10
40.5395021403
 20
95.0957088084
 10
40.5331716056
 20
95.108024768
  0
LINE
  5
4D3
100
AcDbEntity
  8
0
100
AcDbLine
 62
7
  6
CONTINUOUS
 10
39.298829138
 20
93.417579182
 11
39.3181441867
 21
93.247180638
  0
LINE
  5
4D4
100
AcDbEntity
  8
0
100
AcDbLine
 62
7
  6
CONTINUOUS
 10
39.9781739467
 20
93.2471806379
 11
39.9588588982
 21
93.417579182
  0
LINE
  5
4D5
100
AcDbEntity
  8
0
100
AcDbLine
 62
7
  6
CONTINUOUS
 10
40.098866906
 20
93.4172341399
 11
40.11820046
 21
93.2467035701
  0
LINE
  5
4D6
100
AcDbEntity
  8
0
100
AcDbLine
 62
7
  6
CONTINUOUS
 10
40.7782302105
 20
93.2467035701
 11
40.7588966568
 21
93.4172341399
  0
LINE
  5
4D7
100
AcDbEntity
  8
0
100
AcDbLine
 62
7
  6
CONTINUOUS
 10
40.8990068195
 20
93.4159640159
 11
40.9183930108
 21
93.2450782967
  0
LINE
  5
4D8
100
AcDbEntity
  8
0
100
AcDbLine
 62
7
  6
CONTINUOUS
 10
41.5784227526
 20
93.2450782967
 11
41.5590365614
 21
93.4159640159
  0
LINE
  5
4D9
100
AcDbEntity
  8
0
100
AcDbLine
 62
7
  6
CONTINUOUS
 10
41.5835851833
 20
94.5075958671
 11
41.602930342
 21
94.336976084
  0
LINE
  5
4DA
100
AcDbEntity
  8
0
100
AcDbLine
 62
7
  6
CONTINUOUS
 10
39.184419093
 20
94.5005058716
 11
39.2033552315
 21
94.3330864566
  0
LINE
  5
4DB
100
AcDbEntity
  8
0
100
AcDbLine
 62
7
  6
CONTINUOUS
 10
39.8633849921
 20
94.3330864566
 11
39.8444488538
 21
94.5005058716
  0
LINE
  5
4DC
100
AcDbEntity
  8
0
100
AcDbLine
 62
7
  6
CONTINUOUS
 10
40.7839398843
 20
94.5045831676
 11
40.8032354195
 21
94.334186224
  0
LINE
  5
4DD
100
AcDbEntity
  8
0
100
AcDbLine
 62
7
  6
CONTINUOUS
 10
41.463265162
 20
94.334186224
 11
41.443969627
 21
94.5045831676
  0
LINE
  5
4DE
100
AcDbEntity
  8
0
100
AcDbLine
 62
7
  6
CONTINUOUS
 10
39.9849590213
 20
94.4959039082
 11
40.0038655113
 21
94.3284165961
  0
LINE
  5
4DF
100
AcDbEntity
  8
0
100
AcDbLine
 62
7
  6
CONTINUOUS
 10
40.6638952634
 20
94.3284165961
 11
40.6449887737
 21
94.4959039082
  0
LINE
  5
4E0
100
AcDbEntity
  8
0
100
AcDbLine
 62
7
  6
CONTINUOUS
 10
41.6980944702
 20
93.4243035754
 11
41.7171580332
 21
93.2555706195
  0
LINE
  5
4E1
100
AcDbEntity
  8
0
100
AcDbLine
 62
7
  6
CONTINUOUS
 10
42.2919320817
 20
94.0629188037
 11
42.262960087
 21
94.336976084
  0
LINE
  5
4E2
100
AcDbEntity
  8
0
100
AcDbLine
 62
7
  6
CONTINUOUS
 10
42.4697415168
 20
93.6927889587
 11
42.4979738054
 21
93.4253983604
  0
LINE
  5
4E3
100
AcDbEntity
  8
0
100
AcDbLine
 62
7
  6
CONTINUOUS
 10
42.402671657
 20
94.3393275847
 11
42.4317998287
 21
94.0639040872
  0
LINE
  5
4E4
100
AcDbEntity
  8
0
100
AcDbLine
 62
7
  6
CONTINUOUS
 10
43.1580035652
 20
93.4253983604
 11
43.1297712768
 21
93.6927889587
  0
LINE
  5
4E5
100
AcDbEntity
  8
0
100
AcDbLine
 62
7
  6
CONTINUOUS
 10
43.0918295889
 20
94.0639040872
 11
43.0627014174
 21
94.3393275847
  0
LINE
  5
4E6
100
AcDbEntity
  8
0
100
AcDbLine
 62
7
  6
CONTINUOUS
 10
43.2698523728
 20
93.691712838
 11
43.2984441882
 21
93.4210961194
  0
LINE
  5
4E7
100
AcDbEntity
  8
0
100
AcDbLine
 62
7
  6
CONTINUOUS
 10
43.2030187281
 20
94.336159238
 11
43.2319263062
 21
94.062675861
  0
LINE
  5
4E8
100
AcDbEntity
  8
0
100
AcDbLine
 62
7
  6
CONTINUOUS
 10
43.9584739382
 20
93.4210961194
 11
43.9298821232
 21
93.691712838
  0
LINE
  5
4E9
100
AcDbEntity
  8
0
100
AcDbLine
 62
7
  6
CONTINUOUS
 10
43.8919560571
 20
94.062675861
 11
43.8630484794
 21
94.336159238
  0
LINE
  5
4EA
100
AcDbEntity
  8
0
100
AcDbLine
 62
7
  6
CONTINUOUS
 10
44.0698994013
 20
93.6912636237
 11
44.0988488697
 21
93.4174061597
  0
LINE
  5
4EB
100
AcDbEntity
  8
0
100
AcDbLine
 62
7
  6
CONTINUOUS
 10
44.0034425114
 20
94.3322938497
 11
44.0319669889
 21
94.062288192
  0
LINE
  5
4EC
100
AcDbEntity
  8
0
100
AcDbLine
 62
7
  6
CONTINUOUS
 10
44.7588786113
 20
93.4174061597
 11
44.7299291431
 21
93.6912636237
  0
LINE
  5
4ED
100
AcDbEntity
  8
0
100
AcDbLine
 62
7
  6
CONTINUOUS
 10
44.6919967309
 20
94.062288192
 11
44.6634722535
 21
94.3322938497
  0
LINE
  5
4EE
100
AcDbEntity
  8
0
100
AcDbLine
 62
7
  6
CONTINUOUS
 10
42.3581242169
 20
93.4243035754
 11
42.3297140384
 21
93.6933547148
  0
LINE
  5
4EF
100
AcDbEntity
  8
0
100
AcDbLine
 62
7
  6
CONTINUOUS
 10
42.3297140384
 20
93.6933547148
 11
42.2919320817
 21
94.0629188037
  0
LINE
  5
4F0
100
AcDbEntity
  8
0
100
AcDbLine
 62
7
  6
CONTINUOUS
 10
42.4317998287
 20
94.0639040872
 11
42.4697415168
 21
93.6927889587
  0
LINE
  5
4F1
100
AcDbEntity
  8
0
100
AcDbLine
 62
7
  6
CONTINUOUS
 10
43.1297712768
 20
93.6927889587
 11
43.0918295889
 21
94.0639040872
  0
LINE
  5
4F2
100
AcDbEntity
  8
0
100
AcDbLine
 62
7
  6
CONTINUOUS
 10
43.2319263062
 20
94.062675861
 11
43.2698523728
 21
93.691712838
  0
LINE
  5
4F3
100
AcDbEntity
  8
0
100
AcDbLine
 62
7
  6
CONTINUOUS
 10
43.9298821232
 20
93.691712838
 11
43.8919560571
 21
94.062675861
  0
LINE
  5
4F4
100
AcDbEntity
  8
0
100
AcDbLine
 62
7
  6
CONTINUOUS
 10
44.0319669889
 20
94.062288192
 11
44.0698994013
 21
93.6912636237
  0
LINE
  5
4F5
100
AcDbEntity
  8
0
100
AcDbLine
 62
7
  6
CONTINUOUS
 10
44.7299291431
 20
93.6912636237
 11
44.6919967309
 21
94.062288192
  0
LWPOLYLINE
  5
4F6
100
AcDbEntity
  8
0
100
AcDbPolyline
 62
7
  6
CONTINUOUS
 90
12
 70
0
 10
43.6165005212
 20
92.796712817
 10
43.6254511385
 20
92.7040221636
 10
43.6344017558
 20
92.6171259409
 10
43.6433523731
 20
92.5364533954
 10
43.6523029903
 20
92.4624030303
 10
43.6612536076
 20
92.3953406367
 10
43.6702042249
 20
92.3355974868
 10
43.6791548422
 20
92.2834686973
 10
43.6881054595
 20
92.2392117719
 10
43.6970560768
 20
92.2030453293
 10
43.706006694
 20
92.1751480228
 10
43.7148249928
 20
92.1558840507
  0
LWPOLYLINE
  5
4F7
100
AcDbEntity
  8
0
100
AcDbPolyline
 62
7
  6
CONTINUOUS
 90
14
 70
0
 10
43.7165005212
 20
92.796712817
 10
43.7254511385
 20
92.7040221636
 10
43.7344017558
 20
92.6171259409
 10
43.7433523731
 20
92.5364533954
 10
43.7523029903
 20
92.4624030303
 10
43.7612536076
 20
92.3953406367
 10
43.7702042249
 20
92.3355974868
 10
43.7791548422
 20
92.2834686973
 10
43.7881054595
 20
92.2392117719
 10
43.7970560768
 20
92.2030453293
 10
43.806006694
 20
92.1751480228
 10
43.8149573113
 20
92.1556576584
 10
43.8239079286
 20
92.1446705137
 10
43.830920297
 20
92.1420398332
  0
LWPOLYLINE
  5
4F8
100
AcDbEntity
  8
0
100
AcDbPolyline
 62
7
  6
CONTINUOUS
 90
14
 70
0
 10
42.1143400274
 20
92.8199138945
 10
42.1232906447
 20
92.7258914514
 10
42.1322412619
 20
92.6375554231
 10
42.1411918792
 20
92.5553421704
 10
42.1501424965
 20
92.4796578091
 10
42.1590931138
 20
92.4108762037
 10
42.1680437311
 20
92.3493371205
 10
42.1769943484
 20
92.2953445496
 10
42.1859449656
 20
92.249165203
 10
42.1948955829
 20
92.2110271972
 10
42.2038462002
 20
92.1811189261
 10
42.2127968175
 20
92.1595881306
 10
42.2217474348
 20
92.146541169
 10
42.2309210341
 20
92.1420398302
  0
LWPOLYLINE
  5
4F9
100
AcDbEntity
  8
0
100
AcDbPolyline
 62
7
  6
CONTINUOUS
 90
13
 70
0
 10
44.4131054595
 20
92.8333012729
 10
44.4220560768
 20
92.7385305723
 10
44.431006694
 20
92.6493838376
 10
44.4399573113
 20
92.5663014328
 10
44.4489079286
 20
92.4896937653
 10
44.4578585459
 20
92.4199392593
 10
44.4668091632
 20
92.3573824856
 10
44.4757597805
 20
92.3023324603
 10
44.4847103977
 20
92.2550611176
 10
44.493661015
 20
92.2158019671
 10
44.5026116323
 20
92.18474894
 10
44.5115622496
 20
92.1620554312
 10
44.5148257454
 20
92.1558840531
  0
LWPOLYLINE
  5
4FA
100
AcDbEntity
  8
0
100
AcDbPolyline
 62
7
  6
CONTINUOUS
 90
15
 70
0
 10
44.5131054595
 20
92.8333012729
 10
44.5220560768
 20
92.7385305723
 10
44.531006694
 20
92.6493838376
 10
44.5399573113
 20
92.5663014328
 10
44.5489079286
 20
92.4896937653
 10
44.5578585459
 20
92.4199392593
 10
44.5668091632
 20
92.3573824856
 10
44.5757597805
 20
92.3023324603
 10
44.5847103977
 20
92.2550611176
 10
44.593661015
 20
92.2158019671
 10
44.6026116323
 20
92.18474894
 10
44.6115622496
 20
92.1620554312
 10
44.6205128669
 20
92.1478335416
 10
44.6294634842
 20
92.1421535242
 10
44.6309210429
 20
92.1420398411
  0
LWPOLYLINE
  5
4FB
100
AcDbEntity
  8
0
100
AcDbPolyline
 62
7
  6
CONTINUOUS
 90
13
 70
0
 10
42.8109449656
 20
92.8569579891
 10
42.8198955829
 20
92.7608992845
 10
42.8288462002
 20
92.67035407
 10
42.8377968175
 20
92.5857696186
 10
42.8467474348
 20
92.5075637582
 10
42.8556980521
 20
92.4361228079
 10
42.8646486693
 20
92.3717996696
 10
42.8735992866
 20
92.3149120848
 10
42.8825499039
 20
92.2657410648
 10
42.8915005212
 20
92.224529503
 10
42.9004511385
 20
92.1914809748
 10
42.9094017558
 20
92.1667587318
 10
42.9148247393
 20
92.1558840003
  0
LWPOLYLINE
  5
4FC
100
AcDbEntity
  8
0
100
AcDbPolyline
 62
7
  6
CONTINUOUS
 90
15
 70
0
 10
42.9109449656
 20
92.8569579891
 10
42.9198955829
 20
92.7608992845
 10
42.9288462002
 20
92.67035407
 10
42.9377968175
 20
92.5857696186
 10
42.9467474348
 20
92.5075637582
 10
42.9556980521
 20
92.4361228079
 10
42.9646486693
 20
92.3717996696
 10
42.9735992866
 20
92.3149120848
 10
42.9825499039
 20
92.2657410648
 10
42.9915005212
 20
92.224529503
 10
43.0004511385
 20
92.1914809748
 10
43.0094017558
 20
92.1667587318
 10
43.0183523731
 20
92.1504848958
 10
43.0273029903
 20
92.1427398553
 10
43.0309199995
 20
92.1420398205
  0
LINE
  5
4FD
100
AcDbEntity
  8
0
100
AcDbLine
 62
7
  6
CONTINUOUS
 10
43.5985992866
 20
92.9976195754
 11
43.6165005212
 21
92.796712817
  0
LINE
  5
4FE
100
AcDbEntity
  8
0
100
AcDbLine
 62
7
  6
CONTINUOUS
 10
43.6985992866
 20
92.9976195754
 11
43.7165005212
 21
92.796712817
  0
LINE
  5
4FF
100
AcDbEntity
  8
0
100
AcDbLine
 62
7
  6
CONTINUOUS
 10
43.4464387928
 20
94.9456079825
 11
43.4643400274
 21
94.7435175442
  0
LINE
  5
500
100
AcDbEntity
  8
0
100
AcDbLine
 62
7
  6
CONTINUOUS
 10
43.5464387928
 20
94.9456079825
 11
43.5643400274
 21
94.7435175442
  0
LINE
  5
501
100
AcDbEntity
  8
0
100
AcDbLine
 62
7
  6
CONTINUOUS
 10
42.0964387928
 20
93.0231344285
 11
42.1143400274
 21
92.8199138945
  0
LINE
  5
502
100
AcDbEntity
  8
0
100
AcDbLine
 62
7
  6
CONTINUOUS
 10
44.3952042249
 20
93.037816523
 11
44.4131054595
 21
92.8333012729
  0
LINE
  5
503
100
AcDbEntity
  8
0
100
AcDbLine
 62
7
  6
CONTINUOUS
 10
44.4952042249
 20
93.037816523
 11
44.5131054595
 21
92.8333012729
  0
LINE
  5
504
100
AcDbEntity
  8
0
100
AcDbLine
 62
7
  6
CONTINUOUS
 10
42.6498338545
 20
94.9087864525
 11
42.6677350891
 21
94.7031348599
  0
LINE
  5
505
100
AcDbEntity
  8
0
100
AcDbLine
 62
7
  6
CONTINUOUS
 10
42.7498338545
 20
94.9087864525
 11
42.7677350891
 21
94.7031348599
  0
LINE
  5
506
100
AcDbEntity
  8
0
100
AcDbLine
 62
7
  6
CONTINUOUS
 10
42.7930437311
 20
93.0636929438
 11
42.8109449656
 21
92.8569579891
  0
LINE
  5
507
100
AcDbEntity
  8
0
100
AcDbLine
 62
7
  6
CONTINUOUS
 10
42.8930437311
 20
93.0636929438
 11
42.9109449656
 21
92.8569579891
  0
LINE
  5
508
100
AcDbEntity
  8
0
100
AcDbLine
 62
7
  6
CONTINUOUS
 10
44.2519943484
 20
94.8849762189
 11
44.2698955829
 21
94.6771356039
  0
LINE
  5
509
100
AcDbEntity
  8
0
100
AcDbLine
 62
7
  6
CONTINUOUS
 10
44.3519943484
 20
94.8849762189
 11
44.3698955829
 21
94.6771356039
  0
LINE
  5
50A
100
AcDbEntity
  8
0
100
AcDbLine
 62
7
  6
CONTINUOUS
 10
41.9532289163
 20
94.8712401997
 11
41.9711301508
 21
94.6621750549
  0
LINE
  5
50B
100
AcDbEntity
  8
0
100
AcDbLine
 62
7
  6
CONTINUOUS
 10
43.5806980521
 20
93.2158813919
 11
43.5985992866
 21
92.9976195754
  0
LINE
  5
50C
100
AcDbEntity
  8
0
100
AcDbLine
 62
7
  6
CONTINUOUS
 10
43.6806980521
 20
93.2158813919
 11
43.6985992866
 21
92.9976195754
  0
LINE
  5
50D
100
AcDbEntity
  8
0
100
AcDbLine
 62
7
  6
CONTINUOUS
 10
43.4643400274
 20
94.7435175442
 11
43.4822412619
 21
94.5243274675
  0
LINE
  5
50E
100
AcDbEntity
  8
0
100
AcDbLine
 62
7
  6
CONTINUOUS
 10
43.5643400274
 20
94.7435175442
 11
43.5822412619
 21
94.5243274675
  0
LINE
  5
50F
100
AcDbEntity
  8
0
100
AcDbLine
 62
7
  6
CONTINUOUS
 10
42.0785375582
 20
93.2432065246
 11
42.0964387928
 21
93.0231344285
  0
LINE
  5
510
100
AcDbEntity
  8
0
100
AcDbLine
 62
7
  6
CONTINUOUS
 10
44.3773029903
 20
93.2588935499
 11
44.3952042249
 21
93.037816523
  0
LINE
  5
511
100
AcDbEntity
  8
0
100
AcDbLine
 62
7
  6
CONTINUOUS
 10
44.4773029903
 20
93.2588935499
 11
44.4952042249
 21
93.037816523
  0
LINE
  5
512
100
AcDbEntity
  8
0
100
AcDbLine
 62
7
  6
CONTINUOUS
 10
42.6677350891
 20
94.7031348599
 11
42.6856363237
 21
94.4811805143
  0
LINE
  5
513
100
AcDbEntity
  8
0
100
AcDbLine
 62
7
  6
CONTINUOUS
 10
42.7677350891
 20
94.7031348599
 11
42.7856363237
 21
94.4811805143
  0
LINE
  5
514
100
AcDbEntity
  8
0
100
AcDbLine
 62
7
  6
CONTINUOUS
 10
42.7751424965
 20
93.2864790814
 11
42.7930437311
 21
93.0636929438
  0
LINE
  5
515
100
AcDbEntity
  8
0
100
AcDbLine
 62
7
  6
CONTINUOUS
 10
42.8751424965
 20
93.2864790814
 11
42.8930437311
 21
93.0636929438
  0
LINE
  5
516
100
AcDbEntity
  8
0
100
AcDbLine
 62
7
  6
CONTINUOUS
 10
44.2698955829
 20
94.6771356039
 11
44.2967474348
 21
94.3371384789
  0
LINE
  5
517
100
AcDbEntity
  8
0
100
AcDbLine
 62
7
  6
CONTINUOUS
 10
44.3698955829
 20
94.6771356039
 11
44.3967474348
 21
94.3371384789
  0
LINE
  5
518
100
AcDbEntity
  8
0
100
AcDbLine
 62
7
  6
CONTINUOUS
 10
41.9711301508
 20
94.6621750549
 11
41.9979820027
 21
94.3209006048
  0
LINE
  5
519
100
AcDbEntity
  8
0
100
AcDbLine
 62
7
  6
CONTINUOUS
 10
43.5448955829
 20
93.6869834243
 11
43.5806980521
 21
93.2158813919
  0
LINE
  5
51A
100
AcDbEntity
  8
0
100
AcDbLine
 62
7
  6
CONTINUOUS
 10
43.6448955829
 20
93.6869834243
 11
43.6806980521
 21
93.2158813919
  0
LINE
  5
51B
100
AcDbEntity
  8
0
100
AcDbLine
 62
7
  6
CONTINUOUS
 10
43.4822412619
 20
94.5243274675
 11
43.5180437311
 21
94.0522030586
  0
LINE
  5
51C
100
AcDbEntity
  8
0
100
AcDbLine
 62
7
  6
CONTINUOUS
 10
43.5822412619
 20
94.5243274675
 11
43.6180437311
 21
94.0522030586
  0
LINE
  5
51D
100
AcDbEntity
  8
0
100
AcDbLine
 62
7
  6
CONTINUOUS
 10
41.9979820027
 20
94.3209006048
 11
42.0785375582
 21
93.2432065246
  0
LWPOLYLINE
  5
51E
100
AcDbEntity
  8
0
100
AcDbPolyline
 62
7
  6
CONTINUOUS
 90
3
 70
0
 10
42.6856363237
 20
94.4811805143
 10
42.7303894101
 20
93.8842719233
 10
42.7751424965
 20
93.2864790814
  0
LWPOLYLINE
  5
51F
100
AcDbEntity
  8
0
100
AcDbPolyline
 62
7
  6
CONTINUOUS
 90
3
 70
0
 10
42.7856363237
 20
94.4811805143
 10
42.8303894101
 20
93.8842719233
 10
42.8751424965
 20
93.2864790814
  0
LINE
  5
520
100
AcDbEntity
  8
0
100
AcDbLine
 62
7
  6
CONTINUOUS
 10
43.5180437311
 20
94.0522030586
 11
43.5448955829
 21
93.6869834243
  0
LINE
  5
521
100
AcDbEntity
  8
0
100
AcDbLine
 62
7
  6
CONTINUOUS
 10
43.6180437311
 20
94.0522030586
 11
43.6448955829
 21
93.6869834243
  0
LINE
  5
522
100
AcDbEntity
  8
0
100
AcDbLine
 62
7
  6
CONTINUOUS
 10
44.2967474348
 20
94.3371384789
 11
44.3773029903
 21
93.2588935499
  0
LINE
  5
523
100
AcDbEntity
  8
0
100
AcDbLine
 62
7
  6
CONTINUOUS
 10
44.3967474348
 20
94.3371384789
 11
44.4773029903
 21
93.2588935499
  0
LWPOLYLINE
  5
524
100
AcDbEntity
  8
0
100
AcDbPolyline
 62
7
  6
CONTINUOUS
 90
4
 70
0
 43
0.3500000006
 10
43.7746847992
 20
168.5556071777
 10
43.7746847992
 20
169.4127451172
 10
44.2032537689
 20
169.8413322144
 10
44.8461117554
 20
169.8413322144
  0
LINE
  5
525
100
AcDbEntity
  8
0
100
AcDbLine
 62
7
  6
CONTINUOUS
 10
43.3148247247
 20
95.5981956039
 11
43.0388708695
 21
95.1254307664
  0
LINE
  5
526
100
AcDbEntity
  8
0
100
AcDbLine
 62
7
  6
CONTINUOUS
 10
41.447016399
 20
92.1558842245
 11
41.7220289053
 21
92.6270398172
  0
LINE
  5
527
100
AcDbEntity
  8
0
100
AcDbLine
 62
7
  6
CONTINUOUS
 10
44.1148253857
 20
95.5981955756
 11
43.8388715232
 21
95.1254307351
  0
LINE
  5
528
100
AcDbEntity
  8
0
100
AcDbLine
 62
7
  6
CONTINUOUS
 10
42.2470163773
 20
92.1558841666
 11
42.5220289055
 21
92.6270398172
  0
LINE
  5
529
100
AcDbEntity
  8
0
100
AcDbLine
 62
7
  6
CONTINUOUS
 10
44.914825914
 20
95.598195603
 11
44.6388720628
 21
95.1254307717
  0
LINE
  5
52A
100
AcDbEntity
  8
0
100
AcDbLine
 62
7
  6
CONTINUOUS
 10
43.047015361
 20
92.1558841733
 11
43.3220278874
 21
92.6270398172
  0
LINE
  5
52B
100
AcDbEntity
  8
0
100
AcDbLine
 62
7
  6
CONTINUOUS
 10
45.7148250945
 20
95.5981956663
 11
45.4388712626
 21
95.1254308462
  0
LINE
  5
52C
100
AcDbEntity
  8
0
100
AcDbLine
 62
7
  6
CONTINUOUS
 10
43.847015701
 20
92.1558842219
 11
44.1220282087
 21
92.6270398172
  0
LWPOLYLINE
  5
52D
100
AcDbEntity
  8
0
100
AcDbPolyline
 62
7
  6
CONTINUOUS
 90
4
 70
0
 10
44.1148253857
 20
95.5981955756
 10
44.1177350891
 20
95.6027445635
 10
44.1266857064
 20
95.6110801468
 10
44.1309206929
 20
95.6120397958
  0
LWPOLYLINE
  5
52E
100
AcDbEntity
  8
0
100
AcDbPolyline
 62
7
  6
CONTINUOUS
 90
4
 70
0
 10
45.7148250945
 20
95.5981956663
 10
45.7198955829
 20
95.6055397815
 10
45.7288462002
 20
95.611809615
 10
45.7309203205
 20
95.6120398169
  0
LWPOLYLINE
  5
52F
100
AcDbEntity
  8
0
100
AcDbPolyline
 62
7
  6
CONTINUOUS
 90
3
 70
0
 10
43.3148247247
 20
95.5981956039
 10
43.3211301508
 20
95.6069136963
 10
43.3309200132
 20
95.612039808
  0
LWPOLYLINE
  5
530
100
AcDbEntity
  8
0
100
AcDbPolyline
 62
7
  6
CONTINUOUS
 90
3
 70
0
 10
44.914825914
 20
95.598195603
 10
44.9232906447
 20
95.608924995
 10
44.9309211893
 20
95.6120397962
  0
LWPOLYLINE
  5
531
100
AcDbEntity
  8
0
100
AcDbPolyline
 62
7
  6
CONTINUOUS
 90
3
 70
0
 10
42.2309210341
 20
92.1420398302
 10
42.2396486693
 20
92.1461143196
 10
42.2470163773
 20
92.1558841666
  0
LWPOLYLINE
  5
532
100
AcDbEntity
  8
0
100
AcDbPolyline
 62
7
  6
CONTINUOUS
 90
3
 70
0
 10
44.6309210429
 20
92.1420398411
 10
44.6384141014
 20
92.1450434373
 10
44.6470164388
 20
92.1558842226
  0
LWPOLYLINE
  5
533
100
AcDbEntity
  8
0
100
AcDbPolyline
 62
7
  6
CONTINUOUS
 90
3
 70
0
 10
40.6309202448
 20
92.1420398322
 10
40.6374881755
 20
92.1443476914
 10
40.6470156474
 20
92.1558842198
  0
LWPOLYLINE
  5
534
100
AcDbEntity
  8
0
100
AcDbPolyline
 62
7
  6
CONTINUOUS
 90
4
 70
0
 10
43.0309199995
 20
92.1420398205
 10
43.0362536076
 20
92.1435618684
 10
43.0452042249
 20
92.152946874
 10
43.047015361
 20
92.1558841733
  0
LINE
  5
535
100
AcDbEntity
  8
RACCORDO
100
AcDbLine
 62
7
  6
CONTINUOUS
 10
32.028499808
 20
96.8125814826
 11
30.628499808
 21
96.7933662721
  0
LINE
  5
536
100
AcDbEntity
  8
0
100
AcDbLine
 62
7
  6
CONTINUOUS
 10
33.2657911685
 20
95.1270398172
 11
33.4509050869
 21
95.1270398172
  0
LINE
  5
537
100
AcDbEntity
  8
0
100
AcDbLine
 62
7
  6
CONTINUOUS
 10
34.122027863
 20
95.1270398172
 11
34.2509056436
 21
95.1270398172
  0
LINE
  5
538
100
AcDbEntity
  8
0
100
AcDbLine
 62
7
  6
CONTINUOUS
 10
34.9220284282
 20
95.1270398172
 11
35.0509062894
 21
95.1270398172
  0
LINE
  5
539
100
AcDbEntity
  8
0
100
AcDbLine
 62
7
  6
CONTINUOUS
 10
35.722029056
 20
95.1270398172
 11
35.8509057544
 21
95.1270398172
  0
LINE
  5
53A
100
AcDbEntity
  8
0
100
AcDbLine
 62
7
  6
CONTINUOUS
 10
36.5220284895
 20
95.1270398172
 11
36.6509050969
 21
95.1270398172
  0
LINE
  5
53B
100
AcDbEntity
  8
0
100
AcDbLine
 62
7
  6
CONTINUOUS
 10
37.3220278748
 20
95.1270398172
 11
37.450905703
 21
95.1270398172
  0
LINE
  5
53C
100
AcDbEntity
  8
0
100
AcDbLine
 62
7
  6
CONTINUOUS
 10
38.1220284871
 20
95.1270398172
 11
38.2509063057
 21
95.1270398172
  0
LINE
  5
53D
100
AcDbEntity
  8
0
100
AcDbLine
 62
7
  6
CONTINUOUS
 10
38.9220290702
 20
95.1270398172
 11
39.0509056387
 21
95.1270398172
  0
LINE
  5
53E
100
AcDbEntity
  8
0
100
AcDbLine
 62
7
  6
CONTINUOUS
 10
39.7220283763
 20
95.1270398172
 11
39.8509051136
 21
95.1270398172
  0
LINE
  5
53F
100
AcDbEntity
  8
0
100
AcDbLine
 62
7
  6
CONTINUOUS
 10
40.5220278932
 20
95.1270398172
 11
40.6509057624
 21
95.1270398172
  0
LINE
  5
540
100
AcDbEntity
  8
0
100
AcDbLine
 62
7
  6
CONTINUOUS
 10
41.3220285458
 20
95.1270398172
 11
41.4509063152
 21
95.1270398172
  0
LINE
  5
541
100
AcDbEntity
  8
0
100
AcDbLine
 62
7
  6
CONTINUOUS
 10
42.1220290776
 20
95.1270398172
 11
42.2509055332
 21
95.1270398172
  0
LINE
  5
542
100
AcDbEntity
  8
0
100
AcDbLine
 62
7
  6
CONTINUOUS
 10
42.9220282754
 20
95.1270398172
 11
43.0509051366
 21
95.1270398172
  0
LINE
  5
543
100
AcDbEntity
  8
0
100
AcDbLine
 62
7
  6
CONTINUOUS
 10
43.7220279175
 20
95.1270398172
 11
43.8509058213
 21
95.1270398172
  0
LINE
  5
544
100
AcDbEntity
  8
0
100
AcDbLine
 62
7
  6
CONTINUOUS
 10
44.5220286038
 20
95.1270398172
 11
44.6509063174
 21
95.1270398172
  0
LINE
  5
545
100
AcDbEntity
  8
0
100
AcDbLine
 62
7
  6
CONTINUOUS
 10
45.3220290777
 20
95.1270398172
 11
45.4509054401
 21
95.1270398172
  0
LINE
  5
546
100
AcDbEntity
  8
0
100
AcDbLine
 62
7
  6
CONTINUOUS
 10
46.1220281867
 20
95.1270398172
 11
46.2509051654
 21
95.1270398172
  0
LINE
  5
547
100
AcDbEntity
  8
0
100
AcDbLine
 62
7
  6
CONTINUOUS
 10
46.9220279475
 20
95.1270398172
 11
47.0509058792
 21
95.1270398172
  0
LINE
  5
548
100
AcDbEntity
  8
0
100
AcDbLine
 62
7
  6
CONTINUOUS
 10
47.7220286608
 20
95.1270398172
 11
47.8509063118
 21
95.1270398172
  0
LINE
  5
549
100
AcDbEntity
  8
0
100
AcDbLine
 62
7
  6
CONTINUOUS
 10
48.52202907
 20
95.1270398172
 11
48.6509053591
 21
95.1270398172
  0
LINE
  5
54A
100
AcDbEntity
  8
0
100
AcDbLine
 62
7
  6
CONTINUOUS
 10
49.3220282053
 20
95.1270398172
 11
49.4509051993
 21
95.1270398172
  0
LINE
  5
54B
100
AcDbEntity
  8
0
100
AcDbLine
 62
7
  6
CONTINUOUS
 10
50.122028078
 20
95.1270398172
 11
50.2509059356
 21
95.1270398172
  0
LINE
  5
54C
100
AcDbEntity
  8
0
100
AcDbLine
 62
7
  6
CONTINUOUS
 10
50.9220288116
 20
95.1270398172
 11
51.0509062981
 21
95.1270398172
  0
LINE
  5
54D
100
AcDbEntity
  8
0
100
AcDbLine
 62
7
  6
CONTINUOUS
 10
51.7220291495
 20
95.1270398172
 11
52.0021431253
 21
95.1270398172
  0
LINE
  5
54E
100
AcDbEntity
  8
0
100
AcDbLine
 62
7
  6
CONTINUOUS
 10
33.118969657
 20
95.2134538766
 11
33.018969657
 21
95.2134538766
  0
LINE
  5
54F
100
AcDbEntity
  8
0
100
AcDbLine
 62
7
  6
CONTINUOUS
 10
32.338969657
 20
95.3270398172
 11
32.6234996032
 21
95.3270398172
  0
LINE
  5
550
100
AcDbEntity
  8
0
100
AcDbLine
 62
7
  6
CONTINUOUS
 10
52.2200227235
 20
95.3555543687
 11
52.1200227235
 21
95.3555543687
  0
LINE
  5
551
100
AcDbEntity
  8
0
100
AcDbLine
 62
7
  6
CONTINUOUS
 10
33.0482268332
 20
95.4746373215
 11
32.9482268306
 21
95.4746373215
  0
LINE
  5
552
100
AcDbEntity
  8
0
100
AcDbLine
 62
7
  6
CONTINUOUS
 10
51.4309211709
 20
95.6120397983
 11
51.3309211709
 21
95.6120397983
  0
LINE
  5
553
100
AcDbEntity
  8
0
100
AcDbLine
 62
7
  6
CONTINUOUS
 10
50.6309208067
 20
95.6120397947
 11
50.5309208067
 21
95.6120397947
  0
LINE
  5
554
100
AcDbEntity
  8
0
100
AcDbLine
 62
7
  6
CONTINUOUS
 10
49.8309200751
 20
95.6120398061
 11
49.7309200751
 21
95.6120398061
  0
LINE
  5
555
100
AcDbEntity
  8
0
100
AcDbLine
 62
7
  6
CONTINUOUS
 10
49.0309202394
 20
95.6120398166
 11
48.9309202394
 21
95.6120398166
  0
LINE
  5
556
100
AcDbEntity
  8
0
100
AcDbLine
 62
7
  6
CONTINUOUS
 10
48.2309211842
 20
95.6120397972
 11
48.1309211842
 21
95.6120397972
  0
LINE
  5
557
100
AcDbEntity
  8
0
100
AcDbLine
 62
7
  6
CONTINUOUS
 10
47.4309207505
 20
95.6120397952
 11
47.3309207505
 21
95.6120397952
  0
LINE
  5
558
100
AcDbEntity
  8
0
100
AcDbLine
 62
7
  6
CONTINUOUS
 10
46.6309200415
 20
95.6120398071
 11
46.5309200415
 21
95.6120398071
  0
LINE
  5
559
100
AcDbEntity
  8
0
100
AcDbLine
 62
7
  6
CONTINUOUS
 10
45.8309203205
 20
95.6120398169
 11
45.7309203205
 21
95.6120398169
  0
LINE
  5
55A
100
AcDbEntity
  8
0
100
AcDbLine
 62
7
  6
CONTINUOUS
 10
45.0309211893
 20
95.6120397962
 11
44.9309211893
 21
95.6120397962
  0
LINE
  5
55B
100
AcDbEntity
  8
0
100
AcDbLine
 62
7
  6
CONTINUOUS
 10
44.2309206929
 20
95.6120397958
 11
44.1309206929
 21
95.6120397958
  0
LINE
  5
55C
100
AcDbEntity
  8
0
100
AcDbLine
 62
7
  6
CONTINUOUS
 10
43.4309200132
 20
95.612039808
 11
43.3309200132
 21
95.612039808
  0
LINE
  5
55D
100
AcDbEntity
  8
0
100
AcDbLine
 62
7
  6
CONTINUOUS
 10
42.6309204137
 20
95.6120398171
 11
42.5309204137
 21
95.6120398171
  0
LINE
  5
55E
100
AcDbEntity
  8
0
100
AcDbLine
 62
7
  6
CONTINUOUS
 10
41.8309211868
 20
95.6120397954
 11
41.7309211868
 21
95.6120397954
  0
LINE
  5
55F
100
AcDbEntity
  8
0
100
AcDbLine
 62
7
  6
CONTINUOUS
 10
41.0309206342
 20
95.6120397964
 11
40.9309206342
 21
95.6120397964
  0
LINE
  5
560
100
AcDbEntity
  8
0
100
AcDbLine
 62
7
  6
CONTINUOUS
 10
40.2309199906
 20
95.612039809
 11
40.1309199906
 21
95.612039809
  0
LINE
  5
561
100
AcDbEntity
  8
0
100
AcDbLine
 62
7
  6
CONTINUOUS
 10
39.4309205193
 20
95.6120398172
 11
39.3309205193
 21
95.6120398172
  0
LINE
  5
562
100
AcDbEntity
  8
0
100
AcDbLine
 62
7
  6
CONTINUOUS
 10
38.630921177
 20
95.6120397948
 11
38.530921177
 21
95.6120397948
  0
LINE
  5
563
100
AcDbEntity
  8
0
100
AcDbLine
 62
7
  6
CONTINUOUS
 10
37.8309205751
 20
95.6120397971
 11
37.7309205751
 21
95.6120397971
  0
LINE
  5
564
100
AcDbEntity
  8
0
100
AcDbLine
 62
7
  6
CONTINUOUS
 10
37.0309199743
 20
95.6120398099
 11
36.9309199743
 21
95.6120398099
  0
LINE
  5
565
100
AcDbEntity
  8
0
100
AcDbLine
 62
7
  6
CONTINUOUS
 10
36.2309206348
 20
95.6120398157
 11
36.1309206348
 21
95.6120398157
  0
LINE
  5
566
100
AcDbEntity
  8
0
100
AcDbLine
 62
7
  6
CONTINUOUS
 10
35.4309211605
 20
95.6120397942
 11
35.3309211605
 21
95.6120397942
  0
LINE
  5
567
100
AcDbEntity
  8
0
100
AcDbLine
 62
7
  6
CONTINUOUS
 10
34.630920516
 20
95.6120397979
 11
34.530920516
 21
95.6120397979
  0
LINE
  5
568
100
AcDbEntity
  8
0
100
AcDbLine
 62
7
  6
CONTINUOUS
 10
33.8309199646
 20
95.6120398108
 11
33.7309199646
 21
95.6120398108
  0
LWPOLYLINE
  5
569
100
AcDbEntity
  8
RACCORDO
100
AcDbPolyline
 62
7
  6
CONTINUOUS
 90
19
 70
0
 10
32.028499808
 20
96.8125814826
 10
32.0540029104
 20
96.8125069407
 10
32.0795237239
 20
96.8115734124
 10
32.1048729271
 20
96.8097808979
 10
32.1298418031
 20
96.8071225721
 10
32.1542527187
 20
96.8036052601
 10
32.177955648
 20
96.7992494364
 10
32.2007746112
 20
96.7940306356
 10
32.2224831528
 20
96.787973323
 10
32.2428577806
 20
96.7811713698
 10
32.2616985191
 20
96.7736082244
 10
32.2788443313
 20
96.7653004383
 10
32.2941416089
 20
96.7563915372
 10
32.3074372567
 20
96.7468524206
 10
32.3185671843
 20
96.7367121889
 10
32.3273845041
 20
96.7262016695
 10
32.3337780427
 20
96.7153978047
 10
32.3376628745
 20
96.704223652
 10
32.338969657
 20
96.6926792115
  0
LWPOLYLINE
  5
56A
100
AcDbEntity
  8
0
100
AcDbPolyline
 62
7
  6
CONTINUOUS
 90
10
 70
0
 10
52.0021431253
 20
95.1270398172
 10
52.0045257754
 20
95.1269518504
 10
52.0187840942
 20
95.1227512502
 10
52.033151729
 20
95.112170023
 10
52.0477220087
 20
95.0949870153
 10
52.0624016044
 20
95.0711954637
 10
52.0770986577
 20
95.0409872575
 10
52.091782549
 20
95.0045839067
 10
52.1064838977
 20
94.9621017704
 10
52.121202704
 20
94.9137472951
  0
LWPOLYLINE
  5
56B
100
AcDbEntity
  8
0
100
AcDbPolyline
 62
7
  6
CONTINUOUS
 90
15
 70
0
 10
51.3309211709
 20
95.6120397983
 10
51.33193262
 20
95.6119850545
 10
51.3408832372
 20
95.6067318486
 10
51.3498338545
 20
95.592934353
 10
51.3587844718
 20
95.5706607238
 10
51.3677350891
 20
95.5400209871
 10
51.3766857064
 20
95.5011664956
 10
51.3856363237
 20
95.4542891813
 10
51.394586941
 20
95.399620607
 10
51.4035375582
 20
95.3374308227
 10
51.4124881755
 20
95.2680270315
 10
51.4214387928
 20
95.191752072
 10
51.4303894101
 20
95.1089827251
 10
51.4393400274
 20
95.0201278524
 10
51.4482906447
 20
94.9256263766
  0
LWPOLYLINE
  5
56C
100
AcDbEntity
  8
0
100
AcDbPolyline
 62
7
  6
CONTINUOUS
 90
4
 70
0
 10
51.4309211709
 20
95.6120397983
 10
51.43193262
 20
95.6119850545
 10
51.4408832372
 20
95.6067318486
 10
51.4470147303
 20
95.5981985442
  0
LWPOLYLINE
  5
56D
100
AcDbEntity
  8
0
100
AcDbPolyline
 62
7
  6
CONTINUOUS
 90
15
 70
0
 10
44.9309211893
 20
95.6120397962
 10
44.9322412619
 20
95.6119465479
 10
44.9411918792
 20
95.6063980572
 10
44.9501424965
 20
95.5923069306
 10
44.9590931138
 20
95.5697427745
 10
44.9680437311
 20
95.5388170502
 10
44.9769943484
 20
95.4996825232
 10
44.9859449656
 20
95.4525325086
 10
44.9948955829
 20
95.3975999164
 10
45.0038462002
 20
95.3351561005
 10
45.0127968175
 20
95.2655095189
 10
45.0217474348
 20
95.1890042093
 10
45.0306980521
 20
95.1060180902
 10
45.0396486693
 20
95.0169610939
 10
45.0485992866
 20
94.9222731414
  0
LWPOLYLINE
  5
56E
100
AcDbEntity
  8
0
100
AcDbPolyline
 62
7
  6
CONTINUOUS
 90
4
 70
0
 10
45.0309211893
 20
95.6120397962
 10
45.0322412619
 20
95.6119465479
 10
45.0411918792
 20
95.6063980572
 10
45.0470165622
 20
95.5981954345
  0
LWPOLYLINE
  5
56F
100
AcDbEntity
  8
0
100
AcDbPolyline
 62
7
  6
CONTINUOUS
 90
15
 70
0
 10
38.530921177
 20
95.6120397948
 10
38.5325499039
 20
95.6118978434
 10
38.5415005212
 20
95.606054071
 10
38.5504511385
 20
95.5916693661
 10
38.5594017558
 20
95.5688147856
 10
38.568352373
 20
95.5376032252
 10
38.5773029903
 20
95.4981888624
 10
38.5862536076
 20
95.4507663947
 10
38.5952042249
 20
95.3955700777
 10
38.6041548422
 20
95.3328725682
 10
38.6131054595
 20
95.2629835769
 10
38.6220560768
 20
95.1862483392
 10
38.631006694
 20
95.1030459092
 10
38.6399573113
 20
95.0137872873
 10
38.6489079286
 20
94.9189133906
  0
LWPOLYLINE
  5
570
100
AcDbEntity
  8
0
100
AcDbPolyline
 62
7
  6
CONTINUOUS
 90
4
 70
0
 10
38.630921177
 20
95.6120397948
 10
38.6325499039
 20
95.6118978434
 10
38.6415005212
 20
95.606054071
 10
38.6470165579
 20
95.5981954261
  0
LWPOLYLINE
  5
571
100
AcDbEntity
  8
0
100
AcDbPolyline
 62
7
  6
CONTINUOUS
 90
15
 70
0
 10
48.9309202394
 20
95.6120398166
 10
48.9331671879
 20
95.6117696539
 10
48.9421178051
 20
95.6053345251
 10
48.9510684224
 20
95.5903619939
 10
48.9600190397
 20
95.5669260221
 10
48.968969657
 20
95.535142379
 10
48.9779202743
 20
95.4951680697
 10
48.9868708916
 20
95.4472005594
 10
48.9958215089
 20
95.3914767978
 10
49.0047721261
 20
95.3282720487
 10
49.0137227434
 20
95.2578985306
 10
49.0226733607
 20
95.1807038738
 10
49.031623978
 20
95.0970694037
 10
49.0405745953
 20
95.0074082567
 10
49.0495252126
 20
94.9121633397
  0
LWPOLYLINE
  5
572
100
AcDbEntity
  8
0
100
AcDbPolyline
 62
7
  6
CONTINUOUS
 90
4
 70
0
 10
49.0309202394
 20
95.6120398166
 10
49.0331671879
 20
95.6117696539
 10
49.0421178051
 20
95.6053345251
 10
49.0470137693
 20
95.5981985868
  0
LWPOLYLINE
  5
573
100
AcDbEntity
  8
0
100
AcDbPolyline
 62
7
  6
CONTINUOUS
 90
15
 70
0
 10
42.5309204137
 20
95.6120398171
 10
42.5334758298
 20
95.6116903877
 10
42.5424264471
 20
95.604960255
 10
42.5513770644
 20
95.5896945617
 10
42.5603276817
 20
95.565968718
 10
42.569278299
 20
95.5338999254
 10
42.5782289163
 20
95.4936465976
 10
42.5871795335
 20
95.4454075783
 10
42.5961301508
 20
95.3894211587
 10
42.6050807681
 20
95.3259639004
 10
42.6140313854
 20
95.2553492694
 10
42.6229820027
 20
95.1779260875
 10
42.63193262
 20
95.0940768091
 10
42.6408832372
 20
95.0042156323
 10
42.6498338545
 20
94.9087864525
  0
LWPOLYLINE
  5
574
100
AcDbEntity
  8
0
100
AcDbPolyline
 62
7
  6
CONTINUOUS
 90
4
 70
0
 10
42.6309204137
 20
95.6120398171
 10
42.6334758298
 20
95.6116903877
 10
42.6424264471
 20
95.604960255
 10
42.647015735
 20
95.5981954986
  0
LWPOLYLINE
  5
575
100
AcDbEntity
  8
0
100
AcDbPolyline
 62
7
  6
CONTINUOUS
 90
5
 70
0
 10
36.1309206348
 20
95.6120398157
 10
36.1337844718
 20
95.6116009525
 10
36.1427350891
 20
95.6045759017
 10
36.1516857064
 20
95.5890171832
 10
36.1606363237
 20
95.5650016529
  0
LWPOLYLINE
  5
576
100
AcDbEntity
  8
0
100
AcDbPolyline
 62
7
  6
CONTINUOUS
 90
4
 70
0
 10
36.2309206348
 20
95.6120398157
 10
36.2337844718
 20
95.6116009525
 10
36.2427350891
 20
95.6045759017
 10
36.2470159464
 20
95.5981955063
  0
LWPOLYLINE
  5
577
100
AcDbEntity
  8
0
100
AcDbPolyline
 62
7
  6
CONTINUOUS
 90
15
 70
0
 10
46.5309200415
 20
95.6120398071
 10
46.5344017558
 20
95.6113911607
 10
46.5433523731
 20
95.6037754541
 10
46.5523029903
 20
95.5876300771
 10
46.5612536076
 20
95.5630347845
 10
46.5702042249
 20
95.5301110717
 10
46.5791548422
 20
95.4890215743
 10
46.5881054595
 20
95.4399692652
 10
46.5970560768
 20
95.3831964515
 10
46.606006694
 20
95.318983578
 10
46.6149573113
 20
95.2476478414
 10
46.6239079286
 20
95.1695416238
 10
46.6328585459
 20
95.0850507517
 10
46.6418091632
 20
94.9945925905
 10
46.6507597805
 20
94.8986139823
  0
LWPOLYLINE
  5
578
100
AcDbEntity
  8
0
100
AcDbPolyline
 62
7
  6
CONTINUOUS
 90
4
 70
0
 10
46.6309200415
 20
95.6120398071
 10
46.6344017558
 20
95.6113911607
 10
46.6433523731
 20
95.6037754541
 10
46.6470154336
 20
95.5981954284
  0
LWPOLYLINE
  5
579
100
AcDbEntity
  8
0
100
AcDbPolyline
 62
7
  6
CONTINUOUS
 90
15
 70
0
 10
40.1309199906
 20
95.612039809
 10
40.1347103977
 20
95.6112710529
 10
40.143661015
 20
95.603360299
 10
40.1526116323
 20
95.5869219224
 10
40.1615622496
 20
95.5620371251
 10
40.1705128669
 20
95.5288288327
 10
40.1794634842
 20
95.4874610868
 10
40.1884141014
 20
95.4381382349
 10
40.1973647187
 20
95.3811039206
 10
40.206315336
 20
95.3166398806
 10
40.2152659533
 20
95.2450645525
 10
40.2242165706
 20
95.1667315021
 10
40.2331671879
 20
95.0820276767
 10
40.2421178052
 20
94.9913714936
 10
40.2510684224
 20
94.8952107735
  0
LWPOLYLINE
  5
57A
100
AcDbEntity
  8
0
100
AcDbPolyline
 62
7
  6
CONTINUOUS
 90
4
 70
0
 10
40.2309199906
 20
95.612039809
 10
40.2347103977
 20
95.6112710529
 10
40.243661015
 20
95.603360299
 10
40.2470153765
 20
95.5981954356
  0
LWPOLYLINE
  5
57B
100
AcDbEntity
  8
0
100
AcDbPolyline
 62
7
  6
CONTINUOUS
 90
15
 70
0
 10
44.1309206929
 20
95.6120397958
 10
44.1356363237
 20
95.6108499838
 10
44.144586941
 20
95.6020552114
 10
44.1535375582
 20
95.5847392736
 10
44.1624881755
 20
95.558987707
 10
44.1714387928
 20
95.524927718
 10
44.1803894101
 20
95.4827275548
 10
44.1893400274
 20
95.4325956762
 10
44.1982906447
 20
95.3747797214
 10
44.2072412619
 20
95.3095652876
 10
44.2161918792
 20
95.2372745184
 10
44.2251424965
 20
95.1582645129
 10
44.2340931138
 20
95.0729255616
 10
44.2430437311
 20
94.9816792186
 10
44.2519943484
 20
94.8849762189
  0
LWPOLYLINE
  5
57C
100
AcDbEntity
  8
0
100
AcDbPolyline
 62
7
  6
CONTINUOUS
 90
4
 70
0
 10
44.2309206929
 20
95.6120397958
 10
44.2356363237
 20
95.6108499838
 10
44.244586941
 20
95.6020552114
 10
44.2470160991
 20
95.5981954052
  0
LWPOLYLINE
  5
57D
100
AcDbEntity
  8
0
100
AcDbPolyline
 62
7
  6
CONTINUOUS
 90
15
 70
0
 10
37.7309205751
 20
95.6120397971
 10
37.7359449656
 20
95.6106890975
 10
37.7448955829
 20
95.601599414
 10
37.7538462002
 20
95.583990817
 10
37.7627968175
 20
95.5579502888
 10
37.7717474348
 20
95.5236064634
 10
37.7806980521
 20
95.4811289911
 10
37.7896486693
 20
95.4307277003
 10
37.7985992866
 20
95.3726515615
 10
37.8075499039
 20
95.3071874569
 10
37.8165005212
 20
95.2346587636
 10
37.8254511385
 20
95.1554237559
 10
37.8344017558
 20
95.0698738359
 10
37.843352373
 20
94.9784315997
 10
37.8523029903
 20
94.8815487501
  0
LWPOLYLINE
  5
57E
100
AcDbEntity
  8
0
100
AcDbPolyline
 62
7
  6
CONTINUOUS
 90
4
 70
0
 10
37.8309205751
 20
95.6120397971
 10
37.8359449656
 20
95.6106890975
 10
37.8448955829
 20
95.601599414
 10
37.847015982
 20
95.598195406
  0
LWPOLYLINE
  5
57F
100
AcDbEntity
  8
0
100
AcDbPolyline
 62
7
  6
CONTINUOUS
 90
15
 70
0
 10
41.7309211868
 20
95.6120397954
 10
41.7368708916
 20
95.6101458783
 10
41.7458215089
 20
95.6001726908
 10
41.7547721261
 20
95.5816876213
 10
41.7637227434
 20
95.5547819812
 10
41.7726733607
 20
95.5195886778
 10
41.781623978
 20
95.4762815575
 10
41.7905745953
 20
95.4250745469
 10
41.7995252126
 20
95.3662205967
 10
41.8084758298
 20
95.3000104315
 10
41.8174264471
 20
95.2267711139
 10
41.8263770644
 20
95.146864429
 10
41.8353276817
 20
95.0606850973
 10
41.844278299
 20
94.9686588247
 10
41.8532289163
 20
94.8712401997
  0
LWPOLYLINE
  5
580
100
AcDbEntity
  8
0
100
AcDbPolyline
 62
7
  6
CONTINUOUS
 90
4
 70
0
 10
41.8309211868
 20
95.6120397954
 10
41.8368708916
 20
95.6101458783
 10
41.8458215089
 20
95.6001726908
 10
41.8470165638
 20
95.5981954301
  0
LWPOLYLINE
  5
581
100
AcDbEntity
  8
0
100
AcDbPolyline
 62
7
  6
CONTINUOUS
 90
15
 70
0
 10
45.4509054401
 20
95.1270398172
 10
45.4594477288
 20
95.1242276144
 10
45.4688634432
 20
95.11462738
 10
45.4783437006
 20
95.0981268407
 10
45.4879475589
 20
95.0745122493
 10
45.4976159603
 20
95.0438607611
 10
45.5072906809
 20
95.0064577912
 10
45.5169723749
 20
94.9625030368
 10
45.5266603882
 20
94.9122403085
 10
45.5362945353
 20
94.8563158038
 10
45.5458236369
 20
94.7954870719
 10
45.5552988722
 20
94.7299029879
 10
45.5648135941
 20
94.6592955163
 10
45.5744140403
 20
94.5836276078
 10
45.5840539731
 20
94.5036089371
  0
LWPOLYLINE
  5
582
100
AcDbEntity
  8
0
100
AcDbPolyline
 62
7
  6
CONTINUOUS
 90
15
 70
0
 10
43.0509051366
 20
95.1270398172
 10
43.0594806438
 20
95.1242057194
 10
43.0689526635
 20
95.114503571
 10
43.0784889244
 20
95.0978206443
 10
43.0881295497
 20
95.0739978693
 10
43.0978344162
 20
95.043089006
 10
43.1075228337
 20
95.0054784281
 10
43.1171873375
 20
94.9614540374
 10
43.1268353923
 20
94.9112754581
 10
43.1364087021
 20
94.8556179388
 10
43.1458437317
 20
94.7953523857
 10
43.1552040164
 20
94.7305827661
 10
43.1646218659
 20
94.6607620468
 10
43.1741503658
 20
94.585760821
 10
43.1837364305
 20
94.5063039992
  0
LWPOLYLINE
  5
583
100
AcDbEntity
  8
0
100
AcDbPolyline
 62
7
  6
CONTINUOUS
 90
15
 70
0
 10
49.710934845
 20
92.6270398172
 10
49.7021803341
 20
92.6299934234
 10
49.6926948933
 20
92.6398443707
 10
49.6831453967
 20
92.6566946226
 10
49.6734935667
 20
92.6806971963
 10
49.6637776809
 20
92.7117986748
 10
49.6540778117
 20
92.7496141149
 10
49.644398603
 20
92.7938684837
 10
49.6347354107
 20
92.8442909937
 10
49.625154375
 20
92.9001558477
 10
49.6157195326
 20
92.9605730246
 10
49.6063668466
 20
93.0254295972
 10
49.5969703473
 20
93.0952147631
 10
49.5874860514
 20
93.1699667807
 10
49.5779579421
 20
93.2490121837
  0
LWPOLYLINE
  5
584
100
AcDbEntity
  8
0
100
AcDbPolyline
 62
7
  6
CONTINUOUS
 90
15
 70
0
 10
42.2509055332
 20
95.1270398172
 10
42.2597749849
 20
95.1240081665
 10
42.2692330178
 20
95.1141122456
 10
42.2787198124
 20
95.0973321168
 10
42.2882771103
 20
95.0735804427
 10
42.2978631699
 20
95.0429883248
 10
42.307405658
 20
95.0059739712
 10
42.3168672048
 20
94.9630150892
 10
42.3262851802
 20
94.9143008614
 10
42.3356993613
 20
94.8599369978
 10
42.3450954812
 20
94.8003216626
 10
42.3544878067
 20
94.7357074845
 10
42.3639589157
 20
94.6658230288
 10
42.3735526581
 20
94.5905878418
 10
42.3832251839
 20
94.5106367947
  0
LWPOLYLINE
  5
585
100
AcDbEntity
  8
0
100
AcDbPolyline
 62
7
  6
CONTINUOUS
 90
3
 70
0
 10
52.110935698
 20
92.6270398172
 10
52.1018366926
 20
92.6302303563
 10
52.0921531039
 20
92.6406162125
  0
LWPOLYLINE
  5
586
100
AcDbEntity
  8
0
100
AcDbPolyline
 62
7
  6
CONTINUOUS
 90
15
 70
0
 10
43.8509058213
 20
95.1270398172
 10
43.8601719447
 20
95.1237310716
 10
43.8697050786
 20
95.113439433
 10
43.8793008485
 20
95.0960839648
 10
43.8889907438
 20
95.0715357812
 10
43.898743275
 20
95.0398471
 10
43.908476649
 20
95.0014217869
 10
43.9181835778
 20
94.9565597654
 10
43.9278713493
 20
94.9055332689
 10
43.9374800342
 20
94.8490437508
 10
43.9469672769
 20
94.7878381175
 10
43.9563754329
 20
94.7221502138
 10
43.9657716395
 20
94.6519422105
 10
43.9751616607
 20
94.5775662343
 10
43.9845397325
 20
94.4994836192
  0
LWPOLYLINE
  5
587
100
AcDbEntity
  8
0
100
AcDbPolyline
 62
7
  6
CONTINUOUS
 90
15
 70
0
 10
48.1109359514
 20
92.6270398172
 10
48.1015619263
 20
92.6304260382
 10
48.0920290978
 20
92.6407960521
 10
48.0824335466
 20
92.6582292781
 10
48.0727376212
 20
92.6828724543
 10
48.062978973
 20
92.7146636829
 10
48.0532390714
 20
92.753199166
 10
48.0435262115
 20
92.798173811
 10
48.0338320982
 20
92.8493189196
 10
48.0242133159
 20
92.9059528966
 10
48.0147158681
 20
92.9673090337
 10
48.0052937512
 20
93.0331788857
 10
47.9958655393
 20
93.1037147578
 10
47.9863964018
 20
93.1788222503
 10
47.9769211691
 20
93.2578417516
  0
LWPOLYLINE
  5
588
100
AcDbEntity
  8
0
100
AcDbPolyline
 62
7
  6
CONTINUOUS
 90
15
 70
0
 10
39.8509051136
 20
95.1270398172
 10
39.8603655997
 20
95.1235908699
 10
39.8698878638
 20
95.1131731169
 10
39.8794723864
 20
95.0957088084
 10
39.8891629076
 20
95.0710344967
 10
39.8989156872
 20
95.0392222739
 10
39.9086486715
 20
95.0006797046
 10
39.9183526933
 20
94.9557180722
 10
39.9280369196
 20
94.9046043705
 10
39.9376467979
 20
94.848008841
 10
39.9471345718
 20
94.7867073196
 10
39.9565479976
 20
94.7208956098
 10
39.965975791
 20
94.6503626163
 10
39.9754602223
 20
94.5751304362
 10
39.9849590213
 20
94.4959039082
  0
LWPOLYLINE
  5
589
100
AcDbEntity
  8
0
100
AcDbPolyline
 62
7
  6
CONTINUOUS
 90
15
 70
0
 10
44.6509063174
 20
95.1270398172
 10
44.6604157112
 20
95.1235551317
 10
44.6699297639
 20
95.113113696
 10
44.6795059414
 20
95.0956380783
 10
44.6891916797
 20
95.0709543126
 10
44.6989395427
 20
95.0391402925
 10
44.7086675644
 20
95.0006034854
 10
44.7183664239
 20
94.9556557539
 10
44.7280454421
 20
94.9045632282
 10
44.7376506165
 20
94.8479923796
 10
44.7471333544
 20
94.7867232548
 10
44.7565422485
 20
94.7209455178
 10
44.7659690749
 20
94.6504231651
 10
44.7754586434
 20
94.5751524637
 10
44.7849661442
 20
94.4958526812
  0
LWPOLYLINE
  5
58A
100
AcDbEntity
  8
0
100
AcDbPolyline
 62
7
  6
CONTINUOUS
 90
14
 70
0
 10
45.7309203205
 20
95.6120398169
 10
45.7377968175
 20
95.609510056
 10
45.7467474348
 20
95.5986524645
 10
45.7556980521
 20
95.5792904756
 10
45.7646486693
 20
95.5515197341
 10
45.7735992866
 20
95.5154774222
 10
45.7825499039
 20
95.471341582
 10
45.7915005212
 20
95.4193302359
 10
45.8004511385
 20
95.3597003092
 10
45.8094017558
 20
95.2927463616
 10
45.8183523731
 20
95.2187991319
 10
45.8273029903
 20
95.1382239039
 10
45.8362536076
 20
95.0514187024
 10
45.8452042249
 20
94.9588123266
  0
LWPOLYLINE
  5
58B
100
AcDbEntity
  8
0
100
AcDbPolyline
 62
7
  6
CONTINUOUS
 90
3
 70
0
 10
45.8309203205
 20
95.6120398169
 10
45.8377968175
 20
95.609510056
 10
45.8470156485
 20
95.5981954927
  0
LWPOLYLINE
  5
58C
100
AcDbEntity
  8
0
100
AcDbPolyline
 62
7
  6
CONTINUOUS
 90
15
 70
0
 10
50.5109352812
 20
92.6270398172
 10
50.5013298301
 20
92.6305952173
 10
50.4918873504
 20
92.6410017136
 10
50.4824140885
 20
92.6582702167
 10
50.4728730777
 20
92.68247815
 10
50.4633012847
 20
92.7135010922
 10
50.4537748752
 20
92.7509032608
 10
50.4443300111
 20
92.7942064958
 10
50.4349305303
 20
92.8432149157
 10
50.4255441127
 20
92.8977752849
 10
50.4161903547
 20
92.9574380862
 10
50.4068496599
 20
93.0219681816
 10
50.3974309184
 20
93.0916941073
 10
50.3878876413
 20
93.1667213686
 10
50.3782663176
 20
93.2463987013
  0
LWPOLYLINE
  5
58D
100
AcDbEntity
  8
0
100
AcDbPolyline
 62
7
  6
CONTINUOUS
 90
15
 70
0
 10
47.3109352252
 20
92.6270398172
 10
47.301318034
 20
92.6306039097
 10
47.2919627612
 20
92.6408915055
 10
47.2825552447
 20
92.6579630107
 10
47.2730473062
 20
92.6819753616
 10
47.2634871242
 20
92.7128353836
 10
47.2539148306
 20
92.7503073817
 10
47.2443250002
 20
92.7942308089
 10
47.2347230584
 20
92.8443609329
 10
47.2251654127
 20
92.9000899594
 10
47.2157012708
 20
92.960696745
 10
47.2062814251
 20
93.0260455166
 10
47.1968146599
 20
93.096409806
 10
47.1872561156
 20
93.1718313417
 10
47.1776506519
 20
93.2516242753
  0
LWPOLYLINE
  5
58E
100
AcDbEntity
  8
0
100
AcDbPolyline
 62
7
  6
CONTINUOUS
 90
15
 70
0
 10
40.6509057624
 20
95.1270398172
 10
40.6605351765
 20
95.1234666642
 10
40.6698902032
 20
95.1131706696
 10
40.6792814112
 20
95.0961260284
 10
40.6887435961
 20
95.0722483577
 10
40.6982419624
 20
95.0416437991
 10
40.7077600826
 20
95.0044773175
 10
40.7173111693
 20
94.9608520759
 10
40.7268820099
 20
94.9110220117
 10
40.736416539
 20
94.8555741464
 10
40.7458654155
 20
94.79521242
 10
40.7552779805
 20
94.7300569702
 10
40.7647461917
 20
94.6598160042
 10
40.7743152149
 20
94.5844326178
 10
40.7839398843
 20
94.5045831676
  0
LWPOLYLINE
  5
58F
100
AcDbEntity
  8
0
100
AcDbPolyline
 62
7
  6
CONTINUOUS
 90
15
 70
0
 10
47.0509058792
 20
95.1270398172
 10
47.0606566008
 20
95.1233761149
 10
47.0700936507
 20
95.1128725552
 10
47.0795567989
 20
95.0955258753
 10
47.0890809964
 20
95.0712745468
 10
47.0986312923
 20
95.0402502597
 10
47.1081359099
 20
95.0028795462
 10
47.1175576175
 20
94.9596451594
 10
47.1269336469
 20
94.9107376854
 10
47.1363039165
 20
94.8562624408
 10
47.1456537022
 20
94.796622291
 10
47.1549977281
 20
94.7320668597
 10
47.164420085
 20
94.6623103503
 10
47.1739653695
 20
94.5872625368
 10
47.1835889851
 20
94.5075610598
  0
LWPOLYLINE
  5
590
100
AcDbEntity
  8
0
100
AcDbPolyline
 62
7
  6
CONTINUOUS
 90
15
 70
0
 10
46.2509051654
 20
95.1270398172
 10
46.2607572711
 20
95.1232995663
 10
46.2701476397
 20
95.1127918024
 10
46.2795327704
 20
95.0955769012
 10
46.2889149516
 20
95.0717528943
 10
46.2982918948
 20
95.0414634247
 10
46.3076889455
 20
95.0047761014
 10
46.3171253648
 20
94.961756693
 10
46.3265818916
 20
94.9126713509
 10
46.3360260875
 20
94.8579508921
 10
46.3454189459
 20
94.7981768554
 10
46.3547994734
 20
94.7334802602
 10
46.3642522523
 20
94.6635859042
 10
46.3738199884
 20
94.5884305053
 10
46.3834599759
 20
94.5086479491
  0
LWPOLYLINE
  5
591
100
AcDbEntity
  8
0
100
AcDbPolyline
 62
7
  6
CONTINUOUS
 90
15
 70
0
 10
51.3109359844
 20
92.6270398172
 10
51.3009937329
 20
92.6308487923
 10
51.2915980925
 20
92.6414292136
 10
51.282209154
 20
92.6587202902
 10
51.2728245651
 20
92.6826205833
 10
51.2634466781
 20
92.7129827942
 10
51.254054005
 20
92.7497197148
 10
51.2446314484
 20
92.7927346533
 10
51.2351941058
 20
92.8417666078
 10
51.2257657811
 20
92.8964287127
 10
51.2163815472
 20
92.9561726559
 10
51.2070063312
 20
93.0208521749
 10
51.1975587185
 20
93.0907240405
 10
51.1879972996
 20
93.1658417824
 10
51.1783634841
 20
93.2455815779
  0
LWPOLYLINE
  5
592
100
AcDbEntity
  8
0
100
AcDbPolyline
 62
7
  6
CONTINUOUS
 90
14
 70
0
 10
39.3309205193
 20
95.6120398172
 10
39.3381054595
 20
95.6092780824
 10
39.3470560768
 20
95.598126281
 10
39.356006694
 20
95.5784726742
 10
39.3649573113
 20
95.5504143476
 10
39.3739079286
 20
95.5140899042
 10
39.3828585459
 20
95.46967878
 10
39.3918091632
 20
95.4174003573
 10
39.4007597805
 20
95.3575128813
 10
39.4097103977
 20
95.290312184
 10
39.418661015
 20
95.2161302235
 10
39.4276116323
 20
95.1353334434
 10
39.4365622496
 20
95.0483209632
 10
39.4455128669
 20
94.9555226067
  0
LWPOLYLINE
  5
593
100
AcDbEntity
  8
0
100
AcDbPolyline
 62
7
  6
CONTINUOUS
 90
3
 70
0
 10
39.4309205193
 20
95.6120398172
 10
39.4381054595
 20
95.6092780824
 10
39.4470158337
 20
95.5981955046
  0
LWPOLYLINE
  5
594
100
AcDbEntity
  8
0
100
AcDbPolyline
 62
7
  6
CONTINUOUS
 90
15
 70
0
 10
46.5109348576
 20
92.6270398172
 10
46.500907939
 20
92.6309139149
 10
46.4915091421
 20
92.6415599804
 10
46.4821167443
 20
92.6589211404
 10
46.4727268918
 20
92.6829005214
 10
46.4633434383
 20
92.7133486229
 10
46.4539515635
 20
92.7501500226
 10
46.4445415895
 20
92.7931686386
 10
46.4351231941
 20
92.842151106
 10
46.4257105905
 20
92.8967584646
 10
46.4163348207
 20
92.9564760734
 10
46.4069648428
 20
93.0211416809
 10
46.3975217441
 20
93.0909985526
 10
46.387964688
 20
93.1660970518
 10
46.3783345112
 20
93.2458187382
  0
LWPOLYLINE
  5
595
100
AcDbEntity
  8
0
100
AcDbPolyline
 62
7
  6
CONTINUOUS
 90
15
 70
0
 10
41.4509063152
 20
95.1270398172
 10
41.4611046078
 20
95.123032235
 10
41.4705061877
 20
95.1122586603
 10
41.4799063273
 20
95.0947565286
 10
41.489316059
 20
95.0705920864
 10
41.4987243503
 20
95.0399168768
 10
41.5081239318
 20
95.0029322688
 10
41.5175090993
 20
94.9598850278
 10
41.5268855569
 20
94.911005078
 10
41.5362631477
 20
94.8565133253
 10
41.5456205128
 20
94.7968452564
 10
41.5549790111
 20
94.7322032918
 10
41.5644125623
 20
94.6623702944
 10
41.5739613463
 20
94.5872975829
 10
41.5835851833
 20
94.5075958671
  0
LWPOLYLINE
  5
596
100
AcDbEntity
  8
0
100
AcDbPolyline
 62
7
  6
CONTINUOUS
 90
14
 70
0
 10
43.3309200132
 20
95.612039808
 10
43.3390313854
 20
95.6085202297
 10
43.3479820027
 20
95.5964852312
 10
43.35693262
 20
95.5759565729
 10
43.3658832372
 20
95.5470356621
 10
43.3748338545
 20
95.5098653617
 10
43.3837844718
 20
95.4646292846
 10
43.3927350891
 20
95.4115508868
 10
43.4016857064
 20
95.3508923635
 10
43.4106363237
 20
95.282953354
 10
43.419586941
 20
95.2080694614
 10
43.4285375582
 20
95.1266105947
 10
43.4374881755
 20
95.0389791421
 10
43.4464387928
 20
94.9456079825
  0
LWPOLYLINE
  5
597
100
AcDbEntity
  8
0
100
AcDbPolyline
 62
7
  6
CONTINUOUS
 90
3
 70
0
 10
43.4309200132
 20
95.612039808
 10
43.4390313854
 20
95.6085202297
 10
43.4470154023
 20
95.5981954319
  0
LWPOLYLINE
  5
598
100
AcDbEntity
  8
0
100
AcDbPolyline
 62
7
  6
CONTINUOUS
 90
14
 70
0
 10
40.9309206342
 20
95.6120397964
 10
40.9402659533
 20
95.6073684545
 10
40.9492165706
 20
95.594158038
 10
40.9581671879
 20
95.5724654664
 10
40.9671178052
 20
95.5423978959
 10
40.9760684224
 20
95.5041038531
 10
40.9850190397
 20
95.4577725013
 10
40.993969657
 20
95.4036327065
 10
41.0029202743
 20
95.341951906
 10
41.0118708916
 20
95.2730347885
 10
41.0208215089
 20
95.1972217879
 10
41.0297721261
 20
95.1148874023
 10
41.0387227434
 20
95.026438344
 10
41.0476733607
 20
94.9323115301
  0
LWPOLYLINE
  5
599
100
AcDbEntity
  8
0
100
AcDbPolyline
 62
7
  6
CONTINUOUS
 90
3
 70
0
 10
41.0309206342
 20
95.6120397964
 10
41.0402659533
 20
95.6073684545
 10
41.0470160409
 20
95.5981954055
  0
LWPOLYLINE
  5
59A
100
AcDbEntity
  8
0
100
AcDbPolyline
 62
7
  6
CONTINUOUS
 90
3
 70
0
 10
43.7148249928
 20
92.1558840507
 10
43.7239079286
 20
92.1446705137
 10
43.730920297
 20
92.1420398332
  0
LWPOLYLINE
  5
59B
100
AcDbEntity
  8
0
100
AcDbPolyline
 62
7
  6
CONTINUOUS
 90
3
 70
0
 10
46.1148247135
 20
92.1558840053
 10
46.1226733607
 20
92.14567771
 10
46.1309199786
 20
92.1420398212
  0
LWPOLYLINE
  5
59C
100
AcDbEntity
  8
0
100
AcDbPolyline
 62
7
  6
CONTINUOUS
 90
4
 70
0
 10
44.5148257454
 20
92.1558840531
 10
44.5205128669
 20
92.1478335416
 10
44.5294634842
 20
92.1421535242
 10
44.5309210429
 20
92.1420398411
  0
LWPOLYLINE
  5
59D
100
AcDbEntity
  8
0
100
AcDbPolyline
 62
7
  6
CONTINUOUS
 90
4
 70
0
 10
45.3148257336
 20
92.1558839918
 10
45.3171178051
 20
92.1522253298
 10
45.3260684224
 20
92.1432997338
 10
45.3309209741
 20
92.1420398282
  0
LINE
  5
59E
100
AcDbEntity
  8
0
100
AcDbLine
 62
7
  6
CONTINUOUS
 10
41.3331722721
 20
95.1080247447
 11
41.0470160409
 21
95.5981954055
  0
LINE
  5
59F
100
AcDbEntity
  8
0
100
AcDbLine
 62
7
  6
CONTINUOUS
 10
43.4286688162
 20
92.6460546221
 11
43.7148249928
 21
92.1558840507
  0
LINE
  5
5A0
100
AcDbEntity
  8
0
100
AcDbLine
 62
7
  6
CONTINUOUS
 10
42.1331727832
 20
95.1080247796
 11
41.8470165638
 21
95.5981954301
  0
LINE
  5
5A1
100
AcDbEntity
  8
0
100
AcDbLine
 62
7
  6
CONTINUOUS
 10
44.2286695744
 20
92.6460546148
 11
44.5148257454
 21
92.1558840531
  0
LINE
  5
5A2
100
AcDbEntity
  8
0
100
AcDbLine
 62
7
  6
CONTINUOUS
 10
42.9331719439
 20
95.1080248418
 11
42.647015735
 21
95.5981954986
  0
LINE
  5
5A3
100
AcDbEntity
  8
0
100
AcDbLine
 62
7
  6
CONTINUOUS
 10
45.0286695785
 20
92.6460545489
 11
45.3148257336
 21
92.1558839918
  0
LINE
  5
5A4
100
AcDbEntity
  8
0
100
AcDbLine
 62
7
  6
CONTINUOUS
 10
43.7331716321
 20
95.1080247643
 11
43.4470154023
 21
95.5981954319
  0
LINE
  5
5A5
100
AcDbEntity
  8
0
100
AcDbLine
 62
7
  6
CONTINUOUS
 10
45.8286685468
 20
92.6460545762
 11
46.1148247135
 21
92.1558840053
  0
LINE
  5
5A6
100
AcDbEntity
  8
0
100
AcDbLine
 62
7
  6
CONTINUOUS
 10
43.4470154023
 20
95.5981954319
 11
43.4479820027
 21
95.5964852312
  0
LINE
  5
5A7
100
AcDbEntity
  8
0
100
AcDbLine
 62
7
  6
CONTINUOUS
 10
42.647015735
 20
95.5981954986
 11
42.6513770644
 21
95.5896945617
  0
LINE
  5
5A8
100
AcDbEntity
  8
0
100
AcDbLine
 62
7
  6
CONTINUOUS
 10
44.2470160991
 20
95.5981954052
 11
44.2535375582
 21
95.5847392736
  0
LWPOLYLINE
  5
5A9
100
AcDbEntity
  8
0
100
AcDbPolyline
 62
7
  6
CONTINUOUS
 90
13
 70
0
 10
41.8470165638
 20
95.5981954301
 10
41.8547721261
 20
95.5816876213
 10
41.8637227434
 20
95.5547819812
 10
41.8726733607
 20
95.5195886778
 10
41.881623978
 20
95.4762815575
 10
41.8905745953
 20
95.4250745469
 10
41.8995252126
 20
95.3662205967
 10
41.9084758298
 20
95.3000104315
 10
41.9174264471
 20
95.2267711139
 10
41.9263770644
 20
95.146864429
 10
41.9353276817
 20
95.0606850973
 10
41.944278299
 20
94.9686588247
 10
41.9532289163
 20
94.8712401997
  0
LWPOLYLINE
  5
5AA
100
AcDbEntity
  8
0
100
AcDbPolyline
 62
7
  6
CONTINUOUS
 90
12
 70
0
 10
43.4479820027
 20
95.5964852312
 10
43.45693262
 20
95.5759565729
 10
43.4658832372
 20
95.5470356621
 10
43.4748338545
 20
95.5098653617
 10
43.4837844718
 20
95.4646292846
 10
43.4927350891
 20
95.4115508868
 10
43.5016857064
 20
95.3508923635
 10
43.5106363237
 20
95.282953354
 10
43.519586941
 20
95.2080694614
 10
43.5285375582
 20
95.1266105947
 10
43.5374881755
 20
95.0389791421
 10
43.5464387928
 20
94.9456079825
  0
LWPOLYLINE
  5
5AB
100
AcDbEntity
  8
0
100
AcDbPolyline
 62
7
  6
CONTINUOUS
 90
12
 70
0
 10
42.6513770644
 20
95.5896945617
 10
42.6603276817
 20
95.565968718
 10
42.669278299
 20
95.5338999254
 10
42.6782289163
 20
95.4936465976
 10
42.6871795335
 20
95.4454075783
 10
42.6961301508
 20
95.3894211587
 10
42.7050807681
 20
95.3259639004
 10
42.7140313854
 20
95.2553492694
 10
42.7229820027
 20
95.1779260875
 10
42.73193262
 20
95.0940768091
 10
42.7408832372
 20
95.0042156323
 10
42.7498338545
 20
94.9087864525
  0
LWPOLYLINE
  5
5AC
100
AcDbEntity
  8
0
100
AcDbPolyline
 62
7
  6
CONTINUOUS
 90
12
 70
0
 10
44.2535375582
 20
95.5847392736
 10
44.2624881755
 20
95.558987707
 10
44.2714387928
 20
95.524927718
 10
44.2803894101
 20
95.4827275548
 10
44.2893400274
 20
95.4325956762
 10
44.2982906447
 20
95.3747797214
 10
44.3072412619
 20
95.3095652876
 10
44.3161918792
 20
95.2372745184
 10
44.3251424965
 20
95.1582645129
 10
44.3340931138
 20
95.0729255616
 10
44.3430437311
 20
94.9816792186
 10
44.3519943484
 20
94.8849762189
  0
LWPOLYLINE
  5
5AD
100
AcDbEntity
  8
0
100
AcDbPolyline
 62
7
  6
CONTINUOUS
 90
13
 70
0
 10
43.0432549444
 20
94.5106367947
 10
43.0335824187
 20
94.5905878418
 10
43.0239886763
 20
94.6658230288
 10
43.0145175674
 20
94.7357074845
 10
43.0051252419
 20
94.8003216626
 10
42.995729122
 20
94.8599369978
 10
42.986314941
 20
94.9143008614
 10
42.9768969656
 20
94.9630150892
 10
42.9674354189
 20
95.0059739712
 10
42.9578929307
 20
95.0429883248
 10
42.9483068712
 20
95.0735804427
 10
42.9387495733
 20
95.0973321168
 10
42.9331719439
 20
95.1080248418
  0
LWPOLYLINE
  5
5AE
100
AcDbEntity
  8
0
100
AcDbPolyline
 62
7
  6
CONTINUOUS
 90
13
 70
0
 10
42.243614928
 20
94.5075958671
 10
42.2339910909
 20
94.5872975829
 10
42.2244423067
 20
94.6623702945
 10
42.2150087554
 20
94.7322032918
 10
42.2056502569
 20
94.7968452564
 10
42.1962928917
 20
94.8565133254
 10
42.1869153008
 20
94.911005078
 10
42.177538843
 20
94.9598850279
 10
42.1681536754
 20
95.0029322688
 10
42.1587540938
 20
95.0399168769
 10
42.1493458024
 20
95.0705920864
 10
42.1399360706
 20
95.0947565286
 10
42.1331727832
 20
95.1080247796
  0
LWPOLYLINE
  5
5AF
100
AcDbEntity
  8
0
100
AcDbPolyline
 62
7
  6
CONTINUOUS
 90
13
 70
0
 10
43.8437661821
 20
94.5063039992
 10
43.8341801175
 20
94.585760821
 10
43.8246516178
 20
94.6607620468
 10
43.8152337684
 20
94.7305827661
 10
43.8058734839
 20
94.7953523857
 10
43.7964384543
 20
94.8556179388
 10
43.7868651447
 20
94.9112754581
 10
43.77721709
 20
94.9614540374
 10
43.7675525864
 20
95.0054784281
 10
43.7578641691
 20
95.043089006
 10
43.7481593027
 20
95.0739978693
 10
43.7385186775
 20
95.0978206443
 10
43.7331716321
 20
95.1080247643
  0
LWPOLYLINE
  5
5B0
100
AcDbEntity
  8
0
100
AcDbPolyline
 62
7
  6
CONTINUOUS
 90
13
 70
0
 10
44.118172228
 20
93.2469497848
 10
44.1277826664
 20
93.1673345479
 10
44.1373255184
 20
93.0922771169
 10
44.1467435458
 20
93.0225199319
 10
44.1560939869
 20
92.9578855934
 10
44.1655101671
 20
92.8978049089
 10
44.175051539
 20
92.8423872986
 10
44.1846586501
 20
92.7924562262
 10
44.1942864686
 20
92.7486096257
 10
44.2039466451
 20
92.7110976134
 10
44.213627529
 20
92.6802352943
 10
44.2232491363
 20
92.6564137529
 10
44.2286695744
 20
92.6460546148
  0
LWPOLYLINE
  5
5B1
100
AcDbEntity
  8
0
100
AcDbPolyline
 62
7
  6
CONTINUOUS
 90
13
 70
0
 10
43.3173801096
 20
93.2536717921
 10
43.3267612195
 20
93.175606077
 10
43.3361491732
 20
93.1012937538
 10
43.3455368556
 20
93.031198841
 10
43.3549313819
 20
92.9656540248
 10
43.3644061233
 20
92.9045736821
 10
43.3740062739
 20
92.8481761766
 10
43.3836866396
 20
92.7972281314
 10
43.3933850088
 20
92.7524417188
 10
43.4031075983
 20
92.7140898479
 10
43.4128481914
 20
92.6824637825
 10
43.4225259263
 20
92.6579619627
 10
43.4286688162
 20
92.6460546221
  0
LWPOLYLINE
  5
5B2
100
AcDbEntity
  8
0
100
AcDbPolyline
 62
7
  6
CONTINUOUS
 90
13
 70
0
 10
44.6445694748
 20
94.4994836193
 10
44.635191403
 20
94.5775662344
 10
44.6258013818
 20
94.6519422105
 10
44.6164051753
 20
94.7221502138
 10
44.6069970194
 20
94.7878381175
 10
44.5975097768
 20
94.8490437508
 10
44.587901092
 20
94.9055332689
 10
44.5782133205
 20
94.9565597654
 10
44.5685063917
 20
95.0014217869
 10
44.5587730178
 20
95.0398471
 10
44.5490204867
 20
95.0715357812
 10
44.5393305915
 20
95.0960839648
 10
44.5331723298
 20
95.1080247453
  0
LWPOLYLINE
  5
5B3
100
AcDbEntity
  8
0
100
AcDbPolyline
 62
7
  6
CONTINUOUS
 90
13
 70
0
 10
42.5168682331
 20
93.2580317788
 10
42.5263553276
 20
93.178906975
 10
42.535832648
 20
93.1037317785
 10
42.5452618005
 20
93.0331879547
 10
42.554681179
 20
92.9673358097
 10
42.5641754186
 20
92.9059972309
 10
42.5737914187
 20
92.8493744754
 10
42.5834822799
 20
92.7982391659
 10
42.5931919394
 20
92.7532695249
 10
42.6029288324
 20
92.7147336192
 10
42.6126845237
 20
92.6829371988
 10
42.6223776451
 20
92.6582840085
 10
42.6286685742
 20
92.6460545705
  0
LINE
  5
5B4
100
AcDbEntity
  8
0
100
AcDbLine
 62
7
  6
CONTINUOUS
 10
42.3832251839
 20
94.5106367947
 11
42.402671657
 21
94.3393275847
  0
LINE
  5
5B5
100
AcDbEntity
  8
0
100
AcDbLine
 62
7
  6
CONTINUOUS
 10
43.0627014174
 20
94.3393275847
 11
43.0432549444
 21
94.5106367947
  0
LINE
  5
5B6
100
AcDbEntity
  8
0
100
AcDbLine
 62
7
  6
CONTINUOUS
 10
42.262960087
 20
94.336976084
 11
42.243614928
 21
94.5075958671
  0
LINE
  5
5B7
100
AcDbEntity
  8
0
100
AcDbLine
 62
7
  6
CONTINUOUS
 10
43.1837364305
 20
94.5063039992
 11
43.2030187281
 21
94.336159238
  0
LINE
  5
5B8
100
AcDbEntity
  8
0
100
AcDbLine
 62
7
  6
CONTINUOUS
 10
43.8630484794
 20
94.336159238
 11
43.8437661821
 21
94.5063039992
  0
LINE
  5
5B9
100
AcDbEntity
  8
0
100
AcDbLine
 62
7
  6
CONTINUOUS
 10
44.0988488697
 20
93.4174061597
 11
44.118172228
 21
93.2469497848
  0
LINE
  5
5BA
100
AcDbEntity
  8
0
100
AcDbLine
 62
7
  6
CONTINUOUS
 10
44.7782019696
 20
93.2469497848
 11
44.7588786113
 21
93.4174061597
  0
LINE
  5
5BB
100
AcDbEntity
  8
0
100
AcDbLine
 62
7
  6
CONTINUOUS
 10
43.2984441882
 20
93.4210961194
 11
43.3173801096
 21
93.2536717921
  0
LINE
  5
5BC
100
AcDbEntity
  8
0
100
AcDbLine
 62
7
  6
CONTINUOUS
 10
43.9774098593
 20
93.2536717921
 11
43.9584739382
 21
93.4210961194
  0
LINE
  5
5BD
100
AcDbEntity
  8
0
100
AcDbLine
 62
7
  6
CONTINUOUS
 10
43.9845397325
 20
94.4994836192
 11
44.0034425114
 21
94.3322938497
  0
LINE
  5
5BE
100
AcDbEntity
  8
0
100
AcDbLine
 62
7
  6
CONTINUOUS
 10
44.6634722535
 20
94.3322938497
 11
44.6445694748
 21
94.4994836193
  0
LINE
  5
5BF
100
AcDbEntity
  8
0
100
AcDbLine
 62
7
  6
CONTINUOUS
 10
42.3771877803
 20
93.2555706195
 11
42.3581242169
 21
93.4243035754
  0
LINE
  5
5C0
100
AcDbEntity
  8
0
100
AcDbLine
 62
7
  6
CONTINUOUS
 10
42.4979738054
 20
93.4253983604
 11
42.5168682331
 21
93.2580317788
  0
LINE
  5
5C1
100
AcDbEntity
  8
0
100
AcDbLine
 62
7
  6
CONTINUOUS
 10
43.1768979927
 20
93.2580317787
 11
43.1580035652
 21
93.4253983604
  0
LINE
  5
5C2
100
AcDbEntity
  8
0
100
AcDbLine
 62
7
  6
CONTINUOUS
 10
44.8699011184
 20
93.691249118
 11
44.8988531523
 21
93.4173687024
  0
LINE
  5
5C3
100
AcDbEntity
  8
0
100
AcDbLine
 62
7
  6
CONTINUOUS
 10
45.5588829003
 20
93.4173687024
 11
45.5299308658
 21
93.691249118
  0
LINE
  5
5C4
100
AcDbEntity
  8
0
100
AcDbLine
 62
7
  6
CONTINUOUS
 10
45.6699360705
 20
93.6908995194
 11
45.6989425402
 21
93.4165430535
  0
LINE
  5
5C5
100
AcDbEntity
  8
0
100
AcDbLine
 62
7
  6
CONTINUOUS
 10
45.6033149121
 20
94.333453736
 11
45.6320221288
 21
94.0617453417
  0
LINE
  5
5C6
100
AcDbEntity
  8
0
100
AcDbLine
 62
7
  6
CONTINUOUS
 10
46.3589722995
 20
93.4165430535
 11
46.32996583
 21
93.6908995194
  0
LINE
  5
5C7
100
AcDbEntity
  8
0
100
AcDbLine
 62
7
  6
CONTINUOUS
 10
46.2920518886
 20
94.0617453417
 11
46.2633446721
 21
94.333453736
  0
LINE
  5
5C8
100
AcDbEntity
  8
0
100
AcDbLine
 62
7
  6
CONTINUOUS
 10
46.4697170651
 20
93.6930270864
 11
46.498393932
 21
93.4215559861
  0
LINE
  5
5C9
100
AcDbEntity
  8
0
100
AcDbLine
 62
7
  6
CONTINUOUS
 10
46.4028394241
 20
94.3377964338
 11
46.4318655945
 21
94.0632656877
  0
LINE
  5
5CA
100
AcDbEntity
  8
0
100
AcDbLine
 62
7
  6
CONTINUOUS
 10
47.1584236812
 20
93.4215559861
 11
47.1297468146
 21
93.6930270864
  0
LINE
  5
5CB
100
AcDbEntity
  8
0
100
AcDbLine
 62
7
  6
CONTINUOUS
 10
47.0918953446
 20
94.0632656877
 11
47.0628691746
 21
94.3377964338
  0
LINE
  5
5CC
100
AcDbEntity
  8
0
100
AcDbLine
 62
7
  6
CONTINUOUS
 10
47.2697605592
 20
93.6926121566
 11
47.2980062271
 21
93.4251096626
  0
LINE
  5
5CD
100
AcDbEntity
  8
0
100
AcDbLine
 62
7
  6
CONTINUOUS
 10
47.2029333472
 20
94.3369460698
 11
47.2319035021
 21
94.0629050679
  0
LINE
  5
5CE
100
AcDbEntity
  8
0
100
AcDbLine
 62
7
  6
CONTINUOUS
 10
44.8038866491
 20
94.3282331348
 11
44.8321126511
 21
94.060876517
  0
LINE
  5
5CF
100
AcDbEntity
  8
0
100
AcDbLine
 62
7
  6
CONTINUOUS
 10
45.4921423977
 20
94.060876517
 11
45.4639163952
 21
94.3282331349
  0
LINE
  5
5D0
100
AcDbEntity
  8
0
100
AcDbLine
 62
7
  6
CONTINUOUS
 10
44.8321126511
 20
94.060876517
 11
44.8699011184
 21
93.691249118
  0
LINE
  5
5D1
100
AcDbEntity
  8
0
100
AcDbLine
 62
7
  6
CONTINUOUS
 10
45.5299308658
 20
93.691249118
 11
45.4921423977
 21
94.060876517
  0
LINE
  5
5D2
100
AcDbEntity
  8
0
100
AcDbLine
 62
7
  6
CONTINUOUS
 10
45.6320221288
 20
94.0617453417
 11
45.6699360705
 21
93.6908995194
  0
LINE
  5
5D3
100
AcDbEntity
  8
0
100
AcDbLine
 62
7
  6
CONTINUOUS
 10
46.32996583
 20
93.6908995194
 11
46.2920518886
 21
94.0617453417
  0
LINE
  5
5D4
100
AcDbEntity
  8
0
100
AcDbLine
 62
7
  6
CONTINUOUS
 10
46.4318655945
 20
94.0632656877
 11
46.4697170651
 21
93.6930270864
  0
LINE
  5
5D5
100
AcDbEntity
  8
0
100
AcDbLine
 62
7
  6
CONTINUOUS
 10
47.1297468146
 20
93.6930270864
 11
47.0918953446
 21
94.0632656877
  0
LINE
  5
5D6
100
AcDbEntity
  8
0
100
AcDbLine
 62
7
  6
CONTINUOUS
 10
47.2319035021
 20
94.0629050679
 11
47.2697605592
 21
93.6926121566
  0
LWPOLYLINE
  5
5D7
100
AcDbEntity
  8
0
100
AcDbPolyline
 62
7
  6
CONTINUOUS
 90
12
 70
0
 10
47.6174264471
 20
92.7868771621
 10
47.6263770644
 20
92.6947646584
 10
47.6353276817
 20
92.6084923146
 10
47.644278299
 20
92.5284862958
 10
47.6532289163
 20
92.4551418131
 10
47.6621795335
 20
92.3888211713
 10
47.6711301508
 20
92.3298519789
 10
47.6800807681
 20
92.2785255301
 10
47.6890313854
 20
92.2350953658
 10
47.6979820027
 20
92.199776021
 10
47.70693262
 20
92.1727419653
 10
47.7148257856
 20
92.155884051
  0
LWPOLYLINE
  5
5D8
100
AcDbEntity
  8
0
100
AcDbPolyline
 62
7
  6
CONTINUOUS
 90
13
 70
0
 10
46.0152659533
 20
92.809925383
 10
46.0242165706
 20
92.7164707871
 10
46.0331671879
 20
92.6287491461
 10
46.0421178052
 20
92.5471937848
 10
46.0510684224
 20
92.472207568
 10
46.0600190397
 20
92.4041609105
 10
46.068969657
 20
92.343389947
 10
46.0779202743
 20
92.2901948718
 10
46.0868708916
 20
92.2448384563
 10
46.0958215089
 20
92.2075447502
 10
46.1047721261
 20
92.1784979757
 10
46.1137227434
 20
92.1578416165
 10
46.1148247135
 20
92.1558840053
  0
LWPOLYLINE
  5
5D9
100
AcDbEntity
  8
0
100
AcDbPolyline
 62
7
  6
CONTINUOUS
 90
14
 70
0
 10
46.1152659533
 20
92.809925383
 10
46.1242165706
 20
92.7164707871
 10
46.1331671879
 20
92.6287491461
 10
46.1421178052
 20
92.5471937848
 10
46.1510684224
 20
92.472207568
 10
46.1600190397
 20
92.4041609105
 10
46.168969657
 20
92.343389947
 10
46.1779202743
 20
92.2901948718
 10
46.1868708916
 20
92.2448384563
 10
46.1958215089
 20
92.2075447502
 10
46.2047721261
 20
92.1784979757
 10
46.2137227434
 20
92.1578416165
 10
46.2226733607
 20
92.14567771
 10
46.2309199786
 20
92.1420398212
  0
LWPOLYLINE
  5
5DA
100
AcDbEntity
  8
0
100
AcDbPolyline
 62
7
  6
CONTINUOUS
 90
13
 70
0
 10
46.8118708916
 20
92.8467807973
 10
46.8208215089
 20
92.7512709447
 10
46.8297721261
 20
92.6613221245
 10
46.8387227434
 20
92.5773786621
 10
46.8476733607
 20
92.4998552183
 10
46.856623978
 20
92.4291347405
 10
46.8655745953
 20
92.3655665707
 10
46.8745252126
 20
92.3094647205
 10
46.8834758298
 20
92.2611063197
 10
46.8924264471
 20
92.220730247
 10
46.9013770644
 20
92.1885359505
 10
46.9103276817
 20
92.1646824623
 10
46.9148250461
 20
92.1558840527
  0
LWPOLYLINE
  5
5DB
100
AcDbEntity
  8
0
100
AcDbPolyline
 62
7
  6
CONTINUOUS
 90
15
 70
0
 10
46.9118708916
 20
92.8467807973
 10
46.9208215089
 20
92.7512709447
 10
46.9297721261
 20
92.6613221245
 10
46.9387227434
 20
92.5773786621
 10
46.9476733607
 20
92.4998552183
 10
46.956623978
 20
92.4291347405
 10
46.9655745953
 20
92.3655665707
 10
46.9745252126
 20
92.3094647205
 10
46.9834758298
 20
92.2611063197
 10
46.9924264471
 20
92.220730247
 10
47.0013770644
 20
92.1885359505
 10
47.0103276817
 20
92.1646824623
 10
47.019278299
 20
92.1492876128
 10
47.0282289163
 20
92.1424274487
 10
47.0309203515
 20
92.1420398341
  0
LWPOLYLINE
  5
5DC
100
AcDbEntity
  8
0
100
AcDbPolyline
 62
7
  6
CONTINUOUS
 90
13
 70
0
 10
45.2097103977
 20
92.8706251895
 10
45.218661015
 20
92.7738420655
 10
45.2276116323
 20
92.6825084925
 10
45.2365622496
 20
92.5970756386
 10
45.2455128669
 20
92.5179655237
 10
45.2544634842
 20
92.445568935
 10
45.2634141014
 20
92.3802434963
 10
45.2723647187
 20
92.3223119014
 10
45.281315336
 20
92.2720603204
 10
45.2902659533
 20
92.2297369858
 10
45.2992165706
 20
92.1955509661
 10
45.3081671879
 20
92.1696711336
 10
45.3148257336
 20
92.1558839918
  0
LWPOLYLINE
  5
5DD
100
AcDbEntity
  8
0
100
AcDbPolyline
 62
7
  6
CONTINUOUS
 90
15
 70
0
 10
45.3097103977
 20
92.8706251895
 10
45.318661015
 20
92.7738420655
 10
45.3276116323
 20
92.6825084925
 10
45.3365622496
 20
92.5970756386
 10
45.3455128669
 20
92.5179655237
 10
45.3544634842
 20
92.445568935
 10
45.3634141014
 20
92.3802434963
 10
45.3723647187
 20
92.3223119014
 10
45.381315336
 20
92.2720603204
 10
45.3902659533
 20
92.2297369858
 10
45.3992165706
 20
92.1955509661
 10
45.4081671879
 20
92.1696711336
 10
45.4171178051
 20
92.1522253298
 10
45.4260684224
 20
92.1432997338
 10
45.4309209741
 20
92.1420398282
  0
LINE
  5
5DE
100
AcDbEntity
  8
0
100
AcDbLine
 62
7
  6
CONTINUOUS
 10
47.5995252126
 20
92.9867759907
 11
47.6174264471
 21
92.7868771621
  0
LINE
  5
5DF
100
AcDbEntity
  8
0
100
AcDbLine
 62
7
  6
CONTINUOUS
 10
45.8452042249
 20
94.9588123266
 11
45.8631054595
 21
94.7580522728
  0
LINE
  5
5E0
100
AcDbEntity
  8
0
100
AcDbLine
 62
7
  6
CONTINUOUS
 10
45.9452042249
 20
94.9588123266
 11
45.9631054595
 21
94.7580522728
  0
LINE
  5
5E1
100
AcDbEntity
  8
0
100
AcDbLine
 62
7
  6
CONTINUOUS
 10
45.9973647187
 20
93.0121608224
 11
46.0152659533
 21
92.809925383
  0
LINE
  5
5E2
100
AcDbEntity
  8
0
100
AcDbLine
 62
7
  6
CONTINUOUS
 10
46.0973647187
 20
93.0121608224
 11
46.1152659533
 21
92.809925383
  0
LINE
  5
5E3
100
AcDbEntity
  8
0
100
AcDbLine
 62
7
  6
CONTINUOUS
 10
47.4473647187
 20
94.935647995
 11
47.4652659533
 21
94.7325729326
  0
LINE
  5
5E4
100
AcDbEntity
  8
0
100
AcDbLine
 62
7
  6
CONTINUOUS
 10
45.0485992866
 20
94.9222731414
 11
45.0665005212
 21
94.7179008203
  0
LINE
  5
5E5
100
AcDbEntity
  8
0
100
AcDbLine
 62
7
  6
CONTINUOUS
 10
45.1485992866
 20
94.9222731414
 11
45.1665005212
 21
94.7179008203
  0
LINE
  5
5E6
100
AcDbEntity
  8
0
100
AcDbLine
 62
7
  6
CONTINUOUS
 10
46.793969657
 20
93.0525712757
 11
46.8118708916
 21
92.8467807973
  0
LINE
  5
5E7
100
AcDbEntity
  8
0
100
AcDbLine
 62
7
  6
CONTINUOUS
 10
46.893969657
 20
93.0525712757
 11
46.9118708916
 21
92.8467807973
  0
LINE
  5
5E8
100
AcDbEntity
  8
0
100
AcDbLine
 62
7
  6
CONTINUOUS
 10
46.6507597805
 20
94.8986139823
 11
46.668661015
 21
94.6920168005
  0
LINE
  5
5E9
100
AcDbEntity
  8
0
100
AcDbLine
 62
7
  6
CONTINUOUS
 10
46.7507597805
 20
94.8986139823
 11
46.768661015
 21
94.6920168005
  0
LINE
  5
5EA
100
AcDbEntity
  8
0
100
AcDbLine
 62
7
  6
CONTINUOUS
 10
45.1918091632
 20
93.078603182
 11
45.2097103977
 21
92.8706251895
  0
LINE
  5
5EB
100
AcDbEntity
  8
0
100
AcDbLine
 62
7
  6
CONTINUOUS
 10
45.2918091632
 20
93.078603182
 11
45.3097103977
 21
92.8706251895
  0
LINE
  5
5EC
100
AcDbEntity
  8
0
100
AcDbLine
 62
7
  6
CONTINUOUS
 10
47.581623978
 20
93.2042438649
 11
47.5995252126
 21
92.9867759907
  0
LINE
  5
5ED
100
AcDbEntity
  8
0
100
AcDbLine
 62
7
  6
CONTINUOUS
 10
45.8631054595
 20
94.7580522728
 11
45.881006694
 21
94.5399056906
  0
LINE
  5
5EE
100
AcDbEntity
  8
0
100
AcDbLine
 62
7
  6
CONTINUOUS
 10
45.9631054595
 20
94.7580522728
 11
45.981006694
 21
94.5399056906
  0
LINE
  5
5EF
100
AcDbEntity
  8
0
100
AcDbLine
 62
7
  6
CONTINUOUS
 10
45.9794634842
 20
93.2314644096
 11
45.9973647187
 21
93.0121608224
  0
LINE
  5
5F0
100
AcDbEntity
  8
0
100
AcDbLine
 62
7
  6
CONTINUOUS
 10
46.0794634842
 20
93.2314644096
 11
46.0973647187
 21
93.0121608224
  0
LINE
  5
5F1
100
AcDbEntity
  8
0
100
AcDbLine
 62
7
  6
CONTINUOUS
 10
47.4652659533
 20
94.7325729326
 11
47.4831671879
 21
94.5126142204
  0
LINE
  5
5F2
100
AcDbEntity
  8
0
100
AcDbLine
 62
7
  6
CONTINUOUS
 10
45.0665005212
 20
94.7179008203
 11
45.0844017558
 21
94.4969343501
  0
LINE
  5
5F3
100
AcDbEntity
  8
0
100
AcDbLine
 62
7
  6
CONTINUOUS
 10
45.1665005212
 20
94.7179008203
 11
45.1844017558
 21
94.4969343501
  0
LINE
  5
5F4
100
AcDbEntity
  8
0
100
AcDbLine
 62
7
  6
CONTINUOUS
 10
46.7760684224
 20
93.2746323573
 11
46.793969657
 21
93.0525712757
  0
LINE
  5
5F5
100
AcDbEntity
  8
0
100
AcDbLine
 62
7
  6
CONTINUOUS
 10
46.8760684224
 20
93.2746323573
 11
46.893969657
 21
93.0525712757
  0
LINE
  5
5F6
100
AcDbEntity
  8
0
100
AcDbLine
 62
7
  6
CONTINUOUS
 10
46.668661015
 20
94.6920168005
 11
46.6865622496
 21
94.469336332
  0
LINE
  5
5F7
100
AcDbEntity
  8
0
100
AcDbLine
 62
7
  6
CONTINUOUS
 10
46.768661015
 20
94.6920168005
 11
46.7865622496
 21
94.469336332
  0
LINE
  5
5F8
100
AcDbEntity
  8
0
100
AcDbLine
 62
7
  6
CONTINUOUS
 10
45.1649573113
 20
93.4187443735
 11
45.1918091632
 21
93.078603182
  0
LINE
  5
5F9
100
AcDbEntity
  8
0
100
AcDbLine
 62
7
  6
CONTINUOUS
 10
45.2649573113
 20
93.4187443735
 11
45.2918091632
 21
93.078603182
  0
LINE
  5
5FA
100
AcDbEntity
  8
0
100
AcDbLine
 62
7
  6
CONTINUOUS
 10
45.881006694
 20
94.5399056906
 11
45.9168091632
 21
94.0689313607
  0
LINE
  5
5FB
100
AcDbEntity
  8
0
100
AcDbLine
 62
7
  6
CONTINUOUS
 10
45.981006694
 20
94.5399056906
 11
46.0168091632
 21
94.0689313607
  0
LINE
  5
5FC
100
AcDbEntity
  8
0
100
AcDbLine
 62
7
  6
CONTINUOUS
 10
47.5458215089
 20
93.6744581092
 11
47.581623978
 21
93.2042438649
  0
LINE
  5
5FD
100
AcDbEntity
  8
0
100
AcDbLine
 62
7
  6
CONTINUOUS
 10
45.943661015
 20
93.7037130379
 11
45.9794634842
 21
93.2314644096
  0
LINE
  5
5FE
100
AcDbEntity
  8
0
100
AcDbLine
 62
7
  6
CONTINUOUS
 10
46.043661015
 20
93.7037130379
 11
46.0794634842
 21
93.2314644096
  0
LINE
  5
5FF
100
AcDbEntity
  8
0
100
AcDbLine
 62
7
  6
CONTINUOUS
 10
47.4831671879
 20
94.5126142204
 11
47.518969657
 21
94.0396566062
  0
LINE
  5
600
100
AcDbEntity
  8
0
100
AcDbLine
 62
7
  6
CONTINUOUS
 10
45.0844017558
 20
94.4969343501
 11
45.1649573113
 21
93.4187443735
  0
LINE
  5
601
100
AcDbEntity
  8
0
100
AcDbLine
 62
7
  6
CONTINUOUS
 10
45.1844017558
 20
94.4969343501
 11
45.2649573113
 21
93.4187443735
  0
LINE
  5
602
100
AcDbEntity
  8
0
100
AcDbLine
 62
7
  6
CONTINUOUS
 10
45.9168091632
 20
94.0689313607
 11
45.943661015
 21
93.7037130379
  0
LINE
  5
603
100
AcDbEntity
  8
0
100
AcDbLine
 62
7
  6
CONTINUOUS
 10
46.0168091632
 20
94.0689313607
 11
46.043661015
 21
93.7037130379
  0
LWPOLYLINE
  5
604
100
AcDbEntity
  8
0
100
AcDbPolyline
 62
7
  6
CONTINUOUS
 90
3
 70
0
 10
46.6865622496
 20
94.469336332
 10
46.731315336
 20
93.871655115
 10
46.7760684224
 20
93.2746323573
  0
LWPOLYLINE
  5
605
100
AcDbEntity
  8
0
100
AcDbPolyline
 62
7
  6
CONTINUOUS
 90
3
 70
0
 10
46.7865622496
 20
94.469336332
 10
46.831315336
 20
93.871655115
 10
46.8760684224
 20
93.2746323573
  0
LINE
  5
606
100
AcDbEntity
  8
0
100
AcDbLine
 62
7
  6
CONTINUOUS
 10
47.518969657
 20
94.0396566062
 11
47.5458215089
 21
93.6744581092
  0
LWPOLYLINE
  5
607
100
AcDbEntity
  8
0
100
AcDbPolyline
 62
7
  6
CONTINUOUS
 90
4
 70
0
 43
0.3500000006
 10
44.7746851044
 20
160.5556047363
 10
44.7746851044
 20
161.4127608032
 10
45.2032540741
 20
161.8413297729
 10
45.8461120605
 20
161.8413297729
  0
LINE
  5
608
100
AcDbEntity
  8
0
100
AcDbLine
 62
7
  6
CONTINUOUS
 10
46.51482475
 20
95.5981956003
 11
46.2388708936
 21
95.1254307621
  0
LINE
  5
609
100
AcDbEntity
  8
0
100
AcDbLine
 62
7
  6
CONTINUOUS
 10
44.6470164388
 20
92.1558842226
 11
44.9220289459
 21
92.6270398172
  0
LINE
  5
60A
100
AcDbEntity
  8
0
100
AcDbLine
 62
7
  6
CONTINUOUS
 10
47.3148254439
 20
95.5981955755
 11
47.0388715817
 21
95.1254307353
  0
LINE
  5
60B
100
AcDbEntity
  8
0
100
AcDbLine
 62
7
  6
CONTINUOUS
 10
45.4470163113
 20
92.1558841595
 11
45.7220288423
 21
92.6270398172
  0
LINE
  5
60C
100
AcDbEntity
  8
0
100
AcDbLine
 62
7
  6
CONTINUOUS
 10
48.1148259132
 20
95.5981956076
 11
47.8388720635
 21
95.1254307773
  0
LINE
  5
60D
100
AcDbEntity
  8
0
100
AcDbLine
 62
7
  6
CONTINUOUS
 10
46.2470153449
 20
92.1558841781
 11
46.5220278695
 21
92.6270398172
  0
LINE
  5
60E
100
AcDbEntity
  8
0
100
AcDbLine
 62
7
  6
CONTINUOUS
 10
48.9148250069
 20
95.5981956605
 11
48.6388711725
 21
95.1254308384
  0
LINE
  5
60F
100
AcDbEntity
  8
0
100
AcDbLine
 62
7
  6
CONTINUOUS
 10
47.0470157566
 20
92.1558842238
 11
47.3220282636
 21
92.6270398172
  0
LWPOLYLINE
  5
610
100
AcDbEntity
  8
0
100
AcDbPolyline
 62
7
  6
CONTINUOUS
 90
4
 70
0
 10
46.51482475
 20
95.5981956003
 10
46.5165005212
 20
95.6009254027
 10
46.5254511385
 20
95.6104395769
 10
46.5309200415
 20
95.6120398071
  0
LWPOLYLINE
  5
611
100
AcDbEntity
  8
0
100
AcDbPolyline
 62
7
  6
CONTINUOUS
 90
4
 70
0
 10
48.1148259132
 20
95.5981956076
 10
48.118661015
 20
95.6040025616
 10
48.1276116323
 20
95.6114537085
 10
48.1309211842
 20
95.6120397972
  0
LWPOLYLINE
  5
612
100
AcDbEntity
  8
0
100
AcDbPolyline
 62
7
  6
CONTINUOUS
 90
4
 70
0
 10
49.7148247807
 20
95.5981955969
 10
49.7208215088
 20
95.6065854879
 10
49.7297721261
 20
95.6119692895
 10
49.7309200751
 20
95.6120398061
  0
LWPOLYLINE
  5
613
100
AcDbEntity
  8
0
100
AcDbPolyline
 62
7
  6
CONTINUOUS
 90
3
 70
0
 10
47.3148254439
 20
95.5981955755
 10
47.3220560768
 20
95.607836417
 10
47.3309207505
 20
95.6120397952
  0
LWPOLYLINE
  5
614
100
AcDbEntity
  8
0
100
AcDbPolyline
 62
7
  6
CONTINUOUS
 90
3
 70
0
 10
48.9148250069
 20
95.5981956605
 10
48.9242165706
 20
95.6096355914
 10
48.9309202394
 20
95.6120398166
  0
LWPOLYLINE
  5
615
100
AcDbEntity
  8
0
100
AcDbPolyline
 62
7
  6
CONTINUOUS
 90
3
 70
0
 10
46.2309199786
 20
92.1420398212
 10
46.2405745953
 20
92.1470253526
 10
46.2470153449
 20
92.1558841781
  0
LWPOLYLINE
  5
616
100
AcDbEntity
  8
0
100
AcDbPolyline
 62
7
  6
CONTINUOUS
 90
3
 70
0
 10
48.6309209031
 20
92.1420398261
 10
48.6393400274
 20
92.1458314565
 10
48.647016234
 20
92.155884152
  0
LINE
  5
617
100
AcDbEntity
  8
0
100
AcDbLine
 62
7
  6
CONTINUOUS
 10
55.138969657
 20
93.8770398172
 11
52.6568578977
 21
92.8489154632
  0
LINE
  5
618
100
AcDbEntity
  8
0
100
AcDbLine
 62
7
  6
CONTINUOUS
 10
52.5303921649
 20
92.7965316415
 11
52.121202704
 21
92.6270398172
  0
LWPOLYLINE
  5
619
100
AcDbEntity
  8
0
100
AcDbPolyline
 62
7
  6
CONTINUOUS
 90
3
 70
0
 10
51.0309211137
 20
92.1420398409
 10
51.0381054595
 20
92.1448011054
 10
51.0470146997
 20
92.1558811179
  0
LWPOLYLINE
  5
61A
100
AcDbEntity
  8
0
100
AcDbPolyline
 62
7
  6
CONTINUOUS
 90
3
 70
0
 10
47.0309203515
 20
92.1420398341
 10
47.0371795335
 20
92.1441358575
 10
47.0470157566
 20
92.1558842238
  0
LWPOLYLINE
  5
61B
100
AcDbEntity
  8
RACCORDO
100
AcDbPolyline
 62
7
  6
CONTINUOUS
 90
19
 70
0
 10
30.628499808
 20
96.7933662721
 10
30.6042368723
 20
96.7926429522
 10
30.5800583477
 20
96.7911326571
 10
30.5561308298
 20
96.7888353868
 10
30.5326282641
 20
96.7857418709
 10
30.5097179387
 20
96.7818613798
 10
30.4875606714
 20
96.7772217247
 10
30.4663198104
 20
96.7718025476
 10
30.4461789335
 20
96.7656242065
 10
30.4273244086
 20
96.7587755865
 10
30.4099284219
 20
96.7512438229
 10
30.3941295622
 20
96.7430417803
 10
30.3800562269
 20
96.7342969379
 10
30.3678367429
 20
96.7249793464
 10
30.3576213558
 20
96.7151189551
 10
30.3495463261
 20
96.704933091
 10
30.3437042704
 20
96.6944941965
 10
30.3401602811
 20
96.6837298291
 10
30.338969657
 20
96.6726399891
  0
LWPOLYLINE
  5
61C
100
AcDbEntity
  8
0
100
AcDbPolyline
 62
7
  6
CONTINUOUS
 90
15
 70
0
 10
50.5309208067
 20
95.6120397947
 10
50.5353276817
 20
95.6110006727
 10
50.544278299
 20
95.6025008589
 10
50.5532289163
 20
95.5854776773
 10
50.5621795335
 20
95.5600152183
 10
50.5711301508
 20
95.5262392602
 10
50.5800807681
 20
95.4843166482
 10
50.5890313854
 20
95.4344544698
 10
50.5979820027
 20
95.3768990321
 10
50.60693262
 20
95.3119346453
 10
50.6158832372
 20
95.2398822178
 10
50.6248338545
 20
95.1610976715
 10
50.6337844718
 20
95.075970183
 10
50.6427350891
 20
94.9849202619
 10
50.6516857064
 20
94.8883976731
  0
LWPOLYLINE
  5
61D
100
AcDbEntity
  8
0
100
AcDbPolyline
 62
7
  6
CONTINUOUS
 90
4
 70
0
 10
50.6309208067
 20
95.6120397947
 10
50.6353276817
 20
95.6110006727
 10
50.644278299
 20
95.6025008589
 10
50.6470144068
 20
95.5981985055
  0
LWPOLYLINE
  5
61E
100
AcDbEntity
  8
0
100
AcDbPolyline
 62
7
  6
CONTINUOUS
 90
4
 70
0
 10
52.2200227235
 20
95.3555543687
 10
52.2262203198
 20
95.3537822637
 10
52.2347953418
 20
95.3455337488
 10
52.2390075521
 20
95.339047849
  0
LWPOLYLINE
  5
61F
100
AcDbEntity
  8
0
100
AcDbPolyline
 62
7
  6
CONTINUOUS
 90
15
 70
0
 10
48.1309211842
 20
95.6120397972
 10
48.1365622496
 20
95.6103372443
 10
48.1455128669
 20
95.6006586835
 10
48.1544634842
 20
95.5824658353
 10
48.1634141014
 20
95.5558485677
 10
48.1723647187
 20
95.5209383635
 10
48.181315336
 20
95.4779076707
 10
48.1902659533
 20
95.4269690506
 10
48.1992165706
 20
95.368374128
 10
48.2081671879
 20
95.3024123481
 10
48.2171178052
 20
95.2294095466
 10
48.2260684224
 20
95.1497263406
 10
48.2350190397
 20
95.0637563468
 10
48.243969657
 20
94.9719242371
 10
48.2529202743
 20
94.8746836412
  0
LWPOLYLINE
  5
620
100
AcDbEntity
  8
0
100
AcDbPolyline
 62
7
  6
CONTINUOUS
 90
4
 70
0
 10
48.2309211842
 20
95.6120397972
 10
48.2365622496
 20
95.6103372443
 10
48.2455128669
 20
95.6006586835
 10
48.2470165527
 20
95.5981954392
  0
LWPOLYLINE
  5
621
100
AcDbEntity
  8
0
100
AcDbPolyline
 62
7
  6
CONTINUOUS
 90
15
 70
0
 10
47.8509063118
 20
95.1270398172
 10
47.8595708911
 20
95.1241465585
 10
47.8690507769
 20
95.1143687504
 10
47.8785947075
 20
95.0975994411
 10
47.8882419245
 20
95.073682699
 10
47.8979531863
 20
95.0426724389
 10
47.9076477442
 20
95.0049551723
 10
47.9173194585
 20
94.9608138086
 10
47.9269744688
 20
94.9105141716
 10
47.9365504453
 20
94.8547582887
 10
47.9459829141
 20
94.7944321227
 10
47.955336349
 20
94.7296409856
 10
47.9647418417
 20
94.6598523644
 10
47.9742491398
 20
94.5849704725
 10
47.9838084957
 20
94.5057015642
  0
LWPOLYLINE
  5
622
100
AcDbEntity
  8
0
100
AcDbPolyline
 62
7
  6
CONTINUOUS
 90
15
 70
0
 10
48.6509053591
 20
95.1270398172
 10
48.6600591364
 20
95.1238107692
 10
48.6695717717
 20
95.1136305642
 10
48.6791472415
 20
95.0964154736
 10
48.6888199604
 20
95.0720272067
 10
48.6985555138
 20
95.040520189
 10
48.7082726132
 20
95.0022930101
 10
48.7179652705
 20
94.9576356868
 10
48.7276394737
 20
94.9068218562
 10
48.7372318978
 20
94.850569617
 10
48.7466922957
 20
94.7896804962
 10
48.7560709146
 20
94.724345664
 10
48.7654551704
 20
94.654372319
 10
48.7748602221
 20
94.5800094085
 10
48.7842709109
 20
94.5017646563
  0
LWPOLYLINE
  5
623
100
AcDbEntity
  8
0
100
AcDbPolyline
 62
7
  6
CONTINUOUS
 90
15
 70
0
 10
49.4509051993
 20
95.1270398172
 10
49.4602532235
 20
95.1236723468
 10
49.4697923031
 20
95.1133122542
 10
49.4793939292
 20
95.0958801535
 10
49.4890932512
 20
95.0712369991
 10
49.4988551198
 20
95.0394414388
 10
49.5085973505
 20
95.0009007967
 10
49.5183112914
 20
94.9559239156
 10
49.5280055945
 20
94.9047800464
 10
49.5376240319
 20
94.8481502546
 10
49.5471215908
 20
94.7867954679
 10
49.5565432839
 20
94.7209305687
 10
49.5659679219
 20
94.650424201
 10
49.5754266707
 20
94.575404608
 10
49.5848883643
 20
94.4965075255
  0
LWPOLYLINE
  5
624
100
AcDbEntity
  8
0
100
AcDbPolyline
 62
7
  6
CONTINUOUS
 90
15
 70
0
 10
50.2509059356
 20
95.1270398172
 10
50.260517367
 20
95.1234799906
 10
50.2698799039
 20
95.1131859365
 10
50.2793012659
 20
95.0960833032
 10
50.2888345946
 20
95.0719869433
 10
50.2984267484
 20
95.0409841577
 10
50.3080261499
 20
95.0033475618
 10
50.3176341462
 20
94.9592696472
 10
50.3272493904
 20
94.9089919018
 10
50.3368162645
 20
94.8531284997
 10
50.346285568
 20
94.7924095517
 10
50.3557065015
 20
94.7269781581
 10
50.3651710484
 20
94.6565609889
 10
50.3747251052
 20
94.5811125579
 10
50.3843227755
 20
94.5013307221
  0
LWPOLYLINE
  5
625
100
AcDbEntity
  8
0
100
AcDbPolyline
 62
7
  6
CONTINUOUS
 90
15
 70
0
 10
51.0509062981
 20
95.1270398172
 10
51.0608443216
 20
95.1232340729
 10
51.0702389501
 20
95.1126581778
 10
51.07962722
 20
95.0953722634
 10
51.0890115362
 20
95.0714768435
 10
51.0983894939
 20
95.0411185408
 10
51.1077825194
 20
95.0043841125
 10
51.1172057715
 20
94.9613693947
 10
51.1266440915
 20
94.9123350902
 10
51.1360734295
 20
94.8576691013
 10
51.1454584602
 20
94.797921438
 10
51.154834509
 20
94.7332369989
 10
51.1642835026
 20
94.6633551401
 10
51.1738475093
 20
94.5882163771
 10
51.1834844609
 20
94.5084488379
  0
LWPOLYLINE
  5
626
100
AcDbEntity
  8
0
100
AcDbPolyline
 62
7
  6
CONTINUOUS
 90
16
 70
0
 10
52.1200227235
 20
95.3555543687
 10
52.1288061079
 20
95.3519998553
 10
52.137467323
 20
95.3416038758
 10
52.146128538
 20
95.3244938961
 10
52.154789753
 20
95.3008288491
 10
52.163450968
 20
95.2707973402
 10
52.1721121831
 20
95.2346164081
 10
52.1807733981
 20
95.1925301602
 10
52.1894346131
 20
95.1448082884
 10
52.1980958282
 20
95.0917444739
 10
52.2067570432
 20
95.0336546923
 10
52.2154182582
 20
94.9708754251
 10
52.2240794733
 20
94.9037617901
 10
52.2327406883
 20
94.8326855991
 10
52.2414019033
 20
94.7580333546
 10
52.2500631184
 20
94.6802041945
  0
LINE
  5
627
100
AcDbEntity
  8
0
100
AcDbLine
 62
7
  6
CONTINUOUS
 10
55.138969657
 20
93.8770398172
 11
52.441911464
 21
94.9941978993
  0
LWPOLYLINE
  5
628
100
AcDbEntity
  8
0
100
AcDbPolyline
 62
7
  6
CONTINUOUS
 90
14
 70
0
 10
49.7309200751
 20
95.6120398061
 10
49.7387227434
 20
95.6087829462
 10
49.7476733607
 20
95.5970421979
 10
49.756623978
 20
95.5768050415
 10
49.7655745953
 20
95.5481714442
 10
49.7745252126
 20
95.5112828495
 10
49.7834758298
 20
95.4663214787
 10
49.7924264471
 20
95.4135094305
 10
49.8013770644
 20
95.3531075845
 10
49.8103276817
 20
95.2854143117
 10
49.819278299
 20
95.2107640012
 10
49.8282289163
 20
95.1295254081
 10
49.8371795335
 20
95.0420998321
 10
49.8461301508
 20
94.9489191353
  0
LWPOLYLINE
  5
629
100
AcDbEntity
  8
0
100
AcDbPolyline
 62
7
  6
CONTINUOUS
 90
3
 70
0
 10
49.8309200751
 20
95.6120398061
 10
49.8387227434
 20
95.6087829462
 10
49.8470136654
 20
95.598198525
  0
LWPOLYLINE
  5
62A
100
AcDbEntity
  8
0
100
AcDbPolyline
 62
7
  6
CONTINUOUS
 90
14
 70
0
 10
47.3309207505
 20
95.6120397952
 10
47.3399573113
 20
95.6076718977
 10
47.3489079286
 20
95.5947554847
 10
47.3578585459
 20
95.5733539647
 10
47.3668091632
 20
95.5435730561
 10
47.3757597805
 20
95.5055598693
 10
47.3847103977
 20
95.4595021804
 10
47.393661015
 20
95.4056275032
 10
47.4026116323
 20
95.3442019658
 10
47.4115622496
 20
95.2755289955
 10
47.4205128669
 20
95.1999478205
 10
47.4294634842
 20
95.1178317935
 10
47.4384141014
 20
95.0295865482
 10
47.4473647187
 20
94.935647995
  0
LWPOLYLINE
  5
62B
100
AcDbEntity
  8
0
100
AcDbPolyline
 62
7
  6
CONTINUOUS
 90
3
 70
0
 10
47.4309207505
 20
95.6120397952
 10
47.4399573113
 20
95.6076718977
 10
47.4470161561
 20
95.5981954053
  0
LWPOLYLINE
  5
62C
100
AcDbEntity
  8
0
100
AcDbPolyline
 62
7
  6
CONTINUOUS
 90
3
 70
0
 10
50.1148251015
 20
92.1558840544
 10
50.1235992866
 20
92.1449072063
 10
50.1309204079
 20
92.142039835
  0
LWPOLYLINE
  5
62D
100
AcDbEntity
  8
0
100
AcDbPolyline
 62
7
  6
CONTINUOUS
 90
3
 70
0
 10
48.5148256687
 20
92.1558839844
 10
48.5214387928
 20
92.14684888
 10
48.5309209031
 20
92.1420398261
  0
LWPOLYLINE
  5
62E
100
AcDbEntity
  8
0
100
AcDbPolyline
 62
7
  6
CONTINUOUS
 90
4
 70
0
 10
46.9148250461
 20
92.1558840527
 10
46.919278299
 20
92.1492876128
 10
46.9282289163
 20
92.1424274487
 10
46.9309203515
 20
92.1420398341
  0
LWPOLYLINE
  5
62F
100
AcDbEntity
  8
0
100
AcDbPolyline
 62
7
  6
CONTINUOUS
 90
4
 70
0
 10
49.3148246965
 20
92.1558840101
 10
49.3180437311
 20
92.1509043786
 10
49.3269943484
 20
92.1428643987
 10
49.3309199663
 20
92.142039822
  0
LWPOLYLINE
  5
630
100
AcDbEntity
  8
0
100
AcDbPolyline
 62
7
  6
CONTINUOUS
 90
4
 70
0
 10
47.7148257856
 20
92.155884051
 10
47.7158832373
 20
92.1541267409
 10
47.7248338545
 20
92.144022303
 10
47.7309210807
 20
92.142039841
  0
LINE
  5
631
100
AcDbEntity
  8
0
100
AcDbLine
 62
7
  6
CONTINUOUS
 10
44.5331723298
 20
95.1080247453
 11
44.2470160991
 21
95.5981954052
  0
LINE
  5
632
100
AcDbEntity
  8
0
100
AcDbLine
 62
7
  6
CONTINUOUS
 10
46.6286688694
 20
92.6460546235
 11
46.9148250461
 21
92.1558840527
  0
LINE
  5
633
100
AcDbEntity
  8
0
100
AcDbLine
 62
7
  6
CONTINUOUS
 10
45.3331727804
 20
95.1080247844
 11
45.0470165622
 21
95.5981954345
  0
LINE
  5
634
100
AcDbEntity
  8
0
100
AcDbLine
 62
7
  6
CONTINUOUS
 10
47.4286696155
 20
92.646054612
 11
47.7148257856
 21
92.155884051
  0
LINE
  5
635
100
AcDbEntity
  8
0
100
AcDbLine
 62
7
  6
CONTINUOUS
 10
46.1331718597
 20
95.1080248342
 11
45.8470156485
 21
95.5981954927
  0
LINE
  5
636
100
AcDbEntity
  8
0
100
AcDbLine
 62
7
  6
CONTINUOUS
 10
48.228669515
 20
92.6460545418
 11
48.5148256687
 21
92.1558839844
  0
LINE
  5
637
100
AcDbEntity
  8
0
100
AcDbLine
 62
7
  6
CONTINUOUS
 10
46.9331716641
 20
95.108024761
 11
46.6470154336
 21
95.5981954284
  0
LINE
  5
638
100
AcDbEntity
  8
0
100
AcDbLine
 62
7
  6
CONTINUOUS
 10
49.0286685284
 20
92.6460545817
 11
49.3148246965
 21
92.1558840101
  0
LINE
  5
639
100
AcDbEntity
  8
0
100
AcDbLine
 62
7
  6
CONTINUOUS
 10
47.7331723862
 20
95.1080247462
 11
47.4470161561
 21
95.5981954053
  0
LINE
  5
63A
100
AcDbEntity
  8
0
100
AcDbLine
 62
7
  6
CONTINUOUS
 10
45.0470165622
 20
95.5981954345
 11
45.0501424965
 21
95.5923069306
  0
LINE
  5
63B
100
AcDbEntity
  8
0
100
AcDbLine
 62
7
  6
CONTINUOUS
 10
46.6470154336
 20
95.5981954284
 11
46.6523029903
 21
95.5876300771
  0
LWPOLYLINE
  5
63C
100
AcDbEntity
  8
0
100
AcDbPolyline
 62
7
  6
CONTINUOUS
 90
12
 70
0
 10
45.8470156485
 20
95.5981954927
 10
45.8556980521
 20
95.5792904756
 10
45.8646486693
 20
95.5515197341
 10
45.8735992866
 20
95.5154774222
 10
45.8825499039
 20
95.471341582
 10
45.8915005212
 20
95.4193302359
 10
45.9004511385
 20
95.3597003092
 10
45.9094017558
 20
95.2927463616
 10
45.9183523731
 20
95.2187991319
 10
45.9273029903
 20
95.1382239039
 10
45.9362536076
 20
95.0514187024
 10
45.9452042249
 20
94.9588123266
  0
LWPOLYLINE
  5
63D
100
AcDbEntity
  8
0
100
AcDbPolyline
 62
7
  6
CONTINUOUS
 90
12
 70
0
 10
45.0501424965
 20
95.5923069306
 10
45.0590931138
 20
95.5697427745
 10
45.0680437311
 20
95.5388170502
 10
45.0769943484
 20
95.4996825232
 10
45.0859449656
 20
95.4525325086
 10
45.0948955829
 20
95.3975999164
 10
45.1038462002
 20
95.3351561005
 10
45.1127968175
 20
95.2655095189
 10
45.1217474348
 20
95.1890042093
 10
45.1306980521
 20
95.1060180902
 10
45.1396486693
 20
95.0169610939
 10
45.1485992866
 20
94.9222731414
  0
LWPOLYLINE
  5
63E
100
AcDbEntity
  8
0
100
AcDbPolyline
 62
7
  6
CONTINUOUS
 90
12
 70
0
 10
46.6523029903
 20
95.5876300771
 10
46.6612536076
 20
95.5630347845
 10
46.6702042249
 20
95.5301110717
 10
46.6791548422
 20
95.4890215743
 10
46.6881054595
 20
95.4399692652
 10
46.6970560768
 20
95.3831964515
 10
46.706006694
 20
95.318983578
 10
46.7149573113
 20
95.2476478414
 10
46.7239079286
 20
95.1695416238
 10
46.7328585459
 20
95.0850507517
 10
46.7418091632
 20
94.9945925905
 10
46.7507597805
 20
94.8986139823
  0
LWPOLYLINE
  5
63F
100
AcDbEntity
  8
0
100
AcDbPolyline
 62
7
  6
CONTINUOUS
 90
13
 70
0
 10
45.7183047521
 20
93.2458187383
 10
45.727934929
 20
93.1660970518
 10
45.7374919851
 20
93.0909985526
 10
45.7469350839
 20
93.0211416809
 10
45.756305062
 20
92.9564760734
 10
45.7656808318
 20
92.8967584647
 10
45.7750934355
 20
92.842151106
 10
45.784511831
 20
92.7931686386
 10
45.7939218051
 20
92.7501500226
 10
45.8033136801
 20
92.7133486229
 10
45.8126971336
 20
92.6829005214
 10
45.8220869862
 20
92.6589211404
 10
45.8286685468
 20
92.6460545762
  0
LWPOLYLINE
  5
640
100
AcDbEntity
  8
0
100
AcDbPolyline
 62
7
  6
CONTINUOUS
 90
13
 70
0
 10
47.0434897267
 20
94.5086479491
 10
47.0338497393
 20
94.5884305053
 10
47.0242820033
 20
94.6635859042
 10
47.0148292245
 20
94.7334802603
 10
47.0054486972
 20
94.7981768554
 10
46.996055839
 20
94.8579508921
 10
46.9866116432
 20
94.9126713509
 10
46.9771551165
 20
94.961756693
 10
46.9677186973
 20
95.0047761014
 10
46.9583216468
 20
95.0414634247
 10
46.9489447037
 20
95.0717528943
 10
46.9395625226
 20
95.0955769012
 10
46.9331716641
 20
95.108024761
  0
LWPOLYLINE
  5
641
100
AcDbEntity
  8
0
100
AcDbPolyline
 62
7
  6
CONTINUOUS
 90
13
 70
0
 10
44.918180923
 20
93.2468773334
 10
44.9277948665
 20
93.1672370439
 10
44.9373321265
 20
93.0922275368
 10
44.9467527364
 20
93.022454831
 10
44.9560966628
 20
92.9578683844
 10
44.9654364336
 20
92.8982554387
 10
44.9747828784
 20
92.8438699645
 10
44.9841251676
 20
92.7950697259
 10
44.9935033404
 20
92.7519384167
 10
45.0029469855
 20
92.714671683
 10
45.012426514
 20
92.6836915723
 10
45.0218931991
 20
92.6593517538
 10
45.0286695785
 20
92.6460545489
  0
LWPOLYLINE
  5
642
100
AcDbEntity
  8
0
100
AcDbPolyline
 62
7
  6
CONTINUOUS
 90
13
 70
0
 10
46.2440837332
 20
94.5036089371
 10
46.2344438006
 20
94.5836276078
 10
46.2248433544
 20
94.6592955163
 10
46.2153286326
 20
94.7299029879
 10
46.2058533973
 20
94.7954870719
 10
46.1963242958
 20
94.8563158038
 10
46.1866901487
 20
94.9122403085
 10
46.1770021354
 20
94.9625030368
 10
46.1673204415
 20
95.0064577911
 10
46.1576457209
 20
95.0438607611
 10
46.1479773196
 20
95.0745122493
 10
46.1383734613
 20
95.0981268407
 10
46.1331718597
 20
95.1080248342
  0
LWPOLYLINE
  5
643
100
AcDbEntity
  8
0
100
AcDbPolyline
 62
7
  6
CONTINUOUS
 90
13
 70
0
 10
46.517620903
 20
93.2516242753
 10
46.5272263669
 20
93.1718313417
 10
46.5367849113
 20
93.096409806
 10
46.5462516766
 20
93.0260455166
 10
46.5556715224
 20
92.960696745
 10
46.5651356645
 20
92.9000899593
 10
46.5746933103
 20
92.8443609329
 10
46.5842952523
 20
92.7942308089
 10
46.5938850827
 20
92.7503073816
 10
46.6034573764
 20
92.7128353836
 10
46.6130175586
 20
92.6819753616
 10
46.6225254972
 20
92.6579630107
 10
46.6286688694
 20
92.6460546235
  0
LWPOLYLINE
  5
644
100
AcDbEntity
  8
0
100
AcDbPolyline
 62
7
  6
CONTINUOUS
 90
13
 70
0
 10
47.3168914277
 20
93.2578417515
 10
47.3263666604
 20
93.1788222503
 10
47.3358357979
 20
93.1037147578
 10
47.3452640099
 20
93.0331788857
 10
47.3546861268
 20
92.9673090337
 10
47.3641835746
 20
92.9059528966
 10
47.3738023569
 20
92.8493189196
 10
47.3834964702
 20
92.798173811
 10
47.3932093301
 20
92.753199166
 10
47.4029492317
 20
92.7146636829
 10
47.4127078799
 20
92.6828724543
 10
47.4224038053
 20
92.6582292781
 10
47.4286696155
 20
92.646054612
  0
LWPOLYLINE
  5
645
100
AcDbEntity
  8
0
100
AcDbPolyline
 62
7
  6
CONTINUOUS
 90
13
 70
0
 10
45.4449958898
 20
94.4958526812
 10
45.4354883889
 20
94.5751524637
 10
45.4259988202
 20
94.6504231651
 10
45.4165719937
 20
94.7209455178
 10
45.4071630994
 20
94.7867232548
 10
45.3976803614
 20
94.8479923797
 10
45.3880751868
 20
94.9045632283
 10
45.3783961684
 20
94.9556557539
 10
45.3686973089
 20
95.0006034854
 10
45.358969287
 20
95.0391402925
 10
45.3492214239
 20
95.0709543126
 10
45.3395356854
 20
95.0956380783
 10
45.3331727804
 20
95.1080247844
  0
LINE
  5
646
100
AcDbEntity
  8
0
100
AcDbLine
 62
7
  6
CONTINUOUS
 10
44.8988531523
 20
93.4173687024
 11
44.918180923
 21
93.2468773334
  0
LINE
  5
647
100
AcDbEntity
  8
0
100
AcDbLine
 62
7
  6
CONTINUOUS
 10
45.5782106715
 20
93.2468773334
 11
45.5588829003
 21
93.4173687024
  0
LINE
  5
648
100
AcDbEntity
  8
0
100
AcDbLine
 62
7
  6
CONTINUOUS
 10
45.6989425402
 20
93.4165430535
 11
45.7183047521
 21
93.2458187383
  0
LINE
  5
649
100
AcDbEntity
  8
0
100
AcDbLine
 62
7
  6
CONTINUOUS
 10
46.3783345112
 20
93.2458187382
 11
46.3589722995
 21
93.4165430535
  0
LINE
  5
64A
100
AcDbEntity
  8
0
100
AcDbLine
 62
7
  6
CONTINUOUS
 10
46.3834599759
 20
94.5086479491
 11
46.4028394241
 21
94.3377964338
  0
LINE
  5
64B
100
AcDbEntity
  8
0
100
AcDbLine
 62
7
  6
CONTINUOUS
 10
47.0628691746
 20
94.3377964338
 11
47.0434897267
 21
94.5086479491
  0
LINE
  5
64C
100
AcDbEntity
  8
0
100
AcDbLine
 62
7
  6
CONTINUOUS
 10
47.1835889851
 20
94.5075610598
 11
47.2029333472
 21
94.3369460698
  0
LINE
  5
64D
100
AcDbEntity
  8
0
100
AcDbLine
 62
7
  6
CONTINUOUS
 10
45.5840539731
 20
94.5036089371
 11
45.6033149121
 21
94.333453736
  0
LINE
  5
64E
100
AcDbEntity
  8
0
100
AcDbLine
 62
7
  6
CONTINUOUS
 10
46.2633446721
 20
94.333453736
 11
46.2440837332
 21
94.5036089371
  0
LINE
  5
64F
100
AcDbEntity
  8
0
100
AcDbLine
 62
7
  6
CONTINUOUS
 10
46.498393932
 20
93.4215559861
 11
46.517620903
 21
93.2516242753
  0
LINE
  5
650
100
AcDbEntity
  8
0
100
AcDbLine
 62
7
  6
CONTINUOUS
 10
47.1776506519
 20
93.2516242753
 11
47.1584236812
 21
93.4215559861
  0
LINE
  5
651
100
AcDbEntity
  8
0
100
AcDbLine
 62
7
  6
CONTINUOUS
 10
44.7849661442
 20
94.4958526812
 11
44.8038866491
 21
94.3282331348
  0
LINE
  5
652
100
AcDbEntity
  8
0
100
AcDbLine
 62
7
  6
CONTINUOUS
 10
45.4639163952
 20
94.3282331349
 11
45.4449958898
 21
94.4958526812
  0
LINE
  5
653
100
AcDbEntity
  8
0
100
AcDbLine
 62
7
  6
CONTINUOUS
 10
47.2980062271
 20
93.4251096626
 11
47.3168914277
 21
93.2578417515
  0
LINE
  5
654
100
AcDbEntity
  8
0
100
AcDbLine
 62
7
  6
CONTINUOUS
 10
47.9580359685
 20
93.4251096626
 11
47.9297903008
 21
93.6926121566
  0
LINE
  5
655
100
AcDbEntity
  8
0
100
AcDbLine
 62
7
  6
CONTINUOUS
 10
47.8919332438
 20
94.0629050679
 11
47.862963089
 21
94.3369460698
  0
LINE
  5
656
100
AcDbEntity
  8
0
100
AcDbLine
 62
7
  6
CONTINUOUS
 10
48.0030499433
 20
94.3358836413
 11
48.0319272593
 21
94.0626762936
  0
LINE
  5
657
100
AcDbEntity
  8
0
100
AcDbLine
 62
7
  6
CONTINUOUS
 10
48.6919570071
 20
94.0626762936
 11
48.6630796905
 21
94.3358836413
  0
LINE
  5
658
100
AcDbEntity
  8
0
100
AcDbLine
 62
7
  6
CONTINUOUS
 10
48.8698883557
 20
93.6913623574
 11
48.8987337483
 21
93.4184489921
  0
LINE
  5
659
100
AcDbEntity
  8
0
100
AcDbLine
 62
7
  6
CONTINUOUS
 10
48.8032733164
 20
94.3338334067
 11
48.8319480145
 21
94.0624644841
  0
LINE
  5
65A
100
AcDbEntity
  8
0
100
AcDbLine
 62
7
  6
CONTINUOUS
 10
49.558763507
 20
93.4184489921
 11
49.5299181147
 21
93.6913623574
  0
LINE
  5
65B
100
AcDbEntity
  8
0
100
AcDbLine
 62
7
  6
CONTINUOUS
 10
49.4919777738
 20
94.0624644841
 11
49.4633030759
 21
94.3338334067
  0
LINE
  5
65C
100
AcDbEntity
  8
0
100
AcDbLine
 62
7
  6
CONTINUOUS
 10
49.6699163249
 20
93.6910928773
 11
49.6988930913
 21
93.4169964015
  0
LINE
  5
65D
100
AcDbEntity
  8
0
100
AcDbLine
 62
7
  6
CONTINUOUS
 10
49.6037663207
 20
94.3293256876
 11
49.6320329541
 21
94.0616412738
  0
LINE
  5
65E
100
AcDbEntity
  8
0
100
AcDbLine
 62
7
  6
CONTINUOUS
 10
50.3589228396
 20
93.4169964015
 11
50.3299460736
 21
93.6910928773
  0
LINE
  5
65F
100
AcDbEntity
  8
0
100
AcDbLine
 62
7
  6
CONTINUOUS
 10
50.2920627034
 20
94.0616412738
 11
50.2637960703
 21
94.3293256876
  0
LINE
  5
660
100
AcDbEntity
  8
0
100
AcDbLine
 62
7
  6
CONTINUOUS
 10
48.0696842625
 20
93.6933543392
 11
48.0980561683
 21
93.4246533808
  0
LINE
  5
661
100
AcDbEntity
  8
0
100
AcDbLine
 62
7
  6
CONTINUOUS
 10
48.7580859177
 20
93.4246533808
 11
48.7297140112
 21
93.6933543392
  0
LINE
  5
662
100
AcDbEntity
  8
0
100
AcDbLine
 62
7
  6
CONTINUOUS
 10
47.9297903008
 20
93.6926121566
 11
47.8919332438
 21
94.0629050679
  0
LINE
  5
663
100
AcDbEntity
  8
0
100
AcDbLine
 62
7
  6
CONTINUOUS
 10
48.0319272593
 20
94.0626762936
 11
48.0696842625
 21
93.6933543392
  0
LINE
  5
664
100
AcDbEntity
  8
0
100
AcDbLine
 62
7
  6
CONTINUOUS
 10
48.7297140112
 20
93.6933543392
 11
48.6919570071
 21
94.0626762936
  0
LINE
  5
665
100
AcDbEntity
  8
0
100
AcDbLine
 62
7
  6
CONTINUOUS
 10
48.8319480145
 20
94.0624644841
 11
48.8698883557
 21
93.6913623574
  0
LINE
  5
666
100
AcDbEntity
  8
0
100
AcDbLine
 62
7
  6
CONTINUOUS
 10
49.5299181147
 20
93.6913623574
 11
49.4919777738
 21
94.0624644841
  0
LINE
  5
667
100
AcDbEntity
  8
0
100
AcDbLine
 62
7
  6
CONTINUOUS
 10
49.6320329541
 20
94.0616412738
 11
49.6699163249
 21
93.6910928773
  0
LINE
  5
668
100
AcDbEntity
  8
0
100
AcDbLine
 62
7
  6
CONTINUOUS
 10
50.3299460736
 20
93.6910928773
 11
50.2920627034
 21
94.0616412738
  0
LWPOLYLINE
  5
669
100
AcDbEntity
  8
0
100
AcDbPolyline
 62
7
  6
CONTINUOUS
 90
14
 70
0
 10
47.7174264471
 20
92.7868771621
 10
47.7263770644
 20
92.6947646584
 10
47.7353276817
 20
92.6084923146
 10
47.744278299
 20
92.5284862958
 10
47.7532289163
 20
92.4551418131
 10
47.7621795335
 20
92.3888211713
 10
47.7711301508
 20
92.3298519789
 10
47.7800807681
 20
92.2785255301
 10
47.7890313854
 20
92.2350953658
 10
47.7979820027
 20
92.199776021
 10
47.80693262
 20
92.1727419653
 10
47.8158832373
 20
92.1541267409
 10
47.8248338545
 20
92.144022303
 10
47.8309210807
 20
92.142039841
  0
LWPOLYLINE
  5
66A
100
AcDbEntity
  8
0
100
AcDbPolyline
 62
7
  6
CONTINUOUS
 90
12
 70
0
 10
50.0161918792
 20
92.8000080229
 10
50.0251424965
 20
92.7071255161
 10
50.0340931138
 20
92.6200221087
 10
50.0430437311
 20
92.5391280708
 10
50.0519943484
 20
92.4648429996
 10
50.0609449656
 20
92.3975338457
 10
50.0698955829
 20
92.3375331001
 10
50.0788462002
 20
92.2851371521
 10
50.0877968175
 20
92.2406048251
 10
50.0967474348
 20
92.204156098
 10
50.1056980521
 20
92.175971019
 10
50.1148251015
 20
92.1558840544
  0
LWPOLYLINE
  5
66B
100
AcDbEntity
  8
0
100
AcDbPolyline
 62
7
  6
CONTINUOUS
 90
14
 70
0
 10
50.1161918792
 20
92.8000080229
 10
50.1251424965
 20
92.7071255161
 10
50.1340931138
 20
92.6200221087
 10
50.1430437311
 20
92.5391280708
 10
50.1519943484
 20
92.4648429996
 10
50.1609449656
 20
92.3975338457
 10
50.1698955829
 20
92.3375331001
 10
50.1788462002
 20
92.2851371521
 10
50.1877968175
 20
92.2406048251
 10
50.1967474348
 20
92.204156098
 10
50.2056980521
 20
92.175971019
 10
50.2146486693
 20
92.1561888153
 10
50.2235992866
 20
92.1449072063
 10
50.2309204079
 20
92.142039835
  0
LWPOLYLINE
  5
66C
100
AcDbEntity
  8
0
100
AcDbPolyline
 62
7
  6
CONTINUOUS
 90
13
 70
0
 10
48.4140313854
 20
92.8232509673
 10
48.4229820027
 20
92.7290405921
 10
48.43193262
 20
92.6405010795
 10
48.4408832372
 20
92.5580697956
 10
48.4498338545
 20
92.4821539336
 10
48.4587844718
 20
92.4131285018
 10
48.4677350891
 20
92.3513344714
 10
48.4766857064
 20
92.2970770921
 10
48.4856363237
 20
92.2506243843
 10
48.494586941
 20
92.2122058149
 10
48.5035375582
 20
92.182011164
 10
48.5124881755
 20
92.1601895875
 10
48.5148256687
 20
92.1558839844
  0
LWPOLYLINE
  5
66D
100
AcDbEntity
  8
0
100
AcDbPolyline
 62
7
  6
CONTINUOUS
 90
14
 70
0
 10
48.5140313854
 20
92.8232509673
 10
48.5229820027
 20
92.7290405921
 10
48.53193262
 20
92.6405010795
 10
48.5408832372
 20
92.5580697956
 10
48.5498338545
 20
92.4821539336
 10
48.5587844718
 20
92.4131285018
 10
48.5677350891
 20
92.3513344714
 10
48.5766857064
 20
92.2970770921
 10
48.5856363237
 20
92.2506243843
 10
48.594586941
 20
92.2122058149
 10
48.6035375582
 20
92.182011164
 10
48.6124881755
 20
92.1601895875
 10
48.6214387928
 20
92.14684888
 10
48.6309209031
 20
92.1420398261
  0
LWPOLYLINE
  5
66E
100
AcDbEntity
  8
0
100
AcDbPolyline
 62
7
  6
CONTINUOUS
 90
13
 70
0
 10
49.2106363237
 20
92.8603622518
 10
49.2195869409
 20
92.7641218129
 10
49.2285375582
 20
92.6733789418
 10
49.2374881755
 20
92.5885818874
 10
49.2464387928
 20
92.5101495278
 10
49.2553894101
 20
92.4384693007
 10
49.2643400274
 20
92.3738952898
 10
49.2732906447
 20
92.3167464756
 10
49.2822412619
 20
92.2673051599
 10
49.2911918792
 20
92.2258155711
 10
49.3001424965
 20
92.1924826579
 10
49.3090931138
 20
92.1674710767
 10
49.3148246965
 20
92.1558840101
  0
LWPOLYLINE
  5
66F
100
AcDbEntity
  8
0
100
AcDbPolyline
 62
7
  6
CONTINUOUS
 90
15
 70
0
 10
49.3106363237
 20
92.8603622518
 10
49.3195869409
 20
92.7641218129
 10
49.3285375582
 20
92.6733789418
 10
49.3374881755
 20
92.5885818874
 10
49.3464387928
 20
92.5101495278
 10
49.3553894101
 20
92.4384693007
 10
49.3643400274
 20
92.3738952898
 10
49.3732906447
 20
92.3167464756
 10
49.3822412619
 20
92.2673051599
 10
49.3911918792
 20
92.2258155711
 10
49.4001424965
 20
92.1924826579
 10
49.4090931138
 20
92.1674710767
 10
49.4180437311
 20
92.1509043786
 10
49.4269943484
 20
92.1428643987
 10
49.4309199663
 20
92.142039822
  0
LINE
  5
670
100
AcDbEntity
  8
0
100
AcDbLine
 62
7
  6
CONTINUOUS
 10
47.6995252126
 20
92.9867759907
 11
47.7174264471
 21
92.7868771621
  0
LINE
  5
671
100
AcDbEntity
  8
0
100
AcDbLine
 62
7
  6
CONTINUOUS
 10
49.9982906447
 20
93.0012487846
 11
50.0161918792
 21
92.8000080229
  0
LINE
  5
672
100
AcDbEntity
  8
0
100
AcDbLine
 62
7
  6
CONTINUOUS
 10
50.0982906447
 20
93.0012487846
 11
50.1161918792
 21
92.8000080229
  0
LINE
  5
673
100
AcDbEntity
  8
0
100
AcDbLine
 62
7
  6
CONTINUOUS
 10
49.8461301508
 20
94.9489191353
 11
49.8640313854
 21
94.7471596972
  0
LINE
  5
674
100
AcDbEntity
  8
0
100
AcDbLine
 62
7
  6
CONTINUOUS
 10
49.9461301508
 20
94.9489191353
 11
49.9640313854
 21
94.7471596972
  0
LINE
  5
675
100
AcDbEntity
  8
0
100
AcDbLine
 62
7
  6
CONTINUOUS
 10
47.5473647187
 20
94.935647995
 11
47.5652659533
 21
94.7325729326
  0
LINE
  5
676
100
AcDbEntity
  8
0
100
AcDbLine
 62
7
  6
CONTINUOUS
 10
48.3961301508
 20
93.0267970748
 11
48.4140313854
 21
92.8232509673
  0
LINE
  5
677
100
AcDbEntity
  8
0
100
AcDbLine
 62
7
  6
CONTINUOUS
 10
48.4961301508
 20
93.0267970748
 11
48.5140313854
 21
92.8232509673
  0
LINE
  5
678
100
AcDbEntity
  8
0
100
AcDbLine
 62
7
  6
CONTINUOUS
 10
49.0495252126
 20
94.9121633397
 11
49.0674264471
 21
94.7068294121
  0
LINE
  5
679
100
AcDbEntity
  8
0
100
AcDbLine
 62
7
  6
CONTINUOUS
 10
49.1495252126
 20
94.9121633397
 11
49.1674264471
 21
94.7068294121
  0
LINE
  5
67A
100
AcDbEntity
  8
0
100
AcDbLine
 62
7
  6
CONTINUOUS
 10
49.1927350891
 20
93.0674094011
 11
49.2106363237
 21
92.8603622518
  0
LINE
  5
67B
100
AcDbEntity
  8
0
100
AcDbLine
 62
7
  6
CONTINUOUS
 10
49.2927350891
 20
93.0674094011
 11
49.3106363237
 21
92.8603622518
  0
LINE
  5
67C
100
AcDbEntity
  8
0
100
AcDbLine
 62
7
  6
CONTINUOUS
 10
48.2529202743
 20
94.8746836412
 11
48.2708215089
 21
94.6659227203
  0
LINE
  5
67D
100
AcDbEntity
  8
0
100
AcDbLine
 62
7
  6
CONTINUOUS
 10
48.3529202743
 20
94.8746836412
 11
48.3708215089
 21
94.6659227203
  0
LINE
  5
67E
100
AcDbEntity
  8
0
100
AcDbLine
 62
7
  6
CONTINUOUS
 10
47.681623978
 20
93.2042438649
 11
47.6995252126
 21
92.9867759907
  0
LINE
  5
67F
100
AcDbEntity
  8
0
100
AcDbLine
 62
7
  6
CONTINUOUS
 10
49.9803894101
 20
93.2197729786
 11
49.9982906447
 21
93.0012487846
  0
LINE
  5
680
100
AcDbEntity
  8
0
100
AcDbLine
 62
7
  6
CONTINUOUS
 10
50.0803894101
 20
93.2197729786
 11
50.0982906447
 21
93.0012487846
  0
LINE
  5
681
100
AcDbEntity
  8
0
100
AcDbLine
 62
7
  6
CONTINUOUS
 10
49.8640313854
 20
94.7471596972
 11
49.88193262
 21
94.5282287478
  0
LINE
  5
682
100
AcDbEntity
  8
0
100
AcDbLine
 62
7
  6
CONTINUOUS
 10
49.9640313854
 20
94.7471596972
 11
49.98193262
 21
94.5282287478
  0
LINE
  5
683
100
AcDbEntity
  8
0
100
AcDbLine
 62
7
  6
CONTINUOUS
 10
47.5652659533
 20
94.7325729326
 11
47.5831671879
 21
94.5126142204
  0
LINE
  5
684
100
AcDbEntity
  8
0
100
AcDbLine
 62
7
  6
CONTINUOUS
 10
48.3782289163
 20
93.2471224734
 11
48.3961301508
 21
93.0267970748
  0
LINE
  5
685
100
AcDbEntity
  8
0
100
AcDbLine
 62
7
  6
CONTINUOUS
 10
48.4782289163
 20
93.2471224734
 11
48.4961301508
 21
93.0267970748
  0
LINE
  5
686
100
AcDbEntity
  8
0
100
AcDbLine
 62
7
  6
CONTINUOUS
 10
49.0674264471
 20
94.7068294121
 11
49.0853276817
 21
94.4851198314
  0
LINE
  5
687
100
AcDbEntity
  8
0
100
AcDbLine
 62
7
  6
CONTINUOUS
 10
49.1674264471
 20
94.7068294121
 11
49.1853276817
 21
94.4851198314
  0
LINE
  5
688
100
AcDbEntity
  8
0
100
AcDbLine
 62
7
  6
CONTINUOUS
 10
49.1748338545
 20
93.2904343784
 11
49.1927350891
 21
93.0674094011
  0
LINE
  5
689
100
AcDbEntity
  8
0
100
AcDbLine
 62
7
  6
CONTINUOUS
 10
49.2748338545
 20
93.2904343784
 11
49.2927350891
 21
93.0674094011
  0
LINE
  5
68A
100
AcDbEntity
  8
0
100
AcDbLine
 62
7
  6
CONTINUOUS
 10
48.2708215089
 20
94.6659227203
 11
48.2976733607
 21
94.3249644343
  0
LINE
  5
68B
100
AcDbEntity
  8
0
100
AcDbLine
 62
7
  6
CONTINUOUS
 10
48.3708215089
 20
94.6659227203
 11
48.3976733607
 21
94.3249644343
  0
LINE
  5
68C
100
AcDbEntity
  8
0
100
AcDbLine
 62
7
  6
CONTINUOUS
 10
47.6458215089
 20
93.6744581092
 11
47.681623978
 21
93.2042438649
  0
LINE
  5
68D
100
AcDbEntity
  8
0
100
AcDbLine
 62
7
  6
CONTINUOUS
 10
49.9445869409
 20
93.6911656954
 11
49.9803894101
 21
93.2197729786
  0
LINE
  5
68E
100
AcDbEntity
  8
0
100
AcDbLine
 62
7
  6
CONTINUOUS
 10
49.88193262
 20
94.5282287478
 11
49.9177350891
 21
94.0563880333
  0
LINE
  5
68F
100
AcDbEntity
  8
0
100
AcDbLine
 62
7
  6
CONTINUOUS
 10
50.0445869409
 20
93.6911656954
 11
50.0803894101
 21
93.2197729786
  0
LINE
  5
690
100
AcDbEntity
  8
0
100
AcDbLine
 62
7
  6
CONTINUOUS
 10
49.98193262
 20
94.5282287478
 11
50.0177350891
 21
94.0563880333
  0
LINE
  5
691
100
AcDbEntity
  8
0
100
AcDbLine
 62
7
  6
CONTINUOUS
 10
47.5831671879
 20
94.5126142204
 11
47.618969657
 21
94.0396566062
  0
LINE
  5
692
100
AcDbEntity
  8
0
100
AcDbLine
 62
7
  6
CONTINUOUS
 10
47.618969657
 20
94.0396566062
 11
47.6458215089
 21
93.6744581092
  0
LINE
  5
693
100
AcDbEntity
  8
0
100
AcDbLine
 62
7
  6
CONTINUOUS
 10
48.2976733607
 20
94.3249644343
 11
48.3782289163
 21
93.2471224734
  0
LINE
  5
694
100
AcDbEntity
  8
0
100
AcDbLine
 62
7
  6
CONTINUOUS
 10
48.3976733607
 20
94.3249644343
 11
48.4782289163
 21
93.2471224734
  0
LWPOLYLINE
  5
695
100
AcDbEntity
  8
0
100
AcDbPolyline
 62
7
  6
CONTINUOUS
 90
3
 70
0
 10
49.0853276817
 20
94.4851198314
 10
49.1300807681
 20
93.8884762855
 10
49.1748338545
 20
93.2904343784
  0
LWPOLYLINE
  5
696
100
AcDbEntity
  8
0
100
AcDbPolyline
 62
7
  6
CONTINUOUS
 90
3
 70
0
 10
49.1853276817
 20
94.4851198314
 10
49.2300807681
 20
93.8884762855
 10
49.2748338545
 20
93.2904343784
  0
LINE
  5
697
100
AcDbEntity
  8
0
100
AcDbLine
 62
7
  6
CONTINUOUS
 10
49.9177350891
 20
94.0563880333
 11
49.9445869409
 21
93.6911656954
  0
LINE
  5
698
100
AcDbEntity
  8
0
100
AcDbLine
 62
7
  6
CONTINUOUS
 10
50.0177350891
 20
94.0563880333
 11
50.0445869409
 21
93.6911656954
  0
LINE
  5
699
100
AcDbEntity
  8
0
100
AcDbLine
 62
7
  6
CONTINUOUS
 10
49.7148247807
 20
95.5981955969
 11
49.4388709233
 21
95.1254307581
  0
LINE
  5
69A
100
AcDbEntity
  8
0
100
AcDbLine
 62
7
  6
CONTINUOUS
 10
47.8470164741
 20
92.1558842203
 11
48.1220289819
 21
92.6270398172
  0
LINE
  5
69B
100
AcDbEntity
  8
0
100
AcDbLine
 62
7
  6
CONTINUOUS
 10
50.514825501
 20
95.5981955757
 11
50.238871639
 21
95.1254307359
  0
LINE
  5
69C
100
AcDbEntity
  8
0
100
AcDbLine
 62
7
  6
CONTINUOUS
 10
48.647016234
 20
92.155884152
 11
48.9220287679
 21
92.6270398172
  0
LINE
  5
69D
100
AcDbEntity
  8
0
100
AcDbLine
 62
7
  6
CONTINUOUS
 10
51.3148259045
 20
95.5981956126
 11
51.0388720564
 21
95.1254307834
  0
LINE
  5
69E
100
AcDbEntity
  8
0
100
AcDbLine
 62
7
  6
CONTINUOUS
 10
49.4470135327
 20
92.1558810829
 11
49.7220279555
 21
92.6270398172
  0
LINE
  5
69F
100
AcDbEntity
  8
0
100
AcDbLine
 62
7
  6
CONTINUOUS
 10
50.2470140094
 20
92.1558811255
 11
50.5220284157
 21
92.6270398172
  0
LINE
  5
6A0
100
AcDbEntity
  8
0
100
AcDbLine
 62
7
  6
CONTINUOUS
 10
52.1019471579
 20
95.3403409293
 11
51.9750142564
 21
95.1270398172
  0
LWPOLYLINE
  5
6A1
100
AcDbEntity
  8
0
100
AcDbPolyline
 62
7
  6
CONTINUOUS
 90
4
 70
0
 10
52.1019471579
 20
95.3403409293
 10
52.1028224628
 20
95.3417817418
 10
52.1114836779
 20
95.3521689273
 10
52.1200227235
 20
95.3555543687
  0
LWPOLYLINE
  5
6A2
100
AcDbEntity
  8
0
100
AcDbPolyline
 62
7
  6
CONTINUOUS
 90
4
 70
0
 10
50.514825501
 20
95.5981955757
 10
50.5174264471
 20
95.6023045603
 10
50.5263770644
 20
95.6109351319
 10
50.5309208067
 20
95.6120397947
  0
LWPOLYLINE
  5
6A3
100
AcDbEntity
  8
0
100
AcDbPolyline
 62
7
  6
CONTINUOUS
 90
3
 70
0
 10
51.3148259045
 20
95.5981956126
 10
51.3229820027
 20
95.6086680217
 10
51.3309211709
 20
95.6120397983
  0
LINE
  5
6A4
100
AcDbEntity
  8
RACCORDO
100
AcDbLine
 62
250
  6
CONTINUOUS
 10
32.8346063893
 20
101.8813842119
 11
36.338969657
 21
101.9119663269
  0
LINE
  5
6A5
100
AcDbEntity
  8
RACCORDO
100
AcDbLine
 62
7
  6
CONTINUOUS
 10
36.338969657
 20
102.4119472884
 11
32.8346063893
 21
102.3813651735
  0
LINE
  5
6A6
100
AcDbEntity
  8
RACCORDO
100
AcDbLine
 62
250
  6
CONTINUOUS
 10
32.028499808
 20
101.8813842119
 11
32.8346063893
 21
101.8813842119
  0
LINE
  5
6A7
100
AcDbEntity
  8
RACCORDO
100
AcDbLine
 62
250
  6
CONTINUOUS
 10
41.838969657
 20
102.1770398172
 11
36.338969657
 21
102.1770398172
  0
LINE
  5
6A8
100
AcDbEntity
  8
RACCORDO
100
AcDbLine
 62
7
  6
CONTINUOUS
 10
41.838969657
 20
102.3770398172
 11
36.338969657
 21
102.3770398172
  0
LINE
  5
6A9
100
AcDbEntity
  8
RACCORDO
100
AcDbLine
 62
250
  6
CONTINUOUS
 10
41.838969657
 20
102.5770398172
 11
36.338969657
 21
102.5770398172
  0
LINE
  5
6AA
100
AcDbEntity
  8
RACCORDO
100
AcDbLine
 62
250
  6
CONTINUOUS
 10
32.838969657
 20
102.8773444037
 11
36.338969657
 21
102.7551217105
  0
LWPOLYLINE
  5
6AB
100
AcDbEntity
  8
0
100
AcDbPolyline
 62
7
  6
CONTINUOUS
 90
4
 70
0
 10
52.4923093469
 20
92.8161040748
 10
52.5012383543
 20
92.8041379103
 10
52.5098995693
 20
92.7978467157
 10
52.516086303
 20
92.7965316415
  0
LWPOLYLINE
  5
6AC
100
AcDbEntity
  8
0
100
AcDbPolyline
 62
7
  6
CONTINUOUS
 90
4
 70
0
 10
50.9148258213
 20
92.1558840486
 10
50.9202042249
 20
92.1481821237
 10
50.9291548422
 20
92.1422067794
 10
50.9309211137
 20
92.1420398409
  0
LWPOLYLINE
  5
6AD
100
AcDbEntity
  8
0
100
AcDbPolyline
 62
7
  6
CONTINUOUS
 90
4
 70
0
 10
51.7148255926
 20
92.1558839766
 10
51.7168091632
 20
92.1526852233
 10
51.7257597805
 20
92.14346499
 10
51.7309208205
 20
92.1420398237
  0
LINE
  5
6AE
100
AcDbEntity
  8
0
100
AcDbLine
 62
7
  6
CONTINUOUS
 10
49.8286689248
 20
92.6460546247
 11
50.1148251015
 21
92.1558840544
  0
LINE
  5
6AF
100
AcDbEntity
  8
0
100
AcDbLine
 62
7
  6
CONTINUOUS
 10
48.5331727697
 20
95.1080247895
 11
48.2470165527
 21
95.5981954392
  0
LINE
  5
6B0
100
AcDbEntity
  8
0
100
AcDbLine
 62
7
  6
CONTINUOUS
 10
50.6286696521
 20
92.6460546088
 11
50.9148258213
 21
92.1558840486
  0
LINE
  5
6B1
100
AcDbEntity
  8
0
100
AcDbLine
 62
7
  6
CONTINUOUS
 10
49.3331760643
 20
95.1080175299
 11
49.0470137693
 21
95.5981985868
  0
LINE
  5
6B2
100
AcDbEntity
  8
0
100
AcDbLine
 62
7
  6
CONTINUOUS
 10
51.4286694402
 20
92.6460545345
 11
51.7148255926
 21
92.1558839766
  0
LINE
  5
6B3
100
AcDbEntity
  8
0
100
AcDbLine
 62
7
  6
CONTINUOUS
 10
50.133175978
 20
95.1080174609
 11
49.8470136654
 21
95.598198525
  0
LINE
  5
6B4
100
AcDbEntity
  8
0
100
AcDbLine
 62
7
  6
CONTINUOUS
 10
50.9331767179
 20
95.1080174504
 11
50.6470144068
 21
95.5981985055
  0
LWPOLYLINE
  5
6B5
100
AcDbEntity
  8
0
100
AcDbPolyline
 62
7
  6
CONTINUOUS
 90
13
 70
0
 10
52.0921531039
 20
92.6406162125
 10
52.0824691024
 20
92.6581514125
 10
52.0727847121
 20
92.6827354031
 10
52.0631000055
 20
92.7142266057
 10
52.0534149137
 20
92.7524438711
 10
52.0437295056
 20
92.7971666239
 10
52.0340440591
 20
92.8481352737
 10
52.0243586685
 20
92.9050545194
 10
52.0146732396
 20
92.9675956916
 10
52.0049877676
 20
93.0353971661
 10
51.9953022511
 20
93.1080668714
 10
51.9856166917
 20
93.1851845488
 10
51.9759310888
 20
93.2663042158
  0
LINE
  5
6B6
100
AcDbEntity
  8
0
100
AcDbLine
 62
7
  6
CONTINUOUS
 10
47.4470161561
 20
95.5981954053
 11
47.4489079286
 21
95.5947554847
  0
LINE
  5
6B7
100
AcDbEntity
  8
0
100
AcDbLine
 62
7
  6
CONTINUOUS
 10
49.0470137693
 20
95.5981985868
 11
49.0510684224
 21
95.5903619939
  0
LWPOLYLINE
  5
6B8
100
AcDbEntity
  8
0
100
AcDbPolyline
 62
7
  6
CONTINUOUS
 90
13
 70
0
 10
48.2470165527
 20
95.5981954392
 10
48.2544634842
 20
95.5824658353
 10
48.2634141014
 20
95.5558485677
 10
48.2723647187
 20
95.5209383635
 10
48.281315336
 20
95.4779076707
 10
48.2902659533
 20
95.4269690506
 10
48.2992165706
 20
95.368374128
 10
48.3081671879
 20
95.3024123481
 10
48.3171178052
 20
95.2294095466
 10
48.3260684224
 20
95.1497263406
 10
48.3350190397
 20
95.0637563468
 10
48.343969657
 20
94.9719242371
 10
48.3529202743
 20
94.8746836412
  0
LWPOLYLINE
  5
6B9
100
AcDbEntity
  8
0
100
AcDbPolyline
 62
7
  6
CONTINUOUS
 90
12
 70
0
 10
49.8470136654
 20
95.598198525
 10
49.856623978
 20
95.5768050415
 10
49.8655745953
 20
95.5481714442
 10
49.8745252126
 20
95.5112828495
 10
49.8834758298
 20
95.4663214787
 10
49.8924264471
 20
95.4135094305
 10
49.9013770644
 20
95.3531075845
 10
49.9103276817
 20
95.2854143117
 10
49.919278299
 20
95.2107640012
 10
49.9282289163
 20
95.1295254081
 10
49.9371795335
 20
95.0420998321
 10
49.9461301508
 20
94.9489191353
  0
LWPOLYLINE
  5
6BA
100
AcDbEntity
  8
0
100
AcDbPolyline
 62
7
  6
CONTINUOUS
 90
12
 70
0
 10
47.4489079286
 20
95.5947554847
 10
47.4578585459
 20
95.5733539647
 10
47.4668091632
 20
95.5435730561
 10
47.4757597805
 20
95.5055598693
 10
47.4847103977
 20
95.4595021804
 10
47.493661015
 20
95.4056275032
 10
47.5026116323
 20
95.3442019658
 10
47.5115622496
 20
95.2755289955
 10
47.5205128669
 20
95.1999478205
 10
47.5294634842
 20
95.1178317935
 10
47.5384141014
 20
95.0295865482
 10
47.5473647187
 20
94.935647995
  0
LWPOLYLINE
  5
6BB
100
AcDbEntity
  8
0
100
AcDbPolyline
 62
7
  6
CONTINUOUS
 90
12
 70
0
 10
49.0510684224
 20
95.5903619939
 10
49.0600190397
 20
95.5669260221
 10
49.068969657
 20
95.535142379
 10
49.0779202743
 20
95.4951680697
 10
49.0868708916
 20
95.4472005594
 10
49.0958215089
 20
95.3914767978
 10
49.1047721261
 20
95.3282720487
 10
49.1137227434
 20
95.2578985306
 10
49.1226733607
 20
95.1807038738
 10
49.131623978
 20
95.0970694037
 10
49.1405745953
 20
95.0074082567
 10
49.1495252126
 20
94.9121633397
  0
LWPOLYLINE
  5
6BC
100
AcDbEntity
  8
0
100
AcDbPolyline
 62
7
  6
CONTINUOUS
 90
13
 70
0
 10
47.843618727
 20
94.5075610598
 10
47.8339951114
 20
94.5872625368
 10
47.824449827
 20
94.6623103503
 10
47.8150274701
 20
94.7320668597
 10
47.8056834443
 20
94.796622291
 10
47.7963336587
 20
94.8562624408
 10
47.7869633892
 20
94.9107376854
 10
47.7775873598
 20
94.9596451595
 10
47.7681656522
 20
95.0028795462
 10
47.7586610347
 20
95.0402502597
 10
47.7491107389
 20
95.0712745468
 10
47.7395865415
 20
95.0955258753
 10
47.7331723862
 20
95.1080247462
  0
LWPOLYLINE
  5
6BD
100
AcDbEntity
  8
0
100
AcDbPolyline
 62
7
  6
CONTINUOUS
 90
13
 70
0
 10
49.7182365695
 20
93.2463987013
 10
49.7278578934
 20
93.1667213686
 10
49.7374011705
 20
93.0916941073
 10
49.7468199122
 20
93.0219681816
 10
49.7561606072
 20
92.9574380862
 10
49.7655143652
 20
92.8977752849
 10
49.774900783
 20
92.8432149157
 10
49.7843002639
 20
92.7942064958
 10
49.7937451281
 20
92.7509032608
 10
49.8032715378
 20
92.7135010922
 10
49.8128433309
 20
92.68247815
 10
49.8223843418
 20
92.6582702167
 10
49.8286689248
 20
92.6460546247
  0
LWPOLYLINE
  5
6BE
100
AcDbEntity
  8
0
100
AcDbPolyline
 62
7
  6
CONTINUOUS
 90
13
 70
0
 10
48.6438382425
 20
94.5057015643
 10
48.6342788864
 20
94.5849704725
 10
48.6247715881
 20
94.6598523644
 10
48.6153660952
 20
94.7296409856
 10
48.6060126601
 20
94.7944321227
 10
48.5965801912
 20
94.8547582887
 10
48.5870042145
 20
94.9105141716
 10
48.577349204
 20
94.9608138086
 10
48.5676774895
 20
95.0049551723
 10
48.5579829315
 20
95.0426724389
 10
48.5482716695
 20
95.073682699
 10
48.5386244523
 20
95.0975994411
 10
48.5331727697
 20
95.1080247895
  0
LWPOLYLINE
  5
6BF
100
AcDbEntity
  8
0
100
AcDbPolyline
 62
7
  6
CONTINUOUS
 90
13
 70
0
 10
48.9179281835
 20
93.2490121837
 10
48.9274562929
 20
93.1699667807
 10
48.9369405889
 20
93.0952147631
 10
48.9463370884
 20
93.0254295972
 10
48.9556897744
 20
92.9605730246
 10
48.965124617
 20
92.9001558477
 10
48.9747056528
 20
92.8442909937
 10
48.9843688451
 20
92.7938684837
 10
48.9940480539
 20
92.7496141149
 10
49.0037479233
 20
92.7117986748
 10
49.0134638091
 20
92.6806971963
 10
49.0231156392
 20
92.6566946226
 10
49.0286685284
 20
92.6460545817
  0
LWPOLYLINE
  5
6C0
100
AcDbEntity
  8
0
100
AcDbPolyline
 62
7
  6
CONTINUOUS
 90
13
 70
0
 10
49.4443006706
 20
94.5017646563
 10
49.4348899819
 20
94.5800094085
 10
49.4254849303
 20
94.654372319
 10
49.4161006745
 20
94.724345664
 10
49.4067220558
 20
94.7896804962
 10
49.3972616579
 20
94.8505696169
 10
49.3876692339
 20
94.9068218562
 10
49.3779950307
 20
94.9576356868
 10
49.3683023734
 20
95.0022930101
 10
49.3585852741
 20
95.0405201889
 10
49.3488497207
 20
95.0720272067
 10
49.339177002
 20
95.0964154736
 10
49.3331760643
 20
95.1080175299
  0
LWPOLYLINE
  5
6C1
100
AcDbEntity
  8
0
100
AcDbPolyline
 62
7
  6
CONTINUOUS
 90
13
 70
0
 10
50.2449181142
 20
94.4965075255
 10
50.2354564207
 20
94.575404608
 10
50.2259976721
 20
94.650424201
 10
50.2165730342
 20
94.7209305687
 10
50.2071513412
 20
94.7867954679
 10
50.1976537825
 20
94.8481502546
 10
50.1880353453
 20
94.9047800464
 10
50.1783410423
 20
94.9559239156
 10
50.1686271015
 20
95.0009007967
 10
50.1588848709
 20
95.0394414388
 10
50.1491230025
 20
95.0712369991
 10
50.1394236806
 20
95.0958801535
 10
50.133175978
 20
95.1080174609
  0
LWPOLYLINE
  5
6C2
100
AcDbEntity
  8
0
100
AcDbPolyline
 62
7
  6
CONTINUOUS
 90
13
 70
0
 10
48.1168505751
 20
93.2581906812
 10
48.1261588578
 20
93.1805156906
 10
48.1354667407
 20
93.1065648114
 10
48.144762759
 20
93.036815904
 10
48.1540583776
 20
92.9715465925
 10
48.1634341956
 20
92.9106019746
 10
48.1729368937
 20
92.8541789765
 10
48.1825197913
 20
92.8030478569
 10
48.1921234453
 20
92.7579068845
 10
48.2017551607
 20
92.7190261462
 10
48.2114076326
 20
92.6867067929
 10
48.2209995028
 20
92.6613635971
 10
48.228669515
 20
92.6460545418
  0
LINE
  5
6C3
100
AcDbEntity
  8
0
100
AcDbLine
 62
7
  6
CONTINUOUS
 10
47.862963089
 20
94.3369460698
 11
47.843618727
 21
94.5075610598
  0
LINE
  5
6C4
100
AcDbEntity
  8
0
100
AcDbLine
 62
7
  6
CONTINUOUS
 10
47.9838084957
 20
94.5057015642
 11
48.0030499433
 21
94.3358836413
  0
LINE
  5
6C5
100
AcDbEntity
  8
0
100
AcDbLine
 62
7
  6
CONTINUOUS
 10
48.6630796905
 20
94.3358836413
 11
48.6438382425
 21
94.5057015643
  0
LINE
  5
6C6
100
AcDbEntity
  8
0
100
AcDbLine
 62
7
  6
CONTINUOUS
 10
48.8987337483
 20
93.4184489921
 11
48.9179281835
 21
93.2490121837
  0
LINE
  5
6C7
100
AcDbEntity
  8
0
100
AcDbLine
 62
7
  6
CONTINUOUS
 10
49.5779579421
 20
93.2490121837
 11
49.558763507
 21
93.4184489921
  0
LINE
  5
6C8
100
AcDbEntity
  8
0
100
AcDbLine
 62
7
  6
CONTINUOUS
 10
49.6988930913
 20
93.4169964015
 11
49.7182365695
 21
93.2463987013
  0
LINE
  5
6C9
100
AcDbEntity
  8
0
100
AcDbLine
 62
7
  6
CONTINUOUS
 10
50.3782663176
 20
93.2463987013
 11
50.3589228396
 21
93.4169964015
  0
LINE
  5
6CA
100
AcDbEntity
  8
0
100
AcDbLine
 62
7
  6
CONTINUOUS
 10
48.7842709109
 20
94.5017646563
 11
48.8032733164
 21
94.3338334067
  0
LINE
  5
6CB
100
AcDbEntity
  8
0
100
AcDbLine
 62
7
  6
CONTINUOUS
 10
49.4633030759
 20
94.3338334067
 11
49.4443006706
 21
94.5017646563
  0
LINE
  5
6CC
100
AcDbEntity
  8
0
100
AcDbLine
 62
7
  6
CONTINUOUS
 10
47.9769211691
 20
93.2578417516
 11
47.9580359685
 21
93.4251096626
  0
LINE
  5
6CD
100
AcDbEntity
  8
0
100
AcDbLine
 62
7
  6
CONTINUOUS
 10
48.0980561683
 20
93.4246533808
 11
48.1168505751
 21
93.2581906812
  0
LINE
  5
6CE
100
AcDbEntity
  8
0
100
AcDbLine
 62
7
  6
CONTINUOUS
 10
48.776880325
 20
93.2581906812
 11
48.7580859177
 21
93.4246533808
  0
LINE
  5
6CF
100
AcDbEntity
  8
0
100
AcDbLine
 62
7
  6
CONTINUOUS
 10
49.5848883643
 20
94.4965075255
 11
49.6037663207
 21
94.3293256876
  0
LINE
  5
6D0
100
AcDbEntity
  8
0
100
AcDbLine
 62
7
  6
CONTINUOUS
 10
50.2637960703
 20
94.3293256876
 11
50.2449181142
 21
94.4965075255
  0
LINE
  5
6D1
100
AcDbEntity
  8
0
100
AcDbLine
 62
7
  6
CONTINUOUS
 10
51.8790676774
 20
94.1866494711
 11
51.8596903708
 21
94.366668834
  0
LINE
  5
6D2
100
AcDbEntity
  8
0
100
AcDbLine
 62
7
  6
CONTINUOUS
 10
52.346270629
 20
94.7146482235
 11
52.3634206732
 21
94.5548971252
  0
LINE
  5
6D3
100
AcDbEntity
  8
0
100
AcDbLine
 62
7
  6
CONTINUOUS
 10
52.4491708941
 20
93.6977949922
 11
52.4663209383
 21
93.537347835
  0
LINE
  5
6D4
100
AcDbEntity
  8
0
100
AcDbLine
 62
7
  6
CONTINUOUS
 10
52.2500631184
 20
94.6802041945
 11
52.2673855484
 21
94.5166622561
  0
LINE
  5
6D5
100
AcDbEntity
  8
0
100
AcDbLine
 62
7
  6
CONTINUOUS
 10
52.3453364837
 20
93.734838613
 11
52.3626589138
 21
93.5708097655
  0
LINE
  5
6D6
100
AcDbEntity
  8
0
100
AcDbLine
 62
7
  6
CONTINUOUS
 10
50.4699450706
 20
93.6908211918
 11
50.4989637927
 21
93.4163579834
  0
LINE
  5
6D7
100
AcDbEntity
  8
0
100
AcDbLine
 62
7
  6
CONTINUOUS
 10
50.4035132812
 20
94.3316476591
 11
50.4321187155
 21
94.0608159118
  0
LINE
  5
6D8
100
AcDbEntity
  8
0
100
AcDbLine
 62
7
  6
CONTINUOUS
 10
51.158993534
 20
93.4163579834
 11
51.1299748119
 21
93.6908211918
  0
LINE
  5
6D9
100
AcDbEntity
  8
0
100
AcDbLine
 62
7
  6
CONTINUOUS
 10
51.092148457
 20
94.0608159118
 11
51.0635430228
 21
94.3316476591
  0
LINE
  5
6DA
100
AcDbEntity
  8
0
100
AcDbLine
 62
7
  6
CONTINUOUS
 10
51.2028574234
 20
94.3376408918
 11
51.2318732854
 21
94.0631998765
  0
LINE
  5
6DB
100
AcDbEntity
  8
0
100
AcDbLine
 62
7
  6
CONTINUOUS
 10
51.2694047694
 20
93.6960684354
 11
51.2975686664
 21
93.4291178033
  0
LINE
  5
6DC
100
AcDbEntity
  8
0
100
AcDbLine
 62
7
  6
CONTINUOUS
 10
51.9565595779
 20
93.4386541176
 11
51.9275044575
 21
93.7148372313
  0
LINE
  5
6DD
100
AcDbEntity
  8
0
100
AcDbLine
 62
7
  6
CONTINUOUS
 10
50.4321187155
 20
94.0608159118
 11
50.4699450706
 21
93.6908211918
  0
LINE
  5
6DE
100
AcDbEntity
  8
0
100
AcDbLine
 62
7
  6
CONTINUOUS
 10
51.1299748119
 20
93.6908211918
 11
51.092148457
 21
94.0608159118
  0
LINE
  5
6DF
100
AcDbEntity
  8
0
100
AcDbLine
 62
7
  6
CONTINUOUS
 10
51.2318732854
 20
94.0631998765
 11
51.2694047694
 21
93.6960684354
  0
LINE
  5
6E0
100
AcDbEntity
  8
0
100
AcDbLine
 62
7
  6
CONTINUOUS
 10
51.9275044575
 20
93.7148372313
 11
51.8790676774
 21
94.1866494711
  0
LINE
  5
6E1
100
AcDbEntity
  8
0
100
AcDbLine
 62
7
  6
CONTINUOUS
 10
52.3634206732
 20
94.5548971252
 11
52.3891457395
 21
94.3007334455
  0
LINE
  5
6E2
100
AcDbEntity
  8
0
100
AcDbLine
 62
7
  6
CONTINUOUS
 10
52.4148708058
 20
94.0391064362
 11
52.4491708941
 21
93.6977949922
  0
LINE
  5
6E3
100
AcDbEntity
  8
0
100
AcDbLine
 62
7
  6
CONTINUOUS
 10
52.2673855484
 20
94.5166622561
 11
52.3453364837
 21
93.734838613
  0
LINE
  5
6E4
100
AcDbEntity
  8
0
100
AcDbLine
 62
7
  6
CONTINUOUS
 10
52.3891457395
 20
94.3007334455
 11
52.4148708058
 21
94.0391064362
  0
LWPOLYLINE
  5
6E5
100
AcDbEntity
  8
0
100
AcDbPolyline
 62
7
  6
CONTINUOUS
 90
13
 70
0
 10
50.8127968175
 20
92.8366649137
 10
50.8217474348
 20
92.741708415
 10
50.8306980521
 20
92.6523601856
 10
50.8396486693
 20
92.5690615849
 10
50.8485992866
 20
92.4922240888
 10
50.8575499039
 20
92.4222272566
 10
50.8665005212
 20
92.3594168565
 10
50.8754511385
 20
92.3041031574
 10
50.8844017558
 20
92.2565593964
 10
50.893352373
 20
92.2170204287
 10
50.9023029903
 20
92.185681568
 10
50.9112536076
 20
92.1626976211
 10
50.9148258213
 20
92.1558840486
  0
LWPOLYLINE
  5
6E6
100
AcDbEntity
  8
0
100
AcDbPolyline
 62
7
  6
CONTINUOUS
 90
15
 70
0
 10
50.9127968175
 20
92.8366649137
 10
50.9217474348
 20
92.741708415
 10
50.9306980521
 20
92.6523601856
 10
50.9396486693
 20
92.5690615849
 10
50.9485992866
 20
92.4922240888
 10
50.9575499039
 20
92.4222272566
 10
50.9665005212
 20
92.3594168565
 10
50.9754511385
 20
92.3041031574
 10
50.9844017558
 20
92.2565593964
 10
50.993352373
 20
92.2170204287
 10
51.0023029903
 20
92.185681568
 10
51.0112536076
 20
92.1626976211
 10
51.0202042249
 20
92.1481821237
 10
51.0291548422
 20
92.1422067794
 10
51.0309211137
 20
92.1420398409
  0
LWPOLYLINE
  5
6E7
100
AcDbEntity
  8
0
100
AcDbPolyline
 62
7
  6
CONTINUOUS
 90
13
 70
0
 10
51.6094017558
 20
92.8740528281
 10
51.6183523731
 20
92.7770901961
 10
51.6273029903
 20
92.6855610736
 10
51.6362536076
 20
92.5999175953
 10
51.6452042249
 20
92.5205828218
 10
51.6541548422
 20
92.4479486504
 10
51.6631054595
 20
92.3823738787
 10
51.6720560768
 20
92.3241824326
 10
51.681006694
 20
92.273661766
 10
51.6899573113
 20
92.2310614408
 10
51.6989079286
 20
92.1965918943
 10
51.7078585459
 20
92.1704233992
 10
51.7148255926
 20
92.1558839766
  0
LWPOLYLINE
  5
6E8
100
AcDbEntity
  8
0
100
AcDbPolyline
 62
7
  6
CONTINUOUS
 90
15
 70
0
 10
51.7094017558
 20
92.8740528281
 10
51.7183523731
 20
92.7770901961
 10
51.7273029903
 20
92.6855610736
 10
51.7362536076
 20
92.5999175953
 10
51.7452042249
 20
92.5205828218
 10
51.7541548422
 20
92.4479486504
 10
51.7631054595
 20
92.3823738787
 10
51.7720560768
 20
92.3241824326
 10
51.781006694
 20
92.273661766
 10
51.7899573113
 20
92.2310614408
 10
51.7989079286
 20
92.1965918943
 10
51.8078585459
 20
92.1704233992
 10
51.8168091632
 20
92.1526852233
 10
51.8257597805
 20
92.14346499
 10
51.8309208205
 20
92.1420398237
  0
LWPOLYLINE
  5
6E9
100
AcDbEntity
  8
0
100
AcDbPolyline
 62
7
  6
CONTINUOUS
 90
11
 70
0
 10
52.4929120121
 20
94.6218812261
 10
52.4876574946
 20
94.6811000353
 10
52.4823615121
 20
94.7365194948
 10
52.477000643
 20
94.7879198519
 10
52.471598309
 20
94.8346173672
 10
52.4661916477
 20
94.8759320558
 10
52.4607779565
 20
94.911602492
 10
52.4553599381
 20
94.9413597268
 10
52.4499828388
 20
94.9648186342
 10
52.4446766131
 20
94.981879732
 10
52.4405445668
 20
94.9908979175
  0
LINE
  5
6EA
100
AcDbEntity
  8
0
100
AcDbLine
 62
7
  6
CONTINUOUS
 10
51.4482906447
 20
94.9256263766
 11
51.4661918792
 21
94.7215764667
  0
LINE
  5
6EB
100
AcDbEntity
  8
0
100
AcDbLine
 62
7
  6
CONTINUOUS
 10
51.5482906447
 20
94.9256263766
 11
51.5661918792
 21
94.7215764667
  0
LINE
  5
6EC
100
AcDbEntity
  8
0
100
AcDbLine
 62
7
  6
CONTINUOUS
 10
50.7948955829
 20
93.0415010809
 11
50.8127968175
 21
92.8366649137
  0
LINE
  5
6ED
100
AcDbEntity
  8
0
100
AcDbLine
 62
7
  6
CONTINUOUS
 10
50.8948955829
 20
93.0415010809
 11
50.9127968175
 21
92.8366649137
  0
LINE
  5
6EE
100
AcDbEntity
  8
0
100
AcDbLine
 62
7
  6
CONTINUOUS
 10
50.6516857064
 20
94.8883976731
 11
50.669586941
 21
94.6808663652
  0
LINE
  5
6EF
100
AcDbEntity
  8
0
100
AcDbLine
 62
7
  6
CONTINUOUS
 10
50.7516857064
 20
94.8883976731
 11
50.769586941
 21
94.6808663652
  0
LINE
  5
6F0
100
AcDbEntity
  8
0
100
AcDbLine
 62
7
  6
CONTINUOUS
 10
51.5915005212
 20
93.0823382476
 11
51.6094017558
 21
92.8740528281
  0
LINE
  5
6F1
100
AcDbEntity
  8
0
100
AcDbLine
 62
7
  6
CONTINUOUS
 10
51.6915005212
 20
93.0823382476
 11
51.7094017558
 21
92.8740528281
  0
LINE
  5
6F2
100
AcDbEntity
  8
0
100
AcDbLine
 62
7
  6
CONTINUOUS
 10
51.4661918792
 20
94.7215764667
 11
51.4840931138
 21
94.5008598583
  0
LINE
  5
6F3
100
AcDbEntity
  8
0
100
AcDbLine
 62
7
  6
CONTINUOUS
 10
51.5661918792
 20
94.7215764667
 11
51.5840931138
 21
94.5008598583
  0
LINE
  5
6F4
100
AcDbEntity
  8
0
100
AcDbLine
 62
7
  6
CONTINUOUS
 10
50.7769943484
 20
93.2628263143
 11
50.7948955829
 21
93.0415010809
  0
LINE
  5
6F5
100
AcDbEntity
  8
0
100
AcDbLine
 62
7
  6
CONTINUOUS
 10
50.8769943484
 20
93.2628263143
 11
50.8948955829
 21
93.0415010809
  0
LINE
  5
6F6
100
AcDbEntity
  8
0
100
AcDbLine
 62
7
  6
CONTINUOUS
 10
50.669586941
 20
94.6808663652
 11
50.6874881755
 21
94.4574718163
  0
LINE
  5
6F7
100
AcDbEntity
  8
0
100
AcDbLine
 62
7
  6
CONTINUOUS
 10
50.769586941
 20
94.6808663652
 11
50.7874881755
 21
94.4574718163
  0
LINE
  5
6F8
100
AcDbEntity
  8
0
100
AcDbLine
 62
7
  6
CONTINUOUS
 10
52.5033962508
 20
94.492512918
 11
52.4929120121
 21
94.6218812261
  0
LINE
  5
6F9
100
AcDbEntity
  8
0
100
AcDbLine
 62
7
  6
CONTINUOUS
 10
51.5646486693
 20
93.4228008894
 11
51.5915005212
 21
93.0823382476
  0
LINE
  5
6FA
100
AcDbEntity
  8
0
100
AcDbLine
 62
7
  6
CONTINUOUS
 10
51.6646486693
 20
93.4228008894
 11
51.6915005212
 21
93.0823382476
  0
LINE
  5
6FB
100
AcDbEntity
  8
0
100
AcDbLine
 62
7
  6
CONTINUOUS
 10
52.5878920504
 20
93.2841363642
 11
52.5774367472
 21
93.4175557418
  0
LINE
  5
6FC
100
AcDbEntity
  8
0
100
AcDbLine
 62
7
  6
CONTINUOUS
 10
51.4840931138
 20
94.5008598583
 11
51.5198955829
 21
94.0270926056
  0
LINE
  5
6FD
100
AcDbEntity
  8
0
100
AcDbLine
 62
7
  6
CONTINUOUS
 10
51.5840931138
 20
94.5008598583
 11
51.6198955829
 21
94.0270926056
  0
LWPOLYLINE
  5
6FE
100
AcDbEntity
  8
0
100
AcDbPolyline
 62
7
  6
CONTINUOUS
 90
3
 70
0
 10
50.6874881755
 20
94.4574718163
 10
50.7322412619
 20
93.8590491451
 10
50.7769943484
 20
93.2628263143
  0
LWPOLYLINE
  5
6FF
100
AcDbEntity
  8
0
100
AcDbPolyline
 62
7
  6
CONTINUOUS
 90
3
 70
0
 10
50.7874881755
 20
94.4574718163
 10
50.8322412619
 20
93.8590491451
 10
50.8769943484
 20
93.2628263143
  0
LINE
  5
700
100
AcDbEntity
  8
0
100
AcDbLine
 62
7
  6
CONTINUOUS
 10
51.5198955829
 20
94.0270926056
 11
51.5646486693
 21
93.4228008894
  0
LINE
  5
701
100
AcDbEntity
  8
0
100
AcDbLine
 62
7
  6
CONTINUOUS
 10
51.6198955829
 20
94.0270926056
 11
51.6646486693
 21
93.4228008894
  0
LINE
  5
702
100
AcDbEntity
  8
0
100
AcDbLine
 62
7
  6
CONTINUOUS
 10
52.5138798304
 20
94.3507141206
 11
52.5033962508
 21
94.492512918
  0
LINE
  5
703
100
AcDbEntity
  8
0
100
AcDbLine
 62
7
  6
CONTINUOUS
 10
52.5774367472
 20
93.4175557418
 11
52.5615482016
 21
93.6406837696
  0
LINE
  5
704
100
AcDbEntity
  8
0
100
AcDbLine
 62
7
  6
CONTINUOUS
 10
52.5351319809
 20
94.0384849004
 11
52.5138798304
 21
94.3507141206
  0
LINE
  5
705
100
AcDbEntity
  8
0
100
AcDbLine
 62
7
  6
CONTINUOUS
 10
52.5615482016
 20
93.6406837696
 11
52.5351319809
 21
94.0384849004
  0
LINE
  5
706
100
AcDbEntity
  8
0
100
AcDbLine
 62
7
  6
CONTINUOUS
 10
52.121202704
 20
92.6270398172
 11
52.121202704
 21
94.9137472951
  0
LINE
  5
707
100
AcDbEntity
  8
0
100
AcDbLine
 62
7
  6
CONTINUOUS
 10
52.6420636419
 20
92.8191978972
 11
52.6586775698
 21
92.8478606066
  0
LINE
  5
708
100
AcDbEntity
  8
0
100
AcDbLine
 62
7
  6
CONTINUOUS
 10
51.0470146997
 20
92.1558811179
 11
51.3220291085
 21
92.6270398172
  0
LINE
  5
709
100
AcDbEntity
  8
0
100
AcDbLine
 62
7
  6
CONTINUOUS
 10
51.8470143405
 20
92.1558810442
 11
52.122293345
 21
92.6274915755
  0
LWPOLYLINE
  5
70A
100
AcDbEntity
  8
RACCORDO
100
AcDbPolyline
 62
250
  6
CONTINUOUS
 90
22
 70
0
 10
32.8215185796
 20
102.6813537504
 10
32.7615274647
 20
102.6785216747
 10
32.7025345594
 20
102.6713858185
 10
32.6445398637
 20
102.6599461817
 10
32.5872226617
 20
102.6440878961
 10
32.5309036693
 20
102.6239258299
 10
32.4765450339
 20
102.5998045879
 10
32.4241936588
 20
102.5716599285
 10
32.3738026408
 20
102.5395560933
 10
32.3261934179
 20
102.5040304119
 10
32.2814262403
 20
102.4650560343
 10
32.2394408579
 20
102.4226598105
 10
32.200877958
 20
102.3774596205
 10
32.1657577622
 20
102.3293736531
 10
32.1340600489
 20
102.2784837195
 10
32.1063648408
 20
102.2256531337
 10
32.0827509024
 20
102.1707347905
 10
32.0631394693
 20
102.1138757951
 10
32.0478742704
 20
102.0563807766
 10
32.037069882
 20
101.9986846114
 10
32.0306117279
 20
101.9403524232
 10
32.028499808
 20
101.8813842119
  0
LINE
  5
70B
100
AcDbEntity
  8
RACCORDO
100
AcDbLine
 62
250
  6
CONTINUOUS
 10
30.628499808
 20
102.8001530957
 11
32.838969657
 21
102.8773444037
  0
LINE
  5
70C
100
AcDbEntity
  8
RACCORDO
100
AcDbLine
 62
7
  6
CONTINUOUS
 10
30.628499808
 20
103.2998485092
 11
32.838969657
 21
103.3770398172
  0
LINE
  5
70D
100
AcDbEntity
  8
RACCORDO
100
AcDbLine
 62
250
  6
CONTINUOUS
 10
36.338969657
 20
102.7118673429
 11
32.8215185796
 21
102.6813537504
  0
LINE
  5
70E
100
AcDbEntity
  8
RACCORDO
100
AcDbLine
 62
250
  6
CONTINUOUS
 10
30.628499808
 20
102.8001530957
 11
30.338969657
 21
102.8001530957
  0
LINE
  5
70F
100
AcDbEntity
  8
RACCORDO
100
AcDbLine
 62
250
  6
CONTINUOUS
 10
41.838969657
 20
103.0024891668
 11
36.338969657
 21
103.0984920239
  0
LINE
  5
710
100
AcDbEntity
  8
RACCORDO
100
AcDbLine
 62
7
  6
CONTINUOUS
 10
41.838969657
 20
103.202489168
 11
36.338969657
 21
103.2984920251
  0
LINE
  5
711
100
AcDbEntity
  8
RACCORDO
100
AcDbLine
 62
7
  6
CONTINUOUS
 10
32.838969657
 20
103.3770398172
 11
36.338969657
 21
103.254817124
  0
LINE
  5
712
100
AcDbEntity
  8
0
100
AcDbLine
 62
7
  6
CONTINUOUS
 10
51.7331770276
 20
95.1080174979
 11
51.4470147303
 21
95.5981985442
  0
LINE
  5
713
100
AcDbEntity
  8
0
100
AcDbLine
 62
7
  6
CONTINUOUS
 10
52.4405445668
 20
94.9908979175
 11
52.2390075521
 21
95.339047849
  0
LINE
  5
714
100
AcDbEntity
  8
0
100
AcDbLine
 62
7
  6
CONTINUOUS
 10
51.4470147303
 20
95.5981985442
 11
51.4498338545
 21
95.592934353
  0
LWPOLYLINE
  5
715
100
AcDbEntity
  8
0
100
AcDbPolyline
 62
7
  6
CONTINUOUS
 90
14
 70
0
 10
52.2390075521
 20
95.339047849
 10
52.2433703639
 20
95.3306621308
 10
52.251945386
 20
95.3093123939
 10
52.2605204081
 20
95.2816583836
 10
52.2690954302
 20
95.2479016687
 10
52.2776704523
 20
95.2082702828
 10
52.2862454744
 20
95.1630173496
 10
52.2948204965
 20
95.1124196027
 10
52.3033955186
 20
95.0567758065
 10
52.3119705407
 20
94.9964050869
 10
52.3205455628
 20
94.9316451814
 10
52.3291205849
 20
94.8628506178
 10
52.337695607
 20
94.7903908302
 10
52.346270629
 20
94.7146482235
  0
LWPOLYLINE
  5
716
100
AcDbEntity
  8
0
100
AcDbPolyline
 62
7
  6
CONTINUOUS
 90
10
 70
0
 43
0.3500000006
 10
23.394104393
 20
152.6270425415
 10
23.465531044
 20
152.4841801758
 10
23.465531044
 20
152.4127580566
 10
23.3226754761
 20
152.2698956909
 10
23.2512465591
 20
152.2698956909
 10
23.1798176422
 20
152.3413178101
 10
23.1798176422
 20
152.4127580566
 10
23.2512465591
 20
152.5556022949
 10
23.3226754761
 20
152.6270425415
 10
23.394104393
 20
152.6270425415
  0
LINE
  5
717
100
AcDbEntity
  8
0
100
AcDbLine
 62
7
  6
CONTINUOUS
 10
50.6470144068
 20
95.5981985055
 11
50.6532289163
 21
95.5854776773
  0
LWPOLYLINE
  5
718
100
AcDbEntity
  8
0
100
AcDbPolyline
 62
7
  6
CONTINUOUS
 90
12
 70
0
 10
51.4498338545
 20
95.592934353
 10
51.4587844718
 20
95.5706607238
 10
51.4677350891
 20
95.5400209871
 10
51.4766857064
 20
95.5011664956
 10
51.4856363237
 20
95.4542891813
 10
51.494586941
 20
95.399620607
 10
51.5035375582
 20
95.3374308227
 10
51.5124881755
 20
95.2680270315
 10
51.5214387928
 20
95.191752072
 10
51.5303894101
 20
95.1089827251
 10
51.5393400274
 20
95.0201278524
 10
51.5482906447
 20
94.9256263766
  0
LWPOLYLINE
  5
719
100
AcDbEntity
  8
0
100
AcDbPolyline
 62
7
  6
CONTINUOUS
 90
12
 70
0
 10
50.6532289163
 20
95.5854776773
 10
50.6621795335
 20
95.5600152183
 10
50.6711301508
 20
95.5262392602
 10
50.6800807681
 20
95.4843166482
 10
50.6890313854
 20
95.4344544698
 10
50.6979820027
 20
95.3768990321
 10
50.70693262
 20
95.3119346453
 10
50.7158832372
 20
95.2398822178
 10
50.7248338545
 20
95.1610976715
 10
50.7337844718
 20
95.075970183
 10
50.7427350891
 20
94.9849202619
 10
50.7516857064
 20
94.8883976731
  0
LWPOLYLINE
  5
71A
100
AcDbEntity
  8
0
100
AcDbPolyline
 62
7
  6
CONTINUOUS
 90
7
 70
0
 10
52.121202704
 20
94.9137472951
 10
52.1330381828
 20
94.8561752439
 10
52.1448859574
 20
94.7937589248
 10
52.156746028
 20
94.7268574016
 10
52.1686183109
 20
94.6558536668
 10
52.1805028897
 20
94.5811510461
 10
52.1924000149
 20
94.5031707314
  0
LWPOLYLINE
  5
71B
100
AcDbEntity
  8
0
100
AcDbPolyline
 62
7
  6
CONTINUOUS
 90
14
 70
0
 10
52.3361613884
 20
93.4807808582
 10
52.3482260031
 20
93.4027730258
 10
52.3603036219
 20
93.3279912023
 10
52.3723944779
 20
93.2568358067
 10
52.384498406
 20
93.1896879465
 10
52.3966155713
 20
93.1269029424
 10
52.4087467018
 20
93.0688078657
 10
52.4208919818
 20
93.0157055105
 10
52.4330512269
 20
92.9678709575
 10
52.4452246123
 20
92.9255468217
 10
52.4574122497
 20
92.8889438634
 10
52.4696140274
 20
92.8582400134
 10
52.4818297856
 20
92.8335785021
 10
52.4846327573
 20
92.8287873023
  0
LINE
  5
71C
100
AcDbEntity
  8
0
100
AcDbLine
 62
7
  6
CONTINUOUS
 10
52.3120709151
 20
93.6447741921
 11
52.3361613884
 21
93.4807808582
  0
LINE
  5
71D
100
AcDbEntity
  8
0
100
AcDbLine
 62
7
  6
CONTINUOUS
 10
52.1924000149
 20
94.5031707314
 11
52.2162320018
 21
94.3391485086
  0
LINE
  5
71E
100
AcDbEntity
  8
0
100
AcDbLine
 62
7
  6
CONTINUOUS
 10
52.276033857
 20
93.9039158611
 11
52.3120709151
 21
93.6447741921
  0
LINE
  5
71F
100
AcDbEntity
  8
0
100
AcDbLine
 62
7
  6
CONTINUOUS
 10
52.2162320018
 20
94.3391485086
 11
52.276033857
 21
93.9039158611
  0
LWPOLYLINE
  5
720
100
AcDbEntity
  8
0
100
AcDbPolyline
 62
7
  6
CONTINUOUS
 90
13
 70
0
 10
50.5183337428
 20
93.2455815779
 10
50.5279675583
 20
93.1658417824
 10
50.5375289772
 20
93.0907240405
 10
50.5469765899
 20
93.0208521749
 10
50.5563518059
 20
92.9561726559
 10
50.5657360398
 20
92.8964287126
 10
50.5751643645
 20
92.8417666078
 10
50.5846017071
 20
92.7927346533
 10
50.5940242636
 20
92.7497197147
 10
50.6034169367
 20
92.7129827942
 10
50.6127948237
 20
92.6826205833
 10
50.6221794126
 20
92.6587202902
 10
50.6286696521
 20
92.6460546088
  0
LWPOLYLINE
  5
721
100
AcDbEntity
  8
0
100
AcDbPolyline
 62
7
  6
CONTINUOUS
 90
13
 70
0
 10
51.0443525171
 20
94.5013307221
 10
51.0347548469
 20
94.5811125579
 10
51.0252007901
 20
94.6565609889
 10
51.0157362433
 20
94.7269781581
 10
51.0063153098
 20
94.7924095517
 10
50.9968460063
 20
94.8531284997
 10
50.9872791323
 20
94.9089919018
 10
50.9776638882
 20
94.9592696472
 10
50.9680558919
 20
95.0033475618
 10
50.9584564904
 20
95.0409841577
 10
50.9488643367
 20
95.0719869433
 10
50.939331008
 20
95.0960833032
 10
50.9331767179
 20
95.1080174504
  0
LWPOLYLINE
  5
722
100
AcDbEntity
  8
0
100
AcDbPolyline
 62
7
  6
CONTINUOUS
 90
14
 70
0
 10
52.3799813438
 20
93.4169940523
 10
52.3886425588
 20
93.3447541203
 10
52.3973037739
 20
93.2760348495
 10
52.4059649889
 20
93.2111166078
 10
52.4146262039
 20
93.1502574579
 10
52.423287419
 20
93.0936921595
 10
52.431948634
 20
93.0416312992
 10
52.440609849
 20
92.9942605527
 10
52.4492710641
 20
92.9517400812
 10
52.4579322791
 20
92.914204063
 10
52.4665934941
 20
92.8817603621
 10
52.4752547092
 20
92.8544903334
 10
52.4839159242
 20
92.8324487643
 10
52.4923093469
 20
92.8161040748
  0
LWPOLYLINE
  5
723
100
AcDbEntity
  8
0
100
AcDbPolyline
 62
7
  6
CONTINUOUS
 90
13
 70
0
 10
51.3164664567
 20
93.2614694928
 10
51.325919741
 20
93.182465738
 10
51.3353280295
 20
93.1076371401
 10
51.3446444309
 20
93.037675908
 10
51.3539158366
 20
92.9725114449
 10
51.3632349687
 20
92.9118432247
 10
51.3726501818
 20
92.8557991455
 10
51.3821131214
 20
92.8050957316
 10
51.3915714462
 20
92.7603310851
 10
51.4010259142
 20
92.7217404519
 10
51.4104757674
 20
92.6895311862
 10
51.4198663906
 20
92.6640005015
 10
51.4286694402
 20
92.6460545345
  0
LWPOLYLINE
  5
724
100
AcDbEntity
  8
0
100
AcDbPolyline
 62
7
  6
CONTINUOUS
 90
14
 70
0
 10
51.8596903708
 20
94.366668834
 10
51.8500019258
 20
94.4526831534
 10
51.8403135744
 20
94.535365246
 10
51.8306255212
 20
94.6142350927
 10
51.8209379323
 20
94.6888354181
 10
51.8112506417
 20
94.7587363599
 10
51.8015633562
 20
94.8235358063
 10
51.7918759515
 20
94.8828595643
 10
51.7821885519
 20
94.9363635253
 10
51.7725012374
 20
94.983737756
 10
51.7628140629
 20
95.0247081011
 10
51.7531269735
 20
95.0590379723
 10
51.743439884
 20
95.0865291352
 10
51.7331770276
 20
95.1080174979
  0
LWPOLYLINE
  5
725
100
AcDbEntity
  8
0
100
AcDbPolyline
 62
7
  6
CONTINUOUS
 90
19
 70
0
 10
52.4663209383
 20
93.537347835
 10
52.4748959604
 20
93.4609294154
 10
52.4834709825
 20
93.3874836518
 10
52.4920460046
 20
93.3173147926
 10
52.5006210267
 20
93.2507074353
 10
52.5091960488
 20
93.1879253878
 10
52.5177710709
 20
93.1292106455
 10
52.526346093
 20
93.0747824879
 10
52.5349211151
 20
93.0248366967
 10
52.5434961372
 20
92.9795448996
 10
52.5520711593
 20
92.9390540408
 10
52.5606461813
 20
92.9034859793
 10
52.5692212034
 20
92.8729372165
 10
52.5777962255
 20
92.8474787524
 10
52.5863712476
 20
92.8271560693
 10
52.5949462697
 20
92.8119892433
 10
52.6035212918
 20
92.8019731798
 10
52.6120963139
 20
92.7970779712
 10
52.616086303
 20
92.7965316415
  0
LINE
  5
726
100
AcDbEntity
  8
0
100
AcDbLine
 62
7
  6
CONTINUOUS
 10
50.4989637927
 20
93.4163579834
 11
50.5183337428
 21
93.2455815779
  0
LINE
  5
727
100
AcDbEntity
  8
0
100
AcDbLine
 62
7
  6
CONTINUOUS
 10
51.1783634841
 20
93.2455815779
 11
51.158993534
 21
93.4163579834
  0
LINE
  5
728
100
AcDbEntity
  8
0
100
AcDbLine
 62
7
  6
CONTINUOUS
 10
51.1834844609
 20
94.5084488379
 11
51.2028574234
 21
94.3376408918
  0
LINE
  5
729
100
AcDbEntity
  8
0
100
AcDbLine
 62
7
  6
CONTINUOUS
 10
50.3843227755
 20
94.5013307221
 11
50.4035132812
 21
94.3316476591
  0
LINE
  5
72A
100
AcDbEntity
  8
0
100
AcDbLine
 62
7
  6
CONTINUOUS
 10
51.0635430228
 20
94.3316476591
 11
51.0443525171
 21
94.5013307221
  0
LINE
  5
72B
100
AcDbEntity
  8
0
100
AcDbLine
 62
7
  6
CONTINUOUS
 10
51.2975686664
 20
93.4291178033
 11
51.3164664567
 21
93.2614694928
  0
LINE
  5
72C
100
AcDbEntity
  8
0
100
AcDbLine
 62
7
  6
CONTINUOUS
 10
52.3626589138
 20
93.5708097655
 11
52.3799813438
 21
93.4169940523
  0
LINE
  5
72D
100
AcDbEntity
  8
0
100
AcDbLine
 62
7
  6
CONTINUOUS
 10
51.9759310888
 20
93.2663042158
 11
51.9565595779
 21
93.4386541176
  0
LINE
  5
72E
100
AcDbEntity
  8
DRAFT
100
AcDbLine
 62
250
  6
CONTINUOUS
 10
36.338969657
 20
112.3770398172
 11
32.838969657
 21
112.3770398172
  0
LINE
  5
72F
100
AcDbEntity
  8
RACCORDO
100
AcDbLine
 62
250
  6
CONTINUOUS
 10
32.838969657
 20
112.3770398172
 11
30.338969657
 21
112.3770398172
  0
LINE
  5
730
100
AcDbEntity
  8
DRAFT
100
AcDbLine
 62
7
  6
CONTINUOUS
 10
32.838969657
 20
121.8770398172
 11
36.338969657
 21
121.754817124
  0
LINE
  5
731
100
AcDbEntity
  8
RACCORDO
100
AcDbLine
 62
7
  6
CONTINUOUS
 10
30.628499808
 20
121.7998485092
 11
32.838969657
 21
121.8770398172
  0
LINE
  5
732
100
AcDbEntity
  8
RACCORDO
100
AcDbLine
 62
250
  6
CONTINUOUS
 10
29.7866204119
 20
123.3638430864
 11
30.338969657
 21
123.383131547
  0
LINE
  5
733
100
AcDbEntity
  8
RACCORDO
100
AcDbLine
 62
250
  6
CONTINUOUS
 10
28.338969657
 20
123.3638430864
 11
29.7866204119
 21
123.3638430864
  0
LWPOLYLINE
  5
734
100
AcDbEntity
  8
0
100
AcDbPolyline
 62
7
  6
CONTINUOUS
 90
10
 70
0
 43
0.3500000006
 10
43.7032536163
 20
160.6270449829
 10
43.7746847992
 20
160.4841826172
 10
43.7746847992
 20
160.412760498
 10
43.6318269653
 20
160.2698981323
 10
43.5604003143
 20
160.2698981323
 10
43.4889691315
 20
160.3413202515
 10
43.4889691315
 20
160.412760498
 10
43.5604003143
 20
160.5556047363
 10
43.6318269653
 20
160.6270449829
 10
43.7032536163
 20
160.6270449829
  0
LWPOLYLINE
  5
735
100
AcDbEntity
  8
0
100
AcDbPolyline
 62
7
  6
CONTINUOUS
 90
10
 70
0
 43
0.3500000006
 10
42.7032533112
 20
168.6270474243
 10
42.774684494
 20
168.4841850586
 10
42.774684494
 20
168.4127629395
 10
42.6318266602
 20
168.2699005737
 10
42.5604000092
 20
168.2699005737
 10
42.4889688263
 20
168.3413226929
 10
42.4889688263
 20
168.4127629395
 10
42.5604000092
 20
168.5556071777
 10
42.6318266602
 20
168.6270474243
 10
42.7032533112
 20
168.6270474243
  0
LINE
  5
736
100
AcDbEntity
  8
RACCORDO
100
AcDbLine
 62
7
  6
CONTINUOUS
 10
29.7866204119
 20
133.3577513566
 11
30.338969657
 21
133.3770398172
  0
LWPOLYLINE
  5
737
100
AcDbEntity
  8
0
100
AcDbPolyline
 62
7
  6
CONTINUOUS
 90
7
 70
0
 43
0.3500000006
 10
22.476817337
 20
144.1270308838
 10
20.9768168793
 20
144.1270308838
 10
22.476817337
 20
146.2698938599
 10
22.476817337
 20
146.6984628296
 10
22.0482461014
 20
147.1270317993
 10
21.4053881149
 20
147.1270317993
 10
20.9768168793
 20
146.4841783447
  0
LWPOLYLINE
  5
738
100
AcDbEntity
  8
0
100
AcDbPolyline
 62
7
  6
CONTINUOUS
 90
6
 70
0
 43
0.3500000006
 10
20.6083902283
 20
152.1270333252
 10
21.6798171844
 20
152.1270333252
 10
21.8941039352
 20
152.3413178101
 10
21.8941039352
 20
153.4127583618
 10
21.4655326996
 20
153.8413273315
 10
21.0369614639
 20
153.8413273315
  0
LWPOLYLINE
  5
739
100
AcDbEntity
  8
0
100
AcDbPolyline
 62
7
  6
CONTINUOUS
 90
8
 70
0
 43
0.3500000006
 10
24.4655313492
 20
152.1270333252
 10
25.3226760864
 20
152.1270333252
 10
25.7512473221
 20
152.5556022949
 10
25.7512473221
 20
153.4127583618
 10
25.3226760864
 20
153.8413273315
 10
24.4655313492
 20
153.8413273315
 10
24.4655313492
 20
155.1270342407
 10
25.7512473221
 20
155.1270342407
  0
LWPOLYLINE
  5
73A
100
AcDbEntity
  8
0
100
AcDbPolyline
 62
7
  6
CONTINUOUS
 90
7
 70
0
 43
0.3500000006
 10
39.8461147614
 20
160.1270357666
 10
38.3461143036
 20
160.1270357666
 10
39.8461147614
 20
162.2698987427
 10
39.8461147614
 20
162.6984677124
 10
39.4175412598
 20
163.1270366821
 10
38.7746832733
 20
163.1270366821
 10
38.3461143036
 20
162.4841832275
  0
LWPOLYLINE
  5
73B
100
AcDbEntity
  8
0
100
AcDbPolyline
 62
7
  6
CONTINUOUS
 90
3
 70
0
 43
0.3500000006
 10
42.2032531586
 20
160.7698892212
 10
40.7032572327
 20
160.7698892212
 10
41.3461106873
 20
163.1270366821
  0
LWPOLYLINE
  5
73C
100
AcDbEntity
  8
0
100
AcDbPolyline
 62
7
  6
CONTINUOUS
 90
7
 70
0
 43
0.3500000006
 10
38.8461144562
 20
168.127038208
 10
37.3461117325
 20
168.127038208
 10
38.8461144562
 20
170.2699011841
 10
38.8461144562
 20
170.6984701538
 10
38.4175409546
 20
171.1270391235
 10
37.7746829681
 20
171.1270391235
 10
37.3461117325
 20
170.4841856689
  0
LWPOLYLINE
  5
73D
100
AcDbEntity
  8
0
100
AcDbPolyline
 62
7
  6
CONTINUOUS
 90
13
 70
0
 43
0.3500000006
 10
45.2032540741
 20
161.8413297729
 10
44.9175429382
 20
162.0556142578
 10
44.9175429382
 20
162.6984677124
 10
45.2032540741
 20
163.1270366821
 10
45.8461120605
 20
163.1270366821
 10
46.1318277283
 20
162.6984677124
 10
46.1318277283
 20
162.0556142578
 10
45.8461120605
 20
161.8413297729
 10
46.2746855621
 20
161.4127608032
 10
46.2746855621
 20
160.5556047363
 10
45.8461120605
 20
160.1270357666
 10
45.2032540741
 20
160.1270357666
 10
44.7746851044
 20
160.5556047363
  0
LWPOLYLINE
  5
73E
100
AcDbEntity
  8
0
100
AcDbPolyline
 62
7
  6
CONTINUOUS
 90
13
 70
0
 43
0.3500000006
 10
44.2032537689
 20
169.8413322144
 10
43.9175426331
 20
170.0556166992
 10
43.9175426331
 20
170.6984701538
 10
44.2032537689
 20
171.1270391235
 10
44.8461117554
 20
171.1270391235
 10
45.1318274231
 20
170.6984701538
 10
45.1318274231
 20
170.0556166992
 10
44.8461117554
 20
169.8413322144
 10
45.274685257
 20
169.4127451172
 10
45.274685257
 20
168.5556071777
 10
44.8461117554
 20
168.127038208
 10
44.2032537689
 20
168.127038208
 10
43.7746847992
 20
168.5556071777
  0
ARC
  5
73F
100
AcDbEntity
  8
RACCORDO
100
AcDbCircle
 62
7
  6
CONTINUOUS
 10
29.838969657
 20
55.8954145184
 40
1.5
100
AcDbArc
 50
180.0
 51
268.0
  0
ARC
  5
740
100
AcDbEntity
  8
RACCORDO
100
AcDbCircle
 62
7
  6
CONTINUOUS
 10
29.838969657
 20
131.858665116
 40
1.5
100
AcDbArc
 50
92.0
 51
180.0
  0
ARC
  5
741
100
AcDbEntity
  8
RACCORDO
100
AcDbCircle
 62
7
  6
CONTINUOUS
 10
32.838969657
 20
101.8813842119
 40
0.5
100
AcDbArc
 50
90.5
 51
180.0
  0
ARC
  5
742
100
AcDbEntity
  8
RACCORDO
100
AcDbCircle
 62
7
  6
CONTINUOUS
 10
32.838969657
 20
85.8726954225
 40
0.5
100
AcDbArc
 50
180.0
 51
269.5
  0
ARC
  5
743
100
AcDbEntity
  8
RACCORDO
100
AcDbCircle
 62
7
  6
CONTINUOUS
 10
30.638969657
 20
66.2540483734
 40
0.3
100
AcDbArc
 50
180.0
 51
268.0
  0
ARC
  5
744
100
AcDbEntity
  8
RACCORDO
100
AcDbCircle
 62
7
  6
CONTINUOUS
 10
30.638969657
 20
121.5000312611
 40
0.3
100
AcDbArc
 50
92.0
 51
180.0
  0
ARC
  5
745
100
AcDbEntity
  8
RACCORDO
100
AcDbCircle
 62
7
  6
CONTINUOUS
 10
30.638969657
 20
103.0000312611
 40
0.3
100
AcDbArc
 50
92.0
 51
180.0
  0
ARC
  5
746
100
AcDbEntity
  8
RACCORDO
100
AcDbCircle
 62
7
  6
CONTINUOUS
 10
30.638969657
 20
84.7540483734
 40
0.3
100
AcDbArc
 50
180.0
 51
268.0
  0
ELLIPSE
  5
747
100
AcDbEntity
  8
RACCORDO
100
AcDbEllipse
 62
7
  6
CONTINUOUS
 10
77.8831352602
 20
123.3709443742
 30
0.0
 11
-7.079685446
 21
7.079685446
 31
0.0
 40
0.998782766
 41
-0.7847891758
 42
0.7847891758
  0
ELLIPSE
  5
748
100
AcDbEntity
  8
RACCORDO
100
AcDbEllipse
 62
7
  6
CONTINUOUS
 10
77.8831352602
 20
64.3831352602
 30
0.0
 11
7.079685446
 21
7.079685446
 31
0.0
 40
0.998782766
 41
-3.9263818294
 42
-2.3568034778
  0
ELLIPSE
  5
749
100
AcDbEntity
  8
RACCORDO
100
AcDbEllipse
 62
7
  6
CONTINUOUS
 10
196.8709443742
 20
64.3831352602
 30
0.0
 11
7.079685446
 21
-7.079685446
 31
0.0
 40
0.998782766
 41
-0.7847891758
 42
0.7847891758
  0
ELLIPSE
  5
74A
100
AcDbEntity
  8
RACCORDO
100
AcDbEllipse
 62
7
  6
CONTINUOUS
 10
196.8709443742
 20
123.3709443742
 30
0.0
 11
7.079685446
 21
7.079685446
 31
0.0
 40
0.998782766
 41
-0.7847891758
 42
0.7847891758
  0
ENDSEC
  0
SECTION
  2
OBJECTS
  0
DICTIONARY
  5
C
100
AcDbDictionary
280
0
281
1
  3
ACAD_GROUP
350
D
  3
ACAD_MLINESTYLE
350
17
  3
ACAD_LAYOUT
350
1A
  3
ACAD_PLOTSETTINGS
350
19
  3
ACAD_PLOTSTYLENAME
350
E
  0
DICTIONARY
  5
D
102
{ACAD_REACTORS
330
C
102
}
100
AcDbDictionary
280
0
281
1
  0
ACDBDICTIONARYWDFLT
  5
E
102
{ACAD_REACTORS
330
C
102
}
100
AcDbDictionary
281
1
  3
Normal
350
F
100
AcDbDictionaryWithDefault
340
F
  0
DICTIONARY
  5
17
102
{ACAD_REACTORS
330
C
102
}
100
AcDbDictionary
280
0
281
1
  3
Standard
350
18
  0
DICTIONARY
  5
19
102
{ACAD_REACTORS
330
C
102
}
100
AcDbDictionary
281
1
  0
DICTIONARY
  5
1A
102
{ACAD_REACTORS
330
C
102
}
100
AcDbDictionary
281
1
  3
Model
350
74B
  3
Layout1
350
74C
  0
ACDBPLACEHOLDER
  5
F
102
{ACAD_REACTORS
330
E
102
}
  0
MLINESTYLE
  5
18
102
{ACAD_REACTORS
330
17
102
}
100
AcDbMlineStyle
  2
STANDARD
 70
0
  3

 62
256
 51
90.0
 52
90.0
 71
2
 49
0.5
 62
256
  6
BYLAYER
 49
-0.5
 62
256
  6
BYLAYER
  0
LAYOUT
  5
74B
102
{ACAD_REACTORS
330
1A
102
}
100
AcDbPlotSettings
  1

  2
none_device
  4
ISO_A4_(297.00_x_210.00_MM)
  6

 40
0.0
 41
0.0
 42
0.0
 43
0.0
 44
297.0
 45
210.0
 46
0.0
 47
0.0
 48
0.0
 49
0.0
140
0.0
141
0.0
142
1.0
143
1.0
 70
1024
 72
1
 73
0
 74
0
  7

 75
0
147
1.0
148
0.0
149
0.0
100
AcDbLayout
  1
Model
 70
0
 71
0
 10
0.0
 20
0.0
 11
297.0
 21
210.0
 12
0.0
 22
0.0
 32
0.0
 14
0.0
 24
0.0
 34
0.0
 15
0.0
 25
0.0
 35
0.0
146
0.0
 13
0.0
 23
0.0
 33
0.0
 16
1.0
 26
0.0
 36
0.0
 17
0.0
 27
1.0
 37
0.0
 76
0
330
215
345
0
346
0
  0
LAYOUT
  5
74C
102
{ACAD_REACTORS
330
1A
102
}
100
AcDbPlotSettings
  1

  2
none_device
  4
ISO_A4_(297.00_x_210.00_MM)
  6

 40
0.0
 41
0.0
 42
0.0
 43
0.0
 44
297.0
 45
210.0
 46
0.0
 47
0.0
 48
0.0
 49
0.0
140
0.0
141
0.0
142
1.0
143
1.0
 70
0
 72
1
 73
0
 74
0
  7

 75
0
147
1.0
148
0.0
149
0.0
100
AcDbLayout
  1
Layout1
 70
0
 71
1
 10
0.0
 20
0.0
 11
297.0
 21
210.0
 12
0.0
 22
0.0
 32
0.0
 14
0.0
 24
0.0
 34
0.0
 15
0.0
 25
0.0
 35
0.0
146
0.0
 13
0.0
 23
0.0
 33
0.0
 16
1.0
 26
0.0
 36
0.0
 17
0.0
 27
1.0
 37
0.0
 76
0
330
216
345
0
346
0
  0
ENDSEC
  0
EOF
