  0
SECTION
  2
HEADER
  9
$ACADVER
  1
AC1024
  9
$DWGCODEPAGE
  3
ANSI_1252
  9
$EXTMAX
 10
558.8
 20
431.8
 30
0.0
  9
$EXTMIN
 10
0.0
 20
0.0
 30
0.0
  9
$LIMMIN
 10
0.0
 20
0.0
  9
$LIMMAX
 10
558.8
 20
431.8
  9
$VIEWCTR
 10
279.4
 20
215.9
  9
$VIEWSIZE
 40
431.8
  9
$CLAYER
  8
0
  9
$LTSCALE
 40
30.734
  9
$CELTYPE
  6
BYLAYER
  9
$DIMSCALE
 40
1.0
  9
$DIMASZ
 40
3.0
  9
$DIMEXO
 40
0.5
  9
$DIMDLI
 40
21.2344
  9
$DIMEXE
 40
1.5
  9
$DIMCEN
 40
5.0292
  9
$DIMLFAC
 40
1.0
  9
$DIMBLK
  1
_FILLED
  9
$DIMALT
 70
0
  9
$DIMALTF
 40
0.0393700787
  9
$DIMTXT
 40
3.0
  9
$DIMTOL
 70
1
  9
$DIMLIM
 70
0
  9
$DIMTFAC
 40
1.0
  9
$DIMTP
 40
0.01
  9
$DIMTM
 40
0.01
  9
$DIMGAP
 40
0.625
  9
$DIMDSEP
 70
44
  9
$AUNITS
 70
0
  9
$PDMODE
 70
3
  9
$PDSIZE
 40
3.0
  9
$HANDSEED
  5
3A7
  9
$TILEMODE
 70
1
  9
$MEASUREMENT
 70
1
  9
$INSUNITS
 70
4
  0
ENDSEC
  0
SECTION
  2
CLASSES
  0
CLASS
  1
ACDBDICTIONARYWDFLT
  2
AcDbDictionaryWithDefault
  3
AutoCAD 2000
 90
0
 91
1
280
0
281
0
  0
CLASS
  1
ACDBPLACEHOLDER
  2
AcDbPlaceHolder
  3
AutoCAD 2000
 90
0
 91
1
280
0
281
0
  0
CLASS
  1
LAYOUT
  2
AcDbLayout
  3
AutoCAD 2000
 90
0
 91
0
280
0
281
0
  0
ENDSEC
  0
SECTION
  2
TABLES
  0
TABLE
  2
VPORT
  5
8
100
AcDbSymbolTable
 70
2
  0
VPORT
  5
1F4
100
AcDbSymbolTableRecord
100
AcDbViewportTableRecord
  2
*ACTIVE
 70
0
 10
0.0
 20
0.0
 11
1.0
 21
1.0
 12
279.4
 22
215.9
 13
0.0
 23
0.0
 14
1.0
 24
1.0
 15
0.0
 25
0.0
 16
0.0
 26
0.0
 36
1.0
 17
0.0
 27
0.0
 37
0.0
 40
431.8
 41
1.2941176471
 42
50.0
 43
0.0
 44
0.0
 50
0.0
 51
0.0
 71
0
 72
100
 73
1
 74
1
 75
0
 76
0
 77
0
 78
0
  0
ENDTAB
  0
TABLE
  2
LTYPE
  5
5
100
AcDbSymbolTable
 70
6
  0
LTYPE
  5
14
100
AcDbSymbolTableRecord
100
AcDbLinetypeTableRecord
  2
BYBLOCK
 70
0
  3

 72
65
 73
0
 40
0.0
  0
LTYPE
  5
15
100
AcDbSymbolTableRecord
100
AcDbLinetypeTableRecord
  2
BYLAYER
 70
0
  3

 72
65
 73
0
 40
0.0
  0
LTYPE
  5
16
100
AcDbSymbolTableRecord
100
AcDbLinetypeTableRecord
  2
CONTINUOUS
 70
64
  3
Solid line
 72
65
 73
0
 40
0.0
  0
LTYPE
  5
1F5
100
AcDbSymbolTableRecord
100
AcDbLinetypeTableRecord
  2
CENTER
 70
64
  3
____ _ ____ _ ____ _ ____ _ ____ _ ____ _ ____
 72
65
 73
4
 40
0.6
 49
0.375
 74
0
 49
-0.075
 74
0
 49
0.075
 74
0
 49
-0.075
 74
0
  0
LTYPE
  5
1F6
100
AcDbSymbolTableRecord
100
AcDbLinetypeTableRecord
  2
HIDDEN
 70
64
  3
- - - - - - - - - - - - - - - - - - - -
 72
65
 73
2
 40
0.2
 49
0.1
 74
0
 49
-0.1
 74
0
  0
LTYPE
  5
1F7
100
AcDbSymbolTableRecord
100
AcDbLinetypeTableRecord
  2
PHANTOM
 70
64
  3
_____ _ _ _____ _ _ _____ _ _ _____
 72
65
 73
6
 40
0.8
 49
0.45
 74
0
 49
-0.05
 74
0
 49
0.1
 74
0
 49
-0.05
 74
0
 49
0.1
 74
0
 49
-0.05
 74
0
  0
LTYPE
  5
1F8
100
AcDbSymbolTableRecord
100
AcDbLinetypeTableRecord
  2
DOT
 70
64
  3
. . . . . . . . . . . . . . . . . . . .
 72
65
 73
2
 40
0.2
 49
0.1
 74
0
 49
-0.1
 74
0
  0
LTYPE
  5
1F9
100
AcDbSymbolTableRecord
100
AcDbLinetypeTableRecord
  2
DASHED
 70
64
  3
- - - - - - - - - - - - - - - - - - - -
 72
65
 73
2
 40
0.2
 49
0.1
 74
0
 49
-0.1
 74
0
  0
ENDTAB
  0
TABLE
  2
LAYER
  5
2
100
AcDbSymbolTable
 70
36
  0
LAYER
  5
10
100
AcDbSymbolTableRecord
100
AcDbLayerTableRecord
  2
0
 70
0
 62
7
  6
CONTINUOUS
370
-3
390
F
  0
LAYER
  5
1FA
100
AcDbSymbolTableRecord
100
AcDbLayerTableRecord
  2
DEFAULT_1
 70
0
 62
7
  6
CENTER
370
-3
390
F
  0
LAYER
  5
1FB
100
AcDbSymbolTableRecord
100
AcDbLayerTableRecord
  2
DEFAULT_2
 70
0
 62
7
  6
HIDDEN
370
-3
390
F
  0
LAYER
  5
1FC
100
AcDbSymbolTableRecord
100
AcDbLayerTableRecord
  2
DEFAULT_3
 70
0
 62
7
  6
PHANTOM
370
-3
390
F
  0
LAYER
  5
1FD
100
AcDbSymbolTableRecord
100
AcDbLayerTableRecord
  2
ASSI
 70
0
 62
7
  6
CONTINUOUS
370
-3
390
F
  0
LAYER
  5
1FE
100
AcDbSymbolTableRecord
100
AcDbLayerTableRecord
  2
COORDINATE
 70
0
 62
7
  6
CONTINUOUS
370
-3
390
F
  0
LAYER
  5
1FF
100
AcDbSymbolTableRecord
100
AcDbLayerTableRecord
  2
COORD_ORIGINE
 70
0
 62
7
  6
CONTINUOUS
370
-3
390
F
  0
LAYER
  5
200
100
AcDbSymbolTableRecord
100
AcDbLayerTableRecord
  2
COPY_PUBLISH
 70
0
 62
7
  6
CONTINUOUS
370
-3
390
F
  0
LAYER
  5
201
100
AcDbSymbolTableRecord
100
AcDbLayerTableRecord
  2
COSMETICHE
 70
0
 62
7
  6
CONTINUOUS
370
-3
390
F
  0
LAYER
  5
202
100
AcDbSymbolTableRecord
100
AcDbLayerTableRecord
  2
COSMETICI
 70
0
 62
7
  6
CONTINUOUS
370
-3
390
F
  0
LAYER
  5
203
100
AcDbSymbolTableRecord
100
AcDbLayerTableRecord
  2
CURVE
 70
0
 62
7
  6
CONTINUOUS
370
-3
390
F
  0
LAYER
  5
204
100
AcDbSymbolTableRecord
100
AcDbLayerTableRecord
  2
DRAFT
 70
0
 62
7
  6
CONTINUOUS
370
-3
390
F
  0
LAYER
  5
205
100
AcDbSymbolTableRecord
100
AcDbLayerTableRecord
  2
IMPORT_IGES
 70
0
 62
7
  6
CONTINUOUS
370
-3
390
F
  0
LAYER
  5
206
100
AcDbSymbolTableRecord
100
AcDbLayerTableRecord
  2
INTF_1
 70
0
 62
7
  6
CONTINUOUS
370
-3
390
F
  0
LAYER
  5
207
100
AcDbSymbolTableRecord
100
AcDbLayerTableRecord
  2
INTF_11
 70
0
 62
7
  6
CONTINUOUS
370
-3
390
F
  0
LAYER
  5
208
100
AcDbSymbolTableRecord
100
AcDbLayerTableRecord
  2
NOTE
 70
0
 62
7
  6
CONTINUOUS
370
-3
390
F
  0
LAYER
  5
209
100
AcDbSymbolTableRecord
100
AcDbLayerTableRecord
  2
PIANI
 70
0
 62
7
  6
CONTINUOUS
370
-3
390
F
  0
LAYER
  5
20A
100
AcDbSymbolTableRecord
100
AcDbLayerTableRecord
  2
PIANI_ORIGINE
 70
0
 62
7
  6
CONTINUOUS
370
-3
390
F
  0
LAYER
  5
20B
100
AcDbSymbolTableRecord
100
AcDbLayerTableRecord
  2
PUNTI
 70
0
 62
7
  6
CONTINUOUS
370
-3
390
F
  0
LAYER
  5
20C
100
AcDbSymbolTableRecord
100
AcDbLayerTableRecord
  2
RACCORDO
 70
0
 62
7
  6
CONTINUOUS
370
-3
390
F
  0
LAYER
  5
20D
100
AcDbSymbolTableRecord
100
AcDbLayerTableRecord
  2
RGB____0____0____0__
 70
0
 62
7
  6
CONTINUOUS
370
-3
390
F
  0
LAYER
  5
20E
100
AcDbSymbolTableRecord
100
AcDbLayerTableRecord
  2
SIMBOLI
 70
0
 62
7
  6
CONTINUOUS
370
-3
390
F
  0
LAYER
  5
20F
100
AcDbSymbolTableRecord
100
AcDbLayerTableRecord
  2
SMUSSO
 70
0
 62
7
  6
CONTINUOUS
370
-3
390
F
  0
LAYER
  5
210
100
AcDbSymbolTableRecord
100
AcDbLayerTableRecord
  2
SUPERFICI
 70
0
 62
7
  6
CONTINUOUS
370
-3
390
F
  0
LAYER
  5
211
100
AcDbSymbolTableRecord
100
AcDbLayerTableRecord
  2
TRASH
 70
0
 62
7
  6
CONTINUOUS
370
-3
390
F
  0
ENDTAB
  0
TABLE
  2
STYLE
  5
3
100
AcDbSymbolTable
 70
1
  0
STYLE
  5
11
100
AcDbSymbolTableRecord
100
AcDbTextStyleTableRecord
  2
STANDARD
 70
0
 40
0.0
 41
0.8
 50
0.0
 71
0
 42
0.2
  3
txt
  4

  0
STYLE
  5
212
100
AcDbSymbolTableRecord
100
AcDbTextStyleTableRecord
  2
TEXTSTYLE_1
 70
0
 40
0.0
 41
0.8
 50
0.0
 71
0
 42
0.2
  3
gdt
  4

  0
STYLE
  5
213
100
AcDbSymbolTableRecord
100
AcDbTextStyleTableRecord
  2
TEXTSTYLE_2
 70
0
 40
0.0
 41
1.0
 50
0.0
 71
0
 42
0.2
  3
symbol_asme.ttf
  4

1001
ACAD
1000
Symbol_ASME
1071
34
  0
ENDTAB
  0
TABLE
  2
VIEW
  5
6
100
AcDbSymbolTable
 70
0
  0
ENDTAB
  0
TABLE
  2
UCS
  5
7
100
AcDbSymbolTable
 70
0
  0
ENDTAB
  0
TABLE
  2
APPID
  5
9
100
AcDbSymbolTable
 70
1
  0
APPID
  5
214
100
AcDbSymbolTableRecord
100
AcDbRegAppTableRecord
  2
ACAD
 70
0
  0
ENDTAB
  0
TABLE
  2
BLOCK_RECORD
  5
1
100
AcDbSymbolTable
 70
0
  0
BLOCK_RECORD
  5
215
100
AcDbSymbolTableRecord
100
AcDbBlockTableRecord
  2
*Model_Space
  0
BLOCK_RECORD
  5
216
100
AcDbSymbolTableRecord
100
AcDbBlockTableRecord
  2
*Paper_Space
  0
BLOCK_RECORD
  5
217
100
AcDbSymbolTableRecord
100
AcDbBlockTableRecord
  2
_FILLED
  0
BLOCK_RECORD
  5
218
100
AcDbSymbolTableRecord
100
AcDbBlockTableRecord
  2
*D0
  0
BLOCK_RECORD
  5
219
100
AcDbSymbolTableRecord
100
AcDbBlockTableRecord
  2
*D1
  0
BLOCK_RECORD
  5
21A
100
AcDbSymbolTableRecord
100
AcDbBlockTableRecord
  2
*D2
  0
ENDTAB
  0
TABLE
  2
DIMSTYLE
  5
A
100
AcDbSymbolTable
 70
1
100
AcDbDimStyleTable
 71
0
  0
DIMSTYLE
105
21B
100
AcDbSymbolTableRecord
100
AcDbDimStyleTableRecord
  2
STANDARD
 70
0
  3

  4

 40
1.0
 41
3.0
 42
0.5
 43
0.38
 44
1.5
 45
0.0
 46
0.0
 47
0.01
 48
0.01
140
3.0
141
0.09
142
0.0
143
25.4
144
1.0
145
0.0
146
1.0
147
0.625
 71
1
 72
0
 73
0
 74
0
 75
0
 76
0
 77
1
 78
8
 79
2
170
0
171
1
172
0
173
0
174
0
175
0
176
0
177
0
178
0
270
2
179
2
271
2
272
2
273
2
274
2
275
0
280
0
281
0
282
0
283
1
284
8
285
0
286
0
287
3
288
0
340
11
278
44
341
217
342
217
343
217
344
217
  0
DIMSTYLE
105
21C
100
AcDbSymbolTableRecord
100
AcDbDimStyleTableRecord
  2
DIMSTYLE_1
 70
0
  3

  4

 40
1.0
 41
3.0
 42
0.5
 43
0.38
 44
1.5
 45
0.0
 46
0.0
 47
0.0
 48
0.0
140
3.0
141
0.09
142
0.0
143
25.4
144
1.0
145
0.0
146
1.0
147
0.75
 71
0
 72
0
 73
0
 74
0
 75
0
 76
0
 77
1
 78
8
 79
2
170
0
171
1
172
0
173
0
174
0
175
0
176
0
177
0
178
0
270
2
179
2
271
1
272
1
273
2
274
2
275
0
280
0
281
0
282
0
283
1
284
8
285
0
286
0
287
3
288
0
340
11
278
44
341
217
342
217
343
217
344
217
  0
DIMSTYLE
105
21D
100
AcDbSymbolTableRecord
100
AcDbDimStyleTableRecord
  2
DIMSTYLE_2
 70
0
  3

  4

 40
1.0
 41
3.0
 42
0.5
 43
0.38
 44
1.5
 45
0.0
 46
0.0
 47
0.0
 48
0.0
140
3.0
141
0.09
142
0.0
143
25.4
144
1.0
145
0.0
146
1.0
147
0.75
 71
0
 72
0
 73
0
 74
0
 75
0
 76
0
 77
1
 78
8
 79
2
170
0
171
1
172
0
173
0
174
0
175
0
176
0
177
0
178
0
270
2
179
2
271
2
272
2
273
2
274
2
275
0
280
0
281
0
282
0
283
1
284
8
285
0
286
0
287
3
288
0
340
11
278
44
341
217
342
217
343
217
344
217
  0
ENDTAB
  0
ENDSEC
  0
SECTION
  2
BLOCKS
  0
BLOCK
  5
20
100
AcDbEntity
  8
0
100
AcDbBlockBegin
  2
*Model_Space
 70
0
 10
0.0
 20
0.0
 30
0.0
  3
*Model_Space
  1

  0
ENDBLK
  5
21
100
AcDbEntity
  8
0
100
AcDbBlockEnd
  0
BLOCK
  5
1C
100
AcDbEntity
  8
0
100
AcDbBlockBegin
  2
*Paper_Space
 70
0
 10
0.0
 20
0.0
 30
0.0
  3
*Paper_Space
  1

  0
ENDBLK
  5
1D
100
AcDbEntity
  8
0
100
AcDbBlockEnd
  0
BLOCK
  5
21E
100
AcDbEntity
  8
0
100
AcDbBlockBegin
  2
_FILLED
 70
64
 10
0.0
 20
0.0
  3
_FILLED
  1

  0
SOLID
  5
21F
100
AcDbEntity
  8
0
  6
BYBLOCK
 62
0
100
AcDbTrace
 10
0.0
 20
0.0
 11
-1.0
 21
0.3166666667
 12
-1.0
 22
-0.3166666667
 13
-1.0
 23
-0.3166666667
  0
ENDBLK
  5
220
100
AcDbEntity
  8
0
  6
BYBLOCK
 62
0
100
AcDbBlockEnd
  0
BLOCK
  5
221
100
AcDbEntity
  8
0
100
AcDbBlockBegin
 62
7
  6
CONTINUOUS
  2
*D0
 70
65
 10
0.0
 20
0.0
  3
*D0
  1

  0
MTEXT
  5
222
100
AcDbEntity
  8
0
100
AcDbMText
 62
7
  6
CONTINUOUS
  7
TEXTSTYLE_2
 71
2
 72
1
 10
-0.0
 20
62.4020506297
 30
0.0
 11
1.0
 21
0.0
 31
0.0
 73
2
 44
0.9
  1
{\ftxt;\W0.0001;\H0.0001;\~}{\ftxt;\W1.1794871795;\H3.0; }{\ftxt;\W0.0001;\H0.0001;\~}{\ftxt;\W0.0001;\H0.0001;\~}{\ftxt;\W1.5714285714;\H3.0; }{\ftxt;\W0.0001;\H0.0001;\~}
 40
3.0
 41
12.3791208791
  0
LINE
  5
223
100
AcDbEntity
  8
0
100
AcDbLine
 62
7
  6
CONTINUOUS
 10
-44.9773341103
 20
0.5
 11
-44.9773341103
 21
60.1520506297
  0
LINE
  5
224
100
AcDbEntity
  8
0
100
AcDbLine
 62
7
  6
CONTINUOUS
 10
44.9773341103
 20
0.5
 11
44.9773341103
 21
60.1520506297
  0
LINE
  5
225
100
AcDbEntity
  8
0
100
AcDbLine
 62
7
  6
CONTINUOUS
 10
-44.9773341103
 20
58.6520506297
 11
-0.0
 21
58.6520506297
  0
LINE
  5
226
100
AcDbEntity
  8
0
100
AcDbLine
 62
7
  6
CONTINUOUS
 10
44.9773341103
 20
58.6520506297
 11
-0.0
 21
58.6520506297
  0
INSERT
  5
227
100
AcDbEntity
  8
0
100
AcDbBlockReference
 62
7
  6
CONTINUOUS
  2
_FILLED
 10
-44.9773341103
 20
58.6520506297
 41
3.0
 42
3.0
 43
3.0
 50
180.0
  0
INSERT
  5
228
100
AcDbEntity
  8
0
100
AcDbBlockReference
 62
7
  6
CONTINUOUS
  2
_FILLED
 10
44.9773341103
 20
58.6520506297
 41
3.0
 42
3.0
 43
3.0
  0
ENDBLK
  5
229
100
AcDbEntity
  8
0
  6
BYBLOCK
 62
0
100
AcDbBlockEnd
  0
BLOCK
  5
22A
100
AcDbEntity
  8
0
100
AcDbBlockBegin
 62
7
  6
CONTINUOUS
  2
*D1
 70
65
 10
0.0
 20
0.0
  3
*D1
  1

  0
MTEXT
  5
22B
100
AcDbEntity
  8
0
100
AcDbMText
 62
7
  6
CONTINUOUS
  7
STANDARD
 71
1
 72
1
 10
-76.7495678218
 20
63.4669162021
 30
0.0
 11
1.0
 21
0.0
 31
0.0
 73
2
 44
0.9
  1
{\ftxt;\W0.0001;\H0.0001;\~}{\ftxt;\W2.0;\H3.0; }{\ftxt;\W0.0001;\H0.0001;\~}
 40
3.0
 41
9.0
  0
LINE
  5
22C
100
AcDbEntity
  8
0
100
AcDbLine
 62
7
  6
CONTINUOUS
 10
-84.6945083551
 20
45.5
 11
-84.6945083551
 21
61.2169162021
  0
LINE
  5
22D
100
AcDbEntity
  8
0
100
AcDbLine
 62
7
  6
CONTINUOUS
 10
-88.1945083551
 20
0.5
 11
-88.1945083551
 21
61.2169162021
  0
LINE
  5
22E
100
AcDbEntity
  8
0
100
AcDbLine
 62
7
  6
CONTINUOUS
 10
-84.6945083551
 20
59.7169162021
 11
-70.7495678218
 21
59.7169162021
  0
LINE
  5
22F
100
AcDbEntity
  8
0
100
AcDbLine
 62
7
  6
CONTINUOUS
 10
-70.7495678218
 20
59.7169162021
 11
-86.4445083551
 21
59.7169162021
  0
LINE
  5
230
100
AcDbEntity
  8
0
100
AcDbLine
 62
7
  6
CONTINUOUS
 10
-88.1945083551
 20
59.7169162021
 11
-92.1945083551
 21
59.7169162021
  0
LINE
  5
231
100
AcDbEntity
  8
0
100
AcDbLine
 62
7
  6
CONTINUOUS
 10
-92.1945083551
 20
59.7169162021
 11
-86.4445083551
 21
59.7169162021
  0
INSERT
  5
232
100
AcDbEntity
  8
0
100
AcDbBlockReference
 62
7
  6
CONTINUOUS
  2
_FILLED
 10
-84.6945083551
 20
59.7169162021
 41
3.0
 42
3.0
 43
3.0
 50
180.0
  0
INSERT
  5
233
100
AcDbEntity
  8
0
100
AcDbBlockReference
 62
7
  6
CONTINUOUS
  2
_FILLED
 10
-88.1945083551
 20
59.7169162021
 41
3.0
 42
3.0
 43
3.0
  0
ENDBLK
  5
234
100
AcDbEntity
  8
0
  6
BYBLOCK
 62
0
100
AcDbBlockEnd
  0
BLOCK
  5
235
100
AcDbEntity
  8
0
100
AcDbBlockBegin
 62
7
  6
CONTINUOUS
  2
*D2
 70
65
 10
0.0
 20
0.0
  3
*D2
  1

  0
MTEXT
  5
236
100
AcDbEntity
  8
0
100
AcDbMText
 62
7
  6
CONTINUOUS
  7
STANDARD
 71
2
 72
1
 10
-73.4195083551
 20
-48.0346183272
 30
0.0
 11
1.0
 21
0.0
 31
0.0
 73
2
 44
0.9
  1
{\ftxt;\W0.0001;\H0.0001;\~}{\ftxt;\W2.9285714286;\H3.0; }{\ftxt;\W0.0001;\H0.0001;\~}
 40
3.0
 41
13.1785714286
  0
LINE
  5
237
100
AcDbEntity
  8
0
100
AcDbLine
 62
7
  6
CONTINUOUS
 10
-84.6945083551
 20
-45.5
 11
-84.6945083551
 21
-53.2846183272
  0
LINE
  5
238
100
AcDbEntity
  8
0
100
AcDbLine
 62
7
  6
CONTINUOUS
 10
-62.1445083551
 20
-23.4830127229
 11
-62.1445083551
 21
-53.2846183272
  0
LINE
  5
239
100
AcDbEntity
  8
0
100
AcDbLine
 62
7
  6
CONTINUOUS
 10
-84.6945083551
 20
-51.7846183272
 11
-73.4195083551
 21
-51.7846183272
  0
LINE
  5
23A
100
AcDbEntity
  8
0
100
AcDbLine
 62
7
  6
CONTINUOUS
 10
-62.1445083551
 20
-51.7846183272
 11
-73.4195083551
 21
-51.7846183272
  0
INSERT
  5
23B
100
AcDbEntity
  8
0
100
AcDbBlockReference
 62
7
  6
CONTINUOUS
  2
_FILLED
 10
-84.6945083551
 20
-51.7846183272
 41
3.0
 42
3.0
 43
3.0
 50
180.0
  0
INSERT
  5
23C
100
AcDbEntity
  8
0
100
AcDbBlockReference
 62
7
  6
CONTINUOUS
  2
_FILLED
 10
-62.1445083551
 20
-51.7846183272
 41
3.0
 42
3.0
 43
3.0
  0
ENDBLK
  5
23D
100
AcDbEntity
  8
0
  6
BYBLOCK
 62
0
100
AcDbBlockEnd
  0
ENDSEC
  0
SECTION
  2
ENTITIES
  0
SOLID
  5
23E
100
AcDbEntity
  8
0
100
AcDbTrace
 62
7
  6
CONTINUOUS
 10
-2.5716291008
 20
62.3363592038
 11
-2.3745488089
 21
62.3582550092
 12
-2.2212641373
 22
62.3363592038
 13
-2.2212641373
 23
62.3363592038
  0
SOLID
  5
23F
100
AcDbEntity
  8
0
100
AcDbTrace
 62
7
  6
CONTINUOUS
 10
-2.2212641373
 20
62.3363592038
 11
-2.0679794658
 21
62.3144593888
 12
-2.7468115826
 22
62.2925615786
 13
-2.7468115826
 23
62.2925615786
  0
SOLID
  5
240
100
AcDbEntity
  8
0
100
AcDbTrace
 62
7
  6
CONTINUOUS
 10
-2.2212641373
 20
62.3363592038
 11
-2.7468115826
 21
62.2925615786
 12
-2.5716291008
 22
62.3363592038
 13
-2.5716291008
 23
62.3363592038
  0
SOLID
  5
241
100
AcDbEntity
  8
0
100
AcDbTrace
 62
7
  6
CONTINUOUS
 10
-2.7468115826
 20
62.2925615786
 11
-2.0679794658
 21
62.3144593888
 12
-1.9146947943
 22
62.2706637684
 13
-1.9146947943
 23
62.2706637684
  0
SOLID
  5
242
100
AcDbEntity
  8
0
100
AcDbTrace
 62
7
  6
CONTINUOUS
 10
-1.9146947943
 20
62.2706637684
 11
-2.9438918745
 21
62.2268681479
 12
-2.7468115826
 22
62.2925615786
 13
-2.7468115826
 23
62.2925615786
  0
SOLID
  5
243
100
AcDbEntity
  8
0
100
AcDbTrace
 62
7
  6
CONTINUOUS
 10
-2.9438918745
 20
62.2268681479
 11
-1.9146947943
 21
62.2706637684
 12
-1.7614101227
 22
62.2268681479
 13
-1.7614101227
 23
62.2268681479
  0
SOLID
  5
244
100
AcDbEntity
  8
0
100
AcDbTrace
 62
7
  6
CONTINUOUS
 10
-1.0168845753
 20
62.9494958852
 11
-1.7614101227
 21
62.2268681479
 12
-1.2577604877
 22
63.1027805567
 13
-1.2577604877
 23
63.1027805567
  0
SOLID
  5
245
100
AcDbEntity
  8
0
100
AcDbTrace
 62
7
  6
CONTINUOUS
 10
-1.7614101227
 20
62.2268681479
 11
-3.1190743563
 21
62.1392769071
 12
-2.9438918745
 22
62.2268681479
 13
-2.9438918745
 23
62.2268681479
  0
SOLID
  5
246
100
AcDbEntity
  8
0
100
AcDbTrace
 62
7
  6
CONTINUOUS
 10
-1.5205342103
 20
62.0735834764
 11
-3.1190743563
 21
62.1392769071
 12
-1.7614101227
 22
62.2268681479
 13
-1.7614101227
 23
62.2268681479
  0
SOLID
  5
247
100
AcDbEntity
  8
0
100
AcDbTrace
 62
7
  6
CONTINUOUS
 10
-1.7614101227
 20
62.2268681479
 11
-1.0168845753
 21
62.9494958852
 12
-1.5205342103
 22
62.0735834764
 13
-1.5205342103
 23
62.0735834764
  0
SOLID
  5
248
100
AcDbEntity
  8
0
100
AcDbTrace
 62
7
  6
CONTINUOUS
 10
-1.5205342103
 20
62.0735834764
 11
-3.2723590278
 21
62.0516849979
 12
-3.1190743563
 22
62.1392769071
 13
-3.1190743563
 23
62.1392769071
  0
SOLID
  5
249
100
AcDbEntity
  8
0
100
AcDbTrace
 62
7
  6
CONTINUOUS
 10
-2.5278334804
 20
62.0516849979
 11
-3.2723590278
 21
62.0516849979
 12
-1.5205342103
 22
62.0735834764
 13
-1.5205342103
 23
62.0735834764
  0
SOLID
  5
24A
100
AcDbEntity
  8
0
100
AcDbTrace
 62
7
  6
CONTINUOUS
 10
-2.3745488089
 20
62.0516849979
 11
-2.5278334804
 21
62.0516849979
 12
-1.5205342103
 22
62.0735834764
 13
-1.5205342103
 23
62.0735834764
  0
SOLID
  5
24B
100
AcDbEntity
  8
0
100
AcDbTrace
 62
7
  6
CONTINUOUS
 10
-2.2431619475
 20
62.0516849979
 11
-2.3745488089
 21
62.0516849979
 12
-1.5205342103
 22
62.0735834764
 13
-1.5205342103
 23
62.0735834764
  0
SOLID
  5
24C
100
AcDbEntity
  8
0
100
AcDbTrace
 62
7
  6
CONTINUOUS
 10
-2.1336728964
 20
62.029787856
 11
-2.2431619475
 21
62.0516849979
 12
-1.5205342103
 22
62.0735834764
 13
-1.5205342103
 23
62.0735834764
  0
SOLID
  5
24D
100
AcDbEntity
  8
0
100
AcDbTrace
 62
7
  6
CONTINUOUS
 10
-2.0241838454
 20
62.007890714
 11
-2.1336728964
 21
62.029787856
 12
-1.5205342103
 22
62.0735834764
 13
-1.5205342103
 23
62.0735834764
  0
SOLID
  5
24E
100
AcDbEntity
  8
0
100
AcDbTrace
 62
7
  6
CONTINUOUS
 10
-1.9146947943
 20
61.9640957618
 11
-2.0241838454
 21
62.007890714
 12
-1.5205342103
 22
62.0735834764
 13
-1.5205342103
 23
62.0735834764
  0
SOLID
  5
24F
100
AcDbEntity
  8
0
100
AcDbTrace
 62
7
  6
CONTINUOUS
 10
-1.9146947943
 20
61.9640957618
 11
-1.5205342103
 21
62.0735834764
 12
-1.3672495388
 22
61.9640957618
 13
-1.3672495388
 23
61.9640957618
  0
SOLID
  5
250
100
AcDbEntity
  8
0
100
AcDbTrace
 62
7
  6
CONTINUOUS
 10
-2.6811181519
 20
62.007890714
 11
-2.8125050132
 21
61.9640957618
 12
-3.4037458891
 22
61.9202988049
 13
-3.4037458891
 23
61.9202988049
  0
SOLID
  5
251
100
AcDbEntity
  8
0
100
AcDbTrace
 62
7
  6
CONTINUOUS
 10
-2.5278334804
 20
62.0516849979
 11
-2.6811181519
 21
62.007890714
 12
-3.4037458891
 22
61.9202988049
 13
-3.4037458891
 23
61.9202988049
  0
SOLID
  5
252
100
AcDbEntity
  8
0
100
AcDbTrace
 62
7
  6
CONTINUOUS
 10
-2.5278334804
 20
62.0516849979
 11
-3.4037458891
 21
61.9202988049
 12
-3.2723590278
 22
62.0516849979
 13
-3.2723590278
 23
62.0516849979
  0
SOLID
  5
253
100
AcDbEntity
  8
0
100
AcDbTrace
 62
7
  6
CONTINUOUS
 10
-3.4037458891
 20
61.9202988049
 11
-2.8125050132
 21
61.9640957618
 12
-2.9657896848
 22
61.8984009947
 13
-2.9657896848
 23
61.8984009947
  0
SOLID
  5
254
100
AcDbEntity
  8
0
100
AcDbTrace
 62
7
  6
CONTINUOUS
 10
-2.9657896848
 20
61.8984009947
 11
-3.0971765461
 21
61.8108100879
 12
-3.5351327505
 22
61.7670141333
 13
-3.5351327505
 23
61.7670141333
  0
SOLID
  5
255
100
AcDbEntity
  8
0
100
AcDbTrace
 62
7
  6
CONTINUOUS
 10
-2.9657896848
 20
61.8984009947
 11
-3.5351327505
 21
61.7670141333
 12
-3.4037458891
 22
61.9202988049
 13
-3.4037458891
 23
61.9202988049
  0
SOLID
  5
256
100
AcDbEntity
  8
0
100
AcDbTrace
 62
7
  6
CONTINUOUS
 10
-3.5351327505
 20
61.7670141333
 11
-3.0971765461
 21
61.8108100879
 12
-3.2066655972
 22
61.701319032
 13
-3.2066655972
 23
61.701319032
  0
SOLID
  5
257
100
AcDbEntity
  8
0
100
AcDbTrace
 62
7
  6
CONTINUOUS
 10
-1.5643298308
 20
61.7232185129
 11
-1.6519210716
 21
61.8108100879
 12
-1.2577604877
 22
61.832707564
 13
-1.2577604877
 23
61.832707564
  0
SOLID
  5
258
100
AcDbEntity
  8
0
100
AcDbTrace
 62
7
  6
CONTINUOUS
 10
-1.5643298308
 20
61.7232185129
 11
-1.2577604877
 21
61.832707564
 12
-1.1482714366
 22
61.701319032
 13
-1.1482714366
 23
61.701319032
  0
SOLID
  5
259
100
AcDbEntity
  8
0
100
AcDbTrace
 62
7
  6
CONTINUOUS
 10
-1.1482714366
 20
61.701319032
 11
-1.4548407797
 21
61.635627272
 12
-1.5643298308
 22
61.7232185129
 13
-1.5643298308
 23
61.7232185129
  0
SOLID
  5
25A
100
AcDbEntity
  8
0
100
AcDbTrace
 62
7
  6
CONTINUOUS
 10
-3.2066655972
 20
61.701319032
 11
-3.6446218016
 21
61.6137294618
 12
-3.5351327505
 22
61.7670141333
 13
-3.5351327505
 23
61.7670141333
  0
SOLID
  5
25B
100
AcDbEntity
  8
0
100
AcDbTrace
 62
7
  6
CONTINUOUS
 10
-3.6446218016
 20
61.6137294618
 11
-3.2066655972
 21
61.701319032
 12
-3.2942568381
 22
61.5918316516
 13
-3.2942568381
 23
61.5918316516
  0
SOLID
  5
25C
100
AcDbEntity
  8
0
100
AcDbTrace
 62
7
  6
CONTINUOUS
 10
-1.4548407797
 20
61.635627272
 11
-1.1482714366
 21
61.701319032
 12
-1.0606801957
 22
61.5480360311
 13
-1.0606801957
 23
61.5480360311
  0
SOLID
  5
25D
100
AcDbEntity
  8
0
100
AcDbTrace
 62
7
  6
CONTINUOUS
 10
-1.0606801957
 20
61.5480360311
 11
-1.389147349
 21
61.5261382209
 12
-1.4548407797
 22
61.635627272
 13
-1.4548407797
 23
61.635627272
  0
SOLID
  5
25E
100
AcDbEntity
  8
0
100
AcDbTrace
 62
7
  6
CONTINUOUS
 10
-3.2942568381
 20
61.5918316516
 11
-3.3818480789
 21
61.4604447903
 12
-3.7322130424
 22
61.4385469801
 13
-3.7322130424
 23
61.4385469801
  0
SOLID
  5
25F
100
AcDbEntity
  8
0
100
AcDbTrace
 62
7
  6
CONTINUOUS
 10
-3.2942568381
 20
61.5918316516
 11
-3.7322130424
 21
61.4385469801
 12
-3.6446218016
 22
61.6137294618
 13
-3.6446218016
 23
61.6137294618
  0
SOLID
  5
260
100
AcDbEntity
  8
0
100
AcDbTrace
 62
7
  6
CONTINUOUS
 10
-1.3234539183
 20
61.3947520279
 11
-1.389147349
 21
61.5261382209
 12
-1.0606801957
 22
61.5480360311
 13
-1.0606801957
 23
61.5480360311
  0
SOLID
  5
261
100
AcDbEntity
  8
0
100
AcDbTrace
 62
7
  6
CONTINUOUS
 10
-1.3234539183
 20
61.3947520279
 11
-1.0606801957
 21
61.5480360311
 12
-0.9949867651
 22
61.3947520279
 13
-0.9949867651
 23
61.3947520279
  0
SOLID
  5
262
100
AcDbEntity
  8
0
100
AcDbTrace
 62
7
  6
CONTINUOUS
 10
-3.7322130424
 20
61.4385469801
 11
-3.3818480789
 21
61.4604447903
 12
-3.4694393198
 22
61.329057929
 13
-3.4694393198
 23
61.329057929
  0
SOLID
  5
263
100
AcDbEntity
  8
0
100
AcDbTrace
 62
7
  6
CONTINUOUS
 10
-0.9949867651
 20
61.3947520279
 11
-1.2577604877
 21
61.2852623085
 12
-1.3234539183
 22
61.3947520279
 13
-1.3234539183
 23
61.3947520279
  0
SOLID
  5
264
100
AcDbEntity
  8
0
100
AcDbTrace
 62
7
  6
CONTINUOUS
 10
-3.4694393198
 20
61.329057929
 11
-3.7979064731
 21
61.2633644983
 12
-3.7322130424
 22
61.4385469801
 13
-3.7322130424
 23
61.4385469801
  0
SOLID
  5
265
100
AcDbEntity
  8
0
100
AcDbTrace
 62
7
  6
CONTINUOUS
 10
-1.2577604877
 20
61.2852623085
 11
-0.9949867651
 21
61.3947520279
 12
-0.9292933344
 22
61.2195688779
 13
-0.9292933344
 23
61.2195688779
  0
SOLID
  5
266
100
AcDbEntity
  8
0
100
AcDbTrace
 62
7
  6
CONTINUOUS
 10
-3.7979064731
 20
61.2633644983
 11
-3.4694393198
 21
61.329057929
 12
-3.5132349402
 22
61.1757732574
 13
-3.5132349402
 23
61.1757732574
  0
SOLID
  5
267
100
AcDbEntity
  8
0
100
AcDbTrace
 62
7
  6
CONTINUOUS
 10
-0.9292933344
 20
61.2195688779
 11
-1.2139648672
 21
61.1538754472
 12
-1.2577604877
 22
61.2852623085
 13
-1.2577604877
 23
61.2852623085
  0
SOLID
  5
268
100
AcDbEntity
  8
0
100
AcDbTrace
 62
7
  6
CONTINUOUS
 10
-3.5132349402
 20
61.1757732574
 11
-3.8417020935
 21
61.0662842063
 12
-3.7979064731
 22
61.2633644983
 13
-3.7979064731
 23
61.2633644983
  0
SOLID
  5
269
100
AcDbEntity
  8
0
100
AcDbTrace
 62
7
  6
CONTINUOUS
 10
-1.2139648672
 20
61.1538754472
 11
-0.9292933344
 21
61.2195688779
 12
-0.9073955242
 22
61.0443863961
 13
-0.9073955242
 23
61.0443863961
  0
SOLID
  5
26A
100
AcDbEntity
  8
0
100
AcDbTrace
 62
7
  6
CONTINUOUS
 10
-3.8417020935
 20
61.0662842063
 11
-3.5132349402
 21
61.1757732574
 12
-3.5351327505
 22
61.0224885859
 13
-3.5351327505
 23
61.0224885859
  0
SOLID
  5
26B
100
AcDbEntity
  8
0
100
AcDbTrace
 62
7
  6
CONTINUOUS
 10
-0.9073955242
 20
61.0443863961
 11
-1.192067057
 21
61.0005907757
 12
-1.2139648672
 22
61.1538754472
 13
-1.2139648672
 23
61.1538754472
  0
SOLID
  5
26C
100
AcDbEntity
  8
0
100
AcDbTrace
 62
7
  6
CONTINUOUS
 10
-3.5351327505
 20
61.0224885859
 11
-3.8417020935
 21
60.8692027449
 12
-3.8417020935
 22
61.0662842063
 13
-3.8417020935
 23
61.0662842063
  0
SOLID
  5
26D
100
AcDbEntity
  8
0
100
AcDbTrace
 62
7
  6
CONTINUOUS
 10
-3.8417020935
 20
60.8692027449
 11
-3.5351327505
 21
61.0224885859
 12
-3.5570305607
 22
60.8692027449
 13
-3.5570305607
 23
60.8692027449
  0
SOLID
  5
26E
100
AcDbEntity
  8
0
100
AcDbTrace
 62
7
  6
CONTINUOUS
 10
-1.192067057
 20
60.8692027449
 11
-1.192067057
 21
61.0005907757
 12
-0.9073955242
 22
61.0443863961
 13
-0.9073955242
 23
61.0443863961
  0
SOLID
  5
26F
100
AcDbEntity
  8
0
100
AcDbTrace
 62
7
  6
CONTINUOUS
 10
-1.192067057
 20
60.8692027449
 11
-0.9073955242
 21
61.0443863961
 12
-0.9073955242
 22
60.8692027449
 13
-0.9073955242
 23
60.8692027449
  0
SOLID
  5
270
100
AcDbEntity
  8
0
100
AcDbTrace
 62
7
  6
CONTINUOUS
 10
-0.9073955242
 20
60.8692027449
 11
-1.192067057
 21
60.7159192428
 12
-1.192067057
 22
60.8692027449
 13
-1.192067057
 23
60.8692027449
  0
SOLID
  5
271
100
AcDbEntity
  8
0
100
AcDbTrace
 62
7
  6
CONTINUOUS
 10
-3.5570305607
 20
60.8692027449
 11
-3.5351327505
 21
60.737817053
 12
-3.8417020935
 22
60.6940214326
 13
-3.8417020935
 23
60.6940214326
  0
SOLID
  5
272
100
AcDbEntity
  8
0
100
AcDbTrace
 62
7
  6
CONTINUOUS
 10
-3.5570305607
 20
60.8692027449
 11
-3.8417020935
 21
60.6940214326
 12
-3.8417020935
 22
60.8692027449
 13
-3.8417020935
 23
60.8692027449
  0
SOLID
  5
273
100
AcDbEntity
  8
0
100
AcDbTrace
 62
7
  6
CONTINUOUS
 10
-1.192067057
 20
60.7159192428
 11
-0.9073955242
 21
60.8692027449
 12
-0.9073955242
 22
60.6721236224
 13
-0.9073955242
 23
60.6721236224
  0
SOLID
  5
274
100
AcDbEntity
  8
0
100
AcDbTrace
 62
7
  6
CONTINUOUS
 10
-3.8417020935
 20
60.6940214326
 11
-3.5351327505
 21
60.737817053
 12
-3.5132349402
 22
60.5845323815
 13
-3.5132349402
 23
60.5845323815
  0
SOLID
  5
275
100
AcDbEntity
  8
0
100
AcDbTrace
 62
7
  6
CONTINUOUS
 10
-0.9073955242
 20
60.6721236224
 11
-1.2358626775
 21
60.5626345713
 12
-1.192067057
 22
60.7159192428
 13
-1.192067057
 23
60.7159192428
  0
SOLID
  5
276
100
AcDbEntity
  8
0
100
AcDbTrace
 62
7
  6
CONTINUOUS
 10
-3.5132349402
 20
60.5845323815
 11
-3.7979064731
 21
60.5188389509
 12
-3.8417020935
 22
60.6940214326
 13
-3.8417020935
 23
60.6940214326
  0
SOLID
  5
277
100
AcDbEntity
  8
0
100
AcDbTrace
 62
7
  6
CONTINUOUS
 10
-1.2358626775
 20
60.5626345713
 11
-0.9073955242
 21
60.6721236224
 12
-0.9511911446
 22
60.4750433304
 13
-0.9511911446
 23
60.4750433304
  0
SOLID
  5
278
100
AcDbEntity
  8
0
100
AcDbTrace
 62
7
  6
CONTINUOUS
 10
-3.7979064731
 20
60.5188389509
 11
-3.5132349402
 21
60.5845323815
 12
-3.4694393198
 22
60.4531455202
 13
-3.4694393198
 23
60.4531455202
  0
SOLID
  5
279
100
AcDbEntity
  8
0
100
AcDbTrace
 62
7
  6
CONTINUOUS
 10
-0.9511911446
 20
60.4750433304
 11
-1.2796582979
 21
60.4093498998
 12
-1.2358626775
 22
60.5626345713
 13
-1.2358626775
 23
60.5626345713
  0
SOLID
  5
27A
100
AcDbEntity
  8
0
100
AcDbTrace
 62
7
  6
CONTINUOUS
 10
-3.4694393198
 20
60.4531455202
 11
-3.7541108527
 21
60.3436579727
 12
-3.7979064731
 22
60.5188389509
 13
-3.7979064731
 23
60.5188389509
  0
SOLID
  5
27B
100
AcDbEntity
  8
0
100
AcDbTrace
 62
7
  6
CONTINUOUS
 10
-3.7541108527
 20
60.3436579727
 11
-3.4694393198
 21
60.4531455202
 12
-3.4256436994
 22
60.3436579727
 13
-3.4256436994
 23
60.3436579727
  0
SOLID
  5
27C
100
AcDbEntity
  8
0
100
AcDbTrace
 62
7
  6
CONTINUOUS
 10
-1.2796582979
 20
60.4093498998
 11
-0.9511911446
 21
60.4750433304
 12
-1.0168845753
 22
60.2998608487
 13
-1.0168845753
 23
60.2998608487
  0
SOLID
  5
27D
100
AcDbEntity
  8
0
100
AcDbTrace
 62
7
  6
CONTINUOUS
 10
-1.0168845753
 20
60.2998608487
 11
-1.3453517286
 21
60.2779630384
 12
-1.2796582979
 22
60.4093498998
 13
-1.2796582979
 23
60.4093498998
  0
SOLID
  5
27E
100
AcDbEntity
  8
0
100
AcDbTrace
 62
7
  6
CONTINUOUS
 10
-3.4256436994
 20
60.3436579727
 11
-3.3599502687
 21
60.2122696078
 12
-3.688417422
 22
60.1903717976
 13
-3.688417422
 23
60.1903717976
  0
SOLID
  5
27F
100
AcDbEntity
  8
0
100
AcDbTrace
 62
7
  6
CONTINUOUS
 10
-3.4256436994
 20
60.3436579727
 11
-3.688417422
 21
60.1903717976
 12
-3.7541108527
 22
60.3436579727
 13
-3.7541108527
 23
60.3436579727
  0
SOLID
  5
280
100
AcDbEntity
  8
0
100
AcDbTrace
 62
7
  6
CONTINUOUS
 10
-1.4329429694
 20
60.1465761771
 11
-1.3453517286
 21
60.2779630384
 12
-1.0168845753
 22
60.2998608487
 13
-1.0168845753
 23
60.2998608487
  0
SOLID
  5
281
100
AcDbEntity
  8
0
100
AcDbTrace
 62
7
  6
CONTINUOUS
 10
-1.4329429694
 20
60.1465761771
 11
-1.0168845753
 21
60.2998608487
 12
-1.1044758162
 22
60.1246783669
 13
-1.1044758162
 23
60.1246783669
  0
SOLID
  5
282
100
AcDbEntity
  8
0
100
AcDbTrace
 62
7
  6
CONTINUOUS
 10
-3.688417422
 20
60.1903717976
 11
-3.3599502687
 21
60.2122696078
 12
-3.2723590278
 22
60.1027805567
 13
-3.2723590278
 23
60.1027805567
  0
SOLID
  5
283
100
AcDbEntity
  8
0
100
AcDbTrace
 62
7
  6
CONTINUOUS
 10
-3.2723590278
 20
60.1027805567
 11
-3.5789283709
 21
60.0370864578
 12
-3.688417422
 22
60.1903717976
 13
-3.688417422
 23
60.1903717976
  0
SOLID
  5
284
100
AcDbEntity
  8
0
100
AcDbTrace
 62
7
  6
CONTINUOUS
 10
-1.1044758162
 20
60.1246783669
 11
-1.5424320205
 21
60.0370864578
 12
-1.4329429694
 22
60.1465761771
 13
-1.4329429694
 23
60.1465761771
  0
SOLID
  5
285
100
AcDbEntity
  8
0
100
AcDbTrace
 62
7
  6
CONTINUOUS
 10
-3.5789283709
 20
60.0370864578
 11
-3.2723590278
 21
60.1027805567
 12
-3.184767787
 22
60.0151893158
 13
-3.184767787
 23
60.0151893158
  0
SOLID
  5
286
100
AcDbEntity
  8
0
100
AcDbTrace
 62
7
  6
CONTINUOUS
 10
-1.5424320205
 20
60.0370864578
 11
-1.1044758162
 21
60.1246783669
 12
-1.2139648672
 22
59.9713936954
 13
-1.2139648672
 23
59.9713936954
  0
SOLID
  5
287
100
AcDbEntity
  8
0
100
AcDbTrace
 62
7
  6
CONTINUOUS
 10
-1.3672495388
 20
61.9640957618
 11
-1.2577604877
 21
61.832707564
 12
-1.6519210716
 22
61.8108100879
 13
-1.6519210716
 23
61.8108100879
  0
SOLID
  5
288
100
AcDbEntity
  8
0
100
AcDbTrace
 62
7
  6
CONTINUOUS
 10
-1.9146947943
 20
61.9640957618
 11
-1.3672495388
 21
61.9640957618
 12
-1.6519210716
 22
61.8108100879
 13
-1.6519210716
 23
61.8108100879
  0
SOLID
  5
289
100
AcDbEntity
  8
0
100
AcDbTrace
 62
7
  6
CONTINUOUS
 10
-1.6519210716
 20
61.8108100879
 11
-3.0752787359
 21
59.9275997456
 12
-1.9146947943
 22
61.9640957618
 13
-1.9146947943
 23
61.9640957618
  0
SOLID
  5
28A
100
AcDbEntity
  8
0
100
AcDbTrace
 62
7
  6
CONTINUOUS
 10
-1.2139648672
 20
59.9713936954
 11
-1.6519210716
 21
59.9275997456
 12
-1.5424320205
 22
60.0370864578
 13
-1.5424320205
 23
60.0370864578
  0
SOLID
  5
28B
100
AcDbEntity
  8
0
100
AcDbTrace
 62
7
  6
CONTINUOUS
 10
-3.184767787
 20
60.0151893158
 11
-3.0752787359
 21
59.9275997456
 12
-3.49133713
 22
59.9057002647
 13
-3.49133713
 23
59.9057002647
  0
SOLID
  5
28C
100
AcDbEntity
  8
0
100
AcDbTrace
 62
7
  6
CONTINUOUS
 10
-3.184767787
 20
60.0151893158
 11
-3.49133713
 21
59.9057002647
 12
-3.5789283709
 22
60.0370864578
 13
-3.5789283709
 23
60.0370864578
  0
SOLID
  5
28D
100
AcDbEntity
  8
0
100
AcDbTrace
 62
7
  6
CONTINUOUS
 10
-1.7833079329
 20
59.8400068341
 11
-1.6519210716
 21
59.9275997456
 12
-1.2139648672
 22
59.9713936954
 13
-1.2139648672
 23
59.9713936954
  0
SOLID
  5
28E
100
AcDbEntity
  8
0
100
AcDbTrace
 62
7
  6
CONTINUOUS
 10
-1.7833079329
 20
59.8400068341
 11
-1.2139648672
 21
59.9713936954
 12
-1.3234539183
 22
59.8181090238
 13
-1.3234539183
 23
59.8181090238
  0
SOLID
  5
28F
100
AcDbEntity
  8
0
100
AcDbTrace
 62
7
  6
CONTINUOUS
 10
-3.3599502687
 20
59.7743140717
 11
-3.49133713
 21
59.9057002647
 12
-3.0752787359
 22
59.9275997456
 13
-3.0752787359
 23
59.9275997456
  0
SOLID
  5
290
100
AcDbEntity
  8
0
100
AcDbTrace
 62
7
  6
CONTINUOUS
 10
-2.8344028235
 20
59.7743140717
 11
-3.3599502687
 21
59.7743140717
 12
-3.0752787359
 22
59.9275997456
 13
-3.0752787359
 23
59.9275997456
  0
SOLID
  5
291
100
AcDbEntity
  8
0
100
AcDbTrace
 62
7
  6
CONTINUOUS
 10
-3.0752787359
 20
59.9275997456
 11
-1.6519210716
 21
61.8108100879
 12
-2.8344028235
 22
59.7743140717
 13
-2.8344028235
 23
59.7743140717
  0
SOLID
  5
292
100
AcDbEntity
  8
0
100
AcDbTrace
 62
7
  6
CONTINUOUS
 10
-1.3234539183
 20
59.8181090238
 11
-1.9146947943
 21
59.7743140717
 12
-1.7833079329
 22
59.8400068341
 13
-1.7833079329
 23
59.8400068341
  0
SOLID
  5
293
100
AcDbEntity
  8
0
100
AcDbTrace
 62
7
  6
CONTINUOUS
 10
-2.0679794658
 20
59.7305194536
 11
-1.9146947943
 21
59.7743140717
 12
-1.3234539183
 22
59.8181090238
 13
-1.3234539183
 23
59.8181090238
  0
SOLID
  5
294
100
AcDbEntity
  8
0
100
AcDbTrace
 62
7
  6
CONTINUOUS
 10
-2.0679794658
 20
59.7305194536
 11
-1.3234539183
 21
59.8181090238
 12
-1.4767385899
 22
59.7086221446
 13
-1.4767385899
 23
59.7086221446
  0
SOLID
  5
295
100
AcDbEntity
  8
0
100
AcDbTrace
 62
7
  6
CONTINUOUS
 10
-1.4767385899
 20
59.7086221446
 11
-2.2212641373
 21
59.6867203248
 12
-2.0679794658
 22
59.7305194536
 13
-2.0679794658
 23
59.7305194536
  0
SOLID
  5
296
100
AcDbEntity
  8
0
100
AcDbTrace
 62
7
  6
CONTINUOUS
 10
-2.3745488089
 20
59.6867203248
 11
-2.2212641373
 21
59.6867203248
 12
-3.2285634074
 22
59.6648243523
 13
-3.2285634074
 23
59.6648243523
  0
SOLID
  5
297
100
AcDbEntity
  8
0
100
AcDbTrace
 62
7
  6
CONTINUOUS
 10
-2.48403786
 20
59.6867203248
 11
-2.3745488089
 21
59.6867203248
 12
-3.2285634074
 22
59.6648243523
 13
-3.2285634074
 23
59.6648243523
  0
SOLID
  5
298
100
AcDbEntity
  8
0
100
AcDbTrace
 62
7
  6
CONTINUOUS
 10
-2.6154247213
 20
59.7086221446
 11
-2.48403786
 21
59.6867203248
 12
-3.2285634074
 22
59.6648243523
 13
-3.2285634074
 23
59.6648243523
  0
SOLID
  5
299
100
AcDbEntity
  8
0
100
AcDbTrace
 62
7
  6
CONTINUOUS
 10
-2.7249137724
 20
59.7305194536
 11
-2.6154247213
 21
59.7086221446
 12
-3.2285634074
 22
59.6648243523
 13
-3.2285634074
 23
59.6648243523
  0
SOLID
  5
29A
100
AcDbEntity
  8
0
100
AcDbTrace
 62
7
  6
CONTINUOUS
 10
-2.8344028235
 20
59.7743140717
 11
-2.7249137724
 21
59.7305194536
 12
-3.2285634074
 22
59.6648243523
 13
-3.2285634074
 23
59.6648243523
  0
SOLID
  5
29B
100
AcDbEntity
  8
0
100
AcDbTrace
 62
7
  6
CONTINUOUS
 10
-2.8344028235
 20
59.7743140717
 11
-3.2285634074
 21
59.6648243523
 12
-3.3599502687
 22
59.7743140717
 13
-3.3599502687
 23
59.7743140717
  0
SOLID
  5
29C
100
AcDbEntity
  8
0
100
AcDbTrace
 62
7
  6
CONTINUOUS
 10
-1.6300232614
 20
59.5991309217
 11
-3.2285634074
 21
59.6648243523
 12
-2.2212641373
 22
59.6867203248
 13
-2.2212641373
 23
59.6867203248
  0
SOLID
  5
29D
100
AcDbEntity
  8
0
100
AcDbTrace
 62
7
  6
CONTINUOUS
 10
-2.2212641373
 20
59.6867203248
 11
-1.4767385899
 21
59.7086221446
 12
-1.6300232614
 22
59.5991309217
 13
-1.6300232614
 23
59.5991309217
  0
SOLID
  5
29E
100
AcDbEntity
  8
0
100
AcDbTrace
 62
7
  6
CONTINUOUS
 10
-2.987687495
 20
59.5115416856
 11
-1.6300232614
 21
59.5991309217
 12
-1.8052057432
 22
59.5115416856
 13
-1.8052057432
 23
59.5115416856
  0
SOLID
  5
29F
100
AcDbEntity
  8
0
100
AcDbTrace
 62
7
  6
CONTINUOUS
 10
-1.8052057432
 20
59.5115416856
 11
-2.8344028235
 21
59.4677440603
 12
-2.987687495
 22
59.5115416856
 13
-2.987687495
 23
59.5115416856
  0
SOLID
  5
2A0
100
AcDbEntity
  8
0
100
AcDbTrace
 62
7
  6
CONTINUOUS
 10
-2.8344028235
 20
59.4677440603
 11
-1.8052057432
 21
59.5115416856
 12
-1.9803882249
 22
59.4458462501
 13
-1.9803882249
 23
59.4458462501
  0
SOLID
  5
2A1
100
AcDbEntity
  8
0
100
AcDbTrace
 62
7
  6
CONTINUOUS
 10
-1.9803882249
 20
59.4458462501
 11
-2.6811181519
 21
59.4239484399
 12
-2.8344028235
 22
59.4677440603
 13
-2.8344028235
 23
59.4677440603
  0
SOLID
  5
2A2
100
AcDbEntity
  8
0
100
AcDbTrace
 62
7
  6
CONTINUOUS
 10
-2.5278334804
 20
59.4020506297
 11
-2.6811181519
 21
59.4239484399
 12
-1.9803882249
 22
59.4458462501
 13
-1.9803882249
 23
59.4458462501
  0
SOLID
  5
2A3
100
AcDbEntity
  8
0
100
AcDbTrace
 62
7
  6
CONTINUOUS
 10
-2.3745488089
 20
59.4020506297
 11
-2.5278334804
 21
59.4020506297
 12
-1.9803882249
 22
59.4458462501
 13
-1.9803882249
 23
59.4458462501
  0
SOLID
  5
2A4
100
AcDbEntity
  8
0
100
AcDbTrace
 62
7
  6
CONTINUOUS
 10
-2.3745488089
 20
59.4020506297
 11
-1.9803882249
 21
59.4458462501
 12
-2.1774685169
 22
59.4020506297
 13
-2.1774685169
 23
59.4020506297
  0
SOLID
  5
2A5
100
AcDbEntity
  8
0
100
AcDbTrace
 62
7
  6
CONTINUOUS
 10
-3.2285634074
 20
59.6648243523
 11
-1.6300232614
 21
59.5991309217
 12
-2.987687495
 22
59.5115416856
 13
-2.987687495
 23
59.5115416856
  0
SOLID
  5
2A6
100
AcDbEntity
  8
0
100
AcDbTrace
 62
7
  6
CONTINUOUS
 10
-2.987687495
 20
59.5115416856
 11
-3.7322130424
 21
58.8108097538
 12
-3.2285634074
 22
59.6648243523
 13
-3.2285634074
 23
59.6648243523
  0
SOLID
  5
2A7
100
AcDbEntity
  8
0
100
AcDbTrace
 62
7
  6
CONTINUOUS
 10
-3.7322130424
 20
58.8108097538
 11
-2.987687495
 21
59.5115416856
 12
-3.4694393198
 22
58.6575250822
 13
-3.4694393198
 23
58.6575250822
  0
DIMENSION
  5
2A8
100
AcDbEntity
  8
0
100
AcDbDimension
 62
7
  6
CONTINUOUS
  2
*D0
 10
44.9773341103
 20
58.6520506297
 11
-0.5879120879
 21
58.6520506297
 70
160
 71
2
 72
2
 41
0.9
 42
89.9546682205
  1
{\ftxt;\W0.0001;\H0.0001;\~}{\ftxt;\W1.1794871795;\H3.0; }{\ftxt;\W0.0001;\H0.0001;\~}{\ftxt;\W0.0001;\H0.0001;\~}{\ftxt;\W1.5714285714;\H3.0; }{\ftxt;\W0.0001;\H0.0001;\~}
  3
DIMSTYLE_1
100
AcDbAlignedDimension
 13
-44.9773341103
 23
-0.0
 14
44.9773341103
 24
0.0
100
AcDbRotatedDimension
  0
DIMENSION
  5
2A9
100
AcDbEntity
  8
0
100
AcDbDimension
 62
7
  6
CONTINUOUS
  2
*D1
 10
-88.1945083551
 20
59.7169162021
 11
-74.1781420166
 21
59.7169162021
 70
160
 71
1
 72
2
 41
0.9
 42
3.5
  1
{\ftxt;\W0.0001;\H0.0001;\~}{\ftxt;\W2.0;\H3.0; }{\ftxt;\W0.0001;\H0.0001;\~}
  3
DIMSTYLE_2
100
AcDbAlignedDimension
 13
-84.6945083551
 23
45.0
 14
-88.1945083551
 24
0.0
 50
180.0
100
AcDbRotatedDimension
  0
DIMENSION
  5
2AA
100
AcDbEntity
  8
0
100
AcDbDimension
 62
7
  6
CONTINUOUS
  2
*D2
 10
-62.1445083551
 20
-51.7846183272
 11
-73.8480790237
 21
-51.7846183272
 70
160
 71
2
 72
2
 41
0.9
 42
22.55
  1
{\ftxt;\W0.0001;\H0.0001;\~}{\ftxt;\W2.9285714286;\H3.0; }{\ftxt;\W0.0001;\H0.0001;\~}
  3
DIMSTYLE_1
100
AcDbAlignedDimension
 13
-84.6945083551
 23
-45.0
 14
-62.1445083551
 24
-22.9830127229
100
AcDbRotatedDimension
  0
LWPOLYLINE
  5
2AB
100
AcDbEntity
  8
0
100
AcDbPolyline
 62
7
  6
CONTINUOUS
 90
5
 70
0
 43
0.3500000087
 10
-75.8924257507
 20
62.1812022034
 10
-75.5352801086
 20
62.3954844727
 10
-75.5352801086
 20
63.0383483337
 10
-75.8924257507
 20
63.4669128723
 10
-76.7495718811
 20
63.4669128723
  0
LWPOLYLINE
  5
2AC
100
AcDbEntity
  8
0
100
AcDbPolyline
 62
7
  6
CONTINUOUS
 90
7
 70
0
 43
0.3500000087
 10
-73.95522229
 20
-51.0346186249
 10
-75.4552237549
 20
-51.0346186249
 10
-73.95522229
 20
-48.8917618256
 10
-73.95522229
 20
-48.4631887604
 10
-74.3837953552
 20
-48.0346178268
 10
-75.0266506897
 20
-48.0346178268
 10
-75.4552237549
 20
-48.677475293
  0
LWPOLYLINE
  5
2AD
100
AcDbEntity
  8
0
100
AcDbPolyline
 62
7
  6
CONTINUOUS
 90
7
 70
0
 43
0.3500000087
 10
-76.3123613586
 20
-51.0346186249
 10
-77.8123628235
 20
-51.0346186249
 10
-76.3123613586
 20
-48.8917618256
 10
-76.3123613586
 20
-48.4631887604
 10
-76.7409344238
 20
-48.0346178268
 10
-77.3837982849
 20
-48.0346178268
 10
-77.8123628235
 20
-48.677475293
  0
LINE
  5
2AE
100
AcDbEntity
  8
DRAFT
100
AcDbLine
 62
7
  6
CONTINUOUS
 10
-84.6945083551
 20
-45.0
 11
-85.3435745143
 21
-44.9773341103
  0
LINE
  5
2AF
100
AcDbEntity
  8
0
100
AcDbLine
 62
7
  6
CONTINUOUS
 10
-82.5445083551
 20
-29.5651666667
 11
-84.0445083551
 21
-29.5651666667
  0
LINE
  5
2B0
100
AcDbEntity
  8
DRAFT
100
AcDbLine
 62
7
  6
CONTINUOUS
 10
-82.5445083551
 20
-29.3985342194
 11
-84.0445083551
 21
-29.3954519042
  0
LINE
  5
2B1
100
AcDbEntity
  8
DRAFT
100
AcDbLine
 62
7
  6
CONTINUOUS
 10
-84.0445083551
 20
-28.0169234373
 11
-84.6945083551
 21
-28.0139152793
  0
LINE
  5
2B2
100
AcDbEntity
  8
0
100
AcDbLine
 62
7
  6
CONTINUOUS
 10
-76.6445083551
 20
26.7048210003
 11
-65.2831221194
 21
30.2860148011
  0
LWPOLYLINE
  5
2B3
100
AcDbEntity
  8
0
100
AcDbPolyline
 62
7
  6
CONTINUOUS
 90
28
 70
0
 10
-73.1457472531
 20
-25.3402910927
 10
-73.0580792266
 20
-25.3371816503
 10
-72.9720704034
 20
-25.3284689094
 10
-72.8877207838
 20
-25.3141528699
 10
-72.8046405504
 20
-25.2941184795
 10
-72.7232195205
 20
-25.2684807906
 10
-72.6446271456
 20
-25.2375849597
 10
-72.568728768
 20
-25.2012573361
 10
-72.4956590454
 20
-25.1596715705
 10
-72.4269914026
 20
-25.1136937716
 10
-72.3629430737
 20
-25.0633289017
 10
-72.3032968246
 20
-25.0085719984
 10
-72.2489743775
 20
-24.9502742826
 10
-72.2000027178
 20
-24.8883444422
 10
-72.1563548601
 20
-24.8228737893
 10
-72.1188715696
 20
-24.7549874814
 10
-72.0876590019
 20
-24.6845574674
 10
-72.0626110014
 20
-24.6117117984
 10
-72.0442498669
 20
-24.5379597854
 10
-72.0327317792
 20
-24.4633959676
 10
-72.0279005574
 20
-24.3879258059
 10
-72.0298099574
 20
-24.3127749941
 10
-72.0385435918
 20
-24.2379277387
 10
-72.0540178479
 20
-24.1633998331
 10
-72.0760356443
 20
-24.0904643522
 10
-72.104531287
 20
-24.019545654
 10
-72.1395704698
 20
-23.9502193804
 10
-72.1811531928
 20
-23.8824855314
  0
LINE
  5
2B4
100
AcDbEntity
  8
RACCORDO
100
AcDbLine
 62
250
  6
CONTINUOUS
 10
-84.6945083551
 20
-26.2069742635
 11
-78.4463185325
 21
-26.1439819898
  0
LINE
  5
2B5
100
AcDbEntity
  8
RACCORDO
100
AcDbLine
 62
7
  6
CONTINUOUS
 10
-84.6945083551
 20
-26.2219032888
 11
-78.3874388087
 21
-26.1585064919
  0
LINE
  5
2B6
100
AcDbEntity
  8
DRAFT
100
AcDbLine
 62
7
  6
CONTINUOUS
 10
-76.6445083551
 20
-26.8198149423
 11
-82.5445083551
 21
-26.8713034623
  0
LINE
  5
2B7
100
AcDbEntity
  8
DRAFT
100
AcDbLine
 62
7
  6
CONTINUOUS
 10
-79.9522573798
 20
-25.7736631161
 11
-84.6945083551
 21
-25.797966624
  0
LINE
  5
2B8
100
AcDbEntity
  8
DRAFT
100
AcDbLine
 62
7
  6
CONTINUOUS
 10
-84.6945083551
 20
-25.6883515402
 11
-80.1445083551
 21
-25.6650906241
  0
LINE
  5
2B9
100
AcDbEntity
  8
0
100
AcDbLine
 62
7
  6
CONTINUOUS
 10
-80.1445083551
 20
-25.4784421617
 11
-79.1445083551
 21
-25.4784421617
  0
LINE
  5
2BA
100
AcDbEntity
  8
0
100
AcDbLine
 62
7
  6
CONTINUOUS
 10
-77.1445083551
 20
-24.8434554176
 11
-78.9445083551
 21
-24.8434554176
  0
LINE
  5
2BB
100
AcDbEntity
  8
0
100
AcDbLine
 62
250
  6
CONTINUOUS
 10
-77.1445083551
 20
-24.7764681195
 11
-78.9445083551
 21
-24.7764681195
  0
LINE
  5
2BC
100
AcDbEntity
  8
0
100
AcDbLine
 62
7
  6
CONTINUOUS
 10
-77.1445083551
 20
-24.6441035418
 11
-78.9445083551
 21
-24.6441035418
  0
LINE
  5
2BD
100
AcDbEntity
  8
0
100
AcDbLine
 62
250
  6
CONTINUOUS
 10
-77.1445083551
 20
-24.6014923731
 11
-78.9445083551
 21
-24.6014923731
  0
LINE
  5
2BE
100
AcDbEntity
  8
DRAFT
100
AcDbLine
 62
7
  6
CONTINUOUS
 10
-68.9857978078
 20
-25.1168048251
 11
-68.6445083551
 21
-25.119783213
  0
LWPOLYLINE
  5
2BF
100
AcDbEntity
  8
0
100
AcDbPolyline
 62
7
  6
CONTINUOUS
 90
10
 70
0
 10
-78.8445083551
 20
-26.087637432
 10
-78.872702907
 20
-26.0868216696
 10
-78.9008837112
 20
-26.0857782834
 10
-78.9290375121
 20
-26.0845075051
 10
-78.9571510143
 20
-26.0830097637
 10
-78.9852110499
 20
-26.081285525
 10
-79.0132045836
 20
-26.0793352858
 10
-79.0411185043
 20
-26.0771597899
 10
-79.0689396322
 20
-26.0747600338
 10
-79.0966548856
 20
-26.0721371017
  0
LWPOLYLINE
  5
2C0
100
AcDbEntity
  8
0
100
AcDbPolyline
 62
7
  6
CONTINUOUS
 90
10
 70
0
 10
-78.8445083551
 20
-25.587637432
 10
-78.7804376172
 20
-25.591892162
 10
-78.7166875776
 20
-25.5979057714
 10
-78.6532582364
 20
-25.6056782601
 10
-78.5900850429
 20
-25.6152212355
 10
-78.5272325478
 20
-25.6265230903
 10
-78.4648944026
 20
-25.6395490029
 10
-78.4031351579
 20
-25.6542873662
 10
-78.3418902632
 20
-25.6707497873
 10
-78.2811597184
 20
-25.6889362663
  0
LINE
  5
2C1
100
AcDbEntity
  8
0
100
AcDbLine
 62
7
  6
CONTINUOUS
 10
-78.902696016
 20
-25.5816322707
 11
-78.870534245
 21
-25.5848869374
  0
LINE
  5
2C2
100
AcDbEntity
  8
0
100
AcDbLine
 62
7
  6
CONTINUOUS
 10
-78.870534245
 20
-25.5848869374
 11
-78.8445083551
 21
-25.587637432
  0
LWPOLYLINE
  5
2C3
100
AcDbEntity
  8
0
100
AcDbPolyline
 62
7
  6
CONTINUOUS
 90
10
 70
0
 10
-78.2811597184
 20
-26.1889362663
 10
-78.3418902632
 20
-26.1707497873
 10
-78.4031351579
 20
-26.1542873662
 10
-78.4648944026
 20
-26.1395490029
 10
-78.5272325478
 20
-26.1265230903
 10
-78.5900850429
 20
-26.1152212355
 10
-78.6532582364
 20
-26.1056782601
 10
-78.7166875776
 20
-26.0979057714
 10
-78.7804376172
 20
-26.091892162
 10
-78.8445083551
 20
-26.087637432
  0
LINE
  5
2C4
100
AcDbEntity
  8
0
100
AcDbLine
 62
7
  6
CONTINUOUS
 10
-78.2811597184
 20
-26.1889362663
 11
-65.4686789192
 21
-30.2275259119
  0
LINE
  5
2C5
100
AcDbEntity
  8
0
100
AcDbLine
 62
7
  6
CONTINUOUS
 10
-78.2811597184
 20
-25.6889362663
 11
-65.2831221194
 21
-29.7860148011
  0
LWPOLYLINE
  5
2C6
100
AcDbEntity
  8
0
100
AcDbPolyline
 62
7
  6
CONTINUOUS
 90
17
 70
0
 10
-63.1859332384
 20
27.4449654571
 10
-63.0666758612
 20
27.48749699
 10
-62.9530375968
 20
27.5375083033
 10
-62.8450184452
 20
27.5949993969
 10
-62.7418914179
 20
27.6605336438
 10
-62.6443835034
 20
27.7335476711
 10
-62.5546756674
 20
27.8123513597
 10
-62.4731360842
 20
27.8968036442
 10
-62.3993965794
 20
27.9870455901
 10
-62.334533596
 20
28.0818102749
 10
-62.2785104797
 20
28.1815650648
 10
-62.2313638849
 20
28.2858425936
 10
-62.194280218
 20
28.39197384
 10
-62.1675845769
 20
28.4995320395
 10
-62.1509518637
 20
28.6089439565
 10
-62.1445931918
 20
28.7188208635
 10
-62.1445329766
 20
28.7330126863
  0
LINE
  5
2C7
100
AcDbEntity
  8
0
100
AcDbLine
 62
7
  6
CONTINUOUS
 10
-68.6445083551
 20
25.7243818097
 11
-63.1859332384
 21
27.4449654571
  0
LINE
  5
2C8
100
AcDbEntity
  8
0
100
AcDbLine
 62
7
  6
CONTINUOUS
 10
-68.6415799935
 20
25.2253048511
 11
-63.1859332384
 21
26.9449654571
  0
LINE
  5
2C9
100
AcDbEntity
  8
0
100
AcDbLine
 62
7
  6
CONTINUOUS
 10
-80.0207154967
 20
-25.7113096313
 11
-79.1159407724
 21
-25.4983643929
  0
LWPOLYLINE
  5
2CA
100
AcDbEntity
  8
0
100
AcDbPolyline
 62
7
  6
CONTINUOUS
 90
37
 70
0
 10
-73.3327353637
 20
-23.4174371769
 10
-73.4231021888
 20
-23.4340947557
 10
-73.510647792
 20
-23.456798234
 10
-73.5953721735
 20
-23.4855476119
 10
-73.6778913688
 20
-23.5206349803
 10
-73.7575893424
 20
-23.5617682482
 10
-73.8326179871
 20
-23.6080711426
 10
-73.9027904081
 20
-23.659618703
 10
-73.9682935004
 20
-23.71633589
 10
-74.027839841
 20
-23.7771213115
 10
-74.0813249093
 20
-23.8420369684
 10
-74.128853226
 20
-23.91102086
 10
-74.1694509301
 20
-23.9827855917
 10
-74.2030035545
 20
-24.0575041688
 10
-74.2296255663
 20
-24.1350035861
 10
-74.2486865055
 20
-24.2134774339
 10
-74.2599907087
 20
-24.2928148031
 10
-74.2637338393
 20
-24.3731266027
 10
-74.2598724274
 20
-24.4529391495
 10
-74.2482754867
 20
-24.5323005581
 10
-74.2290740034
 20
-24.6111627138
 10
-74.2026174666
 20
-24.6879075899
 10
-74.1686742234
 20
-24.7625586812
 10
-74.1274759267
 20
-24.8350924928
 10
-74.0800670242
 20
-24.9038205133
 10
-74.0264805301
 20
-24.9684881877
 10
-73.9666834302
 20
-25.0293500711
 10
-73.9016211294
 20
-25.0854813166
 10
-73.8309830372
 20
-25.1369532552
 10
-73.7550797441
 20
-25.183694556
 10
-73.6757884269
 20
-25.2245663794
 10
-73.5932495934
 20
-25.2593361316
 10
-73.5073227359
 20
-25.2882364065
 10
-73.4194635077
 20
-25.3108261459
 10
-73.3301571268
 20
-25.3269583304
 10
-73.2389183752
 20
-25.3367799793
 10
-73.1457472531
 20
-25.3402910927
  0
LINE
  5
2CB
100
AcDbEntity
  8
DRAFT
100
AcDbLine
 62
7
  6
CONTINUOUS
 10
-84.6945083551
 20
-24.6246759189
 11
-80.1445083551
 21
-24.5849686704
  0
LINE
  5
2CC
100
AcDbEntity
  8
DRAFT
100
AcDbLine
 62
7
  6
CONTINUOUS
 10
-80.1445083551
 20
-21.8113910596
 11
-84.6945083551
 21
-21.8355472945
  0
LINE
  5
2CD
100
AcDbEntity
  8
ASSI
100
AcDbLine
 62
7
  6
CONTINUOUS
 10
-74.3956407956
 20
-22.9881995293
 11
-71.7798440329
 21
-22.9881995293
  0
LINE
  5
2CE
100
AcDbEntity
  8
0
100
AcDbLine
 62
7
  6
CONTINUOUS
 10
-77.1445083551
 20
-22.5346096908
 11
-73.2188639895
 21
-22.5346096908
  0
LINE
  5
2CF
100
AcDbEntity
  8
0
100
AcDbLine
 62
7
  6
CONTINUOUS
 10
-77.1445083551
 20
-22.1665486908
 11
-74.386542538
 21
-22.1665486908
  0
LINE
  5
2D0
100
AcDbEntity
  8
0
100
AcDbLine
 62
250
  6
CONTINUOUS
 10
-78.9445083551
 20
-21.9127124694
 11
-77.1445083551
 21
-21.9127124694
  0
LINE
  5
2D1
100
AcDbEntity
  8
0
100
AcDbLine
 62
250
  6
CONTINUOUS
 10
-78.9445083551
 20
-21.6385087588
 11
-77.1445083551
 21
-21.6385087588
  0
LWPOLYLINE
  5
2D2
100
AcDbEntity
  8
0
100
AcDbPolyline
 62
7
  6
CONTINUOUS
 90
16
 70
0
 10
-75.1457472531
 20
-24.2854427157
 10
-75.1989305468
 20
-24.2828574074
 10
-75.2504333353
 20
-24.2757930363
 10
-75.3002556188
 20
-24.2642496026
 10
-75.348902697
 20
-24.2480041447
 10
-75.3958692701
 20
-24.227279624
 10
-75.439639439
 20
-24.2027449255
 10
-75.4801089692
 20
-24.174275685
 10
-75.5173820952
 20
-24.1419962666
 10
-75.5502556222
 20
-24.1069486468
 10
-75.5785859504
 20
-24.0690425454
 10
-75.6025166797
 20
-24.0283682426
 10
-75.6212754142
 20
-23.9862385563
 10
-75.6346934192
 20
-23.9426059645
 10
-75.6429394294
 20
-23.8975179892
 10
-75.6457472531
 20
-23.8524300139
  0
LWPOLYLINE
  5
2D3
100
AcDbEntity
  8
0
100
AcDbPolyline
 62
7
  6
CONTINUOUS
 90
16
 70
0
 10
-75.1457472531
 20
-23.419417312
 10
-75.0925639595
 20
-23.4220026203
 10
-75.0410611709
 20
-23.4290669914
 10
-74.9912388874
 20
-23.4406104251
 10
-74.9425918093
 20
-23.456855883
 10
-74.8956252362
 20
-23.4775804037
 10
-74.8518550672
 20
-23.5021151022
 10
-74.8113855371
 20
-23.5305843427
 10
-74.7741124111
 20
-23.5628637611
 10
-74.7412388841
 20
-23.5979113809
 10
-74.7129085558
 20
-23.6358174823
 10
-74.6889778266
 20
-23.6764917851
 10
-74.6702190921
 20
-23.7186214715
 10
-74.6568010871
 20
-23.7622540632
 10
-74.6485550769
 20
-23.8073420385
 10
-74.6457472531
 20
-23.8524300139
  0
LWPOLYLINE
  5
2D4
100
AcDbEntity
  8
0
100
AcDbPolyline
 62
7
  6
CONTINUOUS
 90
10
 70
0
 10
-73.1457472531
 20
-23.4407747603
 10
-73.1666393946
 20
-23.4369436843
 10
-73.1874888829
 20
-23.4334166355
 10
-73.2082957182
 20
-23.4301936139
 10
-73.2290415911
 20
-23.4272673186
 10
-73.2497448109
 20
-23.4246450505
 10
-73.2704603054
 20
-23.4223487121
 10
-73.2912063836
 20
-23.4203856041
 10
-73.3119647364
 20
-23.4187484257
 10
-73.3327353637
 20
-23.4174371769
  0
LINE
  5
2D5
100
AcDbEntity
  8
0
100
AcDbLine
 62
7
  6
CONTINUOUS
 10
-69.6185041158
 20
-24.917371071
 11
-65.8831221194
 21
-26.0947913762
  0
LINE
  5
2D6
100
AcDbEntity
  8
0
100
AcDbLine
 62
7
  6
CONTINUOUS
 10
-65.4828914612
 20
-26.220947069
 11
-63.1859332384
 21
-26.9449654571
  0
LWPOLYLINE
  5
2D7
100
AcDbEntity
  8
0
100
AcDbPolyline
 62
7
  6
CONTINUOUS
 90
9
 70
0
 10
-79.1008565246
 20
-25.5123170214
 10
-79.0834230316
 20
-25.5251713521
 10
-79.0636402933
 20
-25.5369273851
 10
-79.0412458542
 20
-25.5476876042
 10
-79.0165021699
 20
-25.5573495257
 10
-78.9901966072
 20
-25.5656056982
 10
-78.9625916218
 20
-25.572353638
 10
-78.9334247581
 20
-25.5776958288
 10
-78.902696016
 20
-25.5816322707
  0
LWPOLYLINE
  5
2D8
100
AcDbEntity
  8
0
100
AcDbPolyline
 62
7
  6
CONTINUOUS
 90
13
 70
0
 10
-80.0207154967
 20
-25.7113096313
 10
-79.9733553694
 20
-25.7567230866
 10
-79.9198690249
 20
-25.7996684228
 10
-79.8602564634
 20
-25.8401456401
 10
-79.7940881058
 20
-25.8783644105
 10
-79.7217935312
 20
-25.9141150618
 10
-79.6446614758
 20
-25.9467685783
 10
-79.562610579
 20
-25.9762728698
 10
-79.4757222015
 20
-26.0026800263
 10
-79.3855291615
 20
-26.0255173023
 10
-79.2925423986
 20
-26.044627116
 10
-79.1962509733
 20
-26.0601670491
 10
-79.0966548856
 20
-26.0721371017
  0
LINE
  5
2D9
100
AcDbEntity
  8
0
100
AcDbLine
 62
7
  6
CONTINUOUS
 10
-65.2831221194
 20
25.0360148011
 11
-68.6445083551
 21
23.9764807531
  0
LWPOLYLINE
  5
2DA
100
AcDbEntity
  8
0
100
AcDbPolyline
 62
7
  6
CONTINUOUS
 90
10
 70
0
 10
-79.0966548856
 20
-20.3468245411
 10
-79.0689396322
 20
-20.3442794202
 10
-79.0411185043
 20
-20.3421133124
 10
-79.0132045836
 20
-20.3403273019
 10
-78.9852110499
 20
-20.3389222821
 10
-78.9571510143
 20
-20.3378991
 10
-78.9290375121
 20
-20.3372585616
 10
-78.9008837112
 20
-20.3370012359
 10
-78.872702907
 20
-20.3371274489
 10
-78.8445083551
 20
-20.337637432
  0
LINE
  5
2DB
100
AcDbEntity
  8
DRAFT
100
AcDbLine
 62
7
  6
CONTINUOUS
 10
-68.6445083551
 20
-19.6153531827
 11
-84.6945083551
 21
-19.8376738724
  0
LINE
  5
2DC
100
AcDbEntity
  8
RACCORDO
100
AcDbLine
 62
250
  6
CONTINUOUS
 10
-84.6945083551
 20
-18.7774439706
 11
-68.6445083551
 21
-18.7564478791
  0
LINE
  5
2DD
100
AcDbEntity
  8
RACCORDO
100
AcDbLine
 62
7
  6
CONTINUOUS
 10
-84.6945083551
 20
-18.452049489
 11
-68.6445083551
 21
-18.4315932652
  0
LINE
  5
2DE
100
AcDbEntity
  8
0
100
AcDbLine
 62
250
  6
CONTINUOUS
 10
-77.2101773494
 20
-21.2765179083
 11
-78.9445083551
 21
-21.2765179083
  0
LINE
  5
2DF
100
AcDbEntity
  8
0
100
AcDbLine
 62
7
  6
CONTINUOUS
 10
-80.1445083551
 20
-21.0284421617
 11
-79.1445083551
 21
-21.0284421617
  0
LINE
  5
2E0
100
AcDbEntity
  8
0
100
AcDbLine
 62
250
  6
CONTINUOUS
 10
-78.1733625817
 20
-20.9729147289
 11
-78.9445083551
 21
-20.9729147289
  0
LINE
  5
2E1
100
AcDbEntity
  8
0
100
AcDbLine
 62
7
  6
CONTINUOUS
 10
-64.6445083551
 20
-19.4846096908
 11
-62.8445083551
 21
-19.4846096908
  0
LINE
  5
2E2
100
AcDbEntity
  8
0
100
AcDbLine
 62
7
  6
CONTINUOUS
 10
-68.6445083551
 20
-19.4026706908
 11
-64.6445083551
 21
-19.4026706908
  0
LINE
  5
2E3
100
AcDbEntity
  8
0
100
AcDbLine
 62
7
  6
CONTINUOUS
 10
-68.6445083551
 20
-19.0346096908
 11
-65.0125693551
 21
-19.0346096908
  0
LWPOLYLINE
  5
2E4
100
AcDbEntity
  8
0
100
AcDbPolyline
 62
7
  6
CONTINUOUS
 90
10
 70
0
 10
-78.8445083551
 20
-20.337637432
 10
-78.7804376172
 20
-20.341892162
 10
-78.7166875776
 20
-20.3479057714
 10
-78.6532582364
 20
-20.3556782601
 10
-78.5900850429
 20
-20.3652212355
 10
-78.5272325478
 20
-20.3765230903
 10
-78.4648944026
 20
-20.3895490029
 10
-78.4031351579
 20
-20.4042873662
 10
-78.3418902632
 20
-20.4207497873
 10
-78.2811597184
 20
-20.4389362663
  0
LWPOLYLINE
  5
2E5
100
AcDbEntity
  8
0
100
AcDbPolyline
 62
7
  6
CONTINUOUS
 90
10
 70
0
 10
-78.8445083551
 20
-20.837637432
 10
-78.8510287633
 20
-20.8370088913
 10
-78.8575420262
 20
-20.8365295687
 10
-78.8640450792
 20
-20.8361992817
 10
-78.870534245
 20
-20.836017981
 10
-78.8770071186
 20
-20.8359852385
 10
-78.883462555
 20
-20.8361003145
 10
-78.889898161
 20
-20.8363628108
 10
-78.8963103098
 20
-20.8367726022
 10
-78.902696016
 20
-20.8373293721
  0
LINE
  5
2E6
100
AcDbEntity
  8
0
100
AcDbLine
 62
7
  6
CONTINUOUS
 10
-80.0207154967
 20
-20.7076520115
 11
-79.1159407724
 21
-20.9205972499
  0
LWPOLYLINE
  5
2E7
100
AcDbEntity
  8
0
100
AcDbPolyline
 62
7
  6
CONTINUOUS
 90
10
 70
0
 10
-78.2811597184
 20
-20.9389362663
 10
-78.3418902632
 20
-20.9207497873
 10
-78.4031351579
 20
-20.9042873662
 10
-78.4648944026
 20
-20.8895490029
 10
-78.5272325478
 20
-20.8765230903
 10
-78.5900850429
 20
-20.8652212355
 10
-78.6532582364
 20
-20.8556782601
 10
-78.7166875776
 20
-20.8479057714
 10
-78.7804376172
 20
-20.841892162
 10
-78.8445083551
 20
-20.837637432
  0
LINE
  5
2E8
100
AcDbEntity
  8
0
100
AcDbLine
 62
7
  6
CONTINUOUS
 10
-65.4686789192
 20
-24.9775259119
 11
-78.2811597184
 21
-20.9389362663
  0
LINE
  5
2E9
100
AcDbEntity
  8
0
100
AcDbLine
 62
7
  6
CONTINUOUS
 10
-65.2831221194
 20
-24.5360148011
 11
-78.2811597184
 21
-20.4389362663
  0
LINE
  5
2EA
100
AcDbEntity
  8
0
100
AcDbLine
 62
7
  6
CONTINUOUS
 10
-75.518848664
 20
-22.5346096908
 11
-73.3327353637
 21
-23.4174371769
  0
LINE
  5
2EB
100
AcDbEntity
  8
0
100
AcDbLine
 62
7
  6
CONTINUOUS
 10
-72.1811531928
 20
-23.8824855314
 11
-69.6185041158
 21
-24.917371071
  0
LWPOLYLINE
  5
2EC
100
AcDbEntity
  8
0
100
AcDbPolyline
 62
250
  6
CONTINUOUS
 90
8
 70
0
 10
-79.0783344764
 20
-20.9284261077
 10
-79.0620654056
 20
-20.939835502
 10
-79.0445083551
 20
-20.9497096482
 10
-79.0258556837
 20
-20.9579403629
 10
-79.006311754
 20
-20.9644374689
 10
-78.9860906933
 20
-20.9691297824
 10
-78.9654140478
 20
-20.9719658934
 10
-78.9445083551
 20
-20.9729147289
  0
LINE
  5
2ED
100
AcDbEntity
  8
0
100
AcDbLine
 62
7
  6
CONTINUOUS
 10
-79.1159407724
 20
-25.4983643929
 11
-79.1008565246
 21
-25.5123170214
  0
LINE
  5
2EE
100
AcDbEntity
  8
0
100
AcDbLine
 62
250
  6
CONTINUOUS
 10
-79.1218596762
 20
-25.4916565257
 11
-79.1159407724
 21
-25.4983643929
  0
LWPOLYLINE
  5
2EF
100
AcDbEntity
  8
0
100
AcDbPolyline
 62
7
  6
CONTINUOUS
 90
10
 70
0
 43
0.3500000087
 10
-72.4552208252
 20
-50.5346181366
 10
-72.3837934021
 20
-50.6774751144
 10
-72.3837934021
 20
-50.7489046692
 10
-72.5266482483
 20
-50.891761647
 10
-72.5980756714
 20
-50.891761647
 10
-72.6695116211
 20
-50.8203320923
 10
-72.6695116211
 20
-50.7489046692
 10
-72.5980756714
 20
-50.6060476913
 10
-72.5266482483
 20
-50.5346181366
 10
-72.4552208252
 20
-50.5346181366
  0
LWPOLYLINE
  5
2F0
100
AcDbEntity
  8
0
100
AcDbPolyline
 62
7
  6
CONTINUOUS
 90
3
 70
0
 43
0.3500000087
 10
-73.8924237976
 20
60.7526281616
 10
-73.9638512207
 20
60.5383458923
 10
-74.1067145935
 20
60.2526276733
  0
LWPOLYLINE
  5
2F1
100
AcDbEntity
  8
0
100
AcDbPolyline
 62
7
  6
CONTINUOUS
 90
16
 70
0
 10
-63.1859332384
 20
22.1949654571
 10
-63.0666758612
 20
22.23749699
 10
-62.9530375968
 20
22.2875083033
 10
-62.8450184452
 20
22.3449993969
 10
-62.7418914179
 20
22.4105336438
 10
-62.6443835034
 20
22.4835476711
 10
-62.5546756674
 20
22.5623513597
 10
-62.4731360842
 20
22.6468036442
 10
-62.3993965794
 20
22.7370455901
 10
-62.334533596
 20
22.8318102749
 10
-62.2785104797
 20
22.9315650648
 10
-62.2313638849
 20
23.0358425936
 10
-62.194280218
 20
23.14197384
 10
-62.1675845769
 20
23.2495320395
 10
-62.1509518637
 20
23.3589439565
 10
-62.1445931918
 20
23.4688208635
  0
LINE
  5
2F2
100
AcDbEntity
  8
0
100
AcDbLine
 62
7
  6
CONTINUOUS
 10
-63.1859332384
 20
22.1949654571
 11
-63.5360384138
 21
22.0846096908
  0
LINE
  5
2F3
100
AcDbEntity
  8
DRAFT
100
AcDbLine
 62
7
  6
CONTINUOUS
 10
-68.6802215903
 20
-17.073088866
 11
-68.6445083551
 21
-17.0736125016
  0
LINE
  5
2F4
100
AcDbEntity
  8
0
100
AcDbLine
 62
7
  6
CONTINUOUS
 10
-63.1859332384
 20
-21.6949654571
 11
-69.6185041158
 21
-19.667371071
  0
LINE
  5
2F5
100
AcDbEntity
  8
0
100
AcDbLine
 62
7
  6
CONTINUOUS
 10
-69.6185041158
 20
-19.667371071
 11
-69.7107416655
 21
-19.6301223868
  0
LWPOLYLINE
  5
2F6
100
AcDbEntity
  8
0
100
AcDbPolyline
 62
7
  6
CONTINUOUS
 90
16
 70
0
 10
-72.1811531928
 20
-23.8824855314
 10
-72.2455536155
 20
-23.8360109228
 10
-72.3098485525
 20
-23.7922373096
 10
-72.3740380038
 20
-23.751164692
 10
-72.4380196199
 20
-23.7129775942
 10
-72.5018957502
 20
-23.6774914919
 10
-72.5659734436
 20
-23.6441528119
 10
-72.6303706995
 20
-23.6127880695
 10
-72.6949695185
 20
-23.5835707494
 10
-72.7597229508
 20
-23.5564677333
 10
-72.824824579
 20
-23.5313720195
 10
-72.8900808205
 20
-23.5083906096
 10
-72.9548639784
 20
-23.4878113901
 10
-73.0189648203
 20
-23.4697303231
 10
-73.0825925785
 20
-23.4540514465
 10
-73.1457472531
 20
-23.4407747603
  0
LWPOLYLINE
  5
2F7
100
AcDbEntity
  8
0
100
AcDbPolyline
 62
250
  6
CONTINUOUS
 90
3
 70
0
 10
-79.101210774
 20
-20.9069722951
 10
-79.0931373202
 20
-20.9156064689
 10
-79.0783344764
 20
-20.9284261077
  0
LWPOLYLINE
  5
2F8
100
AcDbEntity
  8
0
100
AcDbPolyline
 62
7
  6
CONTINUOUS
 90
6
 70
0
 10
-80.1197364875
 20
-25.5855231478
 10
-80.105879968
 20
-25.6116300858
 10
-80.0890089537
 20
-25.6373341605
 10
-80.0691587354
 20
-25.6625652569
 10
-80.0463767719
 20
-25.6872475171
 10
-80.0207154967
 20
-25.7113096313
  0
LINE
  5
2F9
100
AcDbEntity
  8
DRAFT
100
AcDbLine
 62
7
  6
CONTINUOUS
 10
-68.6445083551
 20
17.1492255823
 11
-76.6445083551
 21
13.1841330535
  0
LINE
  5
2FA
100
AcDbEntity
  8
DRAFT
100
AcDbLine
 62
7
  6
CONTINUOUS
 10
-83.7731840124
 20
-12.7145706768
 11
-84.6945083551
 21
-12.7183735396
  0
LINE
  5
2FB
100
AcDbEntity
  8
RACCORDO
100
AcDbLine
 62
250
  6
CONTINUOUS
 10
-68.6445083551
 20
-14.0763440869
 11
-76.6445083551
 21
-13.9809751021
  0
LINE
  5
2FC
100
AcDbEntity
  8
RACCORDO
100
AcDbLine
 62
7
  6
CONTINUOUS
 10
-68.6445083551
 20
-13.5763580245
 11
-76.6445083551
 21
-13.4809890397
  0
LINE
  5
2FD
100
AcDbEntity
  8
DRAFT
100
AcDbLine
 62
7
  6
CONTINUOUS
 10
-68.6445083551
 20
-17.0824640693
 11
-68.6802215903
 21
-17.073088866
  0
LINE
  5
2FE
100
AcDbEntity
  8
RACCORDO
100
AcDbLine
 62
250
  6
CONTINUOUS
 10
-86.7881033937
 20
43.5749736715
 11
-86.7881033937
 21
-43.5749736715
  0
LINE
  5
2FF
100
AcDbEntity
  8
RACCORDO
100
AcDbLine
 62
250
  6
CONTINUOUS
 10
-85.3435745143
 20
44.9773341103
 11
-85.3435745143
 21
-44.9773341103
  0
LINE
  5
300
100
AcDbEntity
  8
DRAFT
100
AcDbLine
 62
7
  6
CONTINUOUS
 10
-84.6945083551
 20
-45.0000046679
 11
-84.6945083551
 21
45.0000046679
  0
LINE
  5
301
100
AcDbEntity
  8
DRAFT
100
AcDbLine
 62
7
  6
CONTINUOUS
 10
-68.6445083551
 20
16.6257651653
 11
-76.6445083551
 21
12.5908576941
  0
LINE
  5
302
100
AcDbEntity
  8
DRAFT
100
AcDbLine
 62
7
  6
CONTINUOUS
 10
-84.6945083551
 20
-12.9661596618
 11
-83.7731840124
 21
-12.7145706768
  0
LINE
  5
303
100
AcDbEntity
  8
DRAFT
100
AcDbLine
 62
7
  6
CONTINUOUS
 10
-76.6445083551
 20
-12.5908576941
 11
-74.8369233323
 21
-13.5025374833
  0
LINE
  5
304
100
AcDbEntity
  8
0
100
AcDbLine
 62
250
  6
CONTINUOUS
 10
-79.0966548856
 20
-20.3468245411
 11
-78.902696016
 21
-20.8373293721
  0
LWPOLYLINE
  5
305
100
AcDbEntity
  8
0
100
AcDbPolyline
 62
7
  6
CONTINUOUS
 90
5
 70
0
 10
-80.1445083551
 20
-25.4784421617
 10
-80.1429545597
 20
-25.5054594195
 10
-80.1382979736
 20
-25.5323629476
 10
-80.1305513492
 20
-25.5590770811
 10
-80.1197364875
 20
-25.5855231478
  0
LINE
  5
306
100
AcDbEntity
  8
DRAFT
100
AcDbLine
 62
7
  6
CONTINUOUS
 10
-84.0445083551
 20
-28.0169234373
 11
-84.0445083551
 21
-29.5651666667
  0
LINE
  5
307
100
AcDbEntity
  8
DRAFT
100
AcDbLine
 62
7
  6
CONTINUOUS
 10
-84.0445083551
 20
28.0169234373
 11
-84.0445083551
 21
29.5651666667
  0
LINE
  5
308
100
AcDbEntity
  8
DRAFT
100
AcDbLine
 62
7
  6
CONTINUOUS
 10
-83.7731840124
 20
-13.8491574825
 11
-83.7731840124
 21
-12.7145706768
  0
LINE
  5
309
100
AcDbEntity
  8
DRAFT
100
AcDbLine
 62
7
  6
CONTINUOUS
 10
-83.7731840124
 20
13.0286946053
 11
-83.7731840124
 21
14.154595581
  0
LINE
  5
30A
100
AcDbEntity
  8
DRAFT
100
AcDbLine
 62
7
  6
CONTINUOUS
 10
-83.7731840124
 20
20.2851443033
 11
-83.7731840124
 21
21.1173883286
  0
LINE
  5
30B
100
AcDbEntity
  8
DRAFT
100
AcDbLine
 62
7
  6
CONTINUOUS
 10
-83.7731840124
 20
25.0949062214
 11
-83.7731840124
 21
25.5331123843
  0
LINE
  5
30C
100
AcDbEntity
  8
DRAFT
100
AcDbLine
 62
7
  6
CONTINUOUS
 10
-83.6445083551
 20
4.9668353766
 11
-83.6445083551
 21
-4.9668353766
  0
LINE
  5
30D
100
AcDbEntity
  8
DRAFT
100
AcDbLine
 62
7
  6
CONTINUOUS
 10
-82.5445083551
 20
-29.5651666667
 11
-82.5445083551
 21
-26.6492169493
  0
LINE
  5
30E
100
AcDbEntity
  8
DRAFT
100
AcDbLine
 62
7
  6
CONTINUOUS
 10
-82.5445083551
 20
26.6492169493
 11
-82.5445083551
 21
29.5651666667
  0
LINE
  5
30F
100
AcDbEntity
  8
0
100
AcDbLine
 62
7
  6
CONTINUOUS
 10
-64.6445083551
 20
19.4026706908
 11
-65.0125693551
 21
19.0346096908
  0
LINE
  5
310
100
AcDbEntity
  8
DRAFT
100
AcDbLine
 62
7
  6
CONTINUOUS
 10
-76.6445083551
 20
-8.0924061537
 11
-84.6945083551
 21
-8.1032495429
  0
LINE
  5
311
100
AcDbEntity
  8
0
100
AcDbLine
 62
7
  6
CONTINUOUS
 10
-64.6445083551
 20
-19.4026706908
 11
-65.0125693551
 21
-19.0346096908
  0
LWPOLYLINE
  5
312
100
AcDbEntity
  8
0
100
AcDbPolyline
 62
250
  6
CONTINUOUS
 90
16
 70
0
 10
-79.1445083551
 20
-21.5867449497
 10
-79.1434127342
 20
-21.5921557411
 10
-79.1401378752
 20
-21.5975072508
 10
-79.1347196584
 20
-21.6027408464
 10
-79.1272174466
 20
-21.6077991876
 10
-79.1177134359
 20
-21.6126268542
 10
-79.106311754
 20
-21.6171709533
 10
-79.0931373202
 20
-21.6213816987
 10
-79.0783344764
 20
-21.6252129566
 10
-79.0620654056
 20
-21.6286227509
 10
-79.0445083551
 20
-21.6315737233
 10
-79.0258556837
 20
-21.6340335423
 10
-79.006311754
 20
-21.6359752576
 10
-78.9860906933
 20
-21.6373775953
 10
-78.9654140478
 20
-21.6382251912
 10
-78.9445083551
 20
-21.6385087588
  0
LWPOLYLINE
  5
313
100
AcDbEntity
  8
0
100
AcDbPolyline
 62
250
  6
CONTINUOUS
 90
16
 70
0
 10
-79.1445083551
 20
-21.2247540993
 10
-79.1434127153
 20
-21.2301649371
 10
-79.1401378065
 20
-21.2355164841
 10
-79.1347195189
 20
-21.2407501071
 10
-79.1272172266
 20
-21.2458084651
 10
-79.1177131356
 20
-21.2506361384
 10
-79.1063113815
 20
-21.2551802356
 10
-79.093136892
 20
-21.2593909713
 10
-79.0783340158
 20
-21.2632222135
 10
-79.0620649368
 20
-21.2666319887
 10
-79.0445079062
 20
-21.26958294
 10
-79.0258552844
 20
-21.272042738
 10
-79.006311427
 20
-21.2739844347
 10
-78.9860904573
 20
-21.275386758
 10
-78.9654139218
 20
-21.2762343443
 10
-78.9445083551
 20
-21.2765179084
  0
LWPOLYLINE
  5
314
100
AcDbEntity
  8
0
100
AcDbPolyline
 62
250
  6
CONTINUOUS
 90
15
 70
0
 10
-79.1434127342
 20
-24.6213678997
 10
-79.1401378752
 20
-24.6392744
 10
-79.1347196584
 20
-24.6567863522
 10
-79.1272174466
 20
-24.6737118919
 10
-79.1177134359
 20
-24.6898655792
 10
-79.106311754
 20
-24.7050704309
 10
-79.0931373202
 20
-24.7191598595
 10
-79.0783344764
 20
-24.7319794983
 10
-79.0620654056
 20
-24.7433888926
 10
-79.0445083551
 20
-24.7532630388
 10
-79.0258556837
 20
-24.7614937535
 10
-79.006311754
 20
-24.7679908595
 10
-78.9860906933
 20
-24.772683173
 10
-78.9654140478
 20
-24.775519284
 10
-78.9445083551
 20
-24.7764681195
  0
LWPOLYLINE
  5
315
100
AcDbEntity
  8
0
100
AcDbPolyline
 62
250
  6
CONTINUOUS
 90
15
 70
0
 10
-79.1434127343
 20
-24.4376608997
 10
-79.1401378759
 20
-24.456575432
 10
-79.1347196596
 20
-24.4750732058
 10
-79.1272174486
 20
-24.4929515556
 10
-79.1177134386
 20
-24.5100146025
 10
-79.1063117573
 20
-24.5260754002
 10
-79.093137324
 20
-24.5409579831
 10
-79.0783344805
 20
-24.5544992945
 10
-79.0620654097
 20
-24.5665509728
 10
-79.044508359
 20
-24.5769809774
 10
-79.0258556872
 20
-24.5856750348
 10
-79.0063117568
 20
-24.5925378911
 10
-78.9860906953
 20
-24.5974943554
 10
-78.9654140488
 20
-24.6004901234
 10
-78.9445083551
 20
-24.6014923731
  0
LWPOLYLINE
  5
316
100
AcDbEntity
  8
0
100
AcDbPolyline
 62
7
  6
CONTINUOUS
 90
10
 70
0
 10
-79.1445083551
 20
-25.4784421617
 10
-79.1441510434
 20
-25.4810161809
 10
-79.1430795552
 20
-25.4835404066
 10
-79.1412958392
 20
-25.4859974094
 10
-79.1388038616
 20
-25.4883697258
 10
-79.1356088109
 20
-25.4906401802
 10
-79.1317163161
 20
-25.4927918408
 10
-79.1271338634
 20
-25.4948076924
 10
-79.1218715569
 20
-25.4966707644
 10
-79.1159407724
 20
-25.4983643929
  0
LWPOLYLINE
  5
317
100
AcDbEntity
  8
0
100
AcDbPolyline
 62
250
  6
CONTINUOUS
 90
16
 70
0
 10
-79.1445083551
 20
-21.7512671761
 10
-79.1434127529
 20
-21.7681426607
 10
-79.1401379444
 20
-21.7848332777
 10
-79.1347198005
 20
-21.8011561629
 10
-79.1272176752
 20
-21.8169324792
 10
-79.1177137547
 20
-21.8319893778
 10
-79.1063121564
 20
-21.8461618924
 10
-79.0931377888
 20
-21.859294744
 10
-79.078334987
 20
-21.8712440403
 10
-79.0620659306
 20
-21.8818788551
 10
-79.0445088607
 20
-21.8910826667
 10
-79.0258561347
 20
-21.8987546292
 10
-79.0063121242
 20
-21.9048106779
 10
-78.9860909612
 20
-21.909184457
 10
-78.9654141911
 20
-21.9118280434
 10
-78.9445083551
 20
-21.9127124696
  0
LINE
  5
318
100
AcDbEntity
  8
0
100
AcDbLine
 62
250
  6
CONTINUOUS
 10
-79.1445083551
 20
-24.6032630388
 11
-79.1434127342
 21
-24.6213678997
  0
LINE
  5
319
100
AcDbEntity
  8
0
100
AcDbLine
 62
250
  6
CONTINUOUS
 10
-79.1445083551
 20
-24.4185368406
 11
-79.1434127343
 21
-24.4376608997
  0
LWPOLYLINE
  5
31A
100
AcDbEntity
  8
0
100
AcDbPolyline
 62
250
  6
CONTINUOUS
 90
9
 70
0
 10
-79.1445083551
 20
-25.4344808214
 10
-79.1441499962
 20
-25.4418103325
 10
-79.1430757756
 20
-25.449122333
 10
-79.1412882596
 20
-25.456399354
 10
-79.1387917188
 20
-25.4636240103
 10
-79.1355921176
 20
-25.4707790418
 10
-79.1316970999
 20
-25.4778473547
 10
-79.1271159713
 20
-25.4848120624
 10
-79.1218596762
 20
-25.4916565257
  0
LINE
  5
31B
100
AcDbEntity
  8
DRAFT
100
AcDbLine
 62
7
  6
CONTINUOUS
 10
-80.1445083551
 20
-25.6650906241
 11
-80.1445083551
 21
-25.5518057287
  0
LINE
  5
31C
100
AcDbEntity
  8
DRAFT
100
AcDbLine
 62
7
  6
CONTINUOUS
 10
-80.1445083551
 20
-20.7061519691
 11
-80.1445083551
 21
-19.774648381
  0
LINE
  5
31D
100
AcDbEntity
  8
0
100
AcDbLine
 62
7
  6
CONTINUOUS
 10
-80.1445083551
 20
-20.7061519691
 11
-80.1445083551
 21
-20.9844808214
  0
LINE
  5
31E
100
AcDbEntity
  8
0
100
AcDbLine
 62
7
  6
CONTINUOUS
 10
-80.1445083551
 20
-21.0284421617
 11
-80.1445083551
 21
-22.4655385471
  0
LINE
  5
31F
100
AcDbEntity
  8
DRAFT
100
AcDbLine
 62
7
  6
CONTINUOUS
 10
-80.1445083551
 20
-22.4655385471
 11
-80.1445083551
 21
-24.5849235405
  0
LINE
  5
320
100
AcDbEntity
  8
0
100
AcDbLine
 62
7
  6
CONTINUOUS
 10
-80.1445083551
 20
-24.5849686704
 11
-80.1445083551
 21
-25.4784421617
  0
LINE
  5
321
100
AcDbEntity
  8
0
100
AcDbLine
 62
7
  6
CONTINUOUS
 10
-79.1445083551
 20
-21.0284421617
 11
-79.1445083551
 21
-25.4784421617
  0
LINE
  5
322
100
AcDbEntity
  8
0
100
AcDbLine
 62
250
  6
CONTINUOUS
 10
-78.9445083551
 20
-24.8434554176
 11
-78.9445083551
 21
-20.8432958811
  0
LINE
  5
323
100
AcDbEntity
  8
0
100
AcDbLine
 62
7
  6
CONTINUOUS
 10
-78.8445083551
 20
-26.087637432
 11
-78.8445083551
 21
-25.587637432
  0
LINE
  5
324
100
AcDbEntity
  8
0
100
AcDbLine
 62
7
  6
CONTINUOUS
 10
-78.8445083551
 20
-20.337637432
 11
-78.8445083551
 21
-20.837637432
  0
LINE
  5
325
100
AcDbEntity
  8
0
100
AcDbLine
 62
250
  6
CONTINUOUS
 10
-78.8445083551
 20
-19.7566410977
 11
-78.8445083551
 21
-20.337637432
  0
LINE
  5
326
100
AcDbEntity
  8
0
100
AcDbLine
 62
250
  6
CONTINUOUS
 10
-78.8445083551
 20
-24.8434554176
 11
-78.8445083551
 21
-25.587637432
  0
LINE
  5
327
100
AcDbEntity
  8
0
100
AcDbLine
 62
250
  6
CONTINUOUS
 10
-78.2811597184
 20
-26.1889362663
 11
-78.2811597184
 21
-25.6889362663
  0
LINE
  5
328
100
AcDbEntity
  8
0
100
AcDbLine
 62
250
  6
CONTINUOUS
 10
-78.2811597184
 20
-20.4389362663
 11
-78.2811597184
 21
-20.9389362663
  0
LINE
  5
329
100
AcDbEntity
  8
0
100
AcDbLine
 62
7
  6
CONTINUOUS
 10
-79.1441510434
 20
-21.0163785799
 11
-79.1445083551
 21
-21.0284421617
  0
LWPOLYLINE
  5
32A
100
AcDbEntity
  8
0
100
AcDbPolyline
 62
250
  6
CONTINUOUS
 90
10
 70
0
 10
-80.1445083551
 20
-20.9844808214
 10
-80.1429554664
 20
-20.9527196067
 10
-80.1383005104
 20
-20.9210342715
 10
-80.130554608
 20
-20.8895005138
 10
-80.1197362646
 20
-20.8581936697
 10
-80.1058713259
 20
-20.8271885331
 10
-80.0889929161
 20
-20.7965591772
 10
-80.0691413586
 20
-20.7663787772
 10
-80.0463640801
 20
-20.736719436
 10
-80.0207154967
 20
-20.7076520115
  0
LINE
  5
32B
100
AcDbEntity
  8
DRAFT
100
AcDbLine
 62
7
  6
CONTINUOUS
 10
-83.6445083551
 20
-4.9668353766
 11
-84.6945083551
 21
-4.9851631948
  0
LINE
  5
32C
100
AcDbEntity
  8
0
100
AcDbLine
 62
7
  6
CONTINUOUS
 10
-77.1445083551
 20
-21.2972172658
 11
-77.1445083551
 21
-24.8434544462
  0
LINE
  5
32D
100
AcDbEntity
  8
DRAFT
100
AcDbLine
 62
7
  6
CONTINUOUS
 10
-76.6445083551
 20
-26.7048210003
 11
-76.6445083551
 21
-26.8197502629
  0
LINE
  5
32E
100
AcDbEntity
  8
DRAFT
100
AcDbLine
 62
7
  6
CONTINUOUS
 10
-76.6445083551
 20
-16.3813140928
 11
-76.6445083551
 21
26.819750263
  0
LWPOLYLINE
  5
32F
100
AcDbEntity
  8
0
100
AcDbPolyline
 62
7
  6
CONTINUOUS
 90
3
 70
0
 10
-80.138297974
 20
-20.9554439875
 10
-80.1429545599
 20
-20.9919184604
 10
-80.1445083551
 20
-21.0284421617
  0
LWPOLYLINE
  5
330
100
AcDbEntity
  8
0
100
AcDbPolyline
 62
7
  6
CONTINUOUS
 90
16
 70
0
 10
-75.6457472531
 20
-23.8524300139
 10
-75.6429394294
 20
-23.8073420385
 10
-75.6346934192
 20
-23.7622540632
 10
-75.6212754142
 20
-23.7186214715
 10
-75.6025166797
 20
-23.6764917851
 10
-75.5785859504
 20
-23.6358174823
 10
-75.5502556222
 20
-23.5979113809
 10
-75.5173820952
 20
-23.5628637611
 10
-75.4801089692
 20
-23.5305843427
 10
-75.439639439
 20
-23.5021151022
 10
-75.3958692701
 20
-23.4775804037
 10
-75.348902697
 20
-23.456855883
 10
-75.3002556188
 20
-23.4406104251
 10
-75.2504333353
 20
-23.4290669914
 10
-75.1989305468
 20
-23.4220026203
 10
-75.1457472531
 20
-23.419417312
  0
LWPOLYLINE
  5
331
100
AcDbEntity
  8
0
100
AcDbPolyline
 62
7
  6
CONTINUOUS
 90
16
 70
0
 10
-74.6457472531
 20
-23.8524300139
 10
-74.6485550769
 20
-23.8975179892
 10
-74.6568010871
 20
-23.9426059645
 10
-74.6702190921
 20
-23.9862385563
 10
-74.6889778266
 20
-24.0283682426
 10
-74.7129085558
 20
-24.0690425454
 10
-74.7412388841
 20
-24.1069486468
 10
-74.7741124111
 20
-24.1419962666
 10
-74.8113855371
 20
-24.174275685
 10
-74.8518550672
 20
-24.2027449255
 10
-74.8956252362
 20
-24.227279624
 10
-74.9425918093
 20
-24.2480041447
 10
-74.9912388874
 20
-24.2642496026
 10
-75.0410611709
 20
-24.2757930363
 10
-75.0925639595
 20
-24.2828574074
 10
-75.1457472531
 20
-24.2854427157
  0
LINE
  5
332
100
AcDbEntity
  8
RACCORDO
100
AcDbLine
 62
7
  6
CONTINUOUS
 10
-68.6445083551
 20
24.6470729186
 11
-68.6445083551
 21
17.2588120757
  0
LINE
  5
333
100
AcDbEntity
  8
RACCORDO
100
AcDbLine
 62
7
  6
CONTINUOUS
 10
-68.6445083551
 20
16.6257651653
 11
-68.6445083551
 21
13.5763854812
  0
LINE
  5
334
100
AcDbEntity
  8
RACCORDO
100
AcDbLine
 62
7
  6
CONTINUOUS
 10
-68.6445083551
 20
-13.5763854812
 11
-68.6445083551
 21
-17.0736125016
  0
LINE
  5
335
100
AcDbEntity
  8
RACCORDO
100
AcDbLine
 62
7
  6
CONTINUOUS
 10
-68.6445083551
 20
-18.4315932652
 11
-68.6445083551
 21
-19.6153531827
  0
LINE
  5
336
100
AcDbEntity
  8
DRAFT
100
AcDbLine
 62
7
  6
CONTINUOUS
 10
-68.6445083551
 20
-18.4402542156
 11
-68.6445083551
 21
-17.0736125016
  0
LINE
  5
337
100
AcDbEntity
  8
DRAFT
100
AcDbLine
 62
7
  6
CONTINUOUS
 10
-68.6445083551
 20
-23.9764807531
 11
-68.6445083551
 21
-25.2243818097
  0
LINE
  5
338
100
AcDbEntity
  8
DRAFT
100
AcDbLine
 62
7
  6
CONTINUOUS
 10
-68.6445083551
 20
16.6257651653
 11
-68.6445083551
 21
17.2588120757
  0
LINE
  5
339
100
AcDbEntity
  8
DRAFT
100
AcDbLine
 62
7
  6
CONTINUOUS
 10
-68.6445083551
 20
24.6444596922
 11
-68.6445083551
 21
26.0022498385
  0
LINE
  5
33A
100
AcDbEntity
  8
RACCORDO
100
AcDbLine
 62
7
  6
CONTINUOUS
 10
-68.6445083551
 20
26.0022498385
 11
-68.6445083551
 21
26.0604752122
  0
LINE
  5
33B
100
AcDbEntity
  8
0
100
AcDbLine
 62
250
  6
CONTINUOUS
 10
-79.0966548856
 20
-26.0721371017
 11
-78.902696016
 21
-25.5816322707
  0
LWPOLYLINE
  5
33C
100
AcDbEntity
  8
0
100
AcDbPolyline
 62
7
  6
CONTINUOUS
 90
8
 70
0
 10
-79.1218715571
 20
-20.932348176
 10
-79.1271338637
 20
-20.9441954569
 10
-79.1317163165
 20
-20.9561224289
 10
-79.1356088112
 20
-20.968110707
 10
-79.1388038618
 20
-20.9801446904
 10
-79.1412958394
 20
-20.9922116905
 10
-79.1430795552
 20
-21.0042959464
 10
-79.1441510434
 20
-21.0163785799
  0
LINE
  5
33D
100
AcDbEntity
  8
0
100
AcDbLine
 62
7
  6
CONTINUOUS
 10
-79.1159407724
 20
-20.9205972499
 11
-79.1218715571
 21
-20.932348176
  0
LINE
  5
33E
100
AcDbEntity
  8
DRAFT
100
AcDbLine
 62
7
  6
CONTINUOUS
 10
-83.6445083551
 20
4.9668353766
 11
-84.6945083551
 21
4.9851631948
  0
LINE
  5
33F
100
AcDbEntity
  8
0
100
AcDbLine
 62
7
  6
CONTINUOUS
 10
-65.8831221194
 20
26.0947913762
 11
-65.8831221194
 21
25.963645946
  0
LINE
  5
340
100
AcDbEntity
  8
0
100
AcDbLine
 62
7
  6
CONTINUOUS
 10
-65.8831221194
 20
-26.463645946
 11
-65.8831221194
 21
-25.963645946
  0
LINE
  5
341
100
AcDbEntity
  8
0
100
AcDbLine
 62
7
  6
CONTINUOUS
 10
-65.8831221194
 20
-31.213645946
 11
-65.8831221194
 21
-31.713645946
  0
LINE
  5
342
100
AcDbEntity
  8
0
100
AcDbLine
 62
7
  6
CONTINUOUS
 10
-65.8831221194
 20
31.213645946
 11
-65.8831221194
 21
31.713645946
  0
LWPOLYLINE
  5
343
100
AcDbEntity
  8
0
100
AcDbPolyline
 62
7
  6
CONTINUOUS
 90
8
 70
0
 10
-80.0207154967
 20
-20.7076520115
 10
-80.0463767728
 20
-20.7417555319
 10
-80.0691587368
 20
-20.7764099588
 10
-80.0890089553
 20
-20.8115439826
 10
-80.1058799694
 20
-20.847080166
 10
-80.1197364887
 20
-20.8829499732
 10
-80.13055135
 20
-20.9190944078
 10
-80.138297974
 20
-20.9554439875
  0
LINE
  5
344
100
AcDbEntity
  8
DRAFT
100
AcDbLine
 62
7
  6
CONTINUOUS
 10
-84.6945083551
 20
8.1032495429
 11
-76.6445083551
 21
8.0924061537
  0
LWPOLYLINE
  5
345
100
AcDbEntity
  8
0
100
AcDbPolyline
 62
7
  6
CONTINUOUS
 90
16
 70
0
 10
-62.1445931918
 20
-28.2188208635
 10
-62.1509518637
 20
-28.1089439565
 10
-62.1675845769
 20
-27.9995320395
 10
-62.194280218
 20
-27.89197384
 10
-62.2313638849
 20
-27.7858425936
 10
-62.2785104797
 20
-27.6815650648
 10
-62.334533596
 20
-27.5818102749
 10
-62.3993965794
 20
-27.4870455901
 10
-62.4731360842
 20
-27.3968036442
 10
-62.5546756674
 20
-27.3123513597
 10
-62.6443835034
 20
-27.2335476711
 10
-62.7418914179
 20
-27.1605336438
 10
-62.8450184452
 20
-27.0949993969
 10
-62.9530375968
 20
-27.0375083033
 10
-63.0666758612
 20
-26.98749699
 10
-63.1859332384
 20
-26.9449654571
  0
LINE
  5
346
100
AcDbEntity
  8
0
100
AcDbLine
 62
7
  6
CONTINUOUS
 10
-65.0125693551
 20
22.5346096908
 11
-65.0125693551
 21
19.0346096908
  0
LINE
  5
347
100
AcDbEntity
  8
0
100
AcDbLine
 62
7
  6
CONTINUOUS
 10
-65.0125693551
 20
-19.0346096908
 11
-65.0125693551
 21
-21.1191961098
  0
LINE
  5
348
100
AcDbEntity
  8
0
100
AcDbLine
 62
7
  6
CONTINUOUS
 10
-64.6445083551
 20
22.1665486908
 11
-64.6445083551
 21
19.4026706908
  0
LINE
  5
349
100
AcDbEntity
  8
0
100
AcDbLine
 62
7
  6
CONTINUOUS
 10
-64.6445083551
 20
-19.4026706908
 11
-64.6445083551
 21
-21.2352116861
  0
LINE
  5
34A
100
AcDbEntity
  8
0
100
AcDbLine
 62
250
  6
CONTINUOUS
 10
-63.1859332384
 20
27.4449654571
 11
-63.1859332384
 21
26.9449654571
  0
LINE
  5
34B
100
AcDbEntity
  8
0
100
AcDbLine
 62
250
  6
CONTINUOUS
 10
-63.1859332384
 20
22.1949654571
 11
-63.1859332384
 21
22.0846096908
  0
LINE
  5
34C
100
AcDbEntity
  8
0
100
AcDbLine
 62
250
  6
CONTINUOUS
 10
-62.8445083551
 20
-19.4846096908
 11
-62.8445083551
 21
-21.8453235445
  0
LINE
  5
34D
100
AcDbEntity
  8
0
100
AcDbLine
 62
250
  6
CONTINUOUS
 10
-62.8445083551
 20
19.4846096908
 11
-62.8445083551
 21
22.0846096908
  0
LINE
  5
34E
100
AcDbEntity
  8
0
100
AcDbLine
 62
250
  6
CONTINUOUS
 10
-62.8194349589
 20
-29.855833662
 11
-62.8194349589
 21
-29.355833662
  0
LINE
  5
34F
100
AcDbEntity
  8
0
100
AcDbLine
 62
250
  6
CONTINUOUS
 10
-62.8194349589
 20
-24.605833662
 11
-62.8194349589
 21
-24.105833662
  0
LINE
  5
350
100
AcDbEntity
  8
0
100
AcDbLine
 62
7
  6
CONTINUOUS
 10
-62.6445083551
 20
21.8846096908
 11
-62.6445083551
 21
19.6846096908
  0
LINE
  5
351
100
AcDbEntity
  8
0
100
AcDbLine
 62
7
  6
CONTINUOUS
 10
-62.6445083551
 20
-19.6846096908
 11
-62.6445083551
 21
-21.8846096908
  0
LWPOLYLINE
  5
352
100
AcDbEntity
  8
0
100
AcDbPolyline
 62
7
  6
CONTINUOUS
 90
13
 70
0
 10
-80.0207154967
 20
-20.7076520115
 10
-79.9733553694
 20
-20.6622385563
 10
-79.9198690249
 20
-20.61929322
 10
-79.8602564634
 20
-20.5788160027
 10
-79.7940881058
 20
-20.5405972324
 10
-79.7217935312
 20
-20.504846581
 10
-79.6446614758
 20
-20.4721930645
 10
-79.562610579
 20
-20.4426887731
 10
-79.4757222015
 20
-20.4162816165
 10
-79.3855291615
 20
-20.3934443405
 10
-79.2925423986
 20
-20.3743345269
 10
-79.1962509733
 20
-20.3587945938
 10
-79.0966548856
 20
-20.3468245411
  0
LWPOLYLINE
  5
353
100
AcDbEntity
  8
0
100
AcDbPolyline
 62
7
  6
CONTINUOUS
 90
10
 70
0
 10
-79.1159407724
 20
-20.9205972499
 10
-79.1008565246
 20
-20.9066446215
 10
-79.0834230316
 20
-20.8937902908
 10
-79.0636402933
 20
-20.8820342577
 10
-79.0412458542
 20
-20.8712740386
 10
-79.0165021699
 20
-20.8616121172
 10
-78.9901966072
 20
-20.8533559447
 10
-78.9625916218
 20
-20.8466080049
 10
-78.9334247581
 20
-20.841265814
 10
-78.902696016
 20
-20.8373293721
  0
LINE
  5
354
100
AcDbEntity
  8
DRAFT
100
AcDbLine
 62
7
  6
CONTINUOUS
 10
-84.6945083551
 20
-14.1231970519
 11
-83.7731840124
 21
-13.8491574825
  0
LINE
  5
355
100
AcDbEntity
  8
DRAFT
100
AcDbLine
 62
7
  6
CONTINUOUS
 10
-84.6945083551
 20
13.2864993031
 11
-83.7731840124
 21
13.0286946053
  0
LINE
  5
356
100
AcDbEntity
  8
DRAFT
100
AcDbLine
 62
7
  6
CONTINUOUS
 10
-84.6945083551
 20
14.4346789928
 11
-83.7731840124
 21
14.154595581
  0
LWPOLYLINE
  5
357
100
AcDbEntity
  8
0
100
AcDbPolyline
 62
7
  6
CONTINUOUS
 90
13
 70
0
 10
-62.1445329766
 20
23.4830126863
 10
-62.1486950392
 20
23.5796478519
 10
-62.1630709279
 20
23.6909398302
 10
-62.1873725369
 20
23.799852796
 10
-62.221704137
 20
23.9059270925
 10
-62.2659614573
 20
24.0096223765
 10
-62.3194833644
 20
24.1094736168
 10
-62.3825833285
 20
24.2056995962
 10
-62.4549478794
 20
24.2980815319
 10
-62.5349754724
 20
24.3844980443
 10
-62.6221322591
 20
24.4642420068
 10
-62.716952088
 20
24.5380205461
 10
-62.8194349589
 20
24.605833662
  0
LWPOLYLINE
  5
358
100
AcDbEntity
  8
0
100
AcDbPolyline
 62
7
  6
CONTINUOUS
 90
13
 70
0
 10
-62.1445329766
 20
28.7330126863
 10
-62.1486950392
 20
28.8296478519
 10
-62.1630709279
 20
28.9409398302
 10
-62.1873725369
 20
29.049852796
 10
-62.221704137
 20
29.1559270925
 10
-62.2659614573
 20
29.2596223765
 10
-62.3194833644
 20
29.3594736168
 10
-62.3825833285
 20
29.4556995962
 10
-62.4549478794
 20
29.5480815319
 10
-62.5349754724
 20
29.6344980443
 10
-62.6221322591
 20
29.7142420068
 10
-62.716952088
 20
29.7880205461
 10
-62.8194349589
 20
29.855833662
  0
LWPOLYLINE
  5
359
100
AcDbEntity
  8
0
100
AcDbPolyline
 62
7
  6
CONTINUOUS
 90
17
 70
0
 10
-62.1445329766
 20
-22.9830126863
 10
-62.1445931918
 20
-22.9688208635
 10
-62.1509518637
 20
-22.8589439565
 10
-62.1675845769
 20
-22.7495320395
 10
-62.194280218
 20
-22.64197384
 10
-62.2313638849
 20
-22.5358425936
 10
-62.2785104797
 20
-22.4315650648
 10
-62.334533596
 20
-22.3318102749
 10
-62.3993965794
 20
-22.2370455901
 10
-62.4731360842
 20
-22.1468036442
 10
-62.5546756674
 20
-22.0623513597
 10
-62.6443835034
 20
-21.9835476711
 10
-62.7418914179
 20
-21.9105336438
 10
-62.8450184452
 20
-21.8449993969
 10
-62.9530375968
 20
-21.7875083033
 10
-63.0666758612
 20
-21.73749699
 10
-63.1859332384
 20
-21.6949654571
  0
LINE
  5
35A
100
AcDbEntity
  8
0
100
AcDbLine
 62
7
  6
CONTINUOUS
 10
-62.1445083551
 20
23.4830127229
 11
-62.1445083551
 21
22.9830127229
  0
LINE
  5
35B
100
AcDbEntity
  8
0
100
AcDbLine
 62
7
  6
CONTINUOUS
 10
-62.1445083551
 20
-28.7330127229
 11
-62.1445931918
 21
-28.2188208635
  0
LINE
  5
35C
100
AcDbEntity
  8
0
100
AcDbLine
 62
7
  6
CONTINUOUS
 10
-62.1445083551
 20
-23.4830127229
 11
-62.1445083551
 21
-22.9830127229
  0
LWPOLYLINE
  5
35D
100
AcDbEntity
  8
0
100
AcDbPolyline
 62
7
  6
CONTINUOUS
 90
17
 70
0
 10
-62.1445931918
 20
28.7188208635
 10
-62.1445931918
 20
28.2188208635
 10
-62.1509518637
 20
28.1089439565
 10
-62.1675845769
 20
27.9995320395
 10
-62.194280218
 20
27.89197384
 10
-62.2313638849
 20
27.7858425936
 10
-62.2785104797
 20
27.6815650648
 10
-62.334533596
 20
27.5818102749
 10
-62.3993965794
 20
27.4870455901
 10
-62.4731360842
 20
27.3968036442
 10
-62.5546756674
 20
27.3123513597
 10
-62.6443835034
 20
27.2335476711
 10
-62.7418914179
 20
27.1605336438
 10
-62.8450184452
 20
27.0949993969
 10
-62.9530375968
 20
27.0375083033
 10
-63.0666758612
 20
26.98749699
 10
-63.1859332384
 20
26.9449654571
  0
LWPOLYLINE
  5
35E
100
AcDbEntity
  8
0
100
AcDbPolyline
 62
7
  6
CONTINUOUS
 90
13
 70
0
 10
-62.1445329766
 20
22.9830126863
 10
-62.1445931918
 20
22.9688208635
 10
-62.1509518637
 20
22.8589439565
 10
-62.1675845769
 20
22.7495320395
 10
-62.194280218
 20
22.64197384
 10
-62.2313638849
 20
22.5358425936
 10
-62.2785104797
 20
22.4315650648
 10
-62.334533596
 20
22.3318102749
 10
-62.3993965794
 20
22.2370455901
 10
-62.4731360842
 20
22.1468036442
 10
-62.5546756674
 20
22.0623513597
 10
-62.6443835034
 20
21.9835476711
 10
-62.6634772502
 20
21.9692502537
  0
LWPOLYLINE
  5
35F
100
AcDbEntity
  8
0
100
AcDbPolyline
 62
7
  6
CONTINUOUS
 90
13
 70
0
 10
-62.1445329766
 20
-23.4830126863
 10
-62.1486950392
 20
-23.5796478519
 10
-62.1630709279
 20
-23.6909398302
 10
-62.1873725369
 20
-23.799852796
 10
-62.221704137
 20
-23.9059270925
 10
-62.2659614573
 20
-24.0096223765
 10
-62.3194833644
 20
-24.1094736168
 10
-62.3825833285
 20
-24.2056995962
 10
-62.4549478794
 20
-24.2980815319
 10
-62.5349754724
 20
-24.3844980443
 10
-62.6221322591
 20
-24.4642420068
 10
-62.716952088
 20
-24.5380205461
 10
-62.8194349589
 20
-24.605833662
  0
LWPOLYLINE
  5
360
100
AcDbEntity
  8
0
100
AcDbPolyline
 62
7
  6
CONTINUOUS
 90
13
 70
0
 10
-62.1445329766
 20
-28.7330126863
 10
-62.1486950392
 20
-28.8296478519
 10
-62.1630709279
 20
-28.9409398302
 10
-62.1873725369
 20
-29.049852796
 10
-62.221704137
 20
-29.1559270925
 10
-62.2659614573
 20
-29.2596223765
 10
-62.3194833644
 20
-29.3594736168
 10
-62.3825833285
 20
-29.4556995962
 10
-62.4549478794
 20
-29.5480815319
 10
-62.5349754724
 20
-29.6344980443
 10
-62.6221322591
 20
-29.7142420068
 10
-62.716952088
 20
-29.7880205461
 10
-62.8194349589
 20
-29.855833662
  0
LINE
  5
361
100
AcDbEntity
  8
RACCORDO
100
AcDbLine
 62
7
  6
CONTINUOUS
 10
-68.6445083551
 20
13.5763580245
 11
-74.8369233323
 21
13.5025374833
  0
LINE
  5
362
100
AcDbEntity
  8
RACCORDO
100
AcDbLine
 62
250
  6
CONTINUOUS
 10
-68.6445083551
 20
13.7103326202
 11
-74.5648618282
 21
13.6397553577
  0
LINE
  5
363
100
AcDbEntity
  8
DRAFT
100
AcDbLine
 62
7
  6
CONTINUOUS
 10
-83.7731840124
 20
13.0286946053
 11
-84.6945083551
 21
13.0325914209
  0
LINE
  5
364
100
AcDbEntity
  8
DRAFT
100
AcDbLine
 62
7
  6
CONTINUOUS
 10
-84.6945083551
 20
20.686535667
 11
-83.7731840124
 21
20.2851443033
  0
LINE
  5
365
100
AcDbEntity
  8
DRAFT
100
AcDbLine
 62
7
  6
CONTINUOUS
 10
-84.6945083551
 20
21.5352476829
 11
-83.7731840124
 21
21.1173883286
  0
LWPOLYLINE
  5
366
100
AcDbEntity
  8
0
100
AcDbPolyline
 62
7
  6
CONTINUOUS
 90
3
 70
0
 43
0.3500000087
 10
-72.3837934021
 20
-50.7489046692
 10
-72.4552208252
 20
-50.9631890701
 10
-72.5980756714
 20
-51.2489030258
  0
LINE
  5
367
100
AcDbEntity
  8
0
100
AcDbLine
 62
7
  6
CONTINUOUS
 10
-65.8831221194
 20
-25.963645946
 11
-65.2831221194
 21
-24.5360148011
  0
LINE
  5
368
100
AcDbEntity
  8
DRAFT
100
AcDbLine
 62
7
  6
CONTINUOUS
 10
-76.6445083551
 20
17.2332580333
 11
-68.6445083551
 21
17.2588120757
  0
LINE
  5
369
100
AcDbEntity
  8
0
100
AcDbLine
 62
7
  6
CONTINUOUS
 10
-68.6445083551
 20
19.0346096908
 11
-65.0125693551
 21
19.0346096908
  0
LINE
  5
36A
100
AcDbEntity
  8
DRAFT
100
AcDbLine
 62
7
  6
CONTINUOUS
 10
-84.6945083551
 20
25.5914705288
 11
-83.7731840124
 21
25.0949062214
  0
LINE
  5
36B
100
AcDbEntity
  8
DRAFT
100
AcDbLine
 62
7
  6
CONTINUOUS
 10
-84.6945083551
 20
26.0383476761
 11
-83.7731840124
 21
25.5331123843
  0
LINE
  5
36C
100
AcDbEntity
  8
0
100
AcDbLine
 62
7
  6
CONTINUOUS
 10
-65.8831221194
 20
25.963645946
 11
-65.4686789192
 21
24.9775259119
  0
LINE
  5
36D
100
AcDbEntity
  8
0
100
AcDbLine
 62
7
  6
CONTINUOUS
 10
-65.7462351724
 20
26.1379391644
 11
-65.2831221194
 21
25.0360148011
  0
LINE
  5
36E
100
AcDbEntity
  8
0
100
AcDbLine
 62
7
  6
CONTINUOUS
 10
-65.2831221194
 20
-29.7860148011
 11
-65.8831221194
 21
-31.213645946
  0
LINE
  5
36F
100
AcDbEntity
  8
RACCORDO
100
AcDbLine
 62
250
  6
CONTINUOUS
 10
-68.6445083551
 20
20.2838311142
 11
-76.6445083551
 21
20.2582770718
  0
LINE
  5
370
100
AcDbEntity
  8
RACCORDO
100
AcDbLine
 62
250
  6
CONTINUOUS
 10
-68.6445083551
 20
21.6498045039
 11
-76.6445083551
 21
21.6242504615
  0
LINE
  5
371
100
AcDbEntity
  8
0
100
AcDbLine
 62
7
  6
CONTINUOUS
 10
-68.6445083551
 20
19.4026706908
 11
-64.6445083551
 21
19.4026706908
  0
LINE
  5
372
100
AcDbEntity
  8
0
100
AcDbLine
 62
7
  6
CONTINUOUS
 10
-64.6445083551
 20
19.4846096908
 11
-62.8445083551
 21
19.4846096908
  0
LINE
  5
373
100
AcDbEntity
  8
0
100
AcDbLine
 62
7
  6
CONTINUOUS
 10
-64.6445083551
 20
22.0846096908
 11
-62.8445083551
 21
22.0846096908
  0
LINE
  5
374
100
AcDbEntity
  8
0
100
AcDbLine
 62
7
  6
CONTINUOUS
 10
-68.6445083551
 20
22.1665486908
 11
-64.6445083551
 21
22.1665486908
  0
LINE
  5
375
100
AcDbEntity
  8
DRAFT
100
AcDbLine
 62
7
  6
CONTINUOUS
 10
-83.7731840124
 20
20.2851443033
 11
-84.6945083551
 21
20.2912114856
  0
LINE
  5
376
100
AcDbEntity
  8
0
100
AcDbLine
 62
7
  6
CONTINUOUS
 10
-65.4686789192
 20
30.2275259119
 11
-65.8831221194
 21
31.213645946
  0
LINE
  5
377
100
AcDbEntity
  8
0
100
AcDbLine
 62
7
  6
CONTINUOUS
 10
-65.2831221194
 20
30.2860148011
 11
-65.8831221194
 21
31.713645946
  0
LINE
  5
378
100
AcDbEntity
  8
DRAFT
100
AcDbLine
 62
7
  6
CONTINUOUS
 10
-68.6445083551
 20
24.6470729186
 11
-76.6445083551
 21
24.5992943223
  0
LINE
  5
379
100
AcDbEntity
  8
0
100
AcDbLine
 62
7
  6
CONTINUOUS
 10
-68.6445083551
 20
22.5346096908
 11
-65.0125693551
 21
22.5346096908
  0
LINE
  5
37A
100
AcDbEntity
  8
DRAFT
100
AcDbLine
 62
7
  6
CONTINUOUS
 10
-83.7731840124
 20
25.0949062214
 11
-84.6945083551
 21
25.1024119788
  0
LINE
  5
37B
100
AcDbEntity
  8
0
100
AcDbLine
 62
7
  6
CONTINUOUS
 10
-64.6445083551
 20
22.1665486908
 11
-65.0125693551
 21
22.5346096908
  0
LWPOLYLINE
  5
37C
100
AcDbEntity
  8
0
100
AcDbPolyline
 62
7
  6
CONTINUOUS
 90
13
 70
0
 10
-62.8194349589
 20
-24.105833662
 10
-62.716952088
 20
-24.0380205461
 10
-62.6221322591
 20
-23.9642420068
 10
-62.5349754724
 20
-23.8844980443
 10
-62.4549478794
 20
-23.7980815319
 10
-62.3825833285
 20
-23.7056995962
 10
-62.3194833644
 20
-23.6094736168
 10
-62.2659614573
 20
-23.5096223765
 10
-62.221704137
 20
-23.4059270925
 10
-62.1873725369
 20
-23.299852796
 10
-62.1630709279
 20
-23.1909398302
 10
-62.1486950392
 20
-23.0796478519
 10
-62.1445329766
 20
-22.9830126863
  0
LINE
  5
37D
100
AcDbEntity
  8
0
100
AcDbLine
 62
7
  6
CONTINUOUS
 10
-62.8194349589
 20
-24.105833662
 11
-65.8831221194
 21
-25.963645946
  0
LINE
  5
37E
100
AcDbEntity
  8
0
100
AcDbLine
 62
7
  6
CONTINUOUS
 10
-62.8194349589
 20
-24.605833662
 11
-65.8831221194
 21
-26.463645946
  0
LINE
  5
37F
100
AcDbEntity
  8
DRAFT
100
AcDbLine
 62
7
  6
CONTINUOUS
 10
-84.0445083551
 20
28.0169234373
 11
-84.6945083551
 21
28.0139152793
  0
LINE
  5
380
100
AcDbEntity
  8
DRAFT
100
AcDbLine
 62
7
  6
CONTINUOUS
 10
-76.6445083551
 20
26.8198149423
 11
-82.5445083551
 21
26.8713034623
  0
LINE
  5
381
100
AcDbEntity
  8
RACCORDO
100
AcDbLine
 62
7
  6
CONTINUOUS
 10
-68.6802215903
 20
26.005411261
 11
-68.6445083551
 21
26.0050536823
  0
LINE
  5
382
100
AcDbEntity
  8
RACCORDO
100
AcDbLine
 62
7
  6
CONTINUOUS
 10
-68.6445083551
 20
26.0604869508
 11
-69.4041423641
 21
26.0681327561
  0
LINE
  5
383
100
AcDbEntity
  8
RACCORDO
100
AcDbLine
 62
7
  6
CONTINUOUS
 10
-68.6445083551
 20
26.0022498385
 11
-68.6802215903
 21
26.005411261
  0
LINE
  5
384
100
AcDbEntity
  8
0
100
AcDbLine
 62
7
  6
CONTINUOUS
 10
-62.8194349589
 20
24.605833662
 11
-65.4828914612
 21
26.220947069
  0
LWPOLYLINE
  5
385
100
AcDbEntity
  8
0
100
AcDbPolyline
 62
7
  6
CONTINUOUS
 90
10
 70
0
 43
0.3500000087
 10
-73.9638512207
 20
60.9669189575
 10
-73.8924237976
 20
60.8240555847
 10
-73.8924237976
 20
60.7526281616
 10
-74.0352786438
 20
60.6097733154
 10
-74.1067145935
 20
60.6097733154
 10
-74.1781420166
 20
60.6812007385
 10
-74.1781420166
 20
60.7526281616
 10
-74.1067145935
 20
60.8954915344
 10
-74.0352786438
 20
60.9669189575
 10
-73.9638512207
 20
60.9669189575
  0
LWPOLYLINE
  5
386
100
AcDbEntity
  8
0
100
AcDbPolyline
 62
7
  6
CONTINUOUS
 90
13
 70
0
 10
-62.8194349589
 20
-29.355833662
 10
-62.716952088
 20
-29.2880205461
 10
-62.6221322591
 20
-29.2142420068
 10
-62.5349754724
 20
-29.1344980443
 10
-62.4549478794
 20
-29.0480815319
 10
-62.3825833285
 20
-28.9556995962
 10
-62.3194833644
 20
-28.8594736168
 10
-62.2659614573
 20
-28.7596223765
 10
-62.221704137
 20
-28.6559270925
 10
-62.1873725369
 20
-28.549852796
 10
-62.1630709279
 20
-28.4409398302
 10
-62.1486950392
 20
-28.3296478519
 10
-62.1445329766
 20
-28.2330126863
  0
LINE
  5
387
100
AcDbEntity
  8
0
100
AcDbLine
 62
7
  6
CONTINUOUS
 10
-65.8831221194
 20
-31.213645946
 11
-62.8194349589
 21
-29.355833662
  0
LINE
  5
388
100
AcDbEntity
  8
DRAFT
100
AcDbLine
 62
7
  6
CONTINUOUS
 10
-82.5445083551
 20
29.3985342194
 11
-84.0445083551
 21
29.3954519042
  0
LINE
  5
389
100
AcDbEntity
  8
0
100
AcDbLine
 62
7
  6
CONTINUOUS
 10
-82.5445083551
 20
29.5651666667
 11
-84.0445083551
 21
29.5651666667
  0
LINE
  5
38A
100
AcDbEntity
  8
0
100
AcDbLine
 62
7
  6
CONTINUOUS
 10
-65.8831221194
 20
-31.713645946
 11
-62.8194349589
 21
-29.855833662
  0
LINE
  5
38B
100
AcDbEntity
  8
0
100
AcDbLine
 62
7
  6
CONTINUOUS
 10
-65.8831221194
 20
31.713645946
 11
-62.8194349589
 21
29.855833662
  0
LWPOLYLINE
  5
38C
100
AcDbEntity
  8
0
100
AcDbPolyline
 62
7
  6
CONTINUOUS
 90
10
 70
0
 43
0.3500000087
 10
-70.3123640259
 20
-48.0346178268
 10
-70.9552236237
 20
-48.677475293
 10
-71.3837924255
 20
-49.5346192917
 10
-71.3837924255
 20
-50.6060476913
 10
-70.9552236237
 20
-51.0346186249
 10
-70.3123640259
 20
-51.0346186249
 10
-69.883795224
 20
-50.6060476913
 10
-69.883795224
 20
-49.7489036926
 10
-70.3123640259
 20
-49.3203327591
 10
-71.2409375793
 20
-49.3203327591
  0
LINE
  5
38D
100
AcDbEntity
  8
DRAFT
100
AcDbLine
 62
7
  6
CONTINUOUS
 10
-84.6945083551
 20
45.0
 11
-85.3435745143
 21
44.9773341103
  0
LWPOLYLINE
  5
38E
100
AcDbEntity
  8
0
100
AcDbPolyline
 62
7
  6
CONTINUOUS
 90
6
 70
0
 43
0.3500000087
 10
-76.7495718811
 20
60.4669184692
 10
-75.6781434814
 20
60.4669184692
 10
-75.4638526855
 20
60.6812007385
 10
-75.4638526855
 20
61.7526291382
 10
-75.8924257507
 20
62.1812022034
 10
-76.3209988159
 20
62.1812022034
  0
LWPOLYLINE
  5
38F
100
AcDbEntity
  8
0
100
AcDbPolyline
 62
7
  6
CONTINUOUS
 90
8
 70
0
 43
0.3500000087
 10
-72.892422821
 20
60.4669184692
 10
-72.0352852173
 20
60.4669184692
 10
-71.6067121521
 20
60.8954915344
 10
-71.6067121521
 20
61.7526291382
 10
-72.0352852173
 20
62.1812022034
 10
-72.892422821
 20
62.1812022034
 10
-72.892422821
 20
63.4669128723
 10
-71.6067121521
 20
63.4669128723
  0
LWPOLYLINE
  5
390
100
AcDbEntity
  8
0
100
AcDbPolyline
 62
7
  6
CONTINUOUS
 90
10
 70
0
 43
0.3500000087
 10
-0.1593406662
 20
59.4020470337
 10
0.6978022168
 20
60.2591931641
 10
0.9120878834
 20
61.1163392944
 10
0.9120878834
 20
61.9734768982
 10
0.4835164835
 20
62.4020499634
 10
-0.1593406662
 20
62.4020499634
 10
-0.587912116
 20
61.9734768982
 10
-0.587912116
 20
61.1163392944
 10
-0.1593406662
 20
60.6877662292
 10
0.7692307723
 20
60.6877662292
  0
LWPOLYLINE
  5
391
100
AcDbEntity
  8
0
100
AcDbPolyline
 62
7
  6
CONTINUOUS
 90
13
 70
0
 43
0.3500000087
 10
1.7692308163
 20
60.2591931641
 10
1.7692308163
 20
61.544903833
 10
1.9835165495
 20
61.9734768982
 10
2.4120880159
 20
62.4020499634
 10
2.6263737492
 20
62.4020499634
 10
3.0549449492
 20
61.9734768982
 10
3.2692306824
 20
61.544903833
 10
3.2692306824
 20
60.2591931641
 10
3.0549449492
 20
59.8306200989
 10
2.6263737492
 20
59.4020470337
 10
2.4120880159
 20
59.4020470337
 10
1.9835165495
 20
59.8306200989
 10
1.7692308163
 20
60.2591931641
  0
CIRCLE
  5
392
100
AcDbEntity
  8
DRAFT
100
AcDbCircle
 62
7
  6
CONTINUOUS
 10
-0.0
 20
0.0
 40
45.0
  0
CIRCLE
  5
393
100
AcDbEntity
  8
RACCORDO
100
AcDbCircle
 62
250
  6
CONTINUOUS
 10
-0.0
 20
0.0
 40
44.9773341103
  0
CIRCLE
  5
394
100
AcDbEntity
  8
RACCORDO
100
AcDbCircle
 62
250
  6
CONTINUOUS
 10
0.0
 20
0.0
 40
43.5749736715
  0
ARC
  5
395
100
AcDbEntity
  8
0
100
AcDbCircle
 62
7
  6
CONTINUOUS
 10
587.5554916449
 20
0.0
 40
675.75
100
AcDbArc
 50
176.3027812258
 51
183.6972187742
  0
ARC
  5
396
100
AcDbEntity
  8
RACCORDO
100
AcDbCircle
 62
7
  6
CONTINUOUS
 10
-85.2912252693
 20
43.4782478697
 40
1.5
100
AcDbArc
 50
92.0
 51
176.3027812258
  0
ARC
  5
397
100
AcDbEntity
  8
RACCORDO
100
AcDbCircle
 62
7
  6
CONTINUOUS
 10
-85.2912252693
 20
-43.4782478697
 40
1.5
100
AcDbArc
 50
183.6972187742
 51
268.0
  0
ARC
  5
398
100
AcDbEntity
  8
0
100
AcDbCircle
 62
7
  6
CONTINUOUS
 10
-78.9445083551
 20
-24.6434554176
 40
0.2
100
AcDbArc
 50
180.0
 51
270.0
  0
ARC
  5
399
100
AcDbEntity
  8
0
100
AcDbCircle
 62
7
  6
CONTINUOUS
 10
-78.9445083551
 20
-24.4441035418
 40
0.2
100
AcDbArc
 50
180.0
 51
270.0
  0
ARC
  5
39A
100
AcDbEntity
  8
0
100
AcDbCircle
 62
7
  6
CONTINUOUS
 10
-62.8445083551
 20
21.8846096908
 40
0.2
100
AcDbArc
 50
0.0
 51
90.0
  0
ARC
  5
39B
100
AcDbEntity
  8
0
100
AcDbCircle
 62
7
  6
CONTINUOUS
 10
-62.8445083551
 20
19.6846096908
 40
0.2
100
AcDbArc
 50
270.0
 51
360.0
  0
ARC
  5
39C
100
AcDbEntity
  8
0
100
AcDbCircle
 62
7
  6
CONTINUOUS
 10
-62.8445083551
 20
-19.6846096908
 40
0.2
100
AcDbArc
 50
0.0
 51
90.0
  0
ARC
  5
39D
100
AcDbEntity
  8
0
100
AcDbCircle
 62
7
  6
CONTINUOUS
 10
-62.8445083551
 20
-21.8846096908
 40
0.2
100
AcDbArc
 50
334.9406661824
 51
360.0
  0
ELLIPSE
  5
39E
100
AcDbEntity
  8
RACCORDO
100
AcDbEllipse
 62
7
  6
CONTINUOUS
 10
-47.8443632569
 20
0.3515681981
 30
0.0
 11
80.4723336089
 21
-14.4084361656
 31
0.0
 40
0.2772866464
 41
1.8819769694
 42
1.9859377812
  0
ELLIPSE
  5
39F
100
AcDbEntity
  8
DRAFT
100
AcDbEllipse
 62
7
  6
CONTINUOUS
 10
-43.6680316332
 20
-0.3370056209
 30
0.0
 11
77.1390270831
 21
-13.811613231
 31
0.0
 40
0.2772866464
 41
-1.9623266677
 42
-1.8509845894
  0
ELLIPSE
  5
3A0
100
AcDbEntity
  8
RACCORDO
100
AcDbEllipse
 62
7
  6
CONTINUOUS
 10
-47.8443632569
 20
0.3515681981
 30
0.0
 11
80.4723336089
 21
-14.4084361656
 31
0.0
 40
0.2772866464
 41
-1.8867238285
 42
-1.7827630167
  0
ELLIPSE
  5
3A1
100
AcDbEntity
  8
DRAFT
100
AcDbEllipse
 62
7
  6
CONTINUOUS
 10
-845.3784262344
 20
-0.0
 30
0.0
 11
1920.8438552256
 21
0.0
 31
0.0
 40
0.0151169134
 41
-1.1636228361
 42
-1.1624035583
  0
ELLIPSE
  5
3A2
100
AcDbEntity
  8
DRAFT
100
AcDbEllipse
 62
7
  6
CONTINUOUS
 10
-845.3784262344
 20
-0.0
 30
0.0
 11
1920.8438552256
 21
0.0
 31
0.0
 40
0.0151169134
 41
1.1624035583
 42
1.1636228361
  0
ELLIPSE
  5
3A3
100
AcDbEntity
  8
DRAFT
100
AcDbEllipse
 62
7
  6
CONTINUOUS
 10
-34.3090483034
 20
-23.8881995293
 30
0.0
 11
103.1297850603
 21
-0.4500257041
 31
0.0
 40
0.0075575453
 41
-1.9319687633
 42
-1.9101772276
  0
ELLIPSE
  5
3A4
100
AcDbEntity
  8
DRAFT
100
AcDbEllipse
 62
7
  6
CONTINUOUS
 10
-43.6680316332
 20
-0.3370056209
 30
0.0
 11
77.1390270831
 21
-13.811613231
 31
0.0
 40
0.2772866464
 41
1.9501985421
 42
2.0615406204
  0
ENDSEC
  0
SECTION
  2
OBJECTS
  0
DICTIONARY
  5
C
100
AcDbDictionary
280
0
281
1
  3
ACAD_GROUP
350
D
  3
ACAD_MLINESTYLE
350
17
  3
ACAD_LAYOUT
350
1A
  3
ACAD_PLOTSETTINGS
350
19
  3
ACAD_PLOTSTYLENAME
350
E
  0
DICTIONARY
  5
D
102
{ACAD_REACTORS
330
C
102
}
100
AcDbDictionary
280
0
281
1
  0
ACDBDICTIONARYWDFLT
  5
E
102
{ACAD_REACTORS
330
C
102
}
100
AcDbDictionary
281
1
  3
Normal
350
F
100
AcDbDictionaryWithDefault
340
F
  0
DICTIONARY
  5
17
102
{ACAD_REACTORS
330
C
102
}
100
AcDbDictionary
280
0
281
1
  3
Standard
350
18
  0
DICTIONARY
  5
19
102
{ACAD_REACTORS
330
C
102
}
100
AcDbDictionary
281
1
  0
DICTIONARY
  5
1A
102
{ACAD_REACTORS
330
C
102
}
100
AcDbDictionary
281
1
  3
Model
350
3A5
  3
Layout1
350
3A6
  0
ACDBPLACEHOLDER
  5
F
102
{ACAD_REACTORS
330
E
102
}
  0
MLINESTYLE
  5
18
102
{ACAD_REACTORS
330
17
102
}
100
AcDbMlineStyle
  2
STANDARD
 70
0
  3

 62
256
 51
90.0
 52
90.0
 71
2
 49
0.5
 62
256
  6
BYLAYER
 49
-0.5
 62
256
  6
BYLAYER
  0
LAYOUT
  5
3A5
102
{ACAD_REACTORS
330
1A
102
}
100
AcDbPlotSettings
  1

  2
none_device
  4
ANSI_C_(22.00_x_17.00_Inches)
  6

 40
0.0
 41
0.0
 42
0.0
 43
0.0
 44
558.8
 45
431.8
 46
0.0
 47
0.0
 48
0.0
 49
0.0
140
0.0
141
0.0
142
1.0
143
1.0
 70
1024
 72
1
 73
0
 74
0
  7

 75
0
147
1.0
148
0.0
149
0.0
100
AcDbLayout
  1
Model
 70
0
 71
0
 10
0.0
 20
0.0
 11
558.8
 21
431.8
 12
0.0
 22
0.0
 32
0.0
 14
0.0
 24
0.0
 34
0.0
 15
0.0
 25
0.0
 35
0.0
146
0.0
 13
0.0
 23
0.0
 33
0.0
 16
1.0
 26
0.0
 36
0.0
 17
0.0
 27
1.0
 37
0.0
 76
0
330
215
345
0
346
0
  0
LAYOUT
  5
3A6
102
{ACAD_REACTORS
330
1A
102
}
100
AcDbPlotSettings
  1

  2
none_device
  4
ANSI_C_(22.00_x_17.00_Inches)
  6

 40
0.0
 41
0.0
 42
0.0
 43
0.0
 44
558.8
 45
431.8
 46
0.0
 47
0.0
 48
0.0
 49
0.0
140
0.0
141
0.0
142
1.0
143
1.0
 70
0
 72
1
 73
0
 74
0
  7

 75
0
147
1.0
148
0.0
149
0.0
100
AcDbLayout
  1
Layout1
 70
0
 71
1
 10
0.0
 20
0.0
 11
558.8
 21
431.8
 12
0.0
 22
0.0
 32
0.0
 14
0.0
 24
0.0
 34
0.0
 15
0.0
 25
0.0
 35
0.0
146
0.0
 13
0.0
 23
0.0
 33
0.0
 16
1.0
 26
0.0
 36
0.0
 17
0.0
 27
1.0
 37
0.0
 76
0
330
216
345
0
346
0
  0
ENDSEC
  0
EOF
