0
SECTION
2
HEADER
9
$ACADVER
1
AC1015
9
$DWGCODEPAGE
3
ANSI_1252
9
$EXTMAX
10
431.8000000000
20
558.8000000000
30
0.0000000000
9
$EXTMIN
10
0.0000000000
20
0.0000000000
30
0.0000000000
9
$LIMMIN
10
0.0000000000
20
0.0000000000
9
$LIMMAX
10
431.8000000000
20
558.8000000000
9
$VIEWCTR
10
215.9000000000
20
279.4000000000
9
$VIEWSIZE
40
558.8000000000
9
$CLAYER
8
0
9
$LTSCALE
40
36.4254814815
9
$CELTYPE
6
BYLAYER
9
$DIMSCALE
40
1
9
$DIMASZ
40
3.0000000000
9
$DIMEXO
40
4.1392592593
9
$DIMDLI
40
25.1666962963
9
$DIMEXE
40
11.9210666667
9
$DIMCEN
40
5.9605333333
9
$DIMLFAC
40
1.0000000000
9
$DIMBLK
1
_FILLED
9
$DIMTXT
40
3.0000000000
9
$DIMTOL
70
1
9
$DIMLIM
70
0
9
$DIMTFAC
40
1.0000000000
9
$DIMTP
40
0.0100000000
9
$DIMTM
40
0.0100000000
9
$PDMODE
70
3
9
$PDSIZE
40
3.0000000000
9
$HANDSEED
5
2C1
9
$MEASUREMENT
70
1
9
$INSUNITS
70
4
0
ENDSEC
0
SECTION
2
CLASSES
0
CLASS
1
ACDBDICTIONARYWDFLT
2
AcDbDictionaryWithDefault
3
AutoCAD 2000
90
0
280
0
281
0
0
CLASS
1
ACDBPLACEHOLDER
2
AcDbPlaceHolder
3
AutoCAD 2000
90
0
280
0
281
0
0
CLASS
1
LAYOUT
2
AcDbLayout
3
AutoCAD 2000
90
0
280
0
281
0
0
ENDSEC
0
SECTION
2
TABLES
0
TABLE
2
VPORT
5
8
100
AcDbSymbolTable
70
2
0
VPORT
5
1F4
100
AcDbSymbolTableRecord
100
AcDbViewportTableRecord
2
*ACTIVE
70
0
10
0.0
20
0.0
11
1.0
21
1.0
12
215.9000000000
22
279.4000000000
13
0.0
23
0.0
14
1.0
24
1.0
15
0.0
25
0.0
16
0.0
26
0.0
36
1.0
17
0.0
27
0.0
37
0.0
40
558.8000000000
41
0.7727272727
42
50.0
43
0.0
44
0.0
50
0.0
51
0.0
71
0
72
100
73
1
74
1
75
0
76
0
77
0
78
0
0
ENDTAB
0
TABLE
2
LTYPE
5
5
100
AcDbSymbolTable
70
6
0
LTYPE
5
14
100
AcDbSymbolTableRecord
100
AcDbLinetypeTableRecord
2
BYBLOCK
70
0
3

72
65
73
0
40
0.0
0
LTYPE
5
15
100
AcDbSymbolTableRecord
100
AcDbLinetypeTableRecord
2
BYLAYER
70
0
3

72
65
73
0
40
0.0
0
LTYPE
5
16
100
AcDbSymbolTableRecord
100
AcDbLinetypeTableRecord
2
CONTINUOUS
70
64
3
Solid line
72
65
73
0
40
0
0
LTYPE
5
1F5
100
AcDbSymbolTableRecord
100
AcDbLinetypeTableRecord
2
CENTER
70
64
3
____ _ ____ _ ____ _ ____ _ ____ _ ____ _ ____
72
65
73
4
40
0.6
49
0.375
74
0
49
-0.075
74
0
49
0.075
74
0
49
-0.075
74
0
0
LTYPE
5
1F6
100
AcDbSymbolTableRecord
100
AcDbLinetypeTableRecord
2
HIDDEN
70
64
3
- - - - - - - - - - - - - - - - - - - -
72
65
73
2
40
0.2
49
0.1
74
0
49
-0.1
74
0
0
LTYPE
5
1F7
100
AcDbSymbolTableRecord
100
AcDbLinetypeTableRecord
2
PHANTOM
70
64
3
_____ _ _ _____ _ _ _____ _ _ _____
72
65
73
6
40
0.8
49
0.45
74
0
49
-0.05
74
0
49
0.1
74
0
49
-0.05
74
0
49
0.1
74
0
49
-0.05
74
0
0
LTYPE
5
1F8
100
AcDbSymbolTableRecord
100
AcDbLinetypeTableRecord
2
DOT
70
64
3
. . . . . . . . . . . . . . . . . . . .
72
65
73
2
40
0.2
49
0.1
74
0
49
-0.1
74
0
0
LTYPE
5
1F9
100
AcDbSymbolTableRecord
100
AcDbLinetypeTableRecord
2
DASHED
70
64
3
- - - - - - - - - - - - - - - - - - - -
72
65
73
2
40
0.2
49
0.1
74
0
49
-0.1
74
0
0
ENDTAB
0
TABLE
2
LAYER
5
2
100
AcDbSymbolTable
70
36
0
LAYER
5
10
100
AcDbSymbolTableRecord
100
AcDbLayerTableRecord
2
0
70
0
62
7
6
CONTINUOUS
370
-3
390
F
0
LAYER
5
1FA
100
AcDbSymbolTableRecord
100
AcDbLayerTableRecord
2
DEFAULT_1
70
0
62
7
6
CENTER
370
-3
390
F
0
LAYER
5
1FB
100
AcDbSymbolTableRecord
100
AcDbLayerTableRecord
2
DEFAULT_2
70
0
62
9
6
HIDDEN
370
-3
390
F
0
LAYER
5
1FC
100
AcDbSymbolTableRecord
100
AcDbLayerTableRecord
2
DEFAULT_3
70
0
62
7
6
PHANTOM
370
-3
390
F
0
LAYER
5
1FD
100
AcDbSymbolTableRecord
100
AcDbLayerTableRecord
2
_2D_DELETED_OBJS
70
0
62
7
6
CONTINUOUS
370
-3
390
F
0
LAYER
5
1FE
100
AcDbSymbolTableRecord
100
AcDbLayerTableRecord
2
_BLACK_HOLE
70
0
62
7
6
CONTINUOUS
370
-3
390
F
0
LAYER
5
1FF
100
AcDbSymbolTableRecord
100
AcDbLayerTableRecord
2
ASSI
70
0
62
7
6
CONTINUOUS
370
-3
390
F
0
LAYER
5
200
100
AcDbSymbolTableRecord
100
AcDbLayerTableRecord
2
COORDINATE
70
0
62
7
6
CONTINUOUS
370
-3
390
F
0
LAYER
5
201
100
AcDbSymbolTableRecord
100
AcDbLayerTableRecord
2
COPY_PUBLISH
70
0
62
7
6
CONTINUOUS
370
-3
390
F
0
LAYER
5
202
100
AcDbSymbolTableRecord
100
AcDbLayerTableRecord
2
COSMETIC
70
0
62
7
6
CONTINUOUS
370
-3
390
F
0
LAYER
5
203
100
AcDbSymbolTableRecord
100
AcDbLayerTableRecord
2
CURVE
70
0
62
7
6
CONTINUOUS
370
-3
390
F
0
LAYER
5
204
100
AcDbSymbolTableRecord
100
AcDbLayerTableRecord
2
DRAFT
70
0
62
7
6
CONTINUOUS
370
-3
390
F
0
LAYER
5
205
100
AcDbSymbolTableRecord
100
AcDbLayerTableRecord
2
IMPORT_IGES
70
0
62
7
6
CONTINUOUS
370
-3
390
F
0
LAYER
5
206
100
AcDbSymbolTableRecord
100
AcDbLayerTableRecord
2
NOTE
70
0
62
7
6
CONTINUOUS
370
-3
390
F
0
LAYER
5
207
100
AcDbSymbolTableRecord
100
AcDbLayerTableRecord
2
PIANI
70
0
62
7
6
CONTINUOUS
370
-3
390
F
0
LAYER
5
208
100
AcDbSymbolTableRecord
100
AcDbLayerTableRecord
2
PUNTI
70
0
62
7
6
CONTINUOUS
370
-3
390
F
0
LAYER
5
209
100
AcDbSymbolTableRecord
100
AcDbLayerTableRecord
2
RACCORDO
70
0
62
7
6
CONTINUOUS
370
-3
390
F
0
LAYER
5
20A
100
AcDbSymbolTableRecord
100
AcDbLayerTableRecord
2
SNAPLINE
70
0
62
7
6
CONTINUOUS
370
-3
390
F
0
LAYER
5
20B
100
AcDbSymbolTableRecord
100
AcDbLayerTableRecord
2
TRASH
70
0
62
7
6
CONTINUOUS
370
-3
390
F
0
LAYER
5
20C
100
AcDbSymbolTableRecord
100
AcDbLayerTableRecord
2
XSEC_DATUMS
70
0
62
7
6
CONTINUOUS
370
-3
390
F
0
ENDTAB
0
TABLE
2
STYLE
5
3
100
AcDbSymbolTable
70
1
0
STYLE
5
11
100
AcDbSymbolTableRecord
100
AcDbTextStyleTableRecord
2
STANDARD
70
0
40
0.0
41
0.8000000000
50
0.0
71
0
42
0.2
3
txt
4

0
ENDTAB
0
TABLE
2
VIEW
5
6
100
AcDbSymbolTable
70
0
0
ENDTAB
0
TABLE
2
UCS
5
7
100
AcDbSymbolTable
70
0
0
ENDTAB
0
TABLE
2
APPID
5
9
100
AcDbSymbolTable
70
1
0
APPID
5
20D
100
AcDbSymbolTableRecord
100
AcDbRegAppTableRecord
2
ACAD
70
0
0
ENDTAB
0
TABLE
2
BLOCK_RECORD
5
1
100
AcDbSymbolTable
70
0
0
BLOCK_RECORD
5
1F
100
AcDbSymbolTableRecord
100
AcDbBlockTableRecord
2
*MODEL_SPACE
0
BLOCK_RECORD
5
1B
100
AcDbSymbolTableRecord
100
AcDbBlockTableRecord
2
*PAPER_SPACE
0
BLOCK_RECORD
5
20E
100
AcDbSymbolTableRecord
100
AcDbBlockTableRecord
2
_FILLED
0
BLOCK_RECORD
5
20F
100
AcDbSymbolTableRecord
100
AcDbBlockTableRecord
2
*D0
0
BLOCK_RECORD
5
210
100
AcDbSymbolTableRecord
100
AcDbBlockTableRecord
2
*D1
0
BLOCK_RECORD
5
211
100
AcDbSymbolTableRecord
100
AcDbBlockTableRecord
2
*D2
0
BLOCK_RECORD
5
212
100
AcDbSymbolTableRecord
100
AcDbBlockTableRecord
2
*D3
0
BLOCK_RECORD
5
213
100
AcDbSymbolTableRecord
100
AcDbBlockTableRecord
2
*D4
0
BLOCK_RECORD
5
214
100
AcDbSymbolTableRecord
100
AcDbBlockTableRecord
2
*D5
0
BLOCK_RECORD
5
215
100
AcDbSymbolTableRecord
100
AcDbBlockTableRecord
2
*D6
0
BLOCK_RECORD
5
216
100
AcDbSymbolTableRecord
100
AcDbBlockTableRecord
2
*D7
0
ENDTAB
0
TABLE
2
DIMSTYLE
5
A
100
AcDbSymbolTable
70
1
100
AcDbDimStyleTable
71
0
0
DIMSTYLE
105
217
100
AcDbSymbolTableRecord
100
AcDbDimStyleTableRecord
2
STANDARD
70
0
3

4

40
1.0
41
3.0000000000
42
0.0625
43
0.38
44
0.18
45
0.0
46
0.0
47
0.0100000000
48
0.0100000000
140
3.0000000000
141
0.09
142
0.0
143
25.4
144
1.0000000000
145
0.0
146
1.0000000000
147
0.09
71
1
72
0
73
0
74
0
75
0
76
0
77
1
78
8
170
0
171
2
172
0
173
0
174
0
175
0
176
0
177
0
178
0
270
2
271
2
272
2
273
2
274
2
275
0
280
0
281
0
282
0
283
1
284
8
285
0
286
0
287
3
288
0
340
11
341
20E
342
20E
343
20E
344
20E
0
DIMSTYLE
105
218
100
AcDbSymbolTableRecord
100
AcDbDimStyleTableRecord
2
DIMSTYLE_1
70
0
3

4

40
1.0
41
3.0000000000
42
0.0625
43
0.38
44
0.18
45
0.0
46
0.0
47
0.0000000000
48
0.0000000000
140
3.0000000000
141
0.09
142
0.0
143
25.4
144
1.0000000000
145
0.0
146
1.0000000000
147
0.09
71
0
72
0
73
0
74
0
75
0
76
0
77
1
78
8
170
0
171
2
172
0
173
0
174
0
175
0
176
0
177
0
178
0
270
2
271
2
272
2
273
2
274
2
275
0
280
0
281
0
282
0
283
1
284
8
285
0
286
0
287
3
288
0
340
11
341
20E
342
20E
343
20E
344
20E
0
ENDTAB
0
ENDSEC
0
SECTION
2
BLOCKS
0
BLOCK
5
20
100
AcDbEntity
8
0
100
AcDbBlockBegin
2
*MODEL_SPACE
70
0
10
0.0
20
0.0
30
0.0
3
*MODEL_SPACE
1

0
ENDBLK
5
21
100
AcDbEntity
8
0
100
AcDbBlockEnd
0
BLOCK
5
1C
100
AcDbEntity
8
0
100
AcDbBlockBegin
2
*PAPER_SPACE
70
0
10
0.0
20
0.0
30
0.0
3
*PAPER_SPACE
1

0
ENDBLK
5
1D
100
AcDbEntity
8
0
100
AcDbBlockEnd
0
BLOCK
5
219
100
AcDbEntity
8
0
100
AcDbBlockBegin
62
0
6
CONTINUOUS
2
*D0
70
65
10
0.0000000000
20
0.0000000000
3
*D0
1

0
TEXT
5
21A
100
AcDbEntity
8
0
100
AcDbText
62
0
6
CONTINUOUS
10
-36.1608005822
20
152.7123166823
7
STANDARD
40
3.0000000000
1
8,2
41
0.7142857143
72
0
100
AcDbText
0
LINE
5
21B
100
AcDbEntity
8
0
100
AcDbLine
62
0
6
CONTINUOUS
10
-40.0236513584
20
124.1620428510
11
-40.0236513584
21
153.4623166823
0
LINE
5
21C
100
AcDbEntity
8
0
100
AcDbLine
62
0
6
CONTINUOUS
10
-48.2236513584
20
141.7244165013
11
-48.2236513584
21
153.4623166823
0
LINE
5
21D
100
AcDbEntity
8
0
100
AcDbLine
62
0
6
CONTINUOUS
10
-40.0236513584
20
151.9623166823
11
-29.7322291537
21
151.9623166823
0
LINE
5
21E
100
AcDbEntity
8
0
100
AcDbLine
62
0
6
CONTINUOUS
10
-29.7322291537
20
151.9623166823
11
-44.1236513584
21
151.9623166823
0
LINE
5
21F
100
AcDbEntity
8
0
100
AcDbLine
62
0
6
CONTINUOUS
10
-48.2236513584
20
151.9623166823
11
-52.2236513584
21
151.9623166823
0
LINE
5
220
100
AcDbEntity
8
0
100
AcDbLine
62
0
6
CONTINUOUS
10
-52.2236513584
20
151.9623166823
11
-44.1236513584
21
151.9623166823
0
INSERT
5
221
100
AcDbEntity
8
0
100
AcDbBlockReference
62
0
6
CONTINUOUS
2
_FILLED
10
-40.0236513584
20
151.9623166823
41
  3.000000
42
  3.000000
43
  3.000000
50
180.000000
0
INSERT
5
222
100
AcDbEntity
8
0
100
AcDbBlockReference
62
0
6
CONTINUOUS
2
_FILLED
10
-48.2236513584
20
151.9623166823
41
  3.000000
42
  3.000000
43
  3.000000
0
ENDBLK
5
223
100
AcDbEntity
8
0
6
BYBLOCK
62
0
100
AcDbBlockEnd
0
BLOCK
5
224
100
AcDbEntity
8
0
100
AcDbBlockBegin
62
0
6
CONTINUOUS
2
*D1
70
65
10
0.0000000000
20
0.0000000000
3
*D1
1

0
TEXT
5
225
100
AcDbEntity
8
0
100
AcDbText
62
0
6
CONTINUOUS
10
-36.6681226033
20
-151.2876833177
7
STANDARD
40
3.0000000000
1
6,2
41
0.7142857143
72
0
100
AcDbText
0
LINE
5
226
100
AcDbEntity
8
0
100
AcDbLine
62
0
6
CONTINUOUS
10
-42.0236513584
20
-143.2099409129
11
-42.0236513584
21
-153.5376833177
0
LINE
5
227
100
AcDbEntity
8
0
100
AcDbLine
62
0
6
CONTINUOUS
10
-48.2236513584
20
-141.6845233159
11
-48.2236513584
21
-153.5376833177
0
LINE
5
228
100
AcDbEntity
8
0
100
AcDbLine
62
0
6
CONTINUOUS
10
-42.0236513584
20
-152.0376833177
11
-30.2395511747
21
-152.0376833177
0
LINE
5
229
100
AcDbEntity
8
0
100
AcDbLine
62
0
6
CONTINUOUS
10
-30.2395511747
20
-152.0376833177
11
-45.1236513584
21
-152.0376833177
0
LINE
5
22A
100
AcDbEntity
8
0
100
AcDbLine
62
0
6
CONTINUOUS
10
-48.2236513584
20
-152.0376833177
11
-52.2236513584
21
-152.0376833177
0
LINE
5
22B
100
AcDbEntity
8
0
100
AcDbLine
62
0
6
CONTINUOUS
10
-52.2236513584
20
-152.0376833177
11
-45.1236513584
21
-152.0376833177
0
INSERT
5
22C
100
AcDbEntity
8
0
100
AcDbBlockReference
62
0
6
CONTINUOUS
2
_FILLED
10
-42.0236513584
20
-152.0376833177
41
  3.000000
42
  3.000000
43
  3.000000
50
180.000000
0
INSERT
5
22D
100
AcDbEntity
8
0
100
AcDbBlockReference
62
0
6
CONTINUOUS
2
_FILLED
10
-48.2236513584
20
-152.0376833177
41
  3.000000
42
  3.000000
43
  3.000000
0
ENDBLK
5
22E
100
AcDbEntity
8
0
6
BYBLOCK
62
0
100
AcDbBlockEnd
0
BLOCK
5
22F
100
AcDbEntity
8
0
100
AcDbBlockBegin
62
0
6
CONTINUOUS
2
*D2
70
65
10
0.0000000000
20
0.0000000000
3
*D2
1

0
TEXT
5
230
100
AcDbEntity
8
0
100
AcDbText
62
0
6
CONTINUOUS
10
330.4277609375
20
172.7123166823
7
STANDARD
40
3.0000000000
1
550
41
0.7380952381
72
0
100
AcDbText
0
LINE
5
231
100
AcDbEntity
8
0
100
AcDbLine
62
0
6
CONTINUOUS
10
58.7491895090
20
138.3202432413
11
58.7491895090
21
173.4623166823
0
LINE
5
232
100
AcDbEntity
8
0
100
AcDbLine
62
0
6
CONTINUOUS
10
608.7491895090
20
136.3415348917
11
608.7491895090
21
173.4623166823
0
LINE
5
233
100
AcDbEntity
8
0
100
AcDbLine
62
0
6
CONTINUOUS
10
58.7491895090
20
171.9623166823
11
333.7491895090
21
171.9623166823
0
LINE
5
234
100
AcDbEntity
8
0
100
AcDbLine
62
0
6
CONTINUOUS
10
608.7491895090
20
171.9623166823
11
333.7491895090
21
171.9623166823
0
INSERT
5
235
100
AcDbEntity
8
0
100
AcDbBlockReference
62
0
6
CONTINUOUS
2
_FILLED
10
58.7491895090
20
171.9623166823
41
  3.000000
42
  3.000000
43
  3.000000
50
180.000000
0
INSERT
5
236
100
AcDbEntity
8
0
100
AcDbBlockReference
62
0
6
CONTINUOUS
2
_FILLED
10
608.7491895090
20
171.9623166823
41
  3.000000
42
  3.000000
43
  3.000000
0
ENDBLK
5
237
100
AcDbEntity
8
0
6
BYBLOCK
62
0
100
AcDbBlockEnd
0
BLOCK
5
238
100
AcDbEntity
8
0
100
AcDbBlockBegin
62
0
6
CONTINUOUS
2
*D3
70
65
10
0.0000000000
20
0.0000000000
3
*D3
1

0
TEXT
5
239
100
AcDbEntity
8
0
100
AcDbText
62
0
6
CONTINUOUS
10
637.9991895090
20
-3.5733976034
7
STANDARD
40
3.0000000000
1
284
50
90.0000000000
41
0.7857142857
72
0
100
AcDbText
0
LINE
5
23A
100
AcDbEntity
8
0
100
AcDbLine
62
0
6
CONTINUOUS
10
604.3129356532
20
141.9623166823
11
640.2491895090
21
141.9623166823
0
LINE
5
23B
100
AcDbEntity
8
0
100
AcDbLine
62
0
6
CONTINUOUS
10
605.6394872540
20
-142.0376833177
11
640.2491895090
21
-142.0376833177
0
LINE
5
23C
100
AcDbEntity
8
0
100
AcDbLine
62
0
6
CONTINUOUS
10
638.7491895090
20
141.9623166823
11
638.7491895090
21
-0.0376833177
0
LINE
5
23D
100
AcDbEntity
8
0
100
AcDbLine
62
0
6
CONTINUOUS
10
638.7491895090
20
-142.0376833177
11
638.7491895090
21
-0.0376833177
0
INSERT
5
23E
100
AcDbEntity
8
0
100
AcDbBlockReference
62
0
6
CONTINUOUS
2
_FILLED
10
638.7491895090
20
141.9623166823
41
  3.000000
42
  3.000000
43
  3.000000
50
 90.000000
0
INSERT
5
23F
100
AcDbEntity
8
0
100
AcDbBlockReference
62
0
6
CONTINUOUS
2
_FILLED
10
638.7491895090
20
-142.0376833177
41
  3.000000
42
  3.000000
43
  3.000000
50
270.000000
0
ENDBLK
5
240
100
AcDbEntity
8
0
6
BYBLOCK
62
0
100
AcDbBlockEnd
0
BLOCK
5
241
100
AcDbEntity
8
0
100
AcDbBlockBegin
62
0
6
CONTINUOUS
2
*D4
70
65
10
0.0000000000
20
0.0000000000
3
*D4
1

0
TEXT
5
242
100
AcDbEntity
8
0
100
AcDbText
62
0
6
CONTINUOUS
10
617.9991895090
20
-3.5733976034
7
STANDARD
40
3.0000000000
1
224
50
90.0000000000
41
0.7857142857
72
0
100
AcDbText
0
LINE
5
243
100
AcDbEntity
8
0
100
AcDbLine
62
0
6
CONTINUOUS
10
582.8744912559
20
111.9623166823
11
620.2491895090
21
111.9623166823
0
LINE
5
244
100
AcDbEntity
8
0
100
AcDbLine
62
0
6
CONTINUOUS
10
582.8090752883
20
-112.0376833177
11
620.2491895090
21
-112.0376833177
0
LINE
5
245
100
AcDbEntity
8
0
100
AcDbLine
62
0
6
CONTINUOUS
10
618.7491895090
20
111.9623166823
11
618.7491895090
21
-0.0376833177
0
LINE
5
246
100
AcDbEntity
8
0
100
AcDbLine
62
0
6
CONTINUOUS
10
618.7491895090
20
-112.0376833177
11
618.7491895090
21
-0.0376833177
0
INSERT
5
247
100
AcDbEntity
8
0
100
AcDbBlockReference
62
0
6
CONTINUOUS
2
_FILLED
10
618.7491895090
20
111.9623166823
41
  3.000000
42
  3.000000
43
  3.000000
50
 90.000000
0
INSERT
5
248
100
AcDbEntity
8
0
100
AcDbBlockReference
62
0
6
CONTINUOUS
2
_FILLED
10
618.7491895090
20
-112.0376833177
41
  3.000000
42
  3.000000
43
  3.000000
50
270.000000
0
ENDBLK
5
249
100
AcDbEntity
8
0
6
BYBLOCK
62
0
100
AcDbBlockEnd
0
BLOCK
5
24A
100
AcDbEntity
8
0
100
AcDbBlockBegin
62
0
6
CONTINUOUS
2
*D5
70
65
10
0.0000000000
20
0.0000000000
3
*D5
1

0
TEXT
5
24B
100
AcDbEntity
8
0
100
AcDbText
62
0
6
CONTINUOUS
10
627.9991895090
20
-3.4662547463
7
STANDARD
40
3.0000000000
1
239
50
90.0000000000
41
0.7619047619
72
0
100
AcDbText
0
LINE
5
24C
100
AcDbEntity
8
0
100
AcDbLine
62
0
6
CONTINUOUS
10
415.3205412679
20
119.4623166823
11
630.2491895090
21
119.4623166823
0
LINE
5
24D
100
AcDbEntity
8
0
100
AcDbLine
62
0
6
CONTINUOUS
10
415.2179183417
20
-119.5376833177
11
630.2491895090
21
-119.5376833177
0
LINE
5
24E
100
AcDbEntity
8
0
100
AcDbLine
62
0
6
CONTINUOUS
10
628.7491895090
20
119.4623166823
11
628.7491895090
21
-0.0376833177
0
LINE
5
24F
100
AcDbEntity
8
0
100
AcDbLine
62
0
6
CONTINUOUS
10
628.7491895090
20
-119.5376833177
11
628.7491895090
21
-0.0376833177
0
INSERT
5
250
100
AcDbEntity
8
0
100
AcDbBlockReference
62
0
6
CONTINUOUS
2
_FILLED
10
628.7491895090
20
119.4623166823
41
  3.000000
42
  3.000000
43
  3.000000
50
 90.000000
0
INSERT
5
251
100
AcDbEntity
8
0
100
AcDbBlockReference
62
0
6
CONTINUOUS
2
_FILLED
10
628.7491895090
20
-119.5376833177
41
  3.000000
42
  3.000000
43
  3.000000
50
270.000000
0
ENDBLK
5
252
100
AcDbEntity
8
0
6
BYBLOCK
62
0
100
AcDbBlockEnd
0
BLOCK
5
253
100
AcDbEntity
8
0
100
AcDbBlockBegin
62
0
6
CONTINUOUS
2
*D6
70
65
10
0.0000000000
20
0.0000000000
3
*D6
1

0
TEXT
5
254
100
AcDbEntity
8
0
100
AcDbText
62
0
6
CONTINUOUS
10
330.6420466518
20
152.7123166823
7
STANDARD
40
3.0000000000
1
154
41
0.6904761905
72
0
100
AcDbText
0
LINE
5
255
100
AcDbEntity
8
0
100
AcDbLine
62
0
6
CONTINUOUS
10
410.7491895090
20
123.3433373717
11
410.7491895090
21
153.4623166823
0
LINE
5
256
100
AcDbEntity
8
0
100
AcDbLine
62
0
6
CONTINUOUS
10
256.7491895090
20
123.4647928587
11
256.7491895090
21
153.4623166823
0
LINE
5
257
100
AcDbEntity
8
0
100
AcDbLine
62
0
6
CONTINUOUS
10
410.7491895090
20
151.9623166823
11
333.7491895090
21
151.9623166823
0
LINE
5
258
100
AcDbEntity
8
0
100
AcDbLine
62
0
6
CONTINUOUS
10
256.7491895090
20
151.9623166823
11
333.7491895090
21
151.9623166823
0
INSERT
5
259
100
AcDbEntity
8
0
100
AcDbBlockReference
62
0
6
CONTINUOUS
2
_FILLED
10
410.7491895090
20
151.9623166823
41
  3.000000
42
  3.000000
43
  3.000000
0
INSERT
5
25A
100
AcDbEntity
8
0
100
AcDbBlockReference
62
0
6
CONTINUOUS
2
_FILLED
10
256.7491895090
20
151.9623166823
41
  3.000000
42
  3.000000
43
  3.000000
50
180.000000
0
ENDBLK
5
25B
100
AcDbEntity
8
0
6
BYBLOCK
62
0
100
AcDbBlockEnd
0
BLOCK
5
25C
100
AcDbEntity
8
0
100
AcDbBlockBegin
62
0
6
CONTINUOUS
2
*D7
70
65
10
0.0000000000
20
0.0000000000
3
*D7
1

0
TEXT
5
25D
100
AcDbEntity
8
0
100
AcDbText
62
0
6
CONTINUOUS
10
330.2134752232
20
162.7123166823
7
STANDARD
40
3.0000000000
1
490
41
0.7857142857
72
0
100
AcDbText
0
LINE
5
25E
100
AcDbEntity
8
0
100
AcDbLine
62
0
6
CONTINUOUS
10
88.7491895090
20
116.0732632267
11
88.7491895090
21
163.4623166823
0
LINE
5
25F
100
AcDbEntity
8
0
100
AcDbLine
62
0
6
CONTINUOUS
10
578.7491895090
20
116.4956606497
11
578.7491895090
21
163.4623166823
0
LINE
5
260
100
AcDbEntity
8
0
100
AcDbLine
62
0
6
CONTINUOUS
10
88.7491895090
20
161.9623166823
11
333.7491895090
21
161.9623166823
0
LINE
5
261
100
AcDbEntity
8
0
100
AcDbLine
62
0
6
CONTINUOUS
10
578.7491895090
20
161.9623166823
11
333.7491895090
21
161.9623166823
0
INSERT
5
262
100
AcDbEntity
8
0
100
AcDbBlockReference
62
0
6
CONTINUOUS
2
_FILLED
10
88.7491895090
20
161.9623166823
41
  3.000000
42
  3.000000
43
  3.000000
50
180.000000
0
INSERT
5
263
100
AcDbEntity
8
0
100
AcDbBlockReference
62
0
6
CONTINUOUS
2
_FILLED
10
578.7491895090
20
161.9623166823
41
  3.000000
42
  3.000000
43
  3.000000
0
ENDBLK
5
264
100
AcDbEntity
8
0
6
BYBLOCK
62
0
100
AcDbBlockEnd
0
BLOCK
5
265
100
AcDbEntity
8
0
100
AcDbBlockBegin
2
_FILLED
70
64
10
0.0000000000
20
0.0000000000
3
_FILLED
1

0
SOLID
5
266
100
AcDbEntity
8
0
6
BYBLOCK
62
0
100
AcDbTrace
10
0.0000000000
20
0.0000000000
11
-1.0000000000
21
0.3166666667
12
-1.0000000000
22
-0.3166666667
13
-1.0000000000
23
-0.3166666667
0
ENDBLK
5
267
100
AcDbEntity
8
0
6
BYBLOCK
62
0
100
AcDbBlockEnd
0
ENDSEC
0
SECTION
2
ENTITIES
0
DIMENSION
5
268
100
AcDbEntity
8
0
100
AcDbDimension
62
0
6
CONTINUOUS
2
*D0
10
-48.2236513584
20
151.9623166823
11
-32.9465148679
21
154.2123166823
70
160
42
8.200000
3
DIMSTYLE_1
100
AcDbAlignedDimension
13
-40.0236513584
23
124.1620428510
14
-48.2236513584
24
141.7244165013
50
180.000000
100
AcDbRotatedDimension
0
DIMENSION
5
269
100
AcDbEntity
8
0
100
AcDbDimension
62
0
6
CONTINUOUS
2
*D1
10
-48.2236513584
20
-152.0376833177
11
-33.4538368890
21
-149.7876833177
70
160
42
6.200000
3
DIMSTYLE_1
100
AcDbAlignedDimension
13
-42.0236513584
23
-143.2099409129
14
-48.2236513584
24
-141.6845233159
50
180.000000
100
AcDbRotatedDimension
0
DIMENSION
5
26A
100
AcDbEntity
8
0
100
AcDbDimension
62
0
6
CONTINUOUS
2
*D2
10
608.7491895090
20
171.9623166823
11
333.7491895090
21
174.2123166823
70
160
42
550.000000
3
DIMSTYLE_1
100
AcDbAlignedDimension
13
58.7491895090
23
138.3202432413
14
608.7491895090
24
136.3415348917
100
AcDbRotatedDimension
0
DIMENSION
5
26B
100
AcDbEntity
8
0
100
AcDbDimension
62
0
6
CONTINUOUS
2
*D3
10
638.7491895090
20
-142.0376833177
11
636.4991895090
21
-0.0376833177
70
160
42
284.000000
3
DIMSTYLE_1
100
AcDbAlignedDimension
13
604.3129356532
23
141.9623166823
14
605.6394872540
24
-142.0376833177
50
270.000000
100
AcDbRotatedDimension
0
DIMENSION
5
26C
100
AcDbEntity
8
0
100
AcDbDimension
62
0
6
CONTINUOUS
2
*D4
10
618.7491895090
20
-112.0376833177
11
616.4991895090
21
-0.0376833177
70
160
42
224.000000
3
DIMSTYLE_1
100
AcDbAlignedDimension
13
582.8744912559
23
111.9623166823
14
582.8090752883
24
-112.0376833177
50
270.000000
100
AcDbRotatedDimension
0
DIMENSION
5
26D
100
AcDbEntity
8
0
100
AcDbDimension
62
0
6
CONTINUOUS
2
*D5
10
628.7491895090
20
-119.5376833177
11
626.4991895090
21
-0.0376833177
70
160
42
239.000000
3
DIMSTYLE_1
100
AcDbAlignedDimension
13
415.3205412679
23
119.4623166823
14
415.2179183417
24
-119.5376833177
50
270.000000
100
AcDbRotatedDimension
0
DIMENSION
5
26E
100
AcDbEntity
8
0
100
AcDbDimension
62
0
6
CONTINUOUS
2
*D6
10
256.7491895090
20
151.9623166823
11
333.7491895090
21
154.2123166823
70
160
42
154.000000
3
DIMSTYLE_1
100
AcDbAlignedDimension
13
410.7491895090
23
123.3433373717
14
256.7491895090
24
123.4647928587
50
180.000000
100
AcDbRotatedDimension
0
DIMENSION
5
26F
100
AcDbEntity
8
0
100
AcDbDimension
62
0
6
CONTINUOUS
2
*D7
10
578.7491895090
20
161.9623166823
11
333.7491895090
21
164.2123166823
70
160
42
490.000000
3
DIMSTYLE_1
100
AcDbAlignedDimension
13
88.7491895090
23
116.0732632267
14
578.7491895090
24
116.4956606497
100
AcDbRotatedDimension
0
LINE
5
270
100
AcDbEntity
8
0
100
AcDbLine
62
0
6
CONTINUOUS
10
58.7491895090
20
131.9760213347
11
58.7491895090
21
-132.0513879702
0
LINE
5
271
100
AcDbEntity
8
0
100
AcDbLine
62
9
6
CONTINUOUS
10
58.9747878044
20
131.7503070774
11
58.9747878044
21
-131.8256654955
0
LINE
5
272
100
AcDbEntity
8
0
100
AcDbLine
62
9
6
CONTINUOUS
10
60.9720468739
20
131.7504230393
11
60.9720468739
21
-131.8257896747
0
LINE
5
273
100
AcDbEntity
8
0
100
AcDbLine
62
9
6
CONTINUOUS
10
68.9610831520
20
-139.8148259527
11
68.9610831520
21
-141.8120850222
0
LINE
5
274
100
AcDbEntity
8
0
100
AcDbLine
62
9
6
CONTINUOUS
10
68.9610831520
20
139.7394593173
11
68.9610831521
21
141.7367183868
0
LINE
5
275
100
AcDbEntity
8
0
100
AcDbLine
62
0
6
CONTINUOUS
10
68.7354848565
20
-142.0376833177
11
598.7628941614
21
-142.0376833177
0
LINE
5
276
100
AcDbEntity
8
0
100
AcDbLine
62
9
6
CONTINUOUS
10
68.9611991138
20
-141.8120850222
11
598.5371716867
21
-141.8120850222
0
LINE
5
277
100
AcDbEntity
8
0
100
AcDbLine
62
9
6
CONTINUOUS
10
68.9610831520
20
-139.8148259527
11
598.5372958659
21
-139.8148259527
0
LINE
5
278
100
AcDbEntity
8
0
100
AcDbLine
62
9
6
CONTINUOUS
10
60.9720468739
20
-131.8257896747
11
58.9747878044
21
-131.8257896746
0
LINE
5
279
100
AcDbEntity
8
0
100
AcDbLine
62
9
6
CONTINUOUS
10
606.5263321440
20
-131.8257896747
11
608.5235912135
21
-131.8257896747
0
LINE
5
27A
100
AcDbEntity
8
0
100
AcDbLine
62
9
6
CONTINUOUS
10
58.9747878044
20
-131.8256654955
11
58.7491895090
21
-132.0513879702
0
LINE
5
27B
100
AcDbEntity
8
0
100
AcDbLine
62
9
6
CONTINUOUS
10
58.9747878044
20
131.7503070774
11
58.7491895090
21
131.9760213347
0
LINE
5
27C
100
AcDbEntity
8
0
100
AcDbLine
62
9
6
CONTINUOUS
10
68.9611991138
20
-141.8120850222
11
68.7354848565
21
-142.0376833177
0
LINE
5
27D
100
AcDbEntity
8
0
100
AcDbLine
62
9
6
CONTINUOUS
10
68.9612073312
20
141.7367183868
11
68.7354848565
21
141.9623166823
0
LINE
5
27E
100
AcDbEntity
8
0
100
AcDbLine
62
9
6
CONTINUOUS
10
608.5235912135
20
131.7502988601
11
608.7491895090
21
131.9760213347
0
LINE
5
27F
100
AcDbEntity
8
0
100
AcDbLine
62
9
6
CONTINUOUS
10
598.5371799041
20
141.7367183868
11
598.7628941614
21
141.9623166823
0
LINE
5
280
100
AcDbEntity
8
0
100
AcDbLine
62
9
6
CONTINUOUS
10
598.5371716867
20
-141.8120850222
11
598.7628941614
21
-142.0376833177
0
LINE
5
281
100
AcDbEntity
8
0
100
AcDbLine
62
9
6
CONTINUOUS
10
608.5235912135
20
-131.8256737128
11
608.7491895090
21
-132.0513879702
0
LINE
5
282
100
AcDbEntity
8
0
100
AcDbLine
62
9
6
CONTINUOUS
10
60.9720468739
20
131.7504230393
11
58.9747878044
21
131.7504230393
0
LINE
5
283
100
AcDbEntity
8
0
100
AcDbLine
62
9
6
CONTINUOUS
10
606.5263321440
20
131.7504230393
11
608.5235912135
21
131.7504230392
0
LINE
5
284
100
AcDbEntity
8
0
100
AcDbLine
62
9
6
CONTINUOUS
10
598.5372958659
20
139.7394593173
11
68.9610831520
21
139.7394593173
0
LINE
5
285
100
AcDbEntity
8
0
100
AcDbLine
62
9
6
CONTINUOUS
10
598.5371799041
20
141.7367183868
11
68.9612073312
21
141.7367183868
0
LINE
5
286
100
AcDbEntity
8
0
100
AcDbLine
62
0
6
CONTINUOUS
10
68.7354848565
20
141.9623166823
11
598.7628941614
21
141.9623166823
0
LINE
5
287
100
AcDbEntity
8
0
100
AcDbLine
62
9
6
CONTINUOUS
10
598.5372958659
20
-139.8148259527
11
598.5372958658
21
-141.8120850222
0
LINE
5
288
100
AcDbEntity
8
0
100
AcDbLine
62
9
6
CONTINUOUS
10
598.5372958659
20
139.7394593173
11
598.5372958659
21
141.7367183868
0
LINE
5
289
100
AcDbEntity
8
0
100
AcDbLine
62
9
6
CONTINUOUS
10
606.5263321440
20
-131.8257896747
11
606.5263321440
21
131.7504230393
0
LINE
5
28A
100
AcDbEntity
8
0
100
AcDbLine
62
9
6
CONTINUOUS
10
608.5235912135
20
-131.8256737128
11
608.5235912135
21
131.7502988601
0
LINE
5
28B
100
AcDbEntity
8
0
100
AcDbLine
62
0
6
CONTINUOUS
10
608.7491895090
20
131.9760213347
11
608.7491895090
21
-132.0513879702
0
LINE
5
28C
100
AcDbEntity
8
0
100
AcDbLine
62
0
6
CONTINUOUS
10
-46.3283232709
20
-141.8120850222
11
-42.0236513584
21
-142.0376833177
0
LINE
5
28D
100
AcDbEntity
8
0
100
AcDbLine
62
9
6
CONTINUOUS
10
-48.2236513584
20
-131.8257896747
11
-46.3283232709
21
-131.8257896747
0
LINE
5
28E
100
AcDbEntity
8
0
100
AcDbLine
62
9
6
CONTINUOUS
10
-46.3283232709
20
-131.8256737128
11
-42.0236513584
21
-132.0513879702
0
LINE
5
28F
100
AcDbEntity
8
0
100
AcDbLine
62
0
6
CONTINUOUS
10
-42.0236513584
20
-122.9832973528
11
-40.0236513584
21
-122.7376833177
0
LINE
5
290
100
AcDbEntity
8
0
100
AcDbLine
62
0
6
CONTINUOUS
10
-42.0236513584
20
-115.4832973528
11
-40.0236513584
21
-115.2376833177
0
LINE
5
291
100
AcDbEntity
8
0
100
AcDbLine
62
0
6
CONTINUOUS
10
-42.0236513584
20
-116.0920692826
11
-40.0236513584
21
-116.3376833177
0
LINE
5
292
100
AcDbEntity
8
0
100
AcDbLine
62
0
6
CONTINUOUS
10
-42.0236513584
20
-108.5920692826
11
-40.0236513584
21
-108.8376833177
0
LINE
5
293
100
AcDbEntity
8
0
100
AcDbLine
62
0
6
CONTINUOUS
10
-48.2236513584
20
-139.8148259527
11
-48.2236513584
21
139.7394593173
0
LINE
5
294
100
AcDbEntity
8
0
100
AcDbLine
62
9
6
CONTINUOUS
10
-46.3283232709
20
-131.8256737128
11
-46.3283232709
21
131.7502988601
0
LINE
5
295
100
AcDbEntity
8
0
100
AcDbLine
62
0
6
CONTINUOUS
10
-42.0236513584
20
141.9623166823
11
-42.0236513584
21
-142.0376833177
0
LINE
5
296
100
AcDbEntity
8
0
100
AcDbLine
62
0
6
CONTINUOUS
10
-40.0236513584
20
-108.8377392493
11
-40.0236513584
21
-115.2376273862
0
LINE
5
297
100
AcDbEntity
8
0
100
AcDbLine
62
0
6
CONTINUOUS
10
-40.0236513584
20
108.7623726138
11
-40.0236513584
21
115.1622607507
0
LINE
5
298
100
AcDbEntity
8
0
100
AcDbLine
62
0
6
CONTINUOUS
10
-40.0236513584
20
-116.3377392493
11
-40.0236513584
21
-122.7376273862
0
LINE
5
299
100
AcDbEntity
8
0
100
AcDbLine
62
0
6
CONTINUOUS
10
-40.0236513584
20
116.2623726138
11
-40.0236513584
21
122.6622607507
0
LINE
5
29A
100
AcDbEntity
8
0
100
AcDbLine
62
0
6
CONTINUOUS
10
-42.0236513584
20
108.5167026472
11
-40.0236513584
21
108.7623166823
0
LINE
5
29B
100
AcDbEntity
8
0
100
AcDbLine
62
0
6
CONTINUOUS
10
-42.0236513584
20
115.4079307174
11
-40.0236513584
21
115.1623166823
0
LINE
5
29C
100
AcDbEntity
8
0
100
AcDbLine
62
0
6
CONTINUOUS
10
-42.0236513584
20
116.0167026472
11
-40.0236513584
21
116.2623166823
0
LINE
5
29D
100
AcDbEntity
8
0
100
AcDbLine
62
0
6
CONTINUOUS
10
-42.0236513584
20
122.9079307174
11
-40.0236513584
21
122.6623166823
0
LINE
5
29E
100
AcDbEntity
8
0
100
AcDbLine
62
9
6
CONTINUOUS
10
-46.3283232709
20
131.7502988601
11
-42.0236513584
21
131.9760213347
0
LINE
5
29F
100
AcDbEntity
8
0
100
AcDbLine
62
0
6
CONTINUOUS
10
-46.3283232709
20
141.7367183868
11
-42.0236513584
21
141.9623166823
0
LINE
5
2A0
100
AcDbEntity
8
0
100
AcDbLine
62
9
6
CONTINUOUS
10
-48.2236513584
20
131.7504230393
11
-46.3283232709
21
131.7504230392
0
CIRCLE
5
2A1
100
AcDbEntity
8
0
100
AcDbCircle
62
0
6
CONTINUOUS
10
578.7491895090
20
-112.0376833177
40
3.0000000000
0
CIRCLE
5
2A2
100
AcDbEntity
8
0
100
AcDbCircle
62
0
6
CONTINUOUS
10
88.7491895090
20
-112.0376833177
40
3.0000000000
0
CIRCLE
5
2A3
100
AcDbEntity
8
0
100
AcDbCircle
62
0
6
CONTINUOUS
10
578.7491895090
20
111.9623166823
40
3.0000000000
0
CIRCLE
5
2A4
100
AcDbEntity
8
0
100
AcDbCircle
62
0
6
CONTINUOUS
10
88.7491895090
20
111.9623166823
40
3.0000000000
0
CIRCLE
5
2A5
100
AcDbEntity
8
0
100
AcDbCircle
62
0
6
CONTINUOUS
10
410.7491895090
20
-119.5376833177
40
3.0000000000
0
CIRCLE
5
2A6
100
AcDbEntity
8
0
100
AcDbCircle
62
0
6
CONTINUOUS
10
410.7491895090
20
119.4623166823
40
3.0000000000
0
CIRCLE
5
2A7
100
AcDbEntity
8
0
100
AcDbCircle
62
0
6
CONTINUOUS
10
256.7491895090
20
-119.5376833177
40
3.0000000000
0
CIRCLE
5
2A8
100
AcDbEntity
8
0
100
AcDbCircle
62
0
6
CONTINUOUS
10
256.7491895090
20
119.4623166823
40
3.0000000000
0
CIRCLE
5
2A9
100
AcDbEntity
8
0
100
AcDbCircle
62
0
6
CONTINUOUS
10
256.7491895090
20
119.4623166823
40
1.6500000000
0
CIRCLE
5
2AA
100
AcDbEntity
8
0
100
AcDbCircle
62
0
6
CONTINUOUS
10
256.7491895090
20
-119.5376833177
40
1.6500000000
0
CIRCLE
5
2AB
100
AcDbEntity
8
0
100
AcDbCircle
62
0
6
CONTINUOUS
10
410.7491895090
20
119.4623166823
40
1.6500000000
0
CIRCLE
5
2AC
100
AcDbEntity
8
0
100
AcDbCircle
62
0
6
CONTINUOUS
10
410.7491895090
20
-119.5376833177
40
1.6500000000
0
CIRCLE
5
2AD
100
AcDbEntity
8
0
100
AcDbCircle
62
0
6
CONTINUOUS
10
88.7491895090
20
111.9623166823
40
1.6500000000
0
CIRCLE
5
2AE
100
AcDbEntity
8
0
100
AcDbCircle
62
0
6
CONTINUOUS
10
578.7491895090
20
111.9623166823
40
1.6500000000
0
CIRCLE
5
2AF
100
AcDbEntity
8
0
100
AcDbCircle
62
0
6
CONTINUOUS
10
88.7491895090
20
-112.0376833177
40
1.6500000000
0
CIRCLE
5
2B0
100
AcDbEntity
8
0
100
AcDbCircle
62
0
6
CONTINUOUS
10
578.7491895090
20
-112.0376833177
40
1.6500000000
0
ARC
5
2B1
100
AcDbEntity
8
0
100
AcDbCircle
62
0
6
CONTINUOUS
10
-46.2236513584
20
139.7394556825
40
2.0000000000
100
AcDbArc
50
92.9999945503
51
179.9998958700
0
ARC
5
2B2
100
AcDbEntity
8
0
100
AcDbCircle
62
0
6
CONTINUOUS
10
-46.2236513584
20
-139.8148259527
40
2.0000000000
100
AcDbArc
50
180.0000000000
51
267.0000000000
0
SPLINE
5
2B3
100
AcDbEntity
8
0
100
AcDbSpline
62
0
6
CONTINUOUS
70
0
71
3
72
21
73
17
74
15
42
0.0000001000
43
0.0000001000
44
0.0000000001
12
-15.6801426947
22
0.0000000000
32
0.0000000000
13
0.0000000000
23
15.6801426947
33
0.0000000000
40
0.0000000000
40
0.0000000000
40
0.0000000000
40
0.0000000000
40
0.0715435308
40
0.1430392900
40
0.2144909572
40
0.2859044388
40
0.3572874325
40
0.4286492217
40
0.5000001409
40
0.5713510480
40
0.6427128014
40
0.7140957418
40
0.7855091629
40
0.8569607730
40
0.9284564888
40
1.0000000000
40
1.0000000000
40
1.0000000000
40
1.0000000000
10
68.7354848565
20
-142.0376833177
30
0.0000000000
10
68.3615472661
20
-142.0376833177
30
0.0000000000
10
67.6132431176
20
-141.9957177688
30
0.0000000000
10
66.5057755392
20
-141.8076499259
30
0.0000000000
10
65.4268302035
20
-141.4969661709
30
0.0000000000
10
64.3900389688
20
-141.0676598783
30
0.0000000000
10
63.4082462155
20
-140.5251751937
30
0.0000000000
10
62.4936582888
20
-139.8763329577
30
0.0000000000
10
61.6576257833
20
-139.1292439974
30
0.0000000000
10
60.9105373113
20
-138.2932113078
30
0.0000000000
10
60.2616957457
20
-137.3786235577
30
0.0000000000
10
59.7192117619
20
-136.3968313161
30
0.0000000000
10
59.2899060588
20
-135.3600408112
30
0.0000000000
10
58.9792226934
20
-134.2810962453
30
0.0000000000
10
58.7911550280
20
-133.1736292777
30
0.0000000000
10
58.7491895090
20
-132.4253254586
30
0.0000000000
10
58.7491895090
20
-132.0513879702
30
0.0000000000
11
68.7354848565
21
-142.0376833177
31
0.0000000000
11
67.6154344422
21
-141.9748266283
31
0.0000000000
11
66.5101938457
21
-141.7871379039
31
0.0000000000
11
65.4335743996
21
-141.4770979955
31
0.0000000000
11
64.3989907876
21
-141.0486944207
31
0.0000000000
11
63.4193064400
21
-140.5073617535
31
0.0000000000
11
62.5066839023
21
-139.8599064395
31
0.0000000000
11
61.6724489704
21
-139.1144207279
31
0.0000000000
11
60.9269637467
21
-138.2801856131
31
0.0000000000
11
60.2795091189
21
-137.3675632760
31
0.0000000000
11
59.7381771755
21
-136.3878794834
31
0.0000000000
11
59.3097742084
21
-135.3532966467
31
0.0000000000
11
58.9997347030
21
-134.2766780177
31
0.0000000000
11
58.8120461641
21
-133.1714380798
31
0.0000000000
11
58.7491895090
21
-132.0513879702
31
0.0000000000
0
SPLINE
5
2B4
100
AcDbEntity
8
0
100
AcDbSpline
62
0
6
CONTINUOUS
70
0
71
3
72
21
73
17
74
15
42
0.0000001000
43
0.0000001000
44
0.0000000001
12
0.0000000000
22
-15.6801426947
32
0.0000000000
13
-15.6801426947
23
-0.0000000000
33
0.0000000000
40
0.0000000000
40
0.0000000000
40
0.0000000000
40
0.0000000000
40
0.0715435308
40
0.1430392900
40
0.2144909572
40
0.2859044388
40
0.3572874325
40
0.4286492217
40
0.5000001409
40
0.5713510480
40
0.6427128014
40
0.7140957418
40
0.7855091629
40
0.8569607730
40
0.9284564888
40
1.0000000000
40
1.0000000000
40
1.0000000000
40
1.0000000000
10
608.7491895090
20
-132.0513879702
30
0.0000000000
10
608.7491895090
20
-132.4253255606
30
0.0000000000
10
608.7072239600
20
-133.1736297091
30
0.0000000000
10
608.5191561172
20
-134.2810972875
30
0.0000000000
10
608.2084723621
20
-135.3600426232
30
0.0000000000
10
607.7791660695
20
-136.3968338579
30
0.0000000000
10
607.2366813849
20
-137.3786266112
30
0.0000000000
10
606.5878391489
20
-138.2932145379
30
0.0000000000
10
605.8407501887
20
-139.1292470434
30
0.0000000000
10
605.0047174990
20
-139.8763355153
30
0.0000000000
10
604.0901297489
20
-140.5251770810
30
0.0000000000
10
603.1083375074
20
-141.0676610647
30
0.0000000000
10
602.0715470025
20
-141.4969667679
30
0.0000000000
10
600.9926024366
20
-141.8076501333
30
0.0000000000
10
599.8851354690
20
-141.9957177987
30
0.0000000000
10
599.1368316498
20
-142.0376833177
30
0.0000000000
10
598.7628941614
20
-142.0376833177
30
0.0000000000
11
608.7491895090
21
-132.0513879702
31
0.0000000000
11
608.6863328195
21
-133.1714383845
31
0.0000000000
11
608.4986440952
21
-134.2766789810
31
0.0000000000
11
608.1886041868
21
-135.3532984271
31
0.0000000000
11
607.7602006120
21
-136.3878820391
31
0.0000000000
11
607.2188679448
21
-137.3675663867
31
0.0000000000
11
606.5714126308
21
-138.2801889244
31
0.0000000000
11
605.8259269192
21
-139.1144238563
31
0.0000000000
11
604.9916918044
21
-139.8599090799
31
0.0000000000
11
604.0790694672
21
-140.5073637077
31
0.0000000000
11
603.0993856746
21
-141.0486956512
31
0.0000000000
11
602.0648028379
21
-141.4770986183
31
0.0000000000
11
600.9881842089
21
-141.7871381237
31
0.0000000000
11
599.8829442711
21
-141.9748266626
31
0.0000000000
11
598.7628941614
21
-142.0376833177
31
0.0000000000
0
SPLINE
5
2B5
100
AcDbEntity
8
0
100
AcDbSpline
62
0
6
CONTINUOUS
70
0
71
3
72
21
73
17
74
15
42
0.0000001000
43
0.0000001000
44
0.0000000001
12
15.6801426947
22
0.0000000000
32
0.0000000000
13
0.0000000000
23
-15.6801426947
33
0.0000000000
40
0.0000000000
40
0.0000000000
40
0.0000000000
40
0.0000000000
40
0.0715435308
40
0.1430392900
40
0.2144909572
40
0.2859044388
40
0.3572874325
40
0.4286492217
40
0.5000001409
40
0.5713510480
40
0.6427128014
40
0.7140957418
40
0.7855091629
40
0.8569607730
40
0.9284564888
40
1.0000000000
40
1.0000000000
40
1.0000000000
40
1.0000000000
10
598.7628941614
20
141.9623166823
30
0.0000000000
10
599.1368317519
20
141.9623166823
30
0.0000000000
10
599.8851359004
20
141.9203511334
30
0.0000000000
10
600.9926034788
20
141.7322832905
30
0.0000000000
10
602.0715488145
20
141.4215995354
30
0.0000000000
10
603.1083400491
20
140.9922932429
30
0.0000000000
10
604.0901328025
20
140.4498085583
30
0.0000000000
10
605.0047207291
20
139.8009663223
30
0.0000000000
10
605.8407532346
20
139.0538773620
30
0.0000000000
10
606.5878417066
20
138.2178446724
30
0.0000000000
10
607.2366832722
20
137.3032569222
30
0.0000000000
10
607.7791672560
20
136.3214646807
30
0.0000000000
10
608.2084729592
20
135.2846741758
30
0.0000000000
10
608.5191563245
20
134.2057296099
30
0.0000000000
10
608.7072239900
20
133.0982626423
30
0.0000000000
10
608.7491895090
20
132.3499588232
30
0.0000000000
10
608.7491895090
20
131.9760213347
30
0.0000000000
11
598.7628941614
21
141.9623166823
31
0.0000000000
11
599.8829445757
21
141.8994599928
31
0.0000000000
11
600.9881851722
21
141.7117712685
31
0.0000000000
11
602.0648046183
21
141.4017313601
31
0.0000000000
11
603.0993882303
21
140.9733277853
31
0.0000000000
11
604.0790725779
21
140.4319951181
31
0.0000000000
11
604.9916951156
21
139.7845398041
31
0.0000000000
11
605.8259300475
21
139.0390540925
31
0.0000000000
11
606.5714152712
21
138.2048189777
31
0.0000000000
11
607.2188698990
21
137.2921966406
31
0.0000000000
11
607.7602018424
21
136.3125128479
31
0.0000000000
11
608.1886048095
21
135.2779300112
31
0.0000000000
11
608.4986443149
21
134.2013113822
31
0.0000000000
11
608.6863328538
21
133.0960714444
31
0.0000000000
11
608.7491895090
21
131.9760213347
31
0.0000000000
0
SPLINE
5
2B6
100
AcDbEntity
8
0
100
AcDbSpline
62
0
6
CONTINUOUS
70
0
71
3
72
21
73
17
74
15
42
0.0000001000
43
0.0000001000
44
0.0000000001
12
0.0000000000
22
15.6801426947
32
0.0000000000
13
15.6801426947
23
-0.0000000000
33
0.0000000000
40
0.0000000000
40
0.0000000000
40
0.0000000000
40
0.0000000000
40
0.0715435308
40
0.1430392900
40
0.2144909572
40
0.2859044388
40
0.3572874325
40
0.4286492217
40
0.5000001409
40
0.5713510480
40
0.6427128014
40
0.7140957418
40
0.7855091629
40
0.8569607730
40
0.9284564888
40
1.0000000000
40
1.0000000000
40
1.0000000000
40
1.0000000000
10
58.7491895090
20
131.9760213347
30
0.0000000000
10
58.7491895090
20
132.3499589252
30
0.0000000000
10
58.7911550579
20
133.0982630737
30
0.0000000000
10
58.9792229008
20
134.2057306521
30
0.0000000000
10
59.2899066558
20
135.2846759878
30
0.0000000000
10
59.7192129484
20
136.3214672224
30
0.0000000000
10
60.2616976330
20
137.3032599758
30
0.0000000000
10
60.9105398690
20
138.2178479025
30
0.0000000000
10
61.6576288293
20
139.0538804079
30
0.0000000000
10
62.4936615189
20
139.8009688799
30
0.0000000000
10
63.4082492690
20
140.4498104456
30
0.0000000000
10
64.3900415105
20
140.9922944293
30
0.0000000000
10
65.4268320155
20
141.4216001325
30
0.0000000000
10
66.5057765813
20
141.7322834978
30
0.0000000000
10
67.6132435490
20
141.9203511633
30
0.0000000000
10
68.3615473681
20
141.9623166823
30
0.0000000000
10
68.7354848565
20
141.9623166823
30
0.0000000000
11
58.7491895090
21
131.9760213347
31
0.0000000000
11
58.8120461984
21
133.0960717490
31
0.0000000000
11
58.9997349227
21
134.2013123455
31
0.0000000000
11
59.3097748312
21
135.2779317916
31
0.0000000000
11
59.7381784059
21
136.3125154037
31
0.0000000000
11
60.2795110732
21
137.2921997512
31
0.0000000000
11
60.9269663872
21
138.2048222890
31
0.0000000000
11
61.6724520988
21
139.0390572208
31
0.0000000000
11
62.5066872136
21
139.7845424445
31
0.0000000000
11
63.4193095507
21
140.4319970723
31
0.0000000000
11
64.3989933433
21
140.9733290158
31
0.0000000000
11
65.4335761800
21
141.4017319828
31
0.0000000000
11
66.5101948090
21
141.7117714883
31
0.0000000000
11
67.6154347469
21
141.8994600271
31
0.0000000000
11
68.7354848565
21
141.9623166823
31
0.0000000000
0
SPLINE
5
2B7
100
AcDbEntity
8
0
100
AcDbSpline
62
9
6
CONTINUOUS
70
0
71
3
72
21
73
17
74
15
42
0.0000001000
43
0.0000001000
44
0.0000000001
12
0.0086676784
22
-15.6772763747
32
0.0000000000
13
15.6772763778
23
-0.0086619380
33
0.0000000000
40
0.0000000000
40
0.0000000000
40
0.0000000000
40
0.0000000000
40
0.0714935722
40
0.1429613758
40
0.2144066529
40
0.2858266984
40
0.3572280488
40
0.4286173915
40
0.4999996464
40
0.5713819072
40
0.6427712274
40
0.7141725306
40
0.7855926097
40
0.8570378755
40
0.9285055251
40
1.0000000000
40
1.0000000000
40
1.0000000000
40
1.0000000000
10
58.9747877216
20
-131.8256655792
30
0.0000000000
10
58.9749942827
20
-132.1992737426
30
0.0000000000
10
59.0173043881
20
-132.9470100555
30
0.0000000000
10
59.2057699737
20
-134.0537521568
30
0.0000000000
10
59.5167726908
20
-135.1322374941
30
0.0000000000
10
59.9463612882
20
-136.1687914612
30
0.0000000000
10
60.4891027160
20
-137.1505179870
30
0.0000000000
10
61.1381857490
20
-138.0651752969
30
0.0000000000
10
61.8854891476
20
-138.9013700379
30
0.0000000000
10
62.7216823569
20
-139.6486749744
30
0.0000000000
10
63.6363381312
20
-140.2977595898
30
0.0000000000
10
64.6180634039
20
-140.8405028919
30
0.0000000000
10
65.6546163910
20
-141.2700935015
30
0.0000000000
10
66.7331004489
20
-141.5810982429
30
0.0000000000
10
67.8398459381
20
-141.7695665571
30
0.0000000000
10
68.5875861551
20
-141.8118786728
30
0.0000000000
10
68.9611990357
20
-141.8120850997
30
0.0000000000
11
58.9747877216
21
-131.8256655792
31
0.0000000000
11
59.0381581197
21
-132.9446973547
31
0.0000000000
11
59.2262333244
21
-134.0492199753
31
0.0000000000
11
59.5365995659
21
-135.1254281611
31
0.0000000000
11
59.9652830910
21
-136.1597858065
31
0.0000000000
11
60.5068767667
21
-137.1394211239
31
0.0000000000
11
61.1545888301
21
-138.0521405465
31
0.0000000000
11
61.9003036190
21
-138.8865555521
31
0.0000000000
11
62.7347172521
21
-139.6322720143
31
0.0000000000
11
63.6474351266
21
-140.2799856474
31
0.0000000000
11
64.6270687155
21
-140.8215809235
31
0.0000000000
11
65.6614259877
21
-141.2502667263
31
0.0000000000
11
66.7376333850
21
-141.5606350592
31
0.0000000000
11
67.8421532281
21
-141.7487121957
31
0.0000000000
11
68.9611990357
21
-141.8120850997
31
0.0000000000
0
SPLINE
5
2B8
100
AcDbEntity
8
0
100
AcDbSpline
62
9
6
CONTINUOUS
70
0
71
3
72
21
73
17
74
15
42
0.0000001000
43
0.0000001000
44
0.0000000001
12
-15.6772763747
22
-0.0086676784
32
0.0000000000
13
-0.0086619380
23
-15.6772763778
33
0.0000000000
40
0.0000000000
40
0.0000000000
40
0.0000000000
40
0.0000000000
40
0.0714935722
40
0.1429613758
40
0.2144066529
40
0.2858266984
40
0.3572280488
40
0.4286173915
40
0.4999996464
40
0.5713819072
40
0.6427712274
40
0.7141725306
40
0.7855926097
40
0.8570378755
40
0.9285055251
40
1.0000000000
40
1.0000000000
40
1.0000000000
40
1.0000000000
10
68.9612072475
20
141.7367184697
30
0.0000000000
10
68.5875990841
20
141.7365119086
30
0.0000000000
10
67.8398627712
20
141.6942018031
30
0.0000000000
10
66.7331206699
20
141.5057362175
30
0.0000000000
10
65.6546353326
20
141.1947335004
30
0.0000000000
10
64.6180813655
20
140.7651449030
30
0.0000000000
10
63.6363548397
20
140.2224034753
30
0.0000000000
10
62.7216975297
20
139.5733204423
30
0.0000000000
10
61.8855027888
20
138.8260170436
30
0.0000000000
10
61.1381978523
20
137.9898238344
30
0.0000000000
10
60.4891132368
20
137.0751680601
30
0.0000000000
10
59.9463699348
20
136.0934427873
30
0.0000000000
10
59.5167793252
20
135.0568898002
30
0.0000000000
10
59.2057745838
20
133.9784057424
30
0.0000000000
10
59.0173062695
20
132.8716602531
30
0.0000000000
10
58.9749941539
20
132.1239200362
30
0.0000000000
10
58.9747877270
20
131.7503071555
30
0.0000000000
11
68.9612072475
21
141.7367184697
31
0.0000000000
11
67.8421754720
21
141.6733480716
31
0.0000000000
11
66.7376528514
21
141.4852728669
31
0.0000000000
11
65.6614446655
21
141.1749066253
31
0.0000000000
11
64.6270870202
21
140.7462231003
31
0.0000000000
11
63.6474517027
21
140.2046294246
31
0.0000000000
11
62.7347322802
21
139.5569173611
31
0.0000000000
11
61.9003172746
21
138.8112025723
31
0.0000000000
11
61.1546008124
21
137.9767889391
31
0.0000000000
11
60.5068871792
21
137.0640710647
31
0.0000000000
11
59.9652919032
21
136.0844374757
31
0.0000000000
11
59.5366061004
21
135.0500802035
31
0.0000000000
11
59.2262377675
21
133.9738728062
31
0.0000000000
11
59.0381606310
21
132.8693529632
31
0.0000000000
11
58.9747877270
21
131.7503071555
31
0.0000000000
0
SPLINE
5
2B9
100
AcDbEntity
8
0
100
AcDbSpline
62
9
6
CONTINUOUS
70
0
71
3
72
21
73
17
74
15
42
0.0000001000
43
0.0000001000
44
0.0000000001
12
15.6772763747
22
0.0086676784
32
0.0000000000
13
0.0086619380
23
15.6772763778
33
0.0000000000
40
0.0000000000
40
0.0000000000
40
0.0000000000
40
0.0000000000
40
0.0714935722
40
0.1429613758
40
0.2144066529
40
0.2858266984
40
0.3572280488
40
0.4286173915
40
0.4999996464
40
0.5713819072
40
0.6427712274
40
0.7141725306
40
0.7855926097
40
0.8570378755
40
0.9285055251
40
1.0000000000
40
1.0000000000
40
1.0000000000
40
1.0000000000
10
598.5371717704
20
-141.8120851051
30
0.0000000000
10
598.9107799338
20
-141.8118785440
30
0.0000000000
10
599.6585162467
20
-141.7695684385
30
0.0000000000
10
600.7652583480
20
-141.5811028529
30
0.0000000000
10
601.8437436853
20
-141.2701001359
30
0.0000000000
10
602.8802976524
20
-140.8405115385
30
0.0000000000
10
603.8620241782
20
-140.2977701107
30
0.0000000000
10
604.7766814882
20
-139.6486870777
30
0.0000000000
10
605.6128762291
20
-138.9013836791
30
0.0000000000
10
606.3601811656
20
-138.0651904698
30
0.0000000000
10
607.0092657811
20
-137.1505346955
30
0.0000000000
10
607.5520090831
20
-136.1688094228
30
0.0000000000
10
607.9815996927
20
-135.1322564357
30
0.0000000000
10
608.2926044341
20
-134.0537723778
30
0.0000000000
10
608.4810727484
20
-132.9470268886
30
0.0000000000
10
608.5233848640
20
-132.1992866716
30
0.0000000000
10
608.5235912909
20
-131.8256737910
30
0.0000000000
11
598.5371717704
21
-141.8120851051
31
0.0000000000
11
599.6562035459
21
-141.7487147070
31
0.0000000000
11
600.7607261666
21
-141.5606395023
31
0.0000000000
11
601.8369343524
21
-141.2502732608
31
0.0000000000
11
602.8712919977
21
-140.8215897357
31
0.0000000000
11
603.8509273152
21
-140.2799960600
31
0.0000000000
11
604.7636467378
21
-139.6322839965
31
0.0000000000
11
605.5980617433
21
-138.8865692077
31
0.0000000000
11
606.3437782056
21
-138.0521555745
31
0.0000000000
11
606.9914918387
21
-137.1394377001
31
0.0000000000
11
607.5330871147
21
-136.1598041111
31
0.0000000000
11
607.9617729175
21
-135.1254468389
31
0.0000000000
11
608.2721412505
21
-134.0492394417
31
0.0000000000
11
608.4602183869
21
-132.9447195986
31
0.0000000000
11
608.5235912909
21
-131.8256737910
31
0.0000000000
0
SPLINE
5
2BA
100
AcDbEntity
8
0
100
AcDbSpline
62
9
6
CONTINUOUS
70
0
71
3
72
21
73
17
74
15
42
0.0000001000
43
0.0000001000
44
0.0000000001
12
-0.0086676784
22
15.6772763747
32
0.0000000000
13
-15.6772763778
23
0.0086619380
33
0.0000000000
40
0.0000000000
40
0.0000000000
40
0.0000000000
40
0.0000000000
40
0.0714935722
40
0.1429613758
40
0.2144066529
40
0.2858266984
40
0.3572280488
40
0.4286173915
40
0.4999996464
40
0.5713819072
40
0.6427712274
40
0.7141725306
40
0.7855926097
40
0.8570378755
40
0.9285055251
40
1.0000000000
40
1.0000000000
40
1.0000000000
40
1.0000000000
10
608.5235912964
20
131.7502989438
30
0.0000000000
10
608.5233847353
20
132.1239071072
30
0.0000000000
10
608.4810746298
20
132.8716434200
30
0.0000000000
10
608.2926090442
20
133.9783855213
30
0.0000000000
10
607.9816063271
20
135.0568708586
30
0.0000000000
10
607.5520177297
20
136.0934248257
30
0.0000000000
10
607.0092763019
20
137.0751513516
30
0.0000000000
10
606.3601932690
20
137.9898086615
30
0.0000000000
10
605.6128898703
20
138.8260034025
30
0.0000000000
10
604.7766966611
20
139.5733083390
30
0.0000000000
10
603.8620408868
20
140.2223929544
30
0.0000000000
10
602.8803156140
20
140.7651362564
30
0.0000000000
10
601.8437626269
20
141.1947268661
30
0.0000000000
10
600.7652785690
20
141.5057316074
30
0.0000000000
10
599.6585330798
20
141.6941999217
30
0.0000000000
10
598.9107928628
20
141.7365120373
30
0.0000000000
10
598.5371799822
20
141.7367184642
30
0.0000000000
11
608.5235912964
21
131.7502989438
31
0.0000000000
11
608.4602208982
21
132.8693307193
31
0.0000000000
11
608.2721456936
21
133.9738533399
31
0.0000000000
11
607.9617794520
21
135.0500615257
31
0.0000000000
11
607.5330959269
21
136.0844191711
31
0.0000000000
11
606.9915022512
21
137.0640544885
31
0.0000000000
11
606.3437901878
21
137.9767739111
31
0.0000000000
11
605.5980753990
21
138.8111889167
31
0.0000000000
11
604.7636617658
21
139.5569053789
31
0.0000000000
11
603.8509438913
21
140.2046190120
31
0.0000000000
11
602.8713103024
21
140.7462142880
31
0.0000000000
11
601.8369530302
21
141.1749000908
31
0.0000000000
11
600.7607456329
21
141.4852684238
31
0.0000000000
11
599.6562257899
21
141.6733455602
31
0.0000000000
11
598.5371799822
21
141.7367184642
31
0.0000000000
0
SPLINE
5
2BB
100
AcDbEntity
8
0
100
AcDbSpline
62
9
6
CONTINUOUS
70
0
71
3
72
21
73
17
74
15
42
0.0000001000
43
0.0000001000
44
0.0000000001
12
12.5441138584
22
0.0003252077
32
0.0000000000
13
0.0003097932
23
12.5441138588
33
0.0000000000
40
0.0000000000
40
0.0000000000
40
0.0000000000
40
0.0000000000
40
0.0714924502
40
0.1429741556
40
0.2144258114
40
0.2858457953
40
0.3572420458
40
0.4286229341
40
0.4999952501
40
0.5713680549
40
0.6427500566
40
0.7141473636
40
0.7855684275
40
0.8570210643
40
0.9285035491
40
1.0000000000
40
1.0000000000
40
1.0000000000
40
1.0000000000
10
598.5372958659
20
-139.8148259527
30
0.0000000000
10
598.8362323442
20
-139.8148182028
30
0.0000000000
10
599.4346023818
20
-139.7812986822
30
0.0000000000
10
600.3203196488
20
-139.6309612610
30
0.0000000000
10
601.1834716897
20
-139.3825160575
30
0.0000000000
10
602.0130145171
20
-139.0391184852
30
0.0000000000
10
602.7986276372
20
-138.6051167261
30
0.0000000000
10
603.5305117926
20
-138.0859532505
30
0.0000000000
10
604.1995483370
20
-137.4881236811
30
0.0000000000
10
604.7973908963
20
-136.8190924385
30
0.0000000000
10
605.3165705944
20
-136.0872060747
30
0.0000000000
10
605.7505883749
20
-135.3015861518
30
0.0000000000
10
606.0939987153
20
-134.4720344586
30
0.0000000000
10
606.3424555434
20
-133.6088732668
30
0.0000000000
10
606.4928013739
20
-132.7231329375
30
0.0000000000
10
606.5263247609
20
-132.1247428815
30
0.0000000000
10
606.5263321440
20
-131.8257896747
30
0.0000000000
11
598.5372958659
21
-139.8148259527
31
0.0000000000
11
599.4326984784
21
-139.7646131601
31
0.0000000000
11
600.3167304216
21
-139.6145699828
31
0.0000000000
11
601.1780515586
21
-139.3666274944
31
0.0000000000
11
602.0058271026
21
-139.0239539002
31
0.0000000000
11
602.7897556943
21
-138.5908717460
31
0.0000000000
11
603.5200784005
21
-138.0728101712
31
0.0000000000
11
604.1876811703
21
-137.4762592228
31
0.0000000000
11
604.7842460226
21
-136.8086606547
31
0.0000000000
11
605.3023254671
21
-136.0783335005
31
0.0000000000
11
605.7354232423
21
-135.2943983971
31
0.0000000000
11
606.0781101521
21
-134.4666137030
31
0.0000000000
11
606.3260635895
21
-133.6052829128
31
0.0000000000
11
606.4761137448
21
-132.7212422372
31
0.0000000000
11
606.5263321440
21
-131.8257896747
31
0.0000000000
0
SPLINE
5
2BC
100
AcDbEntity
8
0
100
AcDbSpline
62
9
6
CONTINUOUS
70
0
71
3
72
21
73
17
74
15
42
0.0000001000
43
0.0000001000
44
0.0000000001
12
0.0003252077
22
-12.5441138584
32
0.0000000000
13
12.5441138588
23
-0.0003097932
33
0.0000000000
40
0.0000000000
40
0.0000000000
40
0.0000000000
40
0.0000000000
40
0.0714924502
40
0.1429741556
40
0.2144258114
40
0.2858457953
40
0.3572420458
40
0.4286229341
40
0.4999952501
40
0.5713680549
40
0.6427500566
40
0.7141473636
40
0.7855684275
40
0.8570210643
40
0.9285035491
40
1.0000000000
40
1.0000000000
40
1.0000000000
40
1.0000000000
10
60.9720468739
20
-131.8257896747
30
0.0000000000
10
60.9720546239
20
-132.1247261530
30
0.0000000000
10
61.0055741445
20
-132.7230961906
30
0.0000000000
10
61.1559115657
20
-133.6088134576
30
0.0000000000
10
61.4043567692
20
-134.4719654984
30
0.0000000000
10
61.7477543415
20
-135.3015083259
30
0.0000000000
10
62.1817561006
20
-136.0871214460
30
0.0000000000
10
62.7009195762
20
-136.8190056013
30
0.0000000000
10
63.2987491456
20
-137.4880421458
30
0.0000000000
10
63.9677803882
20
-138.0858847050
30
0.0000000000
10
64.6996667519
20
-138.6050644031
30
0.0000000000
10
65.4852866749
20
-139.0390821836
30
0.0000000000
10
66.3148383681
20
-139.3824925240
30
0.0000000000
10
67.1779995599
20
-139.6309493521
30
0.0000000000
10
68.0637398891
20
-139.7812951827
30
0.0000000000
10
68.6621299452
20
-139.8148185697
30
0.0000000000
10
68.9610831520
20
-139.8148259527
30
0.0000000000
11
60.9720468739
21
-131.8257896747
31
0.0000000000
11
61.0222596666
21
-132.7211922871
31
0.0000000000
11
61.1723028439
21
-133.6052242303
31
0.0000000000
11
61.4202453323
21
-134.4665453673
31
0.0000000000
11
61.7629189265
21
-135.2943209114
31
0.0000000000
11
62.1960010807
21
-136.0782495030
31
0.0000000000
11
62.7140626554
21
-136.8085722092
31
0.0000000000
11
63.3106136039
21
-137.4761749790
31
0.0000000000
11
63.9782121720
21
-138.0727398314
31
0.0000000000
11
64.7085393262
21
-138.5908192758
31
0.0000000000
11
65.4924744296
21
-139.0239170510
31
0.0000000000
11
66.3202591237
21
-139.3666039608
31
0.0000000000
11
67.1815899139
21
-139.6145573982
31
0.0000000000
11
68.0656305895
21
-139.7646075536
31
0.0000000000
11
68.9610831520
21
-139.8148259527
31
0.0000000000
0
SPLINE
5
2BD
100
AcDbEntity
8
0
100
AcDbSpline
62
9
6
CONTINUOUS
70
0
71
3
72
21
73
17
74
15
42
0.0000001000
43
0.0000001000
44
0.0000000001
12
-12.5441138584
22
-0.0003252077
32
0.0000000000
13
-0.0003097932
23
-12.5441138588
33
0.0000000000
40
0.0000000000
40
0.0000000000
40
0.0000000000
40
0.0000000000
40
0.0714924502
40
0.1429741556
40
0.2144258114
40
0.2858457953
40
0.3572420458
40
0.4286229341
40
0.4999952501
40
0.5713680549
40
0.6427500566
40
0.7141473636
40
0.7855684275
40
0.8570210643
40
0.9285035491
40
1.0000000000
40
1.0000000000
40
1.0000000000
40
1.0000000000
10
68.9610831520
20
139.7394593173
30
0.0000000000
10
68.6621466737
20
139.7394515673
30
0.0000000000
10
68.0637766361
20
139.7059320468
30
0.0000000000
10
67.1780593691
20
139.5555946255
30
0.0000000000
10
66.3149073282
20
139.3071494221
30
0.0000000000
10
65.4853645008
20
138.9637518498
30
0.0000000000
10
64.6997513807
20
138.5297500906
30
0.0000000000
10
63.9678672254
20
138.0105866150
30
0.0000000000
10
63.2988306809
20
137.4127570457
30
0.0000000000
10
62.7009881217
20
136.7437258031
30
0.0000000000
10
62.1818084236
20
136.0118394393
30
0.0000000000
10
61.7477906431
20
135.2262195163
30
0.0000000000
10
61.4043803026
20
134.3966678231
30
0.0000000000
10
61.1559234745
20
133.5335066314
30
0.0000000000
10
61.0055776440
20
132.6477663021
30
0.0000000000
10
60.9720542570
20
132.0493762461
30
0.0000000000
10
60.9720468739
20
131.7504230393
30
0.0000000000
11
68.9610831520
21
139.7394593173
31
0.0000000000
11
68.0656805396
21
139.6892465246
31
0.0000000000
11
67.1816485964
21
139.5392033474
31
0.0000000000
11
66.3203274593
21
139.2912608590
31
0.0000000000
11
65.4925519153
21
138.9485872647
31
0.0000000000
11
64.7086233237
21
138.5155051106
31
0.0000000000
11
63.9783006174
21
137.9974435358
31
0.0000000000
11
63.3106978476
21
137.4008925874
31
0.0000000000
11
62.7141329953
21
136.7332940193
31
0.0000000000
11
62.1960535509
21
136.0029668651
31
0.0000000000
11
61.7629557756
21
135.2190317617
31
0.0000000000
11
61.4202688659
21
134.3912470676
31
0.0000000000
11
61.1723154284
21
133.5299162773
31
0.0000000000
11
61.0222652731
21
132.6458756018
31
0.0000000000
11
60.9720468739
21
131.7504230393
31
0.0000000000
0
SPLINE
5
2BE
100
AcDbEntity
8
0
100
AcDbSpline
62
9
6
CONTINUOUS
70
0
71
3
72
21
73
17
74
15
42
0.0000001000
43
0.0000001000
44
0.0000000001
12
-0.0003252077
22
12.5441138584
32
0.0000000000
13
-12.5441138588
23
0.0003097932
33
0.0000000000
40
0.0000000000
40
0.0000000000
40
0.0000000000
40
0.0000000000
40
0.0714924502
40
0.1429741556
40
0.2144258114
40
0.2858457953
40
0.3572420458
40
0.4286229341
40
0.4999952501
40
0.5713680549
40
0.6427500566
40
0.7141473636
40
0.7855684275
40
0.8570210643
40
0.9285035491
40
1.0000000000
40
1.0000000000
40
1.0000000000
40
1.0000000000
10
606.5263321440
20
131.7504230393
30
0.0000000000
10
606.5263243940
20
132.0493595175
30
0.0000000000
10
606.4928048735
20
132.6477295551
30
0.0000000000
10
606.3424674522
20
133.5334468222
30
0.0000000000
10
606.0940222488
20
134.3965988630
30
0.0000000000
10
605.7506246765
20
135.2261416905
30
0.0000000000
10
605.3166229173
20
136.0117548105
30
0.0000000000
10
604.7974594417
20
136.7436389659
30
0.0000000000
10
604.1996298724
20
137.4126755104
30
0.0000000000
10
603.5305986298
20
138.0105180696
30
0.0000000000
10
602.7987122660
20
138.5296977677
30
0.0000000000
10
602.0130923430
20
138.9637155482
30
0.0000000000
10
601.1835406498
20
139.3071258886
30
0.0000000000
10
600.3203794580
20
139.5555827167
30
0.0000000000
10
599.4346391288
20
139.7059285473
30
0.0000000000
10
598.8362490728
20
139.7394519343
30
0.0000000000
10
598.5372958659
20
139.7394593173
30
0.0000000000
11
606.5263321440
21
131.7504230393
31
0.0000000000
11
606.4761193513
21
132.6458256517
31
0.0000000000
11
606.3260761741
21
133.5298575949
31
0.0000000000
11
606.0781336857
21
134.3911787319
31
0.0000000000
11
605.7354600914
21
135.2189542759
31
0.0000000000
11
605.3023779373
21
136.0028828676
31
0.0000000000
11
604.7843163625
21
136.7332055738
31
0.0000000000
11
604.1877654141
21
137.4008083436
31
0.0000000000
11
603.5201668459
21
137.9973731959
31
0.0000000000
11
602.7898396918
21
138.5154526404
31
0.0000000000
11
602.0059045883
21
138.9485504156
31
0.0000000000
11
601.1781198943
21
139.2912373254
31
0.0000000000
11
600.3167891040
21
139.5391907628
31
0.0000000000
11
599.4327484284
21
139.6892409182
31
0.0000000000
11
598.5372958659
21
139.7394593173
31
0.0000000000
0
SPLINE
5
2BF
100
AcDbEntity
8
0
100
AcDbSpline
62
9
6
CONTINUOUS
70
0
71
3
72
21
73
17
74
15
42
0.0000001000
43
0.0000001000
44
0.0000000001
12
-9.9739401601
22
0.5286440893
32
0.0000000000
13
0.1041883628
23
9.9873966416
33
0.0000000000
40
0.0000000000
40
0.0000000000
40
0.0000000000
40
0.0000000000
40
0.0064398566
40
0.0252944182
40
0.0563788176
40
0.0993035965
40
0.1535302901
40
0.2183802955
40
0.2930418731
40
0.3765840390
40
0.4679664520
40
0.5660491644
40
0.6696117184
40
0.7773653756
40
0.8879548708
40
1.0000000000
40
1.0000000000
40
1.0000000000
40
1.0000000000
10
-46.3283216749
20
-141.8120851051
30
0.0000000000
10
-46.3497319232
20
-141.8109503077
30
0.0000000000
10
-46.3237564112
20
-141.6802655034
30
0.0000000000
10
-46.3632809057
20
-141.5371203778
30
0.0000000000
10
-46.3526627339
20
-141.2030798717
30
0.0000000000
10
-46.3662681578
20
-140.7870071458
30
0.0000000000
10
-46.3676204452
20
-140.2435479398
30
0.0000000000
10
-46.3712351547
20
-139.5999819180
30
0.0000000000
10
-46.3716954425
20
-138.8568866322
30
0.0000000000
10
-46.3707964298
20
-138.0260883030
30
0.0000000000
10
-46.3679463871
20
-137.1171186699
30
0.0000000000
10
-46.3633585120
20
-136.1415621102
30
0.0000000000
10
-46.3570284786
20
-135.1114911955
30
0.0000000000
10
-46.3490495525
20
-134.0397968069
30
0.0000000000
10
-46.3395116562
20
-132.9398714596
30
0.0000000000
10
-46.3322130467
20
-132.1986868401
30
0.0000000000
10
-46.3283217805
20
-131.8256737910
30
0.0000000000
11
-46.3283216749
21
-141.8120851051
31
0.0000000000
11
-46.3393385300
21
-141.7487147070
31
0.0000000000
11
-46.3489027060
21
-141.5606395023
31
0.0000000000
11
-46.3568945506
21
-141.2502732608
31
0.0000000000
11
-46.3632151817
21
-140.8215897357
31
0.0000000000
11
-46.3677863761
21
-140.2799960600
31
0.0000000000
11
-46.3705518700
21
-139.6322839965
31
0.0000000000
11
-46.3714774883
21
-138.8865692077
31
0.0000000000
11
-46.3705518649
21
-138.0521555745
31
0.0000000000
11
-46.3677863774
21
-137.1394377001
31
0.0000000000
11
-46.3632151960
21
-136.1598041111
31
0.0000000000
11
-46.3568945909
21
-135.1254468389
31
0.0000000000
11
-46.3489027627
21
-134.0492394417
31
0.0000000000
11
-46.3393386614
21
-132.9447195986
31
0.0000000000
11
-46.3283217805
21
-131.8256737910
31
0.0000000000
0
SPLINE
5
2C0
100
AcDbEntity
8
0
100
AcDbSpline
62
9
6
CONTINUOUS
70
0
71
3
72
21
73
17
74
15
42
0.0000001000
43
0.0000001000
44
0.0000000001
12
-0.1041809127
22
9.9874036942
32
0.0000000000
13
9.9734836908
23
0.5288122903
33
0.0000000000
40
0.0000000000
40
0.0000000000
40
0.0000000000
40
0.0000000000
40
0.1120436461
40
0.2226333422
40
0.3303870031
40
0.4339495222
40
0.5320323392
40
0.6234148433
40
0.7069570883
40
0.7816187814
40
0.8464688986
40
0.9006957146
40
0.9436206915
40
0.9747052784
40
0.9935600196
40
1.0000000000
40
1.0000000000
40
1.0000000000
40
1.0000000000
10
-46.3283216749
20
131.7502989438
30
0.0000000000
10
-46.3322126114
20
132.1233073189
30
0.0000000000
10
-46.3395117359
20
132.8644881817
30
0.0000000000
10
-46.3490494605
20
133.9644100423
30
0.0000000000
10
-46.3570284400
20
135.0361057437
30
0.0000000000
10
-46.3633585043
20
136.0661776219
30
0.0000000000
10
-46.3679463849
20
137.0417353977
30
0.0000000000
10
-46.3707964380
20
137.9507065823
30
0.0000000000
10
-46.3716954420
20
138.7815064371
30
0.0000000000
10
-46.3712351507
20
139.5246032798
30
0.0000000000
10
-46.3676204326
20
140.1681708596
30
0.0000000000
10
-46.3662682010
20
140.7116320472
30
0.0000000000
10
-46.3526626426
20
141.1277062986
30
0.0000000000
10
-46.3632812610
20
141.4617500372
30
0.0000000000
10
-46.3237558516
20
141.6048947249
30
0.0000000000
10
-46.3497326509
20
141.7355832209
30
0.0000000000
10
-46.3283229711
20
141.7367184012
30
0.0000000000
11
-46.3283216749
21
131.7502989438
31
0.0000000000
11
-46.3393385300
21
132.8693307193
31
0.0000000000
11
-46.3489027060
21
133.9738533399
31
0.0000000000
11
-46.3568945506
21
135.0500615257
31
0.0000000000
11
-46.3632151817
21
136.0844191711
31
0.0000000000
11
-46.3677863761
21
137.0640544885
31
0.0000000000
11
-46.3705518700
21
137.9767739111
31
0.0000000000
11
-46.3714774883
21
138.8111889167
31
0.0000000000
11
-46.3705518649
21
139.5569053789
31
0.0000000000
11
-46.3677863774
21
140.2046190120
31
0.0000000000
11
-46.3632151960
21
140.7462142880
31
0.0000000000
11
-46.3568945909
21
141.1749000908
31
0.0000000000
11
-46.3489027627
21
141.4852684238
31
0.0000000000
11
-46.3393386614
21
141.6733455602
31
0.0000000000
11
-46.3283229711
21
141.7367184012
31
0.0000000000
0
ENDSEC
0
SECTION
2
OBJECTS
0
DICTIONARY
5
C
100
AcDbDictionary
280
0
281
1
3
ACAD_GROUP
350
D
3
ACAD_MLINESTYLE
350
17
3
ACAD_LAYOUT
350
1A
3
ACAD_PLOTSETTINGS
350
19
3
ACAD_PLOTSTYLENAME
350
E
0
DICTIONARY
5
D
102
{ACAD_REACTORS
330
C
102
}
100
AcDbDictionary
280
0
281
1
0
ACDBDICTIONARYWDFLT
5
E
102
{ACAD_REACTORS
330
C
102
}
100
AcDbDictionary
281
1
3
Normal
350
F
100
AcDbDictionaryWithDefault
340
F
0
DICTIONARY
5
17
102
{ACAD_REACTORS
330
C
102
}
100
AcDbDictionary
280
0
281
1
3
Standard
350
18
0
DICTIONARY
5
19
102
{ACAD_REACTORS
330
C
102
}
100
AcDbDictionary
281
1
0
DICTIONARY
5
1A
102
{ACAD_REACTORS
330
C
102
}
100
AcDbDictionary
281
1
3
Layout1
350
1E
3
Model
350
22
0
ACDBPLACEHOLDER
5
F
102
{ACAD_REACTORS
330
E
102
}
0
MLINESTYLE
5
18
102
{ACAD_REACTORS
330
17
102
}
100
AcDbMlineStyle
2
STANDARD
70
0
3

62
256
51
90.0
52
90.0
71
2
49
0.5
62
256
6
BYLAYER
49
-0.5
62
256
6
BYLAYER
0
LAYOUT
5
1E
102
{ACAD_REACTORS
330
1A
102
}
100
AcDbPlotSettings
1

2

4

6

40
0.0
41
0.0
42
0.0
43
0.0
44
0.0
45
0.0
46
0.0
47
0.0
48
0.0
49
0.0
140
0.0
141
0.0
142
1.0
143
1.0
70
0
72
0
73
0
74
0
7

75
0
147
1.0
148
0.0
149
0.0
100
AcDbLayout
1
Layout1
70
0
71
0
10
0.0
20
0.0
11
0.0
21
0.0
12
0.0
22
0.0
32
0.0
14
0.0
24
0.0
34
0.0
15
0.0
25
0.0
35
0.0
146
0.0
13
0.0
23
0.0
33
0.0
16
0.0
26
0.0
36
0.0
17
0.0
27
0.0
37
0.0
76
0
330
1B
331
0
345
0
346
0
0
LAYOUT
5
22
102
{ACAD_REACTORS
330
1A
102
}
100
AcDbPlotSettings
1

2

4

6

40
0.0
41
0.0
42
0.0
43
0.0
44
0.0
45
0.0
46
0.0
47
0.0
48
0.0
49
0.0
140
0.0
141
0.0
142
1.0
143
1.0
70
0
72
0
73
0
74
0
7

75
0
147
1.0
148
0.0
149
0.0
100
AcDbLayout
1
Model
70
0
71
0
10
0.0
20
0.0
11
0.0
21
0.0
12
0.0
22
0.0
32
0.0
14
0.0
24
0.0
34
0.0
15
0.0
25
0.0
35
0.0
146
0.0
13
0.0
23
0.0
33
0.0
16
0.0
26
0.0
36
0.0
17
0.0
27
0.0
37
0.0
76
0
330
1F
331
0
345
0
346
0
0
ENDSEC
0
EOF
