  0
SECTION
  2
HEADER
  9
$ACADVER
  1
AC1024
  9
$DWGCODEPAGE
  3
ANSI_1252
  9
$EXTMAX
 10
841.0
 20
594.0
 30
0.0
  9
$EXTMIN
 10
0.0
 20
0.0
 30
0.0
  9
$LIMMIN
 10
0.0
 20
0.0
  9
$LIMMAX
 10
841.0
 20
594.0
  9
$VIEWCTR
 10
420.5
 20
297.0
  9
$VIEWSIZE
 40
594.0
  9
$CLAYER
  8
0
  9
$LTSCALE
 40
46.255
  9
$CELTYPE
  6
BYLAYER
  9
$DIMSCALE
 40
1.0
  9
$DIMASZ
 40
3.0
  9
$DIMEXO
 40
0.5
  9
$DIMDLI
 40
31.958
  9
$DIMEXE
 40
1.5
  9
$DIMCEN
 40
7.569
  9
$DIMLFAC
 40
1.0
  9
$DIMBLK
  1
_FILLED
  9
$DIMALT
 70
0
  9
$DIMALTF
 40
0.0393700787
  9
$DIMTXT
 40
3.0
  9
$DIMTOL
 70
1
  9
$DIMLIM
 70
0
  9
$DIMTFAC
 40
1.0
  9
$DIMTP
 40
0.01
  9
$DIMTM
 40
0.01
  9
$DIMGAP
 40
0.625
  9
$DIMDSEP
 70
44
  9
$AUNITS
 70
0
  9
$PDMODE
 70
3
  9
$PDSIZE
 40
3.0
  9
$HANDSEED
  5
366
  9
$TILEMODE
 70
1
  9
$MEASUREMENT
 70
1
  9
$INSUNITS
 70
4
  0
ENDSEC
  0
SECTION
  2
CLASSES
  0
CLASS
  1
ACDBDICTIONARYWDFLT
  2
AcDbDictionaryWithDefault
  3
AutoCAD 2000
 90
0
 91
1
280
0
281
0
  0
CLASS
  1
ACDBPLACEHOLDER
  2
AcDbPlaceHolder
  3
AutoCAD 2000
 90
0
 91
1
280
0
281
0
  0
CLASS
  1
LAYOUT
  2
AcDbLayout
  3
AutoCAD 2000
 90
0
 91
0
280
0
281
0
  0
ENDSEC
  0
SECTION
  2
TABLES
  0
TABLE
  2
VPORT
  5
8
100
AcDbSymbolTable
 70
2
  0
VPORT
  5
1F4
100
AcDbSymbolTableRecord
100
AcDbViewportTableRecord
  2
*ACTIVE
 70
0
 10
0.0
 20
0.0
 11
1.0
 21
1.0
 12
420.5
 22
297.0
 13
0.0
 23
0.0
 14
1.0
 24
1.0
 15
0.0
 25
0.0
 16
0.0
 26
0.0
 36
1.0
 17
0.0
 27
0.0
 37
0.0
 40
594.0
 41
1.4158249158
 42
50.0
 43
0.0
 44
0.0
 50
0.0
 51
0.0
 71
0
 72
100
 73
1
 74
1
 75
0
 76
0
 77
0
 78
0
  0
ENDTAB
  0
TABLE
  2
LTYPE
  5
5
100
AcDbSymbolTable
 70
6
  0
LTYPE
  5
14
100
AcDbSymbolTableRecord
100
AcDbLinetypeTableRecord
  2
BYBLOCK
 70
0
  3

 72
65
 73
0
 40
0.0
  0
LTYPE
  5
15
100
AcDbSymbolTableRecord
100
AcDbLinetypeTableRecord
  2
BYLAYER
 70
0
  3

 72
65
 73
0
 40
0.0
  0
LTYPE
  5
16
100
AcDbSymbolTableRecord
100
AcDbLinetypeTableRecord
  2
CONTINUOUS
 70
64
  3
Solid line
 72
65
 73
0
 40
0.0
  0
LTYPE
  5
1F5
100
AcDbSymbolTableRecord
100
AcDbLinetypeTableRecord
  2
CENTER
 70
64
  3
____ _ ____ _ ____ _ ____ _ ____ _ ____ _ ____
 72
65
 73
4
 40
0.6
 49
0.375
 74
0
 49
-0.075
 74
0
 49
0.075
 74
0
 49
-0.075
 74
0
  0
LTYPE
  5
1F6
100
AcDbSymbolTableRecord
100
AcDbLinetypeTableRecord
  2
HIDDEN
 70
64
  3
- - - - - - - - - - - - - - - - - - - -
 72
65
 73
2
 40
0.2
 49
0.1
 74
0
 49
-0.1
 74
0
  0
LTYPE
  5
1F7
100
AcDbSymbolTableRecord
100
AcDbLinetypeTableRecord
  2
PHANTOM
 70
64
  3
_____ _ _ _____ _ _ _____ _ _ _____
 72
65
 73
6
 40
0.8
 49
0.45
 74
0
 49
-0.05
 74
0
 49
0.1
 74
0
 49
-0.05
 74
0
 49
0.1
 74
0
 49
-0.05
 74
0
  0
LTYPE
  5
1F8
100
AcDbSymbolTableRecord
100
AcDbLinetypeTableRecord
  2
DOT
 70
64
  3
. . . . . . . . . . . . . . . . . . . .
 72
65
 73
2
 40
0.2
 49
0.1
 74
0
 49
-0.1
 74
0
  0
LTYPE
  5
1F9
100
AcDbSymbolTableRecord
100
AcDbLinetypeTableRecord
  2
DASHED
 70
64
  3
- - - - - - - - - - - - - - - - - - - -
 72
65
 73
2
 40
0.2
 49
0.1
 74
0
 49
-0.1
 74
0
  0
ENDTAB
  0
TABLE
  2
LAYER
  5
2
100
AcDbSymbolTable
 70
36
  0
LAYER
  5
10
100
AcDbSymbolTableRecord
100
AcDbLayerTableRecord
  2
0
 70
0
 62
7
  6
CONTINUOUS
370
-3
390
F
  0
LAYER
  5
1FA
100
AcDbSymbolTableRecord
100
AcDbLayerTableRecord
  2
DEFAULT_1
 70
0
 62
7
  6
CENTER
370
-3
390
F
  0
LAYER
  5
1FB
100
AcDbSymbolTableRecord
100
AcDbLayerTableRecord
  2
DEFAULT_2
 70
0
 62
7
  6
HIDDEN
370
-3
390
F
  0
LAYER
  5
1FC
100
AcDbSymbolTableRecord
100
AcDbLayerTableRecord
  2
DEFAULT_3
 70
0
 62
7
  6
PHANTOM
370
-3
390
F
  0
LAYER
  5
1FD
100
AcDbSymbolTableRecord
100
AcDbLayerTableRecord
  2
GENERAL
 70
0
 62
7
  6
CONTINUOUS
370
-3
390
F
  0
ENDTAB
  0
TABLE
  2
STYLE
  5
3
100
AcDbSymbolTable
 70
1
  0
STYLE
  5
11
100
AcDbSymbolTableRecord
100
AcDbTextStyleTableRecord
  2
STANDARD
 70
0
 40
0.0
 41
0.8
 50
0.0
 71
0
 42
0.2
  3
txt
  4

  0
STYLE
  5
1FE
100
AcDbSymbolTableRecord
100
AcDbTextStyleTableRecord
  2
TEXTSTYLE_1
 70
0
 40
0.0
 41
0.8
 50
0.0
 71
0
 42
0.2
  3
gdt
  4

  0
ENDTAB
  0
TABLE
  2
VIEW
  5
6
100
AcDbSymbolTable
 70
0
  0
ENDTAB
  0
TABLE
  2
UCS
  5
7
100
AcDbSymbolTable
 70
0
  0
ENDTAB
  0
TABLE
  2
APPID
  5
9
100
AcDbSymbolTable
 70
1
  0
APPID
  5
1FF
100
AcDbSymbolTableRecord
100
AcDbRegAppTableRecord
  2
ACAD
 70
0
  0
ENDTAB
  0
TABLE
  2
BLOCK_RECORD
  5
1
100
AcDbSymbolTable
 70
0
  0
BLOCK_RECORD
  5
200
100
AcDbSymbolTableRecord
100
AcDbBlockTableRecord
  2
*Model_Space
  0
BLOCK_RECORD
  5
201
100
AcDbSymbolTableRecord
100
AcDbBlockTableRecord
  2
*Paper_Space
  0
BLOCK_RECORD
  5
202
100
AcDbSymbolTableRecord
100
AcDbBlockTableRecord
  2
_FILLED
  0
BLOCK_RECORD
  5
203
100
AcDbSymbolTableRecord
100
AcDbBlockTableRecord
  2
*D0
  0
BLOCK_RECORD
  5
204
100
AcDbSymbolTableRecord
100
AcDbBlockTableRecord
  2
*D1
  0
BLOCK_RECORD
  5
205
100
AcDbSymbolTableRecord
100
AcDbBlockTableRecord
  2
*D2
  0
BLOCK_RECORD
  5
206
100
AcDbSymbolTableRecord
100
AcDbBlockTableRecord
  2
*D3
  0
ENDTAB
  0
TABLE
  2
DIMSTYLE
  5
A
100
AcDbSymbolTable
 70
1
100
AcDbDimStyleTable
 71
0
  0
DIMSTYLE
105
207
100
AcDbSymbolTableRecord
100
AcDbDimStyleTableRecord
  2
STANDARD
 70
0
  3

  4

 40
1.0
 41
3.0
 42
0.5
 43
0.38
 44
1.5
 45
0.0
 46
0.0
 47
0.01
 48
0.01
140
3.0
141
0.09
142
0.0
143
25.4
144
1.0
145
0.0
146
1.0
147
0.625
 71
1
 72
0
 73
0
 74
0
 75
0
 76
0
 77
1
 78
8
 79
2
170
0
171
1
172
0
173
0
174
0
175
0
176
0
177
0
178
0
270
2
179
2
271
2
272
2
273
2
274
2
275
0
280
0
281
0
282
0
283
1
284
8
285
0
286
0
287
3
288
0
340
11
278
44
341
202
342
202
343
202
344
202
  0
DIMSTYLE
105
208
100
AcDbSymbolTableRecord
100
AcDbDimStyleTableRecord
  2
DIMSTYLE_1
 70
0
  3

  4

 40
1.0
 41
3.0
 42
0.5
 43
0.38
 44
1.5
 45
0.0
 46
0.0
 47
0.0
 48
0.0
140
3.0
141
0.09
142
0.0
143
25.4
144
1.0
145
0.0
146
1.0
147
0.75
 71
0
 72
0
 73
0
 74
0
 75
0
 76
0
 77
1
 78
8
 79
2
170
0
171
1
172
0
173
0
174
0
175
0
176
0
177
0
178
0
270
2
179
2
271
2
272
2
273
2
274
2
275
0
280
0
281
0
282
0
283
1
284
8
285
0
286
0
287
3
288
0
340
11
278
44
341
202
342
202
343
202
344
202
  0
ENDTAB
  0
ENDSEC
  0
SECTION
  2
BLOCKS
  0
BLOCK
  5
20
100
AcDbEntity
  8
0
100
AcDbBlockBegin
  2
*Model_Space
 70
0
 10
0.0
 20
0.0
 30
0.0
  3
*Model_Space
  1

  0
ENDBLK
  5
21
100
AcDbEntity
  8
0
100
AcDbBlockEnd
  0
BLOCK
  5
1C
100
AcDbEntity
  8
0
100
AcDbBlockBegin
  2
*Paper_Space
 70
0
 10
0.0
 20
0.0
 30
0.0
  3
*Paper_Space
  1

  0
ENDBLK
  5
1D
100
AcDbEntity
  8
0
100
AcDbBlockEnd
  0
BLOCK
  5
209
100
AcDbEntity
  8
0
100
AcDbBlockBegin
  2
_FILLED
 70
64
 10
0.0
 20
0.0
  3
_FILLED
  1

  0
SOLID
  5
20A
100
AcDbEntity
  8
0
  6
BYBLOCK
 62
0
100
AcDbTrace
 10
0.0
 20
0.0
 11
-1.0
 21
0.3166666667
 12
-1.0
 22
-0.3166666667
 13
-1.0
 23
-0.3166666667
  0
ENDBLK
  5
20B
100
AcDbEntity
  8
0
  6
BYBLOCK
 62
0
100
AcDbBlockEnd
  0
BLOCK
  5
20C
100
AcDbEntity
  8
0
100
AcDbBlockBegin
 62
7
  6
CONTINUOUS
  2
*D0
 70
65
 10
0.0
 20
0.0
  3
*D0
  1

  0
LINE
  5
20D
100
AcDbEntity
  8
0
100
AcDbLine
 62
7
  6
CONTINUOUS
 10
279.2146014137
 20
355.9136148535
 11
279.2146014137
 21
362.832307603
  0
LINE
  5
20E
100
AcDbEntity
  8
0
100
AcDbLine
 62
7
  6
CONTINUOUS
 10
329.4146014137
 20
341.9636148535
 11
329.4146014137
 21
362.832307603
  0
LINE
  5
20F
100
AcDbEntity
  8
0
100
AcDbLine
 62
7
  6
CONTINUOUS
 10
279.2146014137
 20
361.332307603
 11
304.3146014137
 21
361.332307603
  0
LINE
  5
210
100
AcDbEntity
  8
0
100
AcDbLine
 62
7
  6
CONTINUOUS
 10
329.4146014137
 20
361.332307603
 11
304.3146014137
 21
361.332307603
  0
INSERT
  5
211
100
AcDbEntity
  8
0
100
AcDbBlockReference
 62
7
  6
CONTINUOUS
  2
_FILLED
 10
279.2146014137
 20
361.332307603
 41
3.0
 42
3.0
 43
3.0
 50
180.0
  0
INSERT
  5
212
100
AcDbEntity
  8
0
100
AcDbBlockReference
 62
7
  6
CONTINUOUS
  2
_FILLED
 10
329.4146014137
 20
361.332307603
 41
3.0
 42
3.0
 43
3.0
  0
ENDBLK
  5
213
100
AcDbEntity
  8
0
  6
BYBLOCK
 62
0
100
AcDbBlockEnd
  0
BLOCK
  5
214
100
AcDbEntity
  8
0
100
AcDbBlockBegin
 62
7
  6
CONTINUOUS
  2
*D1
 70
65
 10
0.0
 20
0.0
  3
*D1
  1

  0
LINE
  5
215
100
AcDbEntity
  8
0
100
AcDbLine
 62
7
  6
CONTINUOUS
 10
277.2146014137
 20
346.9460093535
 11
277.2146014137
 21
370.8544481118
  0
LINE
  5
216
100
AcDbEntity
  8
0
100
AcDbLine
 62
7
  6
CONTINUOUS
 10
329.4146014137
 20
341.9636148535
 11
329.4146014137
 21
370.8544481118
  0
LINE
  5
217
100
AcDbEntity
  8
0
100
AcDbLine
 62
7
  6
CONTINUOUS
 10
277.2146014137
 20
369.3544481118
 11
303.3146014137
 21
369.3544481118
  0
LINE
  5
218
100
AcDbEntity
  8
0
100
AcDbLine
 62
7
  6
CONTINUOUS
 10
329.4146014137
 20
369.3544481118
 11
303.3146014137
 21
369.3544481118
  0
INSERT
  5
219
100
AcDbEntity
  8
0
100
AcDbBlockReference
 62
7
  6
CONTINUOUS
  2
_FILLED
 10
277.2146014137
 20
369.3544481118
 41
3.0
 42
3.0
 43
3.0
 50
180.0
  0
INSERT
  5
21A
100
AcDbEntity
  8
0
100
AcDbBlockReference
 62
7
  6
CONTINUOUS
  2
_FILLED
 10
329.4146014137
 20
369.3544481118
 41
3.0
 42
3.0
 43
3.0
  0
ENDBLK
  5
21B
100
AcDbEntity
  8
0
  6
BYBLOCK
 62
0
100
AcDbBlockEnd
  0
BLOCK
  5
21C
100
AcDbEntity
  8
0
100
AcDbBlockBegin
 62
7
  6
CONTINUOUS
  2
*D2
 70
65
 10
0.0
 20
0.0
  3
*D2
  1

  0
LINE
  5
21D
100
AcDbEntity
  8
0
100
AcDbLine
 62
7
  6
CONTINUOUS
 10
405.1838574137
 20
351.9136148535
 11
405.1838574137
 21
365.1049951739
  0
LINE
  5
21E
100
AcDbEntity
  8
0
100
AcDbLine
 62
7
  6
CONTINUOUS
 10
555.3338574137
 20
351.9136148535
 11
555.3338574137
 21
365.1049951739
  0
LINE
  5
21F
100
AcDbEntity
  8
0
100
AcDbLine
 62
7
  6
CONTINUOUS
 10
405.1838574137
 20
363.6049951739
 11
480.2588574137
 21
363.6049951739
  0
LINE
  5
220
100
AcDbEntity
  8
0
100
AcDbLine
 62
7
  6
CONTINUOUS
 10
555.3338574137
 20
363.6049951739
 11
480.2588574137
 21
363.6049951739
  0
INSERT
  5
221
100
AcDbEntity
  8
0
100
AcDbBlockReference
 62
7
  6
CONTINUOUS
  2
_FILLED
 10
405.1838574137
 20
363.6049951739
 41
3.0
 42
3.0
 43
3.0
 50
180.0
  0
INSERT
  5
222
100
AcDbEntity
  8
0
100
AcDbBlockReference
 62
7
  6
CONTINUOUS
  2
_FILLED
 10
555.3338574137
 20
363.6049951739
 41
3.0
 42
3.0
 43
3.0
  0
ENDBLK
  5
223
100
AcDbEntity
  8
0
  6
BYBLOCK
 62
0
100
AcDbBlockEnd
  0
BLOCK
  5
224
100
AcDbEntity
  8
0
100
AcDbBlockBegin
 62
7
  6
CONTINUOUS
  2
*D3
 70
65
 10
0.0
 20
0.0
  3
*D3
  1

  0
LINE
  5
225
100
AcDbEntity
  8
0
100
AcDbLine
 62
7
  6
CONTINUOUS
 10
551.8338574137
 20
238.4136148535
 11
567.7471049475
 21
238.4136148535
  0
LINE
  5
226
100
AcDbEntity
  8
0
100
AcDbLine
 62
7
  6
CONTINUOUS
 10
551.8338574137
 20
355.4136148535
 11
567.7471049475
 21
355.4136148535
  0
LINE
  5
227
100
AcDbEntity
  8
0
100
AcDbLine
 62
7
  6
CONTINUOUS
 10
566.2471049475
 20
238.4136148535
 11
566.2471049475
 21
296.9136148535
  0
LINE
  5
228
100
AcDbEntity
  8
0
100
AcDbLine
 62
7
  6
CONTINUOUS
 10
566.2471049475
 20
355.4136148535
 11
566.2471049475
 21
296.9136148535
  0
INSERT
  5
229
100
AcDbEntity
  8
0
100
AcDbBlockReference
 62
7
  6
CONTINUOUS
  2
_FILLED
 10
566.2471049475
 20
238.4136148535
 41
3.0
 42
3.0
 43
3.0
 50
270.0
  0
INSERT
  5
22A
100
AcDbEntity
  8
0
100
AcDbBlockReference
 62
7
  6
CONTINUOUS
  2
_FILLED
 10
566.2471049475
 20
355.4136148535
 41
3.0
 42
3.0
 43
3.0
 50
90.0
  0
ENDBLK
  5
22B
100
AcDbEntity
  8
0
  6
BYBLOCK
 62
0
100
AcDbBlockEnd
  0
ENDSEC
  0
SECTION
  2
ENTITIES
  0
DIMENSION
  5
22C
100
AcDbEntity
  8
0
100
AcDbDimension
 62
7
  6
CONTINUOUS
  2
*D0
 10
329.4146014137
 20
361.332307603
 11
299.1717442708
 21
361.332307603
 70
160
 71
2
 72
2
 41
0.9
 42
50.2
  3
DIMSTYLE_1
100
AcDbAlignedDimension
 13
279.2146014137
 23
355.4136148535
 14
329.4146014137
 24
341.4636148535
100
AcDbRotatedDimension
  0
DIMENSION
  5
22D
100
AcDbEntity
  8
0
100
AcDbDimension
 62
7
  6
CONTINUOUS
  2
*D1
 10
329.4146014137
 20
369.3544481118
 11
298.1717442708
 21
369.3544481118
 70
160
 71
2
 72
2
 41
0.9
 42
52.2
  3
DIMSTYLE_1
100
AcDbAlignedDimension
 13
277.2146014137
 23
346.4460093535
 14
329.4146014137
 24
341.4636148535
100
AcDbRotatedDimension
  0
DIMENSION
  5
22E
100
AcDbEntity
  8
0
100
AcDbDimension
 62
7
  6
CONTINUOUS
  2
*D2
 10
555.3338574137
 20
363.6049951739
 11
474.9017145566
 21
363.6049951739
 70
160
 71
2
 72
2
 41
0.9
 42
150.15
  3
DIMSTYLE_1
100
AcDbAlignedDimension
 13
405.1838574137
 23
351.4136148535
 14
555.3338574137
 24
351.4136148535
100
AcDbRotatedDimension
  0
DIMENSION
  5
22F
100
AcDbEntity
  8
0
100
AcDbDimension
 62
7
  6
CONTINUOUS
  2
*D3
 10
566.2471049475
 20
355.4136148535
 11
566.2471049475
 21
293.4850434249
 70
160
 71
2
 72
2
 41
0.9
 42
117.0
  3
DIMSTYLE_1
100
AcDbAlignedDimension
 13
551.3338574137
 23
238.4136148535
 14
551.3338574137
 24
355.4136148535
 50
90.0
100
AcDbRotatedDimension
  0
LINE
  5
230
100
AcDbEntity
  8
0
100
AcDbLine
 62
7
  6
CONTINUOUS
 10
277.2146014137
 20
244.9136148535
 11
277.2146014137
 21
247.3707673535
  0
LINE
  5
231
100
AcDbEntity
  8
0
100
AcDbLine
 62
7
  6
CONTINUOUS
 10
277.2146014137
 20
247.3812203535
 11
277.2146014137
 21
346.4460093535
  0
LINE
  5
232
100
AcDbEntity
  8
0
100
AcDbLine
 62
7
  6
CONTINUOUS
 10
277.2146014137
 20
346.4565503535
 11
277.2146014137
 21
347.6636148535
  0
LINE
  5
233
100
AcDbEntity
  8
0
100
AcDbLine
 62
7
  6
CONTINUOUS
 10
278.8146014137
 20
355.4136148535
 11
278.8141249137
 21
355.4121078535
  0
LINE
  5
234
100
AcDbEntity
  8
0
100
AcDbLine
 62
7
  6
CONTINUOUS
 10
278.8146014137
 20
238.4136148535
 11
278.8141249137
 21
238.4151218535
  0
LWPOLYLINE
  5
235
100
AcDbEntity
  8
0
100
AcDbPolyline
 62
7
  6
CONTINUOUS
 90
17
 70
0
 10
278.8141257948
 20
238.4151222965
 10
278.8111565239
 20
238.4299393697
 10
278.8038287324
 20
238.4864702136
 10
278.7969643105
 20
238.5561601757
 10
278.7873608337
 20
238.6829675847
 10
278.7786294523
 20
238.8419509635
 10
278.7715323233
 20
239.0318444631
 10
278.7666639064
 20
239.2505359675
 10
278.7643591055
 20
239.4987519295
 10
278.7648875497
 20
239.7797559282
 10
278.7675846597
 20
240.0363846837
 10
278.7741070902
 20
240.4069720152
 10
278.7851933622
 20
240.884118516
 10
278.7891683594
 20
241.0423801645
 10
278.8017808396
 20
241.5602307819
 10
278.8097511495
 20
241.9625630871
 10
278.814125795
 20
242.3038201814
  0
LWPOLYLINE
  5
236
100
AcDbEntity
  8
0
100
AcDbPolyline
 62
7
  6
CONTINUOUS
 90
17
 70
0
 10
278.814125795
 20
351.5234095255
 10
278.809737141
 20
351.8651748515
 10
278.8017274616
 20
352.2685674342
 10
278.7911921989
 20
352.7040280928
 10
278.7784332432
 20
353.2226114406
 10
278.7721297156
 20
353.5178246899
 10
278.7665165086
 20
353.8721390345
 10
278.7642719494
 20
354.1746714556
 10
278.7650125067
 20
354.4400259743
 10
278.7684705857
 20
354.6746037069
 10
278.7744009284
 20
354.8816193234
 10
278.7823003748
 20
355.0581750866
 10
278.7915448994
 20
355.2038943393
 10
278.8012091914
 20
355.3158944768
 10
278.8069366467
 20
355.3671680094
 10
278.8111557967
 20
355.3972819983
 10
278.8141257948
 20
355.4121074104
  0
LINE
  5
237
100
AcDbEntity
  8
0
100
AcDbLine
 62
7
  6
CONTINUOUS
 10
278.8146014137
 20
351.4136148535
 11
278.8141249137
 21
351.5234093535
  0
LINE
  5
238
100
AcDbEntity
  8
0
100
AcDbLine
 62
7
  6
CONTINUOUS
 10
278.8146014137
 20
351.4136148535
 11
278.8146014137
 21
242.4136148535
  0
LINE
  5
239
100
AcDbEntity
  8
0
100
AcDbLine
 62
7
  6
CONTINUOUS
 10
279.2146014137
 20
355.4136148535
 11
279.2146014137
 21
238.4136148535
  0
LINE
  5
23A
100
AcDbEntity
  8
0
100
AcDbLine
 62
7
  6
CONTINUOUS
 10
279.2396014137
 20
344.7136148535
 11
279.2396014137
 21
343.2136148535
  0
LINE
  5
23B
100
AcDbEntity
  8
0
100
AcDbLine
 62
7
  6
CONTINUOUS
 10
280.7487219137
 20
341.8451703535
 11
280.7487219137
 21
344.1665668535
  0
LINE
  5
23C
100
AcDbEntity
  8
0
100
AcDbLine
 62
7
  6
CONTINUOUS
 10
281.9896014137
 20
343.2136148535
 11
281.9896014137
 21
344.7136148535
  0
LINE
  5
23D
100
AcDbEntity
  8
0
100
AcDbLine
 62
7
  6
CONTINUOUS
 10
291.2146014137
 20
244.4636148535
 11
291.2146014137
 21
349.3636148535
  0
LWPOLYLINE
  5
23E
100
AcDbEntity
  8
0
100
AcDbPolyline
 62
7
  6
CONTINUOUS
 90
13
 70
0
 43
0.3499999985
 10
299.8860272522
 20
370.961597168
 10
299.8860272522
 20
372.24729953
 10
300.1003067017
 20
372.6758840942
 10
300.5288912659
 20
373.1044429932
 10
300.7431707153
 20
373.1044429932
 10
301.1717552795
 20
372.6758840942
 10
301.386034729
 20
372.24729953
 10
301.386034729
 20
370.961597168
 10
301.1717552795
 20
370.5330126038
 10
300.7431707153
 20
370.1044537048
 10
300.5288912659
 20
370.1044537048
 10
300.1003067017
 20
370.5330126038
 10
299.8860272522
 20
370.961597168
  0
LWPOLYLINE
  5
23F
100
AcDbEntity
  8
0
100
AcDbPolyline
 62
7
  6
CONTINUOUS
 90
13
 70
0
 43
0.3499999985
 10
300.8860236816
 20
362.9394509277
 10
300.8860236816
 20
364.2251532898
 10
301.1003031311
 20
364.653737854
 10
301.5288876953
 20
365.0822967529
 10
301.7431671448
 20
365.0822967529
 10
302.171751709
 20
364.653737854
 10
302.3860311584
 20
364.2251532898
 10
302.3860311584
 20
362.9394509277
 10
302.171751709
 20
362.5108663635
 10
301.7431671448
 20
362.0823074646
 10
301.5288876953
 20
362.0823074646
 10
301.1003031311
 20
362.5108663635
 10
300.8860236816
 20
362.9394509277
  0
LWPOLYLINE
  5
240
100
AcDbEntity
  8
0
100
AcDbPolyline
 62
7
  6
CONTINUOUS
 90
13
 70
0
 43
0.3499999985
 10
303.2431746216
 20
362.9394509277
 10
303.2431746216
 20
364.2251532898
 10
303.457454071
 20
364.653737854
 10
303.8860386353
 20
365.0822967529
 10
304.1003180847
 20
365.0822967529
 10
304.5288769836
 20
364.653737854
 10
304.7431820984
 20
364.2251532898
 10
304.7431820984
 20
362.9394509277
 10
304.5288769836
 20
362.5108663635
 10
304.1003180847
 20
362.0823074646
 10
303.8860386353
 20
362.0823074646
 10
303.457454071
 20
362.5108663635
 10
303.2431746216
 20
362.9394509277
  0
LWPOLYLINE
  5
241
100
AcDbEntity
  8
0
100
AcDbPolyline
 62
7
  6
CONTINUOUS
 90
2
 70
0
 43
0.3499999985
 10
303.2431746216
 20
370.1044537048
 10
303.2431746216
 20
371.6044355164
  0
LINE
  5
242
100
AcDbEntity
  8
0
100
AcDbLine
 62
7
  6
CONTINUOUS
 10
278.8146014137
 20
242.4136148535
 11
278.8141249137
 21
242.3038203535
  0
LWPOLYLINE
  5
243
100
AcDbEntity
  8
0
100
AcDbPolyline
 62
7
  6
CONTINUOUS
 90
3
 70
0
 43
0.3499999985
 10
305.3145939636
 20
370.3901596375
 10
305.2431674805
 20
370.175880188
 10
305.1003145142
 20
369.8901742554
  0
LWPOLYLINE
  5
244
100
AcDbEntity
  8
0
100
AcDbPolyline
 62
7
  6
CONTINUOUS
 90
3
 70
0
 43
0.3499999985
 10
306.3145903931
 20
362.3680133972
 10
306.2431639099
 20
362.1537339478
 10
306.1003109436
 20
361.8680280151
  0
LWPOLYLINE
  5
245
100
AcDbEntity
  8
0
100
AcDbPolyline
 62
7
  6
CONTINUOUS
 90
3
 70
0
 43
0.3499999985
 10
298.1717403259
 20
372.24729953
 10
299.0288837891
 20
373.1044429932
 10
299.0288837891
 20
370.1044537048
  0
LWPOLYLINE
  5
246
100
AcDbEntity
  8
0
100
AcDbPolyline
 62
7
  6
CONTINUOUS
 90
3
 70
0
 43
0.3499999985
 10
299.1717367554
 20
364.2251532898
 10
300.0288802185
 20
365.0822967529
 10
300.0288802185
 20
362.0823074646
  0
LINE
  5
247
100
AcDbEntity
  8
0
100
AcDbLine
 62
7
  6
CONTINUOUS
 10
307.7146014137
 20
341.6529878535
 11
307.7146014137
 21
332.3136148535
  0
LINE
  5
248
100
AcDbEntity
  8
0
100
AcDbLine
 62
7
  6
CONTINUOUS
 10
307.7146014137
 20
261.5136148535
 11
307.7146014137
 21
252.1742418535
  0
LINE
  5
249
100
AcDbEntity
  8
0
100
AcDbLine
 62
7
  6
CONTINUOUS
 10
329.4146014137
 20
252.3636148535
 11
329.4146014137
 21
341.4636148535
  0
LINE
  5
24A
100
AcDbEntity
  8
0
100
AcDbLine
 62
7
  6
CONTINUOUS
 10
551.3338574137
 20
238.4136148535
 11
551.4436519137
 21
238.4151218535
  0
LINE
  5
24B
100
AcDbEntity
  8
0
100
AcDbLine
 62
7
  6
CONTINUOUS
 10
551.3338574137
 20
238.4136148535
 11
409.1838574137
 21
238.4136148535
  0
LINE
  5
24C
100
AcDbEntity
  8
0
100
AcDbLine
 62
7
  6
CONTINUOUS
 10
278.8146014137
 20
238.4136148535
 11
279.2146014137
 21
238.4136148535
  0
LINE
  5
24D
100
AcDbEntity
  8
0
100
AcDbLine
 62
7
  6
CONTINUOUS
 10
409.1838574137
 20
238.4136148535
 11
409.0740629137
 21
238.4151218535
  0
LWPOLYLINE
  5
24E
100
AcDbEntity
  8
0
100
AcDbPolyline
 62
7
  6
CONTINUOUS
 90
10
 70
0
 43
0.3499999985
 10
306.2431639099
 20
362.582318512
 10
306.3145903931
 20
362.4394398804
 10
306.3145903931
 20
362.3680133972
 10
306.1717374268
 20
362.2251604309
 10
306.1003109436
 20
362.2251604309
 10
306.0288844604
 20
362.2965869141
 10
306.0288844604
 20
362.3680133972
 10
306.1003109436
 20
362.5108663635
 10
306.1717374268
 20
362.582318512
 10
306.2431639099
 20
362.582318512
  0
LWPOLYLINE
  5
24F
100
AcDbEntity
  8
0
100
AcDbPolyline
 62
7
  6
CONTINUOUS
 90
10
 70
0
 43
0.3499999985
 10
305.2431674805
 20
370.6044390869
 10
305.3145939636
 20
370.4615861206
 10
305.3145939636
 20
370.3901596375
 10
305.1717409973
 20
370.2473066711
 10
305.1003145142
 20
370.2473066711
 10
305.028888031
 20
370.3187331543
 10
305.028888031
 20
370.3901596375
 10
305.1003145142
 20
370.5330126038
 10
305.1717409973
 20
370.6044390869
 10
305.2431674805
 20
370.6044390869
  0
LWPOLYLINE
  5
250
100
AcDbEntity
  8
0
100
AcDbPolyline
 62
7
  6
CONTINUOUS
 90
5
 70
0
 43
0.3499999985
 10
475.7588433228
 20
366.0692808838
 10
476.1160014038
 20
366.2835603333
 10
476.1160014038
 20
366.9264243469
 10
475.7588433228
 20
367.3549832458
 10
474.9017255249
 20
367.3549832458
  0
LWPOLYLINE
  5
251
100
AcDbEntity
  8
0
100
AcDbPolyline
 62
7
  6
CONTINUOUS
 90
5
 70
0
 43
0.3499999985
 10
484.3302779541
 20
366.0692808838
 10
484.6874360352
 20
366.2835603333
 10
484.6874360352
 20
366.9264243469
 10
484.3302779541
 20
367.3549832458
 10
483.4731601563
 20
367.3549832458
  0
LINE
  5
252
100
AcDbEntity
  8
0
100
AcDbLine
 62
7
  6
CONTINUOUS
 10
277.2146014137
 20
245.9094398535
 11
277.2648519137
 21
245.9113053535
  0
LINE
  5
253
100
AcDbEntity
  8
0
100
AcDbLine
 62
7
  6
CONTINUOUS
 10
291.2145959137
 20
252.0302483535
 11
329.4146014137
 21
252.3636148535
  0
LINE
  5
254
100
AcDbEntity
  8
0
100
AcDbLine
 62
7
  6
CONTINUOUS
 10
546.3662519137
 20
245.9094398535
 11
547.8361669137
 21
245.9113053535
  0
LINE
  5
255
100
AcDbEntity
  8
DEFAULT_1
100
AcDbLine
 62
7
  6
CENTER
 10
279.2601294137
 20
242.4136148535
 11
279.2146014137
 21
242.4136148535
  0
LINE
  5
256
100
AcDbEntity
  8
0
100
AcDbLine
 62
7
  6
CONTINUOUS
 10
279.2146014137
 20
242.4136148535
 11
278.8146014137
 21
242.4136148535
  0
LINE
  5
257
100
AcDbEntity
  8
DEFAULT_1
100
AcDbLine
 62
7
  6
CENTER
 10
278.8146014137
 20
242.4136148535
 11
278.7137769137
 21
242.4136148535
  0
LINE
  5
258
100
AcDbEntity
  8
0
100
AcDbLine
 62
7
  6
CONTINUOUS
 10
291.2146014137
 20
244.4636148535
 11
279.2146014137
 21
244.4636148535
  0
LINE
  5
259
100
AcDbEntity
  8
0
100
AcDbLine
 62
7
  6
CONTINUOUS
 10
497.8588574137
 20
244.9136148535
 11
462.6588574137
 21
244.9136148535
  0
LINE
  5
25A
100
AcDbEntity
  8
0
100
AcDbLine
 62
7
  6
CONTINUOUS
 10
277.3416439137
 20
244.9136148535
 11
277.2146014137
 21
244.9136148535
  0
LINE
  5
25B
100
AcDbEntity
  8
0
100
AcDbLine
 62
7
  6
CONTINUOUS
 10
546.3662519137
 20
245.9094398535
 11
414.1514629137
 21
245.9094398535
  0
LINE
  5
25C
100
AcDbEntity
  8
DEFAULT_1
100
AcDbLine
 62
7
  6
CENTER
 10
277.3543714137
 20
245.9136148535
 11
277.2646544137
 21
245.9136148535
  0
LINE
  5
25D
100
AcDbEntity
  8
DEFAULT_1
100
AcDbLine
 62
7
  6
CENTER
 10
277.2146014137
 20
245.9136148535
 11
277.2016234137
 21
245.9136148535
  0
LINE
  5
25E
100
AcDbEntity
  8
0
100
AcDbLine
 62
7
  6
CONTINUOUS
 10
277.2146014137
 20
245.9136148535
 11
277.2646544137
 21
245.9136148535
  0
LINE
  5
25F
100
AcDbEntity
  8
0
100
AcDbLine
 62
7
  6
CONTINUOUS
 10
547.6338574137
 20
246.1136148535
 11
498.8588534137
 21
246.1136148535
  0
LINE
  5
260
100
AcDbEntity
  8
0
100
AcDbLine
 62
7
  6
CONTINUOUS
 10
461.6588534137
 20
246.1136148535
 11
412.8838574137
 21
246.1136148535
  0
LINE
  5
261
100
AcDbEntity
  8
0
100
AcDbLine
 62
7
  6
CONTINUOUS
 10
547.2626554137
 20
246.1636148535
 11
499.1081379137
 21
246.1636148535
  0
LINE
  5
262
100
AcDbEntity
  8
0
100
AcDbLine
 62
7
  6
CONTINUOUS
 10
461.4095769137
 20
246.1636148535
 11
413.2550594137
 21
246.1636148535
  0
LINE
  5
263
100
AcDbEntity
  8
0
100
AcDbLine
 62
7
  6
CONTINUOUS
 10
524.3078559137
 20
247.6943488535
 11
522.0627614137
 21
247.6943488535
  0
LINE
  5
264
100
AcDbEntity
  8
0
100
AcDbLine
 62
7
  6
CONTINUOUS
 10
524.3007524137
 20
247.7187858535
 11
522.0698649137
 21
247.7187858535
  0
LINE
  5
265
100
AcDbEntity
  8
0
100
AcDbLine
 62
7
  6
CONTINUOUS
 10
524.5909054137
 20
247.9474673535
 11
521.7797119137
 21
247.9474673535
  0
LINE
  5
266
100
AcDbEntity
  8
0
100
AcDbLine
 62
7
  6
CONTINUOUS
 10
521.7880779137
 20
247.9687858535
 11
524.5825394137
 21
247.9687858535
  0
LINE
  5
267
100
AcDbEntity
  8
0
100
AcDbLine
 62
7
  6
CONTINUOUS
 10
521.7302129137
 20
248.0248473535
 11
524.6403984137
 21
248.0248473535
  0
LINE
  5
268
100
AcDbEntity
  8
0
100
AcDbLine
 62
7
  6
CONTINUOUS
 10
524.6827184137
 20
248.0687858535
 11
521.6877224137
 21
248.0687858535
  0
LINE
  5
269
100
AcDbEntity
  8
0
100
AcDbLine
 62
7
  6
CONTINUOUS
 10
508.9353084137
 20
248.6636148535
 11
520.8569204137
 21
248.6636148535
  0
LINE
  5
26A
100
AcDbEntity
  8
0
100
AcDbLine
 62
7
  6
CONTINUOUS
 10
525.5136964137
 20
248.6636148535
 11
537.4353084137
 21
248.6636148535
  0
LINE
  5
26B
100
AcDbEntity
  8
0
100
AcDbLine
 62
7
  6
CONTINUOUS
 10
537.8673924137
 20
248.8005868535
 11
536.1529474137
 21
248.8005868535
  0
LINE
  5
26C
100
AcDbEntity
  8
0
100
AcDbLine
 62
7
  6
CONTINUOUS
 10
536.1524039137
 20
248.8005868535
 11
510.2524039137
 21
248.8005868535
  0
LINE
  5
26D
100
AcDbEntity
  8
0
100
AcDbLine
 62
7
  6
CONTINUOUS
 10
510.2518614137
 20
248.8005868535
 11
508.5032249137
 21
248.8005868535
  0
LINE
  5
26E
100
AcDbEntity
  8
0
100
AcDbLine
 62
7
  6
CONTINUOUS
 10
277.2143874137
 20
248.8005868535
 11
275.6126484137
 21
248.8005868535
  0
LINE
  5
26F
100
AcDbEntity
  8
0
100
AcDbLine
 62
7
  6
CONTINUOUS
 10
537.8312464137
 20
250.0505868535
 11
508.5393709137
 21
250.0505868535
  0
LINE
  5
270
100
AcDbEntity
  8
0
100
AcDbLine
 62
7
  6
CONTINUOUS
 10
277.2143674137
 20
250.0505868535
 11
275.6126484137
 21
250.0505868535
  0
LINE
  5
271
100
AcDbEntity
  8
0
100
AcDbLine
 62
7
  6
CONTINUOUS
 10
537.4353084137
 20
250.1636148535
 11
530.6183429137
 21
250.1636148535
  0
LINE
  5
272
100
AcDbEntity
  8
0
100
AcDbLine
 62
7
  6
CONTINUOUS
 10
515.7522744137
 20
250.1636148535
 11
508.9353084137
 21
250.1636148535
  0
LINE
  5
273
100
AcDbEntity
  8
0
100
AcDbLine
 62
7
  6
CONTINUOUS
 10
521.6877224137
 20
250.8687858535
 11
524.6827184137
 21
250.8687858535
  0
LINE
  5
274
100
AcDbEntity
  8
0
100
AcDbLine
 62
7
  6
CONTINUOUS
 10
524.6403924137
 20
250.9127238535
 11
521.7302189137
 21
250.9127238535
  0
LINE
  5
275
100
AcDbEntity
  8
0
100
AcDbLine
 62
7
  6
CONTINUOUS
 10
521.7880779137
 20
250.9687858535
 11
524.5825394137
 21
250.9687858535
  0
LINE
  5
276
100
AcDbEntity
  8
0
100
AcDbLine
 62
7
  6
CONTINUOUS
 10
521.7797119137
 20
250.9901038535
 11
524.5909054137
 21
250.9901038535
  0
LINE
  5
277
100
AcDbEntity
  8
0
100
AcDbLine
 62
7
  6
CONTINUOUS
 10
524.3007524137
 20
251.2187858535
 11
522.0698649137
 21
251.2187858535
  0
LINE
  5
278
100
AcDbEntity
  8
0
100
AcDbLine
 62
7
  6
CONTINUOUS
 10
522.0627614137
 20
251.2432228535
 11
524.3078559137
 21
251.2432228535
  0
LINE
  5
279
100
AcDbEntity
  8
0
100
AcDbLine
 62
7
  6
CONTINUOUS
 10
498.8588574137
 20
254.5333093535
 11
461.6588574137
 21
254.5333093535
  0
LINE
  5
27A
100
AcDbEntity
  8
0
100
AcDbLine
 62
7
  6
CONTINUOUS
 10
461.6588574137
 20
255.0333093535
 11
498.8588574137
 21
255.0333093535
  0
LINE
  5
27B
100
AcDbEntity
  8
DEFAULT_1
100
AcDbLine
 62
7
  6
CENTER
 10
502.4588829137
 20
255.5333083535
 11
498.7588574137
 21
255.5333093535
  0
LINE
  5
27C
100
AcDbEntity
  8
DEFAULT_1
100
AcDbLine
 62
7
  6
CENTER
 10
461.7588574137
 20
255.5333093535
 11
458.0585819137
 21
255.5333083535
  0
LINE
  5
27D
100
AcDbEntity
  8
0
100
AcDbLine
 62
7
  6
CONTINUOUS
 10
461.7588574137
 20
255.5333093535
 11
498.7588574137
 21
255.5333093535
  0
LINE
  5
27E
100
AcDbEntity
  8
0
100
AcDbLine
 62
7
  6
CONTINUOUS
 10
461.7304234137
 20
259.1657388535
 11
498.7872914137
 21
259.1657388535
  0
LINE
  5
27F
100
AcDbEntity
  8
0
100
AcDbLine
 62
7
  6
CONTINUOUS
 10
498.7338574137
 20
259.2136148535
 11
461.7838574137
 21
259.2136148535
  0
LINE
  5
280
100
AcDbEntity
  8
0
100
AcDbLine
 62
7
  6
CONTINUOUS
 10
329.4146014137
 20
259.6636148535
 11
307.7146014137
 21
259.6636148535
  0
LINE
  5
281
100
AcDbEntity
  8
0
100
AcDbLine
 62
7
  6
CONTINUOUS
 10
546.5131629137
 20
259.7741158535
 11
498.8588574137
 21
259.7741158535
  0
LINE
  5
282
100
AcDbEntity
  8
0
100
AcDbLine
 62
7
  6
CONTINUOUS
 10
461.6588574137
 20
259.7741158535
 11
414.0045519137
 21
259.7741158535
  0
LINE
  5
283
100
AcDbEntity
  8
0
100
AcDbLine
 62
7
  6
CONTINUOUS
 10
414.0588574137
 20
259.8564803535
 11
461.7033679137
 21
259.8564803535
  0
LINE
  5
284
100
AcDbEntity
  8
0
100
AcDbLine
 62
7
  6
CONTINUOUS
 10
498.8143469137
 20
259.8564803535
 11
546.4588574137
 21
259.8564803535
  0
LINE
  5
285
100
AcDbEntity
  8
0
100
AcDbLine
 62
7
  6
CONTINUOUS
 10
545.0168664137
 20
261.2564158535
 11
498.8143469137
 21
261.2564158535
  0
LINE
  5
286
100
AcDbEntity
  8
0
100
AcDbLine
 62
7
  6
CONTINUOUS
 10
461.7033679137
 20
261.2564158535
 11
415.5008484137
 21
261.2564158535
  0
LINE
  5
287
100
AcDbEntity
  8
0
100
AcDbLine
 62
7
  6
CONTINUOUS
 10
544.9838574137
 20
261.3064803535
 11
498.7872914137
 21
261.3064803535
  0
LINE
  5
288
100
AcDbEntity
  8
0
100
AcDbLine
 62
7
  6
CONTINUOUS
 10
461.7304234137
 20
261.3064803535
 11
415.5338574137
 21
261.3064803535
  0
LINE
  5
289
100
AcDbEntity
  8
0
100
AcDbLine
 62
7
  6
CONTINUOUS
 10
544.9338574137
 20
261.3636148535
 11
498.7338574137
 21
261.3636148535
  0
LINE
  5
28A
100
AcDbEntity
  8
0
100
AcDbLine
 62
7
  6
CONTINUOUS
 10
461.7838574137
 20
261.3636148535
 11
415.5838574137
 21
261.3636148535
  0
LINE
  5
28B
100
AcDbEntity
  8
0
100
AcDbLine
 62
7
  6
CONTINUOUS
 10
329.4146014137
 20
261.5136148535
 11
307.7146014137
 21
261.5136148535
  0
LINE
  5
28C
100
AcDbEntity
  8
0
100
AcDbLine
 62
7
  6
CONTINUOUS
 10
480.5088574137
 20
261.9636148535
 11
480.0088574137
 21
261.9636148535
  0
LINE
  5
28D
100
AcDbEntity
  8
0
100
AcDbLine
 62
7
  6
CONTINUOUS
 10
481.2088574137
 20
262.6636148535
 11
479.3088574137
 21
262.6636148535
  0
LINE
  5
28E
100
AcDbEntity
  8
0
100
AcDbLine
 62
7
  6
CONTINUOUS
 10
479.3088574137
 20
263.1636148535
 11
481.2088574137
 21
263.1636148535
  0
LINE
  5
28F
100
AcDbEntity
  8
0
100
AcDbLine
 62
7
  6
CONTINUOUS
 10
480.0088574137
 20
263.8636148535
 11
480.5088574137
 21
263.8636148535
  0
LINE
  5
290
100
AcDbEntity
  8
0
100
AcDbLine
 62
7
  6
CONTINUOUS
 10
414.1514629137
 20
245.9094398535
 11
412.6815479137
 21
245.9113053535
  0
LINE
  5
291
100
AcDbEntity
  8
0
100
AcDbLine
 62
7
  6
CONTINUOUS
 10
405.1838574137
 20
242.4136148535
 11
405.1853644137
 21
242.3038203535
  0
LINE
  5
292
100
AcDbEntity
  8
0
100
AcDbLine
 62
7
  6
CONTINUOUS
 10
412.6796824137
 20
247.3812203535
 11
412.6815479137
 21
245.9113053535
  0
LINE
  5
293
100
AcDbEntity
  8
0
100
AcDbLine
 62
7
  6
CONTINUOUS
 10
405.1838574137
 20
242.4136148535
 11
405.1838574137
 21
351.4136148535
  0
LINE
  5
294
100
AcDbEntity
  8
0
100
AcDbLine
 62
7
  6
CONTINUOUS
 10
412.6796824137
 20
346.4460093535
 11
412.6796824137
 21
247.3812203535
  0
LINE
  5
295
100
AcDbEntity
  8
0
100
AcDbLine
 62
7
  6
CONTINUOUS
 10
412.7548559137
 20
344.7136148535
 11
412.7548559137
 21
343.2136148535
  0
LINE
  5
296
100
AcDbEntity
  8
0
100
AcDbLine
 62
7
  6
CONTINUOUS
 10
412.8569434137
 20
344.1636138535
 11
412.8569434137
 21
343.2136148535
  0
LINE
  5
297
100
AcDbEntity
  8
0
100
AcDbLine
 62
7
  6
CONTINUOUS
 10
412.8838574137
 20
347.7136148535
 11
412.8838574137
 21
346.5636133535
  0
LINE
  5
298
100
AcDbEntity
  8
0
100
AcDbLine
 62
7
  6
CONTINUOUS
 10
412.8838574137
 20
344.1636133535
 11
412.8838574137
 21
246.1136148535
  0
LINE
  5
299
100
AcDbEntity
  8
0
100
AcDbLine
 62
7
  6
CONTINUOUS
 10
413.0088574137
 20
347.4174128535
 11
413.0088574137
 21
246.4098168535
  0
LINE
  5
29A
100
AcDbEntity
  8
0
100
AcDbLine
 62
7
  6
CONTINUOUS
 10
414.0045519137
 20
259.7741158535
 11
414.0045519137
 21
346.6459793535
  0
LINE
  5
29B
100
AcDbEntity
  8
0
100
AcDbLine
 62
7
  6
CONTINUOUS
 10
414.0588574137
 20
346.5636148535
 11
414.0588574137
 21
259.8564803535
  0
LINE
  5
29C
100
AcDbEntity
  8
0
100
AcDbLine
 62
7
  6
CONTINUOUS
 10
415.5008484137
 20
261.2564158535
 11
415.5008484137
 21
345.1636793535
  0
LINE
  5
29D
100
AcDbEntity
  8
0
100
AcDbLine
 62
7
  6
CONTINUOUS
 10
415.5338574137
 20
261.3064803535
 11
415.5338574137
 21
345.1136148535
  0
LINE
  5
29E
100
AcDbEntity
  8
0
100
AcDbLine
 62
7
  6
CONTINUOUS
 10
415.5838574137
 20
345.1136793535
 11
415.5838574137
 21
261.3636148535
  0
LINE
  5
29F
100
AcDbEntity
  8
0
100
AcDbLine
 62
7
  6
CONTINUOUS
 10
412.6796824137
 20
346.4460093535
 11
412.6815479137
 21
347.9159243535
  0
LINE
  5
2A0
100
AcDbEntity
  8
0
100
AcDbLine
 62
7
  6
CONTINUOUS
 10
405.1838574137
 20
351.4136148535
 11
405.1853644137
 21
351.5234093535
  0
LINE
  5
2A1
100
AcDbEntity
  8
0
100
AcDbLine
 62
7
  6
CONTINUOUS
 10
277.2146014137
 20
246.1636148535
 11
277.2486809137
 21
246.1696238535
  0
LINE
  5
2A2
100
AcDbEntity
  8
0
100
AcDbLine
 62
7
  6
CONTINUOUS
 10
277.2362194137
 20
246.4136288535
 11
277.2146014137
 21
246.4098168535
  0
LWPOLYLINE
  5
2A3
100
AcDbEntity
  8
0
100
AcDbPolyline
 62
7
  6
CONTINUOUS
 90
2
 70
0
 43
0.3499999985
 10
565.4970953979
 20
298.9850556641
 10
563.9971135864
 20
298.9850556641
  0
LINE
  5
2A4
100
AcDbEntity
  8
0
100
AcDbLine
 62
7
  6
CONTINUOUS
 10
414.0045519137
 20
259.7741158535
 11
414.0588574137
 21
259.8564803535
  0
LINE
  5
2A5
100
AcDbEntity
  8
0
100
AcDbLine
 62
7
  6
CONTINUOUS
 10
415.5338574137
 20
261.3064803535
 11
415.5008484137
 21
261.2564158535
  0
LINE
  5
2A6
100
AcDbEntity
  8
0
100
AcDbLine
 62
7
  6
CONTINUOUS
 10
409.0740629137
 20
238.4151218535
 11
414.1514629137
 21
245.9094398535
  0
LINE
  5
2A7
100
AcDbEntity
  8
0
100
AcDbLine
 62
7
  6
CONTINUOUS
 10
412.8838574137
 20
246.1136148535
 11
412.6815479137
 21
245.9113053535
  0
LINE
  5
2A8
100
AcDbEntity
  8
0
100
AcDbLine
 62
7
  6
CONTINUOUS
 10
555.3323504137
 20
351.5234093535
 11
547.8380324137
 21
346.4460093535
  0
LINE
  5
2A9
100
AcDbEntity
  8
0
100
AcDbLine
 62
7
  6
CONTINUOUS
 10
480.5088574137
 20
329.9636148535
 11
480.0088574137
 21
329.9636148535
  0
LINE
  5
2AA
100
AcDbEntity
  8
0
100
AcDbLine
 62
7
  6
CONTINUOUS
 10
277.2362179137
 20
347.4136013535
 11
277.2146014137
 21
347.4174128535
  0
LINE
  5
2AB
100
AcDbEntity
  8
0
100
AcDbLine
 62
7
  6
CONTINUOUS
 10
277.2486804137
 20
347.6576058535
 11
277.2146014137
 21
347.6636148535
  0
LINE
  5
2AC
100
AcDbEntity
  8
0
100
AcDbLine
 62
7
  6
CONTINUOUS
 10
555.3323499137
 20
242.3038203535
 11
547.8380324137
 21
247.3812203535
  0
LINE
  5
2AD
100
AcDbEntity
  8
0
100
AcDbLine
 62
7
  6
CONTINUOUS
 10
412.8838574137
 20
347.7136148535
 11
412.6815479137
 21
347.9159243535
  0
LINE
  5
2AE
100
AcDbEntity
  8
0
100
AcDbLine
 62
7
  6
CONTINUOUS
 10
409.0740629137
 20
355.4121078535
 11
414.1514629137
 21
347.9177898535
  0
LINE
  5
2AF
100
AcDbEntity
  8
0
100
AcDbLine
 62
7
  6
CONTINUOUS
 10
414.0588574137
 20
346.5636148535
 11
414.0045519137
 21
346.6459793535
  0
LINE
  5
2B0
100
AcDbEntity
  8
0
100
AcDbLine
 62
7
  6
CONTINUOUS
 10
415.5338574137
 20
345.1136148535
 11
415.5008484137
 21
345.1636793535
  0
LINE
  5
2B1
100
AcDbEntity
  8
0
100
AcDbLine
 62
7
  6
CONTINUOUS
 10
461.6588574137
 20
245.9136148535
 11
461.6588574137
 21
259.7741158535
  0
LINE
  5
2B2
100
AcDbEntity
  8
0
100
AcDbLine
 62
7
  6
CONTINUOUS
 10
461.7033679137
 20
261.2564158535
 11
461.7033679137
 21
259.8564803535
  0
LINE
  5
2B3
100
AcDbEntity
  8
0
100
AcDbLine
 62
7
  6
CONTINUOUS
 10
461.7304234137
 20
261.3064803535
 11
461.7304234137
 21
255.0333093535
  0
LINE
  5
2B4
100
AcDbEntity
  8
0
100
AcDbLine
 62
7
  6
CONTINUOUS
 10
461.7588574137
 20
259.1657388535
 11
461.7588574137
 21
258.1657388535
  0
LINE
  5
2B5
100
AcDbEntity
  8
0
100
AcDbLine
 62
7
  6
CONTINUOUS
 10
461.7588574137
 20
256.1657388535
 11
461.7588574137
 21
255.5333093535
  0
LINE
  5
2B6
100
AcDbEntity
  8
0
100
AcDbLine
 62
7
  6
CONTINUOUS
 10
461.7838574137
 20
261.3636148535
 11
461.7838574137
 21
259.2136148535
  0
LWPOLYLINE
  5
2B7
100
AcDbEntity
  8
0
100
AcDbPolyline
 62
7
  6
CONTINUOUS
 90
13
 70
0
 43
0.3499999985
 10
477.0445713501
 20
365.2121374207
 10
477.0445713501
 20
366.4978397827
 10
477.2588764648
 20
366.9264243469
 10
477.6874353638
 20
367.3549832458
 10
477.9016891479
 20
367.3549832458
 10
478.3302993774
 20
366.9264243469
 10
478.5445531616
 20
366.4978397827
 10
478.5445531616
 20
365.2121374207
 10
478.3302993774
 20
364.7835785217
 10
477.9016891479
 20
364.3549939575
 10
477.6874353638
 20
364.3549939575
 10
477.2588764648
 20
364.7835785217
 10
477.0445713501
 20
365.2121374207
  0
LINE
  5
2B8
100
AcDbEntity
  8
0
100
AcDbLine
 62
7
  6
CONTINUOUS
 10
479.3088574137
 20
262.6636148535
 11
479.3088574137
 21
263.1636148535
  0
LINE
  5
2B9
100
AcDbEntity
  8
0
100
AcDbLine
 62
7
  6
CONTINUOUS
 10
479.3088574137
 20
330.6636148535
 11
479.3088574137
 21
331.1636148535
  0
LWPOLYLINE
  5
2BA
100
AcDbEntity
  8
0
100
AcDbPolyline
 62
7
  6
CONTINUOUS
 90
13
 70
0
 43
0.3499999985
 10
479.40172229
 20
365.2121374207
 10
479.40172229
 20
366.4978397827
 10
479.6159760742
 20
366.9264243469
 10
480.0445863037
 20
367.3549832458
 10
480.2588400879
 20
367.3549832458
 10
480.6874503174
 20
366.9264243469
 10
480.9017041016
 20
366.4978397827
 10
480.9017041016
 20
365.2121374207
 10
480.6874503174
 20
364.7835785217
 10
480.2588400879
 20
364.3549939575
 10
480.0445863037
 20
364.3549939575
 10
479.6159760742
 20
364.7835785217
 10
479.40172229
 20
365.2121374207
  0
LINE
  5
2BB
100
AcDbEntity
  8
0
100
AcDbLine
 62
7
  6
CONTINUOUS
 10
480.0088574137
 20
261.9636148535
 11
480.0088574137
 21
263.8636148535
  0
LINE
  5
2BC
100
AcDbEntity
  8
0
100
AcDbLine
 62
7
  6
CONTINUOUS
 10
480.0088574137
 20
329.9636148535
 11
480.0088574137
 21
331.8636148535
  0
LINE
  5
2BD
100
AcDbEntity
  8
0
100
AcDbLine
 62
7
  6
CONTINUOUS
 10
480.5088574137
 20
331.8636148535
 11
480.5088574137
 21
329.9636148535
  0
LINE
  5
2BE
100
AcDbEntity
  8
0
100
AcDbLine
 62
7
  6
CONTINUOUS
 10
480.5088574137
 20
263.8636148535
 11
480.5088574137
 21
261.9636148535
  0
LINE
  5
2BF
100
AcDbEntity
  8
0
100
AcDbLine
 62
7
  6
CONTINUOUS
 10
481.2088574137
 20
331.1636148535
 11
481.2088574137
 21
330.6636148535
  0
LINE
  5
2C0
100
AcDbEntity
  8
0
100
AcDbLine
 62
7
  6
CONTINUOUS
 10
481.2088574137
 20
263.1636148535
 11
481.2088574137
 21
262.6636148535
  0
LWPOLYLINE
  5
2C1
100
AcDbEntity
  8
0
100
AcDbPolyline
 62
7
  6
CONTINUOUS
 90
3
 70
0
 43
0.3499999985
 10
482.4731380615
 20
364.6406998901
 10
482.4017372437
 20
364.4264204407
 10
482.2588329468
 20
364.1407145081
  0
LINE
  5
2C2
100
AcDbEntity
  8
0
100
AcDbLine
 62
7
  6
CONTINUOUS
 10
461.7304234137
 20
261.3064803535
 11
461.7033679137
 21
261.2564158535
  0
LINE
  5
2C3
100
AcDbEntity
  8
0
100
AcDbLine
 62
7
  6
CONTINUOUS
 10
461.6588574137
 20
259.7741158535
 11
461.7033679137
 21
259.8564803535
  0
LINE
  5
2C4
100
AcDbEntity
  8
0
100
AcDbLine
 62
7
  6
CONTINUOUS
 10
547.6338574137
 20
347.7136148535
 11
547.8361669137
 21
347.9159243535
  0
LINE
  5
2C5
100
AcDbEntity
  8
0
100
AcDbLine
 62
7
  6
CONTINUOUS
 10
405.1853649137
 20
242.3038203535
 11
412.6796824137
 21
247.3812203535
  0
LINE
  5
2C6
100
AcDbEntity
  8
0
100
AcDbLine
 62
7
  6
CONTINUOUS
 10
409.1838574137
 20
355.4136148535
 11
409.0740629137
 21
355.4121078535
  0
LINE
  5
2C7
100
AcDbEntity
  8
0
100
AcDbLine
 62
7
  6
CONTINUOUS
 10
414.1514629137
 20
347.9177898535
 11
412.6815479137
 21
347.9159243535
  0
LINE
  5
2C8
100
AcDbEntity
  8
0
100
AcDbLine
 62
7
  6
CONTINUOUS
 10
481.2088574137
 20
330.6636148535
 11
479.3088574137
 21
330.6636148535
  0
LINE
  5
2C9
100
AcDbEntity
  8
0
100
AcDbLine
 62
7
  6
CONTINUOUS
 10
479.3088574137
 20
331.1636148535
 11
481.2088574137
 21
331.1636148535
  0
LINE
  5
2CA
100
AcDbEntity
  8
0
100
AcDbLine
 62
7
  6
CONTINUOUS
 10
480.0088574137
 20
331.8636148535
 11
480.5088574137
 21
331.8636148535
  0
LINE
  5
2CB
100
AcDbEntity
  8
0
100
AcDbLine
 62
7
  6
CONTINUOUS
 10
329.4146014137
 20
332.3136148535
 11
307.7146014137
 21
332.3136148535
  0
LINE
  5
2CC
100
AcDbEntity
  8
0
100
AcDbLine
 62
7
  6
CONTINUOUS
 10
307.7146014137
 20
334.1636148535
 11
329.4146014137
 21
334.1636148535
  0
LINE
  5
2CD
100
AcDbEntity
  8
DEFAULT_1
100
AcDbLine
 62
7
  6
CENTER
 10
547.7730939137
 20
343.2136138535
 11
547.7628569137
 21
343.2136148535
  0
LINE
  5
2CE
100
AcDbEntity
  8
0
100
AcDbLine
 62
7
  6
CONTINUOUS
 10
547.7628569137
 20
343.2136148535
 11
547.6607714137
 21
343.2136148535
  0
LINE
  5
2CF
100
AcDbEntity
  8
DEFAULT_1
100
AcDbLine
 62
7
  6
CENTER
 10
547.6607714137
 20
343.2136148535
 11
547.6502909137
 21
343.2136138535
  0
LINE
  5
2D0
100
AcDbEntity
  8
DEFAULT_1
100
AcDbLine
 62
7
  6
CENTER
 10
412.8671489137
 20
343.2136138535
 11
412.8569434137
 21
343.2136148535
  0
LINE
  5
2D1
100
AcDbEntity
  8
DEFAULT_1
100
AcDbLine
 62
7
  6
CENTER
 10
412.7548539137
 20
343.2136148535
 11
412.7446439137
 21
343.2136138535
  0
LINE
  5
2D2
100
AcDbEntity
  8
0
100
AcDbLine
 62
7
  6
CONTINUOUS
 10
412.7548539137
 20
343.2136148535
 11
412.8569434137
 21
343.2136148535
  0
LINE
  5
2D3
100
AcDbEntity
  8
0
100
AcDbLine
 62
7
  6
CONTINUOUS
 10
547.7628579137
 20
344.1636148535
 11
547.5088549137
 21
344.1636148535
  0
LINE
  5
2D4
100
AcDbEntity
  8
0
100
AcDbLine
 62
7
  6
CONTINUOUS
 10
413.0088549137
 20
344.1636148535
 11
412.7548549137
 21
344.1636148535
  0
LINE
  5
2D5
100
AcDbEntity
  8
0
100
AcDbLine
 62
7
  6
CONTINUOUS
 10
415.5338574137
 20
345.1136148535
 11
544.9838574137
 21
345.1136148535
  0
LINE
  5
2D6
100
AcDbEntity
  8
0
100
AcDbLine
 62
7
  6
CONTINUOUS
 10
545.0168664137
 20
345.1636793535
 11
415.5008484137
 21
345.1636793535
  0
LINE
  5
2D7
100
AcDbEntity
  8
DEFAULT_1
100
AcDbLine
 62
7
  6
CENTER
 10
547.7882839137
 20
345.3636153535
 11
547.4831769137
 21
345.3636153535
  0
LINE
  5
2D8
100
AcDbEntity
  8
DEFAULT_1
100
AcDbLine
 62
7
  6
CENTER
 10
413.0342784137
 20
345.3636153535
 11
412.7291789137
 21
345.3636153535
  0
LINE
  5
2D9
100
AcDbEntity
  8
0
100
AcDbLine
 62
7
  6
CONTINUOUS
 10
414.0588574137
 20
346.5636148535
 11
546.4588574137
 21
346.5636148535
  0
LINE
  5
2DA
100
AcDbEntity
  8
0
100
AcDbLine
 62
7
  6
CONTINUOUS
 10
546.5131629137
 20
346.6459793535
 11
414.0045519137
 21
346.6459793535
  0
LINE
  5
2DB
100
AcDbEntity
  8
0
100
AcDbLine
 62
7
  6
CONTINUOUS
 10
413.2550594137
 20
347.6636148535
 11
547.2626554137
 21
347.6636148535
  0
LINE
  5
2DC
100
AcDbEntity
  8
0
100
AcDbLine
 62
7
  6
CONTINUOUS
 10
412.8838574137
 20
347.7136148535
 11
547.6338574137
 21
347.7136148535
  0
LINE
  5
2DD
100
AcDbEntity
  8
0
100
AcDbLine
 62
7
  6
CONTINUOUS
 10
414.1514629137
 20
347.9177898535
 11
546.3662519137
 21
347.9177898535
  0
LINE
  5
2DE
100
AcDbEntity
  8
0
100
AcDbLine
 62
7
  6
CONTINUOUS
 10
291.2146014137
 20
349.3636148535
 11
279.2146014137
 21
349.3636148535
  0
LINE
  5
2DF
100
AcDbEntity
  8
DEFAULT_1
100
AcDbLine
 62
7
  6
CENTER
 10
279.2600909137
 20
351.4136148535
 11
279.2146014137
 21
351.4136148535
  0
LINE
  5
2E0
100
AcDbEntity
  8
DEFAULT_1
100
AcDbLine
 62
7
  6
CENTER
 10
278.8146014137
 20
351.4136148535
 11
278.7142079137
 21
351.4136148535
  0
LINE
  5
2E1
100
AcDbEntity
  8
0
100
AcDbLine
 62
7
  6
CONTINUOUS
 10
278.8146014137
 20
351.4136148535
 11
279.2146014137
 21
351.4136148535
  0
LINE
  5
2E2
100
AcDbEntity
  8
0
100
AcDbLine
 62
7
  6
CONTINUOUS
 10
279.2146014137
 20
355.4136148535
 11
278.8146014137
 21
355.4136148535
  0
LINE
  5
2E3
100
AcDbEntity
  8
0
100
AcDbLine
 62
7
  6
CONTINUOUS
 10
409.1838574137
 20
355.4136148535
 11
551.3338574137
 21
355.4136148535
  0
LINE
  5
2E4
100
AcDbEntity
  8
0
100
AcDbLine
 62
7
  6
CONTINUOUS
 10
546.3662519137
 20
347.9177898535
 11
547.8361669137
 21
347.9159243535
  0
LINE
  5
2E5
100
AcDbEntity
  8
0
100
AcDbLine
 62
7
  6
CONTINUOUS
 10
291.2145959137
 20
341.7969813535
 11
329.4146014137
 21
341.4636148535
  0
LINE
  5
2E6
100
AcDbEntity
  8
0
100
AcDbLine
 62
7
  6
CONTINUOUS
 10
551.3338574137
 20
355.4136148535
 11
551.4436519137
 21
355.4121078535
  0
LINE
  5
2E7
100
AcDbEntity
  8
0
100
AcDbLine
 62
7
  6
CONTINUOUS
 10
277.2146014137
 20
347.9177898535
 11
277.2648519137
 21
347.9159243535
  0
LINE
  5
2E8
100
AcDbEntity
  8
0
100
AcDbLine
 62
7
  6
CONTINUOUS
 10
405.1853649137
 20
351.5234093535
 11
412.6796824137
 21
346.4460093535
  0
LINE
  5
2E9
100
AcDbEntity
  8
0
100
AcDbLine
 62
7
  6
CONTINUOUS
 10
547.6338574137
 20
246.1136148535
 11
547.8361669137
 21
245.9113053535
  0
LINE
  5
2EA
100
AcDbEntity
  8
0
100
AcDbLine
 62
7
  6
CONTINUOUS
 10
498.7872914137
 20
261.3064803535
 11
498.8143469137
 21
261.2564158535
  0
LINE
  5
2EB
100
AcDbEntity
  8
0
100
AcDbLine
 62
7
  6
CONTINUOUS
 10
498.8588574137
 20
259.7741158535
 11
498.8143469137
 21
259.8564803535
  0
LINE
  5
2EC
100
AcDbEntity
  8
0
100
AcDbLine
 62
7
  6
CONTINUOUS
 10
498.7338574137
 20
259.2136148535
 11
498.7338574137
 21
261.3636148535
  0
LINE
  5
2ED
100
AcDbEntity
  8
0
100
AcDbLine
 62
7
  6
CONTINUOUS
 10
498.7588574137
 20
259.1657388535
 11
498.7588574137
 21
258.1657388535
  0
LINE
  5
2EE
100
AcDbEntity
  8
0
100
AcDbLine
 62
7
  6
CONTINUOUS
 10
498.7588574137
 20
256.1657388535
 11
498.7588574137
 21
255.5333093535
  0
LINE
  5
2EF
100
AcDbEntity
  8
0
100
AcDbLine
 62
7
  6
CONTINUOUS
 10
498.7872914137
 20
261.3064803535
 11
498.7872914137
 21
255.0333093535
  0
LINE
  5
2F0
100
AcDbEntity
  8
0
100
AcDbLine
 62
7
  6
CONTINUOUS
 10
498.8143469137
 20
261.2564158535
 11
498.8143469137
 21
259.8564803535
  0
LINE
  5
2F1
100
AcDbEntity
  8
0
100
AcDbLine
 62
7
  6
CONTINUOUS
 10
498.8588574137
 20
245.9136148535
 11
498.8588574137
 21
259.7741158535
  0
LINE
  5
2F2
100
AcDbEntity
  8
0
100
AcDbLine
 62
7
  6
CONTINUOUS
 10
508.2524039137
 20
249.7236803535
 11
508.2524039137
 21
249.1035488535
  0
LINE
  5
2F3
100
AcDbEntity
  8
DEFAULT_1
100
AcDbLine
 62
7
  6
CENTER
 10
508.2524049137
 20
250.1755853535
 11
508.2524039137
 21
249.7236803535
  0
LINE
  5
2F4
100
AcDbEntity
  8
DEFAULT_1
100
AcDbLine
 62
7
  6
CENTER
 10
508.2524039137
 20
249.1035488535
 11
508.2524049137
 21
248.6755853535
  0
LINE
  5
2F5
100
AcDbEntity
  8
DEFAULT_1
100
AcDbLine
 62
7
  6
CENTER
 10
512.2524049137
 20
250.1756118535
 11
512.2524039137
 21
250.0505868535
  0
LINE
  5
2F6
100
AcDbEntity
  8
DEFAULT_1
100
AcDbLine
 62
7
  6
CENTER
 10
512.2524039137
 20
248.8005868535
 11
512.2524049137
 21
248.6753103535
  0
LINE
  5
2F7
100
AcDbEntity
  8
0
100
AcDbLine
 62
7
  6
CONTINUOUS
 10
512.2524039137
 20
250.0505868535
 11
512.2524039137
 21
248.8005868535
  0
LINE
  5
2F8
100
AcDbEntity
  8
0
100
AcDbLine
 62
7
  6
CONTINUOUS
 10
544.9838574137
 20
345.1136148535
 11
545.0168664137
 21
345.1636793535
  0
LINE
  5
2F9
100
AcDbEntity
  8
0
100
AcDbLine
 62
7
  6
CONTINUOUS
 10
546.4588574137
 20
346.5636148535
 11
546.5131629137
 21
346.6459793535
  0
LINE
  5
2FA
100
AcDbEntity
  8
0
100
AcDbLine
 62
7
  6
CONTINUOUS
 10
551.4436519137
 20
355.4121073535
 11
546.3662519137
 21
347.9177898535
  0
LWPOLYLINE
  5
2FB
100
AcDbEntity
  8
0
100
AcDbPolyline
 62
7
  6
CONTINUOUS
 90
8
 70
0
 43
0.3499999985
 10
307.3146124878
 20
362.0823074646
 10
308.1717559509
 20
362.0823074646
 10
308.6003148499
 20
362.5108663635
 10
308.6003148499
 20
363.3680098267
 10
308.1717559509
 20
363.7965943909
 10
307.3146124878
 20
363.7965943909
 10
307.3146124878
 20
365.0822967529
 10
308.6003148499
 20
365.0822967529
  0
LWPOLYLINE
  5
2FC
100
AcDbEntity
  8
0
100
AcDbPolyline
 62
7
  6
CONTINUOUS
 90
6
 70
0
 43
0.3499999985
 10
474.9017255249
 20
364.3549939575
 10
475.9731484375
 20
364.3549939575
 10
476.1874535522
 20
364.569273407
 10
476.1874535522
 20
365.6407219849
 10
475.7588433228
 20
366.0692808838
 10
475.3302844238
 20
366.0692808838
  0
LWPOLYLINE
  5
2FD
100
AcDbEntity
  8
0
100
AcDbPolyline
 62
7
  6
CONTINUOUS
 90
6
 70
0
 43
0.3499999985
 10
483.4731601563
 20
364.3549939575
 10
484.5445830688
 20
364.3549939575
 10
484.758836853
 20
364.569273407
 10
484.758836853
 20
365.6407219849
 10
484.3302779541
 20
366.0692808838
 10
483.9017190552
 20
366.0692808838
  0
LWPOLYLINE
  5
2FE
100
AcDbEntity
  8
0
100
AcDbPolyline
 62
7
  6
CONTINUOUS
 90
8
 70
0
 43
0.3499999985
 10
306.3145903931
 20
370.1044537048
 10
307.1717338562
 20
370.1044537048
 10
307.6003184204
 20
370.5330126038
 10
307.6003184204
 20
371.3901560669
 10
307.1717338562
 20
371.8187406311
 10
306.3145903931
 20
371.8187406311
 10
306.3145903931
 20
373.1044429932
 10
307.6003184204
 20
373.1044429932
  0
LWPOLYLINE
  5
2FF
100
AcDbEntity
  8
0
100
AcDbPolyline
 62
7
  6
CONTINUOUS
 90
3
 70
0
 43
0.3499999985
 10
303.7431856689
 20
370.7473177185
 10
302.2431781921
 20
370.7473177185
 10
302.8860422058
 20
373.1044429932
  0
LINE
  5
300
100
AcDbEntity
  8
0
100
AcDbLine
 62
7
  6
CONTINUOUS
 10
551.4436519137
 20
238.4151218535
 11
546.3662519137
 21
245.9094398535
  0
LINE
  5
301
100
AcDbEntity
  8
0
100
AcDbLine
 62
7
  6
CONTINUOUS
 10
544.9838574137
 20
261.3064803535
 11
545.0168664137
 21
261.2564158535
  0
LINE
  5
302
100
AcDbEntity
  8
0
100
AcDbLine
 62
7
  6
CONTINUOUS
 10
546.5131629137
 20
259.7741158535
 11
546.4588574137
 21
259.8564803535
  0
LWPOLYLINE
  5
303
100
AcDbEntity
  8
0
100
AcDbPolyline
 62
7
  6
CONTINUOUS
 90
10
 70
0
 43
0.3499999985
 10
482.4017372437
 20
364.8550050049
 10
482.4731380615
 20
364.7121263733
 10
482.4731380615
 20
364.6406998901
 10
482.3302850952
 20
364.4978469238
 10
482.2588329468
 20
364.4978469238
 10
482.1874321289
 20
364.569273407
 10
482.1874321289
 20
364.6406998901
 10
482.2588329468
 20
364.7835785217
 10
482.3302850952
 20
364.8550050049
 10
482.4017372437
 20
364.8550050049
  0
LINE
  5
304
100
AcDbEntity
  8
0
100
AcDbLine
 62
7
  6
CONTINUOUS
 10
521.7797119137
 20
250.9901038535
 11
521.7880779137
 21
250.9687858535
  0
LINE
  5
305
100
AcDbEntity
  8
0
100
AcDbLine
 62
7
  6
CONTINUOUS
 10
524.5825394137
 20
247.9687858535
 11
524.5909054137
 21
247.9474673535
  0
LINE
  5
306
100
AcDbEntity
  8
0
100
AcDbLine
 62
7
  6
CONTINUOUS
 10
522.0698649137
 20
251.2187858535
 11
522.0627614137
 21
251.2432228535
  0
LINE
  5
307
100
AcDbEntity
  8
0
100
AcDbLine
 62
7
  6
CONTINUOUS
 10
524.3007524137
 20
247.7187858535
 11
524.3078559137
 21
247.6943488535
  0
LINE
  5
308
100
AcDbEntity
  8
DEFAULT_1
100
AcDbLine
 62
7
  6
CENTER
 10
534.1524044137
 20
250.1756118535
 11
534.1524039137
 21
250.0505868535
  0
LINE
  5
309
100
AcDbEntity
  8
DEFAULT_1
100
AcDbLine
 62
7
  6
CENTER
 10
534.1524039137
 20
248.8005868535
 11
534.1524044137
 21
248.6753103535
  0
LINE
  5
30A
100
AcDbEntity
  8
0
100
AcDbLine
 62
7
  6
CONTINUOUS
 10
534.1524039137
 20
250.0505868535
 11
534.1524039137
 21
248.8005868535
  0
LINE
  5
30B
100
AcDbEntity
  8
DEFAULT_1
100
AcDbLine
 62
7
  6
CENTER
 10
538.1524044137
 20
250.1363013535
 11
538.1524039137
 21
249.6333278535
  0
LINE
  5
30C
100
AcDbEntity
  8
DEFAULT_1
100
AcDbLine
 62
7
  6
CENTER
 10
538.1524039137
 20
249.1936898535
 11
538.1524044137
 21
249.1077253535
  0
LINE
  5
30D
100
AcDbEntity
  8
0
100
AcDbLine
 62
7
  6
CONTINUOUS
 10
538.1524039137
 20
249.1936898535
 11
538.1524039137
 21
249.6333278535
  0
LINE
  5
30E
100
AcDbEntity
  8
0
100
AcDbLine
 62
7
  6
CONTINUOUS
 10
522.0698649137
 20
247.7187858535
 11
522.0627614137
 21
247.6943488535
  0
LINE
  5
30F
100
AcDbEntity
  8
0
100
AcDbLine
 62
7
  6
CONTINUOUS
 10
524.3007524137
 20
251.2187858535
 11
524.3078559137
 21
251.2432228535
  0
LINE
  5
310
100
AcDbEntity
  8
0
100
AcDbLine
 62
7
  6
CONTINUOUS
 10
521.7880779137
 20
247.9687858535
 11
521.7797119137
 21
247.9474673535
  0
LINE
  5
311
100
AcDbEntity
  8
0
100
AcDbLine
 62
7
  6
CONTINUOUS
 10
524.5909054137
 20
250.9901038535
 11
524.5825394137
 21
250.9687858535
  0
LINE
  5
312
100
AcDbEntity
  8
0
100
AcDbLine
 62
7
  6
CONTINUOUS
 10
555.3338574137
 20
351.4136148535
 11
555.3323504137
 21
351.5234093535
  0
LINE
  5
313
100
AcDbEntity
  8
0
100
AcDbLine
 62
7
  6
CONTINUOUS
 10
547.8380324137
 20
346.4460093535
 11
547.8361669137
 21
347.9159243535
  0
LINE
  5
314
100
AcDbEntity
  8
0
100
AcDbLine
 62
7
  6
CONTINUOUS
 10
544.9338574137
 20
261.3636148535
 11
544.9338574137
 21
345.1136793535
  0
LINE
  5
315
100
AcDbEntity
  8
0
100
AcDbLine
 62
7
  6
CONTINUOUS
 10
544.9838574137
 20
261.3064803535
 11
544.9838574137
 21
345.1136148535
  0
LINE
  5
316
100
AcDbEntity
  8
0
100
AcDbLine
 62
7
  6
CONTINUOUS
 10
545.0168664137
 20
261.2564158535
 11
545.0168664137
 21
345.1636793535
  0
LINE
  5
317
100
AcDbEntity
  8
0
100
AcDbLine
 62
7
  6
CONTINUOUS
 10
546.4588574137
 20
346.5636148535
 11
546.4588574137
 21
259.8564803535
  0
LINE
  5
318
100
AcDbEntity
  8
0
100
AcDbLine
 62
7
  6
CONTINUOUS
 10
546.5131629137
 20
259.7741158535
 11
546.5131629137
 21
346.6459793535
  0
LINE
  5
319
100
AcDbEntity
  8
0
100
AcDbLine
 62
7
  6
CONTINUOUS
 10
547.5088574137
 20
347.4174128535
 11
547.5088574137
 21
246.4098168535
  0
LINE
  5
31A
100
AcDbEntity
  8
0
100
AcDbLine
 62
7
  6
CONTINUOUS
 10
547.6338574137
 20
246.1136148535
 11
547.6338574137
 21
344.1636133535
  0
LINE
  5
31B
100
AcDbEntity
  8
0
100
AcDbLine
 62
7
  6
CONTINUOUS
 10
547.6338574137
 20
346.5636133535
 11
547.6338574137
 21
347.7136148535
  0
LINE
  5
31C
100
AcDbEntity
  8
0
100
AcDbLine
 62
7
  6
CONTINUOUS
 10
547.6607714137
 20
343.2136148535
 11
547.6607714137
 21
344.1636138535
  0
LINE
  5
31D
100
AcDbEntity
  8
0
100
AcDbLine
 62
7
  6
CONTINUOUS
 10
547.7628589137
 20
343.2136148535
 11
547.7628589137
 21
344.7136148535
  0
LINE
  5
31E
100
AcDbEntity
  8
0
100
AcDbLine
 62
7
  6
CONTINUOUS
 10
547.8380324137
 20
247.3812203535
 11
547.8380324137
 21
346.4460093535
  0
LINE
  5
31F
100
AcDbEntity
  8
0
100
AcDbLine
 62
7
  6
CONTINUOUS
 10
555.3338574137
 20
351.4136148535
 11
555.3338574137
 21
242.4136148535
  0
LWPOLYLINE
  5
320
100
AcDbEntity
  8
0
100
AcDbPolyline
 62
7
  6
CONTINUOUS
 90
3
 70
0
 43
0.3499999985
 10
564.8542313843
 20
299.4850410461
 10
564.8542313843
 20
297.9850335693
 10
562.4970804443
 20
298.627897583
  0
LWPOLYLINE
  5
321
100
AcDbEntity
  8
0
100
AcDbPolyline
 62
7
  6
CONTINUOUS
 90
7
 70
0
 43
0.3499999985
 10
565.4970953979
 20
294.985044281
 10
565.4970953979
 20
293.4850368042
 10
563.3542495728
 20
294.985044281
 10
562.9256906738
 20
294.985044281
 10
562.4970804443
 20
294.5564597168
 10
562.4970804443
 20
293.9136213684
 10
563.139944458
 20
293.4850368042
  0
LWPOLYLINE
  5
322
100
AcDbEntity
  8
0
100
AcDbPolyline
 62
7
  6
CONTINUOUS
 90
6
 70
0
 43
0.3499999985
 10
565.4970953979
 20
295.8421877441
 10
565.4970953979
 20
296.9136106567
 10
565.2828416138
 20
297.1278901062
 10
564.2113673706
 20
297.1278901062
 10
563.7828084717
 20
296.6993312073
 10
563.7828084717
 20
296.2707466431
  0
LINE
  5
323
100
AcDbEntity
  8
0
100
AcDbLine
 62
7
  6
CONTINUOUS
 10
547.8380324137
 20
247.3812203535
 11
547.8361669137
 21
245.9113053535
  0
LINE
  5
324
100
AcDbEntity
  8
0
100
AcDbLine
 62
7
  6
CONTINUOUS
 10
555.3338574137
 20
242.4136148535
 11
555.3323504137
 21
242.3038203535
  0
LWPOLYLINE
  5
325
100
AcDbEntity
  8
0
100
AcDbPolyline
 62
7
  6
CONTINUOUS
 90
5
 70
0
 43
0.3499999985
 10
563.7828084717
 20
296.6993312073
 10
563.5685546875
 20
297.056463623
 10
562.9256906738
 20
297.056463623
 10
562.4970804443
 20
296.6993312073
 10
562.4970804443
 20
295.8421877441
  0
ARC
  5
326
100
AcDbEntity
  8
0
100
AcDbCircle
 62
7
  6
CONTINUOUS
 10
316.9534114137
 20
250.4731003535
 40
40.0
100
AcDbArc
 50
186.551228
 51
197.544682
  0
ARC
  5
327
100
AcDbEntity
  8
0
100
AcDbCircle
 62
7
  6
CONTINUOUS
 10
298.4287909137
 20
247.3709238535
 40
21.214186
100
AcDbArc
 50
179.972191
 51
183.945285
  0
ARC
  5
328
100
AcDbEntity
  8
0
100
AcDbCircle
 62
7
  6
CONTINUOUS
 10
409.1838574137
 20
242.4136148535
 40
4.0
100
AcDbArc
 50
181.57289
 51
268.42711
  0
ARC
  5
329
100
AcDbEntity
  8
0
100
AcDbCircle
 62
7
  6
CONTINUOUS
 10
275.6126484137
 20
249.4255868535
 40
0.625
100
AcDbArc
 50
90.0
 51
270.0
  0
ARC
  5
32A
100
AcDbEntity
  8
0
100
AcDbCircle
 62
7
  6
CONTINUOUS
 10
413.2534189137
 20
246.4081758535
 40
0.244446
100
AcDbArc
 50
179.615611
 51
270.384361
  0
ARC
  5
32B
100
AcDbEntity
  8
0
100
AcDbCircle
 62
7
  6
CONTINUOUS
 10
316.9534114137
 20
343.3541293535
 40
40.0
100
AcDbArc
 50
162.455318
 51
173.448772
  0
ARC
  5
32C
100
AcDbEntity
  8
0
100
AcDbCircle
 62
7
  6
CONTINUOUS
 10
298.4262009137
 20
346.4563928535
 40
21.2115965
100
AcDbArc
 50
176.054468
 51
180.028047
  0
ARC
  5
32D
100
AcDbEntity
  8
0
100
AcDbCircle
 62
7
  6
CONTINUOUS
 10
409.1838574137
 20
351.4136148535
 40
4.0
100
AcDbArc
 50
91.57289
 51
178.427109
  0
ARC
  5
32E
100
AcDbEntity
  8
0
100
AcDbCircle
 62
7
  6
CONTINUOUS
 10
280.6146014137
 20
343.2136148535
 40
1.375
100
AcDbArc
 50
180.0
 51
360.0
  0
ARC
  5
32F
100
AcDbEntity
  8
0
100
AcDbCircle
 62
7
  6
CONTINUOUS
 10
280.6146014137
 20
344.7136148535
 40
1.375
100
AcDbArc
 50
0.0
 51
180.0
  0
ARC
  5
330
100
AcDbEntity
  8
0
100
AcDbCircle
 62
7
  6
CONTINUOUS
 10
280.6646014137
 20
345.3636148535
 40
1.2
100
AcDbArc
 50
174.662847
 51
356.539635
  0
ARC
  5
331
100
AcDbEntity
  8
0
100
AcDbCircle
 62
7
  6
CONTINUOUS
 10
280.6646014137
 20
345.3636148535
 40
1.05
100
AcDbArc
 50
160.219958
 51
10.982542
  0
ARC
  5
332
100
AcDbEntity
  8
0
100
AcDbCircle
 62
7
  6
CONTINUOUS
 10
413.2534119137
 20
347.4190588535
 40
0.2444395
100
AcDbArc
 50
89.614017
 51
180.385624
  0
ARC
  5
333
100
AcDbEntity
  8
0
100
AcDbCircle
 62
7
  6
CONTINUOUS
 10
497.8588574137
 20
245.9136148535
 40
1.0
100
AcDbArc
 50
270.0
 51
360.0
  0
ARC
  5
334
100
AcDbEntity
  8
0
100
AcDbCircle
 62
7
  6
CONTINUOUS
 10
462.6588574137
 20
245.9136148535
 40
1.0
100
AcDbArc
 50
180.0
 51
270.0
  0
ARC
  5
335
100
AcDbEntity
  8
0
100
AcDbCircle
 62
7
  6
CONTINUOUS
 10
461.4075349137
 20
246.4143513535
 40
0.2510265
100
AcDbArc
 50
270.466701
 51
0.53594
  0
ARC
  5
336
100
AcDbEntity
  8
0
100
AcDbCircle
 62
7
  6
CONTINUOUS
 10
499.1101799137
 20
246.4143513535
 40
0.2510265
100
AcDbArc
 50
179.46406
 51
269.533299
  0
CIRCLE
  5
337
100
AcDbEntity
  8
0
100
AcDbCircle
 62
7
  6
CONTINUOUS
 10
480.2588574137
 20
262.9136148535
 40
2.0
  0
CIRCLE
  5
338
100
AcDbEntity
  8
0
100
AcDbCircle
 62
7
  6
CONTINUOUS
 10
480.2588574137
 20
262.9136148535
 40
1.55
  0
ARC
  5
339
100
AcDbEntity
  8
0
100
AcDbCircle
 62
7
  6
CONTINUOUS
 10
498.7588574137
 20
257.1657388535
 40
1.0
100
AcDbArc
 50
88.37075
 51
271.629381
  0
ARC
  5
33A
100
AcDbEntity
  8
0
100
AcDbCircle
 62
7
  6
CONTINUOUS
 10
461.7588574137
 20
257.1657388535
 40
1.0
100
AcDbArc
 50
268.37075
 51
91.629381
  0
ARC
  5
33B
100
AcDbEntity
  8
0
100
AcDbCircle
 62
7
  6
CONTINUOUS
 10
523.1853084137
 20
251.1636148535
 40
7.5
100
AcDbArc
 50
198.365083
 51
199.471221
  0
ARC
  5
33C
100
AcDbEntity
  8
0
100
AcDbCircle
 62
7
  6
CONTINUOUS
 10
523.1853084137
 20
251.1636148535
 40
7.5
100
AcDbArc
 50
340.528779
 51
341.634917
  0
ARC
  5
33D
100
AcDbEntity
  8
0
100
AcDbCircle
 62
7
  6
CONTINUOUS
 10
523.1853084137
 20
251.1636148535
 40
7.5
100
AcDbArc
 50
351.46555
 51
188.53445
  0
ARC
  5
33E
100
AcDbEntity
  8
0
100
AcDbCircle
 62
7
  6
CONTINUOUS
 10
551.3338574137
 20
242.4136148535
 40
4.0
100
AcDbArc
 50
271.57289
 51
358.427109
  0
ARC
  5
33F
100
AcDbEntity
  8
0
100
AcDbCircle
 62
7
  6
CONTINUOUS
 10
523.1852204137
 20
249.4687858535
 40
2.529214
100
AcDbArc
 50
198.561795
 51
341.432856
  0
ARC
  5
340
100
AcDbEntity
  8
0
100
AcDbCircle
 62
7
  6
CONTINUOUS
 10
523.1852204137
 20
249.4687858535
 40
2.4637575
100
AcDbArc
 50
13.658962
 51
16.35211
  0
ARC
  5
341
100
AcDbEntity
  8
0
100
AcDbCircle
 62
7
  6
CONTINUOUS
 10
523.1852204137
 20
249.4687858535
 40
2.4637575
100
AcDbArc
 50
340.924968
 51
344.263545
  0
ARC
  5
342
100
AcDbEntity
  8
0
100
AcDbCircle
 62
7
  6
CONTINUOUS
 10
523.1853964137
 20
249.4687858535
 40
2.4637575
100
AcDbArc
 50
16.35211
 51
166.336942
  0
ARC
  5
343
100
AcDbEntity
  8
0
100
AcDbCircle
 62
7
  6
CONTINUOUS
 10
523.1853964137
 20
249.4687858535
 40
2.4637575
100
AcDbArc
 50
195.736455
 51
199.075032
  0
ARC
  5
344
100
AcDbEntity
  8
0
100
AcDbCircle
 62
7
  6
CONTINUOUS
 10
523.1852204137
 20
249.4687858535
 40
2.45
100
AcDbArc
 50
13.737147
 51
163.643771
  0
ARC
  5
345
100
AcDbEntity
  8
0
100
AcDbCircle
 62
7
  6
CONTINUOUS
 10
523.1852204137
 20
249.4687858535
 40
2.45
100
AcDbArc
 50
195.827145
 51
344.168736
  0
ARC
  5
346
100
AcDbEntity
  8
0
100
AcDbCircle
 62
7
  6
CONTINUOUS
 10
523.1853964137
 20
249.4687858535
 40
2.45
100
AcDbArc
 50
163.64789
 51
166.262853
  0
ARC
  5
347
100
AcDbEntity
  8
0
100
AcDbCircle
 62
7
  6
CONTINUOUS
 10
523.1853964137
 20
249.4687858535
 40
2.099747
100
AcDbArc
 50
122.320362
 51
163.91403
  0
ARC
  5
348
100
AcDbEntity
  8
0
100
AcDbCircle
 62
7
  6
CONTINUOUS
 10
523.1852204137
 20
249.4687858535
 40
2.099747
100
AcDbArc
 50
16.08597
 51
57.679638
  0
ARC
  5
349
100
AcDbEntity
  8
0
100
AcDbCircle
 62
7
  6
CONTINUOUS
 10
523.1852204137
 20
249.4687858535
 40
2.099747
100
AcDbArc
 50
302.320362
 51
341.444056
  0
ARC
  5
34A
100
AcDbEntity
  8
0
100
AcDbCircle
 62
7
  6
CONTINUOUS
 10
523.1853964137
 20
249.4687858535
 40
2.099747
100
AcDbArc
 50
198.555944
 51
237.679638
  0
ARC
  5
34B
100
AcDbEntity
  8
0
100
AcDbCircle
 62
7
  6
CONTINUOUS
 10
523.1853964137
 20
249.4687858535
 40
2.05
100
AcDbArc
 50
199.023374
 51
227.029716
  0
ARC
  5
34C
100
AcDbEntity
  8
0
100
AcDbCircle
 62
7
  6
CONTINUOUS
 10
523.1853964137
 20
249.4687858535
 40
2.05
100
AcDbArc
 50
132.970284
 51
163.64789
  0
ARC
  5
34D
100
AcDbEntity
  8
0
100
AcDbCircle
 62
7
  6
CONTINUOUS
 10
523.1852204137
 20
249.4687858535
 40
2.05
100
AcDbArc
 50
16.35211
 51
47.029716
  0
ARC
  5
34E
100
AcDbEntity
  8
0
100
AcDbCircle
 62
7
  6
CONTINUOUS
 10
523.1852204137
 20
249.4687858535
 40
2.05
100
AcDbArc
 50
312.970284
 51
340.976626
  0
ARC
  5
34F
100
AcDbEntity
  8
0
100
AcDbCircle
 62
7
  6
CONTINUOUS
 10
523.1855564137
 20
249.4327978535
 40
2.045142
100
AcDbArc
 50
226.574813
 51
236.93894
  0
ARC
  5
350
100
AcDbEntity
  8
0
100
AcDbCircle
 62
7
  6
CONTINUOUS
 10
523.1855564137
 20
249.5047738535
 40
2.045142
100
AcDbArc
 50
123.06106
 51
133.425187
  0
ARC
  5
351
100
AcDbEntity
  8
0
100
AcDbCircle
 62
7
  6
CONTINUOUS
 10
523.1850609137
 20
249.5047738535
 40
2.045142
100
AcDbArc
 50
46.574813
 51
56.93894
  0
ARC
  5
352
100
AcDbEntity
  8
0
100
AcDbCircle
 62
7
  6
CONTINUOUS
 10
523.1850609137
 20
249.4327978535
 40
2.045142
100
AcDbArc
 50
303.06106
 51
313.425187
  0
ARC
  5
353
100
AcDbEntity
  8
0
100
AcDbCircle
 62
7
  6
CONTINUOUS
 10
537.4353084137
 20
249.4136148535
 40
0.75
100
AcDbArc
 50
270.0
 51
90.0
  0
ARC
  5
354
100
AcDbEntity
  8
0
100
AcDbCircle
 62
7
  6
CONTINUOUS
 10
508.9353084137
 20
249.4136148535
 40
0.75
100
AcDbArc
 50
90.0
 51
270.0
  0
ARC
  5
355
100
AcDbEntity
  8
0
100
AcDbCircle
 62
7
  6
CONTINUOUS
 10
511.6853084137
 20
249.4136148535
 40
0.75
100
AcDbArc
 50
58.135168
 51
90.0
  0
ARC
  5
356
100
AcDbEntity
  8
0
100
AcDbCircle
 62
7
  6
CONTINUOUS
 10
511.6853084137
 20
249.4136148535
 40
0.75
100
AcDbArc
 50
270.0
 51
305.177524
  0
ARC
  5
357
100
AcDbEntity
  8
0
100
AcDbCircle
 62
7
  6
CONTINUOUS
 10
534.6853084137
 20
249.4136148535
 40
0.75
100
AcDbArc
 50
90.0
 51
121.864835
  0
ARC
  5
358
100
AcDbEntity
  8
0
100
AcDbCircle
 62
7
  6
CONTINUOUS
 10
534.6853084137
 20
249.4136148535
 40
0.75
100
AcDbArc
 50
234.822474
 51
270.0
  0
ARC
  5
359
100
AcDbEntity
  8
0
100
AcDbCircle
 62
7
  6
CONTINUOUS
 10
510.2524039137
 20
249.4255868535
 40
0.625
100
AcDbArc
 50
90.0
 51
270.0
  0
ARC
  5
35A
100
AcDbEntity
  8
0
100
AcDbCircle
 62
7
  6
CONTINUOUS
 10
536.1524039137
 20
249.4255868535
 40
0.625
100
AcDbArc
 50
270.0
 51
90.0
  0
ARC
  5
35B
100
AcDbEntity
  8
0
100
AcDbCircle
 62
7
  6
CONTINUOUS
 10
547.2643014137
 20
246.4081693535
 40
0.2444395
100
AcDbArc
 50
269.614376
 51
0.385983
  0
ARC
  5
35C
100
AcDbEntity
  8
0
100
AcDbCircle
 62
7
  6
CONTINUOUS
 10
551.3338574137
 20
351.4136148535
 40
4.0
100
AcDbArc
 50
1.57289
 51
88.42711
  0
CIRCLE
  5
35D
100
AcDbEntity
  8
0
100
AcDbCircle
 62
7
  6
CONTINUOUS
 10
480.2588574137
 20
330.9136148535
 40
2.0
  0
CIRCLE
  5
35E
100
AcDbEntity
  8
0
100
AcDbCircle
 62
7
  6
CONTINUOUS
 10
480.2588574137
 20
330.9136148535
 40
1.55
  0
ARC
  5
35F
100
AcDbEntity
  8
0
100
AcDbCircle
 62
7
  6
CONTINUOUS
 10
547.2643029137
 20
347.4190588535
 40
0.2444395
100
AcDbArc
 50
359.614376
 51
90.385983
  0
ELLIPSE
  5
360
100
AcDbEntity
  8
0
100
AcDbEllipse
 62
7
  6
CONTINUOUS
 10
547.7118144137
 20
343.2136138535
 30
0.0
 11
-0.0
 21
-1.375
 31
0.0
 40
0.037123
 41
4.7123889805
 42
7.8539816338
  0
ELLIPSE
  5
361
100
AcDbEntity
  8
0
100
AcDbEllipse
 62
7
  6
CONTINUOUS
 10
412.8059004137
 20
343.2136138535
 30
0.0
 11
-0.0
 21
-1.375
 31
0.0
 40
0.037123
 41
4.7123889805
 42
7.8539816338
  0
ELLIPSE
  5
362
100
AcDbEntity
  8
0
100
AcDbEllipse
 62
7
  6
CONTINUOUS
 10
316.6004954137
 20
250.4195083535
 30
0.0
 11
39.6469650269
 21
-0.0978671834
 31
0.0
 40
0.6803
 41
3.2581066526
 42
3.4508499909
  0
ELLIPSE
  5
363
100
AcDbEntity
  8
0
100
AcDbEllipse
 62
7
  6
CONTINUOUS
 10
317.0577784137
 20
343.3376718535
 30
0.0
 11
40.104385376
 21
-0.0297271553
 31
0.0
 40
0.676683
 41
2.8362817772
 42
3.0278977371
  0
ENDSEC
  0
SECTION
  2
OBJECTS
  0
DICTIONARY
  5
C
100
AcDbDictionary
280
0
281
1
  3
ACAD_GROUP
350
D
  3
ACAD_MLINESTYLE
350
17
  3
ACAD_LAYOUT
350
1A
  3
ACAD_PLOTSETTINGS
350
19
  3
ACAD_PLOTSTYLENAME
350
E
  0
DICTIONARY
  5
D
102
{ACAD_REACTORS
330
C
102
}
100
AcDbDictionary
280
0
281
1
  0
ACDBDICTIONARYWDFLT
  5
E
102
{ACAD_REACTORS
330
C
102
}
100
AcDbDictionary
281
1
  3
Normal
350
F
100
AcDbDictionaryWithDefault
340
F
  0
DICTIONARY
  5
17
102
{ACAD_REACTORS
330
C
102
}
100
AcDbDictionary
280
0
281
1
  3
Standard
350
18
  0
DICTIONARY
  5
19
102
{ACAD_REACTORS
330
C
102
}
100
AcDbDictionary
281
1
  0
DICTIONARY
  5
1A
102
{ACAD_REACTORS
330
C
102
}
100
AcDbDictionary
281
1
  3
Model
350
364
  3
Layout1
350
365
  0
ACDBPLACEHOLDER
  5
F
102
{ACAD_REACTORS
330
E
102
}
  0
MLINESTYLE
  5
18
102
{ACAD_REACTORS
330
17
102
}
100
AcDbMlineStyle
  2
STANDARD
 70
0
  3

 62
256
 51
90.0
 52
90.0
 71
2
 49
0.5
 62
256
  6
BYLAYER
 49
-0.5
 62
256
  6
BYLAYER
  0
LAYOUT
  5
364
102
{ACAD_REACTORS
330
1A
102
}
100
AcDbPlotSettings
  1

  2
none_device
  4
ISO_A1_(594.00_x_841.00_MM)
  6

 40
0.0
 41
0.0
 42
0.0
 43
0.0
 44
841.0
 45
594.0
 46
0.0
 47
0.0
 48
0.0
 49
0.0
140
0.0
141
0.0
142
1.0
143
1.0
 70
1024
 72
1
 73
0
 74
0
  7

 75
0
147
1.0
148
0.0
149
0.0
100
AcDbLayout
  1
Model
 70
0
 71
0
 10
0.0
 20
0.0
 11
841.0
 21
594.0
 12
0.0
 22
0.0
 32
0.0
 14
0.0
 24
0.0
 34
0.0
 15
0.0
 25
0.0
 35
0.0
146
0.0
 13
0.0
 23
0.0
 33
0.0
 16
1.0
 26
0.0
 36
0.0
 17
0.0
 27
1.0
 37
0.0
 76
0
330
200
345
0
346
0
  0
LAYOUT
  5
365
102
{ACAD_REACTORS
330
1A
102
}
100
AcDbPlotSettings
  1

  2
none_device
  4
ISO_A1_(594.00_x_841.00_MM)
  6

 40
0.0
 41
0.0
 42
0.0
 43
0.0
 44
841.0
 45
594.0
 46
0.0
 47
0.0
 48
0.0
 49
0.0
140
0.0
141
0.0
142
1.0
143
1.0
 70
0
 72
1
 73
0
 74
0
  7

 75
0
147
1.0
148
0.0
149
0.0
100
AcDbLayout
  1
Layout1
 70
0
 71
1
 10
0.0
 20
0.0
 11
841.0
 21
594.0
 12
0.0
 22
0.0
 32
0.0
 14
0.0
 24
0.0
 34
0.0
 15
0.0
 25
0.0
 35
0.0
146
0.0
 13
0.0
 23
0.0
 33
0.0
 16
1.0
 26
0.0
 36
0.0
 17
0.0
 27
1.0
 37
0.0
 76
0
330
201
345
0
346
0
  0
ENDSEC
  0
EOF
