  0
SECTION
  2
HEADER
  9
$ACADVER
  1
AC1024
  9
$DWGCODEPAGE
  3
ANSI_1252
  9
$EXTMAX
 10
210.0
 20
297.0
 30
0.0
  9
$EXTMIN
 10
0.0
 20
0.0
 30
0.0
  9
$LIMMIN
 10
0.0
 20
0.0
  9
$LIMMAX
 10
210.0
 20
297.0
  9
$VIEWCTR
 10
105.0
 20
148.5
  9
$VIEWSIZE
 40
297.0
  9
$CLAYER
  8
0
  9
$LTSCALE
 40
19.36
  9
$CELTYPE
  6
BYLAYER
  9
$DIMSCALE
 40
1.0
  9
$DIMASZ
 40
3.0
  9
$DIMEXO
 40
0.5
  9
$DIMDLI
 40
13.376
  9
$DIMEXE
 40
1.5
  9
$DIMCEN
 40
3.168
  9
$DIMLFAC
 40
1.0
  9
$DIMBLK
  1
_FILLED
  9
$DIMALT
 70
0
  9
$DIMALTF
 40
0.0393700787
  9
$DIMTXT
 40
3.0
  9
$DIMTOL
 70
1
  9
$DIMLIM
 70
0
  9
$DIMTFAC
 40
1.0
  9
$DIMTP
 40
0.01
  9
$DIMTM
 40
0.01
  9
$DIMGAP
 40
0.625
  9
$DIMDSEP
 70
44
  9
$AUNITS
 70
0
  9
$PDMODE
 70
3
  9
$PDSIZE
 40
3.0
  9
$HANDSEED
  5
557
  9
$TILEMODE
 70
1
  9
$MEASUREMENT
 70
1
  9
$INSUNITS
 70
4
  0
ENDSEC
  0
SECTION
  2
CLASSES
  0
CLASS
  1
ACDBDICTIONARYWDFLT
  2
AcDbDictionaryWithDefault
  3
AutoCAD 2000
 90
0
 91
1
280
0
281
0
  0
CLASS
  1
ACDBPLACEHOLDER
  2
AcDbPlaceHolder
  3
AutoCAD 2000
 90
0
 91
1
280
0
281
0
  0
CLASS
  1
LAYOUT
  2
AcDbLayout
  3
AutoCAD 2000
 90
0
 91
0
280
0
281
0
  0
ENDSEC
  0
SECTION
  2
TABLES
  0
TABLE
  2
VPORT
  5
8
100
AcDbSymbolTable
 70
2
  0
VPORT
  5
1F4
100
AcDbSymbolTableRecord
100
AcDbViewportTableRecord
  2
*ACTIVE
 70
0
 10
0.0
 20
0.0
 11
1.0
 21
1.0
 12
105.0
 22
148.5
 13
0.0
 23
0.0
 14
1.0
 24
1.0
 15
0.0
 25
0.0
 16
0.0
 26
0.0
 36
1.0
 17
0.0
 27
0.0
 37
0.0
 40
297.0
 41
0.7070707071
 42
50.0
 43
0.0
 44
0.0
 50
0.0
 51
0.0
 71
0
 72
100
 73
1
 74
1
 75
0
 76
0
 77
0
 78
0
  0
ENDTAB
  0
TABLE
  2
LTYPE
  5
5
100
AcDbSymbolTable
 70
6
  0
LTYPE
  5
14
100
AcDbSymbolTableRecord
100
AcDbLinetypeTableRecord
  2
BYBLOCK
 70
0
  3

 72
65
 73
0
 40
0.0
  0
LTYPE
  5
15
100
AcDbSymbolTableRecord
100
AcDbLinetypeTableRecord
  2
BYLAYER
 70
0
  3

 72
65
 73
0
 40
0.0
  0
LTYPE
  5
16
100
AcDbSymbolTableRecord
100
AcDbLinetypeTableRecord
  2
CONTINUOUS
 70
64
  3
Solid line
 72
65
 73
0
 40
0.0
  0
LTYPE
  5
1F5
100
AcDbSymbolTableRecord
100
AcDbLinetypeTableRecord
  2
CENTER
 70
64
  3
____ _ ____ _ ____ _ ____ _ ____ _ ____ _ ____
 72
65
 73
4
 40
0.6
 49
0.375
 74
0
 49
-0.075
 74
0
 49
0.075
 74
0
 49
-0.075
 74
0
  0
LTYPE
  5
1F6
100
AcDbSymbolTableRecord
100
AcDbLinetypeTableRecord
  2
HIDDEN
 70
64
  3
- - - - - - - - - - - - - - - - - - - -
 72
65
 73
2
 40
0.2
 49
0.1
 74
0
 49
-0.1
 74
0
  0
LTYPE
  5
1F7
100
AcDbSymbolTableRecord
100
AcDbLinetypeTableRecord
  2
PHANTOM
 70
64
  3
_____ _ _ _____ _ _ _____ _ _ _____
 72
65
 73
6
 40
0.8
 49
0.45
 74
0
 49
-0.05
 74
0
 49
0.1
 74
0
 49
-0.05
 74
0
 49
0.1
 74
0
 49
-0.05
 74
0
  0
LTYPE
  5
1F8
100
AcDbSymbolTableRecord
100
AcDbLinetypeTableRecord
  2
DOT
 70
64
  3
. . . . . . . . . . . . . . . . . . . .
 72
65
 73
2
 40
0.2
 49
0.1
 74
0
 49
-0.1
 74
0
  0
LTYPE
  5
1F9
100
AcDbSymbolTableRecord
100
AcDbLinetypeTableRecord
  2
DASHED
 70
64
  3
- - - - - - - - - - - - - - - - - - - -
 72
65
 73
2
 40
0.2
 49
0.1
 74
0
 49
-0.1
 74
0
  0
ENDTAB
  0
TABLE
  2
LAYER
  5
2
100
AcDbSymbolTable
 70
36
  0
LAYER
  5
10
100
AcDbSymbolTableRecord
100
AcDbLayerTableRecord
  2
0
 70
0
 62
7
  6
CONTINUOUS
370
-3
390
F
  0
LAYER
  5
1FA
100
AcDbSymbolTableRecord
100
AcDbLayerTableRecord
  2
DEFAULT_1
 70
0
 62
7
  6
CENTER
370
-3
390
F
  0
LAYER
  5
1FB
100
AcDbSymbolTableRecord
100
AcDbLayerTableRecord
  2
DEFAULT_2
 70
0
 62
7
  6
HIDDEN
370
-3
390
F
  0
LAYER
  5
1FC
100
AcDbSymbolTableRecord
100
AcDbLayerTableRecord
  2
DEFAULT_3
 70
0
 62
7
  6
PHANTOM
370
-3
390
F
  0
LAYER
  5
1FD
100
AcDbSymbolTableRecord
100
AcDbLayerTableRecord
  2
ASSI
 70
0
 62
7
  6
CONTINUOUS
370
-3
390
F
  0
LAYER
  5
1FE
100
AcDbSymbolTableRecord
100
AcDbLayerTableRecord
  2
COORDINATE
 70
0
 62
7
  6
CONTINUOUS
370
-3
390
F
  0
LAYER
  5
1FF
100
AcDbSymbolTableRecord
100
AcDbLayerTableRecord
  2
COPY_PUBLISH
 70
0
 62
7
  6
CONTINUOUS
370
-3
390
F
  0
LAYER
  5
200
100
AcDbSymbolTableRecord
100
AcDbLayerTableRecord
  2
COSMETICI
 70
0
 62
7
  6
CONTINUOUS
370
-3
390
F
  0
LAYER
  5
201
100
AcDbSymbolTableRecord
100
AcDbLayerTableRecord
  2
CURVE
 70
0
 62
7
  6
CONTINUOUS
370
-3
390
F
  0
LAYER
  5
202
100
AcDbSymbolTableRecord
100
AcDbLayerTableRecord
  2
DRAFT
 70
0
 62
7
  6
CONTINUOUS
370
-3
390
F
  0
LAYER
  5
203
100
AcDbSymbolTableRecord
100
AcDbLayerTableRecord
  2
IMPORT_IGES
 70
0
 62
7
  6
CONTINUOUS
370
-3
390
F
  0
LAYER
  5
204
100
AcDbSymbolTableRecord
100
AcDbLayerTableRecord
  2
NOTE
 70
0
 62
7
  6
CONTINUOUS
370
-3
390
F
  0
LAYER
  5
205
100
AcDbSymbolTableRecord
100
AcDbLayerTableRecord
  2
PIANI
 70
0
 62
7
  6
CONTINUOUS
370
-3
390
F
  0
LAYER
  5
206
100
AcDbSymbolTableRecord
100
AcDbLayerTableRecord
  2
PUNTI
 70
0
 62
7
  6
CONTINUOUS
370
-3
390
F
  0
LAYER
  5
207
100
AcDbSymbolTableRecord
100
AcDbLayerTableRecord
  2
RACCORDO
 70
0
 62
7
  6
CONTINUOUS
370
-3
390
F
  0
LAYER
  5
208
100
AcDbSymbolTableRecord
100
AcDbLayerTableRecord
  2
SIMBOLI
 70
0
 62
7
  6
CONTINUOUS
370
-3
390
F
  0
LAYER
  5
209
100
AcDbSymbolTableRecord
100
AcDbLayerTableRecord
  2
SMUSSO
 70
0
 62
7
  6
CONTINUOUS
370
-3
390
F
  0
LAYER
  5
20A
100
AcDbSymbolTableRecord
100
AcDbLayerTableRecord
  2
SNAPLINE
 70
0
 62
7
  6
CONTINUOUS
370
-3
390
F
  0
LAYER
  5
20B
100
AcDbSymbolTableRecord
100
AcDbLayerTableRecord
  2
SUPERFICI
 70
0
 62
7
  6
CONTINUOUS
370
-3
390
F
  0
LAYER
  5
20C
100
AcDbSymbolTableRecord
100
AcDbLayerTableRecord
  2
TRASH
 70
0
 62
7
  6
CONTINUOUS
370
-3
390
F
  0
ENDTAB
  0
TABLE
  2
STYLE
  5
3
100
AcDbSymbolTable
 70
1
  0
STYLE
  5
11
100
AcDbSymbolTableRecord
100
AcDbTextStyleTableRecord
  2
STANDARD
 70
0
 40
0.0
 41
0.8
 50
0.0
 71
0
 42
0.2
  3
txt
  4

  0
STYLE
  5
20D
100
AcDbSymbolTableRecord
100
AcDbTextStyleTableRecord
  2
TEXTSTYLE_1
 70
0
 40
0.0
 41
0.8
 50
0.0
 71
0
 42
0.2
  3
gdt
  4

  0
ENDTAB
  0
TABLE
  2
VIEW
  5
6
100
AcDbSymbolTable
 70
0
  0
ENDTAB
  0
TABLE
  2
UCS
  5
7
100
AcDbSymbolTable
 70
0
  0
ENDTAB
  0
TABLE
  2
APPID
  5
9
100
AcDbSymbolTable
 70
1
  0
APPID
  5
20E
100
AcDbSymbolTableRecord
100
AcDbRegAppTableRecord
  2
ACAD
 70
0
  0
ENDTAB
  0
TABLE
  2
BLOCK_RECORD
  5
1
100
AcDbSymbolTable
 70
0
  0
BLOCK_RECORD
  5
20F
100
AcDbSymbolTableRecord
100
AcDbBlockTableRecord
  2
*Model_Space
  0
BLOCK_RECORD
  5
210
100
AcDbSymbolTableRecord
100
AcDbBlockTableRecord
  2
*Paper_Space
  0
BLOCK_RECORD
  5
211
100
AcDbSymbolTableRecord
100
AcDbBlockTableRecord
  2
_FILLED
  0
BLOCK_RECORD
  5
212
100
AcDbSymbolTableRecord
100
AcDbBlockTableRecord
  2
*D0
  0
BLOCK_RECORD
  5
213
100
AcDbSymbolTableRecord
100
AcDbBlockTableRecord
  2
*D1
  0
BLOCK_RECORD
  5
214
100
AcDbSymbolTableRecord
100
AcDbBlockTableRecord
  2
*D2
  0
BLOCK_RECORD
  5
215
100
AcDbSymbolTableRecord
100
AcDbBlockTableRecord
  2
*D3
  0
BLOCK_RECORD
  5
216
100
AcDbSymbolTableRecord
100
AcDbBlockTableRecord
  2
*D4
  0
ENDTAB
  0
TABLE
  2
DIMSTYLE
  5
A
100
AcDbSymbolTable
 70
1
100
AcDbDimStyleTable
 71
0
  0
DIMSTYLE
105
217
100
AcDbSymbolTableRecord
100
AcDbDimStyleTableRecord
  2
STANDARD
 70
0
  3

  4

 40
1.0
 41
3.0
 42
0.5
 43
0.38
 44
1.5
 45
0.0
 46
0.0
 47
0.01
 48
0.01
140
3.0
141
0.09
142
0.0
143
25.4
144
1.0
145
0.0
146
1.0
147
0.625
 71
1.0
 72
0.0
 73
0
 74
0
 75
0
 76
0
 77
1
 78
8
 79
2
170
0
171
1
172
0
173
0
174
0
175
0
176
0
177
0
178
0
270
2
179
2
271
2
272
2
273
2
274
2
275
0
280
0
281
0
282
0
283
1
284
8
285
0
286
0
287
3
288
0
340
11
278
44
341
211
342
211
343
211
344
211
  0
DIMSTYLE
105
218
100
AcDbSymbolTableRecord
100
AcDbDimStyleTableRecord
  2
DIMSTYLE_1
 70
0
  3

  4

 40
1.0
 41
3.0
 42
0.5
 43
0.38
 44
1.5
 45
0.0
 46
0.0
 47
0.0
 48
0.0
140
3.0
141
0.09
142
0.0
143
25.4
144
1.0
145
0.0
146
1.0
147
0.75
 71
0.0
 72
0.0
 73
0
 74
0
 75
0
 76
0
 77
1
 78
8
 79
2
170
0
171
1
172
0
173
0
174
0
175
0
176
0
177
0
178
0
270
2
179
2
271
2
272
2
273
2
274
2
275
0
280
0
281
0
282
0
283
1
284
8
285
0
286
0
287
3
288
0
340
11
278
44
341
211
342
211
343
211
344
211
  0
ENDTAB
  0
ENDSEC
  0
SECTION
  2
BLOCKS
  0
BLOCK
  5
20
100
AcDbEntity
  8
0
100
AcDbBlockBegin
  2
*Model_Space
 70
0
 10
0.0
 20
0.0
 30
0.0
  3
*Model_Space
  1

  0
ENDBLK
  5
21
100
AcDbEntity
  8
0
100
AcDbBlockEnd
  0
BLOCK
  5
1C
100
AcDbEntity
  8
0
100
AcDbBlockBegin
  2
*Paper_Space
 70
0
 10
0.0
 20
0.0
 30
0.0
  3
*Paper_Space
  1

  0
ENDBLK
  5
1D
100
AcDbEntity
  8
0
100
AcDbBlockEnd
  0
BLOCK
  5
219
100
AcDbEntity
  8
0
100
AcDbBlockBegin
  2
_FILLED
 70
64
 10
0.0
 20
0.0
  3
_FILLED
  1

  0
SOLID
  5
21A
100
AcDbEntity
  8
0
  6
BYBLOCK
 62
0
100
AcDbTrace
 10
0.0
 20
0.0
 11
-1.0
 21
0.3166666667
 12
-1.0
 22
-0.3166666667
 13
-1.0
 23
-0.3166666667
  0
ENDBLK
  5
21B
100
AcDbEntity
  8
0
  6
BYBLOCK
 62
0
100
AcDbBlockEnd
  0
BLOCK
  5
21C
100
AcDbEntity
  8
0
100
AcDbBlockBegin
 62
7
  6
CONTINUOUS
  2
*D0
 70
65
 10
0.0
 20
0.0
  3
*D0
  1

  0
LINE
  5
21D
100
AcDbEntity
  8
0
100
AcDbLine
 62
7
  6
CONTINUOUS
 10
-59.9
 20
83.1
 11
-59.9
 21
93.1
  0
LINE
  5
21E
100
AcDbEntity
  8
0
100
AcDbLine
 62
7
  6
CONTINUOUS
 10
59.9
 20
83.1
 11
59.9
 21
93.1
  0
LINE
  5
21F
100
AcDbEntity
  8
0
100
AcDbLine
 62
7
  6
CONTINUOUS
 10
-59.9
 20
91.6
 11
0.0
 21
91.6
  0
LINE
  5
220
100
AcDbEntity
  8
0
100
AcDbLine
 62
7
  6
CONTINUOUS
 10
59.9
 20
91.6
 11
0.0
 21
91.6
  0
INSERT
  5
221
100
AcDbEntity
  8
0
100
AcDbBlockReference
 62
7
  6
CONTINUOUS
  2
_FILLED
 10
-59.9
 20
91.6
 41
3.0
 42
3.0
 43
3.0
 50
180.0
  0
INSERT
  5
222
100
AcDbEntity
  8
0
100
AcDbBlockReference
 62
7
  6
CONTINUOUS
  2
_FILLED
 10
59.9
 20
91.6
 41
3.0
 42
3.0
 43
3.0
  0
ENDBLK
  5
223
100
AcDbEntity
  8
0
  6
BYBLOCK
 62
0
100
AcDbBlockEnd
  0
BLOCK
  5
224
100
AcDbEntity
  8
0
100
AcDbBlockBegin
 62
7
  6
CONTINUOUS
  2
*D1
 70
65
 10
0.0
 20
0.0
  3
*D1
  1

  0
LINE
  5
225
100
AcDbEntity
  8
0
100
AcDbLine
 62
7
  6
CONTINUOUS
 10
-59.4
 20
83.6
 11
-79.4
 21
83.6
  0
LINE
  5
226
100
AcDbEntity
  8
0
100
AcDbLine
 62
7
  6
CONTINUOUS
 10
-59.4
 20
-83.6
 11
-79.4
 21
-83.6
  0
LINE
  5
227
100
AcDbEntity
  8
0
100
AcDbLine
 62
7
  6
CONTINUOUS
 10
-77.9
 20
83.6
 11
-77.9
 21
0.0
  0
LINE
  5
228
100
AcDbEntity
  8
0
100
AcDbLine
 62
7
  6
CONTINUOUS
 10
-77.9
 20
-83.6
 11
-77.9
 21
0.0
  0
INSERT
  5
229
100
AcDbEntity
  8
0
100
AcDbBlockReference
 62
7
  6
CONTINUOUS
  2
_FILLED
 10
-77.9
 20
83.6
 41
3.0
 42
3.0
 43
3.0
 50
90.0
  0
INSERT
  5
22A
100
AcDbEntity
  8
0
100
AcDbBlockReference
 62
7
  6
CONTINUOUS
  2
_FILLED
 10
-77.9
 20
-83.6
 41
3.0
 42
3.0
 43
3.0
 50
270.0
  0
ENDBLK
  5
22B
100
AcDbEntity
  8
0
  6
BYBLOCK
 62
0
100
AcDbBlockEnd
  0
BLOCK
  5
22C
100
AcDbEntity
  8
0
100
AcDbBlockBegin
 62
7
  6
CONTINUOUS
  2
*D2
 70
65
 10
0.0
 20
0.0
  3
*D2
  1

  0
LINE
  5
22D
100
AcDbEntity
  8
0
100
AcDbLine
 62
7
  6
CONTINUOUS
 10
-0.5
 20
66.25
 11
-69.4
 21
66.25
  0
LINE
  5
22E
100
AcDbEntity
  8
0
100
AcDbLine
 62
7
  6
CONTINUOUS
 10
-0.5
 20
-66.25
 11
-69.4
 21
-66.25
  0
LINE
  5
22F
100
AcDbEntity
  8
0
100
AcDbLine
 62
7
  6
CONTINUOUS
 10
-67.9
 20
66.25
 11
-67.9
 21
0.0
  0
LINE
  5
230
100
AcDbEntity
  8
0
100
AcDbLine
 62
7
  6
CONTINUOUS
 10
-67.9
 20
-66.25
 11
-67.9
 21
0.0
  0
INSERT
  5
231
100
AcDbEntity
  8
0
100
AcDbBlockReference
 62
7
  6
CONTINUOUS
  2
_FILLED
 10
-67.9
 20
66.25
 41
3.0
 42
3.0
 43
3.0
 50
90.0
  0
INSERT
  5
232
100
AcDbEntity
  8
0
100
AcDbBlockReference
 62
7
  6
CONTINUOUS
  2
_FILLED
 10
-67.9
 20
-66.25
 41
3.0
 42
3.0
 43
3.0
 50
270.0
  0
ENDBLK
  5
233
100
AcDbEntity
  8
0
  6
BYBLOCK
 62
0
100
AcDbBlockEnd
  0
BLOCK
  5
234
100
AcDbEntity
  8
0
100
AcDbBlockBegin
 62
7
  6
CONTINUOUS
  2
*D3
 70
65
 10
0.0
 20
0.0
  3
*D3
  1

  0
LINE
  5
235
100
AcDbEntity
  8
0
100
AcDbLine
 62
7
  6
CONTINUOUS
 10
105.9608520508
 20
-84.1
 11
105.9608520508
 21
-93.1
  0
LINE
  5
236
100
AcDbEntity
  8
0
100
AcDbLine
 62
7
  6
CONTINUOUS
 10
73.6608520508
 20
7.8223462901
 11
73.6608520508
 21
-93.1
  0
LINE
  5
237
100
AcDbEntity
  8
0
100
AcDbLine
 62
7
  6
CONTINUOUS
 10
105.9608520508
 20
-91.6
 11
89.8108520508
 21
-91.6
  0
LINE
  5
238
100
AcDbEntity
  8
0
100
AcDbLine
 62
7
  6
CONTINUOUS
 10
73.6608520508
 20
-91.6
 11
89.8108520508
 21
-91.6
  0
INSERT
  5
239
100
AcDbEntity
  8
0
100
AcDbBlockReference
 62
7
  6
CONTINUOUS
  2
_FILLED
 10
105.9608520508
 20
-91.6
 41
3.0
 42
3.0
 43
3.0
  0
INSERT
  5
23A
100
AcDbEntity
  8
0
100
AcDbBlockReference
 62
7
  6
CONTINUOUS
  2
_FILLED
 10
73.6608520508
 20
-91.6
 41
3.0
 42
3.0
 43
3.0
 50
180.0
  0
ENDBLK
  5
23B
100
AcDbEntity
  8
0
  6
BYBLOCK
 62
0
100
AcDbBlockEnd
  0
BLOCK
  5
23C
100
AcDbEntity
  8
0
100
AcDbBlockBegin
 62
7
  6
CONTINUOUS
  2
*D4
 70
65
 10
0.0
 20
0.0
  3
*D4
  1

  0
LINE
  5
23D
100
AcDbEntity
  8
0
100
AcDbLine
 62
7
  6
CONTINUOUS
 10
105.9608520508
 20
-84.1
 11
105.9608520508
 21
-93.1
  0
LINE
  5
23E
100
AcDbEntity
  8
0
100
AcDbLine
 62
7
  6
CONTINUOUS
 10
114.9608520508
 20
24.8806563607
 11
114.9608520508
 21
-93.1
  0
LINE
  5
23F
100
AcDbEntity
  8
0
100
AcDbLine
 62
7
  6
CONTINUOUS
 10
105.9608520508
 20
-91.6
 11
101.9608520508
 21
-91.6
  0
LINE
  5
240
100
AcDbEntity
  8
0
100
AcDbLine
 62
7
  6
CONTINUOUS
 10
101.9608520508
 20
-91.6
 11
110.4608520508
 21
-91.6
  0
LINE
  5
241
100
AcDbEntity
  8
0
100
AcDbLine
 62
7
  6
CONTINUOUS
 10
114.9608520508
 20
-91.6
 11
118.9608520508
 21
-91.6
  0
LINE
  5
242
100
AcDbEntity
  8
0
100
AcDbLine
 62
7
  6
CONTINUOUS
 10
118.9608520508
 20
-91.6
 11
110.4608520508
 21
-91.6
  0
INSERT
  5
243
100
AcDbEntity
  8
0
100
AcDbBlockReference
 62
7
  6
CONTINUOUS
  2
_FILLED
 10
105.9608520508
 20
-91.6
 41
3.0
 42
3.0
 43
3.0
  0
INSERT
  5
244
100
AcDbEntity
  8
0
100
AcDbBlockReference
 62
7
  6
CONTINUOUS
  2
_FILLED
 10
114.9608520508
 20
-91.6
 41
3.0
 42
3.0
 43
3.0
 50
180.0
  0
ENDBLK
  5
245
100
AcDbEntity
  8
0
  6
BYBLOCK
 62
0
100
AcDbBlockEnd
  0
ENDSEC
  0
SECTION
  2
ENTITIES
  0
DIMENSION
  5
246
100
AcDbEntity
  8
0
100
AcDbDimension
 62
7
  6
CONTINUOUS
  2
*D0
 10
59.9
 20
91.6
 11
-4.9285714286
 21
91.6
 70
160
 71
2
 72
2
 41
0.9
 42
119.8
  3
DIMSTYLE_1
100
AcDbAlignedDimension
 13
-59.9
 23
82.6
 14
59.9
 24
82.6
100
AcDbRotatedDimension
  0
DIMENSION
  5
247
100
AcDbEntity
  8
0
100
AcDbDimension
 62
7
  6
CONTINUOUS
  2
*D1
 10
-77.9
 20
-83.6
 11
-77.9
 21
-5.25
 70
160
 71
2
 72
2
 41
0.9
 42
167.2
  3
DIMSTYLE_1
100
AcDbAlignedDimension
 13
-58.9
 23
83.6
 14
-58.9
 24
-83.6
 50
270.0
100
AcDbRotatedDimension
  0
DIMENSION
  5
248
100
AcDbEntity
  8
0
100
AcDbDimension
 62
7
  6
CONTINUOUS
  2
*D2
 10
-67.9
 20
-66.25
 11
-67.9
 21
-5.0357142857
 70
160
 71
2
 72
2
 41
0.9
 42
132.5
  3
DIMSTYLE_1
100
AcDbAlignedDimension
 13
0.0
 23
66.25
 14
0.0
 24
-66.25
 50
270.0
100
AcDbRotatedDimension
  0
DIMENSION
  5
249
100
AcDbEntity
  8
0
100
AcDbDimension
 62
7
  6
CONTINUOUS
  2
*D3
 10
73.6608520508
 20
-91.6
 11
85.6322806222
 21
-91.6
 70
160
 71
2
 72
2
 41
0.9
 42
32.3
  3
DIMSTYLE_1
100
AcDbAlignedDimension
 13
105.9608520508
 23
-83.6
 14
73.6608520508
 24
8.3223462901
 50
180.0
100
AcDbRotatedDimension
  0
DIMENSION
  5
24A
100
AcDbEntity
  8
0
100
AcDbDimension
 62
7
  6
CONTINUOUS
  2
*D4
 10
114.9608520508
 20
-91.6
 11
109.2822806222
 21
-91.6
 70
160
 71
2
 72
2
 41
0.9
 42
9.0
  3
DIMSTYLE_1
100
AcDbAlignedDimension
 13
105.9608520508
 23
-83.6
 14
114.9608520508
 24
25.3806563607
100
AcDbRotatedDimension
  0
LINE
  5
24B
100
AcDbEntity
  8
RACCORDO
100
AcDbLine
 62
7
  6
CONTINUOUS
 10
-58.9
 20
-83.6
 11
58.9
 21
-83.6
  0
LWPOLYLINE
  5
24C
100
AcDbEntity
  8
0
100
AcDbPolyline
 62
7
  6
CONTINUOUS
 90
7
 70
0
 43
0.3500000019
 10
-78.6499998169
 20
4.3928571167
 10
-78.6499998169
 20
2.8928569946
 10
-80.7928574219
 20
4.3928571167
 10
-81.2214284058
 20
4.3928571167
 10
-81.650000061
 20
3.9642857971
 10
-81.650000061
 20
3.3214286499
 10
-81.0071425781
 20
2.8928569946
  0
LWPOLYLINE
  5
24D
100
AcDbEntity
  8
0
100
AcDbPolyline
 62
7
  6
CONTINUOUS
 90
6
 70
0
 43
0.3500000019
 10
-68.6499999542
 20
-3.3214286499
 10
-68.6499999542
 20
-2.2500000153
 10
-68.8642857819
 20
-2.0357143555
 10
-69.9357142487
 20
-2.0357143555
 10
-70.3642856941
 20
-2.464285675
 10
-70.3642856941
 20
-2.8928569946
  0
LWPOLYLINE
  5
24E
100
AcDbEntity
  8
0
100
AcDbPolyline
 62
7
  6
CONTINUOUS
 90
7
 70
0
 43
0.3500000019
 10
-68.6499999542
 20
0.3214285736
 10
-68.6499999542
 20
-1.1785714645
 10
-70.7928571396
 20
0.3214285736
 10
-71.2214285641
 20
0.3214285736
 10
-71.6499999886
 20
-0.1071428614
 10
-71.6499999886
 20
-0.7499999771
 10
-71.0071428571
 20
-1.1785714645
  0
LWPOLYLINE
  5
24F
100
AcDbEntity
  8
0
100
AcDbPolyline
 62
7
  6
CONTINUOUS
 90
8
 70
0
 43
0.3500000019
 10
-68.6499999542
 20
2.8928569946
 10
-68.6499999542
 20
3.7499999695
 10
-69.0785714417
 20
4.1785712891
 10
-69.9357142487
 20
4.1785712891
 10
-70.3642856941
 20
3.7499999695
 10
-70.3642856941
 20
2.8928569946
 10
-71.6499999886
 20
2.8928569946
 10
-71.6499999886
 20
4.1785712891
  0
LWPOLYLINE
  5
250
100
AcDbEntity
  8
0
100
AcDbPolyline
 62
7
  6
CONTINUOUS
 90
3
 70
0
 43
0.3500000019
 10
-4.9285698242
 20
94.4928574219
 10
-4.0714291992
 20
95.3499980469
 10
-4.0714291992
 20
92.3499951172
  0
LWPOLYLINE
  5
251
100
AcDbEntity
  8
0
100
AcDbPolyline
 62
7
  6
CONTINUOUS
 90
3
 70
0
 43
0.3500000019
 10
-3.2142832031
 20
94.4928574219
 10
-2.3571425781
 20
95.3499980469
 10
-2.3571425781
 20
92.3499951172
  0
LWPOLYLINE
  5
252
100
AcDbEntity
  8
RACCORDO
100
AcDbPolyline
 62
7
  6
CONTINUOUS
 90
7
 70
0
 10
0.0870691767
 20
-68.2526772267
 10
0.100093893
 20
-68.2509719256
 10
0.1127241743
 20
-68.249189147
 10
0.1250261526
 20
-68.2475383635
 10
0.1370218721
 20
-68.2460893992
 10
0.1486892887
 20
-68.24477243
 10
0.1600284024
 20
-68.2435874558
  0
LWPOLYLINE
  5
253
100
AcDbEntity
  8
RACCORDO
100
AcDbPolyline
 62
7
  6
CONTINUOUS
 90
4
 70
0
 10
0.0455622859
 20
-68.2571187921
 10
0.05982892
 20
-68.2558550852
 10
0.0736462658
 20
-68.2543048947
 10
0.0870691767
 20
-68.2526772267
  0
LINE
  5
254
100
AcDbEntity
  8
RACCORDO
100
AcDbLine
 62
250
  6
CONTINUOUS
 10
-0.4752990756
 20
-67.6995908163
 11
-0.4862925649
 21
-67.6999121944
  0
LWPOLYLINE
  5
255
100
AcDbEntity
  8
RACCORDO
100
AcDbPolyline
 62
7
  6
CONTINUOUS
 90
4
 70
0
 10
0.0000118004
 20
-68.2589820047
 10
0.0156445839
 20
-68.2586474175
 10
0.030828079
 20
-68.2580263466
 10
0.0455622859
 20
-68.2571187921
  0
LINE
  5
256
100
AcDbEntity
  8
RACCORDO
100
AcDbLine
 62
250
  6
CONTINUOUS
 10
0.4752990919
 20
-67.6995908196
 11
0.4862925649
 21
-67.6999121944
  0
LWPOLYLINE
  5
257
100
AcDbEntity
  8
RACCORDO
100
AcDbPolyline
 62
7
  6
CONTINUOUS
 90
7
 70
0
 10
-0.1600284055
 20
-68.2435874555
 10
-0.1487269245
 20
-68.2447673684
 10
-0.1370866241
 20
-68.2460807163
 10
-0.1251075044
 20
-68.2475274992
 10
-0.1128089042
 20
-68.2491778718
 10
-0.1001714846
 20
-68.2509616793
 10
-0.0871372292
 20
-68.2526684579
  0
LWPOLYLINE
  5
258
100
AcDbEntity
  8
RACCORDO
100
AcDbPolyline
 62
7
  6
CONTINUOUS
 90
7
 70
0
 10
-0.0871372292
 20
-68.2526684579
 10
-0.0737050922
 20
-68.2542980004
 10
-0.0598761194
 20
-68.255850514
 10
-0.0455954317
 20
-68.2571161555
 10
-0.030844736
 20
-68.2580249773
 10
-0.0156423253
 20
-68.258646927
 10
0.0000118004
 20
-68.2589820047
  0
LWPOLYLINE
  5
259
100
AcDbEntity
  8
0
100
AcDbPolyline
 62
7
  6
CONTINUOUS
 90
10
 70
0
 43
0.3500000019
 10
-1.0714262695
 20
92.3499951172
 10
-0.2142856445
 20
93.2071464844
 10
-0.0000004883
 20
94.0642871094
 10
-0.0000004883
 20
94.9214277344
 10
-0.4285708008
 20
95.3499980469
 10
-1.0714262695
 20
95.3499980469
 10
-1.5000019531
 20
94.9214277344
 10
-1.5000019531
 20
94.0642871094
 10
-1.0714262695
 20
93.6357167969
 10
-0.1428554687
 20
93.6357167969
  0
LWPOLYLINE
  5
25A
100
AcDbEntity
  8
RACCORDO
100
AcDbPolyline
 62
250
  6
CONTINUOUS
 90
12
 70
0
 10
-0.1600485477
 20
68.2435858337
 10
-0.1704758143
 20
68.2385256777
 10
-0.1808989911
 20
68.2330325209
 10
-0.1913110545
 20
68.2271060751
 10
-0.2017095553
 20
68.2207635521
 10
-0.2120827906
 20
68.2139873565
 10
-0.2224089163
 20
68.2067253419
 10
-0.23268838
 20
68.1989753837
 10
-0.2429041638
 20
68.190740191
 10
-0.2530069002
 20
68.1819758996
 10
-0.2629956258
 20
68.172679693
 10
-0.272853521
 20
68.1628569191
  0
LWPOLYLINE
  5
25B
100
AcDbEntity
  8
RACCORDO
100
AcDbPolyline
 62
250
  6
CONTINUOUS
 90
6
 70
0
 10
-1.5274569652
 20
67.440723929
 10
-1.5528483312
 20
67.432948342
 10
-1.5775821114
 20
67.4234953868
 10
-1.6013066589
 20
67.4124282666
 10
-1.6242883854
 20
67.3997186623
 10
-1.6464826475
 20
67.385382819
  0
LWPOLYLINE
  5
25C
100
AcDbEntity
  8
RACCORDO
100
AcDbPolyline
 62
250
  6
CONTINUOUS
 90
11
 70
0
 10
1.5320657794
 20
65.0604626612
 10
1.5451264763
 20
65.0644113019
 10
1.5577939202
 20
65.0687286871
 10
1.5700781914
 20
65.073416331
 10
1.5820100692
 20
65.0784242565
 10
1.5935800645
 20
65.0837380084
 10
1.6047885178
 20
65.0893597298
 10
1.6156821376
 20
65.0952657829
 10
1.6262740132
 20
65.1014452529
 10
1.636543189
 20
65.1078988702
 10
1.6464857934
 20
65.1146213939
  0
LINE
  5
25D
100
AcDbEntity
  8
RACCORDO
100
AcDbLine
 62
250
  6
CONTINUOUS
 10
1.4701015579
 20
-65.9520043468
 11
1.498807076
 21
-65.9461856177
  0
LINE
  5
25E
100
AcDbEntity
  8
RACCORDO
100
AcDbLine
 62
250
  6
CONTINUOUS
 10
-1.4701015579
 20
-66.5479956532
 11
-1.498807076
 21
-66.5538143823
  0
LINE
  5
25F
100
AcDbEntity
  8
RACCORDO
100
AcDbLine
 62
250
  6
CONTINUOUS
 10
-1.0938508866
 20
-67.4087048921
 11
-1.0125145111
 21
-67.396097812
  0
LINE
  5
260
100
AcDbEntity
  8
RACCORDO
100
AcDbLine
 62
250
  6
CONTINUOUS
 10
1.0938508866
 20
-65.0912951079
 11
1.0125145111
 21
-65.103902188
  0
LWPOLYLINE
  5
261
100
AcDbEntity
  8
RACCORDO
100
AcDbPolyline
 62
250
  6
CONTINUOUS
 90
4
 70
0
 10
-1.3668926661
 20
-67.449928874
 10
-1.2918101112
 20
-67.4385595836
 10
-1.2532845762
 20
-67.4328606247
 10
-1.0938508866
 20
-67.4087048921
  0
LWPOLYLINE
  5
262
100
AcDbEntity
  8
RACCORDO
100
AcDbPolyline
 62
250
  6
CONTINUOUS
 90
4
 70
0
 10
1.3668926661
 20
-65.050071126
 10
1.2918101112
 20
-65.0614404164
 10
1.2532845762
 20
-65.0671393753
 10
1.0938508866
 20
-65.0912951079
  0
LINE
  5
263
100
AcDbEntity
  8
RACCORDO
100
AcDbLine
 62
7
  6
CONTINUOUS
 10
-1.4330853288
 20
-67.3974334584
 11
-1.0723833781
 21
-67.3499461457
  0
LINE
  5
264
100
AcDbEntity
  8
RACCORDO
100
AcDbLine
 62
7
  6
CONTINUOUS
 10
1.4330853288
 20
-65.1025665416
 11
1.0723833781
 21
-65.1500538543
  0
LWPOLYLINE
  5
265
100
AcDbEntity
  8
RACCORDO
100
AcDbPolyline
 62
7
  6
CONTINUOUS
 90
7
 70
0
 10
-0.0870693421
 20
-64.2473227939
 10
-0.1000939757
 20
-64.249028083
 10
-0.1127241471
 20
-64.2508108454
 10
-0.1250260489
 20
-64.2524616182
 10
-0.1370217452
 20
-64.2539105804
 10
-0.1486891718
 20
-64.2552275529
 10
-0.1600283289
 20
-64.2564125359
  0
LWPOLYLINE
  5
266
100
AcDbEntity
  8
RACCORDO
100
AcDbPolyline
 62
7
  6
CONTINUOUS
 90
4
 70
0
 10
-0.045562476
 20
-64.2428812299
 10
-0.0598291427
 20
-64.2441449401
 10
-0.0736464735
 20
-64.2456951303
 10
-0.0870693421
 20
-64.2473227939
  0
LWPOLYLINE
  5
267
100
AcDbEntity
  8
RACCORDO
100
AcDbPolyline
 62
250
  6
CONTINUOUS
 90
9
 70
0
 10
-1.0723833779
 20
-67.3499461457
 10
-1.0649520478
 20
-67.349694748
 10
-1.0575990698
 20
-67.350918917
 10
-1.0503551016
 20
-67.3536062842
 10
-1.0431633499
 20
-67.3576692453
 10
-1.036120042
 20
-67.363033264
 10
-1.0294942186
 20
-67.3696874019
 10
-1.0233908248
 20
-67.377548227
 10
-1.0177329289
 20
-67.3864164978
  0
LWPOLYLINE
  5
268
100
AcDbEntity
  8
RACCORDO
100
AcDbPolyline
 62
250
  6
CONTINUOUS
 90
9
 70
0
 10
1.0723833779
 20
-65.1500538543
 10
1.0649520478
 20
-65.150305252
 10
1.0575990698
 20
-65.149081083
 10
1.0503551016
 20
-65.1463937158
 10
1.0431633499
 20
-65.1423307547
 10
1.036120042
 20
-65.136966736
 10
1.0294942186
 20
-65.1303125981
 10
1.0233908248
 20
-65.122451773
 10
1.0177329289
 20
-65.1135835022
  0
LWPOLYLINE
  5
269
100
AcDbEntity
  8
RACCORDO
100
AcDbPolyline
 62
250
  6
CONTINUOUS
 90
10
 70
0
 10
-1.433085338
 20
-67.3974333882
 10
-1.4247829892
 20
-67.3971868228
 10
-1.4164009242
 20
-67.3986083127
 10
-1.408079817
 20
-67.4016740015
 10
-1.3999593186
 20
-67.4063324386
 10
-1.3921757133
 20
-67.4125054426
 10
-1.3848596314
 20
-67.4200894137
 10
-1.3781338569
 20
-67.4289570722
 10
-1.3721112666
 20
-67.4389595946
 10
-1.3668929364
 20
-67.4499291112
  0
LWPOLYLINE
  5
26A
100
AcDbEntity
  8
RACCORDO
100
AcDbPolyline
 62
250
  6
CONTINUOUS
 90
10
 70
0
 10
1.433085338
 20
-65.1025666118
 10
1.4247829892
 20
-65.1028131772
 10
1.4164009242
 20
-65.1013916873
 10
1.408079817
 20
-65.0983259985
 10
1.3999593186
 20
-65.0936675614
 10
1.3921757133
 20
-65.0874945574
 10
1.3848596314
 20
-65.0799105863
 10
1.3781338569
 20
-65.0710429278
 10
1.3721112666
 20
-65.0610404054
 10
1.3668929364
 20
-65.0500708888
  0
LINE
  5
26B
100
AcDbEntity
  8
RACCORDO
100
AcDbLine
 62
250
  6
CONTINUOUS
 10
0.4752990756
 20
-64.8004091837
 11
0.4862925649
 21
-64.8000878056
  0
LWPOLYLINE
  5
26C
100
AcDbEntity
  8
RACCORDO
100
AcDbPolyline
 62
7
  6
CONTINUOUS
 90
4
 70
0
 10
-0.0000115854
 20
-64.2410179864
 10
-0.0156445517
 20
-64.2413525875
 10
-0.0308281818
 20
-64.2419736687
 10
-0.045562476
 20
-64.2428812299
  0
LINE
  5
26D
100
AcDbEntity
  8
RACCORDO
100
AcDbLine
 62
250
  6
CONTINUOUS
 10
-0.4752990919
 20
-64.8004091804
 11
-0.4862925648
 21
-64.8000878056
  0
LWPOLYLINE
  5
26E
100
AcDbEntity
  8
RACCORDO
100
AcDbPolyline
 62
250
  6
CONTINUOUS
 90
10
 70
0
 10
1.4330853157
 20
-67.3974335577
 10
1.4247829412
 20
-67.3971869101
 10
1.4164008465
 20
-67.3986083294
 10
1.4080797071
 20
-67.4016739583
 10
1.3999591746
 20
-67.4063323455
 10
1.3921755348
 20
-67.4125053082
 10
1.3848594199
 20
-67.4200892437
 10
1.3781336144
 20
-67.4289568695
 10
1.3721109943
 20
-67.4389593607
 10
1.3668926344
 20
-67.4499288461
  0
LWPOLYLINE
  5
26F
100
AcDbEntity
  8
RACCORDO
100
AcDbPolyline
 62
250
  6
CONTINUOUS
 90
10
 70
0
 10
-1.4330853242
 20
-65.1025665085
 10
-1.4247828576
 20
-65.1028131465
 10
-1.4164006909
 20
-65.1013916831
 10
-1.4080795038
 20
-65.0983259892
 10
-1.3999589461
 20
-65.0936675275
 10
-1.3921753071
 20
-65.0874944954
 10
-1.3848592262
 20
-65.0799105195
 10
-1.3781334839
 20
-65.0710429025
 10
-1.3721109429
 20
-65.0610404783
 10
-1.3668926662
 20
-65.0500711258
  0
LWPOLYLINE
  5
270
100
AcDbEntity
  8
RACCORDO
100
AcDbPolyline
 62
250
  6
CONTINUOUS
 90
9
 70
0
 10
1.0723833781
 20
-67.3499461457
 10
1.0649520516
 20
-67.3496947471
 10
1.0575990764
 20
-67.3509189126
 10
1.0503551103
 20
-67.3536062746
 10
1.0431633612
 20
-67.3576692292
 10
1.0361200554
 20
-67.3630332412
 10
1.0294942316
 20
-67.3696873755
 10
1.0233908346
 20
-67.3775482026
 10
1.0177329342
 20
-67.386416482
  0
LWPOLYLINE
  5
271
100
AcDbEntity
  8
RACCORDO
100
AcDbPolyline
 62
250
  6
CONTINUOUS
 90
9
 70
0
 10
-1.0723833781
 20
-65.1500538543
 10
-1.0649520516
 20
-65.1503052529
 10
-1.0575990764
 20
-65.1490810874
 10
-1.0503551103
 20
-65.1463937254
 10
-1.0431633612
 20
-65.1423307708
 10
-1.0361200554
 20
-65.1369667588
 10
-1.0294942316
 20
-65.1303126245
 10
-1.0233908346
 20
-65.1224517974
 10
-1.0177329342
 20
-65.113583518
  0
LWPOLYLINE
  5
272
100
AcDbEntity
  8
RACCORDO
100
AcDbPolyline
 62
7
  6
CONTINUOUS
 90
7
 70
0
 10
0.1600284458
 20
-64.2564125491
 10
0.1487295664
 20
-64.2552329796
 10
0.1370898868
 20
-64.2539197166
 10
0.125109407
 20
-64.2524727602
 10
0.1128061103
 20
-64.2508217591
 10
0.1001620134
 20
-64.2490370645
 10
0.0871231663
 20
-64.2473297301
  0
LWPOLYLINE
  5
273
100
AcDbEntity
  8
RACCORDO
100
AcDbPolyline
 62
7
  6
CONTINUOUS
 90
7
 70
0
 10
0.0871231663
 20
-64.2473297301
 10
0.0736902532
 20
-64.2457002705
 10
0.0598625901
 20
-64.2441481711
 10
0.0455841748
 20
-64.242882942
 10
0.0308363402
 20
-64.2419744199
 10
0.0156377534
 20
-64.241352768
 10
-0.0000115854
 20
-64.2410179864
  0
LWPOLYLINE
  5
274
100
AcDbEntity
  8
RACCORDO
100
AcDbPolyline
 62
250
  6
CONTINUOUS
 90
12
 70
0
 10
1.3668926661
 20
-67.449928874
 10
1.383324815
 20
-67.4519838451
 10
1.3994955088
 20
-67.4533968585
 10
1.4153984066
 20
-67.4541694635
 10
1.4310257911
 20
-67.4542766755
 10
1.4463717771
 20
-67.4537471726
 10
1.4614330052
 20
-67.4526641671
 10
1.4762165262
 20
-67.4510335583
 10
1.4907019561
 20
-67.4488560556
 10
1.5048456801
 20
-67.4462097563
 10
1.5186329927
 20
-67.4431023982
 10
1.5320657794
 20
-67.4395373388
  0
LINE
  5
275
100
AcDbEntity
  8
RACCORDO
100
AcDbLine
 62
7
  6
CONTINUOUS
 10
1.0723833781
 20
-67.3499461457
 11
1.4330853288
 21
-67.3974334584
  0
LINE
  5
276
100
AcDbEntity
  8
RACCORDO
100
AcDbLine
 62
7
  6
CONTINUOUS
 10
-1.0723833781
 20
-65.1500538543
 11
-1.4330853288
 21
-65.1025665416
  0
LWPOLYLINE
  5
277
100
AcDbEntity
  8
RACCORDO
100
AcDbPolyline
 62
250
  6
CONTINUOUS
 90
8
 70
0
 10
-1.3668926661
 20
-65.050071126
 10
-1.3869718553
 20
-65.0473846332
 10
-1.4080527254
 20
-65.0459198788
 10
-1.4301367719
 20
-65.0457253491
 10
-1.4534292783
 20
-65.0467556546
 10
-1.4777201071
 20
-65.0491651119
 10
-1.5023715013
 20
-65.0532847532
 10
-1.5274569652
 20
-65.059276071
  0
LWPOLYLINE
  5
278
100
AcDbEntity
  8
RACCORDO
100
AcDbPolyline
 62
250
  6
CONTINUOUS
 90
3
 70
0
 10
1.0533005679
 20
-67.4025027872
 10
1.2140851922
 20
-67.426964055
 10
1.3296993031
 20
-67.4442246098
  0
LWPOLYLINE
  5
279
100
AcDbEntity
  8
RACCORDO
100
AcDbPolyline
 62
250
  6
CONTINUOUS
 90
3
 70
0
 10
-1.0533005679
 20
-65.0974972128
 10
-1.2140851922
 20
-65.073035945
 10
-1.3296993031
 20
-65.0557753902
  0
LINE
  5
27A
100
AcDbEntity
  8
RACCORDO
100
AcDbLine
 62
250
  6
CONTINUOUS
 10
1.3296993031
 20
-67.4442246098
 11
1.3668926661
 21
-67.449928874
  0
LINE
  5
27B
100
AcDbEntity
  8
RACCORDO
100
AcDbLine
 62
250
  6
CONTINUOUS
 10
-1.3296993031
 20
-65.0557753902
 11
-1.3668926661
 21
-65.050071126
  0
LINE
  5
27C
100
AcDbEntity
  8
RACCORDO
100
AcDbLine
 62
250
  6
CONTINUOUS
 10
1.0125145111
 20
-67.396097812
 11
1.0533005679
 21
-67.4025027872
  0
LINE
  5
27D
100
AcDbEntity
  8
RACCORDO
100
AcDbLine
 62
250
  6
CONTINUOUS
 10
-1.0125145111
 20
-65.103902188
 11
-1.0533005679
 21
-65.0974972128
  0
LWPOLYLINE
  5
27E
100
AcDbEntity
  8
RACCORDO
100
AcDbPolyline
 62
250
  6
CONTINUOUS
 90
6
 70
0
 10
1.5169946533
 20
-65.0563487688
 10
1.4853014637
 20
-65.0502746526
 10
1.4543855539
 20
-65.0467542625
 10
1.4243802136
 20
-65.0454881759
 10
1.3952105193
 20
-65.0466193115
 10
1.3668926661
 20
-65.050071126
  0
LINE
  5
27F
100
AcDbEntity
  8
RACCORDO
100
AcDbLine
 62
250
  6
CONTINUOUS
 10
-1.4701015575
 20
-65.9520043448
 11
-1.498807076
 21
-65.9461856177
  0
LINE
  5
280
100
AcDbEntity
  8
RACCORDO
100
AcDbLine
 62
250
  6
CONTINUOUS
 10
1.4701015575
 20
-66.5479956552
 11
1.498807076
 21
-66.5538143823
  0
LWPOLYLINE
  5
281
100
AcDbEntity
  8
RACCORDO
100
AcDbPolyline
 62
250
  6
CONTINUOUS
 90
11
 70
0
 10
-1.5197041868
 20
-67.4428381745
 10
-1.5058720477
 20
-67.4459958189
 10
-1.4916783671
 20
-67.4486906038
 10
-1.4771331834
 20
-67.4509146617
 10
-1.4622662223
 20
-67.4525870866
 10
-1.447086842
 20
-67.4537073231
 10
-1.4315995946
 20
-67.4542679519
 10
-1.4158279329
 20
-67.4541806872
 10
-1.3997845063
 20
-67.4534154063
 10
-1.3834705858
 20
-67.4519986494
 10
-1.3668926661
 20
-67.449928874
  0
LWPOLYLINE
  5
282
100
AcDbEntity
  8
0
100
AcDbPolyline
 62
7
  6
CONTINUOUS
 90
3
 70
0
 43
0.3500000019
 10
-80.7928574219
 20
-5.2500000916
 10
-81.650000061
 20
-4.3928571167
 10
-78.6499998169
 20
-4.3928571167
  0
LWPOLYLINE
  5
283
100
AcDbEntity
  8
0
100
AcDbPolyline
 62
7
  6
CONTINUOUS
 90
5
 70
0
 43
0.3500000019
 10
-70.3642856941
 20
-2.464285675
 10
-70.5785714378
 20
-2.1071428528
 10
-71.2214285641
 20
-2.1071428528
 10
-71.6499999886
 20
-2.464285675
 10
-71.6499999886
 20
-3.3214286499
  0
LINE
  5
284
100
AcDbEntity
  8
RACCORDO
100
AcDbLine
 62
7
  6
CONTINUOUS
 10
-59.9
 20
82.6
 11
-59.9
 21
-82.6
  0
LWPOLYLINE
  5
285
100
AcDbEntity
  8
RACCORDO
100
AcDbPolyline
 62
250
  6
CONTINUOUS
 90
12
 70
0
 10
0.1600471609
 20
64.2564140574
 10
0.1704795758
 20
64.2614774174
 10
0.1809026582
 20
64.2669703282
 10
0.1913094789
 20
64.2728929968
 10
0.2016961304
 20
64.2792275055
 10
0.2120525966
 20
64.2859919783
 10
0.2223617861
 20
64.2932404068
 10
0.2326246085
 20
64.3009746054
 10
0.2428236836
 20
64.309192173
 10
0.2529130025
 20
64.3179398749
 10
0.262892213
 20
64.3272206217
 10
0.2727437904
 20
64.3370290782
  0
LWPOLYLINE
  5
286
100
AcDbEntity
  8
RACCORDO
100
AcDbPolyline
 62
250
  6
CONTINUOUS
 90
5
 70
0
 10
1.6466814461
 20
-65.1149122835
 10
1.6140003197
 20
-65.0950406007
 10
1.5814359766
 20
-65.0786622558
 10
1.5491024998
 20
-65.0657142446
 10
1.5169946533
 20
-65.0563487688
  0
LWPOLYLINE
  5
287
100
AcDbEntity
  8
RACCORDO
100
AcDbPolyline
 62
250
  6
CONTINUOUS
 90
12
 70
0
 10
-1.6464830389
 20
-67.3853825907
 10
-1.6368711572
 20
-67.3918989496
 10
-1.6268775174
 20
-67.398196585
 10
-1.6165053913
 20
-67.4042690755
 10
-1.6057683899
 20
-67.4101241188
 10
-1.5946596781
 20
-67.415741118
 10
-1.5831526781
 20
-67.421070742
 10
-1.5712449003
 20
-67.4261117648
 10
-1.55894776
 20
-67.4308512806
 10
-1.5462571236
 20
-67.4352222092
 10
-1.5331718121
 20
-67.439221338
 10
-1.5197041868
 20
-67.4428381745
  0
LWPOLYLINE
  5
288
100
AcDbEntity
  8
0
100
AcDbPolyline
 62
7
  6
CONTINUOUS
 90
10
 70
0
 43
0.3500000019
 10
-81.650000061
 20
-2.464285675
 10
-81.0071425781
 20
-3.1071428223
 10
-80.149999939
 20
-3.5357141418
 10
-79.0785714722
 20
-3.5357141418
 10
-78.6499998169
 20
-3.1071428223
 10
-78.6499998169
 20
-2.464285675
 10
-79.0785714722
 20
-2.0357143555
 10
-79.9357141113
 20
-2.0357143555
 10
-80.3642857666
 20
-2.464285675
 10
-80.3642857666
 20
-3.3928571472
  0
LWPOLYLINE
  5
289
100
AcDbEntity
  8
RACCORDO
100
AcDbPolyline
 62
250
  6
CONTINUOUS
 90
10
 70
0
 10
-1.7931060705
 20
-67.1388597421
 10
-1.7877907089
 20
-67.1435411411
 10
-1.7828550218
 20
-67.1482204822
 10
-1.7783281169
 20
-67.1528982029
 10
-1.7742368729
 20
-67.1575759859
 10
-1.7706057217
 20
-67.162256796
 10
-1.7674563611
 20
-67.1669448665
 10
-1.7648074547
 20
-67.1716456456
 10
-1.7626744549
 20
-67.1763657376
 10
-1.7610694736
 20
-67.1811128279
  0
LWPOLYLINE
  5
28A
100
AcDbEntity
  8
RACCORDO
100
AcDbPolyline
 62
250
  6
CONTINUOUS
 90
12
 70
0
 10
-0.2712491017
 20
-68.1645168586
 10
-0.2614427642
 20
-68.17417026
 10
-0.251547475
 20
-68.183278812
 10
-0.2415837736
 20
-68.1918440996
 10
-0.2315501584
 20
-68.1998633336
 10
-0.2214533952
 20
-68.2074179417
 10
-0.2112966521
 20
-68.2145182537
 10
-0.2010920427
 20
-68.221153185
 10
-0.1908573707
 20
-68.2273723345
 10
-0.1806027016
 20
-68.2331923563
 10
-0.1703312208
 20
-68.2385967688
 10
-0.1600495207
 20
-68.2435857524
  0
LWPOLYLINE
  5
28B
100
AcDbEntity
  8
0
100
AcDbPolyline
 62
7
  6
CONTINUOUS
 90
3
 70
0
 43
0.3500000019
 10
-70.7928571396
 20
-5.0357142639
 10
-71.6499999886
 20
-4.1785712891
 10
-68.6499999542
 20
-4.1785712891
  0
LINE
  5
28C
100
AcDbEntity
  8
RACCORDO
100
AcDbLine
 62
7
  6
CONTINUOUS
 10
-1.6789386667
 20
67.3421695879
 11
-1.6464867221
 21
67.3853776775
  0
LINE
  5
28D
100
AcDbEntity
  8
RACCORDO
100
AcDbLine
 62
7
  6
CONTINUOUS
 10
-1.7021370248
 20
67.3117204614
 11
-1.6789386667
 21
67.3421695879
  0
LINE
  5
28E
100
AcDbEntity
  8
RACCORDO
100
AcDbLine
 62
7
  6
CONTINUOUS
 10
-1.488772994
 20
65.8712618249
 11
-1.7102491885
 21
65.5826284287
  0
LWPOLYLINE
  5
28F
100
AcDbEntity
  8
RACCORDO
100
AcDbPolyline
 62
250
  6
CONTINUOUS
 90
4
 70
0
 10
-1.7226152207
 20
65.6662006639
 10
-1.7337860379
 20
65.6518335449
 10
-1.7446411596
 20
65.6359765461
 10
-1.7551429498
 20
65.6186026351
  0
LINE
  5
290
100
AcDbEntity
  8
RACCORDO
100
AcDbLine
 62
250
  6
CONTINUOUS
 10
1.6752384478
 20
66.7744741415
 11
1.7226152207
 21
66.8337993361
  0
LINE
  5
291
100
AcDbEntity
  8
RACCORDO
100
AcDbLine
 62
250
  6
CONTINUOUS
 10
-1.6995757522
 20
65.6949288811
 11
-1.7226152207
 21
65.6662006639
  0
LWPOLYLINE
  5
292
100
AcDbEntity
  8
RACCORDO
100
AcDbPolyline
 62
250
  6
CONTINUOUS
 90
3
 70
0
 10
-1.525909226
 20
65.9127353768
 10
-1.6281255893
 20
65.7847629912
 10
-1.6995757522
 20
65.6949288811
  0
LINE
  5
293
100
AcDbEntity
  8
RACCORDO
100
AcDbLine
 62
250
  6
CONTINUOUS
 10
1.498807076
 20
66.5538143823
 11
1.6510430927
 21
66.7439627396
  0
LINE
  5
294
100
AcDbEntity
  8
RACCORDO
100
AcDbLine
 62
250
  6
CONTINUOUS
 10
-1.498807076
 20
65.9461856177
 11
-1.525909226
 21
65.9127353768
  0
LINE
  5
295
100
AcDbEntity
  8
RACCORDO
100
AcDbLine
 62
250
  6
CONTINUOUS
 10
-0.9931225864
 20
65.1258525326
 11
-1.0125145111
 21
65.103902188
  0
LINE
  5
296
100
AcDbEntity
  8
RACCORDO
100
AcDbLine
 62
250
  6
CONTINUOUS
 10
0.9931225864
 20
67.3741474673
 11
1.0125145112
 21
67.396097812
  0
LWPOLYLINE
  5
297
100
AcDbEntity
  8
RACCORDO
100
AcDbPolyline
 62
250
  6
CONTINUOUS
 90
10
 70
0
 10
-0.272853521
 20
68.1628569191
 10
-0.2825072021
 20
68.1524777787
 10
-0.2919534715
 20
68.1415414563
 10
-0.3011782624
 20
68.1300539328
 10
-0.3100930247
 20
68.1179979305
 10
-0.3186937067
 20
68.1053782319
 10
-0.3269696132
 20
68.0921979535
 10
-0.3348245381
 20
68.0784397616
 10
-0.3422234129
 20
68.0641017978
 10
-0.3491909953
 20
68.0491963117
  0
LWPOLYLINE
  5
298
100
AcDbEntity
  8
RACCORDO
100
AcDbPolyline
 62
250
  6
CONTINUOUS
 90
10
 70
0
 10
0.2727437904
 20
64.3370290782
 10
0.2823955718
 20
64.347397895
 10
0.2918449561
 20
64.3583284356
 10
0.3010769976
 20
64.3698143044
 10
0.3100020592
 20
64.3818741863
 10
0.3186165246
 20
64.3945043579
 10
0.3269089074
 20
64.4077007188
 10
0.3347801385
 20
64.4214788841
 10
0.3421941729
 20
64.4358401139
 10
0.3491765847
 20
64.4507727231
  0
LWPOLYLINE
  5
299
100
AcDbEntity
  8
RACCORDO
100
AcDbPolyline
 62
250
  6
CONTINUOUS
 90
12
 70
0
 10
0.2722643113
 20
-64.3365308524
 10
0.2624622726
 20
-64.3268053532
 10
0.2525365142
 20
-64.3176026998
 10
0.2425018186
 20
-64.3089228376
 10
0.2323609724
 20
-64.3007681575
 10
0.2221486791
 20
-64.2930856263
 10
0.2118741409
 20
-64.2858724668
 10
0.2015438884
 20
-64.2791323843
 10
0.1911872095
 20
-64.2728211566
 10
0.1808182976
 20
-64.2669237926
 10
0.1704369111
 20
-64.2614549221
 10
0.1600499566
 20
-64.2564142833
  0
LINE
  5
29A
100
AcDbEntity
  8
RACCORDO
100
AcDbLine
 62
250
  6
CONTINUOUS
 10
-0.9931225849
 20
-65.1258525313
 11
-1.0125145111
 21
-65.103902188
  0
LINE
  5
29B
100
AcDbEntity
  8
RACCORDO
100
AcDbLine
 62
250
  6
CONTINUOUS
 10
0.9931225849
 20
-67.3741474687
 11
1.0125145111
 21
-67.396097812
  0
LINE
  5
29C
100
AcDbEntity
  8
RACCORDO
100
AcDbLine
 62
250
  6
CONTINUOUS
 10
-1.5251919894
 20
-65.9135587665
 11
-1.498807076
 21
-65.9461856177
  0
LWPOLYLINE
  5
29D
100
AcDbEntity
  8
RACCORDO
100
AcDbPolyline
 62
7
  6
CONTINUOUS
 90
6
 70
0
 10
-1.6464833138
 20
-67.385382218
 10
-1.6640110939
 20
-67.3636940701
 10
-1.6815524562
 20
-67.3404901833
 10
-1.6991074006
 20
-67.3157705575
 10
-1.7171061575
 20
-67.2894152868
 10
-1.7351184965
 20
-67.2615442772
  0
LINE
  5
29E
100
AcDbEntity
  8
RACCORDO
100
AcDbLine
 62
250
  6
CONTINUOUS
 10
1.5503933154
 20
-66.6179502097
 11
1.498807076
 21
-66.5538143823
  0
LINE
  5
29F
100
AcDbEntity
  8
RACCORDO
100
AcDbLine
 62
250
  6
CONTINUOUS
 10
-1.6514243699
 20
-65.7555593367
 11
-1.5251919894
 21
-65.9135587665
  0
LWPOLYLINE
  5
2A0
100
AcDbEntity
  8
RACCORDO
100
AcDbPolyline
 62
250
  6
CONTINUOUS
 90
3
 70
0
 10
-1.7226152207
 20
-65.6662006639
 10
-1.6754850097
 20
-65.7252204639
 10
-1.6514243699
 20
-65.7555593367
  0
LWPOLYLINE
  5
2A1
100
AcDbEntity
  8
RACCORDO
100
AcDbPolyline
 62
250
  6
CONTINUOUS
 90
4
 70
0
 10
1.7226152207
 20
-66.8337993361
 10
1.6752278489
 20
-66.7744605814
 10
1.6510296382
 20
-66.7439459688
 10
1.5503933154
 20
-66.6179502097
  0
LINE
  5
2A2
100
AcDbEntity
  8
RACCORDO
100
AcDbLine
 62
7
  6
CONTINUOUS
 10
-1.7102491885
 20
-65.5826284287
 11
-1.488772994
 21
-65.8712618249
  0
LINE
  5
2A3
100
AcDbEntity
  8
RACCORDO
100
AcDbLine
 62
250
  6
CONTINUOUS
 10
-1.7326959257
 20
-65.6528797187
 11
-1.7226152207
 21
-65.6662006639
  0
LINE
  5
2A4
100
AcDbEntity
  8
RACCORDO
100
AcDbLine
 62
7
  6
CONTINUOUS
 10
-1.7466194637
 20
67.2423756173
 11
-1.7358318427
 21
67.260842084
  0
LINE
  5
2A5
100
AcDbEntity
  8
RACCORDO
100
AcDbLine
 62
250
  6
CONTINUOUS
 10
-1.4930320208
 20
66.5631743218
 11
-1.498807076
 21
66.5538143823
  0
LWPOLYLINE
  5
2A6
100
AcDbEntity
  8
RACCORDO
100
AcDbPolyline
 62
250
  6
CONTINUOUS
 90
10
 70
0
 10
-1.7102492318
 20
65.5826284621
 10
-1.7058844035
 20
65.5896952879
 10
-1.7029243426
 20
65.5976651864
 10
-1.7014187162
 20
65.6064043905
 10
-1.7013927812
 20
65.6157662284
 10
-1.7028469616
 20
65.6255935717
 10
-1.7057568339
 20
65.6357214702
 10
-1.7100735413
 20
65.6459799418
 10
-1.7157246214
 20
65.6561968275
 10
-1.7226152184
 20
65.6662006647
  0
LWPOLYLINE
  5
2A7
100
AcDbEntity
  8
RACCORDO
100
AcDbPolyline
 62
250
  6
CONTINUOUS
 90
10
 70
0
 10
1.710249202
 20
66.9173715607
 10
1.7058843745
 20
66.9103047299
 10
1.7029243143
 20
66.902334827
 10
1.7014186886
 20
66.893595619
 10
1.7013927543
 20
66.8842337778
 10
1.7028469355
 20
66.8744064318
 10
1.705756809
 20
66.8642785308
 10
1.7100735183
 20
66.8540200567
 10
1.7157246011
 20
66.8438031688
 10
1.722615202
 20
66.8337993297
  0
LWPOLYLINE
  5
2A8
100
AcDbEntity
  8
RACCORDO
100
AcDbPolyline
 62
7
  6
CONTINUOUS
 90
4
 70
0
 10
-1.7358318427
 20
67.260842084
 10
-1.724847217
 20
67.2785748953
 10
-1.7136655866
 20
67.2955740514
 10
-1.7021370248
 20
67.3117204614
  0
LWPOLYLINE
  5
2A9
100
AcDbEntity
  8
RACCORDO
100
AcDbPolyline
 62
250
  6
CONTINUOUS
 90
9
 70
0
 10
-1.488772994
 20
65.8712618249
 10
-1.4848396193
 20
65.8775718309
 10
-1.4822232901
 20
65.8845517662
 10
-1.4809286268
 20
65.8921688977
 10
-1.4808513683
 20
65.9004286078
 10
-1.4819750808
 20
65.9092102948
 10
-1.4844248149
 20
65.918275497
 10
-1.4881807921
 20
65.9274916145
 10
-1.4930320011
 20
65.9368256507
  0
LWPOLYLINE
  5
2AA
100
AcDbEntity
  8
RACCORDO
100
AcDbPolyline
 62
250
  6
CONTINUOUS
 90
9
 70
0
 10
1.488772994
 20
66.6287381751
 10
1.4848396132
 20
66.6224281569
 10
1.482223284
 20
66.6154482109
 10
1.4809286248
 20
66.6078310713
 10
1.4808513721
 20
66.5995713565
 10
1.4819750898
 20
66.5907896688
 10
1.4844248272
 20
66.5817244699
 10
1.4881808047
 20
66.5725083594
 10
1.4930320098
 20
66.5631743343
  0
LWPOLYLINE
  5
2AB
100
AcDbEntity
  8
RACCORDO
100
AcDbPolyline
 62
7
  6
CONTINUOUS
 90
5
 70
0
 10
1.6464833027
 20
65.1146177768
 10
1.652877098
 20
65.1234547641
 10
1.6595320448
 20
65.1324856865
 10
1.6664481428
 20
65.1417105441
 10
1.6736709638
 20
65.1510851633
  0
LINE
  5
2AC
100
AcDbEntity
  8
RACCORDO
100
AcDbLine
 62
7
  6
CONTINUOUS
 10
1.488772994
 20
66.6287381751
 11
1.7102491885
 21
66.9173715713
  0
LWPOLYLINE
  5
2AD
100
AcDbEntity
  8
RACCORDO
100
AcDbPolyline
 62
250
  6
CONTINUOUS
 90
4
 70
0
 10
1.7226152207
 20
66.8337993361
 10
1.7336914012
 20
66.8480642359
 10
1.744442531
 20
66.8637451982
 10
1.7548332584
 20
66.8808673073
  0
LWPOLYLINE
  5
2AE
100
AcDbEntity
  8
RACCORDO
100
AcDbPolyline
 62
7
  6
CONTINUOUS
 90
9
 70
0
 10
1.6736709638
 20
65.1510851633
 10
1.6811549362
 20
65.1606537177
 10
1.6887633447
 20
65.1705487283
 10
1.6964951061
 20
65.1807701891
 10
1.7043513036
 20
65.1913181062
 10
1.712198472
 20
65.2023250178
 10
1.7199921229
 20
65.2138351036
 10
1.7277767447
 20
65.2258041841
 10
1.7355523374
 20
65.2382322591
  0
LINE
  5
2AF
100
AcDbEntity
  8
RACCORDO
100
AcDbLine
 62
250
  6
CONTINUOUS
 10
1.6510430927
 20
66.7439627396
 11
1.6752384478
 21
66.7744741415
  0
LWPOLYLINE
  5
2B0
100
AcDbEntity
  8
0
100
AcDbPolyline
 62
7
  6
CONTINUOUS
 90
10
 70
0
 43
0.3500000019
 10
-79.1500003052
 20
1.8214285278
 10
-79.0071426392
 20
1.892857193
 10
-78.9357144775
 20
1.892857193
 10
-78.7928568115
 20
1.7500000305
 10
-78.7928568115
 20
1.6785713654
 10
-78.8642856445
 20
1.607142868
 10
-78.9357144775
 20
1.607142868
 10
-79.0785714722
 20
1.6785713654
 10
-79.1500003052
 20
1.7500000305
 10
-79.1500003052
 20
1.8214285278
  0
LWPOLYLINE
  5
2B1
100
AcDbEntity
  8
RACCORDO
100
AcDbPolyline
 62
7
  6
CONTINUOUS
 90
5
 70
0
 10
1.6737647199
 20
-65.1511973346
 10
1.6665094366
 20
-65.1417808771
 10
1.6595617815
 20
-65.132515899
 10
1.6528778927
 20
-65.1234499882
 10
1.6464577701
 20
-65.1145831447
  0
LINE
  5
2B2
100
AcDbEntity
  8
RACCORDO
100
AcDbLine
 62
7
  6
CONTINUOUS
 10
1.7102491885
 20
-66.9173715713
 11
1.488772994
 21
-66.6287381751
  0
LINE
  5
2B3
100
AcDbEntity
  8
RACCORDO
100
AcDbLine
 62
250
  6
CONTINUOUS
 10
1.7357886037
 20
-66.8514893207
 11
1.7226152207
 21
-66.8337993361
  0
LWPOLYLINE
  5
2B4
100
AcDbEntity
  8
RACCORDO
100
AcDbPolyline
 62
7
  6
CONTINUOUS
 90
6
 70
0
 10
1.7125501809
 20
-65.2028360317
 10
1.7046371301
 20
-65.1917150519
 10
1.6967199745
 20
-65.181071718
 10
1.688934999
 20
-65.1707702151
 10
1.6812837694
 20
-65.1608128594
 10
1.6737647199
 20
-65.1511973346
  0
LWPOLYLINE
  5
2B5
100
AcDbEntity
  8
RACCORDO
100
AcDbPolyline
 62
250
  6
CONTINUOUS
 90
6
 70
0
 10
-0.3178781661
 20
-68.1066005439
 10
-0.309012796
 20
-68.1195098869
 10
-0.299884908
 20
-68.1317273699
 10
-0.2904814883
 20
-68.1432939619
 10
-0.2809237478
 20
-68.1542313043
 10
-0.2712491017
 20
-68.1645168586
  0
LWPOLYLINE
  5
2B6
100
AcDbEntity
  8
RACCORDO
100
AcDbPolyline
 62
250
  6
CONTINUOUS
 90
6
 70
0
 10
0.3182411295
 20
-64.3939366275
 10
0.3095565678
 20
-64.3812492938
 10
0.3005898293
 20
-64.3691804361
 10
0.2913375173
 20
-64.3577205642
 10
0.2818886452
 20
-64.3468346134
 10
0.2722643113
 20
-64.3365308524
  0
LWPOLYLINE
  5
2B7
100
AcDbEntity
  8
RACCORDO
100
AcDbPolyline
 62
250
  6
CONTINUOUS
 90
9
 70
0
 10
-1.4887729939
 20
-65.871261825
 10
-1.4848396121
 20
-65.8775718468
 10
-1.4822232846
 20
-65.884551797
 10
-1.4809286287
 20
-65.8921689411
 10
-1.4808513804
 20
-65.9004286613
 10
-1.4819751029
 20
-65.9092103542
 10
-1.4844248437
 20
-65.9182755546
 10
-1.4881808209
 20
-65.9274916612
 10
-1.4930320208
 20
-65.9368256782
  0
LWPOLYLINE
  5
2B8
100
AcDbEntity
  8
RACCORDO
100
AcDbPolyline
 62
250
  6
CONTINUOUS
 90
9
 70
0
 10
1.4887729939
 20
-66.628738175
 10
1.4848396121
 20
-66.6224281532
 10
1.4822232846
 20
-66.615448203
 10
1.4809286287
 20
-66.6078310589
 10
1.4808513804
 20
-66.5995713387
 10
1.4819751029
 20
-66.5907896458
 10
1.4844248437
 20
-66.5817244454
 10
1.4881808209
 20
-66.5725083388
 10
1.4930320208
 20
-66.5631743218
  0
LWPOLYLINE
  5
2B9
100
AcDbEntity
  8
RACCORDO
100
AcDbPolyline
 62
250
  6
CONTINUOUS
 90
10
 70
0
 10
-1.7102491334
 20
-65.5826283864
 10
-1.7058844254
 20
-65.589695148
 10
-1.7029244377
 20
-65.5976649739
 10
-1.7014188471
 20
-65.6064041084
 10
-1.7013929215
 20
-65.6157658849
 10
-1.7028470962
 20
-65.6255931871
 10
-1.7057569661
 20
-65.6357210859
 10
-1.7100736957
 20
-65.6459796074
 10
-1.7157248387
 20
-65.6561965854
 10
-1.7226155534
 20
-65.6662005511
  0
LWPOLYLINE
  5
2BA
100
AcDbEntity
  8
RACCORDO
100
AcDbPolyline
 62
250
  6
CONTINUOUS
 90
10
 70
0
 10
1.7102491323
 20
-66.9173716144
 10
1.705884426
 20
-66.9103048522
 10
1.7029244399
 20
-66.9023350259
 10
1.7014188507
 20
-66.8935958913
 10
1.7013929263
 20
-66.8842341149
 10
1.702847102
 20
-66.874406813
 10
1.7057569727
 20
-66.8642789146
 10
1.7100737029
 20
-66.8540203938
 10
1.7157248463
 20
-66.8438034164
 10
1.7226155612
 20
-66.8337994515
  0
LINE
  5
2BB
100
AcDbEntity
  8
RACCORDO
100
AcDbLine
 62
250
  6
CONTINUOUS
 10
-1.4930320011
 20
-66.5631743493
 11
-1.498807076
 21
-66.5538143823
  0
LWPOLYLINE
  5
2BC
100
AcDbEntity
  8
RACCORDO
100
AcDbPolyline
 62
7
  6
CONTINUOUS
 90
4
 70
0
 10
-1.7351184965
 20
-67.2615442772
 10
-1.7518537264
 20
-67.2325172462
 10
-1.7668816168
 20
-67.2024540996
 10
-1.7806323982
 20
-67.1712349316
  0
LWPOLYLINE
  5
2BD
100
AcDbEntity
  8
0
100
AcDbPolyline
 62
7
  6
CONTINUOUS
 90
3
 70
0
 43
0.3500000019
 10
1.5714311523
 20
92.6357158203
 10
1.5000009766
 20
92.4214306641
 10
1.357140625
 20
92.1357099609
  0
LINE
  5
2BE
100
AcDbEntity
  8
RACCORDO
100
AcDbLine
 62
250
  6
CONTINUOUS
 10
-0.3491909953
 20
68.0491963117
 11
-0.3557225545
 21
68.0337282101
  0
LWPOLYLINE
  5
2BF
100
AcDbEntity
  8
RACCORDO
100
AcDbPolyline
 62
7
  6
CONTINUOUS
 90
3
 70
0
 10
-1.7944909561
 20
67.1360414846
 10
-1.788359948
 20
67.1504425479
 10
-1.7760983298
 20
67.1803018401
  0
LINE
  5
2C0
100
AcDbEntity
  8
RACCORDO
100
AcDbLine
 62
7
  6
CONTINUOUS
 10
-1.8065115546
 20
67.1082051348
 11
-1.7944909561
 21
67.1360414846
  0
LWPOLYLINE
  5
2C1
100
AcDbEntity
  8
RACCORDO
100
AcDbPolyline
 62
7
  6
CONTINUOUS
 90
4
 70
0
 10
-1.7760983298
 20
67.1803018401
 10
-1.7694840883
 20
67.1955772915
 10
-1.7623057429
 20
67.210991891
 10
-1.7546842014
 20
67.2265913329
  0
LINE
  5
2C2
100
AcDbEntity
  8
RACCORDO
100
AcDbLine
 62
7
  6
CONTINUOUS
 10
-1.7546842014
 20
67.2265913329
 11
-1.7466194637
 21
67.2423756173
  0
LWPOLYLINE
  5
2C3
100
AcDbEntity
  8
RACCORDO
100
AcDbPolyline
 62
250
  6
CONTINUOUS
 90
9
 70
0
 10
-0.416389616
 20
67.7286843207
 10
-0.4198875643
 20
67.7221229012
 10
-0.4246242147
 20
67.71636712
 10
-0.4305735271
 20
67.7114373431
 10
-0.4376880305
 20
67.707240584
 10
-0.4458550608
 20
67.7038229098
 10
-0.4549306251
 20
67.7014118473
 10
-0.4647899962
 20
67.7000565657
 10
-0.4752990919
 20
67.6995908196
  0
LWPOLYLINE
  5
2C4
100
AcDbEntity
  8
RACCORDO
100
AcDbPolyline
 62
250
  6
CONTINUOUS
 90
9
 70
0
 10
0.416389616
 20
64.7713156793
 10
0.4198875643
 20
64.7778770988
 10
0.4246242147
 20
64.78363288
 10
0.4305735271
 20
64.7885626569
 10
0.4376880305
 20
64.792759416
 10
0.4458550608
 20
64.7961770902
 10
0.4549306251
 20
64.7985881527
 10
0.4647899962
 20
64.7999434343
 10
0.4752990919
 20
64.8004091804
  0
LWPOLYLINE
  5
2C5
100
AcDbEntity
  8
RACCORDO
100
AcDbPolyline
 62
250
  6
CONTINUOUS
 90
10
 70
0
 10
-0.2771637943
 20
68.0648050026
 10
-0.2811014368
 20
68.057491675
 10
-0.2865235157
 20
68.0509433387
 10
-0.2933390337
 20
68.0452698928
 10
-0.3014336077
 20
68.0405665535
 10
-0.3106713887
 20
68.0369122556
 10
-0.3208973413
 20
68.0343683283
 10
-0.3319398461
 20
68.032977466
 10
-0.3436135797
 20
68.032763011
 10
-0.3557226248
 20
68.0337285627
  0
LWPOLYLINE
  5
2C6
100
AcDbEntity
  8
RACCORDO
100
AcDbPolyline
 62
250
  6
CONTINUOUS
 90
10
 70
0
 10
0.2771637943
 20
64.4351949974
 10
0.2811014368
 20
64.442508325
 10
0.2865235157
 20
64.4490566613
 10
0.2933390337
 20
64.4547301072
 10
0.3014336077
 20
64.4594334465
 10
0.3106713887
 20
64.4630877444
 10
0.3208973413
 20
64.4656316717
 10
0.3319398461
 20
64.467022534
 10
0.3436135797
 20
64.467236989
 10
0.3557226248
 20
64.4662714373
  0
LINE
  5
2C7
100
AcDbEntity
  8
RACCORDO
100
AcDbLine
 62
250
  6
CONTINUOUS
 10
-1.0177329342
 20
67.386416482
 11
-1.0125145111
 21
67.396097812
  0
LINE
  5
2C8
100
AcDbEntity
  8
RACCORDO
100
AcDbLine
 62
250
  6
CONTINUOUS
 10
1.0177329342
 20
65.113583518
 11
1.0125145111
 21
65.103902188
  0
LWPOLYLINE
  5
2C9
100
AcDbEntity
  8
RACCORDO
100
AcDbPolyline
 62
250
  6
CONTINUOUS
 90
6
 70
0
 10
-1.7551429498
 20
65.6186026351
 10
-1.7654045826
 20
65.5997379011
 10
-1.7752272932
 20
65.5793032526
 10
-1.7840928022
 20
65.5571192052
 10
-1.7920153544
 20
65.5329324277
 10
-1.7988466183
 20
65.5069606747
  0
LWPOLYLINE
  5
2CA
100
AcDbEntity
  8
RACCORDO
100
AcDbPolyline
 62
250
  6
CONTINUOUS
 90
7
 70
0
 10
1.7548332584
 20
66.8808673073
 10
1.7649607257
 20
66.8993804581
 10
1.7746483442
 20
66.9193831951
 10
1.7834361481
 20
66.9411207347
 10
1.7913592016
 20
66.964698961
 10
1.7982560887
 20
66.9900475865
 10
1.8033554377
 20
67.0171229436
  0
LWPOLYLINE
  5
2CB
100
AcDbEntity
  8
RACCORDO
100
AcDbPolyline
 62
7
  6
CONTINUOUS
 90
4
 70
0
 10
1.7355523374
 20
65.2382322591
 10
1.7437312241
 20
65.2526259205
 10
1.7513692962
 20
65.266763113
 10
1.7584665535
 20
65.2806438365
  0
LINE
  5
2CC
100
AcDbEntity
  8
RACCORDO
100
AcDbLine
 62
250
  6
CONTINUOUS
 10
1.4930320208
 20
65.9368256782
 11
1.498807076
 21
65.9461856177
  0
LWPOLYLINE
  5
2CD
100
AcDbEntity
  8
0
100
AcDbPolyline
 62
7
  6
CONTINUOUS
 90
10
 70
0
 43
0.3500000019
 10
-69.149999939
 20
1.8214285278
 10
-69.0071427765
 20
1.892857193
 10
-68.9357142792
 20
1.892857193
 10
-68.7928571167
 20
1.7500000305
 10
-68.7928571167
 20
1.6785713654
 10
-68.8642857819
 20
1.607142868
 10
-68.9357142792
 20
1.607142868
 10
-69.0785714417
 20
1.6785713654
 10
-69.149999939
 20
1.7500000305
 10
-69.149999939
 20
1.8214285278
  0
LINE
  5
2CE
100
AcDbEntity
  8
RACCORDO
100
AcDbLine
 62
250
  6
CONTINUOUS
 10
10.5815325109
 20
-25.3340692133
 11
11.0753766812
 21
-25.2558519808
  0
LINE
  5
2CF
100
AcDbEntity
  8
RACCORDO
100
AcDbLine
 62
250
  6
CONTINUOUS
 10
-10.5815325109
 20
-25.3340692133
 11
-11.0753766812
 21
-25.2558519808
  0
LWPOLYLINE
  5
2D0
100
AcDbEntity
  8
RACCORDO
100
AcDbPolyline
 62
7
  6
CONTINUOUS
 90
4
 70
0
 10
1.7361284205
 20
-65.2392006616
 10
1.728273112
 20
-65.2266014724
 10
1.7204136988
 20
-65.2144799291
 10
1.7125501809
 20
-65.2028360317
  0
LINE
  5
2D1
100
AcDbEntity
  8
RACCORDO
100
AcDbLine
 62
250
  6
CONTINUOUS
 10
1.4930320098
 20
-65.9368256657
 11
1.498807076
 21
-65.9461856177
  0
LINE
  5
2D2
100
AcDbEntity
  8
RACCORDO
100
AcDbLine
 62
250
  6
CONTINUOUS
 10
-1.0177329289
 20
-67.3864164978
 11
-1.0125145111
 21
-67.396097812
  0
LINE
  5
2D3
100
AcDbEntity
  8
RACCORDO
100
AcDbLine
 62
250
  6
CONTINUOUS
 10
1.0177329289
 20
-65.1135835022
 11
1.0125145111
 21
-65.103902188
  0
LWPOLYLINE
  5
2D4
100
AcDbEntity
  8
RACCORDO
100
AcDbPolyline
 62
250
  6
CONTINUOUS
 90
10
 70
0
 10
-0.2771640195
 20
-68.0648050956
 10
-0.2811016563
 20
-68.0574916222
 10
-0.2865237577
 20
-68.0509431769
 10
-0.2933393108
 20
-68.0452696556
 10
-0.3014339227
 20
-68.0405662669
 10
-0.3106717281
 20
-68.0369119416
 10
-0.3208976639
 20
-68.0343680032
 10
-0.3319400933
 20
-68.0329771308
 10
-0.3436136916
 20
-68.0327626493
 10
-0.355722541
 20
-68.0337281421
  0
LWPOLYLINE
  5
2D5
100
AcDbEntity
  8
RACCORDO
100
AcDbPolyline
 62
250
  6
CONTINUOUS
 90
10
 70
0
 10
0.2771642492
 20
-64.4351948092
 10
0.2811018708
 20
-64.4425082773
 10
0.2865239469
 20
-64.4490567264
 10
0.2933394673
 20
-64.4547302606
 10
0.3014340416
 20
-64.4594336707
 10
0.3106718072
 20
-64.4630880254
 10
0.3208977058
 20
-64.4656320004
 10
0.3319401038
 20
-64.4670229147
 10
0.3436136785
 20
-64.467237441
 10
0.355722514
 20
-64.4662719934
  0
LWPOLYLINE
  5
2D6
100
AcDbEntity
  8
RACCORDO
100
AcDbPolyline
 62
250
  6
CONTINUOUS
 90
9
 70
0
 10
-0.416389616
 20
-67.7286843208
 10
-0.4198875616
 20
-67.722122904
 10
-0.4246242076
 20
-67.7163671235
 10
-0.4305735144
 20
-67.7114373459
 10
-0.4376880109
 20
-67.7072405857
 10
-0.4458550344
 20
-67.70382291
 10
-0.4549305957
 20
-67.7014118453
 10
-0.4647899701
 20
-67.700056562
 10
-0.4752990756
 20
-67.6995908163
  0
LWPOLYLINE
  5
2D7
100
AcDbEntity
  8
RACCORDO
100
AcDbPolyline
 62
250
  6
CONTINUOUS
 90
9
 70
0
 10
0.416389616
 20
-64.7713156792
 10
0.4198875616
 20
-64.777877096
 10
0.4246242076
 20
-64.7836328765
 10
0.4305735144
 20
-64.7885626541
 10
0.4376880109
 20
-64.7927594143
 10
0.4458550344
 20
-64.79617709
 10
0.4549305957
 20
-64.7985881547
 10
0.4647899701
 20
-64.799943438
 10
0.4752990756
 20
-64.8004091837
  0
LWPOLYLINE
  5
2D8
100
AcDbEntity
  8
RACCORDO
100
AcDbPolyline
 62
7
  6
CONTINUOUS
 90
6
 70
0
 10
-1.7989596013
 20
-67.1249717161
 10
-1.8004416796
 20
-67.1215596811
 10
-1.8019353847
 20
-67.1181808567
 10
-1.803441974
 20
-67.1148380374
 10
-1.8049601902
 20
-67.1115284287
 10
-1.8064900332
 20
-67.1082520305
  0
LINE
  5
2D9
100
AcDbEntity
  8
RACCORDO
100
AcDbLine
 62
7
  6
CONTINUOUS
 10
-1.7960177537
 20
-67.1318674724
 11
-1.7989596013
 21
-67.1249717161
  0
LWPOLYLINE
  5
2DA
100
AcDbEntity
  8
RACCORDO
100
AcDbPolyline
 62
250
  6
CONTINUOUS
 90
6
 70
0
 10
-0.3557225545
 20
-68.0337282101
 10
-0.3491479644
 20
-68.049319547
 10
-0.3420851914
 20
-68.064400714
 10
-0.3345369271
 20
-68.0789661641
 10
-0.3264475453
 20
-68.0930473136
 10
-0.3178781661
 20
-68.1066005439
  0
LINE
  5
2DB
100
AcDbEntity
  8
RACCORDO
100
AcDbLine
 62
7
  6
CONTINUOUS
 10
-1.7931060705
 20
-67.1388597421
 11
-1.7960177537
 21
-67.1318674724
  0
LINE
  5
2DC
100
AcDbEntity
  8
RACCORDO
100
AcDbLine
 62
250
  6
CONTINUOUS
 10
-0.4769789731
 20
64.8278568781
 11
-0.4862925649
 21
64.8000878056
  0
LINE
  5
2DD
100
AcDbEntity
  8
RACCORDO
100
AcDbLine
 62
250
  6
CONTINUOUS
 10
0.4769789731
 20
67.6721431219
 11
0.4862925649
 21
67.6999121944
  0
LINE
  5
2DE
100
AcDbEntity
  8
RACCORDO
100
AcDbLine
 62
250
  6
CONTINUOUS
 10
-0.4565424288
 20
67.7766551018
 11
-0.4862925649
 21
67.6999121944
  0
LINE
  5
2DF
100
AcDbEntity
  8
RACCORDO
100
AcDbLine
 62
250
  6
CONTINUOUS
 10
0.4565424288
 20
64.7233448982
 11
0.4862925649
 21
64.8000878056
  0
LWPOLYLINE
  5
2E0
100
AcDbEntity
  8
RACCORDO
100
AcDbPolyline
 62
250
  6
CONTINUOUS
 90
4
 70
0
 10
-0.3557225545
 20
68.0337282101
 10
-0.3834177377
 20
67.963020165
 10
-0.397745062
 20
67.9268065935
 10
-0.4565424288
 20
67.7766551018
  0
LWPOLYLINE
  5
2E1
100
AcDbEntity
  8
RACCORDO
100
AcDbPolyline
 62
250
  6
CONTINUOUS
 90
4
 70
0
 10
0.3557225545
 20
64.4662717899
 10
0.3834177377
 20
64.536979835
 10
0.397745062
 20
64.5731934065
 10
0.4565424288
 20
64.7233448982
  0
LWPOLYLINE
  5
2E2
100
AcDbEntity
  8
RACCORDO
100
AcDbPolyline
 62
7
  6
CONTINUOUS
 90
6
 70
0
 10
1.7818335054
 20
65.3334911023
 10
1.7868464678
 20
65.345913984
 10
1.7917963695
 20
65.3579613012
 10
1.7967645588
 20
65.3696148752
 10
1.8016696873
 20
65.3808928847
 10
1.8065117551
 20
65.3917953298
  0
LINE
  5
2E3
100
AcDbEntity
  8
RACCORDO
100
AcDbLine
 62
7
  6
CONTINUOUS
 10
-0.2771638598
 20
68.0648050297
 11
-0.416389616
 21
67.7286843208
  0
LINE
  5
2E4
100
AcDbEntity
  8
RACCORDO
100
AcDbLine
 62
7
  6
CONTINUOUS
 10
0.2771638598
 20
64.4351949703
 11
0.416389616
 21
64.7713156792
  0
LINE
  5
2E5
100
AcDbEntity
  8
RACCORDO
100
AcDbLine
 62
250
  6
CONTINUOUS
 10
0.3491765847
 20
64.4507727231
 11
0.3557225545
 21
64.4662717899
  0
LWPOLYLINE
  5
2E6
100
AcDbEntity
  8
RACCORDO
100
AcDbPolyline
 62
7
  6
CONTINUOUS
 90
5
 70
0
 10
1.7584665535
 20
65.2806438365
 10
1.7649450931
 20
65.2942896105
 10
1.770882818
 20
65.3076789156
 10
1.7765134372
 20
65.3207471931
 10
1.7818335054
 20
65.3334911023
  0
LWPOLYLINE
  5
2E7
100
AcDbEntity
  8
0
100
AcDbPolyline
 62
7
  6
CONTINUOUS
 90
3
 70
0
 43
0.3500000019
 10
-78.9357144775
 20
1.892857193
 10
-78.7214286499
 20
1.8214285278
 10
-78.4357139893
 20
1.6785713654
  0
LWPOLYLINE
  5
2E8
100
AcDbEntity
  8
0
100
AcDbPolyline
 62
7
  6
CONTINUOUS
 90
3
 70
0
 43
0.3500000019
 10
-68.9357142792
 20
1.892857193
 10
-68.7214286194
 20
1.8214285278
 10
-68.4357142944
 20
1.6785713654
  0
LWPOLYLINE
  5
2E9
100
AcDbEntity
  8
RACCORDO
100
AcDbPolyline
 62
7
  6
CONTINUOUS
 90
6
 70
0
 10
1.8065080523
 20
-65.3917868171
 10
1.8016482945
 20
-65.3808460112
 10
1.7967317196
 20
-65.3695428523
 10
1.7917583276
 20
-65.3578773403
 10
1.7868066108
 20
-65.3458248336
 10
1.781798077
 20
-65.3334099739
  0
LWPOLYLINE
  5
2EA
100
AcDbEntity
  8
RACCORDO
100
AcDbPolyline
 62
250
  6
CONTINUOUS
 90
6
 70
0
 10
0.3557225545
 20
-64.4662717899
 10
0.3491143619
 20
-64.4506370793
 10
0.3420645938
 20
-64.4355812871
 10
0.3345783054
 20
-64.4211094385
 10
0.3266225904
 20
-64.4072257116
 10
0.3182411295
 20
-64.3939366275
  0
LWPOLYLINE
  5
2EB
100
AcDbEntity
  8
RACCORDO
100
AcDbPolyline
 62
7
  6
CONTINUOUS
 90
8
 70
0
 10
1.781798077
 20
-65.3334099739
 10
1.7764972493
 20
-65.3207066863
 10
1.7708980329
 20
-65.3077165446
 10
1.7650065227
 20
-65.294437975
 10
1.7586055256
 20
-65.2809401816
 10
1.7516226441
 20
-65.2672462322
 10
1.7441302757
 20
-65.2533330588
 10
1.7361284205
 20
-65.2392006616
  0
LINE
  5
2EC
100
AcDbEntity
  8
RACCORDO
100
AcDbLine
 62
7
  6
CONTINUOUS
 10
-0.416389616
 20
-67.7286843208
 11
-0.2771638598
 21
-68.0648050297
  0
LINE
  5
2ED
100
AcDbEntity
  8
RACCORDO
100
AcDbLine
 62
7
  6
CONTINUOUS
 10
0.416389616
 20
-64.7713156792
 11
0.2771638598
 21
-64.4351949703
  0
LWPOLYLINE
  5
2EE
100
AcDbEntity
  8
RACCORDO
100
AcDbPolyline
 62
250
  6
CONTINUOUS
 90
3
 70
0
 10
-0.4714464077
 20
-67.7384364432
 10
-0.4122381749
 20
-67.8899106463
 10
-0.3693791984
 20
-67.9986656808
  0
LWPOLYLINE
  5
2EF
100
AcDbEntity
  8
RACCORDO
100
AcDbPolyline
 62
250
  6
CONTINUOUS
 90
3
 70
0
 10
0.4714464077
 20
-64.7615635568
 10
0.4122381749
 20
-64.6100893537
 10
0.3693791984
 20
-64.5013343192
  0
LINE
  5
2F0
100
AcDbEntity
  8
RACCORDO
100
AcDbLine
 62
250
  6
CONTINUOUS
 10
-0.3693791984
 20
-67.9986656808
 11
-0.3557225545
 21
-68.0337282101
  0
LINE
  5
2F1
100
AcDbEntity
  8
RACCORDO
100
AcDbLine
 62
250
  6
CONTINUOUS
 10
0.3693791984
 20
-64.5013343192
 11
0.3557225545
 21
-64.4662717899
  0
LINE
  5
2F2
100
AcDbEntity
  8
RACCORDO
100
AcDbLine
 62
7
  6
CONTINUOUS
 10
-1.7806323982
 20
-67.1712349316
 11
-1.7931060705
 21
-67.1388597421
  0
LINE
  5
2F3
100
AcDbEntity
  8
RACCORDO
100
AcDbLine
 62
250
  6
CONTINUOUS
 10
-0.4862925649
 20
-67.6999121944
 11
-0.4714464077
 21
-67.7384364432
  0
LINE
  5
2F4
100
AcDbEntity
  8
RACCORDO
100
AcDbLine
 62
250
  6
CONTINUOUS
 10
0.4862925649
 20
-64.8000878056
 11
0.4714464077
 21
-64.7615635568
  0
LINE
  5
2F5
100
AcDbEntity
  8
RACCORDO
100
AcDbLine
 62
250
  6
CONTINUOUS
 10
-0.4769789667
 20
-64.8278568759
 11
-0.4862925635
 21
-64.8000878035
  0
LINE
  5
2F6
100
AcDbEntity
  8
RACCORDO
100
AcDbLine
 62
250
  6
CONTINUOUS
 10
0.4769789711
 20
-67.6721431226
 11
0.4862925649
 21
-67.6999121944
  0
LWPOLYLINE
  5
2F7
100
AcDbEntity
  8
RACCORDO
100
AcDbPolyline
 62
250
  6
CONTINUOUS
 90
5
 70
0
 10
-1.7988466183
 20
65.5069606747
 10
-1.8038311296
 20
65.4797699457
 10
-1.8066909963
 20
65.4515818802
 10
-1.8076027958
 20
65.4222417417
 10
-1.8065117187
 20
65.3917904347
  0
LINE
  5
2F8
100
AcDbEntity
  8
RACCORDO
100
AcDbLine
 62
250
  6
CONTINUOUS
 10
8.4941197291
 20
-12.1546636007
 11
8.9879638994
 21
-12.0764463681
  0
LINE
  5
2F9
100
AcDbEntity
  8
RACCORDO
100
AcDbLine
 62
250
  6
CONTINUOUS
 10
-8.4941197291
 20
-12.1546636007
 11
-8.9879638994
 21
-12.0764463681
  0
LWPOLYLINE
  5
2FA
100
AcDbEntity
  8
RACCORDO
100
AcDbPolyline
 62
250
  6
CONTINUOUS
 90
9
 70
0
 10
1.8002648635
 20
-66.9998846503
 10
1.7959707396
 20
-66.9811448357
 10
1.7906871707
 20
-66.9623162866
 10
1.7843242201
 20
-66.9435216529
 10
1.7768860233
 20
-66.9247708168
 10
1.7683710035
 20
-66.9060904812
 10
1.7586887691
 20
-66.8876262976
 10
1.7478153729
 20
-66.8694357261
 10
1.7357886037
 20
-66.8514893207
  0
LWPOLYLINE
  5
2FB
100
AcDbEntity
  8
RACCORDO
100
AcDbPolyline
 62
250
  6
CONTINUOUS
 90
13
 70
0
 10
-1.8021202323
 20
-65.4903420744
 10
-1.7995600935
 20
-65.5035179033
 10
-1.7964806507
 20
-65.5168495695
 10
-1.7928789907
 20
-65.530321124
 10
-1.7886973965
 20
-65.5438787763
 10
-1.783934149
 20
-65.5575181862
 10
-1.7785874816
 20
-65.5712266578
 10
-1.7726022585
 20
-65.5849378677
 10
-1.7659826709
 20
-65.5986434155
 10
-1.7587245816
 20
-65.6123356728
 10
-1.7507633589
 20
-65.6259501257
 10
-1.7420792767
 20
-65.6394607424
 10
-1.7326959257
 20
-65.6528797187
  0
LWPOLYLINE
  5
2FC
100
AcDbEntity
  8
RACCORDO
100
AcDbPolyline
 62
250
  6
CONTINUOUS
 90
9
 70
0
 10
-1.8065116864
 20
67.1082048346
 10
-1.8073491302
 20
67.0966211957
 10
-1.8078062142
 20
67.0848165281
 10
-1.807879017
 20
67.072796876
 10
-1.8075810003
 20
67.060570206
 10
-1.806890928
 20
67.0481408685
 10
-1.8057528351
 20
67.0355104264
 10
-1.8041644292
 20
67.0226773314
 10
-1.8021202323
 20
67.0096579256
  0
LINE
  5
2FD
100
AcDbEntity
  8
RACCORDO
100
AcDbLine
 62
7
  6
CONTINUOUS
 10
-8.9879638994
 20
-12.0764463681
 11
-11.0753766812
 21
-25.2558519808
  0
LINE
  5
2FE
100
AcDbEntity
  8
RACCORDO
100
AcDbLine
 62
250
  6
CONTINUOUS
 10
-8.4941197291
 20
-12.1546636007
 11
-10.5815325109
 21
-25.3340692133
  0
LINE
  5
2FF
100
AcDbEntity
  8
ASSI
100
AcDbLine
 62
7
  6
CONTINUOUS
 10
-1.0
 20
-12.0
 11
1.0
 21
-12.0
  0
LINE
  5
300
100
AcDbEntity
  8
SMUSSO
100
AcDbLine
 62
7
  6
CONTINUOUS
 10
-1.0
 20
-8.5210442862
 11
-1.6442307692
 21
-8.0422985445
  0
LINE
  5
301
100
AcDbEntity
  8
SMUSSO
100
AcDbLine
 62
7
  6
CONTINUOUS
 10
-1.0
 20
-8.5210442862
 11
-1.0
 21
-8.8645843496
  0
LINE
  5
302
100
AcDbEntity
  8
ASSI
100
AcDbLine
 62
7
  6
CONTINUOUS
 10
-1.0
 20
-8.8645843496
 11
-1.0
 21
-12.0
  0
LWPOLYLINE
  5
303
100
AcDbEntity
  8
RACCORDO
100
AcDbPolyline
 62
250
  6
CONTINUOUS
 90
7
 70
0
 10
1.8065202048
 20
65.3918131665
 10
1.8076555471
 20
65.4091447545
 10
1.8079299992
 20
65.4267891383
 10
1.8073356547
 20
65.4447274994
 10
1.8058961843
 20
65.4629768794
 10
1.8035721581
 20
65.4814821229
 10
1.8002648635
 20
65.5001153497
  0
LINE
  5
304
100
AcDbEntity
  8
ASSI
100
AcDbLine
 62
7
  6
CONTINUOUS
 10
-1.5
 20
11.5377223398
 11
-2.2
 21
3.7
  0
LINE
  5
305
100
AcDbEntity
  8
RACCORDO
100
AcDbLine
 62
7
  6
CONTINUOUS
 10
-2.1821376678
 20
3.7
 11
-1.5180350957
 21
11.1357879511
  0
LWPOLYLINE
  5
306
100
AcDbEntity
  8
RACCORDO
100
AcDbPolyline
 62
250
  6
CONTINUOUS
 90
4
 70
0
 10
1.8033554377
 20
67.0171229436
 10
1.806348596
 20
67.0458893449
 10
1.8073904864
 20
67.0763384464
 10
1.8063984197
 20
67.1084368131
  0
LINE
  5
307
100
AcDbEntity
  8
RACCORDO
100
AcDbLine
 62
250
  6
CONTINUOUS
 10
-9.621040843
 20
-26.9753183799
 11
-9.7947211241
 21
-27.4441842029
  0
LWPOLYLINE
  5
308
100
AcDbEntity
  8
0
100
AcDbPolyline
 62
7
  6
CONTINUOUS
 90
4
 70
0
 43
0.3500000019
 10
-81.0071425781
 20
-1.1785714645
 10
-81.650000061
 20
-1.1785714645
 10
-81.650000061
 20
0.3214285736
 10
-78.6499998169
 20
-0.5357142754
  0
LINE
  5
309
100
AcDbEntity
  8
RACCORDO
100
AcDbLine
 62
250
  6
CONTINUOUS
 10
9.621040843
 20
-26.9753183799
 11
9.7947211212
 21
-27.444184204
  0
LINE
  5
30A
100
AcDbEntity
  8
RACCORDO
100
AcDbLine
 62
7
  6
CONTINUOUS
 10
1.5180350957
 20
11.1357879511
 11
2.1756858475
 21
3.7722393943
  0
LINE
  5
30B
100
AcDbEntity
  8
ASSI
100
AcDbLine
 62
7
  6
CONTINUOUS
 10
2.2
 20
3.7
 11
1.5
 21
11.5377223398
  0
LINE
  5
30C
100
AcDbEntity
  8
ASSI
100
AcDbLine
 62
7
  6
CONTINUOUS
 10
1.0
 20
-12.0
 11
1.0
 21
-8.6
  0
LINE
  5
30D
100
AcDbEntity
  8
SMUSSO
100
AcDbLine
 62
7
  6
CONTINUOUS
 10
1.0
 20
-8.5210442862
 11
1.0
 21
-8.6
  0
LWPOLYLINE
  5
30E
100
AcDbEntity
  8
0
100
AcDbPolyline
 62
7
  6
CONTINUOUS
 90
4
 70
0
 43
0.3500000019
 10
2.5714267578
 20
92.7785761719
 10
2.5714267578
 20
93.6357167969
 10
3.0000024414
 20
94.0642871094
 10
3.6428579102
 20
94.0642871094
  0
LWPOLYLINE
  5
30F
100
AcDbEntity
  8
RACCORDO
100
AcDbPolyline
 62
250
  6
CONTINUOUS
 90
7
 70
0
 10
1.8065202048
 20
-67.1081868335
 10
1.8076555471
 20
-67.0908552455
 10
1.8079299992
 20
-67.0732108617
 10
1.8073356547
 20
-67.0552725006
 10
1.8058961843
 20
-67.0370231206
 10
1.8035721581
 20
-67.0185178771
 10
1.8002648635
 20
-66.9998846503
  0
LWPOLYLINE
  5
310
100
AcDbEntity
  8
RACCORDO
100
AcDbPolyline
 62
250
  6
CONTINUOUS
 90
9
 70
0
 10
-1.8065116864
 20
-65.3917951654
 10
-1.8073491302
 20
-65.4033788043
 10
-1.8078062142
 20
-65.4151834719
 10
-1.807879017
 20
-65.427203124
 10
-1.8075810003
 20
-65.439429794
 10
-1.806890928
 20
-65.4518591315
 10
-1.8057528351
 20
-65.4644895736
 10
-1.8041644292
 20
-65.4773226686
 10
-1.8021202323
 20
-65.4903420744
  0
LINE
  5
311
100
AcDbEntity
  8
SMUSSO
100
AcDbLine
 62
7
  6
CONTINUOUS
 10
1.6442307692
 20
-8.0422985445
 11
1.0
 21
-8.5210442862
  0
LINE
  5
312
100
AcDbEntity
  8
RACCORDO
100
AcDbLine
 62
250
  6
CONTINUOUS
 10
2.193406827
 20
3.7738220844
 11
2.1756858475
 21
3.7722393943
  0
LINE
  5
313
100
AcDbEntity
  8
ASSI
100
AcDbLine
 62
7
  6
CONTINUOUS
 10
-2.2
 20
3.7
 11
2.2
 21
3.7
  0
LINE
  5
314
100
AcDbEntity
  8
RACCORDO
100
AcDbLine
 62
250
  6
CONTINUOUS
 10
-2.1113427309
 20
4.6926729407
 11
-2.0936217514
 21
4.6910902506
  0
LINE
  5
315
100
AcDbEntity
  8
RACCORDO
100
AcDbLine
 62
250
  6
CONTINUOUS
 10
10.5815325109
 20
-25.3340692133
 11
8.4941197291
 21
-12.1546636007
  0
LINE
  5
316
100
AcDbEntity
  8
RACCORDO
100
AcDbLine
 62
7
  6
CONTINUOUS
 10
11.0753766812
 20
-25.2558519808
 11
8.9879638994
 21
-12.0764463681
  0
LWPOLYLINE
  5
317
100
AcDbEntity
  8
RACCORDO
100
AcDbPolyline
 62
250
  6
CONTINUOUS
 90
4
 70
0
 10
1.8033554377
 20
-65.4828770564
 10
1.806348596
 20
-65.4541106551
 10
1.8073904864
 20
-65.4236615536
 10
1.8063984197
 20
-65.3915631869
  0
LWPOLYLINE
  5
318
100
AcDbEntity
  8
RACCORDO
100
AcDbPolyline
 62
250
  6
CONTINUOUS
 90
5
 70
0
 10
-1.7988466183
 20
-66.9930393253
 10
-1.8038311296
 20
-67.0202300543
 10
-1.8066909963
 20
-67.0484181198
 10
-1.8076027958
 20
-67.0777582583
 10
-1.8065117187
 20
-67.1082095653
  0
LINE
  5
319
100
AcDbEntity
  8
RACCORDO
100
AcDbLine
 62
250
  6
CONTINUOUS
 10
1.5357560752
 20
11.1373706412
 11
1.5180350957
 21
11.1357879511
  0
LINE
  5
31A
100
AcDbEntity
  8
RACCORDO
100
AcDbLine
 62
250
  6
CONTINUOUS
 10
-1.5357560752
 20
11.1373706412
 11
-1.5180350957
 21
11.1357879511
  0
LWPOLYLINE
  5
31B
100
AcDbEntity
  8
RACCORDO
100
AcDbPolyline
 62
250
  6
CONTINUOUS
 90
9
 70
0
 10
-3.2562226182
 20
15.9784050795
 10
-3.2560762304
 20
15.9783389566
 10
-3.2392860247
 20
15.9703872232
 10
-3.2243741124
 20
15.963615289
 10
-3.2113722387
 20
15.9579441777
 10
-3.2010060802
 20
15.9530110666
 10
-3.1935616901
 20
15.9490344319
 10
-3.1889101046
 20
15.9467625047
 10
-3.1870292681
 20
15.9466666667
  0
LWPOLYLINE
  5
31C
100
AcDbEntity
  8
RACCORDO
100
AcDbPolyline
 62
250
  6
CONTINUOUS
 90
13
 70
0
 10
-1.8021202323
 20
67.0096579256
 10
-1.7995600935
 20
66.9964820967
 10
-1.7964806507
 20
66.9831504305
 10
-1.7928789907
 20
66.969678876
 10
-1.7886973965
 20
66.9561212237
 10
-1.783934149
 20
66.9424818138
 10
-1.7785874816
 20
66.9287733422
 10
-1.7726022585
 20
66.9150621323
 10
-1.7659826709
 20
66.9013565845
 10
-1.7587245816
 20
66.8876643272
 10
-1.7507633589
 20
66.8740498743
 10
-1.7420792767
 20
66.8605392576
 10
-1.7326959257
 20
66.8471202813
  0
LINE
  5
31D
100
AcDbEntity
  8
RACCORDO
100
AcDbLine
 62
250
  6
CONTINUOUS
 10
0.4769789731
 20
-64.8278568781
 11
0.4862925649
 21
-64.8000878056
  0
LINE
  5
31E
100
AcDbEntity
  8
RACCORDO
100
AcDbLine
 62
250
  6
CONTINUOUS
 10
-0.4769789731
 20
-67.6721431219
 11
-0.4862925649
 21
-67.6999121944
  0
LINE
  5
31F
100
AcDbEntity
  8
RACCORDO
100
AcDbLine
 62
250
  6
CONTINUOUS
 10
0.4769789711
 20
64.8278568774
 11
0.4862925649
 21
64.8000878056
  0
LINE
  5
320
100
AcDbEntity
  8
RACCORDO
100
AcDbLine
 62
250
  6
CONTINUOUS
 10
-0.4769789667
 20
67.6721431241
 11
-0.4862925635
 21
67.6999121965
  0
LWPOLYLINE
  5
321
100
AcDbEntity
  8
RACCORDO
100
AcDbPolyline
 62
250
  6
CONTINUOUS
 90
9
 70
0
 10
1.8002648635
 20
65.5001153497
 10
1.7959707396
 20
65.5188551643
 10
1.7906871707
 20
65.5376837134
 10
1.7843242201
 20
65.5564783471
 10
1.7768860233
 20
65.5752291832
 10
1.7683710035
 20
65.5939095188
 10
1.7586887691
 20
65.6123737024
 10
1.7478153729
 20
65.6305642739
 10
1.7357886037
 20
65.6485106793
  0
LINE
  5
322
100
AcDbEntity
  8
RACCORDO
100
AcDbLine
 62
250
  6
CONTINUOUS
 10
-0.4565424288
 20
-64.7233448982
 11
-0.4862925649
 21
-64.8000878056
  0
LINE
  5
323
100
AcDbEntity
  8
RACCORDO
100
AcDbLine
 62
250
  6
CONTINUOUS
 10
0.4565424288
 20
-67.7766551018
 11
0.4862925649
 21
-67.6999121944
  0
LWPOLYLINE
  5
324
100
AcDbEntity
  8
RACCORDO
100
AcDbPolyline
 62
250
  6
CONTINUOUS
 90
4
 70
0
 10
-0.3557225545
 20
-64.4662717899
 10
-0.3834177377
 20
-64.536979835
 10
-0.397745062
 20
-64.5731934065
 10
-0.4565424288
 20
-64.7233448982
  0
LWPOLYLINE
  5
325
100
AcDbEntity
  8
RACCORDO
100
AcDbPolyline
 62
250
  6
CONTINUOUS
 90
4
 70
0
 10
0.3557225545
 20
-68.0337282101
 10
0.3834177377
 20
-67.963020165
 10
0.397745062
 20
-67.9268065935
 10
0.4565424288
 20
-67.7766551018
  0
LWPOLYLINE
  5
326
100
AcDbEntity
  8
RACCORDO
100
AcDbPolyline
 62
7
  6
CONTINUOUS
 90
6
 70
0
 10
1.7818335054
 20
-67.1665088977
 10
1.7868464678
 20
-67.154086016
 10
1.7917963695
 20
-67.1420386988
 10
1.7967645588
 20
-67.1303851248
 10
1.8016696873
 20
-67.1191071153
 10
1.8065117551
 20
-67.1082046702
  0
LINE
  5
327
100
AcDbEntity
  8
RACCORDO
100
AcDbLine
 62
7
  6
CONTINUOUS
 10
-0.2771638598
 20
-64.4351949703
 11
-0.416389616
 21
-64.7713156792
  0
LINE
  5
328
100
AcDbEntity
  8
RACCORDO
100
AcDbLine
 62
7
  6
CONTINUOUS
 10
0.2771638598
 20
-68.0648050297
 11
0.416389616
 21
-67.7286843208
  0
LINE
  5
329
100
AcDbEntity
  8
RACCORDO
100
AcDbLine
 62
250
  6
CONTINUOUS
 10
-0.3491909953
 20
-64.4508036883
 11
-0.3557225545
 21
-64.4662717899
  0
LINE
  5
32A
100
AcDbEntity
  8
RACCORDO
100
AcDbLine
 62
250
  6
CONTINUOUS
 10
0.3491765847
 20
-68.0492272769
 11
0.3557225545
 21
-68.0337282101
  0
LWPOLYLINE
  5
32B
100
AcDbEntity
  8
RACCORDO
100
AcDbPolyline
 62
7
  6
CONTINUOUS
 90
3
 70
0
 10
-1.7944909561
 20
-65.3639585154
 10
-1.788359948
 20
-65.3495574521
 10
-1.7760983298
 20
-65.3196981599
  0
LINE
  5
32C
100
AcDbEntity
  8
RACCORDO
100
AcDbLine
 62
7
  6
CONTINUOUS
 10
-1.8065115546
 20
-65.3917948652
 11
-1.7944909561
 21
-65.3639585154
  0
LWPOLYLINE
  5
32D
100
AcDbEntity
  8
RACCORDO
100
AcDbPolyline
 62
7
  6
CONTINUOUS
 90
4
 70
0
 10
-1.7760983298
 20
-65.3196981599
 10
-1.7694840883
 20
-65.3044227085
 10
-1.7623057429
 20
-65.289008109
 10
-1.7546842014
 20
-65.2734086671
  0
LINE
  5
32E
100
AcDbEntity
  8
RACCORDO
100
AcDbLine
 62
7
  6
CONTINUOUS
 10
-1.7546842014
 20
-65.2734086671
 11
-1.7466194637
 21
-65.2576243827
  0
LWPOLYLINE
  5
32F
100
AcDbEntity
  8
RACCORDO
100
AcDbPolyline
 62
7
  6
CONTINUOUS
 90
6
 70
0
 10
-1.7989596013
 20
65.3750282839
 10
-1.8004416796
 20
65.3784403189
 10
-1.8019353847
 20
65.3818191433
 10
-1.803441974
 20
65.3851619626
 10
-1.8049601902
 20
65.3884715713
 10
-1.8064900332
 20
65.3917479695
  0
LINE
  5
330
100
AcDbEntity
  8
RACCORDO
100
AcDbLine
 62
7
  6
CONTINUOUS
 10
-1.7960177537
 20
65.3681325276
 11
-1.7989596013
 21
65.3750282839
  0
LWPOLYLINE
  5
331
100
AcDbEntity
  8
RACCORDO
100
AcDbPolyline
 62
250
  6
CONTINUOUS
 90
6
 70
0
 10
0.3557225545
 20
68.0337282101
 10
0.3491143619
 20
68.0493629207
 10
0.3420645938
 20
68.0644187129
 10
0.3345783054
 20
68.0788905615
 10
0.3266225904
 20
68.0927742884
 10
0.3182411295
 20
68.1060633725
  0
LWPOLYLINE
  5
332
100
AcDbEntity
  8
RACCORDO
100
AcDbPolyline
 62
250
  6
CONTINUOUS
 90
6
 70
0
 10
-0.3557225545
 20
64.4662717899
 10
-0.3491479644
 20
64.450680453
 10
-0.3420851914
 20
64.435599286
 10
-0.3345369271
 20
64.4210338359
 10
-0.3264475453
 20
64.4069526864
 10
-0.3178781661
 20
64.3933994561
  0
LWPOLYLINE
  5
333
100
AcDbEntity
  8
RACCORDO
100
AcDbPolyline
 62
7
  6
CONTINUOUS
 90
8
 70
0
 10
1.781798077
 20
67.1665900261
 10
1.7764972493
 20
67.1792933137
 10
1.7708980329
 20
67.1922834554
 10
1.7650065227
 20
67.205562025
 10
1.7586055256
 20
67.2190598184
 10
1.7516226441
 20
67.2327537678
 10
1.7441302757
 20
67.2466669412
 10
1.7361284205
 20
67.2607993384
  0
LINE
  5
334
100
AcDbEntity
  8
RACCORDO
100
AcDbLine
 62
7
  6
CONTINUOUS
 10
-1.7931060705
 20
65.3611402579
 11
-1.7960177537
 21
65.3681325276
  0
LINE
  5
335
100
AcDbEntity
  8
RACCORDO
100
AcDbLine
 62
7
  6
CONTINUOUS
 10
-0.416389616
 20
64.7713156792
 11
-0.2771638598
 21
64.4351949703
  0
LINE
  5
336
100
AcDbEntity
  8
RACCORDO
100
AcDbLine
 62
7
  6
CONTINUOUS
 10
0.416389616
 20
67.7286843208
 11
0.2771638598
 21
68.0648050297
  0
LWPOLYLINE
  5
337
100
AcDbEntity
  8
RACCORDO
100
AcDbPolyline
 62
250
  6
CONTINUOUS
 90
3
 70
0
 10
-0.4714464077
 20
64.7615635568
 10
-0.4122381749
 20
64.6100893537
 10
-0.3693791984
 20
64.5013343192
  0
LWPOLYLINE
  5
338
100
AcDbEntity
  8
RACCORDO
100
AcDbPolyline
 62
250
  6
CONTINUOUS
 90
3
 70
0
 10
0.4714464077
 20
67.7384364432
 10
0.4122381749
 20
67.8899106463
 10
0.3693791984
 20
67.9986656808
  0
LINE
  5
339
100
AcDbEntity
  8
RACCORDO
100
AcDbLine
 62
250
  6
CONTINUOUS
 10
-0.3693791984
 20
64.5013343192
 11
-0.3557225545
 21
64.4662717899
  0
LINE
  5
33A
100
AcDbEntity
  8
RACCORDO
100
AcDbLine
 62
250
  6
CONTINUOUS
 10
0.3693791984
 20
67.9986656808
 11
0.3557225545
 21
68.0337282101
  0
LINE
  5
33B
100
AcDbEntity
  8
RACCORDO
100
AcDbLine
 62
7
  6
CONTINUOUS
 10
-1.7806323982
 20
65.3287650684
 11
-1.7931060705
 21
65.3611402579
  0
LINE
  5
33C
100
AcDbEntity
  8
RACCORDO
100
AcDbLine
 62
250
  6
CONTINUOUS
 10
-0.4862925649
 20
64.8000878056
 11
-0.4714464077
 21
64.7615635568
  0
LINE
  5
33D
100
AcDbEntity
  8
RACCORDO
100
AcDbLine
 62
250
  6
CONTINUOUS
 10
0.4862925649
 20
67.6999121944
 11
0.4714464077
 21
67.7384364432
  0
LWPOLYLINE
  5
33E
100
AcDbEntity
  8
RACCORDO
100
AcDbPolyline
 62
7
  6
CONTINUOUS
 90
5
 70
0
 10
1.7584665535
 20
-67.2193561635
 10
1.7649450931
 20
-67.2057103895
 10
1.770882818
 20
-67.1923210844
 10
1.7765134372
 20
-67.1792528069
 10
1.7818335054
 20
-67.1665088977
  0
LWPOLYLINE
  5
33F
100
AcDbEntity
  8
RACCORDO
100
AcDbPolyline
 62
250
  6
CONTINUOUS
 90
9
 70
0
 10
-0.416389616
 20
-64.7713156793
 10
-0.4198875643
 20
-64.7778770988
 10
-0.4246242147
 20
-64.78363288
 10
-0.4305735271
 20
-64.7885626569
 10
-0.4376880305
 20
-64.792759416
 10
-0.4458550608
 20
-64.7961770902
 10
-0.4549306251
 20
-64.7985881527
 10
-0.4647899962
 20
-64.7999434343
 10
-0.4752990919
 20
-64.8004091804
  0
LWPOLYLINE
  5
340
100
AcDbEntity
  8
RACCORDO
100
AcDbPolyline
 62
250
  6
CONTINUOUS
 90
9
 70
0
 10
0.416389616
 20
-67.7286843207
 10
0.4198875643
 20
-67.7221229012
 10
0.4246242147
 20
-67.71636712
 10
0.4305735271
 20
-67.7114373431
 10
0.4376880305
 20
-67.707240584
 10
0.4458550608
 20
-67.7038229098
 10
0.4549306251
 20
-67.7014118473
 10
0.4647899962
 20
-67.7000565657
 10
0.4752990919
 20
-67.6995908196
  0
LWPOLYLINE
  5
341
100
AcDbEntity
  8
RACCORDO
100
AcDbPolyline
 62
250
  6
CONTINUOUS
 90
10
 70
0
 10
-0.2771637943
 20
-64.4351949974
 10
-0.2811014368
 20
-64.442508325
 10
-0.2865235157
 20
-64.4490566613
 10
-0.2933390337
 20
-64.4547301072
 10
-0.3014336077
 20
-64.4594334465
 10
-0.3106713887
 20
-64.4630877444
 10
-0.3208973413
 20
-64.4656316717
 10
-0.3319398461
 20
-64.467022534
 10
-0.3436135797
 20
-64.467236989
 10
-0.3557226248
 20
-64.4662714373
  0
LWPOLYLINE
  5
342
100
AcDbEntity
  8
RACCORDO
100
AcDbPolyline
 62
250
  6
CONTINUOUS
 90
10
 70
0
 10
0.2771637943
 20
-68.0648050026
 10
0.2811014368
 20
-68.057491675
 10
0.2865235157
 20
-68.0509433387
 10
0.2933390337
 20
-68.0452698928
 10
0.3014336077
 20
-68.0405665535
 10
0.3106713887
 20
-68.0369122556
 10
0.3208973413
 20
-68.0343683283
 10
0.3319398461
 20
-68.032977466
 10
0.3436135797
 20
-68.032763011
 10
0.3557226248
 20
-68.0337285627
  0
LINE
  5
343
100
AcDbEntity
  8
RACCORDO
100
AcDbLine
 62
250
  6
CONTINUOUS
 10
-1.0177329342
 20
-65.113583518
 11
-1.0125145111
 21
-65.103902188
  0
LINE
  5
344
100
AcDbEntity
  8
RACCORDO
100
AcDbLine
 62
250
  6
CONTINUOUS
 10
1.0177329342
 20
-67.386416482
 11
1.0125145111
 21
-67.396097812
  0
LWPOLYLINE
  5
345
100
AcDbEntity
  8
RACCORDO
100
AcDbPolyline
 62
250
  6
CONTINUOUS
 90
6
 70
0
 10
-1.7551429498
 20
-66.8813973649
 10
-1.7654045826
 20
-66.9002620989
 10
-1.7752272932
 20
-66.9206967474
 10
-1.7840928022
 20
-66.9428807948
 10
-1.7920153544
 20
-66.9670675723
 10
-1.7988466183
 20
-66.9930393253
  0
LWPOLYLINE
  5
346
100
AcDbEntity
  8
RACCORDO
100
AcDbPolyline
 62
250
  6
CONTINUOUS
 90
7
 70
0
 10
1.7548332584
 20
-65.6191326927
 10
1.7649607257
 20
-65.6006195419
 10
1.7746483442
 20
-65.5806168049
 10
1.7834361481
 20
-65.5588792653
 10
1.7913592016
 20
-65.535301039
 10
1.7982560887
 20
-65.5099524135
 10
1.8033554377
 20
-65.4828770564
  0
LWPOLYLINE
  5
347
100
AcDbEntity
  8
RACCORDO
100
AcDbPolyline
 62
7
  6
CONTINUOUS
 90
4
 70
0
 10
1.7355523374
 20
-67.2617677409
 10
1.7437312241
 20
-67.2473740795
 10
1.7513692962
 20
-67.233236887
 10
1.7584665535
 20
-67.2193561635
  0
LINE
  5
348
100
AcDbEntity
  8
RACCORDO
100
AcDbLine
 62
7
  6
CONTINUOUS
 10
-1.7466194637
 20
-65.2576243827
 11
-1.7358318427
 21
-65.239157916
  0
LINE
  5
349
100
AcDbEntity
  8
RACCORDO
100
AcDbLine
 62
250
  6
CONTINUOUS
 10
-1.4930320208
 20
-65.9368256782
 11
-1.498807076
 21
-65.9461856177
  0
LWPOLYLINE
  5
34A
100
AcDbEntity
  8
RACCORDO
100
AcDbPolyline
 62
250
  6
CONTINUOUS
 90
10
 70
0
 10
-1.7102492318
 20
-66.9173715379
 10
-1.7058844035
 20
-66.9103047121
 10
-1.7029243426
 20
-66.9023348136
 10
-1.7014187162
 20
-66.8935956095
 10
-1.7013927812
 20
-66.8842337716
 10
-1.7028469616
 20
-66.8744064283
 10
-1.7057568339
 20
-66.8642785298
 10
-1.7100735413
 20
-66.8540200582
 10
-1.7157246214
 20
-66.8438031725
 10
-1.7226152184
 20
-66.8337993353
  0
LWPOLYLINE
  5
34B
100
AcDbEntity
  8
RACCORDO
100
AcDbPolyline
 62
7
  6
CONTINUOUS
 90
4
 70
0
 10
-1.7358318427
 20
-65.239157916
 10
-1.724847217
 20
-65.2214251047
 10
-1.7136655866
 20
-65.2044259486
 10
-1.7021370248
 20
-65.1882795386
  0
LWPOLYLINE
  5
34C
100
AcDbEntity
  8
RACCORDO
100
AcDbPolyline
 62
250
  6
CONTINUOUS
 90
9
 70
0
 10
-1.488772994
 20
-66.6287381751
 10
-1.4848396193
 20
-66.6224281691
 10
-1.4822232901
 20
-66.6154482338
 10
-1.4809286268
 20
-66.6078311023
 10
-1.4808513683
 20
-66.5995713922
 10
-1.4819750808
 20
-66.5907897052
 10
-1.4844248149
 20
-66.581724503
 10
-1.4881807921
 20
-66.5725083855
 10
-1.4930320011
 20
-66.5631743493
  0
LWPOLYLINE
  5
34D
100
AcDbEntity
  8
RACCORDO
100
AcDbPolyline
 62
250
  6
CONTINUOUS
 90
9
 70
0
 10
-1.4887729939
 20
66.628738175
 10
-1.4848396121
 20
66.6224281532
 10
-1.4822232846
 20
66.615448203
 10
-1.4809286287
 20
66.6078310589
 10
-1.4808513804
 20
66.5995713387
 10
-1.4819751029
 20
66.5907896458
 10
-1.4844248437
 20
66.5817244454
 10
-1.4881808209
 20
66.5725083388
 10
-1.4930320208
 20
66.5631743218
  0
LWPOLYLINE
  5
34E
100
AcDbEntity
  8
RACCORDO
100
AcDbPolyline
 62
250
  6
CONTINUOUS
 90
10
 70
0
 10
-1.7102491334
 20
66.9173716136
 10
-1.7058844254
 20
66.910304852
 10
-1.7029244377
 20
66.9023350261
 10
-1.7014188471
 20
66.8935958916
 10
-1.7013929215
 20
66.8842341151
 10
-1.7028470962
 20
66.8744068129
 10
-1.7057569661
 20
66.8642789141
 10
-1.7100736957
 20
66.8540203926
 10
-1.7157248387
 20
66.8438034146
 10
-1.7226155534
 20
66.8337994489
  0
LINE
  5
34F
100
AcDbEntity
  8
RACCORDO
100
AcDbLine
 62
250
  6
CONTINUOUS
 10
-1.4930320011
 20
65.9368256507
 11
-1.498807076
 21
65.9461856177
  0
LWPOLYLINE
  5
350
100
AcDbEntity
  8
RACCORDO
100
AcDbPolyline
 62
7
  6
CONTINUOUS
 90
4
 70
0
 10
-1.7351184965
 20
65.2384557228
 10
-1.7518537264
 20
65.2674827538
 10
-1.7668816168
 20
65.2975459004
 10
-1.7806323982
 20
65.3287650684
  0
LINE
  5
351
100
AcDbEntity
  8
RACCORDO
100
AcDbLine
 62
250
  6
CONTINUOUS
 10
-1.0177329289
 20
65.1135835022
 11
-1.0125145111
 21
65.103902188
  0
LINE
  5
352
100
AcDbEntity
  8
RACCORDO
100
AcDbLine
 62
250
  6
CONTINUOUS
 10
1.0177329289
 20
67.3864164978
 11
1.0125145111
 21
67.396097812
  0
LWPOLYLINE
  5
353
100
AcDbEntity
  8
RACCORDO
100
AcDbPolyline
 62
250
  6
CONTINUOUS
 90
10
 70
0
 10
-0.2771640195
 20
64.4351949044
 10
-0.2811016563
 20
64.4425083778
 10
-0.2865237577
 20
64.4490568231
 10
-0.2933393108
 20
64.4547303444
 10
-0.3014339227
 20
64.4594337331
 10
-0.3106717281
 20
64.4630880584
 10
-0.3208976639
 20
64.4656319968
 10
-0.3319400933
 20
64.4670228692
 10
-0.3436136916
 20
64.4672373507
 10
-0.355722541
 20
64.466271858
  0
LWPOLYLINE
  5
354
100
AcDbEntity
  8
RACCORDO
100
AcDbPolyline
 62
250
  6
CONTINUOUS
 90
10
 70
0
 10
0.2771642492
 20
68.0648051908
 10
0.2811018708
 20
68.0574917227
 10
0.2865239469
 20
68.0509432736
 10
0.2933394673
 20
68.0452697394
 10
0.3014340416
 20
68.0405663293
 10
0.3106718072
 20
68.0369119746
 10
0.3208977058
 20
68.0343679996
 10
0.3319401038
 20
68.0329770853
 10
0.3436136785
 20
68.032762559
 10
0.355722514
 20
68.0337280066
  0
LWPOLYLINE
  5
355
100
AcDbEntity
  8
RACCORDO
100
AcDbPolyline
 62
250
  6
CONTINUOUS
 90
9
 70
0
 10
-0.416389616
 20
64.7713156792
 10
-0.4198875616
 20
64.777877096
 10
-0.4246242076
 20
64.7836328765
 10
-0.4305735144
 20
64.7885626541
 10
-0.4376880109
 20
64.7927594143
 10
-0.4458550344
 20
64.79617709
 10
-0.4549305957
 20
64.7985881547
 10
-0.4647899701
 20
64.799943438
 10
-0.4752990756
 20
64.8004091837
  0
LWPOLYLINE
  5
356
100
AcDbEntity
  8
RACCORDO
100
AcDbPolyline
 62
250
  6
CONTINUOUS
 90
9
 70
0
 10
0.416389616
 20
67.7286843208
 10
0.4198875616
 20
67.722122904
 10
0.4246242076
 20
67.7163671235
 10
0.4305735144
 20
67.7114373459
 10
0.4376880109
 20
67.7072405857
 10
0.4458550344
 20
67.70382291
 10
0.4549305957
 20
67.7014118453
 10
0.4647899701
 20
67.700056562
 10
0.4752990756
 20
67.6995908163
  0
LWPOLYLINE
  5
357
100
AcDbEntity
  8
RACCORDO
100
AcDbPolyline
 62
7
  6
CONTINUOUS
 90
6
 70
0
 10
1.8065080523
 20
67.1082131829
 10
1.8016482945
 20
67.1191539888
 10
1.7967317196
 20
67.1304571477
 10
1.7917583276
 20
67.1421226597
 10
1.7868066108
 20
67.1541751664
 10
1.781798077
 20
67.1665900261
  0
LINE
  5
358
100
AcDbEntity
  8
RACCORDO
100
AcDbLine
 62
250
  6
CONTINUOUS
 10
1.4930320208
 20
-66.5631743218
 11
1.498807076
 21
-66.5538143823
  0
LWPOLYLINE
  5
359
100
AcDbEntity
  8
RACCORDO
100
AcDbPolyline
 62
250
  6
CONTINUOUS
 90
10
 70
0
 10
1.710249202
 20
-65.5826284393
 10
1.7058843745
 20
-65.5896952701
 10
1.7029243143
 20
-65.597665173
 10
1.7014186886
 20
-65.606404381
 10
1.7013927543
 20
-65.6157662222
 10
1.7028469355
 20
-65.6255935682
 10
1.705756809
 20
-65.6357214692
 10
1.7100735183
 20
-65.6459799433
 10
1.7157246011
 20
-65.6561968312
 10
1.722615202
 20
-65.6662006703
  0
LWPOLYLINE
  5
35A
100
AcDbEntity
  8
RACCORDO
100
AcDbPolyline
 62
250
  6
CONTINUOUS
 90
9
 70
0
 10
1.488772994
 20
-65.8712618249
 10
1.4848396132
 20
-65.8775718431
 10
1.482223284
 20
-65.8845517891
 10
1.4809286248
 20
-65.8921689287
 10
1.4808513721
 20
-65.9004286435
 10
1.4819750898
 20
-65.9092103312
 10
1.4844248272
 20
-65.9182755301
 10
1.4881808047
 20
-65.9274916406
 10
1.4930320098
 20
-65.9368256657
  0
LWPOLYLINE
  5
35B
100
AcDbEntity
  8
RACCORDO
100
AcDbPolyline
 62
7
  6
CONTINUOUS
 90
5
 70
0
 10
1.6464833027
 20
-67.3853822232
 10
1.652877098
 20
-67.3765452359
 10
1.6595320448
 20
-67.3675143135
 10
1.6664481428
 20
-67.3582894559
 10
1.6736709638
 20
-67.3489148367
  0
LINE
  5
35C
100
AcDbEntity
  8
RACCORDO
100
AcDbLine
 62
7
  6
CONTINUOUS
 10
-1.6789386667
 20
-65.1578304121
 11
-1.6464867221
 21
-65.1146223225
  0
LINE
  5
35D
100
AcDbEntity
  8
RACCORDO
100
AcDbLine
 62
7
  6
CONTINUOUS
 10
-1.7021370248
 20
-65.1882795386
 11
-1.6789386667
 21
-65.1578304121
  0
LINE
  5
35E
100
AcDbEntity
  8
RACCORDO
100
AcDbLine
 62
7
  6
CONTINUOUS
 10
-1.488772994
 20
-66.6287381751
 11
-1.7102491885
 21
-66.9173715713
  0
LINE
  5
35F
100
AcDbEntity
  8
RACCORDO
100
AcDbLine
 62
7
  6
CONTINUOUS
 10
1.488772994
 20
-65.8712618249
 11
1.7102491885
 21
-65.5826284287
  0
LWPOLYLINE
  5
360
100
AcDbEntity
  8
RACCORDO
100
AcDbPolyline
 62
250
  6
CONTINUOUS
 90
4
 70
0
 10
1.7226152207
 20
-65.6662006639
 10
1.7336914012
 20
-65.6519357641
 10
1.744442531
 20
-65.6362548018
 10
1.7548332584
 20
-65.6191326927
  0
LWPOLYLINE
  5
361
100
AcDbEntity
  8
RACCORDO
100
AcDbPolyline
 62
250
  6
CONTINUOUS
 90
4
 70
0
 10
-1.7226152207
 20
-66.8337993361
 10
-1.7337860379
 20
-66.8481664551
 10
-1.7446411596
 20
-66.8640234539
 10
-1.7551429498
 20
-66.8813973649
  0
LWPOLYLINE
  5
362
100
AcDbEntity
  8
RACCORDO
100
AcDbPolyline
 62
250
  6
CONTINUOUS
 90
3
 70
0
 10
-1.525909226
 20
-66.5872646232
 10
-1.6281255893
 20
-66.7152370088
 10
-1.6995757522
 20
-66.8050711189
  0
LINE
  5
363
100
AcDbEntity
  8
RACCORDO
100
AcDbLine
 62
250
  6
CONTINUOUS
 10
-1.6995757522
 20
-66.8050711189
 11
-1.7226152207
 21
-66.8337993361
  0
LINE
  5
364
100
AcDbEntity
  8
RACCORDO
100
AcDbLine
 62
250
  6
CONTINUOUS
 10
-1.498807076
 20
-66.5538143823
 11
-1.525909226
 21
-66.5872646232
  0
LINE
  5
365
100
AcDbEntity
  8
RACCORDO
100
AcDbLine
 62
250
  6
CONTINUOUS
 10
-1.5251919894
 20
66.5864412335
 11
-1.498807076
 21
66.5538143823
  0
LWPOLYLINE
  5
366
100
AcDbEntity
  8
RACCORDO
100
AcDbPolyline
 62
7
  6
CONTINUOUS
 90
6
 70
0
 10
-1.6464833138
 20
65.114617782
 10
-1.6640110939
 20
65.1363059299
 10
-1.6815524562
 20
65.1595098167
 10
-1.6991074006
 20
65.1842294425
 10
-1.7171061575
 20
65.2105847132
 10
-1.7351184965
 20
65.2384557228
  0
LINE
  5
367
100
AcDbEntity
  8
RACCORDO
100
AcDbLine
 62
250
  6
CONTINUOUS
 10
-1.6514243699
 20
66.7444406633
 11
-1.5251919894
 21
66.5864412335
  0
LWPOLYLINE
  5
368
100
AcDbEntity
  8
RACCORDO
100
AcDbPolyline
 62
250
  6
CONTINUOUS
 90
3
 70
0
 10
-1.7226152207
 20
66.8337993361
 10
-1.6754850097
 20
66.7747795361
 10
-1.6514243699
 20
66.7444406633
  0
LINE
  5
369
100
AcDbEntity
  8
RACCORDO
100
AcDbLine
 62
7
  6
CONTINUOUS
 10
-1.7102491885
 20
66.9173715713
 11
-1.488772994
 21
66.6287381751
  0
LINE
  5
36A
100
AcDbEntity
  8
RACCORDO
100
AcDbLine
 62
7
  6
CONTINUOUS
 10
1.7102491885
 20
65.5826284287
 11
1.488772994
 21
65.8712618249
  0
LINE
  5
36B
100
AcDbEntity
  8
RACCORDO
100
AcDbLine
 62
250
  6
CONTINUOUS
 10
-1.7326959257
 20
66.8471202813
 11
-1.7226152207
 21
66.8337993361
  0
LINE
  5
36C
100
AcDbEntity
  8
RACCORDO
100
AcDbLine
 62
250
  6
CONTINUOUS
 10
1.7357886037
 20
65.6485106793
 11
1.7226152207
 21
65.6662006639
  0
LWPOLYLINE
  5
36D
100
AcDbEntity
  8
RACCORDO
100
AcDbPolyline
 62
7
  6
CONTINUOUS
 90
6
 70
0
 10
1.7125501809
 20
67.2971639683
 10
1.7046371301
 20
67.3082849481
 10
1.6967199745
 20
67.318928282
 10
1.688934999
 20
67.3292297849
 10
1.6812837694
 20
67.3391871406
 10
1.6737647199
 20
67.3488026654
  0
LWPOLYLINE
  5
36E
100
AcDbEntity
  8
RACCORDO
100
AcDbPolyline
 62
250
  6
CONTINUOUS
 90
6
 70
0
 10
-0.3178781661
 20
64.3933994561
 10
-0.309012796
 20
64.3804901131
 10
-0.299884908
 20
64.3682726301
 10
-0.2904814883
 20
64.3567060381
 10
-0.2809237478
 20
64.3457686957
 10
-0.2712491017
 20
64.3354831414
  0
LWPOLYLINE
  5
36F
100
AcDbEntity
  8
RACCORDO
100
AcDbPolyline
 62
250
  6
CONTINUOUS
 90
6
 70
0
 10
0.3182411295
 20
68.1060633725
 10
0.3095565678
 20
68.1187507062
 10
0.3005898293
 20
68.1308195639
 10
0.2913375173
 20
68.1422794358
 10
0.2818886452
 20
68.1531653866
 10
0.2722643113
 20
68.1634691476
  0
LWPOLYLINE
  5
370
100
AcDbEntity
  8
RACCORDO
100
AcDbPolyline
 62
250
  6
CONTINUOUS
 90
9
 70
0
 10
1.4887729939
 20
65.871261825
 10
1.4848396121
 20
65.8775718468
 10
1.4822232846
 20
65.884551797
 10
1.4809286287
 20
65.8921689411
 10
1.4808513804
 20
65.9004286613
 10
1.4819751029
 20
65.9092103542
 10
1.4844248437
 20
65.9182755546
 10
1.4881808209
 20
65.9274916612
 10
1.4930320208
 20
65.9368256782
  0
LWPOLYLINE
  5
371
100
AcDbEntity
  8
RACCORDO
100
AcDbPolyline
 62
7
  6
CONTINUOUS
 90
4
 70
0
 10
1.7361284205
 20
67.2607993384
 10
1.728273112
 20
67.2733985276
 10
1.7204136988
 20
67.2855200709
 10
1.7125501809
 20
67.2971639683
  0
LWPOLYLINE
  5
372
100
AcDbEntity
  8
RACCORDO
100
AcDbPolyline
 62
250
  6
CONTINUOUS
 90
10
 70
0
 10
1.7102491323
 20
65.5826283856
 10
1.705884426
 20
65.5896951478
 10
1.7029244399
 20
65.5976649741
 10
1.7014188507
 20
65.6064041087
 10
1.7013929263
 20
65.6157658851
 10
1.702847102
 20
65.625593187
 10
1.7057569727
 20
65.6357210854
 10
1.7100737029
 20
65.6459796062
 10
1.7157248463
 20
65.6561965836
 10
1.7226155612
 20
65.6662005485
  0
LINE
  5
373
100
AcDbEntity
  8
RACCORDO
100
AcDbLine
 62
250
  6
CONTINUOUS
 10
1.4930320098
 20
66.5631743343
 11
1.498807076
 21
66.5538143823
  0
LWPOLYLINE
  5
374
100
AcDbEntity
  8
RACCORDO
100
AcDbPolyline
 62
7
  6
CONTINUOUS
 90
9
 70
0
 10
1.6736709638
 20
-67.3489148367
 10
1.6811549362
 20
-67.3393462823
 10
1.6887633447
 20
-67.3294512717
 10
1.6964951061
 20
-67.3192298109
 10
1.7043513036
 20
-67.3086818938
 10
1.712198472
 20
-67.2976749822
 10
1.7199921229
 20
-67.2861648964
 10
1.7277767447
 20
-67.2741958159
 10
1.7355523374
 20
-67.2617677409
  0
LINE
  5
375
100
AcDbEntity
  8
RACCORDO
100
AcDbLine
 62
250
  6
CONTINUOUS
 10
1.6263233671
 20
-65.7870534087
 11
1.6990785015
 21
-65.6955589291
  0
LINE
  5
376
100
AcDbEntity
  8
RACCORDO
100
AcDbLine
 62
250
  6
CONTINUOUS
 10
1.6990785015
 20
-65.6955589291
 11
1.7226152207
 21
-65.6662006639
  0
LINE
  5
377
100
AcDbEntity
  8
RACCORDO
100
AcDbLine
 62
250
  6
CONTINUOUS
 10
1.498807076
 20
-65.9461856177
 11
1.6263233671
 21
-65.7870534087
  0
LINE
  5
378
100
AcDbEntity
  8
RACCORDO
100
AcDbLine
 62
250
  6
CONTINUOUS
 10
0.9931225864
 20
-65.1258525327
 11
1.0125145112
 21
-65.103902188
  0
LINE
  5
379
100
AcDbEntity
  8
RACCORDO
100
AcDbLine
 62
250
  6
CONTINUOUS
 10
-0.9931225864
 20
-67.3741474674
 11
-1.0125145111
 21
-67.396097812
  0
LWPOLYLINE
  5
37A
100
AcDbEntity
  8
RACCORDO
100
AcDbPolyline
 62
250
  6
CONTINUOUS
 90
10
 70
0
 10
-0.272853521
 20
-64.3371430809
 10
-0.2825072021
 20
-64.3475222213
 10
-0.2919534715
 20
-64.3584585437
 10
-0.3011782624
 20
-64.3699460672
 10
-0.3100930247
 20
-64.3820020695
 10
-0.3186937067
 20
-64.3946217681
 10
-0.3269696132
 20
-64.4078020465
 10
-0.3348245381
 20
-64.4215602384
 10
-0.3422234129
 20
-64.4358982022
 10
-0.3491909953
 20
-64.4508036883
  0
LWPOLYLINE
  5
37B
100
AcDbEntity
  8
RACCORDO
100
AcDbPolyline
 62
250
  6
CONTINUOUS
 90
10
 70
0
 10
0.2727437904
 20
-68.1629709218
 10
0.2823955718
 20
-68.152602105
 10
0.2918449561
 20
-68.1416715644
 10
0.3010769976
 20
-68.1301856956
 10
0.3100020592
 20
-68.1181258137
 10
0.3186165246
 20
-68.1054956421
 10
0.3269089074
 20
-68.0922992812
 10
0.3347801385
 20
-68.0785211159
 10
0.3421941729
 20
-68.0641598861
 10
0.3491765847
 20
-68.0492272769
  0
LWPOLYLINE
  5
37C
100
AcDbEntity
  8
RACCORDO
100
AcDbPolyline
 62
250
  6
CONTINUOUS
 90
10
 70
0
 10
-1.7931060705
 20
65.3611402579
 10
-1.7877907089
 20
65.3564588589
 10
-1.7828550218
 20
65.3517795178
 10
-1.7783281169
 20
65.3471017971
 10
-1.7742368729
 20
65.3424240141
 10
-1.7706057217
 20
65.337743204
 10
-1.7674563611
 20
65.3330551335
 10
-1.7648074547
 20
65.3283543544
 10
-1.7626744549
 20
65.3236342624
 10
-1.7610694736
 20
65.3188871721
  0
LWPOLYLINE
  5
37D
100
AcDbEntity
  8
RACCORDO
100
AcDbPolyline
 62
250
  6
CONTINUOUS
 90
12
 70
0
 10
-0.2712491017
 20
64.3354831414
 10
-0.2614427642
 20
64.32582974
 10
-0.251547475
 20
64.316721188
 10
-0.2415837736
 20
64.3081559004
 10
-0.2315501584
 20
64.3001366664
 10
-0.2214533952
 20
64.2925820583
 10
-0.2112966521
 20
64.2854817463
 10
-0.2010920427
 20
64.278846815
 10
-0.1908573707
 20
64.2726276655
 10
-0.1806027016
 20
64.2668076437
 10
-0.1703312208
 20
64.2614032312
 10
-0.1600495207
 20
64.2564142476
  0
LWPOLYLINE
  5
37E
100
AcDbEntity
  8
RACCORDO
100
AcDbPolyline
 62
250
  6
CONTINUOUS
 90
12
 70
0
 10
0.2722643113
 20
68.1634691476
 10
0.2624622726
 20
68.1731946468
 10
0.2525365142
 20
68.1823973002
 10
0.2425018186
 20
68.1910771624
 10
0.2323609724
 20
68.1992318425
 10
0.2221486791
 20
68.2069143737
 10
0.2118741409
 20
68.2141275332
 10
0.2015438884
 20
68.2208676157
 10
0.1911872095
 20
68.2271788434
 10
0.1808182976
 20
68.2330762074
 10
0.1704369111
 20
68.2385450779
 10
0.1600499566
 20
68.2435857167
  0
LINE
  5
37F
100
AcDbEntity
  8
RACCORDO
100
AcDbLine
 62
250
  6
CONTINUOUS
 10
0.9931225849
 20
65.1258525313
 11
1.0125145111
 21
65.103902188
  0
LINE
  5
380
100
AcDbEntity
  8
RACCORDO
100
AcDbLine
 62
250
  6
CONTINUOUS
 10
-0.9931225849
 20
67.3741474687
 11
-1.0125145111
 21
67.396097812
  0
LINE
  5
381
100
AcDbEntity
  8
RACCORDO
100
AcDbLine
 62
250
  6
CONTINUOUS
 10
1.5503933154
 20
65.8820497903
 11
1.498807076
 21
65.9461856177
  0
LWPOLYLINE
  5
382
100
AcDbEntity
  8
RACCORDO
100
AcDbPolyline
 62
250
  6
CONTINUOUS
 90
4
 70
0
 10
1.7226152207
 20
65.6662006639
 10
1.6752278489
 20
65.7255394186
 10
1.6510296382
 20
65.7560540312
 10
1.5503933154
 20
65.8820497903
  0
LWPOLYLINE
  5
383
100
AcDbEntity
  8
RACCORDO
100
AcDbPolyline
 62
7
  6
CONTINUOUS
 90
5
 70
0
 10
1.6737647199
 20
67.3488026654
 10
1.6665094366
 20
67.3582191229
 10
1.6595617815
 20
67.367484101
 10
1.6528778927
 20
67.3765500118
 10
1.6464577701
 20
67.3854168553
  0
LWPOLYLINE
  5
384
100
AcDbEntity
  8
0
100
AcDbPolyline
 62
7
  6
CONTINUOUS
 90
10
 70
0
 43
0.3500000019
 10
1.5000009766
 20
92.8500009766
 10
1.5714311523
 20
92.707140625
 10
1.5714311523
 20
92.6357158203
 10
1.4285708008
 20
92.4928554688
 10
1.357140625
 20
92.4928554688
 10
1.2857158203
 20
92.5642910156
 10
1.2857158203
 20
92.6357158203
 10
1.357140625
 20
92.7785761719
 10
1.4285708008
 20
92.8500009766
 10
1.5000009766
 20
92.8500009766
  0
LWPOLYLINE
  5
385
100
AcDbEntity
  8
RACCORDO
100
AcDbPolyline
 62
250
  6
CONTINUOUS
 90
12
 70
0
 10
-1.6464830389
 20
65.1146174093
 10
-1.6368711572
 20
65.1081010504
 10
-1.6268775174
 20
65.101803415
 10
-1.6165053913
 20
65.0957309245
 10
-1.6057683899
 20
65.0898758812
 10
-1.5946596781
 20
65.084258882
 10
-1.5831526781
 20
65.078929258
 10
-1.5712449003
 20
65.0738882352
 10
-1.55894776
 20
65.0691487194
 10
-1.5462571236
 20
65.0647777908
 10
-1.5331718121
 20
65.060778662
 10
-1.5197041868
 20
65.0571618255
  0
LINE
  5
386
100
AcDbEntity
  8
RACCORDO
100
AcDbLine
 62
7
  6
CONTINUOUS
 10
59.9
 20
-82.6
 11
59.9
 21
82.6
  0
LWPOLYLINE
  5
387
100
AcDbEntity
  8
RACCORDO
100
AcDbPolyline
 62
250
  6
CONTINUOUS
 90
12
 70
0
 10
0.1600471609
 20
-68.2435859426
 10
0.1704795758
 20
-68.2385225826
 10
0.1809026582
 20
-68.2330296718
 10
0.1913094789
 20
-68.2271070032
 10
0.2016961304
 20
-68.2207724945
 10
0.2120525966
 20
-68.2140080217
 10
0.2223617861
 20
-68.2067595932
 10
0.2326246085
 20
-68.1990253946
 10
0.2428236836
 20
-68.190807827
 10
0.2529130025
 20
-68.1820601251
 10
0.262892213
 20
-68.1727793783
 10
0.2727437904
 20
-68.1629709218
  0
LWPOLYLINE
  5
388
100
AcDbEntity
  8
RACCORDO
100
AcDbPolyline
 62
250
  6
CONTINUOUS
 90
12
 70
0
 10
-0.1600485477
 20
-64.2564141663
 10
-0.1704758143
 20
-64.2614743223
 10
-0.1808989911
 20
-64.2669674791
 10
-0.1913110545
 20
-64.2728939249
 10
-0.2017095553
 20
-64.2792364479
 10
-0.2120827906
 20
-64.2860126435
 10
-0.2224089163
 20
-64.2932746581
 10
-0.23268838
 20
-64.3010246163
 10
-0.2429041638
 20
-64.309259809
 10
-0.2530069002
 20
-64.3180241004
 10
-0.2629956258
 20
-64.327320307
 10
-0.272853521
 20
-64.3371430809
  0
LWPOLYLINE
  5
389
100
AcDbEntity
  8
RACCORDO
100
AcDbPolyline
 62
250
  6
CONTINUOUS
 90
6
 70
0
 10
-1.5274569652
 20
-65.059276071
 10
-1.5528483312
 20
-65.067051658
 10
-1.5775821114
 20
-65.0765046132
 10
-1.6013066589
 20
-65.0875717334
 10
-1.6242883854
 20
-65.1002813377
 10
-1.6464826475
 20
-65.114617181
  0
LWPOLYLINE
  5
38A
100
AcDbEntity
  8
RACCORDO
100
AcDbPolyline
 62
250
  6
CONTINUOUS
 90
5
 70
0
 10
1.6466814461
 20
67.3850877165
 10
1.6140003197
 20
67.4049593993
 10
1.5814359766
 20
67.4213377442
 10
1.5491024998
 20
67.4342857554
 10
1.5169946533
 20
67.4436512312
  0
LWPOLYLINE
  5
38B
100
AcDbEntity
  8
RACCORDO
100
AcDbPolyline
 62
250
  6
CONTINUOUS
 90
11
 70
0
 10
1.5320657794
 20
-67.4395373388
 10
1.5451264763
 20
-67.4355886981
 10
1.5577939202
 20
-67.4312713129
 10
1.5700781914
 20
-67.426583669
 10
1.5820100692
 20
-67.4215757435
 10
1.5935800645
 20
-67.4162619916
 10
1.6047885178
 20
-67.4106402702
 10
1.6156821376
 20
-67.4047342171
 10
1.6262740132
 20
-67.3985547471
 10
1.636543189
 20
-67.3921011298
 10
1.6464857934
 20
-67.3853786061
  0
LINE
  5
38C
100
AcDbEntity
  8
RACCORDO
100
AcDbLine
 62
250
  6
CONTINUOUS
 10
1.4701015579
 20
66.5479956532
 11
1.498807076
 21
66.5538143823
  0
LINE
  5
38D
100
AcDbEntity
  8
RACCORDO
100
AcDbLine
 62
250
  6
CONTINUOUS
 10
-1.4701015579
 20
65.9520043468
 11
-1.498807076
 21
65.9461856177
  0
LINE
  5
38E
100
AcDbEntity
  8
RACCORDO
100
AcDbLine
 62
250
  6
CONTINUOUS
 10
-1.0938508866
 20
65.0912951079
 11
-1.0125145111
 21
65.103902188
  0
LINE
  5
38F
100
AcDbEntity
  8
RACCORDO
100
AcDbLine
 62
250
  6
CONTINUOUS
 10
1.0938508866
 20
67.4087048921
 11
1.0125145111
 21
67.396097812
  0
LWPOLYLINE
  5
390
100
AcDbEntity
  8
RACCORDO
100
AcDbPolyline
 62
250
  6
CONTINUOUS
 90
4
 70
0
 10
-1.3668926661
 20
65.050071126
 10
-1.2918101112
 20
65.0614404164
 10
-1.2532845762
 20
65.0671393753
 10
-1.0938508866
 20
65.0912951079
  0
LWPOLYLINE
  5
391
100
AcDbEntity
  8
RACCORDO
100
AcDbPolyline
 62
250
  6
CONTINUOUS
 90
4
 70
0
 10
1.3668926661
 20
67.449928874
 10
1.2918101112
 20
67.4385595836
 10
1.2532845762
 20
67.4328606247
 10
1.0938508866
 20
67.4087048921
  0
LINE
  5
392
100
AcDbEntity
  8
RACCORDO
100
AcDbLine
 62
7
  6
CONTINUOUS
 10
-1.4330853288
 20
65.1025665416
 11
-1.0723833781
 21
65.1500538543
  0
LINE
  5
393
100
AcDbEntity
  8
RACCORDO
100
AcDbLine
 62
7
  6
CONTINUOUS
 10
1.4330853288
 20
67.3974334584
 11
1.0723833781
 21
67.3499461457
  0
LWPOLYLINE
  5
394
100
AcDbEntity
  8
RACCORDO
100
AcDbPolyline
 62
7
  6
CONTINUOUS
 90
7
 70
0
 10
0.0870691767
 20
64.2473227733
 10
0.100093893
 20
64.2490280744
 10
0.1127241743
 20
64.250810853
 10
0.1250261526
 20
64.2524616365
 10
0.1370218721
 20
64.2539106008
 10
0.1486892887
 20
64.25522757
 10
0.1600284024
 20
64.2564125442
  0
LWPOLYLINE
  5
395
100
AcDbEntity
  8
RACCORDO
100
AcDbPolyline
 62
7
  6
CONTINUOUS
 90
7
 70
0
 10
-0.0870693421
 20
68.2526772061
 10
-0.1000939757
 20
68.250971917
 10
-0.1127241471
 20
68.2491891546
 10
-0.1250260489
 20
68.2475383818
 10
-0.1370217452
 20
68.2460894196
 10
-0.1486891718
 20
68.2447724471
 10
-0.1600283289
 20
68.2435874641
  0
LWPOLYLINE
  5
396
100
AcDbEntity
  8
RACCORDO
100
AcDbPolyline
 62
7
  6
CONTINUOUS
 90
4
 70
0
 10
0.0455622859
 20
64.2428812079
 10
0.05982892
 20
64.2441449148
 10
0.0736462658
 20
64.2456951053
 10
0.0870691767
 20
64.2473227733
  0
LWPOLYLINE
  5
397
100
AcDbEntity
  8
RACCORDO
100
AcDbPolyline
 62
7
  6
CONTINUOUS
 90
4
 70
0
 10
-0.045562476
 20
68.2571187701
 10
-0.0598291427
 20
68.2558550599
 10
-0.0736464735
 20
68.2543048697
 10
-0.0870693421
 20
68.2526772061
  0
LWPOLYLINE
  5
398
100
AcDbEntity
  8
RACCORDO
100
AcDbPolyline
 62
250
  6
CONTINUOUS
 90
9
 70
0
 10
-1.0723833779
 20
65.1500538543
 10
-1.0649520478
 20
65.150305252
 10
-1.0575990698
 20
65.149081083
 10
-1.0503551016
 20
65.1463937158
 10
-1.0431633499
 20
65.1423307547
 10
-1.036120042
 20
65.136966736
 10
-1.0294942186
 20
65.1303125981
 10
-1.0233908248
 20
65.122451773
 10
-1.0177329289
 20
65.1135835022
  0
LWPOLYLINE
  5
399
100
AcDbEntity
  8
RACCORDO
100
AcDbPolyline
 62
250
  6
CONTINUOUS
 90
9
 70
0
 10
1.0723833779
 20
67.3499461457
 10
1.0649520478
 20
67.349694748
 10
1.0575990698
 20
67.350918917
 10
1.0503551016
 20
67.3536062842
 10
1.0431633499
 20
67.3576692453
 10
1.036120042
 20
67.363033264
 10
1.0294942186
 20
67.3696874019
 10
1.0233908248
 20
67.377548227
 10
1.0177329289
 20
67.3864164978
  0
LWPOLYLINE
  5
39A
100
AcDbEntity
  8
RACCORDO
100
AcDbPolyline
 62
250
  6
CONTINUOUS
 90
10
 70
0
 10
-1.433085338
 20
65.1025666118
 10
-1.4247829892
 20
65.1028131772
 10
-1.4164009242
 20
65.1013916873
 10
-1.408079817
 20
65.0983259985
 10
-1.3999593186
 20
65.0936675614
 10
-1.3921757133
 20
65.0874945574
 10
-1.3848596314
 20
65.0799105863
 10
-1.3781338569
 20
65.0710429278
 10
-1.3721112666
 20
65.0610404054
 10
-1.3668929364
 20
65.0500708888
  0
LWPOLYLINE
  5
39B
100
AcDbEntity
  8
RACCORDO
100
AcDbPolyline
 62
250
  6
CONTINUOUS
 90
10
 70
0
 10
1.433085338
 20
67.3974333882
 10
1.4247829892
 20
67.3971868228
 10
1.4164009242
 20
67.3986083127
 10
1.408079817
 20
67.4016740015
 10
1.3999593186
 20
67.4063324386
 10
1.3921757133
 20
67.4125054426
 10
1.3848596314
 20
67.4200894137
 10
1.3781338569
 20
67.4289570722
 10
1.3721112666
 20
67.4389595946
 10
1.3668929364
 20
67.4499291112
  0
LINE
  5
39C
100
AcDbEntity
  8
RACCORDO
100
AcDbLine
 62
250
  6
CONTINUOUS
 10
-0.4752990756
 20
64.8004091837
 11
-0.4862925649
 21
64.8000878056
  0
LINE
  5
39D
100
AcDbEntity
  8
RACCORDO
100
AcDbLine
 62
250
  6
CONTINUOUS
 10
0.4752990756
 20
67.6995908163
 11
0.4862925649
 21
67.6999121944
  0
LWPOLYLINE
  5
39E
100
AcDbEntity
  8
RACCORDO
100
AcDbPolyline
 62
7
  6
CONTINUOUS
 90
4
 70
0
 10
0.0000118004
 20
64.2410179953
 10
0.0156445839
 20
64.2413525825
 10
0.030828079
 20
64.2419736534
 10
0.0455622859
 20
64.2428812079
  0
LWPOLYLINE
  5
39F
100
AcDbEntity
  8
RACCORDO
100
AcDbPolyline
 62
7
  6
CONTINUOUS
 90
4
 70
0
 10
-0.0000115854
 20
68.2589820136
 10
-0.0156445517
 20
68.2586474125
 10
-0.0308281818
 20
68.2580263313
 10
-0.045562476
 20
68.2571187701
  0
LINE
  5
3A0
100
AcDbEntity
  8
RACCORDO
100
AcDbLine
 62
250
  6
CONTINUOUS
 10
0.4752990919
 20
64.8004091804
 11
0.4862925649
 21
64.8000878056
  0
LINE
  5
3A1
100
AcDbEntity
  8
RACCORDO
100
AcDbLine
 62
250
  6
CONTINUOUS
 10
-0.4752990919
 20
67.6995908196
 11
-0.4862925648
 21
67.6999121944
  0
LWPOLYLINE
  5
3A2
100
AcDbEntity
  8
RACCORDO
100
AcDbPolyline
 62
250
  6
CONTINUOUS
 90
10
 70
0
 10
1.4330853157
 20
65.1025664423
 10
1.4247829412
 20
65.1028130899
 10
1.4164008465
 20
65.1013916706
 10
1.4080797071
 20
65.0983260417
 10
1.3999591746
 20
65.0936676545
 10
1.3921755348
 20
65.0874946918
 10
1.3848594199
 20
65.0799107563
 10
1.3781336144
 20
65.0710431305
 10
1.3721109943
 20
65.0610406393
 10
1.3668926344
 20
65.0500711539
  0
LWPOLYLINE
  5
3A3
100
AcDbEntity
  8
RACCORDO
100
AcDbPolyline
 62
250
  6
CONTINUOUS
 90
10
 70
0
 10
-1.4330853242
 20
67.3974334915
 10
-1.4247828576
 20
67.3971868535
 10
-1.4164006909
 20
67.3986083169
 10
-1.4080795038
 20
67.4016740108
 10
-1.3999589461
 20
67.4063324725
 10
-1.3921753071
 20
67.4125055046
 10
-1.3848592262
 20
67.4200894805
 10
-1.3781334839
 20
67.4289570975
 10
-1.3721109429
 20
67.4389595217
 10
-1.3668926662
 20
67.4499288742
  0
LWPOLYLINE
  5
3A4
100
AcDbEntity
  8
RACCORDO
100
AcDbPolyline
 62
250
  6
CONTINUOUS
 90
9
 70
0
 10
1.0723833781
 20
65.1500538543
 10
1.0649520516
 20
65.1503052529
 10
1.0575990764
 20
65.1490810874
 10
1.0503551103
 20
65.1463937254
 10
1.0431633612
 20
65.1423307708
 10
1.0361200554
 20
65.1369667588
 10
1.0294942316
 20
65.1303126245
 10
1.0233908346
 20
65.1224517974
 10
1.0177329342
 20
65.113583518
  0
LWPOLYLINE
  5
3A5
100
AcDbEntity
  8
RACCORDO
100
AcDbPolyline
 62
250
  6
CONTINUOUS
 90
9
 70
0
 10
-1.0723833781
 20
67.3499461457
 10
-1.0649520516
 20
67.3496947471
 10
-1.0575990764
 20
67.3509189126
 10
-1.0503551103
 20
67.3536062746
 10
-1.0431633612
 20
67.3576692292
 10
-1.0361200554
 20
67.3630332412
 10
-1.0294942316
 20
67.3696873755
 10
-1.0233908346
 20
67.3775482026
 10
-1.0177329342
 20
67.386416482
  0
LWPOLYLINE
  5
3A6
100
AcDbEntity
  8
RACCORDO
100
AcDbPolyline
 62
7
  6
CONTINUOUS
 90
7
 70
0
 10
-0.1600284055
 20
64.2564125445
 10
-0.1487269245
 20
64.2552326316
 10
-0.1370866241
 20
64.2539192837
 10
-0.1251075044
 20
64.2524725008
 10
-0.1128089042
 20
64.2508221282
 10
-0.1001714846
 20
64.2490383207
 10
-0.0871372292
 20
64.2473315421
  0
LWPOLYLINE
  5
3A7
100
AcDbEntity
  8
RACCORDO
100
AcDbPolyline
 62
7
  6
CONTINUOUS
 90
7
 70
0
 10
0.1600284458
 20
68.2435874509
 10
0.1487295664
 20
68.2447670204
 10
0.1370898868
 20
68.2460802834
 10
0.125109407
 20
68.2475272398
 10
0.1128061103
 20
68.2491782409
 10
0.1001620134
 20
68.2509629355
 10
0.0871231663
 20
68.2526702699
  0
LWPOLYLINE
  5
3A8
100
AcDbEntity
  8
RACCORDO
100
AcDbPolyline
 62
7
  6
CONTINUOUS
 90
7
 70
0
 10
-0.0871372292
 20
64.2473315421
 10
-0.0737050922
 20
64.2457019996
 10
-0.0598761194
 20
64.244149486
 10
-0.0455954317
 20
64.2428838445
 10
-0.030844736
 20
64.2419750227
 10
-0.0156423253
 20
64.241353073
 10
0.0000118004
 20
64.2410179953
  0
LWPOLYLINE
  5
3A9
100
AcDbEntity
  8
RACCORDO
100
AcDbPolyline
 62
7
  6
CONTINUOUS
 90
7
 70
0
 10
0.0871231663
 20
68.2526702699
 10
0.0736902532
 20
68.2542997295
 10
0.0598625901
 20
68.2558518289
 10
0.0455841748
 20
68.257117058
 10
0.0308363402
 20
68.2580255801
 10
0.0156377534
 20
68.258647232
 10
-0.0000115854
 20
68.2589820136
  0
LWPOLYLINE
  5
3AA
100
AcDbEntity
  8
RACCORDO
100
AcDbPolyline
 62
250
  6
CONTINUOUS
 90
12
 70
0
 10
1.3668926661
 20
65.050071126
 10
1.383324815
 20
65.0480161549
 10
1.3994955088
 20
65.0466031415
 10
1.4153984066
 20
65.0458305365
 10
1.4310257911
 20
65.0457233245
 10
1.4463717771
 20
65.0462528274
 10
1.4614330052
 20
65.0473358329
 10
1.4762165262
 20
65.0489664417
 10
1.4907019561
 20
65.0511439444
 10
1.5048456801
 20
65.0537902437
 10
1.5186329927
 20
65.0568976018
 10
1.5320657794
 20
65.0604626612
  0
LINE
  5
3AB
100
AcDbEntity
  8
RACCORDO
100
AcDbLine
 62
7
  6
CONTINUOUS
 10
1.0723833781
 20
65.1500538543
 11
1.4330853288
 21
65.1025665416
  0
LINE
  5
3AC
100
AcDbEntity
  8
RACCORDO
100
AcDbLine
 62
7
  6
CONTINUOUS
 10
-1.0723833781
 20
67.3499461457
 11
-1.4330853288
 21
67.3974334584
  0
LWPOLYLINE
  5
3AD
100
AcDbEntity
  8
RACCORDO
100
AcDbPolyline
 62
250
  6
CONTINUOUS
 90
8
 70
0
 10
-1.3668926661
 20
67.449928874
 10
-1.3869718553
 20
67.4526153668
 10
-1.4080527254
 20
67.4540801212
 10
-1.4301367719
 20
67.4542746509
 10
-1.4534292783
 20
67.4532443454
 10
-1.4777201071
 20
67.4508348881
 10
-1.5023715013
 20
67.4467152468
 10
-1.5274569652
 20
67.440723929
  0
LWPOLYLINE
  5
3AE
100
AcDbEntity
  8
RACCORDO
100
AcDbPolyline
 62
250
  6
CONTINUOUS
 90
3
 70
0
 10
1.0533005679
 20
65.0974972128
 10
1.2140851922
 20
65.073035945
 10
1.3296993031
 20
65.0557753902
  0
LWPOLYLINE
  5
3AF
100
AcDbEntity
  8
RACCORDO
100
AcDbPolyline
 62
250
  6
CONTINUOUS
 90
3
 70
0
 10
-1.0533005679
 20
67.4025027872
 10
-1.2140851922
 20
67.426964055
 10
-1.3296993031
 20
67.4442246098
  0
LINE
  5
3B0
100
AcDbEntity
  8
RACCORDO
100
AcDbLine
 62
250
  6
CONTINUOUS
 10
1.3296993031
 20
65.0557753902
 11
1.3668926661
 21
65.050071126
  0
LINE
  5
3B1
100
AcDbEntity
  8
RACCORDO
100
AcDbLine
 62
250
  6
CONTINUOUS
 10
-1.3296993031
 20
67.4442246098
 11
-1.3668926661
 21
67.449928874
  0
LINE
  5
3B2
100
AcDbEntity
  8
RACCORDO
100
AcDbLine
 62
250
  6
CONTINUOUS
 10
1.0125145111
 20
65.103902188
 11
1.0533005679
 21
65.0974972128
  0
LINE
  5
3B3
100
AcDbEntity
  8
RACCORDO
100
AcDbLine
 62
250
  6
CONTINUOUS
 10
-1.0125145111
 20
67.396097812
 11
-1.0533005679
 21
67.4025027872
  0
LWPOLYLINE
  5
3B4
100
AcDbEntity
  8
RACCORDO
100
AcDbPolyline
 62
250
  6
CONTINUOUS
 90
6
 70
0
 10
1.5169946533
 20
67.4436512312
 10
1.4853014637
 20
67.4497253474
 10
1.4543855539
 20
67.4532457375
 10
1.4243802136
 20
67.4545118241
 10
1.3952105193
 20
67.4533806885
 10
1.3668926661
 20
67.449928874
  0
LINE
  5
3B5
100
AcDbEntity
  8
RACCORDO
100
AcDbLine
 62
250
  6
CONTINUOUS
 10
-1.4701015575
 20
66.5479956552
 11
-1.498807076
 21
66.5538143823
  0
LINE
  5
3B6
100
AcDbEntity
  8
RACCORDO
100
AcDbLine
 62
250
  6
CONTINUOUS
 10
1.4701015575
 20
65.9520043448
 11
1.498807076
 21
65.9461856177
  0
LWPOLYLINE
  5
3B7
100
AcDbEntity
  8
RACCORDO
100
AcDbPolyline
 62
250
  6
CONTINUOUS
 90
11
 70
0
 10
-1.5197041868
 20
65.0571618255
 10
-1.5058720477
 20
65.0540041811
 10
-1.4916783671
 20
65.0513093962
 10
-1.4771331834
 20
65.0490853383
 10
-1.4622662223
 20
65.0474129134
 10
-1.447086842
 20
65.0462926769
 10
-1.4315995946
 20
65.0457320481
 10
-1.4158279329
 20
65.0458193128
 10
-1.3997845063
 20
65.0465845937
 10
-1.3834705858
 20
65.0480013506
 10
-1.3668926661
 20
65.050071126
  0
LWPOLYLINE
  5
3B8
100
AcDbEntity
  8
0
100
AcDbPolyline
 62
7
  6
CONTINUOUS
 90
13
 70
0
 43
0.3500000019
 10
3.0000024414
 20
94.0642871094
 10
2.7142871094
 20
94.2785722656
 10
2.7142871094
 20
94.9214277344
 10
3.0000024414
 20
95.3499980469
 10
3.6428579102
 20
95.3499980469
 10
3.9285732422
 20
94.9214277344
 10
3.9285732422
 20
94.2785722656
 10
3.6428579102
 20
94.0642871094
 10
4.0714282227
 20
93.6357167969
 10
4.0714282227
 20
92.7785761719
 10
3.6428579102
 20
92.3499951172
 10
3.0000024414
 20
92.3499951172
 10
2.5714267578
 20
92.7785761719
  0
LINE
  5
3B9
100
AcDbEntity
  8
RACCORDO
100
AcDbLine
 62
7
  6
CONTINUOUS
 10
58.9
 20
83.6
 11
-58.9
 21
83.6
  0
LWPOLYLINE
  5
3BA
100
AcDbEntity
  8
0
100
AcDbPolyline
 62
7
  6
CONTINUOUS
 90
7
 70
0
 43
0.3500000019
 10
89.2751347656
 20
-90.8499990234
 10
87.7751386719
 20
-90.8499990234
 10
89.2751347656
 20
-88.7071420898
 10
89.2751347656
 20
-88.2785717773
 10
88.8465644531
 20
-87.8500014648
 10
88.2037089844
 20
-87.8500014648
 10
87.7751386719
 20
-88.4928569336
  0
LWPOLYLINE
  5
3BB
100
AcDbEntity
  8
0
100
AcDbPolyline
 62
7
  6
CONTINUOUS
 90
6
 70
0
 43
0.3500000019
 10
85.6322763672
 20
-90.8499990234
 10
86.7037128906
 20
-90.8499990234
 10
86.9179980469
 20
-90.6357138672
 10
86.9179980469
 20
-89.5642880859
 10
86.4894277344
 20
-89.1357124023
 10
86.0608466797
 20
-89.1357124023
  0
LWPOLYLINE
  5
3BC
100
AcDbEntity
  8
0
100
AcDbPolyline
 62
7
  6
CONTINUOUS
 90
6
 70
0
 43
0.3500000019
 10
91.8465673828
 20
-90.8499990234
 10
92.9179931641
 20
-90.8499990234
 10
93.1322783203
 20
-90.6357138672
 10
93.1322783203
 20
-89.5642880859
 10
92.7037080078
 20
-89.1357124023
 10
92.2751376953
 20
-89.1357124023
  0
LINE
  5
3BD
100
AcDbEntity
  8
RACCORDO
100
AcDbLine
 62
7
  6
CONTINUOUS
 10
109.9608520508
 20
-83.6
 11
107.4608520508
 21
-83.6
  0
LINE
  5
3BE
100
AcDbEntity
  8
0
100
AcDbLine
 62
7
  6
CONTINUOUS
 10
107.4608520508
 20
-83.6
 11
105.9608520508
 21
-83.6
  0
LINE
  5
3BF
100
AcDbEntity
  8
RACCORDO
100
AcDbLine
 62
250
  6
CONTINUOUS
 10
109.9608520508
 20
-82.6
 11
107.4608520508
 21
-82.6
  0
LINE
  5
3C0
100
AcDbEntity
  8
0
100
AcDbLine
 62
7
  6
CONTINUOUS
 10
104.4608520508
 20
-81.6
 11
107.4608520508
 21
-81.6
  0
LINE
  5
3C1
100
AcDbEntity
  8
0
100
AcDbLine
 62
7
  6
CONTINUOUS
 10
80.9608520508
 20
-68.25
 11
104.4608520508
 21
-68.25
  0
LINE
  5
3C2
100
AcDbEntity
  8
0
100
AcDbLine
 62
7
  6
CONTINUOUS
 10
80.6108520508
 20
-67.9
 11
104.4608520508
 21
-67.9
  0
LINE
  5
3C3
100
AcDbEntity
  8
0
100
AcDbLine
 62
7
  6
CONTINUOUS
 10
80.6108520508
 20
-64.6
 11
104.4608520508
 21
-64.6
  0
LINE
  5
3C4
100
AcDbEntity
  8
0
100
AcDbLine
 62
7
  6
CONTINUOUS
 10
80.9608520508
 20
-64.25
 11
104.4608520508
 21
-64.25
  0
LINE
  5
3C5
100
AcDbEntity
  8
SMUSSO
100
AcDbLine
 62
7
  6
CONTINUOUS
 10
79.9608520508
 20
67.25
 11
80.9608520508
 21
68.25
  0
LINE
  5
3C6
100
AcDbEntity
  8
SMUSSO
100
AcDbLine
 62
7
  6
CONTINUOUS
 10
79.9608520508
 20
-67.25
 11
80.9608520508
 21
-68.25
  0
LINE
  5
3C7
100
AcDbEntity
  8
SMUSSO
100
AcDbLine
 62
7
  6
CONTINUOUS
 10
93.6608520508
 20
-48.7364817767
 11
92.6608520508
 21
-48.9101299543
  0
LINE
  5
3C8
100
AcDbEntity
  8
SMUSSO
100
AcDbLine
 62
7
  6
CONTINUOUS
 10
92.6608520508
 20
-47.9253222013
 11
93.6608520508
 21
-47.7516740237
  0
LINE
  5
3C9
100
AcDbEntity
  8
SMUSSO
100
AcDbLine
 62
7
  6
CONTINUOUS
 10
92.6608520508
 20
-48.9101299543
 11
88.2608520508
 21
-48.9101299543
  0
LINE
  5
3CA
100
AcDbEntity
  8
SMUSSO
100
AcDbLine
 62
7
  6
CONTINUOUS
 10
92.6608520508
 20
-47.9253222013
 11
88.2608520508
 21
-47.9253222013
  0
LINE
  5
3CB
100
AcDbEntity
  8
RACCORDO
100
AcDbLine
 62
250
  6
CONTINUOUS
 10
93.6608520508
 20
-46.3066084907
 11
87.2608520508
 21
-46.3066084907
  0
LINE
  5
3CC
100
AcDbEntity
  8
RACCORDO
100
AcDbLine
 62
250
  6
CONTINUOUS
 10
93.6608520508
 20
-45.3218007376
 11
87.2608520508
 21
-45.3218007376
  0
LWPOLYLINE
  5
3CD
100
AcDbEntity
  8
ASSI
100
AcDbPolyline
 62
7
  6
CONTINUOUS
 90
18
 70
0
 10
90.4608520508
 20
-47.282823944
 10
90.3788721984
 20
-47.2821058052
 10
90.2990479739
 20
-47.2801128467
 10
90.2213793775
 20
-47.2768450683
 10
90.1452060784
 20
-47.2722501043
 10
90.0711884073
 20
-47.2663803205
 10
90.0013073559
 20
-47.2593928144
 10
89.9356746325
 20
-47.2512574023
 10
89.8741785289
 20
-47.242004268
 10
89.8184649126
 20
-47.2318810601
 10
89.7686899378
 20
-47.2208642826
 10
89.7246974502
 20
-47.2089774315
 10
89.6876648547
 20
-47.1965386439
 10
89.6577801009
 20
-47.1835330148
 10
89.6348552392
 20
-47.1699754491
 10
89.6195038252
 20
-47.1562287984
 10
89.6119303775
 20
-47.1422879564
 10
89.6109836965
 20
-47.1352229929
  0
LWPOLYLINE
  5
3CE
100
AcDbEntity
  8
ASSI
100
AcDbPolyline
 62
7
  6
CONTINUOUS
 90
18
 70
0
 10
90.4608520508
 20
-46.9876220419
 10
90.5428319032
 20
-46.9883401807
 10
90.6226561276
 20
-46.9903331392
 10
90.7003247241
 20
-46.9936009175
 10
90.7764980232
 20
-46.9981958815
 10
90.8505156943
 20
-47.0040656654
 10
90.9203967456
 20
-47.0110531714
 10
90.986029469
 20
-47.0191885835
 10
91.0475255726
 20
-47.0284417179
 10
91.103239189
 20
-47.0385649258
 10
91.1530141638
 20
-47.0495817033
 10
91.1970066513
 20
-47.0614685543
 10
91.2340392468
 20
-47.073907342
 10
91.2639240006
 20
-47.086912971
 10
91.2868488624
 20
-47.1004705367
 10
91.3022002764
 20
-47.1142171875
 10
91.3097737241
 20
-47.1281580294
 10
91.3107204051
 20
-47.1352229929
  0
LINE
  5
3CF
100
AcDbEntity
  8
SMUSSO
100
AcDbLine
 62
7
  6
CONTINUOUS
 10
88.2608520508
 20
-48.9101299543
 11
87.2608520508
 21
-48.7364817767
  0
LINE
  5
3D0
100
AcDbEntity
  8
SMUSSO
100
AcDbLine
 62
7
  6
CONTINUOUS
 10
87.2608520508
 20
-47.7516740237
 11
88.2608520508
 21
-47.9253222013
  0
LINE
  5
3D1
100
AcDbEntity
  8
SMUSSO
100
AcDbLine
 62
7
  6
CONTINUOUS
 10
93.6108520508
 20
-40.3637931034
 11
92.6108520508
 21
-40.45
  0
LINE
  5
3D2
100
AcDbEntity
  8
RACCORDO
100
AcDbLine
 62
7
  6
CONTINUOUS
 10
85.1608520508
 20
-43.0
 11
96.4608520508
 21
-43.0
  0
LINE
  5
3D3
100
AcDbEntity
  8
RACCORDO
100
AcDbLine
 62
250
  6
CONTINUOUS
 10
85.1608520508
 20
-41.0
 11
96.4608520508
 21
-41.0
  0
LINE
  5
3D4
100
AcDbEntity
  8
SMUSSO
100
AcDbLine
 62
7
  6
CONTINUOUS
 10
92.6108520508
 20
-40.45
 11
88.3108520508
 21
-40.45
  0
LINE
  5
3D5
100
AcDbEntity
  8
SMUSSO
100
AcDbLine
 62
7
  6
CONTINUOUS
 10
92.6108520508
 20
-39.6470328509
 11
88.3108520508
 21
-39.6470328509
  0
LINE
  5
3D6
100
AcDbEntity
  8
SMUSSO
100
AcDbLine
 62
7
  6
CONTINUOUS
 10
88.3108520508
 20
-40.45
 11
87.3108520508
 21
-40.3637931034
  0
LINE
  5
3D7
100
AcDbEntity
  8
SMUSSO
100
AcDbLine
 62
7
  6
CONTINUOUS
 10
87.3108520508
 20
-39.5608259543
 11
88.3108520508
 21
-39.6470328509
  0
LWPOLYLINE
  5
3D8
100
AcDbEntity
  8
0
100
AcDbPolyline
 62
7
  6
CONTINUOUS
 90
10
 70
0
 43
0.3500000019
 10
90.7751416016
 20
-90.3500039063
 10
90.8465664063
 20
-90.4928535156
 10
90.8465664063
 20
-90.5642890625
 10
90.7037060547
 20
-90.7071386719
 10
90.63228125
 20
-90.7071386719
 10
90.5608564453
 20
-90.6357138672
 10
90.5608564453
 20
-90.5642890625
 10
90.63228125
 20
-90.4214287109
 10
90.7037060547
 20
-90.3500039063
 10
90.7751416016
 20
-90.3500039063
  0
LINE
  5
3D9
100
AcDbEntity
  8
SMUSSO
100
AcDbLine
 62
7
  6
CONTINUOUS
 10
92.6108520508
 20
-39.6470328509
 11
93.6108520508
 21
-39.5608259543
  0
LINE
  5
3DA
100
AcDbEntity
  8
0
100
AcDbLine
 62
7
  6
CONTINUOUS
 10
87.3108520508
 20
-38.6470328509
 11
93.6108520508
 21
-38.6470328509
  0
LWPOLYLINE
  5
3DB
100
AcDbEntity
  8
ASSI
100
AcDbPolyline
 62
7
  6
CONTINUOUS
 90
18
 70
0
 10
90.4608520508
 20
-39.3351693189
 10
90.3788721984
 20
-39.3348141194
 10
90.2990479739
 20
-39.3338283796
 10
90.2213793775
 20
-39.3322120997
 10
90.1452060784
 20
-39.3299393788
 10
90.0711884073
 20
-39.3270361177
 10
90.0013073559
 20
-39.3235800186
 10
89.9356746325
 20
-39.3195561523
 10
89.8741785289
 20
-39.3149794479
 10
89.8184649126
 20
-39.3099723954
 10
89.7686899378
 20
-39.3045233733
 10
89.7246974502
 20
-39.2986440031
 10
89.6876648547
 20
-39.2924916388
 10
89.6577801009
 20
-39.2860589083
 10
89.6348552392
 20
-39.2793531838
 10
89.6195038252
 20
-39.2725539357
 10
89.6119303775
 20
-39.2656586385
 10
89.6109836965
 20
-39.262164228
  0
LWPOLYLINE
  5
3DC
100
AcDbEntity
  8
ASSI
100
AcDbPolyline
 62
7
  6
CONTINUOUS
 90
18
 70
0
 10
90.4608520508
 20
-39.1891591372
 10
90.5428319032
 20
-39.1895143367
 10
90.6226561276
 20
-39.1905000764
 10
90.7003247241
 20
-39.1921163563
 10
90.7764980232
 20
-39.1943890772
 10
90.8505156943
 20
-39.1972923383
 10
90.9203967456
 20
-39.2007484374
 10
90.986029469
 20
-39.2047723038
 10
91.0475255726
 20
-39.2093490081
 10
91.103239189
 20
-39.2143560607
 10
91.1530141638
 20
-39.2198050827
 10
91.1970066513
 20
-39.225684453
 10
91.2340392468
 20
-39.2318368173
 10
91.2639240006
 20
-39.2382695477
 10
91.2868488624
 20
-39.2449752722
 10
91.3022002764
 20
-39.2517745203
 10
91.3097737241
 20
-39.2586698176
 10
91.3107204051
 20
-39.262164228
  0
LINE
  5
3DD
100
AcDbEntity
  8
SMUSSO
100
AcDbLine
 62
7
  6
CONTINUOUS
 10
88.3108520508
 20
-30.2529671491
 11
87.3108520508
 21
-30.3391740457
  0
LINE
  5
3DE
100
AcDbEntity
  8
SMUSSO
100
AcDbLine
 62
7
  6
CONTINUOUS
 10
87.3108520508
 20
-29.5362068966
 11
88.3108520508
 21
-29.45
  0
LINE
  5
3DF
100
AcDbEntity
  8
0
100
AcDbLine
 62
7
  6
CONTINUOUS
 10
87.3108520508
 20
-31.2529671491
 11
93.6108520508
 21
-31.2529671491
  0
LINE
  5
3E0
100
AcDbEntity
  8
SMUSSO
100
AcDbLine
 62
7
  6
CONTINUOUS
 10
92.6108520508
 20
-30.2529671491
 11
88.3108520508
 21
-30.2529671491
  0
LINE
  5
3E1
100
AcDbEntity
  8
SMUSSO
100
AcDbLine
 62
7
  6
CONTINUOUS
 10
92.6108520508
 20
-29.45
 11
88.3108520508
 21
-29.45
  0
LINE
  5
3E2
100
AcDbEntity
  8
ASSI
100
AcDbLine
 62
7
  6
CONTINUOUS
 10
109.9608520508
 20
-29.2
 11
111.4608520508
 21
-29.2
  0
LINE
  5
3E3
100
AcDbEntity
  8
0
100
AcDbLine
 62
250
  6
CONTINUOUS
 10
85.1608520508
 20
-28.9
 11
95.2608520508
 21
-28.9
  0
LWPOLYLINE
  5
3E4
100
AcDbEntity
  8
ASSI
100
AcDbPolyline
 62
7
  6
CONTINUOUS
 90
18
 70
0
 10
90.4608520508
 20
-30.7108408628
 10
90.3788721984
 20
-30.7104856633
 10
90.2990479739
 20
-30.7094999236
 10
90.2213793775
 20
-30.7078836437
 10
90.1452060784
 20
-30.7056109228
 10
90.0711884073
 20
-30.7027076617
 10
90.0013073559
 20
-30.6992515626
 10
89.9356746325
 20
-30.6952276962
 10
89.8741785289
 20
-30.6906509918
 10
89.8184649126
 20
-30.6856439393
 10
89.7686899378
 20
-30.6801949173
 10
89.7246974502
 20
-30.674315547
 10
89.6876648547
 20
-30.6681631827
 10
89.6577801009
 20
-30.6617304523
 10
89.6348552392
 20
-30.6550247278
 10
89.6195038252
 20
-30.6482254797
 10
89.6119303775
 20
-30.6413301824
 10
89.6109836965
 20
-30.637835772
  0
LWPOLYLINE
  5
3E5
100
AcDbEntity
  8
ASSI
100
AcDbPolyline
 62
7
  6
CONTINUOUS
 90
18
 70
0
 10
90.4608520508
 20
-30.5648306811
 10
90.5428319032
 20
-30.5651858806
 10
90.6226561276
 20
-30.5661716204
 10
90.7003247241
 20
-30.5677879003
 10
90.7764980232
 20
-30.5700606212
 10
90.8505156943
 20
-30.5729638823
 10
90.9203967456
 20
-30.5764199814
 10
90.986029469
 20
-30.5804438477
 10
91.0475255726
 20
-30.5850205521
 10
91.103239189
 20
-30.5900276046
 10
91.1530141638
 20
-30.5954766267
 10
91.1970066513
 20
-30.6013559969
 10
91.2340392468
 20
-30.6075083612
 10
91.2639240006
 20
-30.6139410917
 10
91.2868488624
 20
-30.6206468162
 10
91.3022002764
 20
-30.6274460643
 10
91.3097737241
 20
-30.6343413615
 10
91.3107204051
 20
-30.637835772
  0
LINE
  5
3E6
100
AcDbEntity
  8
SMUSSO
100
AcDbLine
 62
7
  6
CONTINUOUS
 10
93.6108520508
 20
-30.3391740457
 11
92.6108520508
 21
-30.2529671491
  0
LINE
  5
3E7
100
AcDbEntity
  8
SMUSSO
100
AcDbLine
 62
7
  6
CONTINUOUS
 10
92.6108520508
 20
-29.45
 11
93.6108520508
 21
-29.5362068966
  0
LWPOLYLINE
  5
3E8
100
AcDbEntity
  8
RACCORDO
100
AcDbPolyline
 62
7
  6
CONTINUOUS
 90
16
 70
0
 10
87.2608520508
 20
-23.3041919141
 10
87.2289420601
 20
-23.3044032713
 10
87.1980403607
 20
-23.3049808093
 10
87.1681469525
 20
-23.3059245281
 10
87.1389586379
 20
-23.3072526574
 10
87.1107786146
 20
-23.3089469675
 10
87.0845164751
 20
-23.3109527697
 10
87.0602347981
 20
-23.3132802276
 10
87.0378710049
 20
-23.3159191775
 10
87.0181469525
 20
-23.3187844396
 10
87.0011487727
 20
-23.3218833983
 10
86.9867903337
 20
-23.3252086692
 10
86.9755350959
 20
-23.3286529195
 10
86.9675375462
 20
-23.3321803715
 10
86.9626431979
 20
-23.3358268029
 10
86.9608520508
 20
-23.3395922136
  0
LINE
  5
3E9
100
AcDbEntity
  8
RACCORDO
100
AcDbLine
 62
250
  6
CONTINUOUS
 10
109.9608520508
 20
-27.4441842029
 11
111.4608520508
 21
-27.4441842029
  0
LINE
  5
3EA
100
AcDbEntity
  8
RACCORDO
100
AcDbLine
 62
7
  6
CONTINUOUS
 10
95.4006455519
 20
-26.9
 11
85.1608520508
 21
-26.9
  0
LINE
  5
3EB
100
AcDbEntity
  8
ASSI
100
AcDbLine
 62
7
  6
CONTINUOUS
 10
104.4608520508
 20
-26.7
 11
97.6608520508
 21
-26.7
  0
LINE
  5
3EC
100
AcDbEntity
  8
0
100
AcDbLine
 62
7
  6
CONTINUOUS
 10
97.6608520508
 20
-26.7
 11
96.9576018678
 21
-26.7
  0
LINE
  5
3ED
100
AcDbEntity
  8
0
100
AcDbLine
 62
7
  6
CONTINUOUS
 10
95.4877272756
 20
-26.7
 11
93.3608520508
 21
-26.7
  0
LINE
  5
3EE
100
AcDbEntity
  8
RACCORDO
100
AcDbLine
 62
250
  6
CONTINUOUS
 10
86.9608520508
 20
-25.8770249095
 11
93.3608520508
 21
-25.8770249095
  0
LINE
  5
3EF
100
AcDbEntity
  8
RACCORDO
100
AcDbLine
 62
250
  6
CONTINUOUS
 10
109.9608520508
 20
-25.2558519808
 11
111.4608520508
 21
-25.2558519808
  0
LINE
  5
3F0
100
AcDbEntity
  8
RACCORDO
100
AcDbLine
 62
250
  6
CONTINUOUS
 10
86.9608520508
 20
-24.7847100854
 11
93.3608520508
 21
-24.7847100854
  0
LINE
  5
3F1
100
AcDbEntity
  8
RACCORDO
100
AcDbLine
 62
7
  6
CONTINUOUS
 10
93.3608520508
 20
-23.3041919141
 11
87.2608520508
 21
-23.3041919141
  0
LINE
  5
3F2
100
AcDbEntity
  8
ASSI
100
AcDbLine
 62
250
  6
CONTINUOUS
 10
104.4608520508
 20
-22.2059462935
 11
97.6608520508
 21
-22.2059462935
  0
LINE
  5
3F3
100
AcDbEntity
  8
RACCORDO
100
AcDbLine
 62
7
  6
CONTINUOUS
 10
75.6608520508
 20
6.95
 11
75.6608520508
 21
23.05
  0
LWPOLYLINE
  5
3F4
100
AcDbEntity
  8
ASSI
100
AcDbPolyline
 62
7
  6
CONTINUOUS
 90
18
 70
0
 10
80.8109836965
 20
27.1852229929
 10
80.8119303775
 20
27.1922879564
 10
80.8195038252
 20
27.2062287984
 10
80.8348552392
 20
27.2199754491
 10
80.8577801009
 20
27.2335330148
 10
80.8876648547
 20
27.2465386439
 10
80.9246974502
 20
27.2589774315
 10
80.9686899378
 20
27.2708642826
 10
81.0184649126
 20
27.2818810601
 10
81.0741785289
 20
27.292004268
 10
81.1356746325
 20
27.3012574023
 10
81.2013073559
 20
27.3093928144
 10
81.2711884073
 20
27.3163803205
 10
81.3452060784
 20
27.3222501043
 10
81.4213793775
 20
27.3268450683
 10
81.4990479739
 20
27.3301128467
 10
81.5788721984
 20
27.3321058052
 10
81.6608520508
 20
27.332823944
  0
LWPOLYLINE
  5
3F5
100
AcDbEntity
  8
ASSI
100
AcDbPolyline
 62
7
  6
CONTINUOUS
 90
18
 70
0
 10
80.8109836965
 20
19.312164228
 10
80.8119303775
 20
19.3156586385
 10
80.8195038252
 20
19.3225539357
 10
80.8348552392
 20
19.3293531838
 10
80.8577801009
 20
19.3360589083
 10
80.8876648547
 20
19.3424916388
 10
80.9246974502
 20
19.3486440031
 10
80.9686899378
 20
19.3545233733
 10
81.0184649126
 20
19.3599723954
 10
81.0741785289
 20
19.3649794479
 10
81.1356746325
 20
19.3695561523
 10
81.2013073559
 20
19.3735800186
 10
81.2711884073
 20
19.3770361177
 10
81.3452060784
 20
19.3799393788
 10
81.4213793775
 20
19.3822120997
 10
81.4990479739
 20
19.3838283796
 10
81.5788721984
 20
19.3848141194
 10
81.6608520508
 20
19.3851693189
  0
LINE
  5
3F6
100
AcDbEntity
  8
RACCORDO
100
AcDbLine
 62
250
  6
CONTINUOUS
 10
97.6608520508
 20
-21.9
 11
96.4608520508
 21
-21.9
  0
LINE
  5
3F7
100
AcDbEntity
  8
RACCORDO
100
AcDbLine
 62
7
  6
CONTINUOUS
 10
97.6608520508
 20
-19.9
 11
96.4608520508
 21
-19.9
  0
LINE
  5
3F8
100
AcDbEntity
  8
0
100
AcDbLine
 62
7
  6
CONTINUOUS
 10
93.3608520508
 20
-19.6
 11
91.7608520508
 21
-19.6
  0
LINE
  5
3F9
100
AcDbEntity
  8
ASSI
100
AcDbLine
 62
7
  6
CONTINUOUS
 10
91.7608520508
 20
-19.6
 11
86.6608520508
 21
-19.6
  0
LINE
  5
3FA
100
AcDbEntity
  8
0
100
AcDbLine
 62
7
  6
CONTINUOUS
 10
86.6608520508
 20
-19.6
 11
85.8608520508
 21
-19.6
  0
LINE
  5
3FB
100
AcDbEntity
  8
0
100
AcDbLine
 62
7
  6
CONTINUOUS
 10
97.6608520508
 20
-19.5
 11
93.3608520508
 21
-19.5
  0
LINE
  5
3FC
100
AcDbEntity
  8
0
100
AcDbLine
 62
7
  6
CONTINUOUS
 10
111.9608520508
 20
-19.2
 11
113.1603876343
 21
-19.2
  0
LINE
  5
3FD
100
AcDbEntity
  8
ASSI
100
AcDbLine
 62
250
  6
CONTINUOUS
 10
78.0010444296
 20
0.85
 11
78.0010444296
 21
1.15
  0
LINE
  5
3FE
100
AcDbEntity
  8
RACCORDO
100
AcDbLine
 62
7
  6
CONTINUOUS
 10
78.1608520508
 20
3.3895922136
 11
78.1608520508
 21
6.95
  0
LINE
  5
3FF
100
AcDbEntity
  8
RACCORDO
100
AcDbLine
 62
7
  6
CONTINUOUS
 10
78.4608520508
 20
23.05
 11
78.4608520508
 21
27.8016740237
  0
LINE
  5
400
100
AcDbEntity
  8
SMUSSO
100
AcDbLine
 62
7
  6
CONTINUOUS
 10
78.4608520508
 20
27.8016740237
 11
78.4608520508
 21
28.7864817767
  0
LINE
  5
401
100
AcDbEntity
  8
SMUSSO
100
AcDbLine
 62
7
  6
CONTINUOUS
 10
78.5108520508
 20
9.5862068966
 11
78.5108520508
 21
11.3029671491
  0
LINE
  5
402
100
AcDbEntity
  8
SMUSSO
100
AcDbLine
 62
7
  6
CONTINUOUS
 10
78.5108520508
 20
18.6970328509
 11
78.5108520508
 21
20.4137931034
  0
LINE
  5
403
100
AcDbEntity
  8
ASSI
100
AcDbLine
 62
7
  6
CONTINUOUS
 10
78.9248048603
 20
-0.75
 11
78.9248048603
 21
2.75
  0
LINE
  5
404
100
AcDbEntity
  8
SMUSSO
100
AcDbLine
 62
7
  6
CONTINUOUS
 10
79.4608520508
 20
27.9753222013
 11
79.4608520508
 21
28.9601299543
  0
LINE
  5
405
100
AcDbEntity
  8
SMUSSO
100
AcDbLine
 62
7
  6
CONTINUOUS
 10
79.5108520508
 20
9.5
 11
79.5108520508
 21
10.3029671491
  0
LINE
  5
406
100
AcDbEntity
  8
SMUSSO
100
AcDbLine
 62
7
  6
CONTINUOUS
 10
79.5108520508
 20
19.6970328509
 11
79.5108520508
 21
20.5
  0
LINE
  5
407
100
AcDbEntity
  8
SMUSSO
100
AcDbLine
 62
7
  6
CONTINUOUS
 10
79.9608520508
 20
-67.25
 11
79.9608520508
 21
-65.25
  0
LINE
  5
408
100
AcDbEntity
  8
SMUSSO
100
AcDbLine
 62
7
  6
CONTINUOUS
 10
79.9608520508
 20
65.25
 11
79.9608520508
 21
67.25
  0
LINE
  5
409
100
AcDbEntity
  8
0
100
AcDbLine
 62
7
  6
CONTINUOUS
 10
80.6108520508
 20
67.9
 11
80.6108520508
 21
64.6
  0
LINE
  5
40A
100
AcDbEntity
  8
0
100
AcDbLine
 62
7
  6
CONTINUOUS
 10
80.6108520508
 20
-64.6
 11
80.6108520508
 21
-67.9
  0
LINE
  5
40B
100
AcDbEntity
  8
SMUSSO
100
AcDbLine
 62
7
  6
CONTINUOUS
 10
80.9608520508
 20
-68.25
 11
80.9608520508
 21
-64.25
  0
LINE
  5
40C
100
AcDbEntity
  8
SMUSSO
100
AcDbLine
 62
7
  6
CONTINUOUS
 10
80.9608520508
 20
64.25
 11
80.9608520508
 21
68.25
  0
LWPOLYLINE
  5
40D
100
AcDbEntity
  8
ASSI
100
AcDbPolyline
 62
7
  6
CONTINUOUS
 90
18
 70
0
 10
82.5107204051
 20
27.1852229929
 10
82.5097737241
 20
27.1781580294
 10
82.5022002764
 20
27.1642171875
 10
82.4868488624
 20
27.1504705367
 10
82.4639240006
 20
27.136912971
 10
82.4340392468
 20
27.123907342
 10
82.3970066513
 20
27.1114685543
 10
82.3530141638
 20
27.0995817033
 10
82.303239189
 20
27.0885649258
 10
82.2475255726
 20
27.0784417179
 10
82.186029469
 20
27.0691885835
 10
82.1203967456
 20
27.0610531714
 10
82.0505156943
 20
27.0540656654
 10
81.9764980232
 20
27.0481958815
 10
81.9003247241
 20
27.0436009175
 10
81.8226561276
 20
27.0403331392
 10
81.7428319032
 20
27.0383401807
 10
81.6608520508
 20
27.0376220419
  0
LWPOLYLINE
  5
40E
100
AcDbEntity
  8
ASSI
100
AcDbPolyline
 62
7
  6
CONTINUOUS
 90
18
 70
0
 10
82.5107204051
 20
19.312164228
 10
82.5097737241
 20
19.3086698176
 10
82.5022002764
 20
19.3017745203
 10
82.4868488624
 20
19.2949752722
 10
82.4639240006
 20
19.2882695477
 10
82.4340392468
 20
19.2818368173
 10
82.3970066513
 20
19.275684453
 10
82.3530141638
 20
19.2698050827
 10
82.303239189
 20
19.2643560607
 10
82.2475255726
 20
19.2593490082
 10
82.186029469
 20
19.2547723038
 10
82.1203967456
 20
19.2507484374
 10
82.0505156943
 20
19.2472923383
 10
81.9764980232
 20
19.2443890772
 10
81.9003247241
 20
19.2421163563
 10
81.8226561276
 20
19.2405000764
 10
81.7428319032
 20
19.2395143367
 10
81.6608520508
 20
19.2391591372
  0
LWPOLYLINE
  5
40F
100
AcDbEntity
  8
ASSI
100
AcDbPolyline
 62
7
  6
CONTINUOUS
 90
18
 70
0
 10
80.8109836965
 20
10.687835772
 10
80.8119303775
 20
10.6913301824
 10
80.8195038252
 20
10.6982254797
 10
80.8348552392
 20
10.7050247278
 10
80.8577801009
 20
10.7117304523
 10
80.8876648547
 20
10.7181631827
 10
80.9246974502
 20
10.724315547
 10
80.9686899378
 20
10.7301949173
 10
81.0184649126
 20
10.7356439393
 10
81.0741785289
 20
10.7406509919
 10
81.1356746325
 20
10.7452276962
 10
81.2013073559
 20
10.7492515626
 10
81.2711884073
 20
10.7527076617
 10
81.3452060784
 20
10.7556109228
 10
81.4213793775
 20
10.7578836437
 10
81.4990479739
 20
10.7594999236
 10
81.5788721984
 20
10.7604856633
 10
81.6608520508
 20
10.7608408628
  0
LWPOLYLINE
  5
410
100
AcDbEntity
  8
ASSI
100
AcDbPolyline
 62
7
  6
CONTINUOUS
 90
18
 70
0
 10
82.5107204051
 20
10.687835772
 10
82.5097737241
 20
10.6843413615
 10
82.5022002764
 20
10.6774460643
 10
82.4868488624
 20
10.6706468162
 10
82.4639240006
 20
10.6639410917
 10
82.4340392468
 20
10.6575083612
 10
82.3970066513
 20
10.6513559969
 10
82.3530141638
 20
10.6454766267
 10
82.303239189
 20
10.6400276046
 10
82.2475255726
 20
10.6350205521
 10
82.186029469
 20
10.6304438477
 10
82.1203967456
 20
10.6264199814
 10
82.0505156943
 20
10.6229638823
 10
81.9764980232
 20
10.6200606212
 10
81.9003247241
 20
10.6177879003
 10
81.8226561276
 20
10.6161716204
 10
81.7428319032
 20
10.6151858806
 10
81.6608520508
 20
10.6148306811
  0
LINE
  5
411
100
AcDbEntity
  8
ASSI
100
AcDbLine
 62
7
  6
CONTINUOUS
 10
78.9248048603
 20
2.75
 11
78.0010444296
 21
1.15
  0
LINE
  5
412
100
AcDbEntity
  8
RACCORDO
100
AcDbLine
 62
250
  6
CONTINUOUS
 10
109.9608520508
 20
-12.0764463681
 11
111.4608520508
 21
-12.0764463681
  0
LINE
  5
413
100
AcDbEntity
  8
0
100
AcDbLine
 62
250
  6
CONTINUOUS
 10
104.4608520508
 20
-11.6539002594
 11
97.6608520508
 21
-11.6539002594
  0
LINE
  5
414
100
AcDbEntity
  8
ASSI
100
AcDbLine
 62
7
  6
CONTINUOUS
 10
93.3608520508
 20
-11.0251262658
 11
104.4608520508
 21
-11.0251262658
  0
LINE
  5
415
100
AcDbEntity
  8
ASSI
100
AcDbLine
 62
7
  6
CONTINUOUS
 10
78.9248048603
 20
-0.75
 11
78.0010444296
 21
0.85
  0
LWPOLYLINE
  5
416
100
AcDbEntity
  8
RACCORDO
100
AcDbPolyline
 62
7
  6
CONTINUOUS
 90
16
 70
0
 10
78.1608520508
 20
3.3895922136
 10
78.1626431979
 20
3.3858268029
 10
78.1675375462
 20
3.3821803715
 10
78.1755350959
 20
3.3786529195
 10
78.1867903337
 20
3.3752086692
 10
78.2011487727
 20
3.3718833983
 10
78.2181469525
 20
3.3687844396
 10
78.2378710049
 20
3.3659191775
 10
78.2602347981
 20
3.3632802276
 10
78.2845164751
 20
3.3609527697
 10
78.3107786146
 20
3.3589469675
 10
78.3389586379
 20
3.3572526574
 10
78.3681469525
 20
3.3559245281
 10
78.3980403607
 20
3.3549808093
 10
78.4289420601
 20
3.3544032713
 10
78.4608520508
 20
3.3541919141
  0
LINE
  5
417
100
AcDbEntity
  8
SMUSSO
100
AcDbLine
 62
7
  6
CONTINUOUS
 10
83.8108520508
 20
20.5
 11
83.8108520508
 21
19.6970328509
  0
LINE
  5
418
100
AcDbEntity
  8
SMUSSO
100
AcDbLine
 62
7
  6
CONTINUOUS
 10
83.8108520508
 20
10.3029671491
 11
83.8108520508
 21
9.5
  0
LINE
  5
419
100
AcDbEntity
  8
SMUSSO
100
AcDbLine
 62
7
  6
CONTINUOUS
 10
83.8608520508
 20
28.9601299543
 11
83.8608520508
 21
27.9753222013
  0
LINE
  5
41A
100
AcDbEntity
  8
SMUSSO
100
AcDbLine
 62
7
  6
CONTINUOUS
 10
84.8108520508
 20
9.5862068966
 11
84.8108520508
 21
11.3029671491
  0
LINE
  5
41B
100
AcDbEntity
  8
SMUSSO
100
AcDbLine
 62
7
  6
CONTINUOUS
 10
84.8108520508
 20
18.6970328509
 11
84.8108520508
 21
20.4137931034
  0
LINE
  5
41C
100
AcDbEntity
  8
SMUSSO
100
AcDbLine
 62
7
  6
CONTINUOUS
 10
84.8608520508
 20
28.7864817767
 11
84.8608520508
 21
27.8016740237
  0
LINE
  5
41D
100
AcDbEntity
  8
RACCORDO
100
AcDbLine
 62
7
  6
CONTINUOUS
 10
84.8608520508
 20
27.8016740237
 11
84.8608520508
 21
23.05
  0
LINE
  5
41E
100
AcDbEntity
  8
RACCORDO
100
AcDbLine
 62
7
  6
CONTINUOUS
 10
85.1608520508
 20
-43.0
 11
85.1608520508
 21
-26.9
  0
LINE
  5
41F
100
AcDbEntity
  8
RACCORDO
100
AcDbLine
 62
7
  6
CONTINUOUS
 10
85.1608520508
 20
6.95
 11
85.1608520508
 21
3.3895922136
  0
LINE
  5
420
100
AcDbEntity
  8
0
100
AcDbLine
 62
7
  6
CONTINUOUS
 10
85.8608520508
 20
-19.6
 11
85.8608520508
 21
-7.4
  0
LINE
  5
421
100
AcDbEntity
  8
0
100
AcDbLine
 62
7
  6
CONTINUOUS
 10
86.4608520508
 20
33.0
 11
86.4608520508
 21
1.0
  0
LINE
  5
422
100
AcDbEntity
  8
0
100
AcDbLine
 62
7
  6
CONTINUOUS
 10
86.9608520508
 20
33.0
 11
86.9608520508
 21
1.0
  0
LINE
  5
423
100
AcDbEntity
  8
RACCORDO
100
AcDbLine
 62
7
  6
CONTINUOUS
 10
86.9608520508
 20
-26.9
 11
86.9608520508
 21
-23.3395922136
  0
LINE
  5
424
100
AcDbEntity
  8
RACCORDO
100
AcDbLine
 62
7
  6
CONTINUOUS
 10
86.9608520508
 20
-1.5
 11
86.9608520508
 21
1.0
  0
LINE
  5
425
100
AcDbEntity
  8
SMUSSO
100
AcDbLine
 62
7
  6
CONTINUOUS
 10
87.2608520508
 20
-48.7364817767
 11
87.2608520508
 21
-47.7516740237
  0
LINE
  5
426
100
AcDbEntity
  8
RACCORDO
100
AcDbLine
 62
7
  6
CONTINUOUS
 10
87.2608520508
 20
-47.7516740237
 11
87.2608520508
 21
-43.0
  0
LINE
  5
427
100
AcDbEntity
  8
SMUSSO
100
AcDbLine
 62
7
  6
CONTINUOUS
 10
87.3108520508
 20
-29.5362068966
 11
87.3108520508
 21
-31.2529671491
  0
LINE
  5
428
100
AcDbEntity
  8
SMUSSO
100
AcDbLine
 62
7
  6
CONTINUOUS
 10
87.3108520508
 20
-38.6470328509
 11
87.3108520508
 21
-40.3637931034
  0
LINE
  5
429
100
AcDbEntity
  8
SMUSSO
100
AcDbLine
 62
7
  6
CONTINUOUS
 10
88.2608520508
 20
-48.9101299543
 11
88.2608520508
 21
-47.9253222013
  0
LINE
  5
42A
100
AcDbEntity
  8
SMUSSO
100
AcDbLine
 62
7
  6
CONTINUOUS
 10
88.3108520508
 20
-40.45
 11
88.3108520508
 21
-39.6470328509
  0
LINE
  5
42B
100
AcDbEntity
  8
SMUSSO
100
AcDbLine
 62
7
  6
CONTINUOUS
 10
88.3108520508
 20
-30.2529671491
 11
88.3108520508
 21
-29.45
  0
LINE
  5
42C
100
AcDbEntity
  8
RACCORDO
100
AcDbLine
 62
250
  6
CONTINUOUS
 10
88.4608520508
 20
-3.0
 11
88.4608520508
 21
31.5
  0
LINE
  5
42D
100
AcDbEntity
  8
ASSI
100
AcDbLine
 62
250
  6
CONTINUOUS
 10
104.4608520508
 20
-8.1966991411
 11
93.3608520508
 21
-8.1966991411
  0
LINE
  5
42E
100
AcDbEntity
  8
SMUSSO
100
AcDbLine
 62
7
  6
CONTINUOUS
 10
113.1608319828
 20
-8.0422985445
 11
111.9608520508
 21
-8.0422985445
  0
LINE
  5
42F
100
AcDbEntity
  8
0
100
AcDbLine
 62
7
  6
CONTINUOUS
 10
93.3608520508
 20
-7.4
 11
91.7608520508
 21
-7.4
  0
LINE
  5
430
100
AcDbEntity
  8
ASSI
100
AcDbLine
 62
7
  6
CONTINUOUS
 10
91.7608520508
 20
-7.4
 11
86.6608520508
 21
-7.4
  0
LINE
  5
431
100
AcDbEntity
  8
0
100
AcDbLine
 62
7
  6
CONTINUOUS
 10
86.6608520508
 20
-7.4
 11
85.8608520508
 21
-7.4
  0
LINE
  5
432
100
AcDbEntity
  8
SMUSSO
100
AcDbLine
 62
7
  6
CONTINUOUS
 10
92.6108520508
 20
-29.45
 11
92.6108520508
 21
-30.2529671491
  0
LINE
  5
433
100
AcDbEntity
  8
SMUSSO
100
AcDbLine
 62
7
  6
CONTINUOUS
 10
92.6108520508
 20
-39.6470328509
 11
92.6108520508
 21
-40.45
  0
LINE
  5
434
100
AcDbEntity
  8
SMUSSO
100
AcDbLine
 62
7
  6
CONTINUOUS
 10
92.6608520508
 20
-47.9253222013
 11
92.6608520508
 21
-48.9101299543
  0
LINE
  5
435
100
AcDbEntity
  8
ASSI
100
AcDbLine
 62
7
  6
CONTINUOUS
 10
93.3608520508
 20
-3.9291761886
 11
93.3608520508
 21
-19.5
  0
LINE
  5
436
100
AcDbEntity
  8
0
100
AcDbLine
 62
7
  6
CONTINUOUS
 10
93.3608520508
 20
-19.5
 11
93.3608520508
 21
-26.7
  0
LINE
  5
437
100
AcDbEntity
  8
SMUSSO
100
AcDbLine
 62
7
  6
CONTINUOUS
 10
93.6108520508
 20
-29.5362068966
 11
93.6108520508
 21
-31.2529671491
  0
LINE
  5
438
100
AcDbEntity
  8
SMUSSO
100
AcDbLine
 62
7
  6
CONTINUOUS
 10
93.6108520508
 20
-38.6470328509
 11
93.6108520508
 21
-40.3637931034
  0
LINE
  5
439
100
AcDbEntity
  8
RACCORDO
100
AcDbLine
 62
7
  6
CONTINUOUS
 10
93.6608520508
 20
-43.0
 11
93.6608520508
 21
-47.7516740237
  0
LINE
  5
43A
100
AcDbEntity
  8
SMUSSO
100
AcDbLine
 62
7
  6
CONTINUOUS
 10
93.6608520508
 20
-47.7516740237
 11
93.6608520508
 21
-48.7364817767
  0
LINE
  5
43B
100
AcDbEntity
  8
RACCORDO
100
AcDbLine
 62
7
  6
CONTINUOUS
 10
93.9608520508
 20
-26.9
 11
93.9608520508
 21
-26.7
  0
LINE
  5
43C
100
AcDbEntity
  8
ASSI
100
AcDbLine
 62
7
  6
CONTINUOUS
 10
98.9102967008
 20
12.6
 11
99.9206596719
 21
14.35
  0
LWPOLYLINE
  5
43D
100
AcDbEntity
  8
RACCORDO
100
AcDbPolyline
 62
250
  6
CONTINUOUS
 90
22
 70
0
 10
97.0383279605
 20
3.0254073678
 10
97.0772455961
 20
3.0509681096
 10
97.116050623
 20
3.0777757046
 10
97.154858501
 20
3.105971344
 10
97.1940876695
 20
3.1359613505
 10
97.2337686857
 20
3.1679043437
 10
97.2736861334
 20
3.201770921
 10
97.3138483152
 20
3.2377256235
 10
97.3542177873
 20
3.2759065618
 10
97.3945954765
 20
3.3163068828
 10
97.434739933
 20
3.3588677485
 10
97.4746665183
 20
3.4037948341
 10
97.514099213
 20
3.4509756139
 10
97.5524175252
 20
3.4998113706
 10
97.5895315106
 20
3.5502750804
 10
97.625372574
 20
3.6023613706
 10
97.6594655393
 20
3.6554141586
 10
97.6917037371
 20
3.7092257008
 10
97.7221642253
 20
3.7638781039
 10
97.7507276792
 20
3.8191009192
 10
97.7773960879
 20
3.8748184194
 10
97.8021811371
 20
3.9309696634
  0
LINE
  5
43E
100
AcDbEntity
  8
RACCORDO
100
AcDbLine
 62
250
  6
CONTINUOUS
 10
96.9995136196
 20
3.0011795251
 11
97.0383279605
 21
3.0254073678
  0
LWPOLYLINE
  5
43F
100
AcDbEntity
  8
RACCORDO
100
AcDbPolyline
 62
7
  6
CONTINUOUS
 90
19
 70
0
 10
96.9612341164
 20
2.973453395
 10
96.9970916996
 20
2.9947436469
 10
97.1017981568
 20
3.0629735546
 10
97.2020827695
 20
3.1376517532
 10
97.2975496564
 20
3.2184916004
 10
97.3878237986
 20
3.3051845236
 10
97.4725572511
 20
3.3974070259
 10
97.5514151604
 20
3.4948079251
 10
97.6240777178
 20
3.5970075716
 10
97.6902555835
 20
3.7036102783
 10
97.749684239
 20
3.8142043159
 10
97.8021255748
 20
3.9283637928
 10
97.8473702399
 20
4.0456488865
 10
97.8852336969
 20
4.1656036085
 10
97.9155628328
 20
4.2877726651
 10
97.9382343059
 20
4.4117025531
 10
97.9531470383
 20
4.536940477
 10
97.960225161
 20
4.6629949896
 10
97.9608520507
 20
4.7133291893
  0
LINE
  5
440
100
AcDbEntity
  8
RACCORDO
100
AcDbLine
 62
250
  6
CONTINUOUS
 10
96.9608520508
 20
2.9782515674
 11
96.9995136196
 21
3.0011795251
  0
LINE
  5
441
100
AcDbEntity
  8
RACCORDO
100
AcDbLine
 62
250
  6
CONTINUOUS
 10
96.2108520508
 20
2.5433887358
 11
96.9608520508
 21
2.9782515674
  0
LINE
  5
442
100
AcDbEntity
  8
RACCORDO
100
AcDbLine
 62
7
  6
CONTINUOUS
 10
96.2111801161
 20
2.5387697606
 11
96.9612339592
 21
2.9734533039
  0
LINE
  5
443
100
AcDbEntity
  8
ASSI
100
AcDbLine
 62
7
  6
CONTINUOUS
 10
109.9608520508
 20
-4.4
 11
111.4608520508
 21
-4.4
  0
LINE
  5
444
100
AcDbEntity
  8
ASSI
100
AcDbLine
 62
7
  6
CONTINUOUS
 10
93.3608520508
 20
-3.9289321881
 11
104.4608520508
 21
-3.9289321881
  0
LINE
  5
445
100
AcDbEntity
  8
RACCORDO
100
AcDbLine
 62
7
  6
CONTINUOUS
 10
88.4608520508
 20
-3.0
 11
95.9608520508
 21
-3.0
  0
LINE
  5
446
100
AcDbEntity
  8
ASSI
100
AcDbLine
 62
7
  6
CONTINUOUS
 10
86.9608520508
 20
-0.75
 11
78.9248048603
 21
-0.75
  0
LINE
  5
447
100
AcDbEntity
  8
0
100
AcDbLine
 62
7
  6
CONTINUOUS
 10
109.9608520508
 20
-0.5
 11
112.4608520508
 21
-0.5
  0
LWPOLYLINE
  5
448
100
AcDbEntity
  8
RACCORDO
100
AcDbPolyline
 62
250
  6
CONTINUOUS
 90
13
 70
0
 10
96.9608520508
 20
16.0789829795
 10
96.9581706172
 20
16.108796546
 10
96.9536940901
 20
16.1377472402
 10
96.947488165
 20
16.1654101944
 10
96.9396439174
 20
16.1913794394
 10
96.9302764659
 20
16.2152738618
 10
96.9195232831
 20
16.2367427975
 10
96.9075421781
 20
16.2554711781
 10
96.8945089803
 20
16.2711841539
 10
96.8806149592
 20
16.2836511282
 10
96.8660640172
 20
16.2926891411
 10
96.8510696978
 20
16.2981655549
 10
96.8358520508
 20
16.3
  0
LWPOLYLINE
  5
449
100
AcDbEntity
  8
RACCORDO
100
AcDbPolyline
 62
250
  6
CONTINUOUS
 90
13
 70
0
 10
96.2108633857
 20
16.0779406992
 10
96.2082356857
 20
16.1078628651
 10
96.2038013876
 20
16.1369305879
 10
96.197625987
 20
16.1647147311
 10
96.1898006719
 20
16.1908051494
 10
96.1804410039
 20
16.2148166499
 10
96.1696852282
 20
16.2363947038
 10
96.157692186
 20
16.2552207946
 10
96.144638946
 20
16.2710171015
 10
96.1307182273
 20
16.2835505178
 10
96.1161355495
 20
16.2926361046
 10
96.1011062008
 20
16.2981398236
 10
96.0858520515
 20
16.2999805191
  0
LINE
  5
44A
100
AcDbEntity
  8
RACCORDO
100
AcDbLine
 62
7
  6
CONTINUOUS
 10
95.2608520508
 20
-27.6717183306
 11
95.2608520508
 21
-28.9
  0
LINE
  5
44B
100
AcDbEntity
  8
0
100
AcDbLine
 62
7
  6
CONTINUOUS
 10
95.9608520508
 20
31.5
 11
95.9608520508
 21
-3.0
  0
LINE
  5
44C
100
AcDbEntity
  8
RACCORDO
100
AcDbLine
 62
250
  6
CONTINUOUS
 10
96.2108520508
 20
25.0
 11
96.2108520508
 21
18.0
  0
LINE
  5
44D
100
AcDbEntity
  8
RACCORDO
100
AcDbLine
 62
250
  6
CONTINUOUS
 10
96.2108520508
 20
16.077938165
 11
96.2108520508
 21
2.5433887358
  0
LINE
  5
44E
100
AcDbEntity
  8
RACCORDO
100
AcDbLine
 62
7
  6
CONTINUOUS
 10
96.4608520508
 20
-19.9
 11
96.4608520508
 21
-25.0492189406
  0
LINE
  5
44F
100
AcDbEntity
  8
RACCORDO
100
AcDbLine
 62
7
  6
CONTINUOUS
 10
96.4608520508
 20
-27.6717183306
 11
96.4608520508
 21
-43.0
  0
LINE
  5
450
100
AcDbEntity
  8
RACCORDO
100
AcDbLine
 62
250
  6
CONTINUOUS
 10
96.9608520508
 20
16.0789829795
 11
96.9608520508
 21
2.9782515674
  0
LINE
  5
451
100
AcDbEntity
  8
RACCORDO
100
AcDbLine
 62
7
  6
CONTINUOUS
 10
97.6608520508
 20
-25.0492189406
 11
97.6608520508
 21
-25.0040940259
  0
LINE
  5
452
100
AcDbEntity
  8
0
100
AcDbLine
 62
7
  6
CONTINUOUS
 10
97.6608520508
 20
-11.6539002594
 11
97.6608520508
 21
-22.2059462935
  0
LINE
  5
453
100
AcDbEntity
  8
ASSI
100
AcDbLine
 62
7
  6
CONTINUOUS
 10
97.6608520508
 20
-22.2059462935
 11
97.6608520508
 21
-26.7
  0
LINE
  5
454
100
AcDbEntity
  8
RACCORDO
100
AcDbLine
 62
7
  6
CONTINUOUS
 10
97.9608520508
 20
16.05
 11
97.9608520508
 21
4.7133296442
  0
LINE
  5
455
100
AcDbEntity
  8
ASSI
100
AcDbLine
 62
7
  6
CONTINUOUS
 10
98.9102967008
 20
16.4
 11
98.9102967008
 21
12.6
  0
LINE
  5
456
100
AcDbEntity
  8
ASSI
100
AcDbLine
 62
250
  6
CONTINUOUS
 10
99.9206596719
 20
14.35
 11
99.9206596719
 21
14.65
  0
LINE
  5
457
100
AcDbEntity
  8
RACCORDO
100
AcDbLine
 62
250
  6
CONTINUOUS
 10
97.9596026299
 20
4.6424776335
 11
97.9608520508
 21
4.7133296449
  0
LWPOLYLINE
  5
458
100
AcDbEntity
  8
RACCORDO
100
AcDbPolyline
 62
7
  6
CONTINUOUS
 90
14
 70
0
 10
95.9608584077
 20
2.1035821827
 10
95.961202167
 20
2.1222166128
 10
95.9647766736
 20
2.166326867
 10
95.9721981663
 20
2.2098811831
 10
95.9833774463
 20
2.2525552125
 10
95.9982247858
 20
2.2940412985
 10
96.0166276084
 20
2.3340232688
 10
96.0384140802
 20
2.3722002936
 10
96.0634103745
 20
2.4082900741
 10
96.0914245374
 20
2.4420087242
 10
96.1222402796
 20
2.4731233842
 10
96.1556557511
 20
2.5014256027
 10
96.1914434775
 20
2.5266954461
 10
96.2111938858
 20
2.5387504116
  0
LINE
  5
459
100
AcDbEntity
  8
RACCORDO
100
AcDbLine
 62
250
  6
CONTINUOUS
 10
97.9503610614
 20
4.5082644469
 11
97.9560229428
 21
4.5741000227
  0
LINE
  5
45A
100
AcDbEntity
  8
RACCORDO
100
AcDbLine
 62
250
  6
CONTINUOUS
 10
95.9663511031
 20
2.1755666794
 11
95.9683804663
 21
2.1912785392
  0
LWPOLYLINE
  5
45B
100
AcDbEntity
  8
ASSI
100
AcDbPolyline
 62
7
  6
CONTINUOUS
 90
18
 70
0
 10
89.6109836965
 20
-47.1352229929
 10
89.6119303775
 20
-47.1281580294
 10
89.6195038252
 20
-47.1142171875
 10
89.6348552392
 20
-47.1004705367
 10
89.6577801009
 20
-47.086912971
 10
89.6876648547
 20
-47.073907342
 10
89.7246974502
 20
-47.0614685543
 10
89.7686899378
 20
-47.0495817033
 10
89.8184649126
 20
-47.0385649258
 10
89.8741785289
 20
-47.0284417179
 10
89.9356746325
 20
-47.0191885835
 10
90.0013073559
 20
-47.0110531714
 10
90.0711884073
 20
-47.0040656654
 10
90.1452060784
 20
-46.9981958815
 10
90.2213793775
 20
-46.9936009175
 10
90.2990479739
 20
-46.9903331392
 10
90.3788721984
 20
-46.9883401807
 10
90.4608520508
 20
-46.9876220419
  0
LWPOLYLINE
  5
45C
100
AcDbEntity
  8
ASSI
100
AcDbPolyline
 62
7
  6
CONTINUOUS
 90
18
 70
0
 10
91.3107204051
 20
-47.1352229929
 10
91.3097737241
 20
-47.1422879564
 10
91.3022002764
 20
-47.1562287984
 10
91.2868488624
 20
-47.1699754491
 10
91.2639240006
 20
-47.1835330148
 10
91.2340392468
 20
-47.1965386439
 10
91.1970066513
 20
-47.2089774315
 10
91.1530141638
 20
-47.2208642826
 10
91.103239189
 20
-47.2318810601
 10
91.0475255726
 20
-47.242004268
 10
90.986029469
 20
-47.2512574023
 10
90.9203967456
 20
-47.2593928144
 10
90.8505156943
 20
-47.2663803205
 10
90.7764980232
 20
-47.2722501043
 10
90.7003247241
 20
-47.2768450683
 10
90.6226561276
 20
-47.2801128467
 10
90.5428319032
 20
-47.2821058052
 10
90.4608520508
 20
-47.282823944
  0
LINE
  5
45D
100
AcDbEntity
  8
RACCORDO
100
AcDbLine
 62
250
  6
CONTINUOUS
 10
97.9339009838
 20
4.3853465303
 11
97.942920862
 21
4.4454911068
  0
LINE
  5
45E
100
AcDbEntity
  8
RACCORDO
100
AcDbLine
 62
250
  6
CONTINUOUS
 10
97.9110673856
 20
4.2688640749
 11
97.9232525857
 21
4.3264644707
  0
LWPOLYLINE
  5
45F
100
AcDbEntity
  8
RACCORDO
100
AcDbPolyline
 62
250
  6
CONTINUOUS
 90
11
 70
0
 10
95.9683804663
 20
2.1912785392
 10
95.9777220557
 20
2.2342490798
 10
95.9906640937
 20
2.2761645209
 10
96.0071095946
 20
2.3167707292
 10
96.027011777
 20
2.3558946649
 10
96.0502817947
 20
2.3932829615
 10
96.0767499354
 20
2.4285959332
 10
96.1062510214
 20
2.4615256912
 10
96.1385900058
 20
2.4917946638
 10
96.1735398991
 20
2.5191602735
 10
96.2108520508
 20
2.5433887358
  0
LWPOLYLINE
  5
460
100
AcDbEntity
  8
ASSI
100
AcDbPolyline
 62
7
  6
CONTINUOUS
 90
18
 70
0
 10
89.6109836965
 20
-30.637835772
 10
89.6119303775
 20
-30.6343413615
 10
89.6195038252
 20
-30.6274460643
 10
89.6348552392
 20
-30.6206468162
 10
89.6577801009
 20
-30.6139410917
 10
89.6876648547
 20
-30.6075083612
 10
89.7246974502
 20
-30.6013559969
 10
89.7686899378
 20
-30.5954766267
 10
89.8184649126
 20
-30.5900276046
 10
89.8741785289
 20
-30.5850205521
 10
89.9356746325
 20
-30.5804438477
 10
90.0013073559
 20
-30.5764199814
 10
90.0711884073
 20
-30.5729638823
 10
90.1452060784
 20
-30.5700606212
 10
90.2213793775
 20
-30.5677879003
 10
90.2990479739
 20
-30.5661716204
 10
90.3788721984
 20
-30.5651858806
 10
90.4608520508
 20
-30.5648306811
  0
LWPOLYLINE
  5
461
100
AcDbEntity
  8
ASSI
100
AcDbPolyline
 62
7
  6
CONTINUOUS
 90
18
 70
0
 10
91.3107204051
 20
-30.637835772
 10
91.3097737241
 20
-30.6413301824
 10
91.3022002764
 20
-30.6482254797
 10
91.2868488624
 20
-30.6550247278
 10
91.2639240006
 20
-30.6617304523
 10
91.2340392468
 20
-30.6681631827
 10
91.1970066513
 20
-30.674315547
 10
91.1530141638
 20
-30.6801949173
 10
91.103239189
 20
-30.6856439393
 10
91.0475255726
 20
-30.6906509918
 10
90.986029469
 20
-30.6952276962
 10
90.9203967456
 20
-30.6992515626
 10
90.8505156943
 20
-30.7027076617
 10
90.7764980232
 20
-30.7056109228
 10
90.7003247241
 20
-30.7078836437
 10
90.6226561276
 20
-30.7094999236
 10
90.5428319032
 20
-30.7104856633
 10
90.4608520508
 20
-30.7108408628
  0
LWPOLYLINE
  5
462
100
AcDbEntity
  8
ASSI
100
AcDbPolyline
 62
7
  6
CONTINUOUS
 90
18
 70
0
 10
89.6109836965
 20
-39.262164228
 10
89.6119303775
 20
-39.2586698176
 10
89.6195038252
 20
-39.2517745203
 10
89.6348552392
 20
-39.2449752722
 10
89.6577801009
 20
-39.2382695477
 10
89.6876648547
 20
-39.2318368173
 10
89.7246974502
 20
-39.225684453
 10
89.7686899378
 20
-39.2198050827
 10
89.8184649126
 20
-39.2143560607
 10
89.8741785289
 20
-39.2093490081
 10
89.9356746325
 20
-39.2047723038
 10
90.0013073559
 20
-39.2007484374
 10
90.0711884073
 20
-39.1972923383
 10
90.1452060784
 20
-39.1943890772
 10
90.2213793775
 20
-39.1921163563
 10
90.2990479739
 20
-39.1905000764
 10
90.3788721984
 20
-39.1895143367
 10
90.4608520508
 20
-39.1891591372
  0
LWPOLYLINE
  5
463
100
AcDbEntity
  8
RACCORDO
100
AcDbPolyline
 62
250
  6
CONTINUOUS
 90
3
 70
0
 10
97.8820932123
 20
4.1563752511
 10
97.8974424832
 20
4.2125954597
 10
97.9110673856
 20
4.2688640749
  0
LINE
  5
464
100
AcDbEntity
  8
RACCORDO
100
AcDbLine
 62
250
  6
CONTINUOUS
 10
97.864883082
 20
4.0998929028
 11
97.8820932123
 21
4.1563752511
  0
LINE
  5
465
100
AcDbEntity
  8
RACCORDO
100
AcDbLine
 62
250
  6
CONTINUOUS
 10
97.8458895436
 20
4.0435777509
 11
97.864883082
 21
4.0998929028
  0
LINE
  5
466
100
AcDbEntity
  8
RACCORDO
100
AcDbLine
 62
250
  6
CONTINUOUS
 10
97.8250180281
 20
3.9872908556
 11
97.8458895436
 21
4.0435777509
  0
LINE
  5
467
100
AcDbEntity
  8
RACCORDO
100
AcDbLine
 62
250
  6
CONTINUOUS
 10
97.8021811371
 20
3.9309696634
 11
97.8250180281
 21
3.9872908556
  0
LWPOLYLINE
  5
468
100
AcDbEntity
  8
RACCORDO
100
AcDbPolyline
 62
7
  6
CONTINUOUS
 90
16
 70
0
 10
84.8608520508
 20
3.3541919141
 10
84.8927620414
 20
3.3544032713
 10
84.9236637409
 20
3.3549808093
 10
84.9535571491
 20
3.3559245281
 10
84.9827454636
 20
3.3572526574
 10
85.010925487
 20
3.3589469675
 10
85.0371876265
 20
3.3609527697
 10
85.0614693035
 20
3.3632802276
 10
85.0838330966
 20
3.3659191775
 10
85.1035571491
 20
3.3687844396
 10
85.1205553288
 20
3.3718833983
 10
85.1349137679
 20
3.3752086692
 10
85.1461690057
 20
3.3786529195
 10
85.1541665553
 20
3.3821803715
 10
85.1590609037
 20
3.3858268029
 10
85.1608520508
 20
3.3895922136
  0
LINE
  5
469
100
AcDbEntity
  8
0
100
AcDbLine
 62
7
  6
CONTINUOUS
 10
86.9608520508
 20
1.0
 11
86.4608520508
 21
1.0
  0
LINE
  5
46A
100
AcDbEntity
  8
ASSI
100
AcDbLine
 62
7
  6
CONTINUOUS
 10
86.4608520508
 20
2.75
 11
78.9248048603
 21
2.75
  0
LINE
  5
46B
100
AcDbEntity
  8
RACCORDO
100
AcDbLine
 62
7
  6
CONTINUOUS
 10
78.4608520508
 20
3.3541919141
 11
84.8608520508
 21
3.3541919141
  0
LINE
  5
46C
100
AcDbEntity
  8
ASSI
100
AcDbLine
 62
7
  6
CONTINUOUS
 10
97.8297604268
 20
4.0
 11
104.4608520508
 21
4.0
  0
LINE
  5
46D
100
AcDbEntity
  8
RACCORDO
100
AcDbLine
 62
250
  6
CONTINUOUS
 10
85.1608520508
 20
4.8347100854
 11
78.1608520508
 21
4.8347100854
  0
LINE
  5
46E
100
AcDbEntity
  8
RACCORDO
100
AcDbLine
 62
250
  6
CONTINUOUS
 10
85.1608520508
 20
5.9270249095
 11
78.1608520508
 21
5.9270249095
  0
LINE
  5
46F
100
AcDbEntity
  8
SMUSSO
100
AcDbLine
 62
7
  6
CONTINUOUS
 10
113.2623248965
 20
-8.1180955837
 11
113.1608319828
 21
-8.0422985445
  0
LINE
  5
470
100
AcDbEntity
  8
SMUSSO
100
AcDbLine
 62
7
  6
CONTINUOUS
 10
113.3623315859
 20
-8.1935894686
 11
113.2623248965
 21
-8.1180955837
  0
LINE
  5
471
100
AcDbEntity
  8
SMUSSO
100
AcDbLine
 62
7
  6
CONTINUOUS
 10
113.4608520508
 20
-8.2687801994
 11
113.3623315859
 21
-8.1935894686
  0
LWPOLYLINE
  5
472
100
AcDbEntity
  8
RACCORDO
100
AcDbPolyline
 62
250
  6
CONTINUOUS
 90
3
 70
0
 10
96.9608520508
 20
2.9782515674
 10
96.9616065711
 20
2.9744737522
 10
96.9612341164
 20
2.973453395
  0
LWPOLYLINE
  5
473
100
AcDbEntity
  8
RACCORDO
100
AcDbPolyline
 62
250
  6
CONTINUOUS
 90
3
 70
0
 10
96.2108520508
 20
2.5433887358
 10
96.2115506961
 20
2.5397112295
 10
96.211182037
 20
2.5387708792
  0
LINE
  5
474
100
AcDbEntity
  8
0
100
AcDbLine
 62
7
  6
CONTINUOUS
 10
104.4608520508
 20
-81.6
 11
104.4608520508
 21
82.0
  0
LINE
  5
475
100
AcDbEntity
  8
RACCORDO
100
AcDbLine
 62
7
  6
CONTINUOUS
 10
105.9608520508
 20
-83.6
 11
105.9608520508
 21
-81.6
  0
LWPOLYLINE
  5
476
100
AcDbEntity
  8
ASSI
100
AcDbPolyline
 62
7
  6
CONTINUOUS
 90
18
 70
0
 10
91.3107204051
 20
-39.262164228
 10
91.3097737241
 20
-39.2656586385
 10
91.3022002764
 20
-39.2725539357
 10
91.2868488624
 20
-39.2793531838
 10
91.2639240006
 20
-39.2860589083
 10
91.2340392468
 20
-39.2924916388
 10
91.1970066513
 20
-39.2986440031
 10
91.1530141638
 20
-39.3045233733
 10
91.103239189
 20
-39.3099723954
 10
91.0475255726
 20
-39.3149794479
 10
90.986029469
 20
-39.3195561523
 10
90.9203967456
 20
-39.3235800186
 10
90.8505156943
 20
-39.3270361177
 10
90.7764980232
 20
-39.3299393788
 10
90.7003247241
 20
-39.3322120997
 10
90.6226561276
 20
-39.3338283796
 10
90.5428319032
 20
-39.3348141194
 10
90.4608520508
 20
-39.3351693189
  0
LINE
  5
477
100
AcDbEntity
  8
SMUSSO
100
AcDbLine
 62
7
  6
CONTINUOUS
 10
84.8108520508
 20
9.5862068966
 11
83.8108520508
 21
9.5
  0
LINE
  5
478
100
AcDbEntity
  8
SMUSSO
100
AcDbLine
 62
7
  6
CONTINUOUS
 10
83.8108520508
 20
10.3029671491
 11
84.8108520508
 21
10.3891740457
  0
LINE
  5
479
100
AcDbEntity
  8
0
100
AcDbLine
 62
7
  6
CONTINUOUS
 10
86.4608520508
 20
6.95
 11
75.6608520508
 21
6.95
  0
LINE
  5
47A
100
AcDbEntity
  8
0
100
AcDbLine
 62
250
  6
CONTINUOUS
 10
86.4608520508
 20
8.95
 11
75.6608520508
 21
8.95
  0
LINE
  5
47B
100
AcDbEntity
  8
SMUSSO
100
AcDbLine
 62
7
  6
CONTINUOUS
 10
79.5108520508
 20
9.5
 11
83.8108520508
 21
9.5
  0
LINE
  5
47C
100
AcDbEntity
  8
SMUSSO
100
AcDbLine
 62
7
  6
CONTINUOUS
 10
79.5108520508
 20
10.3029671491
 11
83.8108520508
 21
10.3029671491
  0
LINE
  5
47D
100
AcDbEntity
  8
ASSI
100
AcDbLine
 62
7
  6
CONTINUOUS
 10
97.9608520508
 20
11.0
 11
104.4608520508
 21
11.0
  0
LINE
  5
47E
100
AcDbEntity
  8
0
100
AcDbLine
 62
7
  6
CONTINUOUS
 10
84.8108520508
 20
11.3029671491
 11
78.5108520508
 21
11.3029671491
  0
LWPOLYLINE
  5
47F
100
AcDbEntity
  8
ASSI
100
AcDbPolyline
 62
7
  6
CONTINUOUS
 90
18
 70
0
 10
81.6608520508
 20
10.6148306811
 10
81.5788721984
 20
10.6151858806
 10
81.4990479739
 20
10.6161716204
 10
81.4213793775
 20
10.6177879003
 10
81.3452060784
 20
10.6200606212
 10
81.2711884073
 20
10.6229638823
 10
81.2013073559
 20
10.6264199814
 10
81.1356746325
 20
10.6304438477
 10
81.0741785289
 20
10.6350205521
 10
81.0184649126
 20
10.6400276046
 10
80.9686899378
 20
10.6454766267
 10
80.9246974502
 20
10.6513559969
 10
80.8876648547
 20
10.6575083612
 10
80.8577801009
 20
10.6639410917
 10
80.8348552392
 20
10.6706468162
 10
80.8195038252
 20
10.6774460643
 10
80.8119303775
 20
10.6843413615
 10
80.8109836965
 20
10.687835772
  0
LWPOLYLINE
  5
480
100
AcDbEntity
  8
ASSI
100
AcDbPolyline
 62
7
  6
CONTINUOUS
 90
18
 70
0
 10
81.6608520508
 20
10.7608408628
 10
81.7428319032
 20
10.7604856633
 10
81.8226561276
 20
10.7594999236
 10
81.9003247241
 20
10.7578836437
 10
81.9764980232
 20
10.7556109228
 10
82.0505156943
 20
10.7527076617
 10
82.1203967456
 20
10.7492515626
 10
82.186029469
 20
10.7452276962
 10
82.2475255726
 20
10.7406509919
 10
82.303239189
 20
10.7356439393
 10
82.3530141638
 20
10.7301949173
 10
82.3970066513
 20
10.724315547
 10
82.4340392468
 20
10.7181631827
 10
82.4639240006
 20
10.7117304523
 10
82.4868488624
 20
10.7050247278
 10
82.5022002764
 20
10.6982254797
 10
82.5097737241
 20
10.6913301824
 10
82.5107204051
 20
10.687835772
  0
LINE
  5
481
100
AcDbEntity
  8
SMUSSO
100
AcDbLine
 62
7
  6
CONTINUOUS
 10
79.5108520508
 20
9.5
 11
78.5108520508
 21
9.5862068966
  0
LINE
  5
482
100
AcDbEntity
  8
SMUSSO
100
AcDbLine
 62
7
  6
CONTINUOUS
 10
78.5108520508
 20
10.3891740457
 11
79.5108520508
 21
10.3029671491
  0
LINE
  5
483
100
AcDbEntity
  8
ASSI
100
AcDbLine
 62
7
  6
CONTINUOUS
 10
98.9102967008
 20
16.4
 11
99.9206596719
 21
14.65
  0
LWPOLYLINE
  5
484
100
AcDbEntity
  8
RACCORDO
100
AcDbPolyline
 62
250
  6
CONTINUOUS
 90
16
 70
0
 10
111.9608520508
 20
-25.3340692133
 10
111.9581129985
 20
-25.3258932862
 10
111.9499258512
 20
-25.3178069363
 10
111.936380309
 20
-25.3098987593
 10
111.9176247797
 20
-25.3022553988
 10
111.8938647528
 20
-25.2949605971
 10
111.8653605482
 20
-25.2880942776
 10
111.8324244637
 20
-25.2817316691
 10
111.7954173542
 20
-25.2759424818
 10
111.7547446772
 20
-25.270790143
 10
111.710852051
 20
-25.266331103
 10
111.6642203725
 20
-25.2626142159
 10
111.6153605481
 20
-25.2596802047
 10
111.5648078963
 20
-25.257561215
 10
111.5131162824
 20
-25.256280463
 10
111.4608520508
 20
-25.2558519808
  0
LINE
  5
485
100
AcDbEntity
  8
RACCORDO
100
AcDbLine
 62
7
  6
CONTINUOUS
 10
107.4608520508
 20
-83.6
 11
107.4608520508
 21
83.6
  0
LINE
  5
486
100
AcDbEntity
  8
RACCORDO
100
AcDbLine
 62
7
  6
CONTINUOUS
 10
109.9608520508
 20
83.6
 11
109.9608520508
 21
-83.6
  0
LINE
  5
487
100
AcDbEntity
  8
RACCORDO
100
AcDbLine
 62
250
  6
CONTINUOUS
 10
111.4608520508
 20
-4.4
 11
111.4608520508
 21
-29.2
  0
LINE
  5
488
100
AcDbEntity
  8
RACCORDO
100
AcDbLine
 62
7
  6
CONTINUOUS
 10
111.9608520508
 20
-4.9
 11
111.9608520508
 21
-28.7
  0
LINE
  5
489
100
AcDbEntity
  8
RACCORDO
100
AcDbLine
 62
7
  6
CONTINUOUS
 10
96.2417208602
 20
-25.6739139882
 11
95.74294067
 21
-26.297389226
  0
LINE
  5
48A
100
AcDbEntity
  8
RACCORDO
100
AcDbLine
 62
7
  6
CONTINUOUS
 10
95.4208520508
 20
-26.7
 11
95.2608520508
 21
-26.9
  0
LWPOLYLINE
  5
48B
100
AcDbEntity
  8
RACCORDO
100
AcDbPolyline
 62
250
  6
CONTINUOUS
 90
13
 70
0
 10
96.2108520508
 20
16.077938165
 10
96.1740376278
 20
16.0762580037
 10
96.1393874283
 20
16.0744825867
 10
96.1071704238
 20
16.0725795507
 10
96.0776166875
 20
16.0704498435
 10
96.0509834163
 20
16.0681182713
 10
96.0275301737
 20
16.0657337073
 10
96.0074410009
 20
16.0632529077
 10
95.990824997
 20
16.0606319076
 10
95.9777796284
 20
16.058019117
 10
95.9683947987
 20
16.0554365539
 10
95.9627402045
 20
16.0527776016
 10
95.9608520508
 20
16.05
  0
LINE
  5
48C
100
AcDbEntity
  8
RACCORDO
100
AcDbLine
 62
250
  6
CONTINUOUS
 10
96.9608520508
 20
16.0789829795
 11
96.2108520508
 21
16.077938165
  0
LINE
  5
48D
100
AcDbEntity
  8
0
100
AcDbLine
 62
7
  6
CONTINUOUS
 10
97.9608520508
 20
12.6
 11
98.9102967008
 21
12.6
  0
LINE
  5
48E
100
AcDbEntity
  8
RACCORDO
100
AcDbLine
 62
7
  6
CONTINUOUS
 10
97.7108520508
 20
16.3
 11
95.9608520508
 21
16.3
  0
LINE
  5
48F
100
AcDbEntity
  8
0
100
AcDbLine
 62
7
  6
CONTINUOUS
 10
95.9608520508
 20
16.4
 11
98.9102967008
 21
16.4
  0
LINE
  5
490
100
AcDbEntity
  8
ASSI
100
AcDbLine
 62
7
  6
CONTINUOUS
 10
112.4608520508
 20
17.5
 11
113.4608520508
 21
17.5
  0
LINE
  5
491
100
AcDbEntity
  8
RACCORDO
100
AcDbLine
 62
250
  6
CONTINUOUS
 10
97.235540064
 20
16.0761661774
 11
96.9608520508
 21
16.0789829795
  0
LINE
  5
492
100
AcDbEntity
  8
RACCORDO
100
AcDbLine
 62
250
  6
CONTINUOUS
 10
97.4648904598
 20
16.0727712746
 11
97.235540064
 21
16.0761661774
  0
LINE
  5
493
100
AcDbEntity
  8
RACCORDO
100
AcDbLine
 62
250
  6
CONTINUOUS
 10
97.6116500699
 20
16.0698015312
 11
97.4648904598
 21
16.0727712746
  0
LINE
  5
494
100
AcDbEntity
  8
RACCORDO
100
AcDbLine
 62
250
  6
CONTINUOUS
 10
97.7109255737
 20
16.0671959913
 11
97.6116500699
 21
16.0698015312
  0
LINE
  5
495
100
AcDbEntity
  8
RACCORDO
100
AcDbLine
 62
250
  6
CONTINUOUS
 10
97.7690639011
 20
16.0653161647
 11
97.7109255737
 21
16.0671959913
  0
LWPOLYLINE
  5
496
100
AcDbEntity
  8
RACCORDO
100
AcDbPolyline
 62
250
  6
CONTINUOUS
 90
15
 70
0
 10
97.9608520508
 20
16.05
 10
97.9601011531
 20
16.0510403675
 10
97.957829734
 20
16.0520882883
 10
97.9540104656
 20
16.0531372146
 10
97.9486367852
 20
16.0541696717
 10
97.9416738283
 20
16.0551903507
 10
97.933008841
 20
16.056223029
 10
97.9225305837
 20
16.0572593252
 10
97.9102028054
 20
16.0582860191
 10
97.8959935362
 20
16.0593175388
 10
97.8798495251
 20
16.0603447183
 10
97.8617202319
 20
16.0613563247
 10
97.8416042744
 20
16.062366127
 10
97.8194379811
 20
16.0633684421
 10
97.7690639011
 20
16.0653161647
  0
LWPOLYLINE
  5
497
100
AcDbEntity
  8
RACCORDO
100
AcDbPolyline
 62
250
  6
CONTINUOUS
 90
16
 70
0
 10
111.9608520508
 20
-12.1546636007
 10
111.9581129985
 20
-12.1464876735
 10
111.9499258511
 20
-12.1384013236
 10
111.9363803089
 20
-12.1304931466
 10
111.9176247796
 20
-12.1228497861
 10
111.8938647527
 20
-12.1155549844
 10
111.865360548
 20
-12.1086886649
 10
111.8324244635
 20
-12.1023260564
 10
111.795417354
 20
-12.096536869
 10
111.7547446769
 20
-12.0913845303
 10
111.7108520508
 20
-12.0869254903
 10
111.6642203723
 20
-12.0832086032
 10
111.615360548
 20
-12.080274592
 10
111.5648078962
 20
-12.0781556023
 10
111.5131162824
 20
-12.0768748503
 10
111.4608520508
 20
-12.0764463681
  0
LINE
  5
498
100
AcDbEntity
  8
ASSI
100
AcDbLine
 62
7
  6
CONTINUOUS
 10
112.4608520508
 20
47.4998242421
 11
112.4608520508
 21
14.5
  0
LINE
  5
499
100
AcDbEntity
  8
0
100
AcDbLine
 62
7
  6
CONTINUOUS
 10
112.4608520508
 20
14.5
 11
112.4608520508
 21
-0.5
  0
LINE
  5
49A
100
AcDbEntity
  8
SMUSSO
100
AcDbLine
 62
7
  6
CONTINUOUS
 10
113.1603876422
 20
-19.2
 11
113.1608319828
 21
-8.0422985445
  0
LINE
  5
49B
100
AcDbEntity
  8
ASSI
100
AcDbLine
 62
7
  6
CONTINUOUS
 10
113.4608520508
 20
47.4998242421
 11
113.4608520508
 21
17.5001757579
  0
LINE
  5
49C
100
AcDbEntity
  8
SMUSSO
100
AcDbLine
 62
7
  6
CONTINUOUS
 10
113.4608520508
 20
-8.2687801994
 11
113.4608520508
 21
-18.8995355835
  0
LWPOLYLINE
  5
49D
100
AcDbEntity
  8
RACCORDO
100
AcDbPolyline
 62
250
  6
CONTINUOUS
 90
16
 70
0
 10
111.9608520508
 20
-26.9753183799
 10
111.9581129985
 20
-27.0243282039
 10
111.9499258512
 20
-27.0728010659
 10
111.9363803089
 20
-27.1202058873
 10
111.9176247796
 20
-27.1660232908
 10
111.8938647527
 20
-27.2097512914
 10
111.865360548
 20
-27.250910796
 10
111.8324244635
 20
-27.2890508524
 10
111.795417354
 20
-27.3237535901
 10
111.7547446769
 20
-27.3546387988
 10
111.7108520508
 20
-27.3813680936
 10
111.6642203723
 20
-27.4036486228
 10
111.6153605479
 20
-27.4212362762
 10
111.5648078962
 20
-27.4339383598
 10
111.5131162824
 20
-27.4416157069
 10
111.4608520508
 20
-27.4441842029
  0
LINE
  5
49E
100
AcDbEntity
  8
RACCORDO
100
AcDbLine
 62
7
  6
CONTINUOUS
 10
96.6799832413
 20
-27.047023283
 11
97.1787634316
 21
-26.4235480453
  0
LINE
  5
49F
100
AcDbEntity
  8
SMUSSO
100
AcDbLine
 62
7
  6
CONTINUOUS
 10
79.5108520508
 20
19.6970328509
 11
78.5108520508
 21
19.6108259543
  0
LINE
  5
4A0
100
AcDbEntity
  8
SMUSSO
100
AcDbLine
 62
7
  6
CONTINUOUS
 10
78.5108520508
 20
20.4137931034
 11
79.5108520508
 21
20.5
  0
LINE
  5
4A1
100
AcDbEntity
  8
ASSI
100
AcDbLine
 62
7
  6
CONTINUOUS
 10
96.2108520508
 20
18.0
 11
104.4608520508
 21
18.0
  0
LINE
  5
4A2
100
AcDbEntity
  8
0
100
AcDbLine
 62
7
  6
CONTINUOUS
 10
84.8108520508
 20
18.6970328509
 11
78.5108520508
 21
18.6970328509
  0
LINE
  5
4A3
100
AcDbEntity
  8
SMUSSO
100
AcDbLine
 62
7
  6
CONTINUOUS
 10
79.5108520508
 20
19.6970328509
 11
83.8108520508
 21
19.6970328509
  0
LINE
  5
4A4
100
AcDbEntity
  8
SMUSSO
100
AcDbLine
 62
7
  6
CONTINUOUS
 10
79.5108520508
 20
20.5
 11
83.8108520508
 21
20.5
  0
LINE
  5
4A5
100
AcDbEntity
  8
0
100
AcDbLine
 62
250
  6
CONTINUOUS
 10
86.4608520508
 20
21.05
 11
75.6608520508
 21
21.05
  0
LINE
  5
4A6
100
AcDbEntity
  8
0
100
AcDbLine
 62
7
  6
CONTINUOUS
 10
86.4608520508
 20
23.05
 11
75.6608520508
 21
23.05
  0
LWPOLYLINE
  5
4A7
100
AcDbEntity
  8
ASSI
100
AcDbPolyline
 62
7
  6
CONTINUOUS
 90
18
 70
0
 10
81.6608520508
 20
19.2391591372
 10
81.5788721984
 20
19.2395143367
 10
81.4990479739
 20
19.2405000764
 10
81.4213793775
 20
19.2421163563
 10
81.3452060784
 20
19.2443890772
 10
81.2711884073
 20
19.2472923383
 10
81.2013073559
 20
19.2507484374
 10
81.1356746325
 20
19.2547723038
 10
81.0741785289
 20
19.2593490082
 10
81.0184649126
 20
19.2643560607
 10
80.9686899378
 20
19.2698050827
 10
80.9246974502
 20
19.275684453
 10
80.8876648547
 20
19.2818368173
 10
80.8577801009
 20
19.2882695477
 10
80.8348552392
 20
19.2949752722
 10
80.8195038252
 20
19.3017745203
 10
80.8119303775
 20
19.3086698176
 10
80.8109836965
 20
19.312164228
  0
LWPOLYLINE
  5
4A8
100
AcDbEntity
  8
ASSI
100
AcDbPolyline
 62
7
  6
CONTINUOUS
 90
18
 70
0
 10
81.6608520508
 20
19.3851693189
 10
81.7428319032
 20
19.3848141194
 10
81.8226561276
 20
19.3838283796
 10
81.9003247241
 20
19.3822120997
 10
81.9764980232
 20
19.3799393788
 10
82.0505156943
 20
19.3770361177
 10
82.1203967456
 20
19.3735800186
 10
82.186029469
 20
19.3695561523
 10
82.2475255726
 20
19.3649794479
 10
82.303239189
 20
19.3599723954
 10
82.3530141638
 20
19.3545233733
 10
82.3970066513
 20
19.3486440031
 10
82.4340392468
 20
19.3424916388
 10
82.4639240006
 20
19.3360589083
 10
82.4868488624
 20
19.3293531838
 10
82.5022002764
 20
19.3225539357
 10
82.5097737241
 20
19.3156586385
 10
82.5107204051
 20
19.312164228
  0
LINE
  5
4A9
100
AcDbEntity
  8
SMUSSO
100
AcDbLine
 62
7
  6
CONTINUOUS
 10
84.8108520508
 20
19.6108259543
 11
83.8108520508
 21
19.6970328509
  0
LINE
  5
4AA
100
AcDbEntity
  8
SMUSSO
100
AcDbLine
 62
7
  6
CONTINUOUS
 10
83.8108520508
 20
20.5
 11
84.8108520508
 21
20.4137931034
  0
LWPOLYLINE
  5
4AB
100
AcDbEntity
  8
0
100
AcDbPolyline
 62
7
  6
CONTINUOUS
 90
3
 70
0
 43
0.3500000019
 10
90.8465664063
 20
-90.5642890625
 10
90.7751416016
 20
-90.7785742188
 10
90.63228125
 20
-91.0642841797
  0
LINE
  5
4AC
100
AcDbEntity
  8
SMUSSO
100
AcDbLine
 62
7
  6
CONTINUOUS
 10
113.4608520508
 20
-18.8995355835
 11
113.1603876343
 21
-19.2
  0
LINE
  5
4AD
100
AcDbEntity
  8
ASSI
100
AcDbLine
 62
7
  6
CONTINUOUS
 10
96.2108520508
 20
25.0
 11
104.4608520508
 21
25.0
  0
LINE
  5
4AE
100
AcDbEntity
  8
RACCORDO
100
AcDbLine
 62
250
  6
CONTINUOUS
 10
78.4608520508
 20
25.3718007376
 11
84.8608520508
 21
25.3718007376
  0
LINE
  5
4AF
100
AcDbEntity
  8
RACCORDO
100
AcDbLine
 62
250
  6
CONTINUOUS
 10
78.4608520508
 20
26.3566084907
 11
84.8608520508
 21
26.3566084907
  0
LINE
  5
4B0
100
AcDbEntity
  8
SMUSSO
100
AcDbLine
 62
7
  6
CONTINUOUS
 10
79.4608520508
 20
27.9753222013
 11
83.8608520508
 21
27.9753222013
  0
LINE
  5
4B1
100
AcDbEntity
  8
SMUSSO
100
AcDbLine
 62
7
  6
CONTINUOUS
 10
79.4608520508
 20
28.9601299543
 11
83.8608520508
 21
28.9601299543
  0
LWPOLYLINE
  5
4B2
100
AcDbEntity
  8
ASSI
100
AcDbPolyline
 62
7
  6
CONTINUOUS
 90
18
 70
0
 10
81.6608520508
 20
27.0376220419
 10
81.5788721984
 20
27.0383401807
 10
81.4990479739
 20
27.0403331392
 10
81.4213793775
 20
27.0436009175
 10
81.3452060784
 20
27.0481958815
 10
81.2711884073
 20
27.0540656654
 10
81.2013073559
 20
27.0610531714
 10
81.1356746325
 20
27.0691885835
 10
81.0741785289
 20
27.0784417179
 10
81.0184649126
 20
27.0885649258
 10
80.9686899378
 20
27.0995817033
 10
80.9246974502
 20
27.1114685543
 10
80.8876648547
 20
27.123907342
 10
80.8577801009
 20
27.136912971
 10
80.8348552392
 20
27.1504705367
 10
80.8195038252
 20
27.1642171875
 10
80.8119303775
 20
27.1781580294
 10
80.8109836965
 20
27.1852229929
  0
LWPOLYLINE
  5
4B3
100
AcDbEntity
  8
ASSI
100
AcDbPolyline
 62
7
  6
CONTINUOUS
 90
18
 70
0
 10
81.6608520508
 20
27.332823944
 10
81.7428319032
 20
27.3321058052
 10
81.8226561276
 20
27.3301128467
 10
81.9003247241
 20
27.3268450683
 10
81.9764980232
 20
27.3222501043
 10
82.0505156943
 20
27.3163803205
 10
82.1203967456
 20
27.3093928144
 10
82.186029469
 20
27.3012574023
 10
82.2475255726
 20
27.292004268
 10
82.303239189
 20
27.2818810601
 10
82.3530141638
 20
27.2708642826
 10
82.3970066513
 20
27.2589774315
 10
82.4340392468
 20
27.2465386439
 10
82.4639240006
 20
27.2335330148
 10
82.4868488624
 20
27.2199754491
 10
82.5022002764
 20
27.2062287984
 10
82.5097737241
 20
27.1922879564
 10
82.5107204051
 20
27.1852229929
  0
LINE
  5
4B4
100
AcDbEntity
  8
SMUSSO
100
AcDbLine
 62
7
  6
CONTINUOUS
 10
84.8608520508
 20
27.8016740237
 11
83.8608520508
 21
27.9753222013
  0
LINE
  5
4B5
100
AcDbEntity
  8
SMUSSO
100
AcDbLine
 62
7
  6
CONTINUOUS
 10
83.8608520508
 20
28.9601299543
 11
84.8608520508
 21
28.7864817767
  0
LINE
  5
4B6
100
AcDbEntity
  8
SMUSSO
100
AcDbLine
 62
7
  6
CONTINUOUS
 10
79.4608520508
 20
27.9753222013
 11
78.4608520508
 21
27.8016740237
  0
LINE
  5
4B7
100
AcDbEntity
  8
SMUSSO
100
AcDbLine
 62
7
  6
CONTINUOUS
 10
78.4608520508
 20
28.7864817767
 11
79.4608520508
 21
28.9601299543
  0
LINE
  5
4B8
100
AcDbEntity
  8
0
100
AcDbLine
 62
7
  6
CONTINUOUS
 10
109.9608520508
 20
29.5
 11
112.4608520508
 21
29.5
  0
LINE
  5
4B9
100
AcDbEntity
  8
RACCORDO
100
AcDbLine
 62
7
  6
CONTINUOUS
 10
88.4608520508
 20
31.5
 11
95.9608520508
 21
31.5
  0
LINE
  5
4BA
100
AcDbEntity
  8
0
100
AcDbLine
 62
7
  6
CONTINUOUS
 10
86.9608520508
 20
33.0
 11
86.4608520508
 21
33.0
  0
LINE
  5
4BB
100
AcDbEntity
  8
SMUSSO
100
AcDbLine
 62
7
  6
CONTINUOUS
 10
79.9608520508
 20
-65.25
 11
80.9608520508
 21
-64.25
  0
LINE
  5
4BC
100
AcDbEntity
  8
SMUSSO
100
AcDbLine
 62
7
  6
CONTINUOUS
 10
79.9608520508
 20
65.25
 11
80.9608520508
 21
64.25
  0
LINE
  5
4BD
100
AcDbEntity
  8
ASSI
100
AcDbLine
 62
7
  6
CONTINUOUS
 10
112.4608520508
 20
47.5
 11
113.4608520508
 21
47.5
  0
LINE
  5
4BE
100
AcDbEntity
  8
0
100
AcDbLine
 62
7
  6
CONTINUOUS
 10
80.9608520508
 20
64.25
 11
104.4608520508
 21
64.25
  0
LINE
  5
4BF
100
AcDbEntity
  8
0
100
AcDbLine
 62
7
  6
CONTINUOUS
 10
80.6108520508
 20
64.6
 11
104.4608520508
 21
64.6
  0
LINE
  5
4C0
100
AcDbEntity
  8
0
100
AcDbLine
 62
7
  6
CONTINUOUS
 10
80.6108520508
 20
67.9
 11
104.4608520508
 21
67.9
  0
LINE
  5
4C1
100
AcDbEntity
  8
0
100
AcDbLine
 62
7
  6
CONTINUOUS
 10
80.9608520508
 20
68.25
 11
104.4608520508
 21
68.25
  0
LWPOLYLINE
  5
4C2
100
AcDbEntity
  8
0
100
AcDbPolyline
 62
7
  6
CONTINUOUS
 90
10
 70
0
 43
0.3500000019
 10
109.7108574219
 20
-90.8499990234
 10
110.5679980469
 20
-89.9928583984
 10
110.7822832031
 20
-89.1357124023
 10
110.7822832031
 20
-88.2785717773
 10
110.3537128906
 20
-87.8500014648
 10
109.7108574219
 20
-87.8500014648
 10
109.2822871094
 20
-88.2785717773
 10
109.2822871094
 20
-89.1357124023
 10
109.7108574219
 20
-89.5642880859
 10
110.6394335938
 20
-89.5642880859
  0
LWPOLYLINE
  5
4C3
100
AcDbEntity
  8
0
100
AcDbPolyline
 62
7
  6
CONTINUOUS
 90
5
 70
0
 43
0.3500000019
 10
86.4894277344
 20
-89.1357124023
 10
86.8465625
 20
-88.9214272461
 10
86.8465625
 20
-88.2785717773
 10
86.4894277344
 20
-87.8500014648
 10
85.6322763672
 20
-87.8500014648
  0
LINE
  5
4C4
100
AcDbEntity
  8
0
100
AcDbLine
 62
250
  6
CONTINUOUS
 10
104.4608520508
 20
70.5
 11
107.4608520508
 21
70.5
  0
LWPOLYLINE
  5
4C5
100
AcDbEntity
  8
0
100
AcDbPolyline
 62
7
  6
CONTINUOUS
 90
5
 70
0
 43
0.3500000019
 10
92.7037080078
 20
-89.1357124023
 10
93.0608535156
 20
-88.9214272461
 10
93.0608535156
 20
-88.2785717773
 10
92.7037080078
 20
-87.8500014648
 10
91.8465673828
 20
-87.8500014648
  0
LINE
  5
4C6
100
AcDbEntity
  8
0
100
AcDbLine
 62
7
  6
CONTINUOUS
 10
104.4608520508
 20
82.0
 11
107.4608520508
 21
82.0
  0
LINE
  5
4C7
100
AcDbEntity
  8
RACCORDO
100
AcDbLine
 62
250
  6
CONTINUOUS
 10
109.9608520508
 20
82.6
 11
107.4608520508
 21
82.6
  0
LINE
  5
4C8
100
AcDbEntity
  8
RACCORDO
100
AcDbLine
 62
7
  6
CONTINUOUS
 10
109.9608520508
 20
83.6
 11
107.4608520508
 21
83.6
  0
ARC
  5
4C9
100
AcDbEntity
  8
RACCORDO
100
AcDbCircle
 62
7
  6
CONTINUOUS
 10
-9.1
 20
-25.5687209109
 40
2.0
100
AcDbArc
 50
171.0
 51
249.6740399785
  0
ARC
  5
4CA
100
AcDbEntity
  8
RACCORDO
100
AcDbCircle
 62
250
  6
CONTINUOUS
 10
-9.1
 20
-25.5687209109
 40
1.5
100
AcDbArc
 50
171.0
 51
249.6740399785
  0
ARC
  5
4CB
100
AcDbEntity
  8
RACCORDO
100
AcDbCircle
 62
7
  6
CONTINUOUS
 10
-58.9
 20
-82.6
 40
1.0
100
AcDbArc
 50
180.0
 51
270.0
  0
ARC
  5
4CC
100
AcDbEntity
  8
RACCORDO
100
AcDbCircle
 62
7
  6
CONTINUOUS
 10
-1.4722431864
 20
-65.4
 40
0.3
100
AcDbArc
 50
82.5
 51
217.5
  0
ARC
  5
4CD
100
AcDbEntity
  8
RACCORDO
100
AcDbCircle
 62
7
  6
CONTINUOUS
 10
-1.4722431864
 20
-67.1
 40
0.3
100
AcDbArc
 50
142.5
 51
277.5
  0
ARC
  5
4CE
100
AcDbEntity
  8
RACCORDO
100
AcDbCircle
 62
7
  6
CONTINUOUS
 10
-0.5087775692
 20
-64.7330473359
 40
0.1
100
AcDbArc
 50
288.541169179
 51
337.5
  0
ARC
  5
4CF
100
AcDbEntity
  8
RACCORDO
100
AcDbCircle
 62
7
  6
CONTINUOUS
 10
-1.0593307588
 20
-65.0509093681
 40
0.1
100
AcDbArc
 50
262.5
 51
311.458830821
  0
ARC
  5
4D0
100
AcDbEntity
  8
RACCORDO
100
AcDbCircle
 62
7
  6
CONTINUOUS
 10
-1.568108328
 20
-65.9321379678
 40
0.1
100
AcDbArc
 50
348.541169179
 51
37.5
  0
ARC
  5
4D1
100
AcDbEntity
  8
RACCORDO
100
AcDbCircle
 62
7
  6
CONTINUOUS
 10
-1.568108328
 20
-66.5678620322
 40
0.1
100
AcDbArc
 50
322.5
 51
11.458830821
  0
ARC
  5
4D2
100
AcDbEntity
  8
RACCORDO
100
AcDbCircle
 62
7
  6
CONTINUOUS
 10
-1.0593307588
 20
-67.4490906319
 40
0.1
100
AcDbArc
 50
48.541169179
 51
97.5
  0
ARC
  5
4D3
100
AcDbEntity
  8
RACCORDO
100
AcDbCircle
 62
7
  6
CONTINUOUS
 10
-0.5087775692
 20
-67.7669526641
 40
0.1
100
AcDbArc
 50
22.5
 51
71.458830821
  0
CIRCLE
  5
4D4
100
AcDbEntity
  8
SMUSSO
100
AcDbCircle
 62
7
  6
CONTINUOUS
 10
-7.0
 20
21.5
 40
4.05
  0
CIRCLE
  5
4D5
100
AcDbEntity
  8
SMUSSO
100
AcDbCircle
 62
7
  6
CONTINUOUS
 10
-7.0
 20
21.5
 40
2.05
  0
ARC
  5
4D6
100
AcDbEntity
  8
0
100
AcDbCircle
 62
7
  6
CONTINUOUS
 10
-7.0
 20
21.5
 40
2.0
100
AcDbArc
 50
255.0
 51
195.0
  0
CIRCLE
  5
4D7
100
AcDbEntity
  8
0
100
AcDbCircle
 62
7
  6
CONTINUOUS
 10
-7.0
 20
21.5
 40
1.65
  0
ARC
  5
4D8
100
AcDbEntity
  8
RACCORDO
100
AcDbCircle
 62
7
  6
CONTINUOUS
 10
-58.9
 20
82.6
 40
1.0
100
AcDbArc
 50
90.0
 51
180.0
  0
ARC
  5
4D9
100
AcDbEntity
  8
RACCORDO
100
AcDbCircle
 62
7
  6
CONTINUOUS
 10
-1.4722431864
 20
67.1
 40
0.3
100
AcDbArc
 50
82.5
 51
217.5
  0
ARC
  5
4DA
100
AcDbEntity
  8
RACCORDO
100
AcDbCircle
 62
7
  6
CONTINUOUS
 10
-1.4722431864
 20
65.4
 40
0.3
100
AcDbArc
 50
142.5
 51
277.5
  0
ARC
  5
4DB
100
AcDbEntity
  8
RACCORDO
100
AcDbCircle
 62
7
  6
CONTINUOUS
 10
-1.8168457204
 20
11.1624752243
 40
0.3
100
AcDbArc
 50
354.896359876
 51
14.5419305271
  0
ARC
  5
4DC
100
AcDbEntity
  8
RACCORDO
100
AcDbCircle
 62
7
  6
CONTINUOUS
 10
-3.4146742158
 20
16.05
 40
0.25
100
AcDbArc
 50
335.5855976851
 51
22.8055611854
  0
ARC
  5
4DD
100
AcDbEntity
  8
RACCORDO
100
AcDbCircle
 62
7
  6
CONTINUOUS
 10
-0.5087775692
 20
67.7669526641
 40
0.1
100
AcDbArc
 50
288.541169179
 51
337.5
  0
ARC
  5
4DE
100
AcDbEntity
  8
RACCORDO
100
AcDbCircle
 62
7
  6
CONTINUOUS
 10
-1.0593307588
 20
67.4490906319
 40
0.1
100
AcDbArc
 50
262.5
 51
311.458830821
  0
ARC
  5
4DF
100
AcDbEntity
  8
RACCORDO
100
AcDbCircle
 62
7
  6
CONTINUOUS
 10
-1.568108328
 20
66.5678620322
 40
0.1
100
AcDbArc
 50
348.541169179
 51
37.5
  0
ARC
  5
4E0
100
AcDbEntity
  8
RACCORDO
100
AcDbCircle
 62
7
  6
CONTINUOUS
 10
-1.568108328
 20
65.9321379678
 40
0.1
100
AcDbArc
 50
322.5
 51
11.458830821
  0
ARC
  5
4E1
100
AcDbEntity
  8
RACCORDO
100
AcDbCircle
 62
7
  6
CONTINUOUS
 10
-1.0593307588
 20
65.0509093681
 40
0.1
100
AcDbArc
 50
48.541169179
 51
97.5
  0
ARC
  5
4E2
100
AcDbEntity
  8
RACCORDO
100
AcDbCircle
 62
7
  6
CONTINUOUS
 10
-0.5087775692
 20
64.7330473359
 40
0.1
100
AcDbArc
 50
22.5
 51
71.458830821
  0
ARC
  5
4E3
100
AcDbEntity
  8
RACCORDO
100
AcDbCircle
 62
7
  6
CONTINUOUS
 10
-0.0
 20
-67.95
 40
0.3
100
AcDbArc
 50
202.5
 51
337.5
  0
ARC
  5
4E4
100
AcDbEntity
  8
RACCORDO
100
AcDbCircle
 62
7
  6
CONTINUOUS
 10
0.5087775692
 20
-67.7669526641
 40
0.1
100
AcDbArc
 50
108.541169179
 51
157.5
  0
CIRCLE
  5
4E5
100
AcDbEntity
  8
ASSI
100
AcDbCircle
 62
7
  6
CONTINUOUS
 10
0.0
 20
-66.25
 40
4.25
  0
CIRCLE
  5
4E6
100
AcDbEntity
  8
RACCORDO
100
AcDbCircle
 62
7
  6
CONTINUOUS
 10
0.0
 20
-66.25
 40
4.0
  0
CIRCLE
  5
4E7
100
AcDbEntity
  8
RACCORDO
100
AcDbCircle
 62
250
  6
CONTINUOUS
 10
0.0
 20
-66.25
 40
3.75
  0
ARC
  5
4E8
100
AcDbEntity
  8
RACCORDO
100
AcDbCircle
 62
7
  6
CONTINUOUS
 10
0.0
 20
-66.25
 40
2.0
100
AcDbArc
 50
34.5906080924
 51
85.4106167488
  0
ARC
  5
4E9
100
AcDbEntity
  8
RACCORDO
100
AcDbCircle
 62
7
  6
CONTINUOUS
 10
0.0
 20
-66.25
 40
2.0
100
AcDbArc
 50
94.5893798827
 51
145.4107867348
  0
ARC
  5
4EA
100
AcDbEntity
  8
RACCORDO
100
AcDbCircle
 62
7
  6
CONTINUOUS
 10
0.0
 20
-66.25
 40
2.0
100
AcDbArc
 50
214.5893757793
 51
265.410617909
  0
ARC
  5
4EB
100
AcDbEntity
  8
RACCORDO
100
AcDbCircle
 62
7
  6
CONTINUOUS
 10
0.0
 20
-66.25
 40
2.0
100
AcDbArc
 50
274.5893820008
 51
325.4106239176
  0
ARC
  5
4EC
100
AcDbEntity
  8
RACCORDO
100
AcDbCircle
 62
7
  6
CONTINUOUS
 10
0.0
 20
-66.25
 40
2.0
100
AcDbArc
 50
154.5893798802
 51
205.4120981699
  0
ARC
  5
4ED
100
AcDbEntity
  8
RACCORDO
100
AcDbCircle
 62
7
  6
CONTINUOUS
 10
0.0
 20
-66.25
 40
2.0
100
AcDbArc
 50
334.5893943667
 51
25.4108714273
  0
ARC
  5
4EE
100
AcDbEntity
  8
RACCORDO
100
AcDbCircle
 62
250
  6
CONTINUOUS
 10
0.0
 20
-66.25
 40
1.5292893219
100
AcDbArc
 50
168.541169179
 51
191.458830821
  0
ARC
  5
4EF
100
AcDbEntity
  8
RACCORDO
100
AcDbCircle
 62
250
  6
CONTINUOUS
 10
0.0
 20
-66.25
 40
1.5292893219
100
AcDbArc
 50
348.541169179
 51
11.458830821
  0
ARC
  5
4F0
100
AcDbEntity
  8
RACCORDO
100
AcDbCircle
 62
250
  6
CONTINUOUS
 10
0.0
 20
-66.25
 40
1.5292893219
100
AcDbArc
 50
288.541169179
 51
311.458830821
  0
ARC
  5
4F1
100
AcDbEntity
  8
RACCORDO
100
AcDbCircle
 62
250
  6
CONTINUOUS
 10
0.0
 20
-66.25
 40
1.5292893219
100
AcDbArc
 50
228.541169179
 51
251.458830821
  0
ARC
  5
4F2
100
AcDbEntity
  8
RACCORDO
100
AcDbCircle
 62
250
  6
CONTINUOUS
 10
0.0
 20
-66.25
 40
1.5292893219
100
AcDbArc
 50
108.541169179
 51
131.458830821
  0
ARC
  5
4F3
100
AcDbEntity
  8
RACCORDO
100
AcDbCircle
 62
250
  6
CONTINUOUS
 10
0.0
 20
-66.25
 40
1.5292893219
100
AcDbArc
 50
48.541169179
 51
71.458830821
  0
ARC
  5
4F4
100
AcDbEntity
  8
RACCORDO
100
AcDbCircle
 62
7
  6
CONTINUOUS
 10
0.0
 20
-66.25
 40
1.5
100
AcDbArc
 50
348.541169179
 51
11.458830821
  0
ARC
  5
4F5
100
AcDbEntity
  8
RACCORDO
100
AcDbCircle
 62
7
  6
CONTINUOUS
 10
0.0
 20
-66.25
 40
1.5
100
AcDbArc
 50
288.541169179
 51
311.458830821
  0
ARC
  5
4F6
100
AcDbEntity
  8
RACCORDO
100
AcDbCircle
 62
7
  6
CONTINUOUS
 10
0.0
 20
-66.25
 40
1.5
100
AcDbArc
 50
228.541169179
 51
251.458830821
  0
ARC
  5
4F7
100
AcDbEntity
  8
RACCORDO
100
AcDbCircle
 62
7
  6
CONTINUOUS
 10
0.0
 20
-66.25
 40
1.5
100
AcDbArc
 50
168.541169179
 51
191.458830821
  0
ARC
  5
4F8
100
AcDbEntity
  8
RACCORDO
100
AcDbCircle
 62
7
  6
CONTINUOUS
 10
0.0
 20
-66.25
 40
1.5
100
AcDbArc
 50
108.541169179
 51
131.458830821
  0
ARC
  5
4F9
100
AcDbEntity
  8
RACCORDO
100
AcDbCircle
 62
7
  6
CONTINUOUS
 10
0.0
 20
-66.25
 40
1.5
100
AcDbArc
 50
48.541169179
 51
71.458830821
  0
CIRCLE
  5
4FA
100
AcDbEntity
  8
RACCORDO
100
AcDbCircle
 62
7
  6
CONTINUOUS
 10
0.0
 20
-66.25
 40
0.65
  0
CIRCLE
  5
4FB
100
AcDbEntity
  8
RACCORDO
100
AcDbCircle
 62
250
  6
CONTINUOUS
 10
0.0
 20
-66.25
 40
0.55
  0
ARC
  5
4FC
100
AcDbEntity
  8
RACCORDO
100
AcDbCircle
 62
7
  6
CONTINUOUS
 10
-0.0
 20
-64.55
 40
0.3
100
AcDbArc
 50
22.5
 51
157.5
  0
ARC
  5
4FD
100
AcDbEntity
  8
RACCORDO
100
AcDbCircle
 62
7
  6
CONTINUOUS
 10
0.5087775692
 20
-64.7330473359
 40
0.1
100
AcDbArc
 50
202.5
 51
251.458830821
  0
ARC
  5
4FE
100
AcDbEntity
  8
RACCORDO
100
AcDbCircle
 62
7
  6
CONTINUOUS
 10
1.4722431864
 20
-67.1
 40
0.3
100
AcDbArc
 50
262.5
 51
37.5
  0
ARC
  5
4FF
100
AcDbEntity
  8
RACCORDO
100
AcDbCircle
 62
7
  6
CONTINUOUS
 10
1.0593307588
 20
-67.4490906319
 40
0.1
100
AcDbArc
 50
82.5
 51
131.458830821
  0
ARC
  5
500
100
AcDbEntity
  8
RACCORDO
100
AcDbCircle
 62
7
  6
CONTINUOUS
 10
1.568108328
 20
-66.5678620322
 40
0.1
100
AcDbArc
 50
168.541169179
 51
217.5
  0
ARC
  5
501
100
AcDbEntity
  8
RACCORDO
100
AcDbCircle
 62
7
  6
CONTINUOUS
 10
1.4722431864
 20
-65.4
 40
0.3
100
AcDbArc
 50
322.5
 51
97.5
  0
ARC
  5
502
100
AcDbEntity
  8
RACCORDO
100
AcDbCircle
 62
7
  6
CONTINUOUS
 10
1.568108328
 20
-65.9321379678
 40
0.1
100
AcDbArc
 50
142.5
 51
191.458830821
  0
ARC
  5
503
100
AcDbEntity
  8
RACCORDO
100
AcDbCircle
 62
7
  6
CONTINUOUS
 10
1.0593307588
 20
-65.0509093681
 40
0.1
100
AcDbArc
 50
228.541169179
 51
277.5
  0
ARC
  5
504
100
AcDbEntity
  8
RACCORDO
100
AcDbCircle
 62
7
  6
CONTINUOUS
 10
0.0
 20
-1.0024375972
 40
28.1975624028
100
AcDbArc
 50
249.6740399785
 51
290.3259600215
  0
ARC
  5
505
100
AcDbEntity
  8
RACCORDO
100
AcDbCircle
 62
250
  6
CONTINUOUS
 10
0.0
 20
-1.0024375972
 40
27.6975624028
100
AcDbArc
 50
249.6740399785
 51
290.3259600215
  0
ARC
  5
506
100
AcDbEntity
  8
RACCORDO
100
AcDbCircle
 62
7
  6
CONTINUOUS
 10
0.0
 20
-13.5
 40
9.1
100
AcDbArc
 50
9.0
 51
171.0
  0
ARC
  5
507
100
AcDbEntity
  8
RACCORDO
100
AcDbCircle
 62
250
  6
CONTINUOUS
 10
0.0
 20
-13.5
 40
8.6
100
AcDbArc
 50
9.0
 51
171.0
  0
CIRCLE
  5
508
100
AcDbEntity
  8
RACCORDO
100
AcDbCircle
 62
250
  6
CONTINUOUS
 10
0.0
 20
-13.5
 40
7.9821067812
  0
CIRCLE
  5
509
100
AcDbEntity
  8
RACCORDO
100
AcDbCircle
 62
250
  6
CONTINUOUS
 10
0.0
 20
-13.5
 40
7.6285533906
  0
CIRCLE
  5
50A
100
AcDbEntity
  8
SMUSSO
100
AcDbCircle
 62
7
  6
CONTINUOUS
 10
0.0
 20
-13.5
 40
6.275
  0
CIRCLE
  5
50B
100
AcDbEntity
  8
ASSI
100
AcDbCircle
 62
7
  6
CONTINUOUS
 10
0.0
 20
-13.5
 40
5.9
  0
ARC
  5
50C
100
AcDbEntity
  8
SMUSSO
100
AcDbCircle
 62
7
  6
CONTINUOUS
 10
0.0000217166
 20
-13.4997698005
 40
5.7000319379
100
AcDbArc
 50
106.766749502
 51
73.23366854
  0
ARC
  5
50D
100
AcDbEntity
  8
SMUSSO
100
AcDbCircle
 62
7
  6
CONTINUOUS
 10
0.0000217166
 20
-13.4997698005
 40
5.399765783
100
AcDbArc
 50
104.3629446285
 51
75.6374091856
  0
ARC
  5
50E
100
AcDbEntity
  8
ASSI
100
AcDbCircle
 62
7
  6
CONTINUOUS
 10
0.3
 20
-11.0
 40
2.5
100
AcDbArc
 50
121.3322514976
 51
73.7397952917
  0
ARC
  5
50F
100
AcDbEntity
  8
RACCORDO
100
AcDbCircle
 62
7
  6
CONTINUOUS
 10
9.1
 20
-25.5687209109
 40
2.0
100
AcDbArc
 50
290.3259600215
 51
9.0
  0
ARC
  5
510
100
AcDbEntity
  8
RACCORDO
100
AcDbCircle
 62
250
  6
CONTINUOUS
 10
9.1
 20
-25.5687209109
 40
1.5
100
AcDbArc
 50
290.3259600215
 51
9.0
  0
ARC
  5
511
100
AcDbEntity
  8
RACCORDO
100
AcDbCircle
 62
7
  6
CONTINUOUS
 10
58.9
 20
-82.6
 40
1.0
100
AcDbArc
 50
270.0
 51
360.0
  0
CIRCLE
  5
512
100
AcDbEntity
  8
ASSI
100
AcDbCircle
 62
7
  6
CONTINUOUS
 10
10.3923048454
 20
32.5
 40
15.0
  0
ARC
  5
513
100
AcDbEntity
  8
ASSI
100
AcDbCircle
 62
7
  6
CONTINUOUS
 10
0.0
 20
14.5
 40
15.0
100
AcDbArc
 50
0.0
 51
13.853778612
  0
ARC
  5
514
100
AcDbEntity
  8
0
100
AcDbCircle
 62
7
  6
CONTINUOUS
 10
0.0
 20
14.5
 40
15.0
100
AcDbArc
 50
180.0
 51
360.0
  0
ARC
  5
515
100
AcDbEntity
  8
ASSI
100
AcDbCircle
 62
7
  6
CONTINUOUS
 10
0.0
 20
14.5
 40
15.0
100
AcDbArc
 50
106.146221388
 51
180.0
  0
CIRCLE
  5
516
100
AcDbEntity
  8
SMUSSO
100
AcDbCircle
 62
7
  6
CONTINUOUS
 10
7.0
 20
7.5
 40
4.05
  0
ARC
  5
517
100
AcDbEntity
  8
ASSI
100
AcDbCircle
 62
7
  6
CONTINUOUS
 10
0.0
 20
14.7
 40
3.5
100
AcDbArc
 50
295.3769335252
 51
244.6230664748
  0
ARC
  5
518
100
AcDbEntity
  8
RACCORDO
100
AcDbCircle
 62
7
  6
CONTINUOUS
 10
0.0
 20
14.5
 40
3.4999999989
100
AcDbArc
 50
1.491952306
 51
178.1960660192
  0
CIRCLE
  5
519
100
AcDbEntity
  8
ASSI
100
AcDbCircle
 62
7
  6
CONTINUOUS
 10
0.0
 20
26.5
 40
2.2
  0
CIRCLE
  5
51A
100
AcDbEntity
  8
SMUSSO
100
AcDbCircle
 62
7
  6
CONTINUOUS
 10
7.0
 20
7.5
 40
2.05
  0
ARC
  5
51B
100
AcDbEntity
  8
0
100
AcDbCircle
 62
7
  6
CONTINUOUS
 10
7.0
 20
7.5
 40
2.0
100
AcDbArc
 50
255.0
 51
195.0
  0
CIRCLE
  5
51C
100
AcDbEntity
  8
ASSI
100
AcDbCircle
 62
7
  6
CONTINUOUS
 10
0.0
 20
14.5
 40
1.9
  0
CIRCLE
  5
51D
100
AcDbEntity
  8
0
100
AcDbCircle
 62
7
  6
CONTINUOUS
 10
7.0
 20
7.5
 40
1.65
  0
ARC
  5
51E
100
AcDbEntity
  8
RACCORDO
100
AcDbCircle
 62
7
  6
CONTINUOUS
 10
1.8168457204
 20
11.1624752243
 40
0.3
100
AcDbArc
 50
165.458069563
 51
185.103640124
  0
ARC
  5
51F
100
AcDbEntity
  8
RACCORDO
100
AcDbCircle
 62
7
  6
CONTINUOUS
 10
1.9266769936
 20
3.75
 40
0.25
100
AcDbArc
 50
348.4470450824
 51
5.103640124
  0
CIRCLE
  5
520
100
AcDbEntity
  8
ASSI
100
AcDbCircle
 62
250
  6
CONTINUOUS
 10
0.0
 20
14.5
 40
0.15
  0
ARC
  5
521
100
AcDbEntity
  8
RACCORDO
100
AcDbCircle
 62
7
  6
CONTINUOUS
 10
-0.0
 20
64.55
 40
0.3
100
AcDbArc
 50
202.5
 51
337.5
  0
ARC
  5
522
100
AcDbEntity
  8
RACCORDO
100
AcDbCircle
 62
7
  6
CONTINUOUS
 10
0.5087775692
 20
64.7330473359
 40
0.1
100
AcDbArc
 50
108.541169179
 51
157.5
  0
CIRCLE
  5
523
100
AcDbEntity
  8
ASSI
100
AcDbCircle
 62
7
  6
CONTINUOUS
 10
0.0
 20
66.25
 40
4.25
  0
CIRCLE
  5
524
100
AcDbEntity
  8
RACCORDO
100
AcDbCircle
 62
7
  6
CONTINUOUS
 10
0.0
 20
66.25
 40
4.0
  0
CIRCLE
  5
525
100
AcDbEntity
  8
RACCORDO
100
AcDbCircle
 62
250
  6
CONTINUOUS
 10
0.0
 20
66.25
 40
3.75
  0
ARC
  5
526
100
AcDbEntity
  8
RACCORDO
100
AcDbCircle
 62
7
  6
CONTINUOUS
 10
0.0
 20
66.25
 40
2.0
100
AcDbArc
 50
34.5906080924
 51
85.4106167488
  0
ARC
  5
527
100
AcDbEntity
  8
RACCORDO
100
AcDbCircle
 62
7
  6
CONTINUOUS
 10
0.0
 20
66.25
 40
2.0
100
AcDbArc
 50
94.5893798827
 51
145.4107867348
  0
ARC
  5
528
100
AcDbEntity
  8
RACCORDO
100
AcDbCircle
 62
7
  6
CONTINUOUS
 10
0.0
 20
66.25
 40
2.0
100
AcDbArc
 50
214.5893757793
 51
265.410617909
  0
ARC
  5
529
100
AcDbEntity
  8
RACCORDO
100
AcDbCircle
 62
7
  6
CONTINUOUS
 10
0.0
 20
66.25
 40
2.0
100
AcDbArc
 50
274.5893820008
 51
325.4106239176
  0
ARC
  5
52A
100
AcDbEntity
  8
RACCORDO
100
AcDbCircle
 62
7
  6
CONTINUOUS
 10
0.0
 20
66.25
 40
2.0
100
AcDbArc
 50
154.5893798802
 51
205.4120981699
  0
ARC
  5
52B
100
AcDbEntity
  8
RACCORDO
100
AcDbCircle
 62
7
  6
CONTINUOUS
 10
0.0
 20
66.25
 40
2.0
100
AcDbArc
 50
334.5893943667
 51
25.4108714273
  0
ARC
  5
52C
100
AcDbEntity
  8
RACCORDO
100
AcDbCircle
 62
250
  6
CONTINUOUS
 10
0.0
 20
66.25
 40
1.5292893219
100
AcDbArc
 50
168.541169179
 51
191.458830821
  0
ARC
  5
52D
100
AcDbEntity
  8
RACCORDO
100
AcDbCircle
 62
250
  6
CONTINUOUS
 10
0.0
 20
66.25
 40
1.5292893219
100
AcDbArc
 50
348.541169179
 51
11.458830821
  0
ARC
  5
52E
100
AcDbEntity
  8
RACCORDO
100
AcDbCircle
 62
250
  6
CONTINUOUS
 10
0.0
 20
66.25
 40
1.5292893219
100
AcDbArc
 50
288.541169179
 51
311.458830821
  0
ARC
  5
52F
100
AcDbEntity
  8
RACCORDO
100
AcDbCircle
 62
250
  6
CONTINUOUS
 10
0.0
 20
66.25
 40
1.5292893219
100
AcDbArc
 50
228.541169179
 51
251.458830821
  0
ARC
  5
530
100
AcDbEntity
  8
RACCORDO
100
AcDbCircle
 62
250
  6
CONTINUOUS
 10
0.0
 20
66.25
 40
1.5292893219
100
AcDbArc
 50
108.541169179
 51
131.458830821
  0
ARC
  5
531
100
AcDbEntity
  8
RACCORDO
100
AcDbCircle
 62
250
  6
CONTINUOUS
 10
0.0
 20
66.25
 40
1.5292893219
100
AcDbArc
 50
48.541169179
 51
71.458830821
  0
ARC
  5
532
100
AcDbEntity
  8
RACCORDO
100
AcDbCircle
 62
7
  6
CONTINUOUS
 10
0.0
 20
66.25
 40
1.5
100
AcDbArc
 50
348.541169179
 51
11.458830821
  0
ARC
  5
533
100
AcDbEntity
  8
RACCORDO
100
AcDbCircle
 62
7
  6
CONTINUOUS
 10
0.0
 20
66.25
 40
1.5
100
AcDbArc
 50
288.541169179
 51
311.458830821
  0
ARC
  5
534
100
AcDbEntity
  8
RACCORDO
100
AcDbCircle
 62
7
  6
CONTINUOUS
 10
0.0
 20
66.25
 40
1.5
100
AcDbArc
 50
228.541169179
 51
251.458830821
  0
ARC
  5
535
100
AcDbEntity
  8
RACCORDO
100
AcDbCircle
 62
7
  6
CONTINUOUS
 10
0.0
 20
66.25
 40
1.5
100
AcDbArc
 50
168.541169179
 51
191.458830821
  0
ARC
  5
536
100
AcDbEntity
  8
RACCORDO
100
AcDbCircle
 62
7
  6
CONTINUOUS
 10
0.0
 20
66.25
 40
1.5
100
AcDbArc
 50
108.541169179
 51
131.458830821
  0
ARC
  5
537
100
AcDbEntity
  8
RACCORDO
100
AcDbCircle
 62
7
  6
CONTINUOUS
 10
0.0
 20
66.25
 40
1.5
100
AcDbArc
 50
48.541169179
 51
71.458830821
  0
CIRCLE
  5
538
100
AcDbEntity
  8
RACCORDO
100
AcDbCircle
 62
7
  6
CONTINUOUS
 10
0.0
 20
66.25
 40
0.65
  0
CIRCLE
  5
539
100
AcDbEntity
  8
RACCORDO
100
AcDbCircle
 62
250
  6
CONTINUOUS
 10
0.0
 20
66.25
 40
0.55
  0
ARC
  5
53A
100
AcDbEntity
  8
RACCORDO
100
AcDbCircle
 62
7
  6
CONTINUOUS
 10
-0.0
 20
67.95
 40
0.3
100
AcDbArc
 50
22.5
 51
157.5
  0
ARC
  5
53B
100
AcDbEntity
  8
RACCORDO
100
AcDbCircle
 62
7
  6
CONTINUOUS
 10
0.5087775692
 20
67.7669526641
 40
0.1
100
AcDbArc
 50
202.5
 51
251.458830821
  0
ARC
  5
53C
100
AcDbEntity
  8
RACCORDO
100
AcDbCircle
 62
7
  6
CONTINUOUS
 10
1.4722431864
 20
65.4
 40
0.3
100
AcDbArc
 50
262.5
 51
37.5
  0
ARC
  5
53D
100
AcDbEntity
  8
RACCORDO
100
AcDbCircle
 62
7
  6
CONTINUOUS
 10
1.0593307588
 20
65.0509093681
 40
0.1
100
AcDbArc
 50
82.5
 51
131.458830821
  0
ARC
  5
53E
100
AcDbEntity
  8
RACCORDO
100
AcDbCircle
 62
7
  6
CONTINUOUS
 10
1.568108328
 20
65.9321379678
 40
0.1
100
AcDbArc
 50
168.541169179
 51
217.5
  0
ARC
  5
53F
100
AcDbEntity
  8
RACCORDO
100
AcDbCircle
 62
7
  6
CONTINUOUS
 10
1.4722431864
 20
67.1
 40
0.3
100
AcDbArc
 50
322.5
 51
97.5
  0
ARC
  5
540
100
AcDbEntity
  8
RACCORDO
100
AcDbCircle
 62
7
  6
CONTINUOUS
 10
1.568108328
 20
66.5678620322
 40
0.1
100
AcDbArc
 50
142.5
 51
191.458830821
  0
ARC
  5
541
100
AcDbEntity
  8
RACCORDO
100
AcDbCircle
 62
7
  6
CONTINUOUS
 10
1.0593307588
 20
67.4490906319
 40
0.1
100
AcDbArc
 50
228.541169179
 51
277.5
  0
ARC
  5
542
100
AcDbEntity
  8
RACCORDO
100
AcDbCircle
 62
7
  6
CONTINUOUS
 10
58.9
 20
82.6
 40
1.0
100
AcDbArc
 50
0.0
 51
90.0
  0
ARC
  5
543
100
AcDbEntity
  8
0
100
AcDbCircle
 62
7
  6
CONTINUOUS
 10
85.7233520508
 20
-40.25
 40
2.5625
100
AcDbArc
 50
102.6803834918
 51
257.3196165082
  0
ARC
  5
544
100
AcDbEntity
  8
0
100
AcDbCircle
 62
7
  6
CONTINUOUS
 10
85.7233520508
 20
-29.65
 40
2.5625
100
AcDbArc
 50
102.6803834918
 51
257.3196165082
  0
ARC
  5
545
100
AcDbEntity
  8
0
100
AcDbCircle
 62
7
  6
CONTINUOUS
 10
76.2233520508
 20
20.3
 40
2.5625
100
AcDbArc
 50
102.6803834918
 51
257.3196165082
  0
ARC
  5
546
100
AcDbEntity
  8
0
100
AcDbCircle
 62
7
  6
CONTINUOUS
 10
76.2233520508
 20
9.7
 40
2.5625
100
AcDbArc
 50
102.6803834918
 51
257.3196165082
  0
ARC
  5
547
100
AcDbEntity
  8
0
100
AcDbCircle
 62
7
  6
CONTINUOUS
 10
112.5975187174
 20
26.5
 40
2.3633333333
100
AcDbArc
 50
291.4262460456
 51
68.5737539544
  0
ARC
  5
548
100
AcDbEntity
  8
RACCORDO
100
AcDbCircle
 62
7
  6
CONTINUOUS
 10
97.4608520508
 20
-27.6717183306
 40
2.2
100
AcDbArc
 50
141.3401917459
 51
180.0
  0
ARC
  5
549
100
AcDbEntity
  8
RACCORDO
100
AcDbCircle
 62
7
  6
CONTINUOUS
 10
95.4608520508
 20
-25.0492189406
 40
2.2
100
AcDbArc
 50
321.3401917459
 51
360.0
  0
ARC
  5
54A
100
AcDbEntity
  8
RACCORDO
100
AcDbCircle
 62
7
  6
CONTINUOUS
 10
88.4608520508
 20
-1.5
 40
1.5
100
AcDbArc
 50
180.0
 51
270.0
  0
ARC
  5
54B
100
AcDbEntity
  8
RACCORDO
100
AcDbCircle
 62
7
  6
CONTINUOUS
 10
88.4608520508
 20
30.0
 40
1.5
100
AcDbArc
 50
90.0
 51
180.0
  0
ARC
  5
54C
100
AcDbEntity
  8
RACCORDO
100
AcDbCircle
 62
7
  6
CONTINUOUS
 10
97.4608520508
 20
-27.6717183306
 40
1.0
100
AcDbArc
 50
141.3401917459
 51
180.0
  0
ARC
  5
54D
100
AcDbEntity
  8
RACCORDO
100
AcDbCircle
 62
7
  6
CONTINUOUS
 10
95.4608520508
 20
-25.0492189406
 40
1.0
100
AcDbArc
 50
321.3401917459
 51
360.0
  0
ARC
  5
54E
100
AcDbEntity
  8
RACCORDO
100
AcDbCircle
 62
7
  6
CONTINUOUS
 10
111.4608520508
 20
-28.7
 40
0.5
100
AcDbArc
 50
270.0
 51
360.0
  0
ARC
  5
54F
100
AcDbEntity
  8
RACCORDO
100
AcDbCircle
 62
7
  6
CONTINUOUS
 10
111.4608520508
 20
-4.9
 40
0.5
100
AcDbArc
 50
0.0
 51
90.0
  0
ARC
  5
550
100
AcDbEntity
  8
ASSI
100
AcDbCircle
 62
7
  6
CONTINUOUS
 10
99.6608520508
 20
14.5
 40
0.3
100
AcDbArc
 50
330.0
 51
30.0
  0
ARC
  5
551
100
AcDbEntity
  8
ASSI
100
AcDbCircle
 62
7
  6
CONTINUOUS
 10
78.2608520508
 20
1.0
 40
0.3
100
AcDbArc
 50
150.0
 51
210.0
  0
ARC
  5
552
100
AcDbEntity
  8
RACCORDO
100
AcDbCircle
 62
7
  6
CONTINUOUS
 10
96.2108520508
 20
17.75
 40
0.25
100
AcDbArc
 50
90.0
 51
180.0
  0
ARC
  5
553
100
AcDbEntity
  8
RACCORDO
100
AcDbCircle
 62
7
  6
CONTINUOUS
 10
96.2108520508
 20
25.25
 40
0.25
100
AcDbArc
 50
180.0
 51
270.0
  0
ARC
  5
554
100
AcDbEntity
  8
RACCORDO
100
AcDbCircle
 62
7
  6
CONTINUOUS
 10
97.7108520508
 20
16.05
 40
0.25
100
AcDbArc
 50
0.0
 51
90.0
  0
ENDSEC
  0
SECTION
  2
OBJECTS
  0
DICTIONARY
  5
C
100
AcDbDictionary
280
0
281
1
  3
ACAD_GROUP
350
D
  3
ACAD_MLINESTYLE
350
17
  3
ACAD_LAYOUT
350
1A
  3
ACAD_PLOTSETTINGS
350
19
  3
ACAD_PLOTSTYLENAME
350
E
  0
DICTIONARY
  5
D
102
{ACAD_REACTORS
330
C
102
}
100
AcDbDictionary
280
0
281
1
  0
ACDBDICTIONARYWDFLT
  5
E
102
{ACAD_REACTORS
330
C
102
}
100
AcDbDictionary
281
1
  3
Normal
350
F
100
AcDbDictionaryWithDefault
340
F
  0
DICTIONARY
  5
17
102
{ACAD_REACTORS
330
C
102
}
100
AcDbDictionary
280
0
281
1
  3
Standard
350
18
  0
DICTIONARY
  5
19
102
{ACAD_REACTORS
330
C
102
}
100
AcDbDictionary
281
1
  0
DICTIONARY
  5
1A
102
{ACAD_REACTORS
330
C
102
}
100
AcDbDictionary
281
1
  3
Model
350
555
  3
Layout1
350
556
  0
ACDBPLACEHOLDER
  5
F
102
{ACAD_REACTORS
330
E
102
}
  0
MLINESTYLE
  5
18
102
{ACAD_REACTORS
330
17
102
}
100
AcDbMlineStyle
  2
STANDARD
 70
0
  3

 62
256
 51
90.0
 52
90.0
 71
2
 49
0.5
 62
256
  6
BYLAYER
 49
-0.5
 62
256
  6
BYLAYER
  0
LAYOUT
  5
555
102
{ACAD_REACTORS
330
1A
102
}
100
AcDbPlotSettings
  1

  2
none_device
  4

  6

 40
0.0
 41
0.0
 42
0.0
 43
0.0
 44
210.0
 45
297.0
 46
0.0
 47
0.0
 48
0.0
 49
0.0
140
0.0
141
0.0
142
1.0
143
1.0
 70
1024
 72
1
 73
0
 74
0
  7

 75
0
147
1.0
148
0.0
149
0.0
100
AcDbLayout
  1
Model
 70
0
 71
0
 10
0.0
 20
0.0
 11
210.0
 21
297.0
 12
0.0
 22
0.0
 32
0.0
 14
0.0
 24
0.0
 34
0.0
 15
0.0
 25
0.0
 35
0.0
146
0.0
 13
0.0
 23
0.0
 33
0.0
 16
1.0
 26
0.0
 36
0.0
 17
0.0
 27
1.0
 37
0.0
 76
0
330
20F
345
0
346
0
  0
LAYOUT
  5
556
102
{ACAD_REACTORS
330
1A
102
}
100
AcDbPlotSettings
  1

  2
none_device
  4

  6

 40
0.0
 41
0.0
 42
0.0
 43
0.0
 44
210.0
 45
297.0
 46
0.0
 47
0.0
 48
0.0
 49
0.0
140
0.0
141
0.0
142
1.0
143
1.0
 70
0
 72
1
 73
0
 74
0
  7

 75
0
147
1.0
148
0.0
149
0.0
100
AcDbLayout
  1
Layout1
 70
0
 71
1
 10
0.0
 20
0.0
 11
210.0
 21
297.0
 12
0.0
 22
0.0
 32
0.0
 14
0.0
 24
0.0
 34
0.0
 15
0.0
 25
0.0
 35
0.0
146
0.0
 13
0.0
 23
0.0
 33
0.0
 16
1.0
 26
0.0
 36
0.0
 17
0.0
 27
1.0
 37
0.0
 76
0
330
210
345
0
346
0
  0
ENDSEC
  0
EOF
