  0
SECTION
  2
HEADER
  9
$ACADVER
  1
AC1024
  9
$DWGCODEPAGE
  3
ANSI_1252
  9
$EXTMAX
 10
297.0
 20
210.0
 30
0.0
  9
$EXTMIN
 10
0.0
 20
0.0
 30
0.0
  9
$LIMMIN
 10
0.0
 20
0.0
  9
$LIMMAX
 10
297.0
 20
210.0
  9
$VIEWCTR
 10
148.5
 20
105.0
  9
$VIEWSIZE
 40
210.0
  9
$CLAYER
  8
0
  9
$LTSCALE
 40
16.335
  9
$CELTYPE
  6
BYLAYER
  9
$DIMSCALE
 40
1.0
  9
$DIMASZ
 40
3.0
  9
$DIMEXO
 40
0.5
  9
$DIMDLI
 40
11.286
  9
$DIMEXE
 40
1.5
  9
$DIMCEN
 40
2.673
  9
$DIMLFAC
 40
1.0
  9
$DIMBLK
  1
_FILLED
  9
$DIMALT
 70
0
  9
$DIMALTF
 40
0.0393700787
  9
$DIMTXT
 40
3.0
  9
$DIMTOL
 70
1
  9
$DIMLIM
 70
0
  9
$DIMTFAC
 40
1.0
  9
$DIMTP
 40
0.01
  9
$DIMTM
 40
0.01
  9
$DIMGAP
 40
0.625
  9
$DIMDSEP
 70
44
  9
$AUNITS
 70
0
  9
$PDMODE
 70
3
  9
$PDSIZE
 40
3.0
  9
$HANDSEED
  5
4FC
  9
$TILEMODE
 70
1
  9
$MEASUREMENT
 70
1
  9
$INSUNITS
 70
4
  0
ENDSEC
  0
SECTION
  2
CLASSES
  0
CLASS
  1
ACDBDICTIONARYWDFLT
  2
AcDbDictionaryWithDefault
  3
AutoCAD 2000
 90
0
 91
1
280
0
281
0
  0
CLASS
  1
ACDBPLACEHOLDER
  2
AcDbPlaceHolder
  3
AutoCAD 2000
 90
0
 91
1
280
0
281
0
  0
CLASS
  1
LAYOUT
  2
AcDbLayout
  3
AutoCAD 2000
 90
0
 91
0
280
0
281
0
  0
ENDSEC
  0
SECTION
  2
TABLES
  0
TABLE
  2
VPORT
  5
8
100
AcDbSymbolTable
 70
2
  0
VPORT
  5
1F4
100
AcDbSymbolTableRecord
100
AcDbViewportTableRecord
  2
*ACTIVE
 70
0
 10
0.0
 20
0.0
 11
1.0
 21
1.0
 12
148.5
 22
105.0
 13
0.0
 23
0.0
 14
1.0
 24
1.0
 15
0.0
 25
0.0
 16
0.0
 26
0.0
 36
1.0
 17
0.0
 27
0.0
 37
0.0
 40
210.0
 41
1.4142857143
 42
50.0
 43
0.0
 44
0.0
 50
0.0
 51
0.0
 71
0
 72
100
 73
1
 74
1
 75
0
 76
0
 77
0
 78
0
  0
ENDTAB
  0
TABLE
  2
LTYPE
  5
5
100
AcDbSymbolTable
 70
6
  0
LTYPE
  5
14
100
AcDbSymbolTableRecord
100
AcDbLinetypeTableRecord
  2
BYBLOCK
 70
0
  3

 72
65
 73
0
 40
0.0
  0
LTYPE
  5
15
100
AcDbSymbolTableRecord
100
AcDbLinetypeTableRecord
  2
BYLAYER
 70
0
  3

 72
65
 73
0
 40
0.0
  0
LTYPE
  5
16
100
AcDbSymbolTableRecord
100
AcDbLinetypeTableRecord
  2
CONTINUOUS
 70
64
  3
Solid line
 72
65
 73
0
 40
0.0
  0
LTYPE
  5
1F5
100
AcDbSymbolTableRecord
100
AcDbLinetypeTableRecord
  2
CENTER
 70
64
  3
____ _ ____ _ ____ _ ____ _ ____ _ ____ _ ____
 72
65
 73
4
 40
0.6
 49
0.375
 74
0
 49
-0.075
 74
0
 49
0.075
 74
0
 49
-0.075
 74
0
  0
LTYPE
  5
1F6
100
AcDbSymbolTableRecord
100
AcDbLinetypeTableRecord
  2
HIDDEN
 70
64
  3
- - - - - - - - - - - - - - - - - - - -
 72
65
 73
2
 40
0.2
 49
0.1
 74
0
 49
-0.1
 74
0
  0
LTYPE
  5
1F7
100
AcDbSymbolTableRecord
100
AcDbLinetypeTableRecord
  2
PHANTOM
 70
64
  3
_____ _ _ _____ _ _ _____ _ _ _____
 72
65
 73
6
 40
0.8
 49
0.45
 74
0
 49
-0.05
 74
0
 49
0.1
 74
0
 49
-0.05
 74
0
 49
0.1
 74
0
 49
-0.05
 74
0
  0
LTYPE
  5
1F8
100
AcDbSymbolTableRecord
100
AcDbLinetypeTableRecord
  2
DOT
 70
64
  3
. . . . . . . . . . . . . . . . . . . .
 72
65
 73
2
 40
0.2
 49
0.1
 74
0
 49
-0.1
 74
0
  0
LTYPE
  5
1F9
100
AcDbSymbolTableRecord
100
AcDbLinetypeTableRecord
  2
DASHED
 70
64
  3
- - - - - - - - - - - - - - - - - - - -
 72
65
 73
2
 40
0.2
 49
0.1
 74
0
 49
-0.1
 74
0
  0
ENDTAB
  0
TABLE
  2
LAYER
  5
2
100
AcDbSymbolTable
 70
36
  0
LAYER
  5
10
100
AcDbSymbolTableRecord
100
AcDbLayerTableRecord
  2
0
 70
0
 62
7
  6
CONTINUOUS
370
-3
390
F
  0
LAYER
  5
1FA
100
AcDbSymbolTableRecord
100
AcDbLayerTableRecord
  2
DEFAULT_1
 70
0
 62
7
  6
CENTER
370
-3
390
F
  0
LAYER
  5
1FB
100
AcDbSymbolTableRecord
100
AcDbLayerTableRecord
  2
DEFAULT_2
 70
0
 62
7
  6
HIDDEN
370
-3
390
F
  0
LAYER
  5
1FC
100
AcDbSymbolTableRecord
100
AcDbLayerTableRecord
  2
DEFAULT_3
 70
0
 62
7
  6
PHANTOM
370
-3
390
F
  0
LAYER
  5
1FD
100
AcDbSymbolTableRecord
100
AcDbLayerTableRecord
  2
ASSI
 70
0
 62
7
  6
CONTINUOUS
370
-3
390
F
  0
LAYER
  5
1FE
100
AcDbSymbolTableRecord
100
AcDbLayerTableRecord
  2
COLOR5
 70
0
 62
7
  6
CONTINUOUS
370
-3
390
F
  0
LAYER
  5
1FF
100
AcDbSymbolTableRecord
100
AcDbLayerTableRecord
  2
COORDINATE
 70
0
 62
7
  6
CONTINUOUS
370
-3
390
F
  0
LAYER
  5
200
100
AcDbSymbolTableRecord
100
AcDbLayerTableRecord
  2
COORD_ORIGINE
 70
0
 62
7
  6
CONTINUOUS
370
-3
390
F
  0
LAYER
  5
201
100
AcDbSymbolTableRecord
100
AcDbLayerTableRecord
  2
COPY_PUBLISH
 70
0
 62
7
  6
CONTINUOUS
370
-3
390
F
  0
LAYER
  5
202
100
AcDbSymbolTableRecord
100
AcDbLayerTableRecord
  2
COSMETICI
 70
0
 62
7
  6
CONTINUOUS
370
-3
390
F
  0
LAYER
  5
203
100
AcDbSymbolTableRecord
100
AcDbLayerTableRecord
  2
CURVE
 70
0
 62
7
  6
CONTINUOUS
370
-3
390
F
  0
LAYER
  5
204
100
AcDbSymbolTableRecord
100
AcDbLayerTableRecord
  2
DRAFT
 70
0
 62
7
  6
CONTINUOUS
370
-3
390
F
  0
LAYER
  5
205
100
AcDbSymbolTableRecord
100
AcDbLayerTableRecord
  2
IMPORT_IGES
 70
0
 62
7
  6
CONTINUOUS
370
-3
390
F
  0
LAYER
  5
206
100
AcDbSymbolTableRecord
100
AcDbLayerTableRecord
  2
NOTE
 70
0
 62
7
  6
CONTINUOUS
370
-3
390
F
  0
LAYER
  5
207
100
AcDbSymbolTableRecord
100
AcDbLayerTableRecord
  2
PIANI
 70
0
 62
7
  6
CONTINUOUS
370
-3
390
F
  0
LAYER
  5
208
100
AcDbSymbolTableRecord
100
AcDbLayerTableRecord
  2
PIANI_ORIGINE
 70
0
 62
7
  6
CONTINUOUS
370
-3
390
F
  0
LAYER
  5
209
100
AcDbSymbolTableRecord
100
AcDbLayerTableRecord
  2
PUNTI
 70
0
 62
7
  6
CONTINUOUS
370
-3
390
F
  0
LAYER
  5
20A
100
AcDbSymbolTableRecord
100
AcDbLayerTableRecord
  2
PUNTI_SALDATURA
 70
0
 62
7
  6
CONTINUOUS
370
-3
390
F
  0
LAYER
  5
20B
100
AcDbSymbolTableRecord
100
AcDbLayerTableRecord
  2
RACCORDO
 70
0
 62
7
  6
CONTINUOUS
370
-3
390
F
  0
LAYER
  5
20C
100
AcDbSymbolTableRecord
100
AcDbLayerTableRecord
  2
SIMBOLI
 70
0
 62
7
  6
CONTINUOUS
370
-3
390
F
  0
LAYER
  5
20D
100
AcDbSymbolTableRecord
100
AcDbLayerTableRecord
  2
SMUSSO
 70
0
 62
7
  6
CONTINUOUS
370
-3
390
F
  0
LAYER
  5
20E
100
AcDbSymbolTableRecord
100
AcDbLayerTableRecord
  2
SNAPLINE
 70
0
 62
7
  6
CONTINUOUS
370
-3
390
F
  0
LAYER
  5
20F
100
AcDbSymbolTableRecord
100
AcDbLayerTableRecord
  2
SUPERFICI
 70
0
 62
7
  6
CONTINUOUS
370
-3
390
F
  0
LAYER
  5
210
100
AcDbSymbolTableRecord
100
AcDbLayerTableRecord
  2
TRASH
 70
0
 62
7
  6
CONTINUOUS
370
-3
390
F
  0
ENDTAB
  0
TABLE
  2
STYLE
  5
3
100
AcDbSymbolTable
 70
1
  0
STYLE
  5
11
100
AcDbSymbolTableRecord
100
AcDbTextStyleTableRecord
  2
STANDARD
 70
0
 40
0.0
 41
0.8
 50
0.0
 71
0
 42
0.2
  3
txt
  4

  0
STYLE
  5
211
100
AcDbSymbolTableRecord
100
AcDbTextStyleTableRecord
  2
TEXTSTYLE_1
 70
0
 40
0.0
 41
0.8
 50
0.0
 71
0
 42
0.2
  3
gdt
  4

  0
ENDTAB
  0
TABLE
  2
VIEW
  5
6
100
AcDbSymbolTable
 70
0
  0
ENDTAB
  0
TABLE
  2
UCS
  5
7
100
AcDbSymbolTable
 70
0
  0
ENDTAB
  0
TABLE
  2
APPID
  5
9
100
AcDbSymbolTable
 70
1
  0
APPID
  5
212
100
AcDbSymbolTableRecord
100
AcDbRegAppTableRecord
  2
ACAD
 70
0
  0
ENDTAB
  0
TABLE
  2
BLOCK_RECORD
  5
1
100
AcDbSymbolTable
 70
0
  0
BLOCK_RECORD
  5
213
100
AcDbSymbolTableRecord
100
AcDbBlockTableRecord
  2
*Model_Space
  0
BLOCK_RECORD
  5
214
100
AcDbSymbolTableRecord
100
AcDbBlockTableRecord
  2
*Paper_Space
  0
BLOCK_RECORD
  5
215
100
AcDbSymbolTableRecord
100
AcDbBlockTableRecord
  2
_FILLED
  0
BLOCK_RECORD
  5
216
100
AcDbSymbolTableRecord
100
AcDbBlockTableRecord
  2
*D0
  0
BLOCK_RECORD
  5
217
100
AcDbSymbolTableRecord
100
AcDbBlockTableRecord
  2
*D1
  0
BLOCK_RECORD
  5
218
100
AcDbSymbolTableRecord
100
AcDbBlockTableRecord
  2
*D2
  0
BLOCK_RECORD
  5
219
100
AcDbSymbolTableRecord
100
AcDbBlockTableRecord
  2
*D3
  0
BLOCK_RECORD
  5
21A
100
AcDbSymbolTableRecord
100
AcDbBlockTableRecord
  2
*D4
  0
BLOCK_RECORD
  5
21B
100
AcDbSymbolTableRecord
100
AcDbBlockTableRecord
  2
*D5
  0
ENDTAB
  0
TABLE
  2
DIMSTYLE
  5
A
100
AcDbSymbolTable
 70
1
100
AcDbDimStyleTable
 71
0
  0
DIMSTYLE
105
21C
100
AcDbSymbolTableRecord
100
AcDbDimStyleTableRecord
  2
STANDARD
 70
0
  3

  4

 40
1.0
 41
3.0
 42
0.5
 43
0.38
 44
1.5
 45
0.0
 46
0.0
 47
0.01
 48
0.01
140
3.0
141
0.09
142
0.0
143
25.4
144
1.0
145
0.0
146
1.0
147
0.625
 71
1.0
 72
0.0
 73
0
 74
0
 75
0
 76
0
 77
1
 78
8
 79
2
170
0
171
1
172
0
173
0
174
0
175
0
176
0
177
0
178
0
270
2
179
2
271
2
272
2
273
2
274
2
275
0
280
0
281
0
282
0
283
1
284
8
285
0
286
0
287
3
288
0
340
11
278
44
341
215
342
215
343
215
344
215
  0
DIMSTYLE
105
21D
100
AcDbSymbolTableRecord
100
AcDbDimStyleTableRecord
  2
DIMSTYLE_1
 70
0
  3

  4

 40
1.0
 41
3.0
 42
0.5
 43
0.38
 44
1.5
 45
0.0
 46
0.0
 47
0.0
 48
0.0
140
3.0
141
0.09
142
0.0
143
25.4
144
1.0
145
0.0
146
1.0
147
0.75
 71
0.0
 72
0.0
 73
0
 74
0
 75
0
 76
0
 77
1
 78
8
 79
2
170
0
171
1
172
0
173
0
174
0
175
0
176
0
177
0
178
0
270
2
179
2
271
2
272
2
273
2
274
2
275
0
280
0
281
0
282
0
283
1
284
8
285
0
286
0
287
3
288
0
340
11
278
44
341
215
342
215
343
215
344
215
  0
ENDTAB
  0
ENDSEC
  0
SECTION
  2
BLOCKS
  0
BLOCK
  5
20
100
AcDbEntity
  8
0
100
AcDbBlockBegin
  2
*Model_Space
 70
0
 10
0.0
 20
0.0
 30
0.0
  3
*Model_Space
  1

  0
ENDBLK
  5
21
100
AcDbEntity
  8
0
100
AcDbBlockEnd
  0
BLOCK
  5
1C
100
AcDbEntity
  8
0
100
AcDbBlockBegin
  2
*Paper_Space
 70
0
 10
0.0
 20
0.0
 30
0.0
  3
*Paper_Space
  1

  0
ENDBLK
  5
1D
100
AcDbEntity
  8
0
100
AcDbBlockEnd
  0
BLOCK
  5
21E
100
AcDbEntity
  8
0
100
AcDbBlockBegin
  2
_FILLED
 70
64
 10
0.0
 20
0.0
  3
_FILLED
  1

  0
SOLID
  5
21F
100
AcDbEntity
  8
0
  6
BYBLOCK
 62
0
100
AcDbTrace
 10
0.0
 20
0.0
 11
-1.0
 21
0.3166666667
 12
-1.0
 22
-0.3166666667
 13
-1.0
 23
-0.3166666667
  0
ENDBLK
  5
220
100
AcDbEntity
  8
0
  6
BYBLOCK
 62
0
100
AcDbBlockEnd
  0
BLOCK
  5
221
100
AcDbEntity
  8
0
100
AcDbBlockBegin
 62
7
  6
CONTINUOUS
  2
*D0
 70
65
 10
0.0
 20
0.0
  3
*D0
  1

  0
LINE
  5
222
100
AcDbEntity
  8
0
100
AcDbLine
 62
7
  6
CONTINUOUS
 10
-147.944705363
 20
133.55
 11
-147.944705363
 21
158.7000915544
  0
LINE
  5
223
100
AcDbEntity
  8
0
100
AcDbLine
 62
7
  6
CONTINUOUS
 10
-87.344705363
 20
133.55
 11
-87.344705363
 21
158.7000915544
  0
LINE
  5
224
100
AcDbEntity
  8
0
100
AcDbLine
 62
7
  6
CONTINUOUS
 10
-147.944705363
 20
157.2000915544
 11
-117.644705363
 21
157.2000915544
  0
LINE
  5
225
100
AcDbEntity
  8
0
100
AcDbLine
 62
7
  6
CONTINUOUS
 10
-87.344705363
 20
157.2000915544
 11
-117.644705363
 21
157.2000915544
  0
INSERT
  5
226
100
AcDbEntity
  8
0
100
AcDbBlockReference
 62
7
  6
CONTINUOUS
  2
_FILLED
 10
-147.944705363
 20
157.2000915544
 41
3.0
 42
3.0
 43
3.0
 50
180.0
  0
INSERT
  5
227
100
AcDbEntity
  8
0
100
AcDbBlockReference
 62
7
  6
CONTINUOUS
  2
_FILLED
 10
-87.344705363
 20
157.2000915544
 41
3.0
 42
3.0
 43
3.0
  0
ENDBLK
  5
228
100
AcDbEntity
  8
0
  6
BYBLOCK
 62
0
100
AcDbBlockEnd
  0
BLOCK
  5
229
100
AcDbEntity
  8
0
100
AcDbBlockBegin
 62
7
  6
CONTINUOUS
  2
*D1
 70
65
 10
0.0
 20
0.0
  3
*D1
  1

  0
LINE
  5
22A
100
AcDbEntity
  8
0
100
AcDbLine
 62
7
  6
CONTINUOUS
 10
-67.475
 20
133.55
 11
-67.475
 21
148.7000915544
  0
LINE
  5
22B
100
AcDbEntity
  8
0
100
AcDbLine
 62
7
  6
CONTINUOUS
 10
32.425
 20
133.55
 11
32.425
 21
148.7000915544
  0
LINE
  5
22C
100
AcDbEntity
  8
0
100
AcDbLine
 62
7
  6
CONTINUOUS
 10
-67.475
 20
147.2000915544
 11
-17.525
 21
147.2000915544
  0
LINE
  5
22D
100
AcDbEntity
  8
0
100
AcDbLine
 62
7
  6
CONTINUOUS
 10
32.425
 20
147.2000915544
 11
-17.525
 21
147.2000915544
  0
INSERT
  5
22E
100
AcDbEntity
  8
0
100
AcDbBlockReference
 62
7
  6
CONTINUOUS
  2
_FILLED
 10
-67.475
 20
147.2000915544
 41
3.0
 42
3.0
 43
3.0
 50
180.0
  0
INSERT
  5
22F
100
AcDbEntity
  8
0
100
AcDbBlockReference
 62
7
  6
CONTINUOUS
  2
_FILLED
 10
32.425
 20
147.2000915544
 41
3.0
 42
3.0
 43
3.0
  0
ENDBLK
  5
230
100
AcDbEntity
  8
0
  6
BYBLOCK
 62
0
100
AcDbBlockEnd
  0
BLOCK
  5
231
100
AcDbEntity
  8
0
100
AcDbBlockBegin
 62
7
  6
CONTINUOUS
  2
*D2
 70
65
 10
0.0
 20
0.0
  3
*D2
  1

  0
LINE
  5
232
100
AcDbEntity
  8
0
100
AcDbLine
 62
7
  6
CONTINUOUS
 10
11.702796223
 20
135.1
 11
59.897344418
 21
135.1
  0
LINE
  5
233
100
AcDbEntity
  8
0
100
AcDbLine
 62
7
  6
CONTINUOUS
 10
18.5554381211
 20
-135.1
 11
59.897344418
 21
-135.1
  0
LINE
  5
234
100
AcDbEntity
  8
0
100
AcDbLine
 62
7
  6
CONTINUOUS
 10
58.397344418
 20
135.1
 11
58.397344418
 21
0.0
  0
LINE
  5
235
100
AcDbEntity
  8
0
100
AcDbLine
 62
7
  6
CONTINUOUS
 10
58.397344418
 20
-135.1
 11
58.397344418
 21
0.0
  0
INSERT
  5
236
100
AcDbEntity
  8
0
100
AcDbBlockReference
 62
7
  6
CONTINUOUS
  2
_FILLED
 10
58.397344418
 20
135.1
 41
3.0
 42
3.0
 43
3.0
 50
90.0
  0
INSERT
  5
237
100
AcDbEntity
  8
0
100
AcDbBlockReference
 62
7
  6
CONTINUOUS
  2
_FILLED
 10
58.397344418
 20
-135.1
 41
3.0
 42
3.0
 43
3.0
 50
270.0
  0
ENDBLK
  5
238
100
AcDbEntity
  8
0
  6
BYBLOCK
 62
0
100
AcDbBlockEnd
  0
BLOCK
  5
239
100
AcDbEntity
  8
0
100
AcDbBlockBegin
 62
7
  6
CONTINUOUS
  2
*D3
 70
65
 10
0.0
 20
0.0
  3
*D3
  1

  0
LINE
  5
23A
100
AcDbEntity
  8
0
100
AcDbLine
 62
7
  6
CONTINUOUS
 10
-87.344705363
 20
133.55
 11
-87.344705363
 21
148.7000915544
  0
LINE
  5
23B
100
AcDbEntity
  8
0
100
AcDbLine
 62
7
  6
CONTINUOUS
 10
-107.344705363
 20
70.5
 11
-107.344705363
 21
148.7000915544
  0
LINE
  5
23C
100
AcDbEntity
  8
0
100
AcDbLine
 62
7
  6
CONTINUOUS
 10
-87.344705363
 20
147.2000915544
 11
-97.344705363
 21
147.2000915544
  0
LINE
  5
23D
100
AcDbEntity
  8
0
100
AcDbLine
 62
7
  6
CONTINUOUS
 10
-107.344705363
 20
147.2000915544
 11
-97.344705363
 21
147.2000915544
  0
INSERT
  5
23E
100
AcDbEntity
  8
0
100
AcDbBlockReference
 62
7
  6
CONTINUOUS
  2
_FILLED
 10
-87.344705363
 20
147.2000915544
 41
3.0
 42
3.0
 43
3.0
  0
INSERT
  5
23F
100
AcDbEntity
  8
0
100
AcDbBlockReference
 62
7
  6
CONTINUOUS
  2
_FILLED
 10
-107.344705363
 20
147.2000915544
 41
3.0
 42
3.0
 43
3.0
 50
180.0
  0
ENDBLK
  5
240
100
AcDbEntity
  8
0
  6
BYBLOCK
 62
0
100
AcDbBlockEnd
  0
BLOCK
  5
241
100
AcDbEntity
  8
0
100
AcDbBlockBegin
 62
7
  6
CONTINUOUS
  2
*D4
 70
65
 10
0.0
 20
0.0
  3
*D4
  1

  0
LINE
  5
242
100
AcDbEntity
  8
0
100
AcDbLine
 62
7
  6
CONTINUOUS
 10
-107.844705363
 20
70.0
 11
-159.7646382333
 21
70.0
  0
LINE
  5
243
100
AcDbEntity
  8
0
100
AcDbLine
 62
7
  6
CONTINUOUS
 10
-107.844705363
 20
-70.0
 11
-159.7646382333
 21
-70.0
  0
LINE
  5
244
100
AcDbEntity
  8
0
100
AcDbLine
 62
7
  6
CONTINUOUS
 10
-158.2646382333
 20
70.0
 11
-158.2646382333
 21
0.0
  0
LINE
  5
245
100
AcDbEntity
  8
0
100
AcDbLine
 62
7
  6
CONTINUOUS
 10
-158.2646382333
 20
-70.0
 11
-158.2646382333
 21
0.0
  0
INSERT
  5
246
100
AcDbEntity
  8
0
100
AcDbBlockReference
 62
7
  6
CONTINUOUS
  2
_FILLED
 10
-158.2646382333
 20
70.0
 41
3.0
 42
3.0
 43
3.0
 50
90.0
  0
INSERT
  5
247
100
AcDbEntity
  8
0
100
AcDbBlockReference
 62
7
  6
CONTINUOUS
  2
_FILLED
 10
-158.2646382333
 20
-70.0
 41
3.0
 42
3.0
 43
3.0
 50
270.0
  0
ENDBLK
  5
248
100
AcDbEntity
  8
0
  6
BYBLOCK
 62
0
100
AcDbBlockEnd
  0
BLOCK
  5
249
100
AcDbEntity
  8
0
100
AcDbBlockBegin
 62
7
  6
CONTINUOUS
  2
*D5
 70
65
 10
0.0
 20
0.0
  3
*D5
  1

  0
LINE
  5
24A
100
AcDbEntity
  8
0
100
AcDbLine
 62
7
  6
CONTINUOUS
 10
-17.025
 20
126.05
 11
49.897344418
 21
126.05
  0
LINE
  5
24B
100
AcDbEntity
  8
0
100
AcDbLine
 62
7
  6
CONTINUOUS
 10
-17.025
 20
-115.95
 11
49.897344418
 21
-115.95
  0
LINE
  5
24C
100
AcDbEntity
  8
0
100
AcDbLine
 62
7
  6
CONTINUOUS
 10
48.397344418
 20
126.05
 11
48.397344418
 21
5.05
  0
LINE
  5
24D
100
AcDbEntity
  8
0
100
AcDbLine
 62
7
  6
CONTINUOUS
 10
48.397344418
 20
-115.95
 11
48.397344418
 21
5.05
  0
INSERT
  5
24E
100
AcDbEntity
  8
0
100
AcDbBlockReference
 62
7
  6
CONTINUOUS
  2
_FILLED
 10
48.397344418
 20
126.05
 41
3.0
 42
3.0
 43
3.0
 50
90.0
  0
INSERT
  5
24F
100
AcDbEntity
  8
0
100
AcDbBlockReference
 62
7
  6
CONTINUOUS
  2
_FILLED
 10
48.397344418
 20
-115.95
 41
3.0
 42
3.0
 43
3.0
 50
270.0
  0
ENDBLK
  5
250
100
AcDbEntity
  8
0
  6
BYBLOCK
 62
0
100
AcDbBlockEnd
  0
ENDSEC
  0
SECTION
  2
ENTITIES
  0
DIMENSION
  5
251
100
AcDbEntity
  8
0
100
AcDbDimension
 62
7
  6
CONTINUOUS
  2
*D0
 10
-87.344705363
 20
157.2000915544
 11
-122.0375625058
 21
157.2000915544
 70
160
 71
2
 72
2
 41
0.9
 42
60.6
  3
DIMSTYLE_1
100
AcDbAlignedDimension
 13
-147.944705363
 23
133.05
 14
-87.344705363
 24
133.05
100
AcDbRotatedDimension
  0
DIMENSION
  5
252
100
AcDbEntity
  8
0
100
AcDbDimension
 62
7
  6
CONTINUOUS
  2
*D1
 10
32.425
 20
147.2000915544
 11
-21.9178571429
 21
147.2000915544
 70
160
 71
2
 72
2
 41
0.9
 42
99.9
  3
DIMSTYLE_1
100
AcDbAlignedDimension
 13
-67.475
 23
133.05
 14
32.425
 24
133.05
100
AcDbRotatedDimension
  0
DIMENSION
  5
253
100
AcDbEntity
  8
0
100
AcDbDimension
 62
7
  6
CONTINUOUS
  2
*D2
 10
58.397344418
 20
-135.1
 11
58.397344418
 21
-5.5714285714
 70
160
 71
2
 72
2
 41
0.9
 42
270.2
  3
DIMSTYLE_1
100
AcDbAlignedDimension
 13
11.202796223
 23
135.1
 14
18.0554381211
 24
-135.1
 50
270.0
100
AcDbRotatedDimension
  0
DIMENSION
  5
254
100
AcDbEntity
  8
0
100
AcDbDimension
 62
7
  6
CONTINUOUS
  2
*D3
 10
-107.344705363
 20
147.2000915544
 11
-99.7018482201
 21
147.2000915544
 70
160
 71
2
 72
2
 41
0.9
 42
20.0
  3
DIMSTYLE_1
100
AcDbAlignedDimension
 13
-87.344705363
 23
133.05
 14
-107.344705363
 24
70.0
 50
180.0
100
AcDbRotatedDimension
  0
DIMENSION
  5
255
100
AcDbEntity
  8
0
100
AcDbDimension
 62
7
  6
CONTINUOUS
  2
*D4
 10
-158.2646382333
 20
-70.0
 11
-158.2646382333
 21
-3.2142857143
 70
160
 71
2
 72
2
 41
0.9
 42
140.0
  3
DIMSTYLE_1
100
AcDbAlignedDimension
 13
-107.344705363
 23
70.0
 14
-107.344705363
 24
-70.0
 50
270.0
100
AcDbRotatedDimension
  0
DIMENSION
  5
256
100
AcDbEntity
  8
0
100
AcDbDimension
 62
7
  6
CONTINUOUS
  2
*D5
 10
48.397344418
 20
-115.95
 11
48.397344418
 21
1.5142857143
 70
160
 71
2
 72
2
 41
0.9
 42
242.0
  3
DIMSTYLE_1
100
AcDbAlignedDimension
 13
-17.525
 23
126.05
 14
-17.525
 24
-115.95
 50
270.0
100
AcDbRotatedDimension
  0
LINE
  5
257
100
AcDbEntity
  8
0
100
AcDbLine
 62
7
  6
CONTINUOUS
 10
-20.0001422616
 20
-135.1
 11
-15.0498577384
 21
-135.1
  0
LINE
  5
258
100
AcDbEntity
  8
0
100
AcDbLine
 62
7
  6
CONTINUOUS
 10
18.0554381211
 20
-135.1
 11
10.8945618789
 21
-135.1
  0
LINE
  5
259
100
AcDbEntity
  8
0
100
AcDbLine
 62
7
  6
CONTINUOUS
 10
-45.9445618789
 20
-135.1
 11
-53.1054381211
 21
-135.1
  0
LINE
  5
25A
100
AcDbEntity
  8
0
100
AcDbLine
 62
7
  6
CONTINUOUS
 10
31.375
 20
-134.1
 11
-66.425
 21
-134.1
  0
LINE
  5
25B
100
AcDbEntity
  8
0
100
AcDbLine
 62
7
  6
CONTINUOUS
 10
31.375
 20
-133.1
 11
-66.425
 21
-133.1
  0
LINE
  5
25C
100
AcDbEntity
  8
0
100
AcDbLine
 62
7
  6
CONTINUOUS
 10
-67.475
 20
-133.05
 11
-65.475
 21
-133.05
  0
LINE
  5
25D
100
AcDbEntity
  8
0
100
AcDbLine
 62
7
  6
CONTINUOUS
 10
32.425
 20
-133.05
 11
30.425
 21
-133.05
  0
LINE
  5
25E
100
AcDbEntity
  8
0
100
AcDbLine
 62
7
  6
CONTINUOUS
 10
4.1577026153
 20
-133.05
 11
2.375
 21
-133.05
  0
LINE
  5
25F
100
AcDbEntity
  8
0
100
AcDbLine
 62
7
  6
CONTINUOUS
 10
-12.425
 20
-133.05
 11
-14.2688376124
 21
-133.05
  0
LINE
  5
260
100
AcDbEntity
  8
0
100
AcDbLine
 62
7
  6
CONTINUOUS
 10
-20.7811623876
 20
-133.05
 11
-22.625
 21
-133.05
  0
LINE
  5
261
100
AcDbEntity
  8
0
100
AcDbLine
 62
7
  6
CONTINUOUS
 10
-37.425
 20
-133.05
 11
-39.2077026153
 21
-133.05
  0
LWPOLYLINE
  5
262
100
AcDbEntity
  8
0
100
AcDbPolyline
 62
7
  6
CONTINUOUS
 90
47
 70
0
 10
-44.6569410346
 20
-128.7199885841
 10
-44.3514050347
 20
-128.8366596959
 10
-44.0387006126
 20
-128.9324737865
 10
-43.7202497362
 20
-129.0069951583
 10
-43.3975005043
 20
-129.0598849386
 10
-43.0719205618
 20
-129.0909026204
 10
-42.7449904257
 20
-129.0999071564
 10
-42.4181967528
 20
-129.0868576
 10
-42.0930255794
 20
-129.0518132918
 10
-41.7709555636
 20
-128.9949335896
 10
-41.4534512618
 20
-128.9164771437
 10
-41.1419564685
 20
-128.8168007209
 10
-40.8378876509
 20
-128.696357582
 10
-40.542627508
 20
-128.5556954208
 10
-40.257518683
 20
-128.3954538736
 10
-39.9838576576
 20
-128.2163616104
 10
-39.7228888568
 20
-128.0192330214
 10
-39.47579899
 20
-127.804964514
 10
-39.2437116545
 20
-127.5745304361
 10
-39.0276822262
 20
-127.3289786459
 10
-38.8286930607
 20
-127.0694257466
 10
-38.6476490258
 20
-126.7970520088
 10
-38.4853733873
 20
-126.513096004
 10
-38.3426040647
 20
-126.2188489716
 10
-38.2199902763
 20
-125.9156489477
 10
-38.1180895865
 20
-125.6048746808
 10
-38.0373653706
 20
-125.2879393617
 10
-37.9781847077
 20
-124.9662841974
 10
-37.9408167113
 20
-124.6413718578
 10
-37.9254313057
 20
-124.3146798242
 10
-37.9320984535
 20
-123.9876936705
 10
-37.9607878368
 20
-123.6619003083
 10
-38.0113689958
 20
-123.3387812251
 10
-38.0836119217
 20
-123.0198057477
 10
-38.1771881025
 20
-122.7064243603
 10
-38.2916720173
 20
-122.4000621094
 10
-38.4265430706
 20
-122.1021121227
 10
-38.5811879604
 20
-121.8139292752
 10
-38.7549034664
 20
-121.5368240271
 10
-38.9468996481
 20
-121.2720564653
 10
-39.156303437
 20
-121.0208305735
 10
-39.3821626066
 20
-120.7842887567
 10
-39.6234501023
 20
-120.5635066469
 10
-39.879068712
 20
-120.3594882117
 10
-40.1478560555
 20
-120.1731611885
 10
-40.4285898699
 20
-120.0053728666
 10
-40.7199935682
 20
-119.8568862335
  0
LINE
  5
263
100
AcDbEntity
  8
0
100
AcDbLine
 62
7
  6
CONTINUOUS
 10
-67.475
 20
-131.6
 11
-66.475
 21
-131.6
  0
LINE
  5
264
100
AcDbEntity
  8
0
100
AcDbLine
 62
7
  6
CONTINUOUS
 10
32.425
 20
-131.6
 11
31.425
 21
-131.6
  0
LINE
  5
265
100
AcDbEntity
  8
0
100
AcDbLine
 62
7
  6
CONTINUOUS
 10
-38.925
 20
-131.1
 11
-37.425
 21
-131.1
  0
LINE
  5
266
100
AcDbEntity
  8
0
100
AcDbLine
 62
250
  6
CONTINUOUS
 10
-37.425
 20
-131.1
 11
-22.625
 21
-131.1
  0
LINE
  5
267
100
AcDbEntity
  8
0
100
AcDbLine
 62
7
  6
CONTINUOUS
 10
-13.5054501844
 20
-131.1
 11
-12.425
 21
-131.1
  0
LINE
  5
268
100
AcDbEntity
  8
0
100
AcDbLine
 62
7
  6
CONTINUOUS
 10
3.875
 20
-131.1
 11
2.375
 21
-131.1
  0
LINE
  5
269
100
AcDbEntity
  8
0
100
AcDbLine
 62
250
  6
CONTINUOUS
 10
2.375
 20
-131.1
 11
-12.425
 21
-131.1
  0
LINE
  5
26A
100
AcDbEntity
  8
0
100
AcDbLine
 62
7
  6
CONTINUOUS
 10
-21.5445498156
 20
-131.1
 11
-22.625
 21
-131.1
  0
LINE
  5
26B
100
AcDbEntity
  8
0
100
AcDbLine
 62
7
  6
CONTINUOUS
 10
-42.2311037701
 20
-127.4
 11
-43.3321420803
 21
-127.4
  0
LINE
  5
26C
100
AcDbEntity
  8
RACCORDO
100
AcDbLine
 62
7
  6
CONTINUOUS
 10
-47.3126205218
 20
-127.35
 11
-45.7041004864
 21
-127.35
  0
LINE
  5
26D
100
AcDbEntity
  8
SMUSSO
100
AcDbLine
 62
7
  6
CONTINUOUS
 10
-44.4786725037
 20
-127.25
 11
-41.0713274963
 21
-127.25
  0
LINE
  5
26E
100
AcDbEntity
  8
RACCORDO
100
AcDbLine
 62
7
  6
CONTINUOUS
 10
-46.130219814
 20
-124.6
 11
-48.5488635245
 21
-124.6
  0
LINE
  5
26F
100
AcDbEntity
  8
RACCORDO
100
AcDbLine
 62
7
  6
CONTINUOUS
 10
-48.5488635245
 20
-123.9
 11
-46.130219814
 21
-123.9
  0
LWPOLYLINE
  5
270
100
AcDbEntity
  8
0
100
AcDbPolyline
 62
7
  6
CONTINUOUS
 90
24
 70
0
 10
-42.6244951122
 20
-119.6715280385
 10
-42.4445792008
 20
-119.6851096631
 10
-42.271769199
 20
-119.7036587451
 10
-42.1060651069
 20
-119.7271752845
 10
-41.9476961145
 20
-119.7562193066
 10
-41.7964330317
 20
-119.7902307861
 10
-41.6515882884
 20
-119.827529647
 10
-41.5130950719
 20
-119.8680000875
 10
-41.3810201948
 20
-119.9117579093
 10
-41.2548765247
 20
-119.9574704415
 10
-41.1347253145
 20
-120.0050146014
 10
-41.0205053113
 20
-120.0545134717
 10
-40.9115456234
 20
-120.1050036296
 10
-40.8078862973
 20
-120.1563649486
 10
-40.7094872867
 20
-120.2087175551
 10
-40.6155575601
 20
-120.2614584059
 10
-40.5261203089
 20
-120.3144722974
 10
-40.4411523418
 20
-120.3678744333
 10
-40.3597930537
 20
-120.421407381
 10
-40.2819293688
 20
-120.4750684177
 10
-40.2076743628
 20
-120.5288602661
 10
-40.1365066578
 20
-120.5825336616
 10
-40.0683519492
 20
-120.636104902
 10
-40.0032845416
 20
-120.6895576894
  0
LWPOLYLINE
  5
271
100
AcDbEntity
  8
0
100
AcDbPolyline
 62
7
  6
CONTINUOUS
 90
25
 70
0
 10
-38.6545224214
 20
-123.2340474063
 10
-38.6591508834
 20
-123.2327930596
 10
-38.6638113986
 20
-123.2303146503
 10
-38.6682949525
 20
-123.2273120719
 10
-38.6725399312
 20
-123.2238835767
 10
-38.6766079485
 20
-123.2199309126
 10
-38.6804748307
 20
-123.2158592169
 10
-38.6840944638
 20
-123.2117915875
 10
-38.6875129618
 20
-123.2076049264
 10
-38.6908444941
 20
-123.2033350773
 10
-38.694111854
 20
-123.1989917972
 10
-38.6972922482
 20
-123.194565329
 10
-38.7004314661
 20
-123.1900622453
 10
-38.703534623
 20
-123.1854882014
 10
-38.7065966036
 20
-123.1808375419
 10
-38.7096478513
 20
-123.1760998734
 10
-38.71269071
 20
-123.171277749
 10
-38.7157228357
 20
-123.1663686154
 10
-38.7187676399
 20
-123.1613544199
 10
-38.7218263249
 20
-123.156236537
 10
-38.7248976884
 20
-123.1510135922
 10
-38.7280015348
 20
-123.1456634091
 10
-38.7311384992
 20
-123.1401868353
 10
-38.7343079465
 20
-123.1345830233
 10
-38.7375277764
 20
-123.1288272547
  0
LWPOLYLINE
  5
272
100
AcDbEntity
  8
0
100
AcDbPolyline
 62
7
  6
CONTINUOUS
 90
6
 70
0
 10
-41.0207420436
 20
-119.7283765059
 10
-41.3294676958
 20
-119.6204280589
 10
-41.6447666498
 20
-119.533531769
 10
-41.9652051393
 20
-119.4680827816
 10
-42.2893260274
 20
-119.4243787144
 10
-42.6156554317
 20
-119.4026183038
  0
LINE
  5
273
100
AcDbEntity
  8
0
100
AcDbLine
 62
7
  6
CONTINUOUS
 10
-40.7199935682
 20
-119.8568862335
 11
-41.0207420436
 21
-119.7283765059
  0
LWPOLYLINE
  5
274
100
AcDbEntity
  8
0
100
AcDbPolyline
 62
7
  6
CONTINUOUS
 90
10
 70
0
 43
0.3500000006
 10
-21.4892864456
 20
147.9500901489
 10
-20.6321439743
 20
148.8072280884
 10
-20.4178572235
 20
149.6643841553
 10
-20.4178572235
 20
150.5215220947
 10
-20.8464284592
 20
150.9500910645
 10
-21.4892864456
 20
150.9500910645
 10
-21.9178576813
 20
150.5215220947
 10
-21.9178576813
 20
149.6643841553
 10
-21.4892864456
 20
149.2357970581
 10
-20.5607150574
 20
149.2357970581
  0
LWPOLYLINE
  5
275
100
AcDbEntity
  8
0
100
AcDbPolyline
 62
7
  6
CONTINUOUS
 90
10
 70
0
 43
0.3500000006
 10
-19.1321435165
 20
147.9500901489
 10
-18.2749999123
 20
148.8072280884
 10
-18.0607142944
 20
149.6643841553
 10
-18.0607142944
 20
150.5215220947
 10
-18.4892855301
 20
150.9500910645
 10
-19.1321435165
 20
150.9500910645
 10
-19.5607147522
 20
150.5215220947
 10
-19.5607147522
 20
149.6643841553
 10
-19.1321435165
 20
149.2357970581
 10
-18.2035709953
 20
149.2357970581
  0
LWPOLYLINE
  5
276
100
AcDbEntity
  8
0
100
AcDbPolyline
 62
7
  6
CONTINUOUS
 90
10
 70
0
 43
0.3500000006
 10
-15.0607145119
 20
147.9500901489
 10
-14.2035709076
 20
148.8072280884
 10
-13.9892852898
 20
149.6643841553
 10
-13.9892852898
 20
150.5215220947
 10
-14.4178576584
 20
150.9500910645
 10
-15.0607145119
 20
150.9500910645
 10
-15.4892857475
 20
150.5215220947
 10
-15.4892857475
 20
149.6643841553
 10
-15.0607145119
 20
149.2357970581
 10
-14.1321431236
 20
149.2357970581
  0
LINE
  5
277
100
AcDbEntity
  8
SMUSSO
100
AcDbLine
 62
7
  6
CONTINUOUS
 10
-41.0713274963
 20
-121.25
 11
-44.4786725037
 21
-121.25
  0
LINE
  5
278
100
AcDbEntity
  8
RACCORDO
100
AcDbLine
 62
7
  6
CONTINUOUS
 10
-45.7041004864
 20
-121.15
 11
-47.3126205218
 21
-121.15
  0
LINE
  5
279
100
AcDbEntity
  8
0
100
AcDbLine
 62
7
  6
CONTINUOUS
 10
-43.3323261847
 20
-121.1
 11
-42.231177491
 21
-121.1
  0
LINE
  5
27A
100
AcDbEntity
  8
0
100
AcDbLine
 62
7
  6
CONTINUOUS
 10
-19.525
 20
-119.95
 11
-15.525
 21
-119.95
  0
LINE
  5
27B
100
AcDbEntity
  8
0
100
AcDbLine
 62
7
  6
CONTINUOUS
 10
-1.3965728753
 20
-119.4
 11
30.425
 21
-119.4
  0
LINE
  5
27C
100
AcDbEntity
  8
0
100
AcDbLine
 62
7
  6
CONTINUOUS
 10
-33.6534271247
 20
-119.4
 11
-65.475
 21
-119.4
  0
LINE
  5
27D
100
AcDbEntity
  8
0
100
AcDbLine
 62
250
  6
CONTINUOUS
 10
-19.525
 20
-118.75
 11
-15.525
 21
-118.75
  0
LINE
  5
27E
100
AcDbEntity
  8
0
100
AcDbLine
 62
7
  6
CONTINUOUS
 10
-14.775
 20
-118.7
 11
-15.525
 21
-118.7
  0
LINE
  5
27F
100
AcDbEntity
  8
0
100
AcDbLine
 62
7
  6
CONTINUOUS
 10
-19.525
 20
-118.7
 11
-20.275
 21
-118.7
  0
LINE
  5
280
100
AcDbEntity
  8
0
100
AcDbLine
 62
7
  6
CONTINUOUS
 10
-19.525
 20
-118.15
 11
-15.525
 21
-118.15
  0
LINE
  5
281
100
AcDbEntity
  8
0
100
AcDbLine
 62
7
  6
CONTINUOUS
 10
-67.475
 20
-114.1
 11
-66.475
 21
-114.1
  0
LINE
  5
282
100
AcDbEntity
  8
0
100
AcDbLine
 62
7
  6
CONTINUOUS
 10
32.425
 20
-114.1
 11
31.425
 21
-114.1
  0
LINE
  5
283
100
AcDbEntity
  8
0
100
AcDbLine
 62
7
  6
CONTINUOUS
 10
-19.525
 20
-113.75
 11
-15.525
 21
-113.75
  0
LINE
  5
284
100
AcDbEntity
  8
0
100
AcDbLine
 62
250
  6
CONTINUOUS
 10
-65.475
 20
-113.6
 11
-63.975
 21
-113.6
  0
LINE
  5
285
100
AcDbEntity
  8
0
100
AcDbLine
 62
250
  6
CONTINUOUS
 10
30.425
 20
-113.6
 11
28.925
 21
-113.6
  0
LINE
  5
286
100
AcDbEntity
  8
0
100
AcDbLine
 62
7
  6
CONTINUOUS
 10
-20.275
 20
-113.2
 11
-19.525
 21
-113.2
  0
LINE
  5
287
100
AcDbEntity
  8
0
100
AcDbLine
 62
7
  6
CONTINUOUS
 10
-15.525
 20
-113.2
 11
-14.775
 21
-113.2
  0
LINE
  5
288
100
AcDbEntity
  8
0
100
AcDbLine
 62
250
  6
CONTINUOUS
 10
-19.525
 20
-113.15
 11
-15.525
 21
-113.15
  0
LINE
  5
289
100
AcDbEntity
  8
0
100
AcDbLine
 62
7
  6
CONTINUOUS
 10
-65.475
 20
-113.1
 11
-63.975
 21
-113.1
  0
LINE
  5
28A
100
AcDbEntity
  8
0
100
AcDbLine
 62
7
  6
CONTINUOUS
 10
30.425
 20
-113.1
 11
28.925
 21
-113.1
  0
LINE
  5
28B
100
AcDbEntity
  8
0
100
AcDbLine
 62
7
  6
CONTINUOUS
 10
31.425
 20
-112.1
 11
32.425
 21
-112.1
  0
LINE
  5
28C
100
AcDbEntity
  8
0
100
AcDbLine
 62
7
  6
CONTINUOUS
 10
-66.475
 20
-112.1
 11
-67.475
 21
-112.1
  0
LWPOLYLINE
  5
28D
100
AcDbEntity
  8
0
100
AcDbPolyline
 62
7
  6
CONTINUOUS
 90
3
 70
0
 10
-40.0032845416
 20
-120.6895576894
 10
-39.9410059707
 20
-120.7425938655
 10
-39.8815244944
 20
-120.7951785578
  0
LWPOLYLINE
  5
28E
100
AcDbEntity
  8
0
100
AcDbPolyline
 62
7
  6
CONTINUOUS
 90
6
 70
0
 10
-39.8815244944
 20
-120.7951785578
 10
-39.8248318549
 20
-120.8473466388
 10
-39.7706048137
 20
-120.8989045675
 10
-39.7188415851
 20
-120.94982466
 10
-39.6695439549
 20
-121.0001346002
 10
-39.6223940425
 20
-121.0497238992
  0
LINE
  5
28F
100
AcDbEntity
  8
0
100
AcDbLine
 62
7
  6
CONTINUOUS
 10
-31.9392135624
 20
116.7857864376
 11
-30.1107864376
 21
118.6142135624
  0
LWPOLYLINE
  5
290
100
AcDbEntity
  8
0
100
AcDbPolyline
 62
7
  6
CONTINUOUS
 90
36
 70
0
 10
9.3580435315
 20
116.1831992791
 10
9.6621123491
 20
116.303642418
 10
9.957372492
 20
116.4443045792
 10
10.242481317
 20
116.6045461264
 10
10.5161423424
 20
116.7836383896
 10
10.7771111432
 20
116.9807669786
 10
11.02420101
 20
117.195035486
 10
11.2562883455
 20
117.4254695639
 10
11.4723177738
 20
117.6710213541
 10
11.6713069393
 20
117.9305742534
 10
11.8523509742
 20
118.2029479912
 10
12.0146266127
 20
118.486903996
 10
12.1573959353
 20
118.7811510284
 10
12.2800097237
 20
119.0843510523
 10
12.3819104135
 20
119.3951253192
 10
12.4626346294
 20
119.7120606383
 10
12.5218152923
 20
120.0337158026
 10
12.5591832887
 20
120.3586281422
 10
12.5745686943
 20
120.6853201758
 10
12.5679015465
 20
121.0123063295
 10
12.5392121632
 20
121.3380996917
 10
12.4886310042
 20
121.6612187749
 10
12.4163880783
 20
121.9801942523
 10
12.3228118975
 20
122.2935756397
 10
12.2083279827
 20
122.5999378906
 10
12.0734569294
 20
122.8978878773
 10
11.9188120396
 20
123.1860707248
 10
11.7450965336
 20
123.4631759729
 10
11.5531003519
 20
123.7279435347
 10
11.343696563
 20
123.9791694265
 10
11.1178373934
 20
124.2157112433
 10
10.8765498977
 20
124.4364933531
 10
10.620931288
 20
124.6405117883
 10
10.3521439445
 20
124.8268388115
 10
10.0714101301
 20
124.9946271334
 10
9.7800064318
 20
125.1431137665
  0
LINE
  5
291
100
AcDbEntity
  8
0
100
AcDbLine
 62
7
  6
CONTINUOUS
 10
-19.525
 20
-111.95
 11
-15.525
 21
-111.95
  0
LINE
  5
292
100
AcDbEntity
  8
0
100
AcDbLine
 62
7
  6
CONTINUOUS
 10
-11.3534271247
 20
-111.1
 11
-23.6965728753
 21
-111.1
  0
LINE
  5
293
100
AcDbEntity
  8
0
100
AcDbLine
 62
250
  6
CONTINUOUS
 10
31.425
 20
-111.1
 11
32.425
 21
-111.1
  0
LINE
  5
294
100
AcDbEntity
  8
0
100
AcDbLine
 62
250
  6
CONTINUOUS
 10
-66.475
 20
-111.1
 11
-67.475
 21
-111.1
  0
LINE
  5
295
100
AcDbEntity
  8
0
100
AcDbLine
 62
250
  6
CONTINUOUS
 10
31.425
 20
-103.1
 11
32.425
 21
-103.1
  0
LINE
  5
296
100
AcDbEntity
  8
0
100
AcDbLine
 62
250
  6
CONTINUOUS
 10
-66.475
 20
-103.1
 11
-67.475
 21
-103.1
  0
LINE
  5
297
100
AcDbEntity
  8
0
100
AcDbLine
 62
7
  6
CONTINUOUS
 10
31.425
 20
-102.1
 11
32.425
 21
-102.1
  0
LINE
  5
298
100
AcDbEntity
  8
0
100
AcDbLine
 62
7
  6
CONTINUOUS
 10
-66.475
 20
-102.1
 11
-67.475
 21
-102.1
  0
LWPOLYLINE
  5
299
100
AcDbEntity
  8
0
100
AcDbPolyline
 62
7
  6
CONTINUOUS
 90
112
 70
0
 10
-39.6223940425
 20
-121.0497238992
 10
-39.5773863324
 20
-121.0985693214
 10
-39.5345263401
 20
-121.1466941024
 10
-39.4935127313
 20
-121.194057461
 10
-39.4543377381
 20
-121.2406404157
 10
-39.4170091283
 20
-121.2864619479
 10
-39.3812488716
 20
-121.3315382207
 10
-39.3470482479
 20
-121.3758537268
 10
-39.3144159774
 20
-121.4194239735
 10
-39.2831001896
 20
-121.4623116453
 10
-39.2530914693
 20
-121.5045047475
 10
-39.2243992317
 20
-121.5460152747
 10
-39.1967998523
 20
-121.5869418962
 10
-39.1702659679
 20
-121.6273066719
 10
-39.1448249417
 20
-121.6670875418
 10
-39.1203352384
 20
-121.7063169946
 10
-39.0967745873
 20
-121.7450222591
 10
-39.074165259
 20
-121.7831761064
 10
-39.0524325306
 20
-121.820729339
 10
-39.0315764524
 20
-121.8576776239
 10
-39.011596974
 20
-121.8940252941
 10
-38.9924192219
 20
-121.9297361501
 10
-38.9740424335
 20
-121.9648069006
 10
-38.9564673714
 20
-121.9992408369
 10
-38.9396214493
 20
-122.0330116335
 10
-38.9235036934
 20
-122.0661162268
 10
-38.9081150776
 20
-122.0985576804
 10
-38.8933859369
 20
-122.1303188596
 10
-38.8793165989
 20
-122.1613932444
 10
-38.865906736
 20
-122.1917873548
 10
-38.8530857004
 20
-122.2215036167
 10
-38.8408531676
 20
-122.2505358336
 10
-38.829209462
 20
-122.278890202
 10
-38.8180849093
 20
-122.3065877368
 10
-38.8074767638
 20
-122.3336281734
 10
-38.7973877712
 20
-122.3600117765
 10
-38.7877564938
 20
-122.3857603552
 10
-38.7785811484
 20
-122.4108718857
 10
-38.7698635183
 20
-122.4353483917
 10
-38.7615475161
 20
-122.4592177547
 10
-38.7536316734
 20
-122.4824773214
 10
-38.7461174586
 20
-122.5051297449
 10
-38.7389531897
 20
-122.5272108667
 10
-38.7321370839
 20
-122.5487193027
 10
-38.725670924
 20
-122.5696564369
 10
-38.7195083757
 20
-122.5900622622
 10
-38.7136460535
 20
-122.6099422154
 10
-38.708087343
 20
-122.6292908596
 10
-38.7027960663
 20
-122.6481318767
 10
-38.6977712198
 20
-122.6664639325
 10
-38.6930138072
 20
-122.6842883612
 10
-38.6884906615
 20
-122.7016328465
 10
-38.6842008118
 20
-122.7184961015
 10
-38.680145229
 20
-122.7348794132
 10
-38.6762936592
 20
-122.750814326
 10
-38.6726450966
 20
-122.7662999084
 10
-38.6692005471
 20
-122.7813370919
 10
-38.6659327741
 20
-122.7959602159
 10
-38.6628407777
 20
-122.810168614
 10
-38.6599255579
 20
-122.8239629524
 10
-38.6571628781
 20
-122.8373795695
 10
-38.654551765
 20
-122.8504179951
 10
-38.6520931919
 20
-122.8630786992
 10
-38.6497658429
 20
-122.8753994301
 10
-38.6475687777
 20
-122.8873798561
 10
-38.6455029366
 20
-122.8990203089
 10
-38.6435498238
 20
-122.9103595313
 10
-38.6417085269
 20
-122.9213972861
 10
-38.6399799584
 20
-122.9321338104
 10
-38.6383483599
 20
-122.942608559
 10
-38.6368128287
 20
-122.9528213577
 10
-38.6353742676
 20
-122.9627723807
 10
-38.6340196261
 20
-122.9725016052
 10
-38.6327479788
 20
-122.982008903
 10
-38.6315602511
 20
-122.9912944024
 10
-38.6304461685
 20
-123.0003984647
 10
-38.6294047381
 20
-123.0093209
 10
-38.6284369527
 20
-123.0180618982
 10
-38.6275355161
 20
-123.0266623913
 10
-38.6266995496
 20
-123.0351175333
 10
-38.625929932
 20
-123.0434321702
 10
-38.6252220032
 20
-123.0516617718
 10
-38.6245736913
 20
-123.0598089178
 10
-38.6239870683
 20
-123.0678710284
 10
-38.6234636902
 20
-123.0758958347
 10
-38.623000723
 20
-123.0839171481
 10
-38.6226010007
 20
-123.0919011572
 10
-38.6222745806
 20
-123.0997941587
 10
-38.6220221533
 20
-123.1075944442
 10
-38.6218430281
 20
-123.1153037222
 10
-38.6217451904
 20
-123.1228734147
 10
-38.621728814
 20
-123.1302963337
 10
-38.621793725
 20
-123.1375796673
 10
-38.6219473867
 20
-123.1446964014
 10
-38.622188099
 20
-123.1516390002
 10
-38.6225175621
 20
-123.1584149996
 10
-38.6229483399
 20
-123.1650199931
 10
-38.6234750827
 20
-123.1714501146
 10
-38.6241031403
 20
-123.1777092302
 10
-38.6248611257
 20
-123.1838045315
 10
-38.6257360149
 20
-123.1897431878
 10
-38.6267408319
 20
-123.1955180298
 10
-38.6279432626
 20
-123.2011147412
 10
-38.629306785
 20
-123.206571493
 10
-38.6308679211
 20
-123.2118501142
 10
-38.6328039225
 20
-123.216821776
 10
-38.6351043984
 20
-123.2216620739
 10
-38.6377797397
 20
-123.2261954124
 10
-38.6410383702
 20
-123.2297661764
 10
-38.6451335099
 20
-123.2322429903
 10
-38.649811939
 20
-123.2337572296
 10
-38.6545224214
 20
-123.2340474063
  0
LINE
  5
29A
100
AcDbEntity
  8
0
100
AcDbLine
 62
7
  6
CONTINUOUS
 10
-65.475
 20
-92.7
 11
-65.425
 21
-92.7
  0
LINE
  5
29B
100
AcDbEntity
  8
0
100
AcDbLine
 62
7
  6
CONTINUOUS
 10
30.425
 20
-92.7
 11
30.375
 21
-92.7
  0
LWPOLYLINE
  5
29C
100
AcDbEntity
  8
0
100
AcDbPolyline
 62
7
  6
CONTINUOUS
 90
65
 70
0
 10
-39.0756778904
 20
-122.4912444008
 10
-39.0889958821
 20
-122.4687394131
 10
-39.1027513305
 20
-122.4457506378
 10
-39.1169462633
 20
-122.4222787267
 10
-39.1316376962
 20
-122.3983004614
 10
-39.1468239524
 20
-122.3738140464
 10
-39.1625067088
 20
-122.3488212772
 10
-39.1787480111
 20
-122.3233043215
 10
-39.1955460907
 20
-122.2972610366
 10
-39.2129027163
 20
-122.2706935652
 10
-39.2308852398
 20
-122.2435905029
 10
-39.24949183
 20
-122.2159493247
 10
-39.2687243182
 20
-122.1877725555
 10
-39.2886555495
 20
-122.1590563657
 10
-39.3092836729
 20
-122.1297978077
 10
-39.3306105395
 20
-122.0999998291
 10
-39.3527145481
 20
-122.0696674419
 10
-39.3755942186
 20
-122.038796826
 10
-39.3992510311
 20
-122.0073918016
 10
-39.4237678241
 20
-121.9754688414
 10
-39.4491355147
 20
-121.9430325848
 10
-39.4753631859
 20
-121.9100783926
 10
-39.5025609251
 20
-121.8766088197
 10
-39.5307000515
 20
-121.8426465051
 10
-39.5598092459
 20
-121.8081688099
 10
-39.5900846387
 20
-121.7731103724
 10
-39.6215178747
 20
-121.7374631014
 10
-39.6541173092
 20
-121.701235088
 10
-39.688104138
 20
-121.6643852442
 10
-39.7234718764
 20
-121.6269006098
 10
-39.7602270091
 20
-121.5887941451
 10
-39.7986101858
 20
-121.5500636425
 10
-39.8386153379
 20
-121.5106932681
 10
-39.8802485341
 20
-121.4706988558
 10
-39.9237686297
 20
-121.4301257
 10
-39.9691709442
 20
-121.3889544345
 10
-40.0164601581
 20
-121.3472044255
 10
-40.0659091682
 20
-121.3049790649
 10
-40.1175157247
 20
-121.2622552011
 10
-40.1712820773
 20
-121.2190559856
 10
-40.2274878725
 20
-121.1755542651
 10
-40.2861351593
 20
-121.131722802
 10
-40.3472218885
 20
-121.0875888339
 10
-40.4110215595
 20
-121.0434069191
 10
-40.4775351965
 20
-120.999149991
 10
-40.5467617753
 20
-120.9548451162
 10
-40.6189717224
 20
-120.9108280533
 10
-40.6940285942
 20
-120.8671283786
 10
-40.7720688344
 20
-120.8237165157
 10
-40.8537722007
 20
-120.7808394944
 10
-40.9391036423
 20
-120.7384275441
 10
-41.0280982101
 20
-120.6965504355
 10
-41.1215408149
 20
-120.6556645101
 10
-41.21946524
 20
-120.6156546584
 10
-41.3218377021
 20
-120.5766359901
 10
-41.4293417625
 20
-120.5394101752
 10
-41.5420439782
 20
-120.5038527147
 10
-41.6598777922
 20
-120.4700881077
 10
-41.7833270943
 20
-120.4392915225
 10
-41.9124300227
 20
-120.4113409805
 10
-42.047148439
 20
-120.3863584603
 10
-42.1878518186
 20
-120.3658850659
 10
-42.3346633197
 20
-120.3504344986
 10
-42.4874597839
 20
-120.3394930571
 10
-42.6462412113
 20
-120.3330607414
  0
LWPOLYLINE
  5
29D
100
AcDbEntity
  8
0
100
AcDbPolyline
 62
7
  6
CONTINUOUS
 90
3
 70
0
 10
-39.0382036659
 20
-122.5559403108
 10
-39.0503094266
 20
-122.5348301431
 10
-39.0756778904
 20
-122.4912444008
  0
LINE
  5
29E
100
AcDbEntity
  8
0
100
AcDbLine
 62
7
  6
CONTINUOUS
 10
-39.0151199304
 20
-122.5967992186
 11
-39.0382036659
 21
-122.5559403108
  0
LINE
  5
29F
100
AcDbEntity
  8
0
100
AcDbLine
 62
7
  6
CONTINUOUS
 10
-38.9934353386
 20
-122.6358771802
 11
-39.0151199304
 21
-122.5967992186
  0
LINE
  5
2A0
100
AcDbEntity
  8
0
100
AcDbLine
 62
7
  6
CONTINUOUS
 10
-38.7375277764
 20
-123.1288272547
 11
-38.7441192387
 21
-123.1168609368
  0
LINE
  5
2A1
100
AcDbEntity
  8
0
100
AcDbLine
 62
7
  6
CONTINUOUS
 10
-38.9730551566
 20
-122.6732048777
 11
-38.9934353386
 21
-122.6358771802
  0
LINE
  5
2A2
100
AcDbEntity
  8
0
100
AcDbLine
 62
7
  6
CONTINUOUS
 10
-38.7441192387
 20
-123.1168609368
 11
-38.750963152
 21
-123.1042080178
  0
LINE
  5
2A3
100
AcDbEntity
  8
0
100
AcDbLine
 62
7
  6
CONTINUOUS
 10
-38.9539170715
 20
-122.7088063859
 11
-38.9730551566
 21
-122.6732048777
  0
LWPOLYLINE
  5
2A4
100
AcDbEntity
  8
0
100
AcDbPolyline
 62
7
  6
CONTINUOUS
 90
3
 70
0
 10
-38.750963152
 20
-123.1042080178
 10
-38.7580928454
 20
-123.0908149482
 10
-38.7617833789
 20
-123.0838101123
  0
LWPOLYLINE
  5
2A5
100
AcDbEntity
  8
0
100
AcDbPolyline
 62
7
  6
CONTINUOUS
 90
3
 70
0
 10
-38.9273428916
 20
-122.7590611498
 10
-38.9359307751
 20
-122.7427208937
 10
-38.9539170715
 20
-122.7088063859
  0
LINE
  5
2A6
100
AcDbEntity
  8
0
100
AcDbLine
 62
7
  6
CONTINUOUS
 10
-65.475
 20
-90.9
 11
-65.425
 21
-90.9
  0
LINE
  5
2A7
100
AcDbEntity
  8
0
100
AcDbLine
 62
7
  6
CONTINUOUS
 10
30.425
 20
-90.9
 11
30.375
 21
-90.9
  0
LINE
  5
2A8
100
AcDbEntity
  8
0
100
AcDbLine
 62
7
  6
CONTINUOUS
 10
-2.8107864376
 20
-118.8142135624
 11
-9.9392135624
 21
-111.6857864376
  0
LINE
  5
2A9
100
AcDbEntity
  8
0
100
AcDbLine
 62
7
  6
CONTINUOUS
 10
-38.7617833789
 20
-123.0838101123
 11
-38.7694316347
 21
-123.0691568491
  0
LINE
  5
2AA
100
AcDbEntity
  8
0
100
AcDbLine
 62
7
  6
CONTINUOUS
 10
-38.9031184263
 20
-122.8056593678
 11
-38.9273428916
 21
-122.7590611498
  0
LINE
  5
2AB
100
AcDbEntity
  8
0
100
AcDbLine
 62
7
  6
CONTINUOUS
 10
-38.7694316347
 20
-123.0691568491
 11
-38.7816683124
 21
-123.0454055418
  0
LINE
  5
2AC
100
AcDbEntity
  8
0
100
AcDbLine
 62
7
  6
CONTINUOUS
 10
-38.8810189399
 20
-122.8487524751
 11
-38.9031184263
 21
-122.8056593678
  0
LINE
  5
2AD
100
AcDbEntity
  8
0
100
AcDbLine
 62
7
  6
CONTINUOUS
 10
-38.7816683124
 20
-123.0454055418
 11
-38.7996231948
 21
-123.0100833164
  0
LINE
  5
2AE
100
AcDbEntity
  8
0
100
AcDbLine
 62
7
  6
CONTINUOUS
 10
-38.8482653762
 20
-122.9134209177
 11
-38.8810189399
 21
-122.8487524751
  0
LWPOLYLINE
  5
2AF
100
AcDbEntity
  8
0
100
AcDbPolyline
 62
7
  6
CONTINUOUS
 90
4
 70
0
 10
-38.7996231948
 20
-123.0100833164
 10
-38.8251185321
 20
-122.9594486237
 10
-38.8306676656
 20
-122.9484061016
 10
-38.8482653762
 20
-122.9134209177
  0
LINE
  5
2B0
100
AcDbEntity
  8
0
100
AcDbLine
 62
7
  6
CONTINUOUS
 10
-53.7570508076
 20
-134.1
 11
-53.5884010343
 21
-134.7294095226
  0
LINE
  5
2B1
100
AcDbEntity
  8
0
100
AcDbLine
 62
7
  6
CONTINUOUS
 10
-67.475
 20
-102.1
 11
-67.475
 21
-133.05
  0
LINE
  5
2B2
100
AcDbEntity
  8
0
100
AcDbLine
 62
7
  6
CONTINUOUS
 10
-67.475
 20
102.1
 11
-67.475
 21
133.05
  0
LINE
  5
2B3
100
AcDbEntity
  8
0
100
AcDbLine
 62
7
  6
CONTINUOUS
 10
-66.475
 20
-133.05
 11
-66.475
 21
133.05
  0
LINE
  5
2B4
100
AcDbEntity
  8
0
100
AcDbLine
 62
7
  6
CONTINUOUS
 10
-66.425
 20
-133.1
 11
-66.425
 21
-134.1
  0
LINE
  5
2B5
100
AcDbEntity
  8
0
100
AcDbLine
 62
7
  6
CONTINUOUS
 10
-66.425
 20
133.1
 11
-66.425
 21
134.1
  0
LINE
  5
2B6
100
AcDbEntity
  8
0
100
AcDbLine
 62
7
  6
CONTINUOUS
 10
-65.475
 20
-133.1
 11
-65.475
 21
133.1
  0
LINE
  5
2B7
100
AcDbEntity
  8
0
100
AcDbLine
 62
250
  6
CONTINUOUS
 10
-65.425
 20
92.7
 11
-65.425
 21
90.9
  0
LINE
  5
2B8
100
AcDbEntity
  8
0
100
AcDbLine
 62
250
  6
CONTINUOUS
 10
-65.425
 20
62.1
 11
-65.425
 21
60.3
  0
LINE
  5
2B9
100
AcDbEntity
  8
0
100
AcDbLine
 62
7
  6
CONTINUOUS
 10
-65.425
 20
-113.1
 11
-65.425
 21
-92.7
  0
LINE
  5
2BA
100
AcDbEntity
  8
0
100
AcDbLine
 62
250
  6
CONTINUOUS
 10
-65.425
 20
31.5
 11
-65.425
 21
29.7
  0
LINE
  5
2BB
100
AcDbEntity
  8
0
100
AcDbLine
 62
7
  6
CONTINUOUS
 10
-65.425
 20
-90.9
 11
-65.425
 21
-62.1
  0
LINE
  5
2BC
100
AcDbEntity
  8
0
100
AcDbLine
 62
250
  6
CONTINUOUS
 10
-65.425
 20
0.9
 11
-65.425
 21
-0.9
  0
LINE
  5
2BD
100
AcDbEntity
  8
0
100
AcDbLine
 62
7
  6
CONTINUOUS
 10
-65.425
 20
-60.3
 11
-65.425
 21
-31.5
  0
LINE
  5
2BE
100
AcDbEntity
  8
0
100
AcDbLine
 62
250
  6
CONTINUOUS
 10
-65.425
 20
-29.7
 11
-65.425
 21
-31.5
  0
LINE
  5
2BF
100
AcDbEntity
  8
0
100
AcDbLine
 62
7
  6
CONTINUOUS
 10
-65.425
 20
-29.7
 11
-65.425
 21
-0.9
  0
LINE
  5
2C0
100
AcDbEntity
  8
0
100
AcDbLine
 62
250
  6
CONTINUOUS
 10
-65.425
 20
-60.3
 11
-65.425
 21
-62.1
  0
LINE
  5
2C1
100
AcDbEntity
  8
0
100
AcDbLine
 62
7
  6
CONTINUOUS
 10
-65.425
 20
0.9
 11
-65.425
 21
29.7
  0
LINE
  5
2C2
100
AcDbEntity
  8
0
100
AcDbLine
 62
250
  6
CONTINUOUS
 10
-65.425
 20
-90.9
 11
-65.425
 21
-92.7
  0
LINE
  5
2C3
100
AcDbEntity
  8
0
100
AcDbLine
 62
7
  6
CONTINUOUS
 10
-65.425
 20
31.5
 11
-65.425
 21
60.3
  0
LINE
  5
2C4
100
AcDbEntity
  8
0
100
AcDbLine
 62
7
  6
CONTINUOUS
 10
-65.425
 20
62.1
 11
-65.425
 21
90.9
  0
LINE
  5
2C5
100
AcDbEntity
  8
0
100
AcDbLine
 62
7
  6
CONTINUOUS
 10
-65.425
 20
92.7
 11
-65.425
 21
113.1
  0
LINE
  5
2C6
100
AcDbEntity
  8
0
100
AcDbLine
 62
7
  6
CONTINUOUS
 10
-63.975
 20
-113.1
 11
-63.975
 21
-119.4
  0
LINE
  5
2C7
100
AcDbEntity
  8
0
100
AcDbLine
 62
7
  6
CONTINUOUS
 10
-63.975
 20
113.1
 11
-63.975
 21
116.2
  0
LINE
  5
2C8
100
AcDbEntity
  8
0
100
AcDbLine
 62
250
  6
CONTINUOUS
 10
-63.475
 20
133.1
 11
-63.475
 21
116.2
  0
LINE
  5
2C9
100
AcDbEntity
  8
0
100
AcDbLine
 62
250
  6
CONTINUOUS
 10
-63.475
 20
-133.1
 11
-63.475
 21
-119.4
  0
LINE
  5
2CA
100
AcDbEntity
  8
0
100
AcDbLine
 62
7
  6
CONTINUOUS
 10
-46.7452000995
 20
134.6868240888
 11
-46.8486730193
 21
134.1
  0
LWPOLYLINE
  5
2CB
100
AcDbEntity
  8
0
100
AcDbPolyline
 62
7
  6
CONTINUOUS
 90
3
 70
0
 43
0.3500000006
 10
-16.4892860527
 20
148.2358148804
 10
-16.5607138367
 20
148.0215122681
 10
-16.7035716705
 20
147.7358056641
  0
LINE
  5
2CC
100
AcDbEntity
  8
0
100
AcDbLine
 62
7
  6
CONTINUOUS
 10
-65.475
 20
-62.1
 11
-65.425
 21
-62.1
  0
LINE
  5
2CD
100
AcDbEntity
  8
0
100
AcDbLine
 62
7
  6
CONTINUOUS
 10
30.425
 20
-62.1
 11
30.375
 21
-62.1
  0
LINE
  5
2CE
100
AcDbEntity
  8
ASSI
100
AcDbLine
 62
7
  6
CONTINUOUS
 10
-30.6571252104
 20
47.725
 11
-27.6549038106
 21
52.925
  0
LINE
  5
2CF
100
AcDbEntity
  8
0
100
AcDbLine
 62
7
  6
CONTINUOUS
 10
-65.475
 20
-60.3
 11
-65.425
 21
-60.3
  0
LINE
  5
2D0
100
AcDbEntity
  8
0
100
AcDbLine
 62
7
  6
CONTINUOUS
 10
30.425
 20
-60.3
 11
30.375
 21
-60.3
  0
LINE
  5
2D1
100
AcDbEntity
  8
0
100
AcDbLine
 62
7
  6
CONTINUOUS
 10
-45.925
 20
-124.804238927
 11
-45.925
 21
-123.6957626042
  0
LINE
  5
2D2
100
AcDbEntity
  8
SMUSSO
100
AcDbLine
 62
7
  6
CONTINUOUS
 10
-45.775
 20
-122.5463274963
 11
-45.775
 21
-125.9536725037
  0
LINE
  5
2D3
100
AcDbEntity
  8
0
100
AcDbLine
 62
7
  6
CONTINUOUS
 10
-21.3925461381
 20
134.6868240888
 11
-21.4960190579
 21
134.1
  0
LINE
  5
2D4
100
AcDbEntity
  8
0
100
AcDbLine
 62
7
  6
CONTINUOUS
 10
-21.6723460386
 20
133.1
 11
-21.9521459391
 21
131.5131759112
  0
LINE
  5
2D5
100
AcDbEntity
  8
ASSI
100
AcDbLine
 62
7
  6
CONTINUOUS
 10
-27.525
 20
52.55
 11
-30.3973175892
 21
47.575
  0
LINE
  5
2D6
100
AcDbEntity
  8
0
100
AcDbLine
 62
7
  6
CONTINUOUS
 10
-21.0521459391
 20
-131.5131759112
 11
-20.7723460386
 21
-133.1
  0
LINE
  5
2D7
100
AcDbEntity
  8
0
100
AcDbLine
 62
7
  6
CONTINUOUS
 10
-20.5960190579
 20
-134.1
 11
-20.4925461381
 21
-134.6868240888
  0
LINE
  5
2D8
100
AcDbEntity
  8
SMUSSO
100
AcDbLine
 62
7
  6
CONTINUOUS
 10
-39.775
 20
-125.9536725037
 11
-39.775
 21
-122.5463274963
  0
LINE
  5
2D9
100
AcDbEntity
  8
0
100
AcDbLine
 62
7
  6
CONTINUOUS
 10
-39.625
 20
-123.7048861444
 11
-39.625
 21
-124.7951870199
  0
LINE
  5
2DA
100
AcDbEntity
  8
0
100
AcDbLine
 62
7
  6
CONTINUOUS
 10
-38.925
 20
-131.1
 11
-38.925
 21
-132.6
  0
LINE
  5
2DB
100
AcDbEntity
  8
0
100
AcDbLine
 62
7
  6
CONTINUOUS
 10
-37.425
 20
-133.1
 11
-37.425
 21
-131.1
  0
LINE
  5
2DC
100
AcDbEntity
  8
0
100
AcDbLine
 62
7
  6
CONTINUOUS
 10
-36.525
 20
133.1
 11
-36.525
 21
131.1
  0
LINE
  5
2DD
100
AcDbEntity
  8
0
100
AcDbLine
 62
7
  6
CONTINUOUS
 10
-42.6156554317
 20
-119.4026183038
 11
-42.6462412113
 21
-120.3330607414
  0
LINE
  5
2DE
100
AcDbEntity
  8
0
100
AcDbLine
 62
7
  6
CONTINUOUS
 10
-65.475
 20
-31.5
 11
-65.425
 21
-31.5
  0
LINE
  5
2DF
100
AcDbEntity
  8
0
100
AcDbLine
 62
7
  6
CONTINUOUS
 10
30.425
 20
-31.5
 11
30.375
 21
-31.5
  0
LINE
  5
2E0
100
AcDbEntity
  8
0
100
AcDbLine
 62
7
  6
CONTINUOUS
 10
-65.475
 20
-29.7
 11
-65.425
 21
-29.7
  0
LINE
  5
2E1
100
AcDbEntity
  8
0
100
AcDbLine
 62
7
  6
CONTINUOUS
 10
30.425
 20
-29.7
 11
30.375
 21
-29.7
  0
LINE
  5
2E2
100
AcDbEntity
  8
ASSI
100
AcDbLine
 62
7
  6
CONTINUOUS
 10
-27.675
 20
35.15
 11
-27.675
 21
47.85
  0
LINE
  5
2E3
100
AcDbEntity
  8
ASSI
100
AcDbLine
 62
7
  6
CONTINUOUS
 10
-27.375
 20
47.85
 11
-27.375
 21
35.15
  0
LINE
  5
2E4
100
AcDbEntity
  8
0
100
AcDbLine
 62
7
  6
CONTINUOUS
 10
-23.525
 20
133.1
 11
-23.525
 21
131.1
  0
LINE
  5
2E5
100
AcDbEntity
  8
0
100
AcDbLine
 62
7
  6
CONTINUOUS
 10
-22.625
 20
-133.1
 11
-22.625
 21
-131.1
  0
LINE
  5
2E6
100
AcDbEntity
  8
0
100
AcDbLine
 62
7
  6
CONTINUOUS
 10
-20.775
 20
-118.2
 11
-20.775
 21
-113.7
  0
LINE
  5
2E7
100
AcDbEntity
  8
0
100
AcDbLine
 62
7
  6
CONTINUOUS
 10
-20.775
 20
123.8
 11
-20.775
 21
128.3
  0
LINE
  5
2E8
100
AcDbEntity
  8
ASSI
100
AcDbLine
 62
7
  6
CONTINUOUS
 10
-20.525
 20
38.2212375356
 11
-20.525
 21
44.85
  0
LINE
  5
2E9
100
AcDbEntity
  8
ASSI
100
AcDbLine
 62
7
  6
CONTINUOUS
 10
-20.225
 20
44.85
 11
-20.225
 21
38.2212375356
  0
LINE
  5
2EA
100
AcDbEntity
  8
0
100
AcDbLine
 62
7
  6
CONTINUOUS
 10
-19.525
 20
130.05
 11
-19.525
 21
128.25
  0
LINE
  5
2EB
100
AcDbEntity
  8
0
100
AcDbLine
 62
7
  6
CONTINUOUS
 10
-19.525
 20
123.85
 11
-19.525
 21
122.05
  0
LINE
  5
2EC
100
AcDbEntity
  8
0
100
AcDbLine
 62
7
  6
CONTINUOUS
 10
-19.525
 20
-111.95
 11
-19.525
 21
-113.75
  0
LINE
  5
2ED
100
AcDbEntity
  8
0
100
AcDbLine
 62
7
  6
CONTINUOUS
 10
-19.525
 20
-118.15
 11
-19.525
 21
-119.95
  0
LINE
  5
2EE
100
AcDbEntity
  8
0
100
AcDbLine
 62
7
  6
CONTINUOUS
 10
3.6074538619
 20
134.6868240888
 11
3.5039809421
 21
134.1
  0
LINE
  5
2EF
100
AcDbEntity
  8
0
100
AcDbLine
 62
7
  6
CONTINUOUS
 10
3.3276539614
 20
133.1
 11
3.0478540609
 21
131.5131759112
  0
LINE
  5
2F0
100
AcDbEntity
  8
0
100
AcDbLine
 62
7
  6
CONTINUOUS
 10
10.2429491924
 20
-134.1
 11
10.4115989657
 21
-134.7294095226
  0
LINE
  5
2F1
100
AcDbEntity
  8
ASSI
100
AcDbLine
 62
7
  6
CONTINUOUS
 10
-18.225
 20
82.6306175621
 11
-18.225
 21
82.1298186301
  0
LINE
  5
2F2
100
AcDbEntity
  8
ASSI
100
AcDbLine
 62
7
  6
CONTINUOUS
 10
-18.225
 20
57.8701813699
 11
-18.225
 21
57.3693824379
  0
LINE
  5
2F3
100
AcDbEntity
  8
ASSI
100
AcDbLine
 62
7
  6
CONTINUOUS
 10
-18.225
 20
-57.3693824379
 11
-18.225
 21
-57.8701813699
  0
LINE
  5
2F4
100
AcDbEntity
  8
ASSI
100
AcDbLine
 62
7
  6
CONTINUOUS
 10
-18.225
 20
-82.1298186301
 11
-18.225
 21
-82.6306175621
  0
LINE
  5
2F5
100
AcDbEntity
  8
ASSI
100
AcDbLine
 62
7
  6
CONTINUOUS
 10
-16.825
 20
-82.6306175621
 11
-16.825
 21
-82.1298186301
  0
LINE
  5
2F6
100
AcDbEntity
  8
ASSI
100
AcDbLine
 62
7
  6
CONTINUOUS
 10
-16.825
 20
-57.8701813699
 11
-16.825
 21
-57.3693824379
  0
LINE
  5
2F7
100
AcDbEntity
  8
ASSI
100
AcDbLine
 62
7
  6
CONTINUOUS
 10
-16.825
 20
57.3693824379
 11
-16.825
 21
57.8701813699
  0
LINE
  5
2F8
100
AcDbEntity
  8
ASSI
100
AcDbLine
 62
7
  6
CONTINUOUS
 10
-16.825
 20
82.1298186301
 11
-16.825
 21
82.6306175621
  0
LINE
  5
2F9
100
AcDbEntity
  8
0
100
AcDbLine
 62
7
  6
CONTINUOUS
 10
-15.525
 20
130.05
 11
-15.525
 21
128.25
  0
LINE
  5
2FA
100
AcDbEntity
  8
0
100
AcDbLine
 62
7
  6
CONTINUOUS
 10
-15.525
 20
123.85
 11
-15.525
 21
122.05
  0
LINE
  5
2FB
100
AcDbEntity
  8
0
100
AcDbLine
 62
7
  6
CONTINUOUS
 10
-15.525
 20
-111.95
 11
-15.525
 21
-113.75
  0
LINE
  5
2FC
100
AcDbEntity
  8
0
100
AcDbLine
 62
7
  6
CONTINUOUS
 10
-15.525
 20
-118.15
 11
-15.525
 21
-119.95
  0
LINE
  5
2FD
100
AcDbEntity
  8
0
100
AcDbLine
 62
7
  6
CONTINUOUS
 10
-14.275
 20
128.3
 11
-14.275
 21
123.8
  0
LINE
  5
2FE
100
AcDbEntity
  8
0
100
AcDbLine
 62
7
  6
CONTINUOUS
 10
-14.275
 20
-113.7
 11
-14.275
 21
-118.2
  0
LINE
  5
2FF
100
AcDbEntity
  8
ASSI
100
AcDbLine
 62
7
  6
CONTINUOUS
 10
-13.825
 20
38.2212375356
 11
-13.825
 21
44.85
  0
LINE
  5
300
100
AcDbEntity
  8
ASSI
100
AcDbLine
 62
7
  6
CONTINUOUS
 10
-13.525
 20
44.85
 11
-13.525
 21
38.2212375356
  0
LINE
  5
301
100
AcDbEntity
  8
0
100
AcDbLine
 62
7
  6
CONTINUOUS
 10
-12.425
 20
-133.1
 11
-12.425
 21
-131.1
  0
LINE
  5
302
100
AcDbEntity
  8
0
100
AcDbLine
 62
7
  6
CONTINUOUS
 10
-11.525
 20
133.1
 11
-11.525
 21
131.1
  0
LINE
  5
303
100
AcDbEntity
  8
ASSI
100
AcDbLine
 62
7
  6
CONTINUOUS
 10
-11.525
 20
35.15
 11
-11.525
 21
44.85
  0
LINE
  5
304
100
AcDbEntity
  8
ASSI
100
AcDbLine
 62
7
  6
CONTINUOUS
 10
-11.225
 20
44.85
 11
-11.225
 21
35.15
  0
LINE
  5
305
100
AcDbEntity
  8
0
100
AcDbLine
 62
7
  6
CONTINUOUS
 10
-45.4615989657
 20
-134.7294095226
 11
-45.2929491924
 21
-134.1
  0
LINE
  5
306
100
AcDbEntity
  8
0
100
AcDbLine
 62
7
  6
CONTINUOUS
 10
-38.0978540609
 20
131.5131759112
 11
-38.3776539614
 21
133.1
  0
LINE
  5
307
100
AcDbEntity
  8
0
100
AcDbLine
 62
7
  6
CONTINUOUS
 10
-38.5539809421
 20
134.1
 11
-38.6574538619
 21
134.6868240888
  0
LWPOLYLINE
  5
308
100
AcDbEntity
  8
0
100
AcDbPolyline
 62
7
  6
CONTINUOUS
 90
4
 70
0
 43
0.3500000006
 10
55.2902008667
 20
-3.2142857208
 10
54.6473428802
 20
-3.2142857208
 10
54.6473428802
 20
-1.7142852631
 10
57.6473437958
 20
-2.5714288673
  0
LINE
  5
309
100
AcDbEntity
  8
0
100
AcDbLine
 62
7
  6
CONTINUOUS
 10
-65.475
 20
-0.9
 11
-65.425
 21
-0.9
  0
LINE
  5
30A
100
AcDbEntity
  8
0
100
AcDbLine
 62
7
  6
CONTINUOUS
 10
30.425
 20
-0.9
 11
30.375
 21
-0.9
  0
LWPOLYLINE
  5
30B
100
AcDbEntity
  8
0
100
AcDbPolyline
 62
7
  6
CONTINUOUS
 90
13
 70
0
 43
0.3500000006
 10
56.7902013245
 20
-0.8571427917
 10
55.5044853516
 20
-0.8571427917
 10
55.0759163818
 20
-0.642856041
 10
54.6473428802
 20
-0.2142848053
 10
54.6473428802
 20
-0.0000003204
 10
55.0759163818
 20
0.4285709152
 10
55.5044853516
 20
0.642857666
 10
56.7902013245
 20
0.642857666
 10
57.218774826
 20
0.4285709152
 10
57.6473437958
 20
-0.0000003204
 10
57.6473437958
 20
-0.2142848053
 10
57.218774826
 20
-0.642856041
 10
56.7902013245
 20
-0.8571427917
  0
LINE
  5
30C
100
AcDbEntity
  8
0
100
AcDbLine
 62
7
  6
CONTINUOUS
 10
-65.475
 20
0.9
 11
-65.425
 21
0.9
  0
LINE
  5
30D
100
AcDbEntity
  8
0
100
AcDbLine
 62
7
  6
CONTINUOUS
 10
30.425
 20
0.9
 11
30.375
 21
0.9
  0
LINE
  5
30E
100
AcDbEntity
  8
0
100
AcDbLine
 62
7
  6
CONTINUOUS
 10
1.475
 20
133.1
 11
1.475
 21
131.1
  0
LINE
  5
30F
100
AcDbEntity
  8
0
100
AcDbLine
 62
7
  6
CONTINUOUS
 10
2.375
 20
-133.1
 11
2.375
 21
-131.1
  0
LINE
  5
310
100
AcDbEntity
  8
0
100
AcDbLine
 62
7
  6
CONTINUOUS
 10
3.875
 20
-131.1
 11
3.875
 21
-132.6
  0
LINE
  5
311
100
AcDbEntity
  8
0
100
AcDbLine
 62
7
  6
CONTINUOUS
 10
4.575
 20
120.195761073
 11
4.575
 21
121.3042373958
  0
LINE
  5
312
100
AcDbEntity
  8
SMUSSO
100
AcDbLine
 62
7
  6
CONTINUOUS
 10
4.725
 20
122.4536725037
 11
4.725
 21
119.0463274963
  0
LINE
  5
313
100
AcDbEntity
  8
SMUSSO
100
AcDbLine
 62
7
  6
CONTINUOUS
 10
10.725
 20
119.0463274963
 11
10.725
 21
122.4536725037
  0
LINE
  5
314
100
AcDbEntity
  8
0
100
AcDbLine
 62
7
  6
CONTINUOUS
 10
10.875
 20
121.2951138556
 11
10.875
 21
120.2048129801
  0
LINE
  5
315
100
AcDbEntity
  8
0
100
AcDbLine
 62
7
  6
CONTINUOUS
 10
7.8537587887
 20
124.6669392586
 11
7.8843445683
 21
125.5973816962
  0
LINE
  5
316
100
AcDbEntity
  8
0
100
AcDbLine
 62
7
  6
CONTINUOUS
 10
-14.5574538619
 20
-134.6868240888
 11
-14.4539809421
 21
-134.1
  0
LINE
  5
317
100
AcDbEntity
  8
0
100
AcDbLine
 62
7
  6
CONTINUOUS
 10
-14.2776539614
 20
-133.1
 11
-13.9978540609
 21
-131.5131759112
  0
LWPOLYLINE
  5
318
100
AcDbEntity
  8
0
100
AcDbPolyline
 62
7
  6
CONTINUOUS
 90
2
 70
0
 43
0.3500000006
 10
47.6473452759
 20
4.8714277954
 10
46.1473448181
 20
4.8714277954
  0
LINE
  5
319
100
AcDbEntity
  8
ASSI
100
AcDbLine
 62
7
  6
CONTINUOUS
 10
-24.6526824108
 20
47.575
 11
-27.525
 21
52.55
  0
LINE
  5
31A
100
AcDbEntity
  8
ASSI
100
AcDbLine
 62
7
  6
CONTINUOUS
 10
-27.3950961894
 20
52.925
 11
-24.3928747896
 21
47.725
  0
LINE
  5
31B
100
AcDbEntity
  8
0
100
AcDbLine
 62
7
  6
CONTINUOUS
 10
-13.0978540609
 20
131.5131759112
 11
-13.3776539614
 21
133.1
  0
LINE
  5
31C
100
AcDbEntity
  8
0
100
AcDbLine
 62
7
  6
CONTINUOUS
 10
-13.5539809421
 20
134.1
 11
-13.6574538619
 21
134.6868240888
  0
LWPOLYLINE
  5
31D
100
AcDbEntity
  8
0
100
AcDbPolyline
 62
7
  6
CONTINUOUS
 90
3
 70
0
 43
0.3500000006
 10
57.3616281281
 20
2.2142847748
 10
57.5759171448
 20
2.1428581238
 10
57.8616282806
 20
2.0000002899
  0
LINE
  5
31E
100
AcDbEntity
  8
0
100
AcDbLine
 62
250
  6
CONTINUOUS
 10
28.425
 20
133.1
 11
28.425
 21
116.2
  0
LINE
  5
31F
100
AcDbEntity
  8
0
100
AcDbLine
 62
250
  6
CONTINUOUS
 10
28.425
 20
-133.1
 11
28.425
 21
-119.4
  0
LINE
  5
320
100
AcDbEntity
  8
0
100
AcDbLine
 62
7
  6
CONTINUOUS
 10
28.925
 20
-113.1
 11
28.925
 21
-119.4
  0
LINE
  5
321
100
AcDbEntity
  8
0
100
AcDbLine
 62
7
  6
CONTINUOUS
 10
28.925
 20
113.1
 11
28.925
 21
116.2
  0
LINE
  5
322
100
AcDbEntity
  8
0
100
AcDbLine
 62
7
  6
CONTINUOUS
 10
30.375
 20
113.1
 11
30.375
 21
92.7
  0
LINE
  5
323
100
AcDbEntity
  8
0
100
AcDbLine
 62
7
  6
CONTINUOUS
 10
30.375
 20
90.9
 11
30.375
 21
62.1
  0
LINE
  5
324
100
AcDbEntity
  8
0
100
AcDbLine
 62
7
  6
CONTINUOUS
 10
30.375
 20
60.3
 11
30.375
 21
31.5
  0
LINE
  5
325
100
AcDbEntity
  8
0
100
AcDbLine
 62
250
  6
CONTINUOUS
 10
30.375
 20
-92.7
 11
30.375
 21
-90.9
  0
LINE
  5
326
100
AcDbEntity
  8
0
100
AcDbLine
 62
7
  6
CONTINUOUS
 10
30.375
 20
29.7
 11
30.375
 21
0.9
  0
LINE
  5
327
100
AcDbEntity
  8
0
100
AcDbLine
 62
250
  6
CONTINUOUS
 10
30.375
 20
-62.1
 11
30.375
 21
-60.3
  0
LINE
  5
328
100
AcDbEntity
  8
0
100
AcDbLine
 62
7
  6
CONTINUOUS
 10
30.375
 20
-0.9
 11
30.375
 21
-29.7
  0
LINE
  5
329
100
AcDbEntity
  8
0
100
AcDbLine
 62
250
  6
CONTINUOUS
 10
30.375
 20
-31.5
 11
30.375
 21
-29.7
  0
LINE
  5
32A
100
AcDbEntity
  8
0
100
AcDbLine
 62
250
  6
CONTINUOUS
 10
30.375
 20
-0.9
 11
30.375
 21
0.9
  0
LINE
  5
32B
100
AcDbEntity
  8
0
100
AcDbLine
 62
7
  6
CONTINUOUS
 10
30.375
 20
-31.5
 11
30.375
 21
-60.3
  0
LINE
  5
32C
100
AcDbEntity
  8
0
100
AcDbLine
 62
250
  6
CONTINUOUS
 10
30.375
 20
29.7
 11
30.375
 21
31.5
  0
LINE
  5
32D
100
AcDbEntity
  8
0
100
AcDbLine
 62
7
  6
CONTINUOUS
 10
30.375
 20
-62.1
 11
30.375
 21
-90.9
  0
LINE
  5
32E
100
AcDbEntity
  8
0
100
AcDbLine
 62
7
  6
CONTINUOUS
 10
30.375
 20
-92.7
 11
30.375
 21
-113.1
  0
LINE
  5
32F
100
AcDbEntity
  8
0
100
AcDbLine
 62
250
  6
CONTINUOUS
 10
30.375
 20
60.3
 11
30.375
 21
62.1
  0
LINE
  5
330
100
AcDbEntity
  8
0
100
AcDbLine
 62
250
  6
CONTINUOUS
 10
30.375
 20
90.9
 11
30.375
 21
92.7
  0
LINE
  5
331
100
AcDbEntity
  8
0
100
AcDbLine
 62
7
  6
CONTINUOUS
 10
30.425
 20
-133.1
 11
30.425
 21
133.1
  0
LINE
  5
332
100
AcDbEntity
  8
0
100
AcDbLine
 62
7
  6
CONTINUOUS
 10
31.375
 20
-133.1
 11
31.375
 21
-134.1
  0
LINE
  5
333
100
AcDbEntity
  8
0
100
AcDbLine
 62
7
  6
CONTINUOUS
 10
31.375
 20
133.1
 11
31.375
 21
134.1
  0
LINE
  5
334
100
AcDbEntity
  8
0
100
AcDbLine
 62
7
  6
CONTINUOUS
 10
31.425
 20
133.05
 11
31.425
 21
-133.05
  0
LWPOLYLINE
  5
335
100
AcDbEntity
  8
0
100
AcDbPolyline
 62
7
  6
CONTINUOUS
 90
10
 70
0
 43
0.3500000006
 10
57.1473436432
 20
2.1428581238
 10
57.2902014771
 20
2.2142847748
 10
57.3616281281
 20
2.2142847748
 10
57.5044859619
 20
2.0714292068
 10
57.5044859619
 20
2.0000002899
 10
57.4330593109
 20
1.928571373
 10
57.3616281281
 20
1.928571373
 10
57.218774826
 20
2.0000002899
 10
57.1473436432
 20
2.0714292068
 10
57.1473436432
 20
2.1428581238
  0
LINE
  5
336
100
AcDbEntity
  8
0
100
AcDbLine
 62
7
  6
CONTINUOUS
 10
-65.475
 20
29.7
 11
-65.425
 21
29.7
  0
LINE
  5
337
100
AcDbEntity
  8
0
100
AcDbLine
 62
7
  6
CONTINUOUS
 10
30.425
 20
29.7
 11
30.375
 21
29.7
  0
LINE
  5
338
100
AcDbEntity
  8
0
100
AcDbLine
 62
7
  6
CONTINUOUS
 10
-65.475
 20
31.5
 11
-65.425
 21
31.5
  0
LINE
  5
339
100
AcDbEntity
  8
0
100
AcDbLine
 62
7
  6
CONTINUOUS
 10
30.425
 20
31.5
 11
30.375
 21
31.5
  0
LINE
  5
33A
100
AcDbEntity
  8
0
100
AcDbLine
 62
7
  6
CONTINUOUS
 10
32.425
 20
-102.1
 11
32.425
 21
-133.05
  0
LINE
  5
33B
100
AcDbEntity
  8
0
100
AcDbLine
 62
7
  6
CONTINUOUS
 10
32.425
 20
102.1
 11
32.425
 21
133.05
  0
LINE
  5
33C
100
AcDbEntity
  8
ASSI
100
AcDbLine
 62
7
  6
CONTINUOUS
 10
-7.2376223327
 20
39.45
 11
-10.075
 21
39.45
  0
LINE
  5
33D
100
AcDbEntity
  8
ASSI
100
AcDbLine
 62
7
  6
CONTINUOUS
 10
-10.075
 20
39.75
 11
-7.2376223327
 21
39.75
  0
LINE
  5
33E
100
AcDbEntity
  8
0
100
AcDbLine
 62
7
  6
CONTINUOUS
 10
11.7986730193
 20
134.1
 11
11.6952000995
 21
134.6868240888
  0
LWPOLYLINE
  5
33F
100
AcDbEntity
  8
0
100
AcDbPolyline
 62
7
  6
CONTINUOUS
 90
3
 70
0
 43
0.3500000006
 10
47.0044872894
 20
5.371427948
 10
47.0044872894
 20
3.8714274902
 10
44.6473443604
 20
4.5142854767
  0
LWPOLYLINE
  5
340
100
AcDbEntity
  8
0
100
AcDbPolyline
 62
7
  6
CONTINUOUS
 90
7
 70
0
 43
0.3500000006
 10
47.6473452759
 20
7.7285708771
 10
47.6473452759
 20
6.2285704193
 10
45.5044868317
 20
7.7285708771
 10
45.0759178619
 20
7.7285708771
 10
44.6473443604
 20
7.2999996414
 10
44.6473443604
 20
6.6571439209
 10
45.2902023468
 20
6.2285704193
  0
LWPOLYLINE
  5
341
100
AcDbEntity
  8
0
100
AcDbPolyline
 62
7
  6
CONTINUOUS
 90
7
 70
0
 43
0.3500000006
 10
47.6473452759
 20
3.0142850189
 10
47.6473452759
 20
1.5142868271
 10
45.5044868317
 20
3.0142850189
 10
45.0759178619
 20
3.0142850189
 10
44.6473443604
 20
2.5857137833
 10
44.6473443604
 20
1.9428580627
 10
45.2902023468
 20
1.5142868271
  0
LINE
  5
342
100
AcDbEntity
  8
0
100
AcDbLine
 62
7
  6
CONTINUOUS
 10
18.5384010343
 20
-134.7294095226
 11
18.7070508076
 21
-134.1
  0
LINE
  5
343
100
AcDbEntity
  8
ASSI
100
AcDbLine
 62
7
  6
CONTINUOUS
 10
-7.2376223327
 20
44.7
 11
-10.075
 21
44.7
  0
LINE
  5
344
100
AcDbEntity
  8
ASSI
100
AcDbLine
 62
7
  6
CONTINUOUS
 10
-10.075
 20
45.0
 11
-7.2376223327
 21
45.0
  0
LWPOLYLINE
  5
345
100
AcDbEntity
  8
0
100
AcDbPolyline
 62
7
  6
CONTINUOUS
 90
10
 70
0
 43
0.3500000006
 10
-16.5607138367
 20
148.4500993652
 10
-16.4892860527
 20
148.3072369995
 10
-16.4892860527
 20
148.2358148804
 10
-16.6321427536
 20
148.0929525146
 10
-16.7035716705
 20
148.0929525146
 10
-16.7749994545
 20
148.1643746338
 10
-16.7749994545
 20
148.2358148804
 10
-16.7035716705
 20
148.3786591187
 10
-16.6321427536
 20
148.4500993652
 10
-16.5607138367
 20
148.4500993652
  0
LWPOLYLINE
  5
346
100
AcDbEntity
  8
0
100
AcDbPolyline
 62
7
  6
CONTINUOUS
 90
7
 70
0
 43
0.3500000006
 10
57.6473437958
 20
4.7142855377
 10
57.6473437958
 20
3.21428508
 10
55.5044853516
 20
4.7142855377
 10
55.0759163818
 20
4.7142855377
 10
54.6473428802
 20
4.2857143021
 10
54.6473428802
 20
3.6428563156
 10
55.2902008667
 20
3.21428508
  0
LWPOLYLINE
  5
347
100
AcDbEntity
  8
0
100
AcDbPolyline
 62
7
  6
CONTINUOUS
 90
7
 70
0
 43
0.3500000006
 10
57.6473437958
 20
-4.0714281921
 10
57.6473437958
 20
-5.5714286499
 10
55.5044853516
 20
-4.0714281921
 10
55.0759163818
 20
-4.0714281921
 10
54.6473428802
 20
-4.5000005608
 10
54.6473428802
 20
-5.1428574142
 10
55.2902008667
 20
-5.5714286499
  0
LINE
  5
348
100
AcDbEntity
  8
0
100
AcDbLine
 62
7
  6
CONTINUOUS
 10
-25.1107864376
 20
-111.6857864376
 11
-32.2392135624
 21
-118.8142135624
  0
LINE
  5
349
100
AcDbEntity
  8
0
100
AcDbLine
 62
7
  6
CONTINUOUS
 10
-65.475
 20
60.3
 11
-65.425
 21
60.3
  0
LINE
  5
34A
100
AcDbEntity
  8
0
100
AcDbLine
 62
7
  6
CONTINUOUS
 10
30.425
 20
60.3
 11
30.375
 21
60.3
  0
LINE
  5
34B
100
AcDbEntity
  8
0
100
AcDbLine
 62
7
  6
CONTINUOUS
 10
-65.475
 20
62.1
 11
-65.425
 21
62.1
  0
LINE
  5
34C
100
AcDbEntity
  8
0
100
AcDbLine
 62
7
  6
CONTINUOUS
 10
30.425
 20
62.1
 11
30.375
 21
62.1
  0
LWPOLYLINE
  5
34D
100
AcDbEntity
  8
0
100
AcDbPolyline
 62
7
  6
CONTINUOUS
 90
65
 70
0
 10
11.4243221096
 20
122.5087555992
 10
11.4110041179
 20
122.5312605869
 10
11.3972486695
 20
122.5542493622
 10
11.3830537367
 20
122.5777212733
 10
11.3683623038
 20
122.6016995386
 10
11.3531760476
 20
122.6261859536
 10
11.3374932912
 20
122.6511787228
 10
11.3212519889
 20
122.6766956785
 10
11.3044539093
 20
122.7027389634
 10
11.2870972837
 20
122.7293064348
 10
11.2691147602
 20
122.7564094971
 10
11.25050817
 20
122.7840506753
 10
11.2312756818
 20
122.8122274445
 10
11.2113444505
 20
122.8409436343
 10
11.1907163271
 20
122.8702021923
 10
11.1693894605
 20
122.9000001709
 10
11.1472854519
 20
122.9303325581
 10
11.1244057814
 20
122.961203174
 10
11.1007489689
 20
122.9926081984
 10
11.0762321759
 20
123.0245311586
 10
11.0508644853
 20
123.0569674152
 10
11.0246368141
 20
123.0899216074
 10
10.9974390749
 20
123.1233911803
 10
10.9692999485
 20
123.1573534949
 10
10.9401907541
 20
123.1918311901
 10
10.9099153613
 20
123.2268896276
 10
10.8784821253
 20
123.2625368986
 10
10.8458826908
 20
123.298764912
 10
10.811895862
 20
123.3356147558
 10
10.7765281236
 20
123.3730993902
 10
10.7397729909
 20
123.4112058549
 10
10.7013898142
 20
123.4499363575
 10
10.6613846621
 20
123.4893067319
 10
10.6197514659
 20
123.5293011442
 10
10.5762313703
 20
123.5698743
 10
10.5308290558
 20
123.6110455655
 10
10.4835398419
 20
123.6527955745
 10
10.4340908318
 20
123.6950209351
 10
10.3824842753
 20
123.7377447989
 10
10.3287179227
 20
123.7809440144
 10
10.2725121275
 20
123.8244457349
 10
10.2138648407
 20
123.868277198
 10
10.1527781115
 20
123.9124111661
 10
10.0889784405
 20
123.9565930809
 10
10.0224648035
 20
124.000850009
 10
9.9532382247
 20
124.0451548838
 10
9.8810282776
 20
124.0891719467
 10
9.8059714058
 20
124.1328716214
 10
9.7279311656
 20
124.1762834843
 10
9.6462277993
 20
124.2191605056
 10
9.5608963577
 20
124.2615724559
 10
9.4719017899
 20
124.3034495645
 10
9.3784591851
 20
124.3443354899
 10
9.28053476
 20
124.3843453416
 10
9.1781622979
 20
124.4233640099
 10
9.0706582375
 20
124.4605898248
 10
8.9579560218
 20
124.4961472853
 10
8.8401222078
 20
124.5299118923
 10
8.7166729057
 20
124.5607084775
 10
8.5875699773
 20
124.5886590195
 10
8.452851561
 20
124.6136415397
 10
8.3121481814
 20
124.6341149341
 10
8.1653366803
 20
124.6495655014
 10
8.0125402161
 20
124.6605069429
 10
7.8537587887
 20
124.6669392586
  0
LWPOLYLINE
  5
34E
100
AcDbEntity
  8
0
100
AcDbPolyline
 62
7
  6
CONTINUOUS
 90
3
 70
0
 10
11.4617963341
 20
122.4440596892
 10
11.4496905734
 20
122.4651698569
 10
11.4243221096
 20
122.5087555992
  0
LINE
  5
34F
100
AcDbEntity
  8
0
100
AcDbLine
 62
7
  6
CONTINUOUS
 10
11.4848800696
 20
122.4032007814
 11
11.4617963341
 21
122.4440596892
  0
LINE
  5
350
100
AcDbEntity
  8
0
100
AcDbLine
 62
7
  6
CONTINUOUS
 10
11.5065646614
 20
122.3641228198
 11
11.4848800696
 21
122.4032007814
  0
LINE
  5
351
100
AcDbEntity
  8
0
100
AcDbLine
 62
7
  6
CONTINUOUS
 10
11.7624722236
 20
121.8711727453
 11
11.7558807613
 21
121.8831390632
  0
LINE
  5
352
100
AcDbEntity
  8
0
100
AcDbLine
 62
7
  6
CONTINUOUS
 10
11.5269448434
 20
122.3267951223
 11
11.5065646614
 21
122.3641228198
  0
LINE
  5
353
100
AcDbEntity
  8
0
100
AcDbLine
 62
7
  6
CONTINUOUS
 10
11.7558807613
 20
121.8831390632
 11
11.749036848
 21
121.8957919822
  0
LINE
  5
354
100
AcDbEntity
  8
0
100
AcDbLine
 62
7
  6
CONTINUOUS
 10
11.5460829285
 20
122.2911936141
 11
11.5269448434
 21
122.3267951223
  0
LINE
  5
355
100
AcDbEntity
  8
0
100
AcDbLine
 62
7
  6
CONTINUOUS
 10
11.749036848
 20
121.8957919822
 11
11.7419071546
 21
121.9091850518
  0
LINE
  5
356
100
AcDbEntity
  8
0
100
AcDbLine
 62
7
  6
CONTINUOUS
 10
11.5640692249
 20
122.2572791063
 11
11.5460829285
 21
122.2911936141
  0
LINE
  5
357
100
AcDbEntity
  8
0
100
AcDbLine
 62
7
  6
CONTINUOUS
 10
11.7419071546
 20
121.9091850518
 11
11.7344423759
 21
121.92340023
  0
LINE
  5
358
100
AcDbEntity
  8
0
100
AcDbLine
 62
7
  6
CONTINUOUS
 10
11.580984686
 20
122.2250054367
 11
11.5640692249
 21
122.2572791063
  0
LINE
  5
359
100
AcDbEntity
  8
0
100
AcDbLine
 62
7
  6
CONTINUOUS
 10
11.6044760862
 20
122.1795938252
 11
11.580984686
 21
122.2250054367
  0
LINE
  5
35A
100
AcDbEntity
  8
0
100
AcDbLine
 62
7
  6
CONTINUOUS
 10
11.7344423759
 20
121.92340023
 11
11.7225207124
 21
121.9464276997
  0
LINE
  5
35B
100
AcDbEntity
  8
0
100
AcDbLine
 62
7
  6
CONTINUOUS
 10
11.7225207124
 20
121.9464276997
 11
11.7050571691
 21
121.9806695181
  0
LINE
  5
35C
100
AcDbEntity
  8
0
100
AcDbLine
 62
7
  6
CONTINUOUS
 10
11.6326325148
 20
122.1243904709
 11
11.6044760862
 21
122.1795938252
  0
LWPOLYLINE
  5
35D
100
AcDbEntity
  8
0
100
AcDbPolyline
 62
7
  6
CONTINUOUS
 90
4
 70
0
 10
11.7050571691
 20
121.9806695181
 10
11.6748814679
 20
122.0405513763
 10
11.6693323344
 20
122.0515938984
 10
11.6326325148
 20
122.1243904709
  0
LINE
  5
35E
100
AcDbEntity
  8
0
100
AcDbLine
 62
7
  6
CONTINUOUS
 10
-4.9392135624
 20
118.6142135624
 11
-3.1107864376
 21
116.7857864376
  0
LINE
  5
35F
100
AcDbEntity
  8
0
100
AcDbLine
 62
7
  6
CONTINUOUS
 10
-65.475
 20
90.9
 11
-65.425
 21
90.9
  0
LINE
  5
360
100
AcDbEntity
  8
0
100
AcDbLine
 62
7
  6
CONTINUOUS
 10
30.425
 20
90.9
 11
30.375
 21
90.9
  0
LINE
  5
361
100
AcDbEntity
  8
0
100
AcDbLine
 62
7
  6
CONTINUOUS
 10
-65.475
 20
92.7
 11
-65.425
 21
92.7
  0
LINE
  5
362
100
AcDbEntity
  8
0
100
AcDbLine
 62
7
  6
CONTINUOUS
 10
30.425
 20
92.7
 11
30.375
 21
92.7
  0
LWPOLYLINE
  5
363
100
AcDbEntity
  8
0
100
AcDbPolyline
 62
7
  6
CONTINUOUS
 90
112
 70
0
 10
10.8776059575
 20
123.9502761008
 10
10.9226136676
 20
123.9014306786
 10
10.9654736599
 20
123.8533058976
 10
11.0064872687
 20
123.805942539
 10
11.0456622619
 20
123.7593595843
 10
11.0829908717
 20
123.7135380521
 10
11.1187511284
 20
123.6684617793
 10
11.1529517521
 20
123.6241462732
 10
11.1855840226
 20
123.5805760265
 10
11.2168998104
 20
123.5376883547
 10
11.2469085307
 20
123.4954952525
 10
11.2756007683
 20
123.4539847253
 10
11.3032001477
 20
123.4130581038
 10
11.3297340321
 20
123.3726933281
 10
11.3551750583
 20
123.3329124582
 10
11.3796647616
 20
123.2936830054
 10
11.4032254127
 20
123.2549777409
 10
11.425834741
 20
123.2168238936
 10
11.4475674694
 20
123.179270661
 10
11.4684235476
 20
123.1423223761
 10
11.488403026
 20
123.1059747059
 10
11.5075807781
 20
123.0702638499
 10
11.5259575665
 20
123.0351930994
 10
11.5435326286
 20
123.0007591631
 10
11.5603785507
 20
122.9669883665
 10
11.5764963066
 20
122.9338837732
 10
11.5918849224
 20
122.9014423196
 10
11.6066140631
 20
122.8696811404
 10
11.6206834011
 20
122.8386067556
 10
11.634093264
 20
122.8082126452
 10
11.6469142996
 20
122.7784963833
 10
11.6591468324
 20
122.7494641664
 10
11.670790538
 20
122.721109798
 10
11.6819150907
 20
122.6934122632
 10
11.6925232362
 20
122.6663718266
 10
11.7026122288
 20
122.6399882235
 10
11.7122435062
 20
122.6142396448
 10
11.7214188516
 20
122.5891281143
 10
11.7301364817
 20
122.5646516083
 10
11.7384524839
 20
122.5407822453
 10
11.7463683266
 20
122.5175226786
 10
11.7538825414
 20
122.4948702551
 10
11.7610468103
 20
122.4727891333
 10
11.7678629161
 20
122.4512806973
 10
11.774329076
 20
122.4303435631
 10
11.7804916243
 20
122.4099377378
 10
11.7863539465
 20
122.3900577846
 10
11.791912657
 20
122.3707091404
 10
11.7972039337
 20
122.3518681233
 10
11.8022287802
 20
122.3335360675
 10
11.8069861928
 20
122.3157116388
 10
11.8115093385
 20
122.2983671535
 10
11.8157991882
 20
122.2815038985
 10
11.819854771
 20
122.2651205868
 10
11.8237063408
 20
122.249185674
 10
11.8273549034
 20
122.2337000916
 10
11.8307994529
 20
122.2186629081
 10
11.8340672259
 20
122.2040397841
 10
11.8371592223
 20
122.189831386
 10
11.8400744421
 20
122.1760370476
 10
11.8428371219
 20
122.1626204305
 10
11.845448235
 20
122.1495820049
 10
11.8479068081
 20
122.1369213008
 10
11.8502341571
 20
122.1246005699
 10
11.8524312223
 20
122.1126201439
 10
11.8544970634
 20
122.1009796911
 10
11.8564501762
 20
122.0896404687
 10
11.8582914731
 20
122.0786027139
 10
11.8600200416
 20
122.0678661896
 10
11.8616516401
 20
122.057391441
 10
11.8631871713
 20
122.0471786423
 10
11.8646257324
 20
122.0372276193
 10
11.8659803739
 20
122.0274983948
 10
11.8672520212
 20
122.017991097
 10
11.8684397489
 20
122.0087055976
 10
11.8695538315
 20
121.9996015353
 10
11.8705952619
 20
121.9906791
 10
11.8715630473
 20
121.9819381018
 10
11.8724644839
 20
121.9733376087
 10
11.8733004504
 20
121.9648824667
 10
11.874070068
 20
121.9565678298
 10
11.8747779968
 20
121.9483382282
 10
11.8754263087
 20
121.9401910822
 10
11.8760129317
 20
121.9321289716
 10
11.8765363098
 20
121.9241041653
 10
11.876999277
 20
121.9160828519
 10
11.8773989993
 20
121.9080988428
 10
11.8777254194
 20
121.9002058413
 10
11.8779778467
 20
121.8924055558
 10
11.8781569719
 20
121.8846962778
 10
11.8782548096
 20
121.8771265853
 10
11.878271186
 20
121.8697036663
 10
11.878206275
 20
121.8624203327
 10
11.8780526133
 20
121.8553035986
 10
11.877811901
 20
121.8483609998
 10
11.8774824379
 20
121.8415850004
 10
11.8770516601
 20
121.8349800069
 10
11.8765249173
 20
121.8285498854
 10
11.8758968597
 20
121.8222907698
 10
11.8751388743
 20
121.8161954685
 10
11.8742639851
 20
121.8102568122
 10
11.8732591681
 20
121.8044819702
 10
11.8720567374
 20
121.7988852588
 10
11.870693215
 20
121.793428507
 10
11.8691320789
 20
121.7881498858
 10
11.8671960775
 20
121.783178224
 10
11.8648956016
 20
121.7783379261
 10
11.8622202603
 20
121.7738045876
 10
11.8589616298
 20
121.7702338236
 10
11.8548664901
 20
121.7677570097
 10
11.850188061
 20
121.7662427704
 10
11.8454775786
 20
121.7659525937
  0
LINE
  5
364
100
AcDbEntity
  8
0
100
AcDbLine
 62
7
  6
CONTINUOUS
 10
31.425
 20
102.1
 11
32.425
 21
102.1
  0
LINE
  5
365
100
AcDbEntity
  8
0
100
AcDbLine
 62
7
  6
CONTINUOUS
 10
-66.475
 20
102.1
 11
-67.475
 21
102.1
  0
LINE
  5
366
100
AcDbEntity
  8
0
100
AcDbLine
 62
250
  6
CONTINUOUS
 10
31.425
 20
103.1
 11
32.425
 21
103.1
  0
LINE
  5
367
100
AcDbEntity
  8
0
100
AcDbLine
 62
250
  6
CONTINUOUS
 10
-66.475
 20
103.1
 11
-67.475
 21
103.1
  0
LWPOLYLINE
  5
368
100
AcDbEntity
  8
0
100
AcDbPolyline
 62
7
  6
CONTINUOUS
 90
3
 70
0
 10
10.4967154584
 20
124.3104423106
 10
10.5589940293
 20
124.2574061345
 10
10.6184755056
 20
124.2048214422
  0
LWPOLYLINE
  5
369
100
AcDbEntity
  8
0
100
AcDbPolyline
 62
7
  6
CONTINUOUS
 90
6
 70
0
 10
10.6184755056
 20
124.2048214422
 10
10.6751681451
 20
124.1526533612
 10
10.7293951863
 20
124.1010954325
 10
10.7811584149
 20
124.05017534
 10
10.8304560451
 20
123.9998653998
 10
10.8776059575
 20
123.9502761008
  0
LINE
  5
36A
100
AcDbEntity
  8
0
100
AcDbLine
 62
250
  6
CONTINUOUS
 10
31.425
 20
111.1
 11
32.425
 21
111.1
  0
LINE
  5
36B
100
AcDbEntity
  8
0
100
AcDbLine
 62
250
  6
CONTINUOUS
 10
-66.475
 20
111.1
 11
-67.475
 21
111.1
  0
LINE
  5
36C
100
AcDbEntity
  8
0
100
AcDbLine
 62
7
  6
CONTINUOUS
 10
31.425
 20
112.1
 11
32.425
 21
112.1
  0
LINE
  5
36D
100
AcDbEntity
  8
0
100
AcDbLine
 62
7
  6
CONTINUOUS
 10
-66.475
 20
112.1
 11
-67.475
 21
112.1
  0
LINE
  5
36E
100
AcDbEntity
  8
0
100
AcDbLine
 62
7
  6
CONTINUOUS
 10
-65.475
 20
113.1
 11
-63.975
 21
113.1
  0
LINE
  5
36F
100
AcDbEntity
  8
0
100
AcDbLine
 62
7
  6
CONTINUOUS
 10
30.425
 20
113.1
 11
28.925
 21
113.1
  0
LINE
  5
370
100
AcDbEntity
  8
0
100
AcDbLine
 62
250
  6
CONTINUOUS
 10
-65.475
 20
113.6
 11
-63.975
 21
113.6
  0
LINE
  5
371
100
AcDbEntity
  8
0
100
AcDbLine
 62
250
  6
CONTINUOUS
 10
30.425
 20
113.6
 11
28.925
 21
113.6
  0
LINE
  5
372
100
AcDbEntity
  8
0
100
AcDbLine
 62
7
  6
CONTINUOUS
 10
-67.475
 20
114.1
 11
-66.475
 21
114.1
  0
LINE
  5
373
100
AcDbEntity
  8
0
100
AcDbLine
 62
7
  6
CONTINUOUS
 10
32.425
 20
114.1
 11
31.425
 21
114.1
  0
LWPOLYLINE
  5
374
100
AcDbEntity
  8
0
100
AcDbPolyline
 62
7
  6
CONTINUOUS
 90
12
 70
0
 10
6.0525912786
 20
116.2
 10
6.1485949653
 20
116.1633403041
 10
6.4612993874
 20
116.0675262135
 10
6.7797502638
 20
115.9930048417
 10
7.1024994957
 20
115.9401150614
 10
7.4280794382
 20
115.9090973796
 10
7.7550095743
 20
115.9000928436
 10
8.0818032472
 20
115.9131424
 10
8.4069744206
 20
115.9481867082
 10
8.7290444364
 20
116.0050664104
 10
9.0465487382
 20
116.0835228563
 10
9.3580435315
 20
116.1831992791
  0
LINE
  5
375
100
AcDbEntity
  8
0
100
AcDbLine
 62
7
  6
CONTINUOUS
 10
-1.6965728753
 20
116.2
 11
6.0525912786
 21
116.2
  0
LINE
  5
376
100
AcDbEntity
  8
0
100
AcDbLine
 62
7
  6
CONTINUOUS
 10
9.4004583621
 20
116.2
 11
30.425
 21
116.2
  0
LINE
  5
377
100
AcDbEntity
  8
0
100
AcDbLine
 62
7
  6
CONTINUOUS
 10
-33.3534271247
 20
116.2
 11
-65.475
 21
116.2
  0
LINE
  5
378
100
AcDbEntity
  8
0
100
AcDbLine
 62
7
  6
CONTINUOUS
 10
8.2688962299
 20
117.6
 11
7.1678579197
 21
117.6
  0
LINE
  5
379
100
AcDbEntity
  8
RACCORDO
100
AcDbLine
 62
7
  6
CONTINUOUS
 10
3.1873794782
 20
117.65
 11
4.7958995136
 21
117.65
  0
LINE
  5
37A
100
AcDbEntity
  8
SMUSSO
100
AcDbLine
 62
7
  6
CONTINUOUS
 10
6.0213274963
 20
117.75
 11
9.4286725037
 21
117.75
  0
LINE
  5
37B
100
AcDbEntity
  8
0
100
AcDbLine
 62
7
  6
CONTINUOUS
 10
-28.6965728753
 20
119.2
 11
-6.3534271247
 21
119.2
  0
LINE
  5
37C
100
AcDbEntity
  8
RACCORDO
100
AcDbLine
 62
7
  6
CONTINUOUS
 10
4.369780186
 20
120.4
 11
1.9511364755
 21
120.4
  0
LINE
  5
37D
100
AcDbEntity
  8
RACCORDO
100
AcDbLine
 62
7
  6
CONTINUOUS
 10
1.9511364755
 20
121.1
 11
4.369780186
 21
121.1
  0
LINE
  5
37E
100
AcDbEntity
  8
0
100
AcDbLine
 62
7
  6
CONTINUOUS
 10
-19.525
 20
122.05
 11
-15.525
 21
122.05
  0
LINE
  5
37F
100
AcDbEntity
  8
0
100
AcDbLine
 62
250
  6
CONTINUOUS
 10
-19.525
 20
123.25
 11
-15.525
 21
123.25
  0
LINE
  5
380
100
AcDbEntity
  8
0
100
AcDbLine
 62
7
  6
CONTINUOUS
 10
-14.775
 20
123.3
 11
-15.525
 21
123.3
  0
LINE
  5
381
100
AcDbEntity
  8
0
100
AcDbLine
 62
7
  6
CONTINUOUS
 10
-19.525
 20
123.3
 11
-20.275
 21
123.3
  0
LINE
  5
382
100
AcDbEntity
  8
SMUSSO
100
AcDbLine
 62
7
  6
CONTINUOUS
 10
9.4286725037
 20
123.75
 11
6.0213274963
 21
123.75
  0
LINE
  5
383
100
AcDbEntity
  8
0
100
AcDbLine
 62
7
  6
CONTINUOUS
 10
-19.525
 20
123.85
 11
-15.525
 21
123.85
  0
LINE
  5
384
100
AcDbEntity
  8
RACCORDO
100
AcDbLine
 62
7
  6
CONTINUOUS
 10
4.7958995136
 20
123.85
 11
3.1873794782
 21
123.85
  0
LINE
  5
385
100
AcDbEntity
  8
0
100
AcDbLine
 62
7
  6
CONTINUOUS
 10
7.1676738153
 20
123.9
 11
8.268822509
 21
123.9
  0
LWPOLYLINE
  5
386
100
AcDbEntity
  8
0
100
AcDbPolyline
 62
7
  6
CONTINUOUS
 90
3
 70
0
 10
7.6828741704
 20
115.9028647043
 10
7.8148154456
 20
115.9008317016
 10
8.1108664861
 20
115.9163728199
  0
LWPOLYLINE
  5
387
100
AcDbEntity
  8
0
100
AcDbPolyline
 62
7
  6
CONTINUOUS
 90
25
 70
0
 10
11.8454775786
 20
121.7659525937
 10
11.8408491166
 20
121.7672069404
 10
11.8361886014
 20
121.7696853497
 10
11.8317050475
 20
121.7726879281
 10
11.8274600688
 20
121.7761164233
 10
11.8233920515
 20
121.7800690874
 10
11.8195251693
 20
121.7841407831
 10
11.8159055362
 20
121.7882084125
 10
11.8124870382
 20
121.7923950736
 10
11.8091555059
 20
121.7966649227
 10
11.805888146
 20
121.8010082028
 10
11.8027077518
 20
121.805434671
 10
11.7995685339
 20
121.8099377547
 10
11.796465377
 20
121.8145117986
 10
11.7934033964
 20
121.8191624581
 10
11.7903521487
 20
121.8239001266
 10
11.78730929
 20
121.828722251
 10
11.7842771643
 20
121.8336313846
 10
11.7812323601
 20
121.8386455801
 10
11.7781736751
 20
121.843763463
 10
11.7751023116
 20
121.8489864078
 10
11.7719984652
 20
121.8543365909
 10
11.7688615008
 20
121.8598131647
 10
11.7656920535
 20
121.8654169767
 10
11.7624722236
 20
121.8711727453
  0
LWPOLYLINE
  5
388
100
AcDbEntity
  8
0
100
AcDbPolyline
 62
7
  6
CONTINUOUS
 90
6
 70
0
 10
9.4792579564
 20
125.2716234941
 10
9.1705323042
 20
125.3795719411
 10
8.8552333502
 20
125.466468231
 10
8.5347948607
 20
125.5319172184
 10
8.2106739726
 20
125.5756212856
 10
7.8843445683
 20
125.5973816962
  0
LINE
  5
389
100
AcDbEntity
  8
0
100
AcDbLine
 62
7
  6
CONTINUOUS
 10
9.7800064318
 20
125.1431137665
 11
9.4792579564
 21
125.2716234941
  0
LINE
  5
38A
100
AcDbEntity
  8
0
100
AcDbLine
 62
7
  6
CONTINUOUS
 10
-19.525
 20
128.25
 11
-15.525
 21
128.25
  0
LINE
  5
38B
100
AcDbEntity
  8
0
100
AcDbLine
 62
7
  6
CONTINUOUS
 10
-20.275
 20
128.8
 11
-19.525
 21
128.8
  0
LINE
  5
38C
100
AcDbEntity
  8
0
100
AcDbLine
 62
7
  6
CONTINUOUS
 10
-15.525
 20
128.8
 11
-14.775
 21
128.8
  0
LINE
  5
38D
100
AcDbEntity
  8
0
100
AcDbLine
 62
250
  6
CONTINUOUS
 10
-19.525
 20
128.85
 11
-15.525
 21
128.85
  0
LINE
  5
38E
100
AcDbEntity
  8
0
100
AcDbLine
 62
7
  6
CONTINUOUS
 10
-19.525
 20
130.05
 11
-15.525
 21
130.05
  0
LINE
  5
38F
100
AcDbEntity
  8
0
100
AcDbLine
 62
7
  6
CONTINUOUS
 10
-37.6054501844
 20
131.1
 11
-36.525
 21
131.1
  0
LINE
  5
390
100
AcDbEntity
  8
0
100
AcDbLine
 62
250
  6
CONTINUOUS
 10
-36.525
 20
131.1
 11
-23.525
 21
131.1
  0
LINE
  5
391
100
AcDbEntity
  8
0
100
AcDbLine
 62
7
  6
CONTINUOUS
 10
-12.6054501844
 20
131.1
 11
-11.525
 21
131.1
  0
LINE
  5
392
100
AcDbEntity
  8
0
100
AcDbLine
 62
7
  6
CONTINUOUS
 10
2.5554501844
 20
131.1
 11
1.475
 21
131.1
  0
LINE
  5
393
100
AcDbEntity
  8
0
100
AcDbLine
 62
250
  6
CONTINUOUS
 10
1.475
 20
131.1
 11
-11.525
 21
131.1
  0
LINE
  5
394
100
AcDbEntity
  8
0
100
AcDbLine
 62
7
  6
CONTINUOUS
 10
-22.4445498156
 20
131.1
 11
-23.525
 21
131.1
  0
LINE
  5
395
100
AcDbEntity
  8
0
100
AcDbLine
 62
7
  6
CONTINUOUS
 10
-67.475
 20
131.6
 11
-66.475
 21
131.6
  0
LINE
  5
396
100
AcDbEntity
  8
0
100
AcDbLine
 62
7
  6
CONTINUOUS
 10
32.425
 20
131.6
 11
31.425
 21
131.6
  0
LINE
  5
397
100
AcDbEntity
  8
0
100
AcDbLine
 62
7
  6
CONTINUOUS
 10
-67.475
 20
133.05
 11
-65.475
 21
133.05
  0
LINE
  5
398
100
AcDbEntity
  8
0
100
AcDbLine
 62
7
  6
CONTINUOUS
 10
-38.3688376124
 20
133.05
 11
-36.525
 21
133.05
  0
LINE
  5
399
100
AcDbEntity
  8
0
100
AcDbLine
 62
7
  6
CONTINUOUS
 10
32.425
 20
133.05
 11
30.425
 21
133.05
  0
LINE
  5
39A
100
AcDbEntity
  8
0
100
AcDbLine
 62
7
  6
CONTINUOUS
 10
-23.525
 20
133.05
 11
-21.6811623876
 21
133.05
  0
LINE
  5
39B
100
AcDbEntity
  8
0
100
AcDbLine
 62
7
  6
CONTINUOUS
 10
-13.3688376124
 20
133.05
 11
-11.525
 21
133.05
  0
LINE
  5
39C
100
AcDbEntity
  8
0
100
AcDbLine
 62
7
  6
CONTINUOUS
 10
1.475
 20
133.05
 11
3.3188376124
 21
133.05
  0
LINE
  5
39D
100
AcDbEntity
  8
0
100
AcDbLine
 62
7
  6
CONTINUOUS
 10
-66.425
 20
133.1
 11
31.375
 21
133.1
  0
LINE
  5
39E
100
AcDbEntity
  8
0
100
AcDbLine
 62
7
  6
CONTINUOUS
 10
31.375
 20
134.1
 11
-66.425
 21
134.1
  0
LINE
  5
39F
100
AcDbEntity
  8
0
100
AcDbLine
 62
7
  6
CONTINUOUS
 10
-46.252796223
 20
135.1
 11
-39.1498577384
 21
135.1
  0
LINE
  5
3A0
100
AcDbEntity
  8
0
100
AcDbLine
 62
7
  6
CONTINUOUS
 10
4.0998577384
 20
135.1
 11
11.202796223
 21
135.1
  0
LINE
  5
3A1
100
AcDbEntity
  8
0
100
AcDbLine
 62
7
  6
CONTINUOUS
 10
-14.1498577384
 20
135.1
 11
-20.9001422616
 21
135.1
  0
LWPOLYLINE
  5
3A2
100
AcDbEntity
  8
0
100
AcDbPolyline
 62
7
  6
CONTINUOUS
 90
24
 70
0
 10
7.8755048878
 20
125.3284719615
 10
8.0554207992
 20
125.3148903369
 10
8.228230801
 20
125.2963412549
 10
8.3939348931
 20
125.2728247155
 10
8.5523038855
 20
125.2437806934
 10
8.7035669683
 20
125.2097692139
 10
8.8484117116
 20
125.172470353
 10
8.9869049281
 20
125.1319999125
 10
9.1189798052
 20
125.0882420907
 10
9.2451234753
 20
125.0425295585
 10
9.3652746855
 20
124.9949853986
 10
9.4794946887
 20
124.9454865283
 10
9.5884543766
 20
124.8949963704
 10
9.6921137027
 20
124.8436350514
 10
9.7905127133
 20
124.7912824449
 10
9.8844424399
 20
124.7385415941
 10
9.9738796911
 20
124.6855277026
 10
10.0588476582
 20
124.6321255667
 10
10.1402069463
 20
124.578592619
 10
10.2180706312
 20
124.5249315823
 10
10.2923256372
 20
124.4711397339
 10
10.3634933422
 20
124.4174663384
 10
10.4316480508
 20
124.363895098
 10
10.4967154584
 20
124.3104423106
  0
LINE
  5
3A3
100
AcDbEntity
  8
0
100
AcDbLine
 62
7
  6
CONTINUOUS
 10
-141.094705363
 20
-135.1
 11
-142.594705363
 21
-135.1
  0
LINE
  5
3A4
100
AcDbEntity
  8
0
100
AcDbLine
 62
250
  6
CONTINUOUS
 10
-141.094705363
 20
-134.7294095226
 11
-142.594705363
 21
-134.7294095226
  0
LINE
  5
3A5
100
AcDbEntity
  8
0
100
AcDbLine
 62
7
  6
CONTINUOUS
 10
-88.394705363
 20
-134.1
 11
-147.944705363
 21
-134.1
  0
LINE
  5
3A6
100
AcDbEntity
  8
0
100
AcDbLine
 62
7
  6
CONTINUOUS
 10
-147.944705363
 20
-133.1
 11
-128.444705363
 21
-133.1
  0
LINE
  5
3A7
100
AcDbEntity
  8
0
100
AcDbLine
 62
7
  6
CONTINUOUS
 10
-88.394705363
 20
-133.1
 11
-91.844705363
 21
-133.1
  0
LINE
  5
3A8
100
AcDbEntity
  8
0
100
AcDbLine
 62
7
  6
CONTINUOUS
 10
-93.644705363
 20
-133.1
 11
-109.244705363
 21
-133.1
  0
LINE
  5
3A9
100
AcDbEntity
  8
0
100
AcDbLine
 62
7
  6
CONTINUOUS
 10
-111.044705363
 20
-133.1
 11
-126.644705363
 21
-133.1
  0
LINE
  5
3AA
100
AcDbEntity
  8
0
100
AcDbLine
 62
7
  6
CONTINUOUS
 10
-147.944705363
 20
-133.05
 11
-128.444705363
 21
-133.05
  0
LINE
  5
3AB
100
AcDbEntity
  8
0
100
AcDbLine
 62
250
  6
CONTINUOUS
 10
-128.444705363
 20
-133.05
 11
-126.644705363
 21
-133.05
  0
LINE
  5
3AC
100
AcDbEntity
  8
0
100
AcDbLine
 62
7
  6
CONTINUOUS
 10
-126.644705363
 20
-133.05
 11
-111.044705363
 21
-133.05
  0
LINE
  5
3AD
100
AcDbEntity
  8
0
100
AcDbLine
 62
250
  6
CONTINUOUS
 10
-111.044705363
 20
-133.05
 11
-109.244705363
 21
-133.05
  0
LINE
  5
3AE
100
AcDbEntity
  8
0
100
AcDbLine
 62
250
  6
CONTINUOUS
 10
-93.644705363
 20
-133.05
 11
-91.844705363
 21
-133.05
  0
LINE
  5
3AF
100
AcDbEntity
  8
0
100
AcDbLine
 62
250
  6
CONTINUOUS
 10
-87.344705363
 20
-133.05
 11
-88.344705363
 21
-133.05
  0
LINE
  5
3B0
100
AcDbEntity
  8
0
100
AcDbLine
 62
7
  6
CONTINUOUS
 10
-88.394705363
 20
-133.05
 11
-91.844705363
 21
-133.05
  0
LINE
  5
3B1
100
AcDbEntity
  8
0
100
AcDbLine
 62
7
  6
CONTINUOUS
 10
-93.644705363
 20
-133.05
 11
-109.244705363
 21
-133.05
  0
LWPOLYLINE
  5
3B2
100
AcDbEntity
  8
0
100
AcDbPolyline
 62
7
  6
CONTINUOUS
 90
12
 70
0
 10
-118.3944113261
 20
-129.0999991171
 10
-118.337972465
 20
-129.0975562488
 10
-118.2640206994
 20
-129.0869191638
 10
-118.1894126649
 20
-129.0675093745
 10
-118.1162774421
 20
-129.039522705
 10
-118.0487393603
 20
-129.0049540023
 10
-117.987632412
 20
-128.9653602863
 10
-117.9321143974
 20
-128.9212524278
 10
-117.8827870967
 20
-128.8741915944
 10
-117.8392728924
 20
-128.8252813515
 10
-117.8005100646
 20
-128.7748948857
 10
-117.7905874741
 20
-128.7608419692
  0
LINE
  5
3B3
100
AcDbEntity
  8
0
100
AcDbLine
 62
7
  6
CONTINUOUS
 10
-88.394705363
 20
-123.3
 11
-87.344705363
 21
-123.3
  0
LWPOLYLINE
  5
3B4
100
AcDbEntity
  8
0
100
AcDbPolyline
 62
7
  6
CONTINUOUS
 90
10
 70
0
 43
0.3500000006
 10
-120.9661295471
 20
160.9500941162
 10
-121.6089920654
 20
160.3072406616
 10
-122.0375610352
 20
159.4500845947
 10
-122.0375610352
 20
158.3786621704
 10
-121.6089920654
 20
157.9500932007
 10
-120.9661295471
 20
157.9500932007
 10
-120.5375605774
 20
158.3786621704
 10
-120.5375605774
 20
159.2358001099
 10
-120.9661295471
 20
159.6643690796
 10
-121.8947077332
 20
159.6643690796
  0
LINE
  5
3B5
100
AcDbEntity
  8
0
100
AcDbLine
 62
7
  6
CONTINUOUS
 10
-88.394705363
 20
-121.5
 11
-87.344705363
 21
-121.5
  0
LINE
  5
3B6
100
AcDbEntity
  8
0
100
AcDbLine
 62
7
  6
CONTINUOUS
 10
-114.944705363
 20
-114.1
 11
-124.5752262633
 21
-114.1
  0
LWPOLYLINE
  5
3B7
100
AcDbEntity
  8
0
100
AcDbPolyline
 62
7
  6
CONTINUOUS
 90
10
 70
0
 43
0.3500000006
 10
-114.5375587463
 20
160.9500941162
 10
-115.1804212646
 20
160.3072406616
 10
-115.6089902344
 20
159.4500845947
 10
-115.6089902344
 20
158.3786621704
 10
-115.1804212646
 20
157.9500932007
 10
-114.5375587463
 20
157.9500932007
 10
-114.1089897766
 20
158.3786621704
 10
-114.1089897766
 20
159.2358001099
 10
-114.5375587463
 20
159.6643690796
 10
-115.4661369324
 20
159.6643690796
  0
LINE
  5
3B8
100
AcDbEntity
  8
0
100
AcDbLine
 62
7
  6
CONTINUOUS
 10
-142.944705363
 20
-112.1
 11
-114.944705363
 21
-112.1
  0
LINE
  5
3B9
100
AcDbEntity
  8
0
100
AcDbLine
 62
7
  6
CONTINUOUS
 10
-143.944705363
 20
-110.6
 11
-144.144705363
 21
-110.6
  0
LINE
  5
3BA
100
AcDbEntity
  8
0
100
AcDbLine
 62
7
  6
CONTINUOUS
 10
-115.744705363
 20
-109.6
 11
-116.144705363
 21
-109.6
  0
LINE
  5
3BB
100
AcDbEntity
  8
0
100
AcDbLine
 62
7
  6
CONTINUOUS
 10
-116.144705363
 20
-104.6
 11
-115.744705363
 21
-104.6
  0
LINE
  5
3BC
100
AcDbEntity
  8
0
100
AcDbLine
 62
7
  6
CONTINUOUS
 10
-144.144705363
 20
-103.6
 11
-143.944705363
 21
-103.6
  0
LWPOLYLINE
  5
3BD
100
AcDbEntity
  8
0
100
AcDbPolyline
 62
7
  6
CONTINUOUS
 90
7
 70
0
 10
-118.8426130741
 20
-128.93267795
 10
-118.7810421616
 20
-128.97889499
 10
-118.7108862164
 20
-129.0206285736
 10
-118.6331246651
 20
-129.0554879321
 10
-118.5527293751
 20
-129.0805180933
 10
-118.472359419
 20
-129.0952450151
 10
-118.3935194145
 20
-129.0999979864
  0
LINE
  5
3BE
100
AcDbEntity
  8
0
100
AcDbLine
 62
7
  6
CONTINUOUS
 10
-92.1443425958
 20
-102.1
 11
-142.944705363
 21
-102.1
  0
LINE
  5
3BF
100
AcDbEntity
  8
0
100
AcDbLine
 62
7
  6
CONTINUOUS
 10
-118.8972837601
 20
-128.882433711
 11
-118.8426130741
 21
-128.93267795
  0
LINE
  5
3C0
100
AcDbEntity
  8
0
100
AcDbLine
 62
7
  6
CONTINUOUS
 10
-88.394705363
 20
-92.7
 11
-87.344705363
 21
-92.7
  0
LINE
  5
3C1
100
AcDbEntity
  8
0
100
AcDbLine
 62
7
  6
CONTINUOUS
 10
-88.394705363
 20
-90.9
 11
-87.344705363
 21
-90.9
  0
LINE
  5
3C2
100
AcDbEntity
  8
0
100
AcDbLine
 62
7
  6
CONTINUOUS
 10
-118.9133673904
 20
-128.8647163597
 11
-118.8972837601
 21
-128.882433711
  0
LINE
  5
3C3
100
AcDbEntity
  8
ASSI
100
AcDbLine
 62
7
  6
CONTINUOUS
 10
-94.7140878009
 20
-70.7
 11
-95.2148867328
 21
-70.7
  0
LINE
  5
3C4
100
AcDbEntity
  8
ASSI
100
AcDbLine
 62
7
  6
CONTINUOUS
 10
-119.4745239931
 20
-70.7
 11
-119.9753229251
 21
-70.7
  0
LINE
  5
3C5
100
AcDbEntity
  8
ASSI
100
AcDbLine
 62
7
  6
CONTINUOUS
 10
-119.9753229251
 20
-69.3
 11
-119.4745239931
 21
-69.3
  0
LINE
  5
3C6
100
AcDbEntity
  8
ASSI
100
AcDbLine
 62
7
  6
CONTINUOUS
 10
-95.2148867328
 20
-69.3
 11
-94.7140878009
 21
-69.3
  0
LINE
  5
3C7
100
AcDbEntity
  8
0
100
AcDbLine
 62
7
  6
CONTINUOUS
 10
-88.394705363
 20
-62.1
 11
-87.344705363
 21
-62.1
  0
LINE
  5
3C8
100
AcDbEntity
  8
0
100
AcDbLine
 62
7
  6
CONTINUOUS
 10
-88.394705363
 20
-60.3
 11
-87.344705363
 21
-60.3
  0
LWPOLYLINE
  5
3C9
100
AcDbEntity
  8
0
100
AcDbPolyline
 62
7
  6
CONTINUOUS
 90
13
 70
0
 10
-118.0250913775
 20
-128.0725188106
 10
-118.0253953047
 20
-128.0719661438
 10
-118.0291998014
 20
-128.064804332
 10
-118.036385041
 20
-128.0498526371
 10
-118.045769985
 20
-128.0283913316
 10
-118.0570062106
 20
-128.0003922088
 10
-118.0699331373
 20
-127.9654976941
 10
-118.0839738009
 20
-127.924672034
 10
-118.0989670101
 20
-127.8779741776
 10
-118.1148610385
 20
-127.8251892615
 10
-118.1313879849
 20
-127.7669082797
 10
-118.1484750436
 20
-127.7031797294
 10
-118.1610589151
 20
-127.6537145602
  0
LWPOLYLINE
  5
3CA
100
AcDbEntity
  8
0
100
AcDbPolyline
 62
7
  6
CONTINUOUS
 90
3
 70
0
 43
0.3500000006
 10
-116.6089905396
 20
158.2357998047
 10
-116.6804217224
 20
158.0215153198
 10
-116.8232750244
 20
157.7358087158
  0
LWPOLYLINE
  5
3CB
100
AcDbEntity
  8
0
100
AcDbPolyline
 62
7
  6
CONTINUOUS
 90
3
 70
0
 43
0.3500000006
 10
-159.6574945679
 20
-0.0000003204
 10
-159.6574945679
 20
-1.4999996452
 10
-162.0146420288
 20
-0.8571427917
  0
LINE
  5
3CC
100
AcDbEntity
  8
0
100
AcDbLine
 62
7
  6
CONTINUOUS
 10
-147.944705363
 20
133.05
 11
-147.944705363
 21
-133.05
  0
LINE
  5
3CD
100
AcDbEntity
  8
0
100
AcDbLine
 62
7
  6
CONTINUOUS
 10
-147.944705363
 20
-133.1
 11
-147.944705363
 21
-134.1
  0
LINE
  5
3CE
100
AcDbEntity
  8
0
100
AcDbLine
 62
7
  6
CONTINUOUS
 10
-147.944705363
 20
133.1
 11
-147.944705363
 21
134.1
  0
LINE
  5
3CF
100
AcDbEntity
  8
0
100
AcDbLine
 62
7
  6
CONTINUOUS
 10
-145.144705363
 20
-109.6
 11
-145.144705363
 21
-104.6
  0
LINE
  5
3D0
100
AcDbEntity
  8
0
100
AcDbLine
 62
7
  6
CONTINUOUS
 10
-145.144705363
 20
104.6
 11
-145.144705363
 21
109.6
  0
LINE
  5
3D1
100
AcDbEntity
  8
0
100
AcDbLine
 62
7
  6
CONTINUOUS
 10
-88.394705363
 20
-31.5
 11
-87.344705363
 21
-31.5
  0
LINE
  5
3D2
100
AcDbEntity
  8
0
100
AcDbLine
 62
7
  6
CONTINUOUS
 10
-88.394705363
 20
-29.7
 11
-87.344705363
 21
-29.7
  0
LWPOLYLINE
  5
3D3
100
AcDbEntity
  8
0
100
AcDbPolyline
 62
7
  6
CONTINUOUS
 90
3
 70
0
 43
0.3500000006
 10
-161.1575040894
 20
-3.2142857208
 10
-162.0146420288
 20
-2.3571432495
 10
-159.0146411133
 20
-2.3571432495
  0
LWPOLYLINE
  5
3D4
100
AcDbEntity
  8
0
100
AcDbPolyline
 62
7
  6
CONTINUOUS
 90
16
 70
0
 10
-108.1946442946
 20
-128.2743463606
 10
-108.1941051511
 20
-128.2761417634
 10
-108.1934510656
 20
-128.2784484077
 10
-108.1937759713
 20
-128.2771850689
 10
-108.1946995838
 20
-128.2733175401
 10
-108.1961228614
 20
-128.2669258892
 10
-108.198023048
 20
-128.2577969424
 10
-108.2002263155
 20
-128.2465146447
 10
-108.2026887823
 20
-128.2331350618
 10
-108.2054020306
 20
-128.2175451157
 10
-108.2082792351
 20
-128.2001188206
 10
-108.2112939022
 20
-128.1809366326
 10
-108.2144483245
 20
-128.1599093426
 10
-108.2177132745
 20
-128.1371654045
 10
-108.2210803443
 20
-128.1127111007
 10
-108.2214777135
 20
-128.1097083987
  0
LINE
  5
3D5
100
AcDbEntity
  8
0
100
AcDbLine
 62
7
  6
CONTINUOUS
 10
-143.944705363
 20
-103.1
 11
-143.944705363
 21
-111.1
  0
LINE
  5
3D6
100
AcDbEntity
  8
0
100
AcDbLine
 62
7
  6
CONTINUOUS
 10
-143.944705363
 20
103.1
 11
-143.944705363
 21
111.1
  0
LINE
  5
3D7
100
AcDbEntity
  8
0
100
AcDbLine
 62
7
  6
CONTINUOUS
 10
-142.594705363
 20
133.1
 11
-142.594705363
 21
133.05
  0
LINE
  5
3D8
100
AcDbEntity
  8
0
100
AcDbLine
 62
7
  6
CONTINUOUS
 10
-142.594705363
 20
-135.1
 11
-142.594705363
 21
-134.1
  0
LINE
  5
3D9
100
AcDbEntity
  8
0
100
AcDbLine
 62
7
  6
CONTINUOUS
 10
-142.594705363
 20
-133.1
 11
-142.594705363
 21
-133.05
  0
LINE
  5
3DA
100
AcDbEntity
  8
0
100
AcDbLine
 62
7
  6
CONTINUOUS
 10
-142.594705363
 20
134.1
 11
-142.594705363
 21
135.1
  0
LINE
  5
3DB
100
AcDbEntity
  8
0
100
AcDbLine
 62
7
  6
CONTINUOUS
 10
-141.094705363
 20
135.1
 11
-141.094705363
 21
134.1
  0
LINE
  5
3DC
100
AcDbEntity
  8
0
100
AcDbLine
 62
7
  6
CONTINUOUS
 10
-141.094705363
 20
-134.1
 11
-141.094705363
 21
-135.1
  0
LINE
  5
3DD
100
AcDbEntity
  8
0
100
AcDbLine
 62
250
  6
CONTINUOUS
 10
-140.594705363
 20
133.1
 11
-140.594705363
 21
133.05
  0
LINE
  5
3DE
100
AcDbEntity
  8
0
100
AcDbLine
 62
250
  6
CONTINUOUS
 10
-140.594705363
 20
-133.1
 11
-140.594705363
 21
-133.05
  0
LINE
  5
3DF
100
AcDbEntity
  8
0
100
AcDbLine
 62
250
  6
CONTINUOUS
 10
-130.944705363
 20
134.1
 11
-130.944705363
 21
133.1
  0
LINE
  5
3E0
100
AcDbEntity
  8
0
100
AcDbLine
 62
250
  6
CONTINUOUS
 10
-130.944705363
 20
-134.1
 11
-130.944705363
 21
-133.1
  0
LINE
  5
3E1
100
AcDbEntity
  8
0
100
AcDbLine
 62
7
  6
CONTINUOUS
 10
-130.944705363
 20
-131.6
 11
-130.944705363
 21
-133.05
  0
LINE
  5
3E2
100
AcDbEntity
  8
0
100
AcDbLine
 62
7
  6
CONTINUOUS
 10
-130.944705363
 20
131.6
 11
-130.944705363
 21
133.05
  0
LINE
  5
3E3
100
AcDbEntity
  8
0
100
AcDbLine
 62
7
  6
CONTINUOUS
 10
-128.444705363
 20
-133.05
 11
-128.444705363
 21
-134.1
  0
LINE
  5
3E4
100
AcDbEntity
  8
0
100
AcDbLine
 62
7
  6
CONTINUOUS
 10
-128.144705363
 20
133.05
 11
-128.144705363
 21
134.1
  0
LINE
  5
3E5
100
AcDbEntity
  8
0
100
AcDbLine
 62
7
  6
CONTINUOUS
 10
-126.644705363
 20
-133.05
 11
-126.644705363
 21
-134.1
  0
LINE
  5
3E6
100
AcDbEntity
  8
0
100
AcDbLine
 62
7
  6
CONTINUOUS
 10
-126.344705363
 20
133.05
 11
-126.344705363
 21
134.1
  0
LWPOLYLINE
  5
3E7
100
AcDbEntity
  8
0
100
AcDbPolyline
 62
7
  6
CONTINUOUS
 90
13
 70
0
 43
0.3500000006
 10
-119.6804226379
 20
158.8072311401
 10
-119.6804226379
 20
160.0929561768
 10
-119.4661381531
 20
160.5215251465
 10
-119.0375601196
 20
160.9500941162
 10
-118.8232756348
 20
160.9500941162
 10
-118.394706665
 20
160.5215251465
 10
-118.1804221802
 20
160.0929561768
 10
-118.1804221802
 20
158.8072311401
 10
-118.394706665
 20
158.3786621704
 10
-118.8232756348
 20
157.9500932007
 10
-119.0375601196
 20
157.9500932007
 10
-119.4661381531
 20
158.3786621704
 10
-119.6804226379
 20
158.8072311401
  0
LINE
  5
3E8
100
AcDbEntity
  8
0
100
AcDbLine
 62
7
  6
CONTINUOUS
 10
-116.944705363
 20
-108.8
 11
-116.944705363
 21
-105.4
  0
LINE
  5
3E9
100
AcDbEntity
  8
0
100
AcDbLine
 62
7
  6
CONTINUOUS
 10
-116.944705363
 20
105.4
 11
-116.944705363
 21
108.8
  0
LINE
  5
3EA
100
AcDbEntity
  8
0
100
AcDbLine
 62
7
  6
CONTINUOUS
 10
-88.394705363
 20
-0.9
 11
-87.344705363
 21
-0.9
  0
LWPOLYLINE
  5
3EB
100
AcDbEntity
  8
0
100
AcDbPolyline
 62
7
  6
CONTINUOUS
 90
2
 70
0
 43
0.3500000006
 10
-159.0146411133
 20
-0.500000473
 10
-160.5146325073
 20
-0.500000473
  0
LWPOLYLINE
  5
3EC
100
AcDbEntity
  8
0
100
AcDbPolyline
 62
7
  6
CONTINUOUS
 90
13
 70
0
 43
0.3500000006
 10
-159.8717790527
 20
0.8571421509
 10
-161.1575040894
 20
0.8571421509
 10
-161.5860730591
 20
1.0714289017
 10
-162.0146420288
 20
1.5000001373
 10
-162.0146420288
 20
1.7142846222
 10
-161.5860730591
 20
2.1428581238
 10
-161.1575040894
 20
2.3571426086
 10
-159.8717790527
 20
2.3571426086
 10
-159.443210083
 20
2.1428581238
 10
-159.0146411133
 20
1.7142846222
 10
-159.0146411133
 20
1.5000001373
 10
-159.443210083
 20
1.0714289017
 10
-159.8717790527
 20
0.8571421509
  0
LINE
  5
3ED
100
AcDbEntity
  8
0
100
AcDbLine
 62
7
  6
CONTINUOUS
 10
-88.394705363
 20
0.9
 11
-87.344705363
 21
0.9
  0
LINE
  5
3EE
100
AcDbEntity
  8
0
100
AcDbLine
 62
7
  6
CONTINUOUS
 10
-114.944705363
 20
114.1
 11
-114.944705363
 21
112.1
  0
LINE
  5
3EF
100
AcDbEntity
  8
0
100
AcDbLine
 62
7
  6
CONTINUOUS
 10
-114.944705363
 20
108.8
 11
-114.944705363
 21
105.4
  0
LINE
  5
3F0
100
AcDbEntity
  8
0
100
AcDbLine
 62
7
  6
CONTINUOUS
 10
-114.944705363
 20
-105.4
 11
-114.944705363
 21
-108.8
  0
LINE
  5
3F1
100
AcDbEntity
  8
0
100
AcDbLine
 62
7
  6
CONTINUOUS
 10
-114.944705363
 20
-112.1
 11
-114.944705363
 21
-114.1
  0
LINE
  5
3F2
100
AcDbEntity
  8
0
100
AcDbLine
 62
7
  6
CONTINUOUS
 10
-111.044705363
 20
-133.05
 11
-111.044705363
 21
-134.1
  0
LINE
  5
3F3
100
AcDbEntity
  8
0
100
AcDbLine
 62
7
  6
CONTINUOUS
 10
-111.044705363
 20
133.05
 11
-111.044705363
 21
134.1
  0
LINE
  5
3F4
100
AcDbEntity
  8
0
100
AcDbLine
 62
7
  6
CONTINUOUS
 10
-109.244705363
 20
-133.05
 11
-109.244705363
 21
-134.1
  0
LINE
  5
3F5
100
AcDbEntity
  8
0
100
AcDbLine
 62
7
  6
CONTINUOUS
 10
-109.244705363
 20
133.05
 11
-109.244705363
 21
134.1
  0
LINE
  5
3F6
100
AcDbEntity
  8
0
100
AcDbLine
 62
7
  6
CONTINUOUS
 10
-89.4365684597
 20
-133.05
 11
-92.1443425958
 21
-102.1
  0
LWPOLYLINE
  5
3F7
100
AcDbEntity
  8
0
100
AcDbPolyline
 62
7
  6
CONTINUOUS
 90
3
 70
0
 10
-108.0510378208
 20
-128.0527939367
 10
-108.0476618972
 20
-128.0118550415
 10
-108.0439147666
 20
-127.9643112679
  0
LINE
  5
3F8
100
AcDbEntity
  8
0
100
AcDbLine
 62
7
  6
CONTINUOUS
 10
-89.4365684597
 20
133.05
 11
-92.1443425958
 21
102.1
  0
LWPOLYLINE
  5
3F9
100
AcDbEntity
  8
0
100
AcDbPolyline
 62
7
  6
CONTINUOUS
 90
13
 70
0
 43
0.3500000006
 10
-97.3447047729
 20
148.8072280884
 10
-97.3447047729
 20
150.092953125
 10
-97.1304202881
 20
150.5215220947
 10
-96.7018513184
 20
150.9500910645
 10
-96.4875668335
 20
150.9500910645
 10
-96.0589888
 20
150.5215220947
 10
-95.8447043152
 20
150.092953125
 10
-95.8447043152
 20
148.8072280884
 10
-96.0589888
 20
148.3786591187
 10
-96.4875668335
 20
147.9500901489
 10
-96.7018513184
 20
147.9500901489
 10
-97.1304202881
 20
148.3786591187
 10
-97.3447047729
 20
148.8072280884
  0
LINE
  5
3FA
100
AcDbEntity
  8
0
100
AcDbLine
 62
7
  6
CONTINUOUS
 10
-93.944705363
 20
133.05
 11
-93.944705363
 21
134.1
  0
LINE
  5
3FB
100
AcDbEntity
  8
0
100
AcDbLine
 62
7
  6
CONTINUOUS
 10
-93.644705363
 20
-133.05
 11
-93.644705363
 21
-134.1
  0
LINE
  5
3FC
100
AcDbEntity
  8
0
100
AcDbLine
 62
7
  6
CONTINUOUS
 10
-92.144705363
 20
133.05
 11
-92.144705363
 21
134.1
  0
LINE
  5
3FD
100
AcDbEntity
  8
0
100
AcDbLine
 62
7
  6
CONTINUOUS
 10
-91.844705363
 20
-133.05
 11
-91.844705363
 21
-134.1
  0
LINE
  5
3FE
100
AcDbEntity
  8
0
100
AcDbLine
 62
7
  6
CONTINUOUS
 10
-89.344705363
 20
134.1
 11
-89.344705363
 21
133.1
  0
LINE
  5
3FF
100
AcDbEntity
  8
0
100
AcDbLine
 62
7
  6
CONTINUOUS
 10
-89.344705363
 20
-134.1
 11
-89.344705363
 21
-133.1
  0
LINE
  5
400
100
AcDbEntity
  8
0
100
AcDbLine
 62
250
  6
CONTINUOUS
 10
-88.394705363
 20
134.1
 11
-88.394705363
 21
133.1
  0
LINE
  5
401
100
AcDbEntity
  8
0
100
AcDbLine
 62
250
  6
CONTINUOUS
 10
-88.394705363
 20
-134.1
 11
-88.394705363
 21
-133.1
  0
LINE
  5
402
100
AcDbEntity
  8
0
100
AcDbLine
 62
7
  6
CONTINUOUS
 10
-88.394705363
 20
-133.05
 11
-88.394705363
 21
-123.3
  0
LINE
  5
403
100
AcDbEntity
  8
0
100
AcDbLine
 62
250
  6
CONTINUOUS
 10
-88.394705363
 20
-123.3
 11
-88.394705363
 21
-121.5
  0
LINE
  5
404
100
AcDbEntity
  8
0
100
AcDbLine
 62
7
  6
CONTINUOUS
 10
-88.394705363
 20
-121.5
 11
-88.394705363
 21
-92.7
  0
LINE
  5
405
100
AcDbEntity
  8
0
100
AcDbLine
 62
250
  6
CONTINUOUS
 10
-88.394705363
 20
-92.7
 11
-88.394705363
 21
-90.9
  0
LINE
  5
406
100
AcDbEntity
  8
0
100
AcDbLine
 62
7
  6
CONTINUOUS
 10
-88.394705363
 20
-90.9
 11
-88.394705363
 21
-62.1
  0
LINE
  5
407
100
AcDbEntity
  8
0
100
AcDbLine
 62
250
  6
CONTINUOUS
 10
-88.394705363
 20
-62.1
 11
-88.394705363
 21
-60.3
  0
LINE
  5
408
100
AcDbEntity
  8
0
100
AcDbLine
 62
7
  6
CONTINUOUS
 10
-88.394705363
 20
-60.3
 11
-88.394705363
 21
-31.5
  0
LINE
  5
409
100
AcDbEntity
  8
0
100
AcDbLine
 62
250
  6
CONTINUOUS
 10
-88.394705363
 20
-31.5
 11
-88.394705363
 21
-29.7
  0
LINE
  5
40A
100
AcDbEntity
  8
0
100
AcDbLine
 62
7
  6
CONTINUOUS
 10
-88.394705363
 20
-29.7
 11
-88.394705363
 21
-0.9
  0
LINE
  5
40B
100
AcDbEntity
  8
0
100
AcDbLine
 62
250
  6
CONTINUOUS
 10
-88.394705363
 20
-0.9
 11
-88.394705363
 21
0.9
  0
LINE
  5
40C
100
AcDbEntity
  8
0
100
AcDbLine
 62
7
  6
CONTINUOUS
 10
-88.394705363
 20
0.9
 11
-88.394705363
 21
29.7
  0
LINE
  5
40D
100
AcDbEntity
  8
0
100
AcDbLine
 62
250
  6
CONTINUOUS
 10
-88.394705363
 20
29.7
 11
-88.394705363
 21
31.5
  0
LINE
  5
40E
100
AcDbEntity
  8
0
100
AcDbLine
 62
7
  6
CONTINUOUS
 10
-88.394705363
 20
31.5
 11
-88.394705363
 21
60.3
  0
LINE
  5
40F
100
AcDbEntity
  8
0
100
AcDbLine
 62
250
  6
CONTINUOUS
 10
-88.394705363
 20
60.3
 11
-88.394705363
 21
62.1
  0
LINE
  5
410
100
AcDbEntity
  8
0
100
AcDbLine
 62
7
  6
CONTINUOUS
 10
-88.394705363
 20
62.1
 11
-88.394705363
 21
90.9
  0
LINE
  5
411
100
AcDbEntity
  8
0
100
AcDbLine
 62
250
  6
CONTINUOUS
 10
-88.394705363
 20
90.9
 11
-88.394705363
 21
92.7
  0
LINE
  5
412
100
AcDbEntity
  8
0
100
AcDbLine
 62
7
  6
CONTINUOUS
 10
-88.394705363
 20
92.7
 11
-88.394705363
 21
121.5
  0
LINE
  5
413
100
AcDbEntity
  8
0
100
AcDbLine
 62
250
  6
CONTINUOUS
 10
-88.394705363
 20
121.5
 11
-88.394705363
 21
123.3
  0
LINE
  5
414
100
AcDbEntity
  8
0
100
AcDbLine
 62
7
  6
CONTINUOUS
 10
-88.394705363
 20
123.3
 11
-88.394705363
 21
133.05
  0
LINE
  5
415
100
AcDbEntity
  8
0
100
AcDbLine
 62
7
  6
CONTINUOUS
 10
-88.344705363
 20
133.05
 11
-88.344705363
 21
123.3
  0
LINE
  5
416
100
AcDbEntity
  8
0
100
AcDbLine
 62
7
  6
CONTINUOUS
 10
-88.344705363
 20
121.5
 11
-88.344705363
 21
92.7
  0
LINE
  5
417
100
AcDbEntity
  8
0
100
AcDbLine
 62
7
  6
CONTINUOUS
 10
-88.344705363
 20
90.9
 11
-88.344705363
 21
62.1
  0
LINE
  5
418
100
AcDbEntity
  8
0
100
AcDbLine
 62
7
  6
CONTINUOUS
 10
-88.344705363
 20
-133.05
 11
-88.344705363
 21
-123.3
  0
LINE
  5
419
100
AcDbEntity
  8
0
100
AcDbLine
 62
7
  6
CONTINUOUS
 10
-88.344705363
 20
60.3
 11
-88.344705363
 21
31.5
  0
LINE
  5
41A
100
AcDbEntity
  8
0
100
AcDbLine
 62
7
  6
CONTINUOUS
 10
-88.344705363
 20
29.7
 11
-88.344705363
 21
0.9
  0
LINE
  5
41B
100
AcDbEntity
  8
0
100
AcDbLine
 62
7
  6
CONTINUOUS
 10
-88.344705363
 20
-0.9
 11
-88.344705363
 21
-29.7
  0
LINE
  5
41C
100
AcDbEntity
  8
0
100
AcDbLine
 62
7
  6
CONTINUOUS
 10
-88.344705363
 20
-31.5
 11
-88.344705363
 21
-60.3
  0
LINE
  5
41D
100
AcDbEntity
  8
0
100
AcDbLine
 62
7
  6
CONTINUOUS
 10
-88.344705363
 20
-62.1
 11
-88.344705363
 21
-90.9
  0
LINE
  5
41E
100
AcDbEntity
  8
0
100
AcDbLine
 62
7
  6
CONTINUOUS
 10
-88.344705363
 20
-92.7
 11
-88.344705363
 21
-121.5
  0
LINE
  5
41F
100
AcDbEntity
  8
0
100
AcDbLine
 62
7
  6
CONTINUOUS
 10
-88.394705363
 20
29.7
 11
-87.344705363
 21
29.7
  0
LINE
  5
420
100
AcDbEntity
  8
0
100
AcDbLine
 62
7
  6
CONTINUOUS
 10
-87.344705363
 20
-133.05
 11
-87.344705363
 21
133.05
  0
LINE
  5
421
100
AcDbEntity
  8
0
100
AcDbLine
 62
7
  6
CONTINUOUS
 10
-124.5752262633
 20
-114.1
 11
-130.944705363
 21
-131.6
  0
LINE
  5
422
100
AcDbEntity
  8
0
100
AcDbLine
 62
7
  6
CONTINUOUS
 10
-88.394705363
 20
31.5
 11
-87.344705363
 21
31.5
  0
LINE
  5
423
100
AcDbEntity
  8
0
100
AcDbLine
 62
7
  6
CONTINUOUS
 10
-130.944705363
 20
131.6
 11
-124.5752262633
 21
114.1
  0
LINE
  5
424
100
AcDbEntity
  8
0
100
AcDbLine
 62
7
  6
CONTINUOUS
 10
-88.394705363
 20
60.3
 11
-87.344705363
 21
60.3
  0
LINE
  5
425
100
AcDbEntity
  8
0
100
AcDbLine
 62
7
  6
CONTINUOUS
 10
-88.394705363
 20
62.1
 11
-87.344705363
 21
62.1
  0
LWPOLYLINE
  5
426
100
AcDbEntity
  8
0
100
AcDbPolyline
 62
250
  6
CONTINUOUS
 90
18
 70
0
 10
-117.7905874741
 20
-128.7608419692
 10
-117.7655540581
 20
-128.7214986559
 10
-117.7343888567
 20
-128.660184375
 10
-117.7104765518
 20
-128.595858494
 10
-117.6941414934
 20
-128.5292747825
 10
-117.6857707205
 20
-128.4612177469
 10
-117.6857707188
 20
-128.3926521979
 10
-117.6941415125
 20
-128.3245950314
 10
-117.7104766979
 20
-128.258010949
 10
-117.7343892672
 20
-128.1936846063
 10
-117.7655547163
 20
-128.1323701322
 10
-117.8036683494
 20
-128.0748939088
 10
-117.8483465166
 20
-128.0222197838
 10
-117.8991217581
 20
-127.9752717436
 10
-117.9552208136
 20
-127.9345927992
 10
-118.0157687793
 20
-127.9005119009
 10
-118.0798848373
 20
-127.8733767284
 10
-118.1023605647
 20
-127.8667040019
  0
LWPOLYLINE
  5
427
100
AcDbEntity
  8
0
100
AcDbPolyline
 62
7
  6
CONTINUOUS
 90
12
 70
0
 10
-117.7923104312
 20
-128.7633150702
 10
-117.7582758195
 20
-128.7114571993
 10
-117.7065523588
 20
-128.6194798623
 10
-117.6600645431
 20
-128.5210188194
 10
-117.6177511269
 20
-128.4165199611
 10
-117.5779700288
 20
-128.3041483409
 10
-117.5390987141
 20
-128.1803918274
 10
-117.5005510056
 20
-128.0436838195
 10
-117.4622440176
 20
-127.8939647025
 10
-117.4240420608
 20
-127.7310436226
 10
-117.3858710464
 20
-127.5550131444
 10
-117.359665681
 20
-127.4253946092
  0
LINE
  5
428
100
AcDbEntity
  8
0
100
AcDbLine
 62
7
  6
CONTINUOUS
 10
-117.7923104312
 20
-128.7633150702
 11
-117.7905874741
 21
-128.7608419692
  0
LINE
  5
429
100
AcDbEntity
  8
ASSI
100
AcDbLine
 62
7
  6
CONTINUOUS
 10
-94.7140878009
 20
69.3
 11
-95.2148867328
 21
69.3
  0
LINE
  5
42A
100
AcDbEntity
  8
ASSI
100
AcDbLine
 62
7
  6
CONTINUOUS
 10
-119.4745239931
 20
69.3
 11
-119.9753229251
 21
69.3
  0
LINE
  5
42B
100
AcDbEntity
  8
ASSI
100
AcDbLine
 62
7
  6
CONTINUOUS
 10
-119.9753229251
 20
70.7
 11
-119.4745239931
 21
70.7
  0
LINE
  5
42C
100
AcDbEntity
  8
ASSI
100
AcDbLine
 62
7
  6
CONTINUOUS
 10
-95.2148867328
 20
70.7
 11
-94.7140878009
 21
70.7
  0
LWPOLYLINE
  5
42D
100
AcDbEntity
  8
0
100
AcDbPolyline
 62
7
  6
CONTINUOUS
 90
10
 70
0
 43
0.3500000006
 10
-116.6804217224
 20
158.4500842896
 10
-116.6089905396
 20
158.3072400513
 10
-116.6089905396
 20
158.2357998047
 10
-116.7518438416
 20
158.0929555664
 10
-116.8232750244
 20
158.0929555664
 10
-116.8947062073
 20
158.1643776855
 10
-116.8947062073
 20
158.2357998047
 10
-116.8232750244
 20
158.3786621704
 10
-116.7518438416
 20
158.4500842896
 10
-116.6804217224
 20
158.4500842896
  0
LINE
  5
42E
100
AcDbEntity
  8
0
100
AcDbLine
 62
7
  6
CONTINUOUS
 10
-88.394705363
 20
90.9
 11
-87.344705363
 21
90.9
  0
LINE
  5
42F
100
AcDbEntity
  8
0
100
AcDbLine
 62
7
  6
CONTINUOUS
 10
-88.394705363
 20
92.7
 11
-87.344705363
 21
92.7
  0
LINE
  5
430
100
AcDbEntity
  8
0
100
AcDbLine
 62
7
  6
CONTINUOUS
 10
-92.1443425958
 20
102.1
 11
-142.944705363
 21
102.1
  0
LINE
  5
431
100
AcDbEntity
  8
0
100
AcDbLine
 62
7
  6
CONTINUOUS
 10
-143.944705363
 20
103.6
 11
-144.144705363
 21
103.6
  0
LINE
  5
432
100
AcDbEntity
  8
0
100
AcDbLine
 62
7
  6
CONTINUOUS
 10
-115.744705363
 20
104.6
 11
-116.144705363
 21
104.6
  0
LINE
  5
433
100
AcDbEntity
  8
0
100
AcDbLine
 62
7
  6
CONTINUOUS
 10
-116.144705363
 20
109.6
 11
-115.744705363
 21
109.6
  0
LINE
  5
434
100
AcDbEntity
  8
0
100
AcDbLine
 62
7
  6
CONTINUOUS
 10
-144.144705363
 20
110.6
 11
-143.944705363
 21
110.6
  0
LINE
  5
435
100
AcDbEntity
  8
0
100
AcDbLine
 62
7
  6
CONTINUOUS
 10
-114.944705363
 20
112.1
 11
-142.944705363
 21
112.1
  0
LINE
  5
436
100
AcDbEntity
  8
0
100
AcDbLine
 62
7
  6
CONTINUOUS
 10
-124.5752262633
 20
114.1
 11
-114.944705363
 21
114.1
  0
LWPOLYLINE
  5
437
100
AcDbEntity
  8
0
100
AcDbPolyline
 62
7
  6
CONTINUOUS
 90
30
 70
0
 10
-108.5376677876
 20
-129.0658194631
 10
-108.4758036765
 20
-129.0404868587
 10
-108.418716555
 20
-129.0097701408
 10
-108.3664622812
 20
-128.9742771667
 10
-108.3196053965
 20
-128.9349190602
 10
-108.2791158367
 20
-128.8933652101
 10
-108.244471956
 20
-128.8504727958
 10
-108.2151686779
 20
-128.8071677141
 10
-108.1913797573
 20
-128.7655674035
 10
-108.1725391875
 20
-128.7269787583
 10
-108.1574272019
 20
-128.6910836469
 10
-108.1451313767
 20
-128.6574944958
 10
-108.1352478329
 20
-128.6267436906
 10
-108.1271708685
 20
-128.5984596316
 10
-108.1200949214
 20
-128.5708222594
 10
-108.1137818298
 20
-128.5434888805
 10
-108.1081546352
 20
-128.5166698886
 10
-108.1029213594
 20
-128.4893878263
 10
-108.0979863363
 20
-128.4613801577
 10
-108.0933325429
 20
-128.4327675502
 10
-108.0888765877
 20
-128.4032275285
 10
-108.0845829525
 20
-128.372662973
 10
-108.0804399306
 20
-128.3411195708
 10
-108.0764304788
 20
-128.3085944957
 10
-108.0725514961
 20
-128.2751895254
 10
-108.0687836543
 20
-128.2408597467
 10
-108.0650980736
 20
-128.2054360591
 10
-108.0614867968
 20
-128.1689152365
 10
-108.0579476099
 20
-128.1313459015
 10
-108.0510378208
 20
-128.0527939367
  0
LINE
  5
438
100
AcDbEntity
  8
0
100
AcDbLine
 62
7
  6
CONTINUOUS
 10
-88.394705363
 20
121.5
 11
-87.344705363
 21
121.5
  0
LINE
  5
439
100
AcDbEntity
  8
0
100
AcDbLine
 62
7
  6
CONTINUOUS
 10
-88.394705363
 20
123.3
 11
-87.344705363
 21
123.3
  0
LINE
  5
43A
100
AcDbEntity
  8
0
100
AcDbLine
 62
7
  6
CONTINUOUS
 10
-108.5917496797
 20
-129.0813905121
 11
-108.5376677876
 21
-129.0658194631
  0
LINE
  5
43B
100
AcDbEntity
  8
0
100
AcDbLine
 62
250
  6
CONTINUOUS
 10
-128.144705363
 20
133.05
 11
-126.344705363
 21
133.05
  0
LINE
  5
43C
100
AcDbEntity
  8
0
100
AcDbLine
 62
7
  6
CONTINUOUS
 10
-126.344705363
 20
133.05
 11
-111.044705363
 21
133.05
  0
LINE
  5
43D
100
AcDbEntity
  8
0
100
AcDbLine
 62
250
  6
CONTINUOUS
 10
-111.044705363
 20
133.05
 11
-109.244705363
 21
133.05
  0
LINE
  5
43E
100
AcDbEntity
  8
0
100
AcDbLine
 62
250
  6
CONTINUOUS
 10
-93.944705363
 20
133.05
 11
-92.144705363
 21
133.05
  0
LINE
  5
43F
100
AcDbEntity
  8
0
100
AcDbLine
 62
250
  6
CONTINUOUS
 10
-87.344705363
 20
133.05
 11
-88.344705363
 21
133.05
  0
LINE
  5
440
100
AcDbEntity
  8
0
100
AcDbLine
 62
7
  6
CONTINUOUS
 10
-88.394705363
 20
133.05
 11
-92.144705363
 21
133.05
  0
LINE
  5
441
100
AcDbEntity
  8
0
100
AcDbLine
 62
7
  6
CONTINUOUS
 10
-93.944705363
 20
133.05
 11
-109.244705363
 21
133.05
  0
LINE
  5
442
100
AcDbEntity
  8
0
100
AcDbLine
 62
7
  6
CONTINUOUS
 10
-128.144705363
 20
133.05
 11
-147.944705363
 21
133.05
  0
LINE
  5
443
100
AcDbEntity
  8
0
100
AcDbLine
 62
7
  6
CONTINUOUS
 10
-147.944705363
 20
133.1
 11
-128.144705363
 21
133.1
  0
LINE
  5
444
100
AcDbEntity
  8
0
100
AcDbLine
 62
7
  6
CONTINUOUS
 10
-126.344705363
 20
133.1
 11
-111.044705363
 21
133.1
  0
LINE
  5
445
100
AcDbEntity
  8
0
100
AcDbLine
 62
7
  6
CONTINUOUS
 10
-109.244705363
 20
133.1
 11
-93.944705363
 21
133.1
  0
LINE
  5
446
100
AcDbEntity
  8
0
100
AcDbLine
 62
7
  6
CONTINUOUS
 10
-92.144705363
 20
133.1
 11
-88.394705363
 21
133.1
  0
LINE
  5
447
100
AcDbEntity
  8
0
100
AcDbLine
 62
7
  6
CONTINUOUS
 10
-88.394705363
 20
134.1
 11
-147.944705363
 21
134.1
  0
LINE
  5
448
100
AcDbEntity
  8
0
100
AcDbLine
 62
250
  6
CONTINUOUS
 10
-142.594705363
 20
134.6868240888
 11
-141.094705363
 21
134.6868240888
  0
LINE
  5
449
100
AcDbEntity
  8
0
100
AcDbLine
 62
7
  6
CONTINUOUS
 10
-142.594705363
 20
135.1
 11
-141.094705363
 21
135.1
  0
LWPOLYLINE
  5
44A
100
AcDbEntity
  8
0
100
AcDbPolyline
 62
7
  6
CONTINUOUS
 90
7
 70
0
 43
0.3500000006
 10
-98.2018517761
 20
147.9500901489
 10
-99.7018522339
 20
147.9500901489
 10
-98.2018517761
 20
150.092953125
 10
-98.2018517761
 20
150.5215220947
 10
-98.6304207458
 20
150.9500910645
 10
-99.2732742004
 20
150.9500910645
 10
-99.7018522339
 20
150.3072376099
  0
ARC
  5
44B
100
AcDbEntity
  8
0
100
AcDbCircle
 62
7
  6
CONTINUOUS
 10
-66.425
 20
-133.05
 40
1.05
100
AcDbArc
 50
180.0
 51
270.0
  0
ARC
  5
44C
100
AcDbEntity
  8
RACCORDO
100
AcDbCircle
 62
7
  6
CONTINUOUS
 10
-45.7041004864
 20
-128.35
 40
1.0
100
AcDbArc
 50
51.3478573985
 51
90.0
  0
ARC
  5
44D
100
AcDbEntity
  8
RACCORDO
100
AcDbCircle
 62
7
  6
CONTINUOUS
 10
-47.3126205218
 20
-126.35
 40
1.0
100
AcDbArc
 50
204.8345874897
 51
270.0
  0
CIRCLE
  5
44E
100
AcDbEntity
  8
ASSI
100
AcDbCircle
 62
7
  6
CONTINUOUS
 10
-47.075
 20
-125.9
 40
0.6
  0
ARC
  5
44F
100
AcDbEntity
  8
0
100
AcDbCircle
 62
7
  6
CONTINUOUS
 10
-53.1054381211
 20
-134.6
 40
0.5
100
AcDbArc
 50
195.0
 51
270.0
  0
ARC
  5
450
100
AcDbEntity
  8
0
100
AcDbCircle
 62
7
  6
CONTINUOUS
 10
-45.9445618789
 20
-134.6
 40
0.5
100
AcDbArc
 50
270.0
 51
345.0
  0
ARC
  5
451
100
AcDbEntity
  8
RACCORDO
100
AcDbCircle
 62
7
  6
CONTINUOUS
 10
-46.130219814
 20
-124.8
 40
0.2
100
AcDbArc
 50
9.3093409216
 51
90.0
  0
ARC
  5
452
100
AcDbEntity
  8
RACCORDO
100
AcDbCircle
 62
7
  6
CONTINUOUS
 10
-48.5488635245
 20
-124.8
 40
0.2
100
AcDbArc
 50
90.0
 51
185.4413964306
  0
ARC
  5
453
100
AcDbEntity
  8
0
100
AcDbCircle
 62
7
  6
CONTINUOUS
 10
-66.425
 20
-133.05
 40
0.05
100
AcDbArc
 50
180.0
 51
270.0
  0
ARC
  5
454
100
AcDbEntity
  8
RACCORDO
100
AcDbCircle
 62
7
  6
CONTINUOUS
 10
-45.7041004864
 20
-120.15
 40
1.0
100
AcDbArc
 50
270.0
 51
308.6521426015
  0
ARC
  5
455
100
AcDbEntity
  8
RACCORDO
100
AcDbCircle
 62
7
  6
CONTINUOUS
 10
-47.3126205218
 20
-122.15
 40
1.0
100
AcDbArc
 50
90.0
 51
155.1654125103
  0
CIRCLE
  5
456
100
AcDbEntity
  8
ASSI
100
AcDbCircle
 62
7
  6
CONTINUOUS
 10
-47.075
 20
-122.6
 40
0.6
  0
ARC
  5
457
100
AcDbEntity
  8
RACCORDO
100
AcDbCircle
 62
7
  6
CONTINUOUS
 10
-46.130219814
 20
-123.7
 40
0.2
100
AcDbArc
 50
270.0
 51
350.6906590784
  0
ARC
  5
458
100
AcDbEntity
  8
RACCORDO
100
AcDbCircle
 62
7
  6
CONTINUOUS
 10
-48.5488635245
 20
-123.7
 40
0.2
100
AcDbArc
 50
174.5586035694
 51
270.0
  0
ARC
  5
459
100
AcDbEntity
  8
RACCORDO
100
AcDbCircle
 62
7
  6
CONTINUOUS
 10
-42.775
 20
-124.25
 40
6.0
100
AcDbArc
 50
185.4413964306
 51
204.8345874897
  0
ARC
  5
45A
100
AcDbEntity
  8
RACCORDO
100
AcDbCircle
 62
7
  6
CONTINUOUS
 10
-42.775
 20
-124.25
 40
6.0
100
AcDbArc
 50
155.1654125103
 51
174.5586035694
  0
ARC
  5
45B
100
AcDbEntity
  8
RACCORDO
100
AcDbCircle
 62
7
  6
CONTINUOUS
 10
-42.425
 20
-124.25
 40
4.25
100
AcDbArc
 50
231.3478573985
 51
128.6521426015
  0
ARC
  5
45C
100
AcDbEntity
  8
SMUSSO
100
AcDbCircle
 62
7
  6
CONTINUOUS
 10
-42.775
 20
-124.25
 40
3.45
100
AcDbArc
 50
209.591845794
 51
240.408154206
  0
ARC
  5
45D
100
AcDbEntity
  8
SMUSSO
100
AcDbCircle
 62
7
  6
CONTINUOUS
 10
-42.775
 20
-124.25
 40
3.45
100
AcDbArc
 50
299.591845794
 51
330.408154206
  0
ARC
  5
45E
100
AcDbEntity
  8
SMUSSO
100
AcDbCircle
 62
7
  6
CONTINUOUS
 10
-42.775
 20
-124.25
 40
3.45
100
AcDbArc
 50
119.591845794
 51
150.408154206
  0
ARC
  5
45F
100
AcDbEntity
  8
SMUSSO
100
AcDbCircle
 62
7
  6
CONTINUOUS
 10
-42.775
 20
-124.25
 40
3.45
100
AcDbArc
 50
29.591845794
 51
60.408154206
  0
ARC
  5
460
100
AcDbEntity
  8
RACCORDO
100
AcDbCircle
 62
7
  6
CONTINUOUS
 10
-42.775
 20
-124.25
 40
3.2
100
AcDbArc
 50
159.6606480692
 51
170.6906590784
  0
ARC
  5
461
100
AcDbEntity
  8
RACCORDO
100
AcDbCircle
 62
7
  6
CONTINUOUS
 10
-42.775
 20
-124.25
 40
3.2
100
AcDbArc
 50
69.8205807249
 51
110.249745345
  0
ARC
  5
462
100
AcDbEntity
  8
RACCORDO
100
AcDbCircle
 62
7
  6
CONTINUOUS
 10
-42.775
 20
-124.25
 40
3.2
100
AcDbArc
 50
339.7629460951
 51
20.2363047083
  0
ARC
  5
463
100
AcDbEntity
  8
RACCORDO
100
AcDbCircle
 62
7
  6
CONTINUOUS
 10
-42.775
 20
-124.25
 40
3.2
100
AcDbArc
 50
249.7511491045
 51
290.1798380683
  0
ARC
  5
464
100
AcDbEntity
  8
RACCORDO
100
AcDbCircle
 62
7
  6
CONTINUOUS
 10
-42.775
 20
-124.25
 40
3.2
100
AcDbArc
 50
189.3093409216
 51
200.3391799669
  0
CIRCLE
  5
465
100
AcDbEntity
  8
SMUSSO
100
AcDbCircle
 62
7
  6
CONTINUOUS
 10
-42.775
 20
-124.25
 40
2.8726497308
  0
CIRCLE
  5
466
100
AcDbEntity
  8
0
100
AcDbCircle
 62
7
  6
CONTINUOUS
 10
-42.775
 20
-124.25
 40
1.75
  0
ARC
  5
467
100
AcDbEntity
  8
0
100
AcDbCircle
 62
7
  6
CONTINUOUS
 10
-42.775
 20
-124.25
 40
1.5
100
AcDbArc
 50
255.0
 51
195.0
  0
CIRCLE
  5
468
100
AcDbEntity
  8
0
100
AcDbCircle
 62
7
  6
CONTINUOUS
 10
-42.775
 20
-124.25
 40
1.25
  0
ARC
  5
469
100
AcDbEntity
  8
0
100
AcDbCircle
 62
7
  6
CONTINUOUS
 10
-39.425
 20
-132.6
 40
0.5
100
AcDbArc
 50
270.0
 51
360.0
  0
ARC
  5
46A
100
AcDbEntity
  8
0
100
AcDbCircle
 62
7
  6
CONTINUOUS
 10
-20.0001422616
 20
-134.6
 40
0.5
100
AcDbArc
 50
190.0
 51
270.0
  0
ARC
  5
46B
100
AcDbEntity
  8
0
100
AcDbCircle
 62
7
  6
CONTINUOUS
 10
-21.5445498156
 20
-131.6
 40
0.5
100
AcDbArc
 50
10.0
 51
90.0
  0
ARC
  5
46C
100
AcDbEntity
  8
0
100
AcDbCircle
 62
7
  6
CONTINUOUS
 10
-33.6534271247
 20
-117.4
 40
2.0
100
AcDbArc
 50
270.0
 51
315.0
  0
ARC
  5
46D
100
AcDbEntity
  8
0
100
AcDbCircle
 62
7
  6
CONTINUOUS
 10
-23.6965728753
 20
-113.1
 40
2.0
100
AcDbArc
 50
90.0
 51
135.0
  0
ARC
  5
46E
100
AcDbEntity
  8
0
100
AcDbCircle
 62
7
  6
CONTINUOUS
 10
-20.275
 20
-113.7
 40
0.5
100
AcDbArc
 50
90.0
 51
180.0
  0
ARC
  5
46F
100
AcDbEntity
  8
0
100
AcDbCircle
 62
7
  6
CONTINUOUS
 10
-20.275
 20
-118.2
 40
0.5
100
AcDbArc
 50
180.0
 51
270.0
  0
ARC
  5
470
100
AcDbEntity
  8
0
100
AcDbCircle
 62
7
  6
CONTINUOUS
 10
-28.6965728753
 20
117.2
 40
2.0
100
AcDbArc
 50
90.0
 51
135.0
  0
ARC
  5
471
100
AcDbEntity
  8
0
100
AcDbCircle
 62
7
  6
CONTINUOUS
 10
-33.3534271247
 20
118.2
 40
2.0
100
AcDbArc
 50
270.0
 51
315.0
  0
ARC
  5
472
100
AcDbEntity
  8
0
100
AcDbCircle
 62
7
  6
CONTINUOUS
 10
-66.425
 20
133.05
 40
1.05
100
AcDbArc
 50
90.0
 51
180.0
  0
ARC
  5
473
100
AcDbEntity
  8
0
100
AcDbCircle
 62
7
  6
CONTINUOUS
 10
-20.275
 20
123.8
 40
0.5
100
AcDbArc
 50
180.0
 51
270.0
  0
ARC
  5
474
100
AcDbEntity
  8
0
100
AcDbCircle
 62
7
  6
CONTINUOUS
 10
-20.275
 20
128.3
 40
0.5
100
AcDbArc
 50
90.0
 51
180.0
  0
ARC
  5
475
100
AcDbEntity
  8
0
100
AcDbCircle
 62
7
  6
CONTINUOUS
 10
-20.9001422616
 20
134.6
 40
0.5
100
AcDbArc
 50
90.0
 51
170.0
  0
ARC
  5
476
100
AcDbEntity
  8
0
100
AcDbCircle
 62
7
  6
CONTINUOUS
 10
-39.1498577384
 20
134.6
 40
0.5
100
AcDbArc
 50
10.0
 51
90.0
  0
ARC
  5
477
100
AcDbEntity
  8
0
100
AcDbCircle
 62
7
  6
CONTINUOUS
 10
-46.252796223
 20
134.6
 40
0.5
100
AcDbArc
 50
90.0
 51
170.0
  0
ARC
  5
478
100
AcDbEntity
  8
0
100
AcDbCircle
 62
7
  6
CONTINUOUS
 10
-37.6054501844
 20
131.6
 40
0.5
100
AcDbArc
 50
190.0
 51
270.0
  0
ARC
  5
479
100
AcDbEntity
  8
0
100
AcDbCircle
 62
7
  6
CONTINUOUS
 10
-22.4445498156
 20
131.6
 40
0.5
100
AcDbArc
 50
270.0
 51
350.0
  0
ARC
  5
47A
100
AcDbEntity
  8
ASSI
100
AcDbCircle
 62
7
  6
CONTINUOUS
 10
-30.5272213998
 20
47.65
 40
0.15
100
AcDbArc
 50
150.0
 51
330.0
  0
ARC
  5
47B
100
AcDbEntity
  8
ASSI
100
AcDbCircle
 62
7
  6
CONTINUOUS
 10
-27.525
 20
52.85
 40
0.15
100
AcDbArc
 50
30.0
 51
150.0
  0
ARC
  5
47C
100
AcDbEntity
  8
ASSI
100
AcDbCircle
 62
7
  6
CONTINUOUS
 10
-24.5227786002
 20
47.65
 40
0.15
100
AcDbArc
 50
210.0
 51
30.0
  0
ARC
  5
47D
100
AcDbEntity
  8
ASSI
100
AcDbCircle
 62
7
  6
CONTINUOUS
 10
-27.525
 20
47.85
 40
0.15
100
AcDbArc
 50
0.0
 51
180.0
  0
ARC
  5
47E
100
AcDbEntity
  8
ASSI
100
AcDbCircle
 62
7
  6
CONTINUOUS
 10
-27.525
 20
35.15
 40
0.15
100
AcDbArc
 50
180.0
 51
360.0
  0
ARC
  5
47F
100
AcDbEntity
  8
ASSI
100
AcDbCircle
 62
7
  6
CONTINUOUS
 10
-17.925
 20
35.15
 40
0.15
100
AcDbArc
 50
257.1604115931
 51
77.1604115931
  0
ARC
  5
480
100
AcDbEntity
  8
ASSI
100
AcDbCircle
 62
7
  6
CONTINUOUS
 10
-20.375
 20
44.85
 40
0.15
100
AcDbArc
 50
0.0
 51
180.0
  0
ARC
  5
481
100
AcDbEntity
  8
0
100
AcDbCircle
 62
7
  6
CONTINUOUS
 10
-66.425
 20
133.05
 40
0.05
100
AcDbArc
 50
90.0
 51
180.0
  0
ARC
  5
482
100
AcDbEntity
  8
ASSI
100
AcDbCircle
 62
7
  6
CONTINUOUS
 10
-17.525
 20
-70.0
 40
12.65
100
AcDbArc
 50
93.1721377345
 51
266.8278622655
  0
ARC
  5
483
100
AcDbEntity
  8
ASSI
100
AcDbCircle
 62
7
  6
CONTINUOUS
 10
-17.525
 20
-70.0
 40
12.65
100
AcDbArc
 50
273.1721377345
 51
86.8278622655
  0
ARC
  5
484
100
AcDbEntity
  8
ASSI
100
AcDbCircle
 62
7
  6
CONTINUOUS
 10
-17.525
 20
-70.0
 40
12.15
100
AcDbArc
 50
93.3028202963
 51
266.6971797037
  0
ARC
  5
485
100
AcDbEntity
  8
ASSI
100
AcDbCircle
 62
7
  6
CONTINUOUS
 10
-17.525
 20
-70.0
 40
12.15
100
AcDbArc
 50
273.3028202963
 51
86.6971797037
  0
ARC
  5
486
100
AcDbEntity
  8
0
100
AcDbCircle
 62
7
  6
CONTINUOUS
 10
-17.525
 20
-115.95
 40
2.0
100
AcDbArc
 50
255.0
 51
195.0
  0
ARC
  5
487
100
AcDbEntity
  8
0
100
AcDbCircle
 62
7
  6
CONTINUOUS
 10
-1.3965728753
 20
-117.4
 40
2.0
100
AcDbArc
 50
225.0
 51
270.0
  0
ARC
  5
488
100
AcDbEntity
  8
0
100
AcDbCircle
 62
7
  6
CONTINUOUS
 10
-11.3534271247
 20
-113.1
 40
2.0
100
AcDbArc
 50
45.0
 51
90.0
  0
CIRCLE
  5
489
100
AcDbEntity
  8
SMUSSO
100
AcDbCircle
 62
7
  6
CONTINUOUS
 10
-17.525
 20
-115.95
 40
1.85
  0
CIRCLE
  5
48A
100
AcDbEntity
  8
SMUSSO
100
AcDbCircle
 62
7
  6
CONTINUOUS
 10
-17.525
 20
-115.95
 40
1.65
  0
ARC
  5
48B
100
AcDbEntity
  8
0
100
AcDbCircle
 62
7
  6
CONTINUOUS
 10
31.375
 20
-133.05
 40
1.05
100
AcDbArc
 50
270.0
 51
360.0
  0
CIRCLE
  5
48C
100
AcDbEntity
  8
0
100
AcDbCircle
 62
7
  6
CONTINUOUS
 10
-17.525
 20
-70.0
 40
0.75
  0
ARC
  5
48D
100
AcDbEntity
  8
0
100
AcDbCircle
 62
7
  6
CONTINUOUS
 10
-14.775
 20
-113.7
 40
0.5
100
AcDbArc
 50
0.0
 51
90.0
  0
ARC
  5
48E
100
AcDbEntity
  8
0
100
AcDbCircle
 62
7
  6
CONTINUOUS
 10
-14.775
 20
-118.2
 40
0.5
100
AcDbArc
 50
270.0
 51
360.0
  0
ARC
  5
48F
100
AcDbEntity
  8
0
100
AcDbCircle
 62
7
  6
CONTINUOUS
 10
-15.0498577384
 20
-134.6
 40
0.5
100
AcDbArc
 50
270.0
 51
350.0
  0
ARC
  5
490
100
AcDbEntity
  8
0
100
AcDbCircle
 62
7
  6
CONTINUOUS
 10
4.375
 20
-132.6
 40
0.5
100
AcDbArc
 50
180.0
 51
270.0
  0
ARC
  5
491
100
AcDbEntity
  8
0
100
AcDbCircle
 62
7
  6
CONTINUOUS
 10
10.8945618789
 20
-134.6
 40
0.5
100
AcDbArc
 50
195.0
 51
270.0
  0
ARC
  5
492
100
AcDbEntity
  8
0
100
AcDbCircle
 62
7
  6
CONTINUOUS
 10
18.0554381211
 20
-134.6
 40
0.5
100
AcDbArc
 50
270.0
 51
345.0
  0
ARC
  5
493
100
AcDbEntity
  8
0
100
AcDbCircle
 62
7
  6
CONTINUOUS
 10
-13.5054501844
 20
-131.6
 40
0.5
100
AcDbArc
 50
90.0
 51
170.0
  0
ARC
  5
494
100
AcDbEntity
  8
0
100
AcDbCircle
 62
7
  6
CONTINUOUS
 10
31.375
 20
-133.05
 40
0.05
100
AcDbArc
 50
270.0
 51
360.0
  0
ARC
  5
495
100
AcDbEntity
  8
ASSI
100
AcDbCircle
 62
7
  6
CONTINUOUS
 10
-17.525
 20
70.0
 40
12.65
100
AcDbArc
 50
93.1721377345
 51
266.8278622655
  0
ARC
  5
496
100
AcDbEntity
  8
ASSI
100
AcDbCircle
 62
7
  6
CONTINUOUS
 10
-17.525
 20
70.0
 40
12.65
100
AcDbArc
 50
273.1721377345
 51
86.8278622655
  0
ARC
  5
497
100
AcDbEntity
  8
ASSI
100
AcDbCircle
 62
7
  6
CONTINUOUS
 10
-17.525
 20
70.0
 40
12.15
100
AcDbArc
 50
93.3028202963
 51
266.6971797037
  0
ARC
  5
498
100
AcDbEntity
  8
ASSI
100
AcDbCircle
 62
7
  6
CONTINUOUS
 10
-17.525
 20
70.0
 40
12.15
100
AcDbArc
 50
273.3028202963
 51
86.6971797037
  0
ARC
  5
499
100
AcDbEntity
  8
ASSI
100
AcDbCircle
 62
7
  6
CONTINUOUS
 10
-17.225
 20
38.2212375356
 40
3.3
100
AcDbArc
 50
180.0
 51
257.1604115931
  0
ARC
  5
49A
100
AcDbEntity
  8
ASSI
100
AcDbCircle
 62
7
  6
CONTINUOUS
 10
-16.825
 20
38.2212375356
 40
3.3
100
AcDbArc
 50
282.8395884069
 51
360.0
  0
ARC
  5
49B
100
AcDbEntity
  8
ASSI
100
AcDbCircle
 62
7
  6
CONTINUOUS
 10
-17.225
 20
38.2212375356
 40
3.0
100
AcDbArc
 50
180.0
 51
257.1604115931
  0
ARC
  5
49C
100
AcDbEntity
  8
ASSI
100
AcDbCircle
 62
7
  6
CONTINUOUS
 10
-16.825
 20
38.2212375356
 40
3.0
100
AcDbArc
 50
282.8395884069
 51
360.0
  0
ARC
  5
49D
100
AcDbEntity
  8
ASSI
100
AcDbCircle
 62
7
  6
CONTINUOUS
 10
-7.2376223327
 20
42.2
 40
2.8
100
AcDbArc
 50
14.7541949732
 51
90.0
  0
ARC
  5
49E
100
AcDbEntity
  8
ASSI
100
AcDbCircle
 62
7
  6
CONTINUOUS
 10
-7.2376223327
 20
42.25
 40
2.8
100
AcDbArc
 50
270.0
 51
345.2458050268
  0
ARC
  5
49F
100
AcDbEntity
  8
ASSI
100
AcDbCircle
 62
7
  6
CONTINUOUS
 10
-7.2376223327
 20
42.2
 40
2.5
100
AcDbArc
 50
14.7541949732
 51
90.0
  0
ARC
  5
4A0
100
AcDbEntity
  8
ASSI
100
AcDbCircle
 62
7
  6
CONTINUOUS
 10
-7.2376223327
 20
42.25
 40
2.5
100
AcDbArc
 50
270.0
 51
345.2458050268
  0
CIRCLE
  5
4A1
100
AcDbEntity
  8
0
100
AcDbCircle
 62
7
  6
CONTINUOUS
 10
-17.525
 20
70.0
 40
0.75
  0
ARC
  5
4A2
100
AcDbEntity
  8
ASSI
100
AcDbCircle
 62
7
  6
CONTINUOUS
 10
-13.675
 20
44.85
 40
0.15
100
AcDbArc
 50
0.0
 51
180.0
  0
ARC
  5
4A3
100
AcDbEntity
  8
ASSI
100
AcDbCircle
 62
7
  6
CONTINUOUS
 10
-16.125
 20
35.15
 40
0.15
100
AcDbArc
 50
102.8395884069
 51
282.8395884069
  0
ARC
  5
4A4
100
AcDbEntity
  8
ASSI
100
AcDbCircle
 62
7
  6
CONTINUOUS
 10
-11.375
 20
44.85
 40
0.15
100
AcDbArc
 50
0.0
 51
180.0
  0
ARC
  5
4A5
100
AcDbEntity
  8
ASSI
100
AcDbCircle
 62
7
  6
CONTINUOUS
 10
-11.375
 20
35.15
 40
0.15
100
AcDbArc
 50
180.0
 51
360.0
  0
ARC
  5
4A6
100
AcDbEntity
  8
ASSI
100
AcDbCircle
 62
7
  6
CONTINUOUS
 10
-10.075
 20
44.85
 40
0.15
100
AcDbArc
 50
90.0
 51
270.0
  0
ARC
  5
4A7
100
AcDbEntity
  8
ASSI
100
AcDbCircle
 62
7
  6
CONTINUOUS
 10
-4.675
 20
42.8748827898
 40
0.15
100
AcDbArc
 50
194.7541949732
 51
14.7541949732
  0
ARC
  5
4A8
100
AcDbEntity
  8
ASSI
100
AcDbCircle
 62
7
  6
CONTINUOUS
 10
-4.675
 20
41.5751172102
 40
0.15
100
AcDbArc
 50
345.2458050268
 51
165.2458050268
  0
ARC
  5
4A9
100
AcDbEntity
  8
ASSI
100
AcDbCircle
 62
7
  6
CONTINUOUS
 10
-10.075
 20
39.6
 40
0.15
100
AcDbArc
 50
90.0
 51
270.0
  0
ARC
  5
4AA
100
AcDbEntity
  8
0
100
AcDbCircle
 62
7
  6
CONTINUOUS
 10
-17.525
 20
126.05
 40
2.0
100
AcDbArc
 50
255.0
 51
195.0
  0
ARC
  5
4AB
100
AcDbEntity
  8
0
100
AcDbCircle
 62
7
  6
CONTINUOUS
 10
-6.3534271247
 20
117.2
 40
2.0
100
AcDbArc
 50
45.0
 51
90.0
  0
ARC
  5
4AC
100
AcDbEntity
  8
0
100
AcDbCircle
 62
7
  6
CONTINUOUS
 10
-1.6965728753
 20
118.2
 40
2.0
100
AcDbArc
 50
225.0
 51
270.0
  0
CIRCLE
  5
4AD
100
AcDbEntity
  8
SMUSSO
100
AcDbCircle
 62
7
  6
CONTINUOUS
 10
-17.525
 20
126.05
 40
1.85
  0
CIRCLE
  5
4AE
100
AcDbEntity
  8
SMUSSO
100
AcDbCircle
 62
7
  6
CONTINUOUS
 10
-17.525
 20
126.05
 40
1.65
  0
ARC
  5
4AF
100
AcDbEntity
  8
RACCORDO
100
AcDbCircle
 62
7
  6
CONTINUOUS
 10
4.7958995136
 20
116.65
 40
1.0
100
AcDbArc
 50
51.3478573985
 51
90.0
  0
ARC
  5
4B0
100
AcDbEntity
  8
RACCORDO
100
AcDbCircle
 62
7
  6
CONTINUOUS
 10
4.7958995136
 20
124.85
 40
1.0
100
AcDbArc
 50
270.0
 51
308.6521426015
  0
ARC
  5
4B1
100
AcDbEntity
  8
RACCORDO
100
AcDbCircle
 62
7
  6
CONTINUOUS
 10
3.1873794782
 20
118.65
 40
1.0
100
AcDbArc
 50
204.8345874897
 51
270.0
  0
ARC
  5
4B2
100
AcDbEntity
  8
RACCORDO
100
AcDbCircle
 62
7
  6
CONTINUOUS
 10
3.1873794782
 20
122.85
 40
1.0
100
AcDbArc
 50
90.0
 51
155.1654125103
  0
CIRCLE
  5
4B3
100
AcDbEntity
  8
ASSI
100
AcDbCircle
 62
7
  6
CONTINUOUS
 10
3.425
 20
122.4
 40
0.6
  0
CIRCLE
  5
4B4
100
AcDbEntity
  8
ASSI
100
AcDbCircle
 62
7
  6
CONTINUOUS
 10
3.425
 20
119.1
 40
0.6
  0
ARC
  5
4B5
100
AcDbEntity
  8
0
100
AcDbCircle
 62
7
  6
CONTINUOUS
 10
-14.775
 20
123.8
 40
0.5
100
AcDbArc
 50
270.0
 51
360.0
  0
ARC
  5
4B6
100
AcDbEntity
  8
0
100
AcDbCircle
 62
7
  6
CONTINUOUS
 10
-14.775
 20
128.3
 40
0.5
100
AcDbArc
 50
0.0
 51
90.0
  0
ARC
  5
4B7
100
AcDbEntity
  8
0
100
AcDbCircle
 62
7
  6
CONTINUOUS
 10
4.0998577384
 20
134.6
 40
0.5
100
AcDbArc
 50
90.0
 51
170.0
  0
ARC
  5
4B8
100
AcDbEntity
  8
0
100
AcDbCircle
 62
7
  6
CONTINUOUS
 10
-14.1498577384
 20
134.6
 40
0.5
100
AcDbArc
 50
10.0
 51
90.0
  0
ARC
  5
4B9
100
AcDbEntity
  8
0
100
AcDbCircle
 62
7
  6
CONTINUOUS
 10
-12.6054501844
 20
131.6
 40
0.5
100
AcDbArc
 50
190.0
 51
270.0
  0
ARC
  5
4BA
100
AcDbEntity
  8
0
100
AcDbCircle
 62
7
  6
CONTINUOUS
 10
2.5554501844
 20
131.6
 40
0.5
100
AcDbArc
 50
270.0
 51
350.0
  0
ARC
  5
4BB
100
AcDbEntity
  8
RACCORDO
100
AcDbCircle
 62
7
  6
CONTINUOUS
 10
4.369780186
 20
121.3
 40
0.2
100
AcDbArc
 50
270.0
 51
350.6906590784
  0
ARC
  5
4BC
100
AcDbEntity
  8
RACCORDO
100
AcDbCircle
 62
7
  6
CONTINUOUS
 10
4.369780186
 20
120.2
 40
0.2
100
AcDbArc
 50
9.3093409216
 51
90.0
  0
ARC
  5
4BD
100
AcDbEntity
  8
RACCORDO
100
AcDbCircle
 62
7
  6
CONTINUOUS
 10
1.9511364755
 20
120.2
 40
0.2
100
AcDbArc
 50
90.0
 51
185.4413964306
  0
ARC
  5
4BE
100
AcDbEntity
  8
RACCORDO
100
AcDbCircle
 62
7
  6
CONTINUOUS
 10
1.9511364755
 20
121.3
 40
0.2
100
AcDbArc
 50
174.5586035694
 51
270.0
  0
ARC
  5
4BF
100
AcDbEntity
  8
RACCORDO
100
AcDbCircle
 62
7
  6
CONTINUOUS
 10
7.725
 20
120.75
 40
6.0
100
AcDbArc
 50
185.4413964306
 51
204.8345874897
  0
ARC
  5
4C0
100
AcDbEntity
  8
RACCORDO
100
AcDbCircle
 62
7
  6
CONTINUOUS
 10
7.725
 20
120.75
 40
6.0
100
AcDbArc
 50
155.1654125103
 51
174.5586035694
  0
ARC
  5
4C1
100
AcDbEntity
  8
RACCORDO
100
AcDbCircle
 62
7
  6
CONTINUOUS
 10
8.075
 20
120.75
 40
4.25
100
AcDbArc
 50
231.3478573985
 51
128.6521426015
  0
ARC
  5
4C2
100
AcDbEntity
  8
SMUSSO
100
AcDbCircle
 62
7
  6
CONTINUOUS
 10
7.725
 20
120.75
 40
3.45
100
AcDbArc
 50
209.591845794
 51
240.408154206
  0
ARC
  5
4C3
100
AcDbEntity
  8
SMUSSO
100
AcDbCircle
 62
7
  6
CONTINUOUS
 10
7.725
 20
120.75
 40
3.45
100
AcDbArc
 50
299.591845794
 51
330.408154206
  0
ARC
  5
4C4
100
AcDbEntity
  8
SMUSSO
100
AcDbCircle
 62
7
  6
CONTINUOUS
 10
7.725
 20
120.75
 40
3.45
100
AcDbArc
 50
119.591845794
 51
150.408154206
  0
ARC
  5
4C5
100
AcDbEntity
  8
SMUSSO
100
AcDbCircle
 62
7
  6
CONTINUOUS
 10
7.725
 20
120.75
 40
3.45
100
AcDbArc
 50
29.591845794
 51
60.408154206
  0
ARC
  5
4C6
100
AcDbEntity
  8
RACCORDO
100
AcDbCircle
 62
7
  6
CONTINUOUS
 10
7.725
 20
120.75
 40
3.2
100
AcDbArc
 50
159.6606480692
 51
170.6906590784
  0
ARC
  5
4C7
100
AcDbEntity
  8
RACCORDO
100
AcDbCircle
 62
7
  6
CONTINUOUS
 10
7.725
 20
120.75
 40
3.2
100
AcDbArc
 50
69.8205807249
 51
110.249745345
  0
ARC
  5
4C8
100
AcDbEntity
  8
RACCORDO
100
AcDbCircle
 62
7
  6
CONTINUOUS
 10
7.725
 20
120.75
 40
3.2
100
AcDbArc
 50
339.7629460951
 51
20.2363047083
  0
ARC
  5
4C9
100
AcDbEntity
  8
RACCORDO
100
AcDbCircle
 62
7
  6
CONTINUOUS
 10
7.725
 20
120.75
 40
3.2
100
AcDbArc
 50
249.7511491045
 51
290.1798380683
  0
ARC
  5
4CA
100
AcDbEntity
  8
RACCORDO
100
AcDbCircle
 62
7
  6
CONTINUOUS
 10
7.725
 20
120.75
 40
3.2
100
AcDbArc
 50
189.3093409216
 51
200.3391799669
  0
CIRCLE
  5
4CB
100
AcDbEntity
  8
SMUSSO
100
AcDbCircle
 62
7
  6
CONTINUOUS
 10
7.725
 20
120.75
 40
2.8726497308
  0
CIRCLE
  5
4CC
100
AcDbEntity
  8
0
100
AcDbCircle
 62
7
  6
CONTINUOUS
 10
7.725
 20
120.75
 40
1.75
  0
ARC
  5
4CD
100
AcDbEntity
  8
0
100
AcDbCircle
 62
7
  6
CONTINUOUS
 10
7.725
 20
120.75
 40
1.5
100
AcDbArc
 50
255.0
 51
195.0
  0
CIRCLE
  5
4CE
100
AcDbEntity
  8
0
100
AcDbCircle
 62
7
  6
CONTINUOUS
 10
7.725
 20
120.75
 40
1.25
  0
ARC
  5
4CF
100
AcDbEntity
  8
0
100
AcDbCircle
 62
7
  6
CONTINUOUS
 10
31.375
 20
133.05
 40
1.05
100
AcDbArc
 50
0.0
 51
90.0
  0
ARC
  5
4D0
100
AcDbEntity
  8
0
100
AcDbCircle
 62
7
  6
CONTINUOUS
 10
11.202796223
 20
134.6
 40
0.5
100
AcDbArc
 50
10.0
 51
90.0
  0
ARC
  5
4D1
100
AcDbEntity
  8
0
100
AcDbCircle
 62
7
  6
CONTINUOUS
 10
31.375
 20
133.05
 40
0.05
100
AcDbArc
 50
0.0
 51
90.0
  0
CIRCLE
  5
4D2
100
AcDbEntity
  8
PUNTI_SALDATURA
100
AcDbCircle
 62
7
  6
HIDDEN
 10
-121.344705363
 20
-118.1
 40
2.5
  0
CIRCLE
  5
4D3
100
AcDbEntity
  8
ASSI
100
AcDbCircle
 62
7
  6
CONTINUOUS
 10
-117.344705363
 20
-129.0
 40
1.575
  0
ARC
  5
4D4
100
AcDbEntity
  8
0
100
AcDbCircle
 62
7
  6
CONTINUOUS
 10
-142.944705363
 20
-111.1
 40
1.0
100
AcDbArc
 50
180.0
 51
270.0
  0
ARC
  5
4D5
100
AcDbEntity
  8
0
100
AcDbCircle
 62
7
  6
CONTINUOUS
 10
-142.944705363
 20
-103.1
 40
1.0
100
AcDbArc
 50
90.0
 51
180.0
  0
ARC
  5
4D6
100
AcDbEntity
  8
0
100
AcDbCircle
 62
7
  6
CONTINUOUS
 10
-144.144705363
 20
-109.6
 40
1.0
100
AcDbArc
 50
180.0
 51
270.0
  0
ARC
  5
4D7
100
AcDbEntity
  8
0
100
AcDbCircle
 62
7
  6
CONTINUOUS
 10
-144.144705363
 20
-104.6
 40
1.0
100
AcDbArc
 50
90.0
 51
180.0
  0
CIRCLE
  5
4D8
100
AcDbEntity
  8
PUNTI_SALDATURA
100
AcDbCircle
 62
7
  6
HIDDEN
 10
-121.344705363
 20
118.1
 40
2.5
  0
CIRCLE
  5
4D9
100
AcDbEntity
  8
ASSI
100
AcDbCircle
 62
7
  6
CONTINUOUS
 10
-117.344705363
 20
129.0
 40
1.575
  0
ARC
  5
4DA
100
AcDbEntity
  8
0
100
AcDbCircle
 62
7
  6
CONTINUOUS
 10
-142.944705363
 20
103.1
 40
1.0
100
AcDbArc
 50
180.0
 51
270.0
  0
ARC
  5
4DB
100
AcDbEntity
  8
0
100
AcDbCircle
 62
7
  6
CONTINUOUS
 10
-142.944705363
 20
111.1
 40
1.0
100
AcDbArc
 50
90.0
 51
180.0
  0
ARC
  5
4DC
100
AcDbEntity
  8
0
100
AcDbCircle
 62
7
  6
CONTINUOUS
 10
-144.144705363
 20
104.6
 40
1.0
100
AcDbArc
 50
180.0
 51
270.0
  0
ARC
  5
4DD
100
AcDbEntity
  8
0
100
AcDbCircle
 62
7
  6
CONTINUOUS
 10
-144.144705363
 20
109.6
 40
1.0
100
AcDbArc
 50
90.0
 51
180.0
  0
ARC
  5
4DE
100
AcDbEntity
  8
ASSI
100
AcDbCircle
 62
7
  6
CONTINUOUS
 10
-107.344705363
 20
-70.0
 40
12.65
100
AcDbArc
 50
183.1721377345
 51
356.8278622655
  0
ARC
  5
4DF
100
AcDbEntity
  8
ASSI
100
AcDbCircle
 62
7
  6
CONTINUOUS
 10
-107.344705363
 20
-70.0
 40
12.65
100
AcDbArc
 50
3.1721377345
 51
176.8278622655
  0
ARC
  5
4E0
100
AcDbEntity
  8
ASSI
100
AcDbCircle
 62
7
  6
CONTINUOUS
 10
-107.344705363
 20
-70.0
 40
12.15
100
AcDbArc
 50
183.3028202963
 51
356.6971797037
  0
ARC
  5
4E1
100
AcDbEntity
  8
ASSI
100
AcDbCircle
 62
7
  6
CONTINUOUS
 10
-107.344705363
 20
-70.0
 40
12.15
100
AcDbArc
 50
3.3028202963
 51
176.6971797037
  0
CIRCLE
  5
4E2
100
AcDbEntity
  8
PUNTI_SALDATURA
100
AcDbCircle
 62
7
  6
HIDDEN
 10
-95.844705363
 20
-106.1
 40
2.5
  0
CIRCLE
  5
4E3
100
AcDbEntity
  8
ASSI
100
AcDbCircle
 62
7
  6
CONTINUOUS
 10
-97.344705363
 20
-129.0
 40
1.575
  0
CIRCLE
  5
4E4
100
AcDbEntity
  8
ASSI
100
AcDbCircle
 62
7
  6
CONTINUOUS
 10
-107.344705363
 20
-129.0
 40
1.5
  0
CIRCLE
  5
4E5
100
AcDbEntity
  8
ASSI
100
AcDbCircle
 62
7
  6
CONTINUOUS
 10
-107.344705363
 20
-129.0
 40
1.25
  0
ARC
  5
4E6
100
AcDbEntity
  8
0
100
AcDbCircle
 62
7
  6
CONTINUOUS
 10
-88.394705363
 20
-133.05
 40
1.05
100
AcDbArc
 50
270.0
 51
360.0
  0
ARC
  5
4E7
100
AcDbEntity
  8
0
100
AcDbCircle
 62
7
  6
CONTINUOUS
 10
-115.744705363
 20
-105.4
 40
0.8
100
AcDbArc
 50
0.0
 51
90.0
  0
ARC
  5
4E8
100
AcDbEntity
  8
0
100
AcDbCircle
 62
7
  6
CONTINUOUS
 10
-115.744705363
 20
-108.8
 40
0.8
100
AcDbArc
 50
270.0
 51
360.0
  0
ARC
  5
4E9
100
AcDbEntity
  8
0
100
AcDbCircle
 62
7
  6
CONTINUOUS
 10
-116.144705363
 20
-108.8
 40
0.8
100
AcDbArc
 50
180.0
 51
270.0
  0
ARC
  5
4EA
100
AcDbEntity
  8
0
100
AcDbCircle
 62
7
  6
CONTINUOUS
 10
-116.144705363
 20
-105.4
 40
0.8
100
AcDbArc
 50
90.0
 51
180.0
  0
ARC
  5
4EB
100
AcDbEntity
  8
0
100
AcDbCircle
 62
7
  6
CONTINUOUS
 10
-88.394705363
 20
-133.05
 40
0.05
100
AcDbArc
 50
270.0
 51
360.0
  0
ARC
  5
4EC
100
AcDbEntity
  8
ASSI
100
AcDbCircle
 62
7
  6
CONTINUOUS
 10
-107.344705363
 20
70.0
 40
12.65
100
AcDbArc
 50
3.1721377345
 51
176.8278622655
  0
ARC
  5
4ED
100
AcDbEntity
  8
ASSI
100
AcDbCircle
 62
7
  6
CONTINUOUS
 10
-107.344705363
 20
70.0
 40
12.65
100
AcDbArc
 50
183.1721377345
 51
356.8278622655
  0
ARC
  5
4EE
100
AcDbEntity
  8
ASSI
100
AcDbCircle
 62
7
  6
CONTINUOUS
 10
-107.344705363
 20
70.0
 40
12.15
100
AcDbArc
 50
3.3028202963
 51
176.6971797037
  0
ARC
  5
4EF
100
AcDbEntity
  8
ASSI
100
AcDbCircle
 62
7
  6
CONTINUOUS
 10
-107.344705363
 20
70.0
 40
12.15
100
AcDbArc
 50
183.3028202963
 51
356.6971797037
  0
CIRCLE
  5
4F0
100
AcDbEntity
  8
PUNTI_SALDATURA
100
AcDbCircle
 62
7
  6
HIDDEN
 10
-95.844705363
 20
106.1
 40
2.5
  0
CIRCLE
  5
4F1
100
AcDbEntity
  8
ASSI
100
AcDbCircle
 62
7
  6
CONTINUOUS
 10
-97.344705363
 20
129.0
 40
1.575
  0
CIRCLE
  5
4F2
100
AcDbEntity
  8
ASSI
100
AcDbCircle
 62
7
  6
CONTINUOUS
 10
-107.344705363
 20
129.0
 40
1.5
  0
CIRCLE
  5
4F3
100
AcDbEntity
  8
ASSI
100
AcDbCircle
 62
7
  6
CONTINUOUS
 10
-107.344705363
 20
129.0
 40
1.25
  0
ARC
  5
4F4
100
AcDbEntity
  8
0
100
AcDbCircle
 62
7
  6
CONTINUOUS
 10
-88.394705363
 20
133.05
 40
1.05
100
AcDbArc
 50
0.0
 51
90.0
  0
ARC
  5
4F5
100
AcDbEntity
  8
0
100
AcDbCircle
 62
7
  6
CONTINUOUS
 10
-115.744705363
 20
108.8
 40
0.8
100
AcDbArc
 50
0.0
 51
90.0
  0
ARC
  5
4F6
100
AcDbEntity
  8
0
100
AcDbCircle
 62
7
  6
CONTINUOUS
 10
-115.744705363
 20
105.4
 40
0.8
100
AcDbArc
 50
270.0
 51
360.0
  0
ARC
  5
4F7
100
AcDbEntity
  8
0
100
AcDbCircle
 62
7
  6
CONTINUOUS
 10
-116.144705363
 20
105.4
 40
0.8
100
AcDbArc
 50
180.0
 51
270.0
  0
ARC
  5
4F8
100
AcDbEntity
  8
0
100
AcDbCircle
 62
7
  6
CONTINUOUS
 10
-116.144705363
 20
108.8
 40
0.8
100
AcDbArc
 50
90.0
 51
180.0
  0
ARC
  5
4F9
100
AcDbEntity
  8
0
100
AcDbCircle
 62
7
  6
CONTINUOUS
 10
-88.394705363
 20
133.05
 40
0.05
100
AcDbArc
 50
0.0
 51
90.0
  0
ENDSEC
  0
SECTION
  2
OBJECTS
  0
DICTIONARY
  5
C
100
AcDbDictionary
280
0
281
1
  3
ACAD_GROUP
350
D
  3
ACAD_MLINESTYLE
350
17
  3
ACAD_LAYOUT
350
1A
  3
ACAD_PLOTSETTINGS
350
19
  3
ACAD_PLOTSTYLENAME
350
E
  0
DICTIONARY
  5
D
102
{ACAD_REACTORS
330
C
102
}
100
AcDbDictionary
280
0
281
1
  0
ACDBDICTIONARYWDFLT
  5
E
102
{ACAD_REACTORS
330
C
102
}
100
AcDbDictionary
281
1
  3
Normal
350
F
100
AcDbDictionaryWithDefault
340
F
  0
DICTIONARY
  5
17
102
{ACAD_REACTORS
330
C
102
}
100
AcDbDictionary
280
0
281
1
  3
Standard
350
18
  0
DICTIONARY
  5
19
102
{ACAD_REACTORS
330
C
102
}
100
AcDbDictionary
281
1
  0
DICTIONARY
  5
1A
102
{ACAD_REACTORS
330
C
102
}
100
AcDbDictionary
281
1
  3
Model
350
4FA
  3
Layout1
350
4FB
  0
ACDBPLACEHOLDER
  5
F
102
{ACAD_REACTORS
330
E
102
}
  0
MLINESTYLE
  5
18
102
{ACAD_REACTORS
330
17
102
}
100
AcDbMlineStyle
  2
STANDARD
 70
0
  3

 62
256
 51
90.0
 52
90.0
 71
2
 49
0.5
 62
256
  6
BYLAYER
 49
-0.5
 62
256
  6
BYLAYER
  0
LAYOUT
  5
4FA
102
{ACAD_REACTORS
330
1A
102
}
100
AcDbPlotSettings
  1

  2
none_device
  4
ISO_A4_(297.00_x_210.00_MM)
  6

 40
0.0
 41
0.0
 42
0.0
 43
0.0
 44
297.0
 45
210.0
 46
0.0
 47
0.0
 48
0.0
 49
0.0
140
0.0
141
0.0
142
1.0
143
1.0
 70
1024
 72
1
 73
0
 74
0
  7

 75
0
147
1.0
148
0.0
149
0.0
100
AcDbLayout
  1
Model
 70
0
 71
0
 10
0.0
 20
0.0
 11
297.0
 21
210.0
 12
0.0
 22
0.0
 32
0.0
 14
0.0
 24
0.0
 34
0.0
 15
0.0
 25
0.0
 35
0.0
146
0.0
 13
0.0
 23
0.0
 33
0.0
 16
1.0
 26
0.0
 36
0.0
 17
0.0
 27
1.0
 37
0.0
 76
0
330
213
345
0
346
0
  0
LAYOUT
  5
4FB
102
{ACAD_REACTORS
330
1A
102
}
100
AcDbPlotSettings
  1

  2
none_device
  4
ISO_A4_(297.00_x_210.00_MM)
  6

 40
0.0
 41
0.0
 42
0.0
 43
0.0
 44
297.0
 45
210.0
 46
0.0
 47
0.0
 48
0.0
 49
0.0
140
0.0
141
0.0
142
1.0
143
1.0
 70
0
 72
1
 73
0
 74
0
  7

 75
0
147
1.0
148
0.0
149
0.0
100
AcDbLayout
  1
Layout1
 70
0
 71
1
 10
0.0
 20
0.0
 11
297.0
 21
210.0
 12
0.0
 22
0.0
 32
0.0
 14
0.0
 24
0.0
 34
0.0
 15
0.0
 25
0.0
 35
0.0
146
0.0
 13
0.0
 23
0.0
 33
0.0
 16
1.0
 26
0.0
 36
0.0
 17
0.0
 27
1.0
 37
0.0
 76
0
330
214
345
0
346
0
  0
ENDSEC
  0
EOF
