  0
SECTION
  2
HEADER
  9
$ACADVER
  1
AC1015
  9
$DWGCODEPAGE
  3
ANSI_1252
  9
$EXTMAX
 10
210.0
 20
297.0
 30
0.0
  9
$EXTMIN
 10
0.0
 20
0.0
 30
0.0
  9
$LIMMIN
 10
0.0
 20
0.0
  9
$LIMMAX
 10
210.0
 20
297.0
  9
$VIEWCTR
 10
105.0
 20
148.5
  9
$VIEWSIZE
 40
297.0
  9
$CLAYER
  8
0
  9
$LTSCALE
 40
19.36
  9
$CELTYPE
  6
BYLAYER
  9
$DIMSCALE
 40
1.0
  9
$DIMASZ
 40
3.0
  9
$DIMEXO
 40
0.5
  9
$DIMDLI
 40
13.376
  9
$DIMEXE
 40
1.5
  9
$DIMCEN
 40
3.168
  9
$DIMLFAC
 40
1.0
  9
$DIMBLK
  1
_FILLED
  9
$DIMALT
 70
0
  9
$DIMALTF
 40
0.0393700787
  9
$DIMTXT
 40
3.0
  9
$DIMTOL
 70
1
  9
$DIMLIM
 70
0
  9
$DIMTFAC
 40
1.0
  9
$DIMTP
 40
0.01
  9
$DIMTM
 40
0.01
  9
$DIMGAP
 40
0.625
  9
$DIMDSEP
 70
44
  9
$AUNITS
 70
0
  9
$PDMODE
 70
3
  9
$PDSIZE
 40
3.0
  9
$HANDSEED
  5
529
  9
$TILEMODE
 70
1
  9
$MEASUREMENT
 70
1
  9
$INSUNITS
 70
4
  0
ENDSEC
  0
SECTION
  2
CLASSES
  0
CLASS
  1
ACDBDICTIONARYWDFLT
  2
AcDbDictionaryWithDefault
  3
AutoCAD 2000
 90
0
280
0
281
0
  0
CLASS
  1
ACDBPLACEHOLDER
  2
AcDbPlaceHolder
  3
AutoCAD 2000
 90
0
280
0
281
0
  0
CLASS
  1
LAYOUT
  2
AcDbLayout
  3
AutoCAD 2000
 90
0
280
0
281
0
  0
ENDSEC
  0
SECTION
  2
TABLES
  0
TABLE
  2
VPORT
  5
8
100
AcDbSymbolTable
 70
2
  0
VPORT
  5
1F4
100
AcDbSymbolTableRecord
100
AcDbViewportTableRecord
  2
*ACTIVE
 70
0
 10
0.0
 20
0.0
 11
1.0
 21
1.0
 12
105.0
 22
148.5
 13
0.0
 23
0.0
 14
1.0
 24
1.0
 15
0.0
 25
0.0
 16
0.0
 26
0.0
 36
1.0
 17
0.0
 27
0.0
 37
0.0
 40
297.0
 41
0.7070707071
 42
50.0
 43
0.0
 44
0.0
 50
0.0
 51
0.0
 71
0
 72
100
 73
1
 74
1
 75
0
 76
0
 77
0
 78
0
  0
ENDTAB
  0
TABLE
  2
LTYPE
  5
5
100
AcDbSymbolTable
 70
6
  0
LTYPE
  5
14
100
AcDbSymbolTableRecord
100
AcDbLinetypeTableRecord
  2
BYBLOCK
 70
0
  3

 72
65
 73
0
 40
0.0
  0
LTYPE
  5
15
100
AcDbSymbolTableRecord
100
AcDbLinetypeTableRecord
  2
BYLAYER
 70
0
  3

 72
65
 73
0
 40
0.0
  0
LTYPE
  5
16
100
AcDbSymbolTableRecord
100
AcDbLinetypeTableRecord
  2
CONTINUOUS
 70
64
  3
Solid line
 72
65
 73
0
 40
0.0
  0
LTYPE
  5
1F5
100
AcDbSymbolTableRecord
100
AcDbLinetypeTableRecord
  2
CENTER
 70
64
  3
____ _ ____ _ ____ _ ____ _ ____ _ ____ _ ____
 72
65
 73
4
 40
0.6
 49
0.375
 74
0
 49
-0.075
 74
0
 49
0.075
 74
0
 49
-0.075
 74
0
  0
LTYPE
  5
1F6
100
AcDbSymbolTableRecord
100
AcDbLinetypeTableRecord
  2
HIDDEN
 70
64
  3
- - - - - - - - - - - - - - - - - - - -
 72
65
 73
2
 40
0.2
 49
0.1
 74
0
 49
-0.1
 74
0
  0
LTYPE
  5
1F7
100
AcDbSymbolTableRecord
100
AcDbLinetypeTableRecord
  2
PHANTOM
 70
64
  3
_____ _ _ _____ _ _ _____ _ _ _____
 72
65
 73
6
 40
0.8
 49
0.45
 74
0
 49
-0.05
 74
0
 49
0.1
 74
0
 49
-0.05
 74
0
 49
0.1
 74
0
 49
-0.05
 74
0
  0
LTYPE
  5
1F8
100
AcDbSymbolTableRecord
100
AcDbLinetypeTableRecord
  2
DOT
 70
64
  3
. . . . . . . . . . . . . . . . . . . .
 72
65
 73
2
 40
0.2
 49
0.1
 74
0
 49
-0.1
 74
0
  0
LTYPE
  5
1F9
100
AcDbSymbolTableRecord
100
AcDbLinetypeTableRecord
  2
DASHED
 70
64
  3
- - - - - - - - - - - - - - - - - - - -
 72
65
 73
2
 40
0.2
 49
0.1
 74
0
 49
-0.1
 74
0
  0
ENDTAB
  0
TABLE
  2
LAYER
  5
2
100
AcDbSymbolTable
 70
36
  0
LAYER
  5
10
100
AcDbSymbolTableRecord
100
AcDbLayerTableRecord
  2
0
 70
0
 62
7
  6
CONTINUOUS
370
-3
390
F
  0
LAYER
  5
1FA
100
AcDbSymbolTableRecord
100
AcDbLayerTableRecord
  2
DEFAULT_1
 70
0
 62
7
  6
CENTER
370
-3
390
F
  0
LAYER
  5
1FB
100
AcDbSymbolTableRecord
100
AcDbLayerTableRecord
  2
DEFAULT_2
 70
0
 62
7
  6
HIDDEN
370
-3
390
F
  0
LAYER
  5
1FC
100
AcDbSymbolTableRecord
100
AcDbLayerTableRecord
  2
DEFAULT_3
 70
0
 62
7
  6
PHANTOM
370
-3
390
F
  0
LAYER
  5
1FD
100
AcDbSymbolTableRecord
100
AcDbLayerTableRecord
  2
ASSI
 70
0
 62
7
  6
CONTINUOUS
370
-3
390
F
  0
LAYER
  5
1FE
100
AcDbSymbolTableRecord
100
AcDbLayerTableRecord
  2
COORDINATE
 70
0
 62
7
  6
CONTINUOUS
370
-3
390
F
  0
LAYER
  5
1FF
100
AcDbSymbolTableRecord
100
AcDbLayerTableRecord
  2
COPY_PUBLISH
 70
0
 62
7
  6
CONTINUOUS
370
-3
390
F
  0
LAYER
  5
200
100
AcDbSymbolTableRecord
100
AcDbLayerTableRecord
  2
COSMETICI
 70
0
 62
7
  6
CONTINUOUS
370
-3
390
F
  0
LAYER
  5
201
100
AcDbSymbolTableRecord
100
AcDbLayerTableRecord
  2
CURVE
 70
0
 62
7
  6
CONTINUOUS
370
-3
390
F
  0
LAYER
  5
202
100
AcDbSymbolTableRecord
100
AcDbLayerTableRecord
  2
DRAFT
 70
0
 62
7
  6
CONTINUOUS
370
-3
390
F
  0
LAYER
  5
203
100
AcDbSymbolTableRecord
100
AcDbLayerTableRecord
  2
IMPORT_IGES
 70
0
 62
7
  6
CONTINUOUS
370
-3
390
F
  0
LAYER
  5
204
100
AcDbSymbolTableRecord
100
AcDbLayerTableRecord
  2
NOTE
 70
0
 62
7
  6
CONTINUOUS
370
-3
390
F
  0
LAYER
  5
205
100
AcDbSymbolTableRecord
100
AcDbLayerTableRecord
  2
PIANI
 70
0
 62
7
  6
CONTINUOUS
370
-3
390
F
  0
LAYER
  5
206
100
AcDbSymbolTableRecord
100
AcDbLayerTableRecord
  2
PUNTI
 70
0
 62
7
  6
CONTINUOUS
370
-3
390
F
  0
LAYER
  5
207
100
AcDbSymbolTableRecord
100
AcDbLayerTableRecord
  2
RACCORDO
 70
0
 62
7
  6
CONTINUOUS
370
-3
390
F
  0
LAYER
  5
208
100
AcDbSymbolTableRecord
100
AcDbLayerTableRecord
  2
SIMBOLI
 70
0
 62
7
  6
CONTINUOUS
370
-3
390
F
  0
LAYER
  5
209
100
AcDbSymbolTableRecord
100
AcDbLayerTableRecord
  2
SMUSSO
 70
0
 62
7
  6
CONTINUOUS
370
-3
390
F
  0
LAYER
  5
20A
100
AcDbSymbolTableRecord
100
AcDbLayerTableRecord
  2
SNAPLINE
 70
0
 62
7
  6
CONTINUOUS
370
-3
390
F
  0
LAYER
  5
20B
100
AcDbSymbolTableRecord
100
AcDbLayerTableRecord
  2
SUPERFICI
 70
0
 62
7
  6
CONTINUOUS
370
-3
390
F
  0
LAYER
  5
20C
100
AcDbSymbolTableRecord
100
AcDbLayerTableRecord
  2
TRASH
 70
0
 62
7
  6
CONTINUOUS
370
-3
390
F
  0
ENDTAB
  0
TABLE
  2
STYLE
  5
3
100
AcDbSymbolTable
 70
1
  0
STYLE
  5
11
100
AcDbSymbolTableRecord
100
AcDbTextStyleTableRecord
  2
STANDARD
 70
0
 40
0.0
 41
0.8
 50
0.0
 71
0
 42
0.2
  3
txt
  4

  0
STYLE
  5
20D
100
AcDbSymbolTableRecord
100
AcDbTextStyleTableRecord
  2
TEXTSTYLE_1
 70
0
 40
0.0
 41
0.8
 50
0.0
 71
0
 42
0.2
  3
gdt
  4

  0
ENDTAB
  0
TABLE
  2
VIEW
  5
6
100
AcDbSymbolTable
 70
0
  0
ENDTAB
  0
TABLE
  2
UCS
  5
7
100
AcDbSymbolTable
 70
0
  0
ENDTAB
  0
TABLE
  2
APPID
  5
9
100
AcDbSymbolTable
 70
1
  0
APPID
  5
20E
100
AcDbSymbolTableRecord
100
AcDbRegAppTableRecord
  2
ACAD
 70
0
  0
ENDTAB
  0
TABLE
  2
BLOCK_RECORD
  5
1
100
AcDbSymbolTable
 70
0
  0
BLOCK_RECORD
  5
20F
100
AcDbSymbolTableRecord
100
AcDbBlockTableRecord
  2
*Model_Space
  0
BLOCK_RECORD
  5
210
100
AcDbSymbolTableRecord
100
AcDbBlockTableRecord
  2
*Paper_Space
  0
BLOCK_RECORD
  5
211
100
AcDbSymbolTableRecord
100
AcDbBlockTableRecord
  2
_FILLED
  0
BLOCK_RECORD
  5
212
100
AcDbSymbolTableRecord
100
AcDbBlockTableRecord
  2
*D0
  0
BLOCK_RECORD
  5
213
100
AcDbSymbolTableRecord
100
AcDbBlockTableRecord
  2
*D1
  0
BLOCK_RECORD
  5
214
100
AcDbSymbolTableRecord
100
AcDbBlockTableRecord
  2
*D2
  0
ENDTAB
  0
TABLE
  2
DIMSTYLE
  5
A
100
AcDbSymbolTable
 70
1
100
AcDbDimStyleTable
 71
0
  0
DIMSTYLE
105
215
100
AcDbSymbolTableRecord
100
AcDbDimStyleTableRecord
  2
STANDARD
 70
0
  3

  4

 40
1.0
 41
3.0
 42
0.5
 43
0.38
 44
1.5
 45
0.0
 46
0.0
 47
0.01
 48
0.01
140
3.0
141
0.09
142
0.0
143
25.4
144
1.0
145
0.0
146
1.0
147
0.625
 71
1.0
 72
0.0
 73
0
 74
0
 75
0
 76
0
 77
1
 78
8
170
0
171
2
172
0
173
0
174
0
175
0
176
0
177
0
178
0
270
2
271
2
272
2
273
2
274
2
275
0
280
0
281
0
282
0
283
1
284
8
285
0
286
0
287
3
288
0
340
11
278
44
341
211
342
211
343
211
344
211
  0
DIMSTYLE
105
216
100
AcDbSymbolTableRecord
100
AcDbDimStyleTableRecord
  2
DIMSTYLE_1
 70
0
  3

  4

 40
1.0
 41
3.0
 42
0.5
 43
0.38
 44
1.5
 45
0.0
 46
0.0
 47
0.0
 48
0.0
140
3.0
141
0.09
142
0.0
143
25.4
144
1.0
145
0.0
146
1.0
147
0.75
 71
0.0
 72
0.0
 73
0
 74
0
 75
0
 76
0
 77
1
 78
8
170
0
171
2
172
0
173
0
174
0
175
0
176
0
177
0
178
0
270
2
271
2
272
2
273
2
274
2
275
0
280
0
281
0
282
0
283
1
284
8
285
0
286
0
287
3
288
0
340
11
278
44
341
211
342
211
343
211
344
211
  0
DIMSTYLE
105
217
100
AcDbSymbolTableRecord
100
AcDbDimStyleTableRecord
  2
DIMSTYLE_2
 70
0
  3

  4

 40
1.0
 41
3.0
 42
0.5
 43
0.38
 44
1.5
 45
0.0
 46
0.0
 47
0.0
 48
0.0
140
3.0
141
0.09
142
0.0
143
25.4
144
1.0
145
0.0
146
1.0
147
0.75
 71
0.0
 72
0.0
 73
0
 74
0
 75
0
 76
0
 77
1
 78
8
170
0
171
2
172
0
173
0
174
0
175
0
176
0
177
0
178
0
270
2
271
1
272
1
273
2
274
2
275
0
280
0
281
0
282
0
283
1
284
8
285
0
286
0
287
3
288
0
340
11
278
44
341
211
342
211
343
211
344
211
  0
ENDTAB
  0
ENDSEC
  0
SECTION
  2
BLOCKS
  0
BLOCK
  5
20
100
AcDbEntity
  8
0
100
AcDbBlockBegin
  2
*Model_Space
 70
0
 10
0.0
 20
0.0
 30
0.0
  3
*Model_Space
  1

  0
ENDBLK
  5
21
100
AcDbEntity
  8
0
100
AcDbBlockEnd
  0
BLOCK
  5
1C
100
AcDbEntity
  8
0
100
AcDbBlockBegin
  2
*Paper_Space
 70
0
 10
0.0
 20
0.0
 30
0.0
  3
*Paper_Space
  1

  0
ENDBLK
  5
1D
100
AcDbEntity
  8
0
100
AcDbBlockEnd
  0
BLOCK
  5
218
100
AcDbEntity
  8
0
100
AcDbBlockBegin
  2
_FILLED
 70
64
 10
0.0
 20
0.0
  3
_FILLED
  1

  0
SOLID
  5
219
100
AcDbEntity
  8
0
  6
BYBLOCK
 62
0
100
AcDbTrace
 10
0.0
 20
0.0
 11
-1.0
 21
0.3166666667
 12
-1.0
 22
-0.3166666667
 13
-1.0
 23
-0.3166666667
  0
ENDBLK
  5
21A
100
AcDbEntity
  8
0
  6
BYBLOCK
 62
0
100
AcDbBlockEnd
  0
BLOCK
  5
21B
100
AcDbEntity
  8
0
100
AcDbBlockBegin
 62
7
  6
CONTINUOUS
  2
*D0
 70
65
 10
0.0
 20
0.0
  3
*D0
  1

  0
MTEXT
  5
21C
100
AcDbEntity
  8
0
100
AcDbMText
 62
7
  6
CONTINUOUS
  7
STANDARD
 71
2
 72
1
 10
16.4360909168
 20
-5.8758808183
 30
0.0
 11
0.0
 21
1.0
 31
0.0
 44
0.9
  1
488.3
 40
3.0
 41
16.3928571429
  0
LINE
  5
21D
100
AcDbEntity
  8
0
100
AcDbLine
 62
7
  6
CONTINUOUS
 10
4.5149707657
 20
-61.6331560484
 11
19.4360909168
 21
-61.6331560484
  0
LINE
  5
21E
100
AcDbEntity
  8
0
100
AcDbLine
 62
7
  6
CONTINUOUS
 10
19.4360909168
 20
-61.6331560484
 11
21.6860909168
 21
-61.6331560484
  0
LINE
  5
21F
100
AcDbEntity
  8
0
100
AcDbLine
 62
7
  6
CONTINUOUS
 10
4.5149707657
 20
49.8813944118
 11
19.4360909168
 21
49.8813944118
  0
LINE
  5
220
100
AcDbEntity
  8
0
100
AcDbLine
 62
7
  6
CONTINUOUS
 10
19.4360909168
 20
49.8813944118
 11
21.6860909168
 21
49.8813944118
  0
LINE
  5
221
100
AcDbEntity
  8
0
100
AcDbLine
 62
7
  6
CONTINUOUS
 10
20.1860909168
 20
-61.6331560484
 11
20.1860909168
 21
-5.8758808183
  0
LINE
  5
222
100
AcDbEntity
  8
0
100
AcDbLine
 62
7
  6
CONTINUOUS
 10
20.1860909168
 20
49.8813944118
 11
20.1860909168
 21
-5.8758808183
  0
INSERT
  5
223
100
AcDbEntity
  8
0
100
AcDbBlockReference
 62
7
  6
CONTINUOUS
  2
_FILLED
 10
20.1860909168
 20
-61.6331560484
 41
3.0
 42
3.0
 43
3.0
 50
270.0
  0
INSERT
  5
224
100
AcDbEntity
  8
0
100
AcDbBlockReference
 62
7
  6
CONTINUOUS
  2
_FILLED
 10
20.1860909168
 20
49.8813944118
 41
3.0
 42
3.0
 43
3.0
 50
90.0
  0
ENDBLK
  5
225
100
AcDbEntity
  8
0
  6
BYBLOCK
 62
0
100
AcDbBlockEnd
  0
BLOCK
  5
226
100
AcDbEntity
  8
0
100
AcDbBlockBegin
 62
7
  6
CONTINUOUS
  2
*D1
 70
65
 10
0.0
 20
0.0
  3
*D1
  1

  0
MTEXT
  5
227
100
AcDbEntity
  8
0
100
AcDbMText
 62
7
  6
CONTINUOUS
  7
STANDARD
 71
2
 72
1
 10
2.1949707657
 20
-65.8831560484
 30
0.0
 11
1.0
 21
0.0
 31
0.0
 44
0.9
  1
20
 40
3.0
 41
7.0714285714
  0
LINE
  5
228
100
AcDbEntity
  8
0
100
AcDbLine
 62
7
  6
CONTINUOUS
 10
-7.7961493854
 20
-30.6918822516
 11
-7.7961493854
 21
-71.1331560484
  0
LINE
  5
229
100
AcDbEntity
  8
0
100
AcDbLine
 62
7
  6
CONTINUOUS
 10
12.1860909168
 20
-30.6918822516
 11
12.1860909168
 21
-71.1331560484
  0
LINE
  5
22A
100
AcDbEntity
  8
0
100
AcDbLine
 62
7
  6
CONTINUOUS
 10
-7.7961493854
 20
-69.6331560484
 11
2.1949707657
 21
-69.6331560484
  0
LINE
  5
22B
100
AcDbEntity
  8
0
100
AcDbLine
 62
7
  6
CONTINUOUS
 10
12.1860909168
 20
-69.6331560484
 11
2.1949707657
 21
-69.6331560484
  0
INSERT
  5
22C
100
AcDbEntity
  8
0
100
AcDbBlockReference
 62
7
  6
CONTINUOUS
  2
_FILLED
 10
-7.7961493854
 20
-69.6331560484
 41
3.0
 42
3.0
 43
3.0
 50
180.0
  0
INSERT
  5
22D
100
AcDbEntity
  8
0
100
AcDbBlockReference
 62
7
  6
CONTINUOUS
  2
_FILLED
 10
12.1860909168
 20
-69.6331560484
 41
3.0
 42
3.0
 43
3.0
  0
ENDBLK
  5
22E
100
AcDbEntity
  8
0
  6
BYBLOCK
 62
0
100
AcDbBlockEnd
  0
BLOCK
  5
22F
100
AcDbEntity
  8
0
100
AcDbBlockBegin
 62
7
  6
CONTINUOUS
  2
*D2
 70
65
 10
0.0
 20
0.0
  3
*D2
  1

  0
MTEXT
  5
230
100
AcDbEntity
  8
0
100
AcDbMText
 62
7
  6
CONTINUOUS
  7
STANDARD
 71
2
 72
1
 10
-97.4603222774
 20
-65.8831560484
 30
0.0
 11
1.0
 21
0.0
 31
0.0
 44
0.9
  1
17,4
 40
3.0
 41
12.2142857143
  0
LINE
  5
231
100
AcDbEntity
  8
0
100
AcDbLine
 62
7
  6
CONTINUOUS
 10
-106.1558823529
 20
-61.2331560484
 11
-106.1558823529
 21
-71.1331560484
  0
LINE
  5
232
100
AcDbEntity
  8
0
100
AcDbLine
 62
7
  6
CONTINUOUS
 10
-88.7647622018
 20
-30.6918822516
 11
-88.7647622018
 21
-71.1331560484
  0
LINE
  5
233
100
AcDbEntity
  8
0
100
AcDbLine
 62
7
  6
CONTINUOUS
 10
-106.1558823529
 20
-69.6331560484
 11
-97.4603222774
 21
-69.6331560484
  0
LINE
  5
234
100
AcDbEntity
  8
0
100
AcDbLine
 62
7
  6
CONTINUOUS
 10
-88.7647622018
 20
-69.6331560484
 11
-97.4603222774
 21
-69.6331560484
  0
INSERT
  5
235
100
AcDbEntity
  8
0
100
AcDbBlockReference
 62
7
  6
CONTINUOUS
  2
_FILLED
 10
-106.1558823529
 20
-69.6331560484
 41
3.0
 42
3.0
 43
3.0
 50
180.0
  0
INSERT
  5
236
100
AcDbEntity
  8
0
100
AcDbBlockReference
 62
7
  6
CONTINUOUS
  2
_FILLED
 10
-88.7647622018
 20
-69.6331560484
 41
3.0
 42
3.0
 43
3.0
  0
ENDBLK
  5
237
100
AcDbEntity
  8
0
  6
BYBLOCK
 62
0
100
AcDbBlockEnd
  0
ENDSEC
  0
SECTION
  2
ENTITIES
  0
DIMENSION
  5
238
100
AcDbEntity
  8
0
100
AcDbDimension
 62
7
  6
CONTINUOUS
  2
*D0
 10
20.1860909168
 20
49.8813944118
 11
20.1860909168
 21
-6.3044537385
 70
160
 71
2
 42
499.1
  1
<>488.3
  3
DIMSTYLE_1
100
AcDbAlignedDimension
 13
4.0149707657
 23
-61.6331560484
 14
4.0149707657
 24
49.8813944118
 50
90.0
100
AcDbRotatedDimension
  0
DIMENSION
  5
239
100
AcDbEntity
  8
0
100
AcDbDimension
 62
7
  6
CONTINUOUS
  2
*D1
 10
12.1860909168
 20
-69.6331560484
 11
1.7663991699
 21
-69.6331560484
 70
160
 71
2
 42
19.9822403022
  3
DIMSTYLE_2
100
AcDbAlignedDimension
 13
-7.7961493854
 23
-30.1918822516
 14
12.1860909168
 24
-30.1918822516
100
AcDbRotatedDimension
  0
DIMENSION
  5
23A
100
AcDbEntity
  8
0
100
AcDbDimension
 62
7
  6
CONTINUOUS
  2
*D2
 10
-88.7647622018
 20
-69.6331560484
 11
-97.8888944092
 21
-69.6331560484
 70
160
 71
2
 42
17.3911201511
  3
DIMSTYLE_2
100
AcDbAlignedDimension
 13
-106.1558823529
 23
-60.7331560484
 14
-88.7647622018
 24
-30.1918822516
100
AcDbRotatedDimension
  0
LINE
  5
23B
100
AcDbEntity
  8
0
100
AcDbLine
 62
7
  6
CONTINUOUS
 10
3.4254536022
 20
1.5032269384
 11
5.3952879342
 21
0.9608444654
  0
LINE
  5
23C
100
AcDbEntity
  8
0
100
AcDbLine
 62
7
  6
CONTINUOUS
 10
-2.6816462385
 20
4.1108582418
 11
-1.0926593594
 21
3.9559168319
  0
LINE
  5
23D
100
AcDbEntity
  8
0
100
AcDbLine
 62
7
  6
CONTINUOUS
 10
-1.0926593594
 20
3.9559168319
 11
0.4002642165
 21
3.2699921232
  0
LINE
  5
23E
100
AcDbEntity
  8
0
100
AcDbLine
 62
7
  6
CONTINUOUS
 10
1.904387332
 20
2.3562234823
 11
3.4254536022
 21
1.5032269384
  0
LINE
  5
23F
100
AcDbEntity
  8
0
100
AcDbLine
 62
7
  6
CONTINUOUS
 10
0.4002642165
 20
3.2699921232
 11
1.904387332
 21
2.3562234823
  0
LINE
  5
240
100
AcDbEntity
  8
0
100
AcDbLine
 62
7
  6
CONTINUOUS
 10
0.0049707657
 20
48.4813944118
 11
0.3549707657
 21
48.9813944118
  0
LINE
  5
241
100
AcDbEntity
  8
0
100
AcDbLine
 62
7
  6
CONTINUOUS
 10
2.5849707657
 20
48.4813944118
 11
2.9349707657
 21
48.9813944118
  0
LINE
  5
242
100
AcDbEntity
  8
RACCORDO
100
AcDbLine
 62
7
  6
CONTINUOUS
 10
-7.7961494105
 20
18.4226696498
 11
-7.7961493854
 21
18.440120615
  0
LINE
  5
243
100
AcDbEntity
  8
RACCORDO
100
AcDbLine
 62
253
  6
CONTINUOUS
 10
-7.2962255378
 20
17.9313944118
 11
-7.2962255444
 21
18.4401206152
  0
LINE
  5
244
100
AcDbEntity
  8
RACCORDO
100
AcDbLine
 62
253
  6
CONTINUOUS
 10
-7.2666433173
 20
20.3313944118
 11
-7.2666433173
 21
20.134884893
  0
LINE
  5
245
100
AcDbEntity
  8
RACCORDO
100
AcDbLine
 62
7
  6
CONTINUOUS
 10
-7.7961493854
 20
18.440120615
 11
-7.7665671648
 21
20.134884893
  0
LINE
  5
246
100
AcDbEntity
  8
RACCORDO
100
AcDbLine
 62
253
  6
CONTINUOUS
 10
-7.2962255378
 20
18.440120615
 11
-7.2666433173
 21
20.134884893
  0
LINE
  5
247
100
AcDbEntity
  8
RACCORDO
100
AcDbLine
 62
7
  6
CONTINUOUS
 10
-6.8015991479
 20
20.5279039305
 11
-6.7612392555
 21
22.840120615
  0
LINE
  5
248
100
AcDbEntity
  8
RACCORDO
100
AcDbLine
 62
253
  6
CONTINUOUS
 10
-6.3016753003
 20
20.3313944118
 11
-6.3016753003
 21
20.5279039305
  0
LINE
  5
249
100
AcDbEntity
  8
RACCORDO
100
AcDbLine
 62
253
  6
CONTINUOUS
 10
-6.2613154079
 20
23.3313944118
 11
-6.2613154079
 21
22.840120615
  0
LINE
  5
24A
100
AcDbEntity
  8
0
100
AcDbLine
 62
7
  6
CONTINUOUS
 10
-5.1450292343
 20
47.4313944118
 11
-5.1450292343
 21
44.4313944118
  0
LINE
  5
24B
100
AcDbEntity
  8
0
100
AcDbLine
 62
7
  6
CONTINUOUS
 10
-4.8104992881
 20
46.7613944118
 11
-4.8104992881
 21
45.0813944118
  0
LINE
  5
24C
100
AcDbEntity
  8
0
100
AcDbLine
 62
7
  6
CONTINUOUS
 10
-4.6950292343
 20
46.7613944118
 11
-4.6950292343
 21
45.0813944118
  0
LINE
  5
24D
100
AcDbEntity
  8
RACCORDO
100
AcDbLine
 62
253
  6
CONTINUOUS
 10
-6.3016753003
 20
20.5279039305
 11
-6.2613154079
 21
22.840120615
  0
LINE
  5
24E
100
AcDbEntity
  8
RACCORDO
100
AcDbLine
 62
253
  6
CONTINUOUS
 10
11.8155323578
 20
18.4420807833
 11
11.6861670693
 21
18.440120615
  0
LINE
  5
24F
100
AcDbEntity
  8
RACCORDO
100
AcDbLine
 62
253
  6
CONTINUOUS
 10
11.93608503
 20
18.4433129741
 11
11.8155323578
 21
18.4420807833
  0
LWPOLYLINE
  5
250
100
AcDbEntity
  8
RACCORDO
100
AcDbPolyline
 62
253
  6
CONTINUOUS
 90
3
 70
0
 10
-7.6496712644
 20
18.4437332477
 10
-7.6927877404
 20
18.4436277281
 10
-7.7291215539
 20
18.4433129741
  0
LINE
  5
251
100
AcDbEntity
  8
RACCORDO
100
AcDbLine
 62
7
  6
CONTINUOUS
 10
11.6861670693
 20
17.9313944118
 11
-7.2962255378
 21
17.9313944118
  0
LINE
  5
252
100
AcDbEntity
  8
RACCORDO
100
AcDbLine
 62
253
  6
CONTINUOUS
 10
11.6861670693
 20
18.440120615
 11
-7.2962255378
 21
18.440120615
  0
LINE
  5
253
100
AcDbEntity
  8
RACCORDO
100
AcDbLine
 62
253
  6
CONTINUOUS
 10
-7.5461435196
 20
18.4433129742
 11
-7.6496712644
 21
18.4437332477
  0
LWPOLYLINE
  5
254
100
AcDbEntity
  8
RACCORDO
100
AcDbPolyline
 62
253
  6
CONTINUOUS
 90
4
 70
0
 10
12.1190630732
 20
18.4433129742
 10
12.0827292585
 20
18.4436277282
 10
12.0396127814
 20
18.4437332477
 10
11.93608503
 20
18.4433129741
  0
LINE
  5
255
100
AcDbEntity
  8
RACCORDO
100
AcDbLine
 62
253
  6
CONTINUOUS
 10
-7.4255908444
 20
18.4420807835
 11
-7.5461435196
 21
18.4433129742
  0
LINE
  5
256
100
AcDbEntity
  8
RACCORDO
100
AcDbLine
 62
253
  6
CONTINUOUS
 10
-7.2962255378
 20
18.440120615
 11
-7.4255908444
 21
18.4420807835
  0
LINE
  5
257
100
AcDbEntity
  8
0
100
AcDbLine
 62
7
  6
CONTINUOUS
 10
-4.5850292343
 20
44.4313944118
 11
-4.5850292343
 21
47.4313944118
  0
LINE
  5
258
100
AcDbEntity
  8
0
100
AcDbLine
 62
7
  6
CONTINUOUS
 10
-3.6850292343
 20
44.4313944118
 11
-3.6850292343
 21
43.0313944118
  0
LINE
  5
259
100
AcDbEntity
  8
0
100
AcDbLine
 62
7
  6
CONTINUOUS
 10
-3.6850292343
 20
47.4313944118
 11
-3.6850292343
 21
48.8313944118
  0
LINE
  5
25A
100
AcDbEntity
  8
0
100
AcDbLine
 62
7
  6
CONTINUOUS
 10
-3.6650292343
 20
42.8813944118
 11
-3.6650292343
 21
43.0313944118
  0
LINE
  5
25B
100
AcDbEntity
  8
0
100
AcDbLine
 62
7
  6
CONTINUOUS
 10
-3.6650292343
 20
48.8313944118
 11
-3.6650292343
 21
48.9813944118
  0
LINE
  5
25C
100
AcDbEntity
  8
0
100
AcDbLine
 62
7
  6
CONTINUOUS
 10
-3.2450292343
 20
43.0313944118
 11
-3.2450292343
 21
43.5313944118
  0
LINE
  5
25D
100
AcDbEntity
  8
0
100
AcDbLine
 62
7
  6
CONTINUOUS
 10
-3.2450292343
 20
48.3313944118
 11
-3.2450292343
 21
48.8313944118
  0
LWPOLYLINE
  5
25E
100
AcDbEntity
  8
RACCORDO
100
AcDbPolyline
 62
253
  6
CONTINUOUS
 90
4
 70
0
 10
11.1671524619
 20
20.5269975643
 10
11.1806643272
 20
20.5272427237
 10
11.1888195676
 20
20.5275420056
 10
11.1915406793
 20
20.5279039305
  0
LWPOLYLINE
  5
25F
100
AcDbEntity
  8
RACCORDO
100
AcDbPolyline
 62
253
  6
CONTINUOUS
 90
5
 70
0
 10
-7.7291215539
 20
18.4433129741
 10
-7.7580512622
 20
18.4427943691
 10
-7.7790820626
 20
18.4420807833
 10
-7.7918542536
 20
18.4411844215
 10
-7.7961493854
 20
18.440120615
  0
LINE
  5
260
100
AcDbEntity
  8
RACCORDO
100
AcDbLine
 62
253
  6
CONTINUOUS
 10
-7.7233178932
 20
20.1360046145
 11
-7.6710746702
 21
20.1362693449
  0
LINE
  5
261
100
AcDbEntity
  8
RACCORDO
100
AcDbLine
 62
253
  6
CONTINUOUS
 10
11.6565848487
 20
20.134884893
 11
11.9504170613
 21
20.1362693449
  0
LINE
  5
262
100
AcDbEntity
  8
RACCORDO
100
AcDbLine
 62
253
  6
CONTINUOUS
 10
-7.2666433173
 20
20.134884893
 11
11.6565848487
 21
20.134884893
  0
LINE
  5
263
100
AcDbEntity
  8
RACCORDO
100
AcDbLine
 62
7
  6
CONTINUOUS
 10
-7.5665976258
 20
20.3313944118
 11
11.9565391573
 21
20.3313944118
  0
LINE
  5
264
100
AcDbEntity
  8
RACCORDO
100
AcDbLine
 62
253
  6
CONTINUOUS
 10
11.9504170613
 20
20.1362693449
 11
12.0610470453
 21
20.1362700289
  0
LINE
  5
265
100
AcDbEntity
  8
RACCORDO
100
AcDbLine
 62
253
  6
CONTINUOUS
 10
-7.6710746702
 20
20.1362693449
 11
-7.5165481489
 21
20.136162999
  0
LINE
  5
266
100
AcDbEntity
  8
RACCORDO
100
AcDbLine
 62
253
  6
CONTINUOUS
 10
-7.5165481489
 20
20.136162999
 11
-7.2666433173
 21
20.134884893
  0
LWPOLYLINE
  5
267
100
AcDbEntity
  8
RACCORDO
100
AcDbPolyline
 62
253
  6
CONTINUOUS
 90
6
 70
0
 10
12.0610470453
 20
20.1362700289
 10
12.113289054
 20
20.1360048758
 10
12.1320362129
 20
20.135792378
 10
12.1455781591
 20
20.1355286785
 10
12.1537655008
 20
20.1352234135
 10
12.1565086963
 20
20.134884893
  0
LWPOLYLINE
  5
268
100
AcDbEntity
  8
RACCORDO
100
AcDbPolyline
 62
253
  6
CONTINUOUS
 90
6
 70
0
 10
-6.8015991479
 20
20.5279039305
 10
-6.7988649905
 20
20.5275418539
 10
-6.7906790347
 20
20.5272421617
 10
-6.7771315101
 20
20.5269965406
 10
-6.7583701999
 20
20.5267919559
 10
-6.7060921115
 20
20.5265200828
  0
LINE
  5
269
100
AcDbEntity
  8
ASSI
100
AcDbLine
 62
7
  6
CONTINUOUS
 10
-2.7000292343
 20
42.8313944118
 11
-2.7000292343
 21
23.3313944118
  0
LINE
  5
26A
100
AcDbEntity
  8
ASSI
100
AcDbLine
 62
7
  6
CONTINUOUS
 10
-2.7000292343
 20
17.9313944118
 11
-2.7000292343
 21
4.101765601
  0
LINE
  5
26B
100
AcDbEntity
  8
ASSI
100
AcDbLine
 62
253
  6
CONTINUOUS
 10
-1.9600584685
 20
42.8313944118
 11
-1.9600584685
 21
23.3313944118
  0
LINE
  5
26C
100
AcDbEntity
  8
ASSI
100
AcDbLine
 62
253
  6
CONTINUOUS
 10
-1.9600584685
 20
17.9313944118
 11
-1.9600584685
 21
4.0404965365
  0
LINE
  5
26D
100
AcDbEntity
  8
ASSI
100
AcDbLine
 62
253
  6
CONTINUOUS
 10
-1.7023066767
 20
42.8313944118
 11
-1.7023066767
 21
23.3313944118
  0
LINE
  5
26E
100
AcDbEntity
  8
ASSI
100
AcDbLine
 62
253
  6
CONTINUOUS
 10
-1.7023066767
 20
17.9313944118
 11
-1.7023066767
 21
4.015363273
  0
LINE
  5
26F
100
AcDbEntity
  8
ASSI
100
AcDbLine
 62
253
  6
CONTINUOUS
 10
-1.5277517918
 20
42.8313944118
 11
-1.5277517918
 21
23.3313944118
  0
LINE
  5
270
100
AcDbEntity
  8
ASSI
100
AcDbLine
 62
253
  6
CONTINUOUS
 10
-1.5277517918
 20
17.9313944118
 11
-1.5277517918
 21
3.9983425031
  0
LINE
  5
271
100
AcDbEntity
  8
ASSI
100
AcDbLine
 62
253
  6
CONTINUOUS
 10
-1.27
 20
42.8313944118
 11
-1.27
 21
23.3313944118
  0
LINE
  5
272
100
AcDbEntity
  8
ASSI
100
AcDbLine
 62
253
  6
CONTINUOUS
 10
-1.27
 20
17.9313944118
 11
-1.27
 21
3.9732092395
  0
LINE
  5
273
100
AcDbEntity
  8
0
100
AcDbLine
 62
7
  6
CONTINUOUS
 10
-1.1450292343
 20
48.9813944118
 11
-1.1450292343
 21
48.3313944118
  0
LWPOLYLINE
  5
274
100
AcDbEntity
  8
RACCORDO
100
AcDbPolyline
 62
253
  6
CONTINUOUS
 90
5
 70
0
 10
-7.7665671648
 20
20.134884893
 10
-7.763820296
 20
20.1352236447
 10
-7.755624219
 20
20.1355289191
 10
-7.7420719116
 20
20.1357924612
 10
-7.7233178932
 20
20.1360046145
  0
LINE
  5
275
100
AcDbEntity
  8
RACCORDO
100
AcDbLine
 62
253
  6
CONTINUOUS
 10
11.1246429259
 20
20.5266292356
 11
11.1671524619
 21
20.5269975643
  0
LINE
  5
276
100
AcDbEntity
  8
RACCORDO
100
AcDbLine
 62
253
  6
CONTINUOUS
 10
-6.5515809576
 20
20.5266292356
 11
-6.3016753003
 21
20.5279039305
  0
LINE
  5
277
100
AcDbEntity
  8
RACCORDO
100
AcDbLine
 62
253
  6
CONTINUOUS
 10
11.0262318096
 20
20.5264694223
 11
11.1246429259
 21
20.5266292356
  0
LINE
  5
278
100
AcDbEntity
  8
RACCORDO
100
AcDbLine
 62
253
  6
CONTINUOUS
 10
-6.3016753003
 20
20.5279039305
 11
10.6916168318
 21
20.5279039305
  0
LINE
  5
279
100
AcDbEntity
  8
RACCORDO
100
AcDbLine
 62
253
  6
CONTINUOUS
 10
-6.7060921115
 20
20.5265200828
 11
-6.5515809576
 21
20.5266292356
  0
LINE
  5
27A
100
AcDbEntity
  8
RACCORDO
100
AcDbLine
 62
253
  6
CONTINUOUS
 10
10.795614607
 20
20.5272421617
 11
11.0262318096
 21
20.5264694223
  0
LINE
  5
27B
100
AcDbEntity
  8
RACCORDO
100
AcDbLine
 62
253
  6
CONTINUOUS
 10
10.6916168318
 20
20.5279039305
 11
10.795614607
 21
20.5272421617
  0
LWPOLYLINE
  5
27C
100
AcDbEntity
  8
RACCORDO
100
AcDbPolyline
 62
253
  6
CONTINUOUS
 90
5
 70
0
 10
12.1860909168
 20
18.440120615
 10
12.1817957837
 20
18.4411844217
 10
12.1690235892
 20
18.4420807835
 10
12.1479927846
 20
18.4427943693
 10
12.1190630732
 20
18.4433129742
  0
LINE
  5
27D
100
AcDbEntity
  8
ASSI
100
AcDbLine
 62
253
  6
CONTINUOUS
 10
-0.6900584685
 20
42.8313944118
 11
-0.6900584685
 21
23.3313944118
  0
LINE
  5
27E
100
AcDbEntity
  8
ASSI
100
AcDbLine
 62
253
  6
CONTINUOUS
 10
-0.6900584685
 20
17.9313944118
 11
-0.6900584685
 21
3.7709415905
  0
LINE
  5
27F
100
AcDbEntity
  8
ASSI
100
AcDbLine
 62
253
  6
CONTINUOUS
 10
-0.4323066767
 20
42.8313944118
 11
-0.4323066767
 21
23.3313944118
  0
LINE
  5
280
100
AcDbEntity
  8
ASSI
100
AcDbLine
 62
253
  6
CONTINUOUS
 10
-0.4323066767
 20
17.9313944118
 11
-0.4323066767
 21
3.652517362
  0
LINE
  5
281
100
AcDbEntity
  8
ASSI
100
AcDbLine
 62
253
  6
CONTINUOUS
 10
-0.2577517918
 20
42.8313944118
 11
-0.2577517918
 21
23.3313944118
  0
LINE
  5
282
100
AcDbEntity
  8
ASSI
100
AcDbLine
 62
253
  6
CONTINUOUS
 10
-0.2577517918
 20
17.9313944118
 11
-0.2577517918
 21
3.5723180065
  0
LINE
  5
283
100
AcDbEntity
  8
ASSI
100
AcDbLine
 62
253
  6
CONTINUOUS
 10
-0.0
 20
42.8313944118
 11
-0.0
 21
23.3313944118
  0
LINE
  5
284
100
AcDbEntity
  8
ASSI
100
AcDbLine
 62
253
  6
CONTINUOUS
 10
-0.0
 20
17.9313944118
 11
-0.0
 21
3.453893778
  0
LINE
  5
285
100
AcDbEntity
  8
0
100
AcDbLine
 62
7
  6
CONTINUOUS
 10
0.3149707657
 20
49.8813944118
 11
0.3149707657
 21
48.9813944118
  0
LINE
  5
286
100
AcDbEntity
  8
0
100
AcDbLine
 62
7
  6
CONTINUOUS
 10
0.3549707657
 20
48.3313944118
 11
0.3549707657
 21
48.9813944118
  0
LINE
  5
287
100
AcDbEntity
  8
ASSI
100
AcDbLine
 62
253
  6
CONTINUOUS
 10
0.5799415315
 20
42.8313944118
 11
0.5799415315
 21
23.3313944118
  0
LINE
  5
288
100
AcDbEntity
  8
ASSI
100
AcDbLine
 62
253
  6
CONTINUOUS
 10
0.5799415315
 20
17.9313944118
 11
0.5799415315
 21
3.1608365001
  0
LINE
  5
289
100
AcDbEntity
  8
RACCORDO
100
AcDbLine
 62
253
  6
CONTINUOUS
 10
10.6512569394
 20
22.840120615
 11
10.7806222279
 21
22.8420807833
  0
LINE
  5
28A
100
AcDbEntity
  8
RACCORDO
100
AcDbLine
 62
253
  6
CONTINUOUS
 10
10.7806222279
 20
22.8420807833
 11
10.9011749002
 21
22.8433129741
  0
LWPOLYLINE
  5
28B
100
AcDbEntity
  8
RACCORDO
100
AcDbPolyline
 62
253
  6
CONTINUOUS
 90
8
 70
0
 10
10.9011749002
 20
22.8433129741
 10
11.0047026516
 20
22.8437332477
 10
11.0478191286
 20
22.8436277282
 10
11.0841529433
 20
22.8433129742
 10
11.1130826548
 20
22.8427943693
 10
11.1341134594
 20
22.8420807835
 10
11.1468856538
 20
22.8411844217
 10
11.151180787
 20
22.840120615
  0
LINE
  5
28C
100
AcDbEntity
  8
RACCORDO
100
AcDbLine
 62
253
  6
CONTINUOUS
 10
-6.2613154079
 20
22.840120615
 11
10.6512569394
 21
22.840120615
  0
LINE
  5
28D
100
AcDbEntity
  8
RACCORDO
100
AcDbLine
 62
7
  6
CONTINUOUS
 10
-6.2613154079
 20
23.3313944118
 11
10.6512569394
 21
23.3313944118
  0
LINE
  5
28E
100
AcDbEntity
  8
RACCORDO
100
AcDbLine
 62
253
  6
CONTINUOUS
 10
-6.6147611345
 20
22.8437332477
 11
-6.5112333898
 21
22.8433129742
  0
LINE
  5
28F
100
AcDbEntity
  8
RACCORDO
100
AcDbLine
 62
253
  6
CONTINUOUS
 10
-6.5112333898
 20
22.8433129742
 11
-6.3906807145
 21
22.8420807835
  0
LINE
  5
290
100
AcDbEntity
  8
RACCORDO
100
AcDbLine
 62
253
  6
CONTINUOUS
 10
-6.3906807145
 20
22.8420807835
 11
-6.2613154079
 21
22.840120615
  0
LINE
  5
291
100
AcDbEntity
  8
ASSI
100
AcDbLine
 62
253
  6
CONTINUOUS
 10
0.8376933233
 20
42.8313944118
 11
0.8376933233
 21
23.3313944118
  0
LINE
  5
292
100
AcDbEntity
  8
ASSI
100
AcDbLine
 62
253
  6
CONTINUOUS
 10
0.8376933233
 20
17.9313944118
 11
0.8376933233
 21
3.0042499135
  0
LINE
  5
293
100
AcDbEntity
  8
ASSI
100
AcDbLine
 62
253
  6
CONTINUOUS
 10
1.0122482082
 20
42.8313944118
 11
1.0122482082
 21
23.3313944118
  0
LINE
  5
294
100
AcDbEntity
  8
ASSI
100
AcDbLine
 62
253
  6
CONTINUOUS
 10
1.0122482082
 20
17.9313944118
 11
1.0122482082
 21
2.8982062138
  0
LINE
  5
295
100
AcDbEntity
  8
ASSI
100
AcDbLine
 62
253
  6
CONTINUOUS
 10
1.27
 20
42.8313944118
 11
1.27
 21
23.3313944118
  0
LINE
  5
296
100
AcDbEntity
  8
ASSI
100
AcDbLine
 62
253
  6
CONTINUOUS
 10
1.27
 20
17.9313944118
 11
1.27
 21
2.7416196272
  0
LINE
  5
297
100
AcDbEntity
  8
0
100
AcDbLine
 62
7
  6
CONTINUOUS
 10
1.3149707657
 20
48.9813944118
 11
1.3149707657
 21
49.8813944118
  0
LINE
  5
298
100
AcDbEntity
  8
0
100
AcDbLine
 62
7
  6
CONTINUOUS
 10
1.4349707657
 20
48.9813944118
 11
1.4349707657
 21
48.3313944118
  0
LINE
  5
299
100
AcDbEntity
  8
ASSI
100
AcDbLine
 62
253
  6
CONTINUOUS
 10
1.8499415315
 20
42.8313944118
 11
1.8499415315
 21
23.3313944118
  0
LINE
  5
29A
100
AcDbEntity
  8
ASSI
100
AcDbLine
 62
253
  6
CONTINUOUS
 10
1.8499415315
 20
17.9313944118
 11
1.8499415315
 21
2.3892998074
  0
LINE
  5
29B
100
AcDbEntity
  8
ASSI
100
AcDbLine
 62
253
  6
CONTINUOUS
 10
2.1076933233
 20
42.8313944118
 11
2.1076933233
 21
23.3313944118
  0
LINE
  5
29C
100
AcDbEntity
  8
ASSI
100
AcDbLine
 62
253
  6
CONTINUOUS
 10
2.1076933233
 20
17.9313944118
 11
2.1076933233
 21
2.2422118108
  0
LINE
  5
29D
100
AcDbEntity
  8
ASSI
100
AcDbLine
 62
253
  6
CONTINUOUS
 10
2.2822482082
 20
42.8313944118
 11
2.2822482082
 21
23.3313944118
  0
LINE
  5
29E
100
AcDbEntity
  8
ASSI
100
AcDbLine
 62
253
  6
CONTINUOUS
 10
2.2822482082
 20
17.9313944118
 11
2.2822482082
 21
2.1443234305
  0
LWPOLYLINE
  5
29F
100
AcDbEntity
  8
RACCORDO
100
AcDbPolyline
 62
253
  6
CONTINUOUS
 90
7
 70
0
 10
-6.7612392555
 20
22.840120615
 10
-6.7569441237
 20
22.8411844215
 10
-6.7441719328
 20
22.8420807833
 10
-6.7231411323
 20
22.8427943691
 10
-6.694211424
 20
22.8433129741
 10
-6.6578776106
 20
22.8436277281
 10
-6.6147611345
 20
22.8437332477
  0
LINE
  5
2A0
100
AcDbEntity
  8
ASSI
100
AcDbLine
 62
253
  6
CONTINUOUS
 10
2.54
 20
42.8313944118
 11
2.54
 21
23.3313944118
  0
LINE
  5
2A1
100
AcDbEntity
  8
ASSI
100
AcDbLine
 62
253
  6
CONTINUOUS
 10
2.54
 20
17.9313944118
 11
2.54
 21
1.9997791776
  0
LINE
  5
2A2
100
AcDbEntity
  8
0
100
AcDbLine
 62
7
  6
CONTINUOUS
 10
2.9349707657
 20
48.3313944118
 11
2.9349707657
 21
48.9813944118
  0
LINE
  5
2A3
100
AcDbEntity
  8
0
100
AcDbLine
 62
7
  6
CONTINUOUS
 10
3.0149707657
 20
49.8813944118
 11
3.0149707657
 21
48.9813944118
  0
LINE
  5
2A4
100
AcDbEntity
  8
ASSI
100
AcDbLine
 62
253
  6
CONTINUOUS
 10
3.1199415315
 20
42.8313944118
 11
3.1199415315
 21
23.3313944118
  0
LINE
  5
2A5
100
AcDbEntity
  8
ASSI
100
AcDbLine
 62
253
  6
CONTINUOUS
 10
3.1199415315
 20
17.9313944118
 11
3.1199415315
 21
1.6745546087
  0
LINE
  5
2A6
100
AcDbEntity
  8
ASSI
100
AcDbLine
 62
253
  6
CONTINUOUS
 10
3.3776933233
 20
42.8313944118
 11
3.3776933233
 21
23.3313944118
  0
LINE
  5
2A7
100
AcDbEntity
  8
ASSI
100
AcDbLine
 62
253
  6
CONTINUOUS
 10
3.3776933233
 20
17.9313944118
 11
3.3776933233
 21
1.5300103559
  0
LINE
  5
2A8
100
AcDbEntity
  8
ASSI
100
AcDbLine
 62
253
  6
CONTINUOUS
 10
3.5522482082
 20
42.8313944118
 11
3.5522482082
 21
23.3313944118
  0
LINE
  5
2A9
100
AcDbEntity
  8
ASSI
100
AcDbLine
 62
253
  6
CONTINUOUS
 10
3.5522482082
 20
17.9313944118
 11
3.5522482082
 21
1.4683147781
  0
LINE
  5
2AA
100
AcDbEntity
  8
ASSI
100
AcDbLine
 62
253
  6
CONTINUOUS
 10
3.81
 20
42.8313944118
 11
3.81
 21
23.3313944118
  0
LINE
  5
2AB
100
AcDbEntity
  8
ASSI
100
AcDbLine
 62
253
  6
CONTINUOUS
 10
3.81
 20
17.9313944118
 11
3.81
 21
1.3973443153
  0
LINE
  5
2AC
100
AcDbEntity
  8
0
100
AcDbLine
 62
7
  6
CONTINUOUS
 10
4.0149707657
 20
48.9813944118
 11
4.0149707657
 21
49.8813944118
  0
LINE
  5
2AD
100
AcDbEntity
  8
ASSI
100
AcDbLine
 62
253
  6
CONTINUOUS
 10
4.3899415315
 20
42.8313944118
 11
4.3899415315
 21
23.3313944118
  0
LINE
  5
2AE
100
AcDbEntity
  8
ASSI
100
AcDbLine
 62
253
  6
CONTINUOUS
 10
4.3899415315
 20
17.9313944118
 11
4.3899415315
 21
1.2376607739
  0
LINE
  5
2AF
100
AcDbEntity
  8
ASSI
100
AcDbLine
 62
253
  6
CONTINUOUS
 10
4.6476933233
 20
42.8313944118
 11
4.6476933233
 21
23.3313944118
  0
LINE
  5
2B0
100
AcDbEntity
  8
ASSI
100
AcDbLine
 62
253
  6
CONTINUOUS
 10
4.6476933233
 20
17.9313944118
 11
4.6476933233
 21
1.1666903111
  0
LINE
  5
2B1
100
AcDbEntity
  8
ASSI
100
AcDbLine
 62
253
  6
CONTINUOUS
 10
4.8222482082
 20
42.8313944118
 11
4.8222482082
 21
23.3313944118
  0
LINE
  5
2B2
100
AcDbEntity
  8
ASSI
100
AcDbLine
 62
253
  6
CONTINUOUS
 10
4.8222482082
 20
17.9313944118
 11
4.8222482082
 21
1.1186276346
  0
LINE
  5
2B3
100
AcDbEntity
  8
0
100
AcDbLine
 62
7
  6
CONTINUOUS
 10
4.8402702274
 20
48.9813944118
 11
4.8402702274
 21
48.7313944118
  0
LINE
  5
2B4
100
AcDbEntity
  8
ASSI
100
AcDbLine
 62
253
  6
CONTINUOUS
 10
5.08
 20
42.8313944118
 11
5.08
 21
23.3313944118
  0
LINE
  5
2B5
100
AcDbEntity
  8
ASSI
100
AcDbLine
 62
253
  6
CONTINUOUS
 10
5.08
 20
17.9313944118
 11
5.08
 21
1.0476571718
  0
LINE
  5
2B6
100
AcDbEntity
  8
ASSI
100
AcDbLine
 62
253
  6
CONTINUOUS
 10
5.6599415315
 20
42.8313944118
 11
5.6599415315
 21
23.3313944118
  0
LINE
  5
2B7
100
AcDbEntity
  8
ASSI
100
AcDbLine
 62
253
  6
CONTINUOUS
 10
5.6599415315
 20
17.9313944118
 11
5.6599415315
 21
1.0420215453
  0
LINE
  5
2B8
100
AcDbEntity
  8
ASSI
100
AcDbLine
 62
253
  6
CONTINUOUS
 10
5.9176933233
 20
42.8313944118
 11
5.9176933233
 21
23.3313944118
  0
LINE
  5
2B9
100
AcDbEntity
  8
ASSI
100
AcDbLine
 62
253
  6
CONTINUOUS
 10
5.9176933233
 20
17.9313944118
 11
5.9176933233
 21
1.1210816375
  0
LINE
  5
2BA
100
AcDbEntity
  8
0
100
AcDbLine
 62
7
  6
CONTINUOUS
 10
5.9949707657
 20
48.7313944118
 11
5.9949707657
 21
48.9813944118
  0
LINE
  5
2BB
100
AcDbEntity
  8
ASSI
100
AcDbLine
 62
253
  6
CONTINUOUS
 10
6.0922482082
 20
42.8313944118
 11
6.0922482082
 21
23.3313944118
  0
LINE
  5
2BC
100
AcDbEntity
  8
ASSI
100
AcDbLine
 62
253
  6
CONTINUOUS
 10
6.0922482082
 20
17.9313944118
 11
6.0922482082
 21
1.1746227796
  0
LINE
  5
2BD
100
AcDbEntity
  8
ASSI
100
AcDbLine
 62
253
  6
CONTINUOUS
 10
6.35
 20
42.8313944118
 11
6.35
 21
23.3313944118
  0
LINE
  5
2BE
100
AcDbEntity
  8
ASSI
100
AcDbLine
 62
253
  6
CONTINUOUS
 10
6.35
 20
17.9313944118
 11
6.35
 21
1.2536828718
  0
LINE
  5
2BF
100
AcDbEntity
  8
ASSI
100
AcDbLine
 62
7
  6
CONTINUOUS
 10
7.0899707657
 20
42.8313944118
 11
7.0899707657
 21
23.3313944118
  0
LINE
  5
2C0
100
AcDbEntity
  8
ASSI
100
AcDbLine
 62
7
  6
CONTINUOUS
 10
7.0899707657
 20
17.9313944118
 11
7.0899707657
 21
1.4806537749
  0
LINE
  5
2C1
100
AcDbEntity
  8
0
100
AcDbLine
 62
7
  6
CONTINUOUS
 10
7.1496713041
 20
48.7313944118
 11
7.1496713041
 21
48.9813944118
  0
LINE
  5
2C2
100
AcDbEntity
  8
0
100
AcDbLine
 62
7
  6
CONTINUOUS
 10
7.4949707657
 20
48.8313944118
 11
7.4949707657
 21
48.3313944118
  0
LINE
  5
2C3
100
AcDbEntity
  8
0
100
AcDbLine
 62
7
  6
CONTINUOUS
 10
7.4949707657
 20
43.5313944118
 11
7.4949707657
 21
43.0313944118
  0
LINE
  5
2C4
100
AcDbEntity
  8
0
100
AcDbLine
 62
7
  6
CONTINUOUS
 10
7.9349707657
 20
43.0313944118
 11
7.9349707657
 21
44.4313944118
  0
LINE
  5
2C5
100
AcDbEntity
  8
0
100
AcDbLine
 62
7
  6
CONTINUOUS
 10
7.9349707657
 20
47.4313944118
 11
7.9349707657
 21
48.8313944118
  0
LINE
  5
2C6
100
AcDbEntity
  8
0
100
AcDbLine
 62
7
  6
CONTINUOUS
 10
7.9949707657
 20
42.8813944118
 11
7.9949707657
 21
44.4313944118
  0
LINE
  5
2C7
100
AcDbEntity
  8
0
100
AcDbLine
 62
7
  6
CONTINUOUS
 10
7.9949707657
 20
47.4313944118
 11
7.9949707657
 21
48.9813944118
  0
LINE
  5
2C8
100
AcDbEntity
  8
0
100
AcDbLine
 62
7
  6
CONTINUOUS
 10
8.8349707657
 20
44.4313944118
 11
8.8349707657
 21
47.4313944118
  0
LINE
  5
2C9
100
AcDbEntity
  8
0
100
AcDbLine
 62
7
  6
CONTINUOUS
 10
9.0249707657
 20
45.0813944118
 11
9.0249707657
 21
46.7613944118
  0
LINE
  5
2CA
100
AcDbEntity
  8
0
100
AcDbLine
 62
7
  6
CONTINUOUS
 10
9.1404408196
 20
46.7613944118
 11
9.1404408196
 21
45.0813944118
  0
LINE
  5
2CB
100
AcDbEntity
  8
0
100
AcDbLine
 62
7
  6
CONTINUOUS
 10
9.4749707657
 20
47.4313944118
 11
9.4749707657
 21
44.4313944118
  0
LINE
  5
2CC
100
AcDbEntity
  8
RACCORDO
100
AcDbLine
 62
253
  6
CONTINUOUS
 10
10.6916168318
 20
20.5279039305
 11
10.6512569394
 21
22.840120615
  0
LINE
  5
2CD
100
AcDbEntity
  8
RACCORDO
100
AcDbLine
 62
7
  6
CONTINUOUS
 10
11.1915406793
 20
20.5279039305
 11
11.151180787
 21
22.840120615
  0
LINE
  5
2CE
100
AcDbEntity
  8
RACCORDO
100
AcDbLine
 62
253
  6
CONTINUOUS
 10
10.6512569394
 20
23.3313944118
 11
10.6512569142
 21
22.8401206151
  0
LINE
  5
2CF
100
AcDbEntity
  8
RACCORDO
100
AcDbLine
 62
253
  6
CONTINUOUS
 10
10.6916168318
 20
20.3313944118
 11
10.6916168318
 21
20.5279039305
  0
LINE
  5
2D0
100
AcDbEntity
  8
RACCORDO
100
AcDbLine
 62
253
  6
CONTINUOUS
 10
11.6861670693
 20
18.440120615
 11
11.6565848487
 21
20.134884893
  0
LINE
  5
2D1
100
AcDbEntity
  8
RACCORDO
100
AcDbLine
 62
7
  6
CONTINUOUS
 10
12.1860909168
 20
18.440120615
 11
12.1565086963
 21
20.134884893
  0
LINE
  5
2D2
100
AcDbEntity
  8
RACCORDO
100
AcDbLine
 62
253
  6
CONTINUOUS
 10
11.6565848487
 20
20.3313944118
 11
11.6565848188
 21
20.1348848934
  0
LINE
  5
2D3
100
AcDbEntity
  8
RACCORDO
100
AcDbLine
 62
253
  6
CONTINUOUS
 10
11.6861670693
 20
17.9313944118
 11
11.6861670693
 21
18.440120615
  0
LINE
  5
2D4
100
AcDbEntity
  8
RACCORDO
100
AcDbLine
 62
7
  6
CONTINUOUS
 10
12.1860909102
 20
18.4226678274
 11
12.1860909168
 21
18.4401206152
  0
LINE
  5
2D5
100
AcDbEntity
  8
0
100
AcDbLine
 62
7
  6
CONTINUOUS
 10
-1.1450292343
 20
48.9813944118
 11
-0.7950292343
 21
48.4813944118
  0
LINE
  5
2D6
100
AcDbEntity
  8
0
100
AcDbLine
 62
7
  6
CONTINUOUS
 10
1.4349707657
 20
48.9813944118
 11
1.7849707657
 21
48.4813944118
  0
LINE
  5
2D7
100
AcDbEntity
  8
0
100
AcDbLine
 62
7
  6
CONTINUOUS
 10
-2.7000292343
 20
4.101765601
 11
-2.6816462385
 21
4.1108582418
  0
LINE
  5
2D8
100
AcDbEntity
  8
ASSI
100
AcDbLine
 62
7
  6
CONTINUOUS
 10
7.0899707657
 20
42.8313944118
 11
-2.7000292343
 21
42.8313944118
  0
LINE
  5
2D9
100
AcDbEntity
  8
0
100
AcDbLine
 62
7
  6
CONTINUOUS
 10
-3.6650292343
 20
42.8813944118
 11
7.9949707657
 21
42.8813944118
  0
LINE
  5
2DA
100
AcDbEntity
  8
0
100
AcDbLine
 62
7
  6
CONTINUOUS
 10
-3.6850292343
 20
43.0313944118
 11
-3.2450292343
 21
43.0313944118
  0
LINE
  5
2DB
100
AcDbEntity
  8
0
100
AcDbLine
 62
7
  6
CONTINUOUS
 10
7.4949707657
 20
43.0313944118
 11
7.9349707657
 21
43.0313944118
  0
LINE
  5
2DC
100
AcDbEntity
  8
0
100
AcDbLine
 62
7
  6
CONTINUOUS
 10
-3.6850292343
 20
43.5313944118
 11
7.9349707657
 21
43.5313944118
  0
LINE
  5
2DD
100
AcDbEntity
  8
0
100
AcDbLine
 62
7
  6
CONTINUOUS
 10
-5.1450292343
 20
44.4313944118
 11
-3.6850292343
 21
44.4313944118
  0
LINE
  5
2DE
100
AcDbEntity
  8
0
100
AcDbLine
 62
7
  6
CONTINUOUS
 10
7.9349707657
 20
44.4313944118
 11
9.4749707657
 21
44.4313944118
  0
LINE
  5
2DF
100
AcDbEntity
  8
0
100
AcDbLine
 62
7
  6
CONTINUOUS
 10
9.1404408196
 20
45.0813944118
 11
8.8349707657
 21
45.0813944118
  0
LINE
  5
2E0
100
AcDbEntity
  8
0
100
AcDbLine
 62
7
  6
CONTINUOUS
 10
-4.5850292343
 20
45.0813944118
 11
-5.1450292343
 21
45.0813944118
  0
LINE
  5
2E1
100
AcDbEntity
  8
0
100
AcDbLine
 62
7
  6
CONTINUOUS
 10
-4.6950292343
 20
45.1413944118
 11
-4.5850292343
 21
45.1413944118
  0
LINE
  5
2E2
100
AcDbEntity
  8
0
100
AcDbLine
 62
7
  6
CONTINUOUS
 10
-4.5850292343
 20
45.8913944118
 11
-4.6950292343
 21
45.8913944118
  0
LINE
  5
2E3
100
AcDbEntity
  8
0
100
AcDbLine
 62
7
  6
CONTINUOUS
 10
8.8349707727
 20
45.8913944118
 11
9.0249707657
 21
45.8913944118
  0
LINE
  5
2E4
100
AcDbEntity
  8
0
100
AcDbLine
 62
7
  6
CONTINUOUS
 10
-4.5850292413
 20
45.9713944118
 11
-4.6950292343
 21
45.9713944118
  0
LINE
  5
2E5
100
AcDbEntity
  8
0
100
AcDbLine
 62
7
  6
CONTINUOUS
 10
8.8349707657
 20
45.9713944118
 11
9.0249707657
 21
45.9713944118
  0
LINE
  5
2E6
100
AcDbEntity
  8
0
100
AcDbLine
 62
7
  6
CONTINUOUS
 10
9.0249707657
 20
46.7213944118
 11
8.8349707657
 21
46.7213944118
  0
LINE
  5
2E7
100
AcDbEntity
  8
0
100
AcDbLine
 62
7
  6
CONTINUOUS
 10
-5.1450292343
 20
46.7613944118
 11
-4.5850292343
 21
46.7613944118
  0
LINE
  5
2E8
100
AcDbEntity
  8
0
100
AcDbLine
 62
7
  6
CONTINUOUS
 10
8.8349707657
 20
46.7613944118
 11
9.1404408196
 21
46.7613944118
  0
LINE
  5
2E9
100
AcDbEntity
  8
0
100
AcDbLine
 62
7
  6
CONTINUOUS
 10
-4.5850292484
 20
46.7216135761
 11
-4.6950292343
 21
46.721698917
  0
LINE
  5
2EA
100
AcDbEntity
  8
0
100
AcDbLine
 62
7
  6
CONTINUOUS
 10
8.8349707798
 20
45.1411752474
 11
9.0249707657
 21
45.1410940297
  0
LINE
  5
2EB
100
AcDbEntity
  8
0
100
AcDbLine
 62
7
  6
CONTINUOUS
 10
-5.1450292343
 20
47.4313944118
 11
-3.6850292343
 21
47.4313944118
  0
LINE
  5
2EC
100
AcDbEntity
  8
0
100
AcDbLine
 62
7
  6
CONTINUOUS
 10
7.9349707657
 20
47.4313944118
 11
9.4749707657
 21
47.4313944118
  0
LINE
  5
2ED
100
AcDbEntity
  8
0
100
AcDbLine
 62
7
  6
CONTINUOUS
 10
-3.6850292343
 20
48.3313944118
 11
7.9349707657
 21
48.3313944118
  0
LINE
  5
2EE
100
AcDbEntity
  8
0
100
AcDbLine
 62
7
  6
CONTINUOUS
 10
-1.1450292343
 20
48.4813944118
 11
0.3549707657
 21
48.4813944118
  0
LINE
  5
2EF
100
AcDbEntity
  8
0
100
AcDbLine
 62
7
  6
CONTINUOUS
 10
1.4349707657
 20
48.4813944118
 11
2.9349707657
 21
48.4813944118
  0
LINE
  5
2F0
100
AcDbEntity
  8
0
100
AcDbLine
 62
7
  6
CONTINUOUS
 10
5.3952879342
 20
0.9608444654
 11
7.0899707657
 21
1.4806537749
  0
LINE
  5
2F1
100
AcDbEntity
  8
0
100
AcDbLine
 62
7
  6
CONTINUOUS
 10
4.8402702274
 20
48.7313944118
 11
7.1496713041
 21
48.7313944118
  0
LINE
  5
2F2
100
AcDbEntity
  8
0
100
AcDbLine
 62
7
  6
CONTINUOUS
 10
7.9349707657
 20
48.8313944118
 11
7.4949707657
 21
48.8313944118
  0
LINE
  5
2F3
100
AcDbEntity
  8
0
100
AcDbLine
 62
7
  6
CONTINUOUS
 10
-3.2450292343
 20
48.8313944118
 11
-3.6850292343
 21
48.8313944118
  0
LINE
  5
2F4
100
AcDbEntity
  8
0
100
AcDbLine
 62
7
  6
CONTINUOUS
 10
-3.6650292343
 20
48.9813944118
 11
-1.1450292343
 21
48.9813944118
  0
LINE
  5
2F5
100
AcDbEntity
  8
0
100
AcDbLine
 62
7
  6
CONTINUOUS
 10
0.3149707657
 20
48.9813944118
 11
1.4349707657
 21
48.9813944118
  0
LINE
  5
2F6
100
AcDbEntity
  8
0
100
AcDbLine
 62
7
  6
CONTINUOUS
 10
2.9349707657
 20
48.9813944118
 11
7.9949707657
 21
48.9813944118
  0
LINE
  5
2F7
100
AcDbEntity
  8
0
100
AcDbLine
 62
7
  6
CONTINUOUS
 10
4.0149707657
 20
49.8813944118
 11
3.0149707657
 21
49.8813944118
  0
LINE
  5
2F8
100
AcDbEntity
  8
0
100
AcDbLine
 62
7
  6
CONTINUOUS
 10
1.3149707657
 20
49.8813944118
 11
0.3149707657
 21
49.8813944118
  0
LINE
  5
2F9
100
AcDbEntity
  8
0
100
AcDbLine
 62
7
  6
CONTINUOUS
 10
4.0149707657
 20
-61.6331560484
 11
3.0149707657
 21
-61.6331560484
  0
LINE
  5
2FA
100
AcDbEntity
  8
0
100
AcDbLine
 62
7
  6
CONTINUOUS
 10
1.3149707657
 20
-61.6331560484
 11
0.3149707657
 21
-61.6331560484
  0
LINE
  5
2FB
100
AcDbEntity
  8
0
100
AcDbLine
 62
7
  6
CONTINUOUS
 10
7.9949707657
 20
-60.7331560484
 11
4.0149707657
 21
-60.7331560484
  0
LINE
  5
2FC
100
AcDbEntity
  8
0
100
AcDbLine
 62
7
  6
CONTINUOUS
 10
3.0149707657
 20
-60.7331560484
 11
2.9349707657
 21
-60.7331560484
  0
LINE
  5
2FD
100
AcDbEntity
  8
0
100
AcDbLine
 62
7
  6
CONTINUOUS
 10
1.4349707657
 20
-60.7331560484
 11
1.3149707657
 21
-60.7331560484
  0
LINE
  5
2FE
100
AcDbEntity
  8
0
100
AcDbLine
 62
7
  6
CONTINUOUS
 10
-1.1450292343
 20
-60.7331560484
 11
-3.6650292343
 21
-60.7331560484
  0
LINE
  5
2FF
100
AcDbEntity
  8
0
100
AcDbLine
 62
7
  6
CONTINUOUS
 10
0.3149707657
 20
-60.7331560484
 11
0.3549707657
 21
-60.7331560484
  0
LINE
  5
300
100
AcDbEntity
  8
0
100
AcDbLine
 62
7
  6
CONTINUOUS
 10
-2.6816462385
 20
1.1106562418
 11
-2.7000292343
 21
1.101563601
  0
LWPOLYLINE
  5
301
100
AcDbEntity
  8
0
100
AcDbPolyline
 62
7
  6
CONTINUOUS
 90
31
 70
0
 10
8.5953460439
 20
-59.1488414734
 10
8.6058871301
 20
-59.1487411165
 10
8.6163268088
 20
-59.1484490908
 10
8.6266650799
 20
-59.1479630434
 10
8.6369267359
 20
-59.1472771189
 10
8.6470869844
 20
-59.1463878143
 10
8.6570714483
 20
-59.1452942232
 10
8.6668857336
 20
-59.143985921
 10
8.6765242344
 20
-59.1424555151
 10
8.6858957547
 20
-59.1407054796
 10
8.6949871678
 20
-59.1387257591
 10
8.7038116005
 20
-59.1365024467
 10
8.7123172378
 20
-59.134031902
 10
8.7205058163
 20
-59.1312991786
 10
8.7283755994
 20
-59.1282901251
 10
8.7358695618
 20
-59.1250025981
 10
8.742981794
 20
-59.1214239285
 10
8.7497182056
 20
-59.1175349361
 10
8.7560395005
 20
-59.1133241469
 10
8.7619461988
 20
-59.108776699
 10
8.7674377804
 20
-59.1038726558
 10
8.7724733893
 20
-59.0985924561
 10
8.7770551652
 20
-59.0929202535
 10
8.7811809684
 20
-59.086834097
 10
8.7848035236
 20
-59.0803036581
 10
8.7879267039
 20
-59.0733118392
 10
8.7905466362
 20
-59.0658343619
 10
8.7926044258
 20
-59.0578269391
 10
8.7940804412
 20
-59.0492585395
 10
8.7949943139
 20
-59.0401137095
 10
8.7953460439
 20
-59.0303696439
  0
LWPOLYLINE
  5
302
100
AcDbEntity
  8
0
100
AcDbPolyline
 62
7
  6
CONTINUOUS
 90
31
 70
0
 10
-3.8650292343
 20
-59.1488414734
 10
-3.8544881481
 20
-59.1487411165
 10
-3.8440484694
 20
-59.1484490908
 10
-3.8337101982
 20
-59.1479630434
 10
-3.8234485422
 20
-59.1472771189
 10
-3.8132882937
 20
-59.1463878143
 10
-3.8033038299
 20
-59.1452942232
 10
-3.7934895445
 20
-59.143985921
 10
-3.7838510438
 20
-59.1424555151
 10
-3.7744795235
 20
-59.1407054796
 10
-3.7653881104
 20
-59.1387257591
 10
-3.7565636777
 20
-59.1365024467
 10
-3.7480580404
 20
-59.134031902
 10
-3.7398694619
 20
-59.1312991786
 10
-3.7319996788
 20
-59.1282901251
 10
-3.7245057164
 20
-59.1250025981
 10
-3.7173934842
 20
-59.1214239285
 10
-3.7106570726
 20
-59.1175349361
 10
-3.7043357777
 20
-59.1133241469
 10
-3.6984290794
 20
-59.108776699
 10
-3.6929374978
 20
-59.1038726558
 10
-3.6879018889
 20
-59.0985924561
 10
-3.683320113
 20
-59.0929202535
 10
-3.6791943098
 20
-59.086834097
 10
-3.6755717546
 20
-59.0803036581
 10
-3.6724485743
 20
-59.0733118392
 10
-3.669828642
 20
-59.0658343619
 10
-3.6677708524
 20
-59.0578269391
 10
-3.666294837
 20
-59.0492585395
 10
-3.6653809643
 20
-59.0401137095
 10
-3.6650292343
 20
-59.0303696439
  0
LINE
  5
303
100
AcDbEntity
  8
0
100
AcDbLine
 62
7
  6
CONTINUOUS
 10
-3.6850292343
 20
-60.5831560484
 11
-3.6650292343
 21
-60.5831560484
  0
LINE
  5
304
100
AcDbEntity
  8
0
100
AcDbLine
 62
7
  6
CONTINUOUS
 10
2.5849707657
 20
-60.2331560484
 11
1.7849707657
 21
-60.2331560484
  0
LINE
  5
305
100
AcDbEntity
  8
0
100
AcDbLine
 62
7
  6
CONTINUOUS
 10
0.0049707657
 20
-60.2331560484
 11
-0.7950292343
 21
-60.2331560484
  0
LINE
  5
306
100
AcDbEntity
  8
0
100
AcDbLine
 62
7
  6
CONTINUOUS
 10
-2.4000292343
 20
-59.6881560484
 11
-0.8500292343
 21
-59.6881560484
  0
LINE
  5
307
100
AcDbEntity
  8
0
100
AcDbLine
 62
7
  6
CONTINUOUS
 10
0.1399707657
 20
-59.6881560484
 11
1.6899707657
 21
-59.6881560484
  0
LINE
  5
308
100
AcDbEntity
  8
0
100
AcDbLine
 62
7
  6
CONTINUOUS
 10
2.6799707657
 20
-59.6881560484
 11
4.2299707657
 21
-59.6881560484
  0
LINE
  5
309
100
AcDbEntity
  8
0
100
AcDbLine
 62
7
  6
CONTINUOUS
 10
5.2199707657
 20
-59.6881560484
 11
6.7699707657
 21
-59.6881560484
  0
LINE
  5
30A
100
AcDbEntity
  8
0
100
AcDbLine
 62
7
  6
CONTINUOUS
 10
-2.0500292343
 20
-59.3381560484
 11
-1.2000292343
 21
-59.3381560484
  0
LINE
  5
30B
100
AcDbEntity
  8
0
100
AcDbLine
 62
7
  6
CONTINUOUS
 10
0.4899707657
 20
-59.3381560484
 11
1.3399707657
 21
-59.3381560484
  0
LINE
  5
30C
100
AcDbEntity
  8
0
100
AcDbLine
 62
7
  6
CONTINUOUS
 10
3.0299707657
 20
-59.3381560484
 11
3.8799707657
 21
-59.3381560484
  0
LINE
  5
30D
100
AcDbEntity
  8
0
100
AcDbLine
 62
7
  6
CONTINUOUS
 10
5.5699707657
 20
-59.3381560484
 11
6.4199707657
 21
-59.3381560484
  0
LINE
  5
30E
100
AcDbEntity
  8
0
100
AcDbLine
 62
7
  6
CONTINUOUS
 10
9.4749707657
 20
-59.1831560484
 11
7.9949707657
 21
-59.1831560484
  0
LINE
  5
30F
100
AcDbEntity
  8
0
100
AcDbLine
 62
7
  6
CONTINUOUS
 10
-3.6650292343
 20
-59.1831560484
 11
-5.1450292343
 21
-59.1831560484
  0
LINE
  5
310
100
AcDbEntity
  8
0
100
AcDbLine
 62
7
  6
CONTINUOUS
 10
-4.2654045124
 20
-59.1488414734
 11
-3.8650292343
 21
-59.1488414734
  0
LINE
  5
311
100
AcDbEntity
  8
0
100
AcDbLine
 62
7
  6
CONTINUOUS
 10
8.1949707657
 20
-59.1488414734
 11
8.5953460439
 21
-59.1488414734
  0
LINE
  5
312
100
AcDbEntity
  8
0
100
AcDbLine
 62
253
  6
CONTINUOUS
 10
-5.1450292343
 20
-58.5831560484
 11
-4.4654045124
 21
-58.5831560484
  0
LINE
  5
313
100
AcDbEntity
  8
0
100
AcDbLine
 62
253
  6
CONTINUOUS
 10
8.7953460439
 20
-58.5831560484
 11
9.4749707657
 21
-58.5831560484
  0
LINE
  5
314
100
AcDbEntity
  8
0
100
AcDbLine
 62
7
  6
CONTINUOUS
 10
6.4199707657
 20
-58.5681560484
 11
5.5699707657
 21
-58.5681560484
  0
LINE
  5
315
100
AcDbEntity
  8
0
100
AcDbLine
 62
7
  6
CONTINUOUS
 10
3.8799707657
 20
-58.5681560484
 11
3.0299707657
 21
-58.5681560484
  0
LINE
  5
316
100
AcDbEntity
  8
0
100
AcDbLine
 62
7
  6
CONTINUOUS
 10
1.3399707657
 20
-58.5681560484
 11
0.4899707657
 21
-58.5681560484
  0
LINE
  5
317
100
AcDbEntity
  8
0
100
AcDbLine
 62
7
  6
CONTINUOUS
 10
-1.2000292343
 20
-58.5681560484
 11
-2.0500292343
 21
-58.5681560484
  0
LINE
  5
318
100
AcDbEntity
  8
0
100
AcDbLine
 62
7
  6
CONTINUOUS
 10
9.4749707657
 20
-58.5331560484
 11
7.9949707657
 21
-58.5331560484
  0
LINE
  5
319
100
AcDbEntity
  8
0
100
AcDbLine
 62
7
  6
CONTINUOUS
 10
9.0249707657
 20
-58.5131560484
 11
7.9949707657
 21
-58.5131560484
  0
LINE
  5
31A
100
AcDbEntity
  8
0
100
AcDbLine
 62
7
  6
CONTINUOUS
 10
-5.1450292343
 20
-58.5131560484
 11
-3.6650292343
 21
-58.5131560484
  0
LWPOLYLINE
  5
31B
100
AcDbEntity
  8
0
100
AcDbPolyline
 62
7
  6
CONTINUOUS
 90
31
 70
0
 10
-4.2654045124
 20
-59.1488414734
 10
-4.2758986903
 20
-59.1487475982
 10
-4.2863476993
 20
-59.1484547978
 10
-4.2967230428
 20
-59.1479630722
 10
-4.3069942554
 20
-59.1472772256
 10
-4.3171362154
 20
-59.1463924539
 10
-4.3271289176
 20
-59.1452943442
 10
-4.3369536909
 20
-59.1439841967
 10
-4.346575996
 20
-59.1424607112
 10
-4.3559537519
 20
-59.1407055747
 10
-4.3650532998
 20
-59.1387227326
 10
-4.3738631009
 20
-59.1365082394
 10
-4.3823755664
 20
-59.1340319456
 10
-4.3905726266
 20
-59.1312946299
 10
-4.3984296662
 20
-59.1282955135
 10
-4.4059290693
 20
-59.1250021102
 10
-4.4130470133
 20
-59.1214186102
 10
-4.4197709423
 20
-59.1175408234
 10
-4.4260986038
 20
-59.113323693
 10
-4.4320105708
 20
-59.1087707901
 10
-4.4374899009
 20
-59.1038785437
 10
-4.4425329777
 20
-59.0985911835
 10
-4.4471193415
 20
-59.0929135123
 10
-4.4512313858
 20
-59.0868407275
 10
-4.4548624963
 20
-59.0803026508
 10
-4.4579903265
 20
-59.0733052624
 10
-4.4605948279
 20
-59.0658425821
 10
-4.4626629911
 20
-59.0578264919
 10
-4.4641712316
 20
-59.0492276192
 10
-4.4650926123
 20
-59.0400753365
 10
-4.4654045124
 20
-59.0303696439
  0
LWPOLYLINE
  5
31C
100
AcDbEntity
  8
0
100
AcDbPolyline
 62
7
  6
CONTINUOUS
 90
31
 70
0
 10
8.1949707657
 20
-59.1488414734
 10
8.1844765879
 20
-59.1487475982
 10
8.1740275789
 20
-59.1484547978
 10
8.1636522354
 20
-59.1479630722
 10
8.1533810228
 20
-59.1472772256
 10
8.1432390628
 20
-59.1463924539
 10
8.1332463606
 20
-59.1452943442
 10
8.1234215873
 20
-59.1439841967
 10
8.1137992822
 20
-59.1424607112
 10
8.1044215263
 20
-59.1407055747
 10
8.0953219784
 20
-59.1387227326
 10
8.0865121773
 20
-59.1365082394
 10
8.0779997118
 20
-59.1340319456
 10
8.0698026516
 20
-59.1312946299
 10
8.061945612
 20
-59.1282955135
 10
8.0544462089
 20
-59.1250021102
 10
8.0473282649
 20
-59.1214186102
 10
8.0406043359
 20
-59.1175408234
 10
8.0342766744
 20
-59.113323693
 10
8.0283647074
 20
-59.1087707901
 10
8.0228853773
 20
-59.1038785437
 10
8.0178423005
 20
-59.0985911835
 10
8.0132559367
 20
-59.0929135123
 10
8.0091438924
 20
-59.0868407275
 10
8.0055127819
 20
-59.0803026508
 10
8.0023849516
 20
-59.0733052624
 10
7.9997804502
 20
-59.0658425821
 10
7.9977122871
 20
-59.0578264919
 10
7.9962040466
 20
-59.0492276192
 10
7.9952826659
 20
-59.0400753365
 10
7.9949707657
 20
-59.0303696439
  0
LINE
  5
31D
100
AcDbEntity
  8
0
100
AcDbLine
 62
7
  6
CONTINUOUS
 10
7.9949707657
 20
-58.4731560484
 11
9.0749707657
 21
-58.4731560484
  0
LINE
  5
31E
100
AcDbEntity
  8
0
100
AcDbLine
 62
7
  6
CONTINUOUS
 10
6.7699707657
 20
-58.2181560484
 11
5.2199707657
 21
-58.2181560484
  0
LINE
  5
31F
100
AcDbEntity
  8
0
100
AcDbLine
 62
7
  6
CONTINUOUS
 10
4.2299707657
 20
-58.2181560484
 11
2.6799707657
 21
-58.2181560484
  0
LINE
  5
320
100
AcDbEntity
  8
0
100
AcDbLine
 62
7
  6
CONTINUOUS
 10
1.6899707657
 20
-58.2181560484
 11
0.1399707657
 21
-58.2181560484
  0
LINE
  5
321
100
AcDbEntity
  8
0
100
AcDbLine
 62
7
  6
CONTINUOUS
 10
-0.8500292343
 20
-58.2181560484
 11
-2.4000292343
 21
-58.2181560484
  0
LINE
  5
322
100
AcDbEntity
  8
0
100
AcDbLine
 62
7
  6
CONTINUOUS
 10
8.8349707263
 20
-58.1317432364
 11
8.0583996522
 21
-58.1317432364
  0
LINE
  5
323
100
AcDbEntity
  8
0
100
AcDbLine
 62
7
  6
CONTINUOUS
 10
-4.5850290724
 20
-58.1317432493
 11
-3.8084581161
 21
-58.1317432493
  0
LINE
  5
324
100
AcDbEntity
  8
0
100
AcDbLine
 62
7
  6
CONTINUOUS
 10
9.0749707657
 20
-57.7231560484
 11
8.8349707657
 21
-57.7231560484
  0
LINE
  5
325
100
AcDbEntity
  8
0
100
AcDbLine
 62
7
  6
CONTINUOUS
 10
-4.5850291944
 20
-57.7231560484
 11
-4.8219910161
 21
-57.7231560484
  0
LINE
  5
326
100
AcDbEntity
  8
0
100
AcDbLine
 62
7
  6
CONTINUOUS
 10
-4.8250292343
 20
-57.6431560484
 11
-4.5850292343
 21
-57.6431560484
  0
LINE
  5
327
100
AcDbEntity
  8
0
100
AcDbLine
 62
7
  6
CONTINUOUS
 10
8.8349707263
 20
-57.6431560484
 11
9.0677671167
 21
-57.6431560484
  0
LINE
  5
328
100
AcDbEntity
  8
0
100
AcDbLine
 62
7
  6
CONTINUOUS
 10
8.834970608
 20
-57.2345688484
 11
8.0583996479
 21
-57.2345688484
  0
LINE
  5
329
100
AcDbEntity
  8
0
100
AcDbLine
 62
7
  6
CONTINUOUS
 10
-3.8084581208
 20
-57.2345688604
 11
-4.5850292343
 21
-57.2345688604
  0
LINE
  5
32A
100
AcDbEntity
  8
0
100
AcDbLine
 62
7
  6
CONTINUOUS
 10
-2.4000292343
 20
-57.1481560484
 11
-0.8500292343
 21
-57.1481560484
  0
LINE
  5
32B
100
AcDbEntity
  8
0
100
AcDbLine
 62
7
  6
CONTINUOUS
 10
0.1399707657
 20
-57.1481560484
 11
1.6899707657
 21
-57.1481560484
  0
LINE
  5
32C
100
AcDbEntity
  8
0
100
AcDbLine
 62
7
  6
CONTINUOUS
 10
2.6799707657
 20
-57.1481560484
 11
4.2299707657
 21
-57.1481560484
  0
LINE
  5
32D
100
AcDbEntity
  8
0
100
AcDbLine
 62
7
  6
CONTINUOUS
 10
5.2199707657
 20
-57.1481560484
 11
6.7699707657
 21
-57.1481560484
  0
LINE
  5
32E
100
AcDbEntity
  8
0
100
AcDbLine
 62
7
  6
CONTINUOUS
 10
-3.6650292343
 20
-56.8931560484
 11
-4.8250292343
 21
-56.8931560484
  0
LINE
  5
32F
100
AcDbEntity
  8
0
100
AcDbLine
 62
7
  6
CONTINUOUS
 10
-5.1450292343
 20
-56.8331560484
 11
-3.6650292343
 21
-56.8331560484
  0
LINE
  5
330
100
AcDbEntity
  8
0
100
AcDbLine
 62
7
  6
CONTINUOUS
 10
7.9949707657
 20
-56.8331560484
 11
9.4749707657
 21
-56.8331560484
  0
LINE
  5
331
100
AcDbEntity
  8
0
100
AcDbLine
 62
7
  6
CONTINUOUS
 10
-2.0500292343
 20
-56.7981560484
 11
-1.2000292343
 21
-56.7981560484
  0
LINE
  5
332
100
AcDbEntity
  8
0
100
AcDbLine
 62
7
  6
CONTINUOUS
 10
0.4899707657
 20
-56.7981560484
 11
1.3399707657
 21
-56.7981560484
  0
LINE
  5
333
100
AcDbEntity
  8
0
100
AcDbLine
 62
7
  6
CONTINUOUS
 10
3.0299707657
 20
-56.7981560484
 11
3.8799707657
 21
-56.7981560484
  0
LINE
  5
334
100
AcDbEntity
  8
0
100
AcDbLine
 62
7
  6
CONTINUOUS
 10
5.5699707657
 20
-56.7981560484
 11
6.4199707657
 21
-56.7981560484
  0
LINE
  5
335
100
AcDbEntity
  8
0
100
AcDbLine
 62
253
  6
CONTINUOUS
 10
9.4749707657
 20
-56.7831560484
 11
8.7953460439
 21
-56.7831560484
  0
LINE
  5
336
100
AcDbEntity
  8
0
100
AcDbLine
 62
253
  6
CONTINUOUS
 10
-4.4654045124
 20
-56.7831560484
 11
-5.1450292343
 21
-56.7831560484
  0
LINE
  5
337
100
AcDbEntity
  8
0
100
AcDbLine
 62
7
  6
CONTINUOUS
 10
-3.6650292343
 20
-58.4731560484
 11
-4.8150362765
 21
-58.4734555203
  0
LINE
  5
338
100
AcDbEntity
  8
0
100
AcDbLine
 62
7
  6
CONTINUOUS
 10
7.9949707657
 20
-56.8931560484
 11
9.0649770471
 21
-56.8928564975
  0
LINE
  5
339
100
AcDbEntity
  8
0
100
AcDbLine
 62
7
  6
CONTINUOUS
 10
7.0899707657
 20
-1.5195482251
 11
5.3952879342
 21
-2.0393575346
  0
LWPOLYLINE
  5
33A
100
AcDbEntity
  8
0
100
AcDbPolyline
 62
7
  6
CONTINUOUS
 90
31
 70
0
 10
8.1949707657
 20
-56.2174706235
 10
8.1844296978
 20
-56.21757098
 10
8.1739900374
 20
-56.2178630047
 10
8.1636517844
 20
-56.2183490503
 10
8.1533901536
 20
-56.2190349711
 10
8.1432299302
 20
-56.219924271
 10
8.1332454701
 20
-56.2210178605
 10
8.1234311487
 20
-56.222326167
 10
8.1137925905
 20
-56.2238565808
 10
8.1044210256
 20
-56.2256066232
 10
8.0953295925
 20
-56.2275863491
 10
8.0865051526
 20
-56.229809666
 10
8.0779995201
 20
-56.2322802109
 10
8.0698109644
 20
-56.235012927
 10
8.061941216
 20
-56.2380219679
 10
8.0544472815
 20
-56.241309483
 10
8.0473350612
 20
-56.2448881451
 10
8.0405986547
 20
-56.2487771309
 10
8.0342773672
 20
-56.2529879084
 10
8.0283706866
 20
-56.2575353314
 10
8.0228791249
 20
-56.2624393435
 10
8.0178435236
 20
-56.2677195235
 10
8.0132617327
 20
-56.2733917299
 10
8.0091359023
 20
-56.279477905
 10
8.0055133235
 20
-56.286008364
 10
8.0023901286
 20
-56.2930002016
 10
7.9997701854
 20
-56.3004776991
 10
7.997712388
 20
-56.3084851385
 10
7.996236368
 20
-56.3170535491
 10
7.9953224939
 20
-56.3261983857
 10
7.9949707657
 20
-56.3359424529
  0
LWPOLYLINE
  5
33B
100
AcDbEntity
  8
0
100
AcDbPolyline
 62
7
  6
CONTINUOUS
 90
31
 70
0
 10
-4.2654045124
 20
-56.2174706235
 10
-4.2759455986
 20
-56.2175709803
 10
-4.2863852773
 20
-56.2178630061
 10
-4.2967235485
 20
-56.2183490534
 10
-4.3069852045
 20
-56.219034978
 10
-4.317145453
 20
-56.2199242825
 10
-4.3271299168
 20
-56.2210178736
 10
-4.3369442022
 20
-56.2223261758
 10
-4.3465827029
 20
-56.2238565817
 10
-4.3559542232
 20
-56.2256066173
 10
-4.3650456363
 20
-56.2275863377
 10
-4.373870069
 20
-56.2298096502
 10
-4.3823757063
 20
-56.2322801948
 10
-4.3905642848
 20
-56.2350129183
 10
-4.3984340679
 20
-56.2380219717
 10
-4.4059280303
 20
-56.2413094988
 10
-4.4130402625
 20
-56.2448881684
 10
-4.4197766741
 20
-56.2487771608
 10
-4.426097969
 20
-56.2529879499
 10
-4.4320046673
 20
-56.2575353978
 10
-4.4374962489
 20
-56.2624394411
 10
-4.4425318578
 20
-56.2677196407
 10
-4.4471136337
 20
-56.2733918433
 10
-4.4512394369
 20
-56.2794779999
 10
-4.4548619921
 20
-56.2860084387
 10
-4.4579851724
 20
-56.2930002577
 10
-4.4606051047
 20
-56.300477735
 10
-4.4626628943
 20
-56.3084851577
 10
-4.4641389097
 20
-56.3170535573
 10
-4.4650527824
 20
-56.3261983873
 10
-4.4654045124
 20
-56.3359424529
  0
LINE
  5
33C
100
AcDbEntity
  8
0
100
AcDbLine
 62
7
  6
CONTINUOUS
 10
8.5953460439
 20
-56.2174706235
 11
8.1949707657
 21
-56.2174706235
  0
LINE
  5
33D
100
AcDbEntity
  8
0
100
AcDbLine
 62
7
  6
CONTINUOUS
 10
-3.8650292343
 20
-56.2174706235
 11
-4.2654045124
 21
-56.2174706235
  0
LINE
  5
33E
100
AcDbEntity
  8
0
100
AcDbLine
 62
7
  6
CONTINUOUS
 10
-5.1450292343
 20
-56.1831560484
 11
-3.6650292343
 21
-56.1831560484
  0
LINE
  5
33F
100
AcDbEntity
  8
0
100
AcDbLine
 62
7
  6
CONTINUOUS
 10
7.9949707657
 20
-56.1831560484
 11
9.4749707657
 21
-56.1831560484
  0
LINE
  5
340
100
AcDbEntity
  8
0
100
AcDbLine
 62
7
  6
CONTINUOUS
 10
6.4199707657
 20
-56.0281560484
 11
5.5699707657
 21
-56.0281560484
  0
LINE
  5
341
100
AcDbEntity
  8
0
100
AcDbLine
 62
7
  6
CONTINUOUS
 10
3.8799707657
 20
-56.0281560484
 11
3.0299707657
 21
-56.0281560484
  0
LINE
  5
342
100
AcDbEntity
  8
0
100
AcDbLine
 62
7
  6
CONTINUOUS
 10
1.3399707657
 20
-56.0281560484
 11
0.4899707657
 21
-56.0281560484
  0
LINE
  5
343
100
AcDbEntity
  8
0
100
AcDbLine
 62
7
  6
CONTINUOUS
 10
-1.2000292343
 20
-56.0281560484
 11
-2.0500292343
 21
-56.0281560484
  0
LINE
  5
344
100
AcDbEntity
  8
0
100
AcDbLine
 62
7
  6
CONTINUOUS
 10
6.7699707657
 20
-55.6781560484
 11
5.2199707657
 21
-55.6781560484
  0
LINE
  5
345
100
AcDbEntity
  8
0
100
AcDbLine
 62
7
  6
CONTINUOUS
 10
4.2299707657
 20
-55.6781560484
 11
2.6799707657
 21
-55.6781560484
  0
LINE
  5
346
100
AcDbEntity
  8
0
100
AcDbLine
 62
7
  6
CONTINUOUS
 10
1.6899707657
 20
-55.6781560484
 11
0.1399707657
 21
-55.6781560484
  0
LINE
  5
347
100
AcDbEntity
  8
0
100
AcDbLine
 62
7
  6
CONTINUOUS
 10
-0.8500292343
 20
-55.6781560484
 11
-2.4000292343
 21
-55.6781560484
  0
LINE
  5
348
100
AcDbEntity
  8
0
100
AcDbLine
 62
7
  6
CONTINUOUS
 10
-3.6650292343
 20
-54.7831560484
 11
-3.6850292343
 21
-54.7831560484
  0
LINE
  5
349
100
AcDbEntity
  8
0
100
AcDbLine
 62
7
  6
CONTINUOUS
 10
7.9949707657
 20
-54.6331560484
 11
-3.6650292343
 21
-54.6331560484
  0
LINE
  5
34A
100
AcDbEntity
  8
ASSI
100
AcDbLine
 62
7
  6
CONTINUOUS
 10
7.0899707657
 20
-54.5831560484
 11
-2.7000292343
 21
-54.5831560484
  0
LWPOLYLINE
  5
34B
100
AcDbEntity
  8
0
100
AcDbPolyline
 62
7
  6
CONTINUOUS
 90
31
 70
0
 10
-3.8650292343
 20
-56.2174706235
 10
-3.8545350564
 20
-56.2175644987
 10
-3.8440860474
 20
-56.2178572991
 10
-3.8337107039
 20
-56.2183490247
 10
-3.8234394913
 20
-56.2190348712
 10
-3.8132975313
 20
-56.219919643
 10
-3.8033048291
 20
-56.2210177526
 10
-3.7934800558
 20
-56.2223279002
 10
-3.7838577507
 20
-56.2238513856
 10
-3.7744799948
 20
-56.2256065221
 10
-3.7653804469
 20
-56.2275893642
 10
-3.7565706458
 20
-56.2298038574
 10
-3.7480581803
 20
-56.2322801513
 10
-3.7398611201
 20
-56.235017467
 10
-3.7320040805
 20
-56.2380165834
 10
-3.7245046774
 20
-56.2413099867
 10
-3.7173867334
 20
-56.2448934866
 10
-3.7106628044
 20
-56.2487712734
 10
-3.7043351429
 20
-56.2529884039
 10
-3.6984231759
 20
-56.2575413067
 10
-3.6929438458
 20
-56.2624335532
 10
-3.687900769
 20
-56.2677209134
 10
-3.6833144052
 20
-56.2733985845
 10
-3.6792023609
 20
-56.2794713694
 10
-3.6755712504
 20
-56.286009446
 10
-3.6724434202
 20
-56.2930068345
 10
-3.6698389188
 20
-56.3004695148
 10
-3.6677707556
 20
-56.3084856049
 10
-3.6662625151
 20
-56.3170844777
 10
-3.6653411344
 20
-56.3262367603
 10
-3.6650292343
 20
-56.3359424529
  0
LWPOLYLINE
  5
34C
100
AcDbEntity
  8
0
100
AcDbPolyline
 62
7
  6
CONTINUOUS
 90
31
 70
0
 10
8.5953460439
 20
-56.2174706235
 10
8.6058402218
 20
-56.2175644987
 10
8.6162892308
 20
-56.2178572991
 10
8.6266645742
 20
-56.2183490247
 10
8.6369357869
 20
-56.2190348712
 10
8.6470777468
 20
-56.219919643
 10
8.6570704491
 20
-56.2210177526
 10
8.6668952224
 20
-56.2223279002
 10
8.6765175275
 20
-56.2238513856
 10
8.6858952834
 20
-56.2256065221
 10
8.6949948313
 20
-56.2275893642
 10
8.7038046324
 20
-56.2298038574
 10
8.7123170979
 20
-56.2322801513
 10
8.7205141581
 20
-56.235017467
 10
8.7283711977
 20
-56.2380165834
 10
8.7358706007
 20
-56.2413099867
 10
8.7429885448
 20
-56.2448934866
 10
8.7497124738
 20
-56.2487712734
 10
8.7560401353
 20
-56.2529884039
 10
8.7619521023
 20
-56.2575413067
 10
8.7674314324
 20
-56.2624335532
 10
8.7724745092
 20
-56.2677209134
 10
8.777060873
 20
-56.2733985845
 10
8.7811729172
 20
-56.2794713694
 10
8.7848040278
 20
-56.286009446
 10
8.787931858
 20
-56.2930068345
 10
8.7905363594
 20
-56.3004695148
 10
8.7926045225
 20
-56.3084856049
 10
8.7941127631
 20
-56.3170844777
 10
8.7950341438
 20
-56.3262367603
 10
8.7953460439
 20
-56.3359424529
  0
LINE
  5
34D
100
AcDbEntity
  8
0
100
AcDbLine
 62
7
  6
CONTINUOUS
 10
-2.0500292343
 20
-58.5681560484
 11
-2.4000292343
 21
-58.2181560484
  0
LINE
  5
34E
100
AcDbEntity
  8
0
100
AcDbLine
 62
7
  6
CONTINUOUS
 10
-0.8500292343
 20
-59.6881560484
 11
-1.2000292343
 21
-59.3381560484
  0
LINE
  5
34F
100
AcDbEntity
  8
0
100
AcDbLine
 62
7
  6
CONTINUOUS
 10
0.4899707657
 20
-58.5681560484
 11
0.1399707657
 21
-58.2181560484
  0
LINE
  5
350
100
AcDbEntity
  8
0
100
AcDbLine
 62
7
  6
CONTINUOUS
 10
-2.0500292343
 20
-56.0281560484
 11
-2.4000292343
 21
-55.6781560484
  0
LINE
  5
351
100
AcDbEntity
  8
0
100
AcDbLine
 62
7
  6
CONTINUOUS
 10
1.6899707657
 20
-59.6881560484
 11
1.3399707657
 21
-59.3381560484
  0
LINE
  5
352
100
AcDbEntity
  8
0
100
AcDbLine
 62
7
  6
CONTINUOUS
 10
-0.8500292343
 20
-57.1481560484
 11
-1.2000292343
 21
-56.7981560484
  0
LINE
  5
353
100
AcDbEntity
  8
0
100
AcDbLine
 62
7
  6
CONTINUOUS
 10
3.0299707657
 20
-58.5681560484
 11
2.6799707657
 21
-58.2181560484
  0
LINE
  5
354
100
AcDbEntity
  8
0
100
AcDbLine
 62
7
  6
CONTINUOUS
 10
0.4899707657
 20
-56.0281560484
 11
0.1399707657
 21
-55.6781560484
  0
LINE
  5
355
100
AcDbEntity
  8
0
100
AcDbLine
 62
7
  6
CONTINUOUS
 10
4.2299707657
 20
-59.6881560484
 11
3.8799707657
 21
-59.3381560484
  0
LINE
  5
356
100
AcDbEntity
  8
0
100
AcDbLine
 62
7
  6
CONTINUOUS
 10
1.6899707657
 20
-57.1481560484
 11
1.3399707657
 21
-56.7981560484
  0
LINE
  5
357
100
AcDbEntity
  8
0
100
AcDbLine
 62
7
  6
CONTINUOUS
 10
5.5699707657
 20
-58.5681560484
 11
5.2199707657
 21
-58.2181560484
  0
LINE
  5
358
100
AcDbEntity
  8
0
100
AcDbLine
 62
7
  6
CONTINUOUS
 10
3.0299707657
 20
-56.0281560484
 11
2.6799707657
 21
-55.6781560484
  0
LINE
  5
359
100
AcDbEntity
  8
0
100
AcDbLine
 62
7
  6
CONTINUOUS
 10
6.7699707657
 20
-59.6881560484
 11
6.4199707657
 21
-59.3381560484
  0
LINE
  5
35A
100
AcDbEntity
  8
0
100
AcDbLine
 62
7
  6
CONTINUOUS
 10
4.2299707657
 20
-57.1481560484
 11
3.8799707657
 21
-56.7981560484
  0
LINE
  5
35B
100
AcDbEntity
  8
0
100
AcDbLine
 62
7
  6
CONTINUOUS
 10
0.3549707657
 20
-60.7331560484
 11
0.0049707657
 21
-60.2331560484
  0
LINE
  5
35C
100
AcDbEntity
  8
0
100
AcDbLine
 62
7
  6
CONTINUOUS
 10
5.5699707657
 20
-56.0281560484
 11
5.2199707657
 21
-55.6781560484
  0
LINE
  5
35D
100
AcDbEntity
  8
0
100
AcDbLine
 62
7
  6
CONTINUOUS
 10
6.7699707657
 20
-57.1481560484
 11
6.4199707657
 21
-56.7981560484
  0
LINE
  5
35E
100
AcDbEntity
  8
0
100
AcDbLine
 62
7
  6
CONTINUOUS
 10
2.9349707657
 20
-60.7331560484
 11
2.5849707657
 21
-60.2331560484
  0
LINE
  5
35F
100
AcDbEntity
  8
0
100
AcDbLine
 62
7
  6
CONTINUOUS
 10
-3.8084581161
 20
-58.1317432493
 11
-3.6850292343
 21
-58.4731560484
  0
LWPOLYLINE
  5
360
100
AcDbEntity
  8
0
100
AcDbPolyline
 62
7
  6
CONTINUOUS
 90
3
 70
0
 10
-4.8150362765
 20
-58.4734555203
 10
-4.8205248344
 20
-58.4404751629
 10
-4.8217262921
 20
-58.4174388532
  0
LINE
  5
361
100
AcDbEntity
  8
RACCORDO
100
AcDbLine
 62
7
  6
CONTINUOUS
 10
-7.7961493854
 20
-30.1918822516
 11
-7.7665671648
 21
-31.8866465297
  0
LINE
  5
362
100
AcDbEntity
  8
RACCORDO
100
AcDbLine
 62
253
  6
CONTINUOUS
 10
-7.2962255378
 20
-30.1918822516
 11
-7.2666433173
 21
-31.8866465297
  0
LINE
  5
363
100
AcDbEntity
  8
RACCORDO
100
AcDbLine
 62
7
  6
CONTINUOUS
 10
-6.8015991479
 20
-32.2796655671
 11
-6.7612392555
 21
-34.5918822516
  0
LINE
  5
364
100
AcDbEntity
  8
RACCORDO
100
AcDbLine
 62
253
  6
CONTINUOUS
 10
-6.3016753003
 20
-32.2796655671
 11
-6.2613154079
 21
-34.5918822516
  0
LINE
  5
365
100
AcDbEntity
  8
RACCORDO
100
AcDbLine
 62
7
  6
CONTINUOUS
 10
-7.7961493787
 20
-30.1744294641
 11
-7.7961493853
 21
-30.1918822519
  0
LINE
  5
366
100
AcDbEntity
  8
RACCORDO
100
AcDbLine
 62
253
  6
CONTINUOUS
 10
-7.2962255378
 20
-29.6831560484
 11
-7.2962255378
 21
-30.1918822516
  0
LINE
  5
367
100
AcDbEntity
  8
RACCORDO
100
AcDbLine
 62
253
  6
CONTINUOUS
 10
-7.2666433173
 20
-32.0831560484
 11
-7.2666432873
 21
-31.8866465301
  0
LINE
  5
368
100
AcDbEntity
  8
RACCORDO
100
AcDbLine
 62
253
  6
CONTINUOUS
 10
-6.3016753003
 20
-32.0831560484
 11
-6.3016753003
 21
-32.2796655671
  0
LINE
  5
369
100
AcDbEntity
  8
RACCORDO
100
AcDbLine
 62
253
  6
CONTINUOUS
 10
-6.2613154079
 20
-35.0831560484
 11
-6.2613153828
 21
-34.5918822518
  0
LINE
  5
36A
100
AcDbEntity
  8
0
100
AcDbLine
 62
7
  6
CONTINUOUS
 10
-5.1450292343
 20
-56.1831560484
 11
-5.1450292343
 21
-59.1831560484
  0
LINE
  5
36B
100
AcDbEntity
  8
0
100
AcDbLine
 62
7
  6
CONTINUOUS
 10
-4.8250292343
 20
-56.8931560484
 11
-4.8250292343
 21
-57.6431560484
  0
LINE
  5
36C
100
AcDbEntity
  8
0
100
AcDbLine
 62
7
  6
CONTINUOUS
 10
-4.8219536184
 20
-57.7231560484
 11
-4.8219536184
 21
-58.4174389683
  0
LINE
  5
36D
100
AcDbEntity
  8
0
100
AcDbLine
 62
7
  6
CONTINUOUS
 10
-4.6950292343
 20
-56.8331560484
 11
-4.6950292343
 21
-56.8931560484
  0
LINE
  5
36E
100
AcDbEntity
  8
0
100
AcDbLine
 62
7
  6
CONTINUOUS
 10
-4.6950292343
 20
-57.6431560484
 11
-4.6950292343
 21
-57.7231560484
  0
LINE
  5
36F
100
AcDbEntity
  8
0
100
AcDbLine
 62
7
  6
CONTINUOUS
 10
-4.6950292343
 20
-58.4734605537
 11
-4.6950292343
 21
-58.5131560484
  0
LINE
  5
370
100
AcDbEntity
  8
0
100
AcDbLine
 62
7
  6
CONTINUOUS
 10
-4.5850292343
 20
-56.8331560484
 11
-4.5850291235
 21
-58.1317432364
  0
LINE
  5
371
100
AcDbEntity
  8
0
100
AcDbLine
 62
7
  6
CONTINUOUS
 10
-4.5850292343
 20
-58.4731974433
 11
-4.5850292343
 21
-58.5131560484
  0
LINE
  5
372
100
AcDbEntity
  8
0
100
AcDbLine
 62
7
  6
CONTINUOUS
 10
-4.4654045124
 20
-56.3359424529
 11
-4.4654045124
 21
-56.8331560484
  0
LINE
  5
373
100
AcDbEntity
  8
0
100
AcDbLine
 62
7
  6
CONTINUOUS
 10
-4.4654045124
 20
-58.5131560484
 11
-4.4654045124
 21
-59.0303696439
  0
LINE
  5
374
100
AcDbEntity
  8
0
100
AcDbLine
 62
253
  6
CONTINUOUS
 10
-4.2654045124
 20
-56.2174706235
 11
-4.2654045124
 21
-56.8331560484
  0
LINE
  5
375
100
AcDbEntity
  8
0
100
AcDbLine
 62
253
  6
CONTINUOUS
 10
-4.2654045124
 20
-58.5131560484
 11
-4.2654045124
 21
-59.1488414734
  0
LWPOLYLINE
  5
376
100
AcDbEntity
  8
0
100
AcDbPolyline
 62
7
  6
CONTINUOUS
 90
12
 70
0
 10
-4.8217262921
 20
-58.4174388532
 10
-4.8215720652
 20
-58.4084844242
 10
-4.8181779688
 20
-58.3774833044
 10
-4.8103585944
 20
-58.3476108619
 10
-4.7980978929
 20
-58.3187280382
 10
-4.7813477169
 20
-58.2904176573
 10
-4.760145437
 20
-58.2625406262
 10
-4.7344536825
 20
-58.2352360379
 10
-4.7041121946
 20
-58.2085039958
 10
-4.6690675539
 20
-58.1823445342
 10
-4.6293731798
 20
-58.1567576187
 10
-4.5850290724
 20
-58.1317432493
  0
LWPOLYLINE
  5
377
100
AcDbEntity
  8
RACCORDO
100
AcDbPolyline
 62
253
  6
CONTINUOUS
 90
7
 70
0
 10
11.151180787
 20
-34.5918822516
 10
11.1468856552
 20
-34.5929460582
 10
11.1341134643
 20
-34.5938424199
 10
11.1130826638
 20
-34.5945560058
 10
11.0841529555
 20
-34.5950746107
 10
11.047819142
 20
-34.5953893648
 10
11.004702666
 20
-34.5954948844
  0
LINE
  5
378
100
AcDbEntity
  8
0
100
AcDbLine
 62
253
  6
CONTINUOUS
 10
-3.8650292343
 20
-59.1488414734
 11
-3.8650292343
 21
-58.5131560484
  0
LINE
  5
379
100
AcDbEntity
  8
0
100
AcDbLine
 62
253
  6
CONTINUOUS
 10
-3.8650292343
 20
-56.8331560484
 11
-3.8650292343
 21
-56.2174706235
  0
LINE
  5
37A
100
AcDbEntity
  8
0
100
AcDbLine
 62
7
  6
CONTINUOUS
 10
-3.8084581208
 20
-58.1317432364
 11
-3.8084581208
 21
-57.2345688604
  0
LINE
  5
37B
100
AcDbEntity
  8
0
100
AcDbLine
 62
7
  6
CONTINUOUS
 10
-3.6850292343
 20
-60.5831560484
 11
-3.6850292343
 21
-59.1831560484
  0
LINE
  5
37C
100
AcDbEntity
  8
0
100
AcDbLine
 62
7
  6
CONTINUOUS
 10
-3.6850292343
 20
-56.1831560484
 11
-3.6850292343
 21
-54.7831560484
  0
LINE
  5
37D
100
AcDbEntity
  8
0
100
AcDbLine
 62
7
  6
CONTINUOUS
 10
-3.6850292343
 20
-56.8331560484
 11
-3.6850292343
 21
-58.5131560484
  0
LINE
  5
37E
100
AcDbEntity
  8
0
100
AcDbLine
 62
7
  6
CONTINUOUS
 10
-3.6650292343
 20
-54.6331560484
 11
-3.6650292343
 21
-60.7331560484
  0
LINE
  5
37F
100
AcDbEntity
  8
ASSI
100
AcDbLine
 62
7
  6
CONTINUOUS
 10
-2.7000292343
 20
1.101563601
 11
-2.7000292343
 21
-29.6831560484
  0
LINE
  5
380
100
AcDbEntity
  8
ASSI
100
AcDbLine
 62
7
  6
CONTINUOUS
 10
-2.7000292343
 20
-35.0831560484
 11
-2.7000292343
 21
-54.5831560484
  0
LINE
  5
381
100
AcDbEntity
  8
0
100
AcDbLine
 62
7
  6
CONTINUOUS
 10
-2.4000292343
 20
-55.6781560484
 11
-2.4000292343
 21
-57.1481560484
  0
LINE
  5
382
100
AcDbEntity
  8
0
100
AcDbLine
 62
7
  6
CONTINUOUS
 10
-2.4000292343
 20
-58.2181560484
 11
-2.4000292343
 21
-59.6881560484
  0
LINE
  5
383
100
AcDbEntity
  8
0
100
AcDbLine
 62
7
  6
CONTINUOUS
 10
-2.0500292343
 20
-56.0281560484
 11
-2.0500292343
 21
-56.7981560484
  0
LINE
  5
384
100
AcDbEntity
  8
0
100
AcDbLine
 62
7
  6
CONTINUOUS
 10
-2.0500292343
 20
-58.5681560484
 11
-2.0500292343
 21
-59.3381560484
  0
LINE
  5
385
100
AcDbEntity
  8
ASSI
100
AcDbLine
 62
253
  6
CONTINUOUS
 10
-1.9600584685
 20
1.0402945365
 11
-1.9600584685
 21
-29.6831560484
  0
LINE
  5
386
100
AcDbEntity
  8
ASSI
100
AcDbLine
 62
253
  6
CONTINUOUS
 10
-1.9600584685
 20
-35.0831560484
 11
-1.9600584685
 21
-54.5831560484
  0
LINE
  5
387
100
AcDbEntity
  8
RACCORDO
100
AcDbLine
 62
253
  6
CONTINUOUS
 10
-6.2613154079
 20
-34.5918822516
 11
-6.3906806964
 21
-34.5938424199
  0
LINE
  5
388
100
AcDbEntity
  8
RACCORDO
100
AcDbLine
 62
253
  6
CONTINUOUS
 10
-6.3906806964
 20
-34.5938424199
 11
-6.5112333687
 21
-34.5950746107
  0
LWPOLYLINE
  5
389
100
AcDbEntity
  8
RACCORDO
100
AcDbPolyline
 62
253
  6
CONTINUOUS
 90
8
 70
0
 10
-6.5112333687
 20
-34.5950746107
 10
-6.6147611201
 20
-34.5954948844
 10
-6.6578775971
 20
-34.5953893648
 10
-6.6942114118
 20
-34.5950746109
 10
-6.7231411233
 20
-34.594556006
 10
-6.7441719279
 20
-34.5938424202
 10
-6.7569441223
 20
-34.5929460584
 10
-6.7612392555
 20
-34.5918822516
  0
LINE
  5
38A
100
AcDbEntity
  8
RACCORDO
100
AcDbLine
 62
7
  6
CONTINUOUS
 10
10.6512569394
 20
-35.0831560484
 11
-6.2613154079
 21
-35.0831560484
  0
LINE
  5
38B
100
AcDbEntity
  8
RACCORDO
100
AcDbLine
 62
253
  6
CONTINUOUS
 10
10.6512569394
 20
-34.5918822516
 11
-6.2613154079
 21
-34.5918822516
  0
LINE
  5
38C
100
AcDbEntity
  8
RACCORDO
100
AcDbLine
 62
253
  6
CONTINUOUS
 10
11.004702666
 20
-34.5954948844
 11
10.9011749213
 21
-34.5950746109
  0
LINE
  5
38D
100
AcDbEntity
  8
RACCORDO
100
AcDbLine
 62
253
  6
CONTINUOUS
 10
10.9011749213
 20
-34.5950746109
 11
10.780622246
 21
-34.5938424202
  0
LINE
  5
38E
100
AcDbEntity
  8
RACCORDO
100
AcDbLine
 62
253
  6
CONTINUOUS
 10
10.780622246
 20
-34.5938424202
 11
10.6512569394
 21
-34.5918822516
  0
LINE
  5
38F
100
AcDbEntity
  8
ASSI
100
AcDbLine
 62
253
  6
CONTINUOUS
 10
-1.7023066767
 20
1.015161273
 11
-1.7023066767
 21
-29.6831560484
  0
LINE
  5
390
100
AcDbEntity
  8
ASSI
100
AcDbLine
 62
253
  6
CONTINUOUS
 10
-1.7023066767
 20
-35.0831560484
 11
-1.7023066767
 21
-54.5831560484
  0
LINE
  5
391
100
AcDbEntity
  8
ASSI
100
AcDbLine
 62
253
  6
CONTINUOUS
 10
-1.5277517918
 20
0.9981405031
 11
-1.5277517918
 21
-29.6831560484
  0
LINE
  5
392
100
AcDbEntity
  8
ASSI
100
AcDbLine
 62
253
  6
CONTINUOUS
 10
-1.5277517918
 20
-35.0831560484
 11
-1.5277517918
 21
-54.5831560484
  0
LINE
  5
393
100
AcDbEntity
  8
ASSI
100
AcDbLine
 62
253
  6
CONTINUOUS
 10
-1.27
 20
0.9730072395
 11
-1.27
 21
-29.6831560484
  0
LINE
  5
394
100
AcDbEntity
  8
ASSI
100
AcDbLine
 62
253
  6
CONTINUOUS
 10
-1.27
 20
-35.0831560484
 11
-1.27
 21
-54.5831560484
  0
LINE
  5
395
100
AcDbEntity
  8
0
100
AcDbLine
 62
7
  6
CONTINUOUS
 10
-1.2000292343
 20
-59.3381560484
 11
-1.2000292343
 21
-58.5681560484
  0
LINE
  5
396
100
AcDbEntity
  8
0
100
AcDbLine
 62
7
  6
CONTINUOUS
 10
-1.2000292343
 20
-56.7981560484
 11
-1.2000292343
 21
-56.0281560484
  0
LINE
  5
397
100
AcDbEntity
  8
0
100
AcDbLine
 62
7
  6
CONTINUOUS
 10
-0.8500292343
 20
-59.6881560484
 11
-0.8500292343
 21
-58.2181560484
  0
LINE
  5
398
100
AcDbEntity
  8
0
100
AcDbLine
 62
7
  6
CONTINUOUS
 10
-0.8500292343
 20
-57.1481560484
 11
-0.8500292343
 21
-55.6781560484
  0
LINE
  5
399
100
AcDbEntity
  8
ASSI
100
AcDbLine
 62
253
  6
CONTINUOUS
 10
-0.6900584685
 20
0.7707395905
 11
-0.6900584685
 21
-29.6831560484
  0
LINE
  5
39A
100
AcDbEntity
  8
ASSI
100
AcDbLine
 62
253
  6
CONTINUOUS
 10
-0.6900584685
 20
-35.0831560484
 11
-0.6900584685
 21
-54.5831560484
  0
LINE
  5
39B
100
AcDbEntity
  8
ASSI
100
AcDbLine
 62
253
  6
CONTINUOUS
 10
-0.4323066767
 20
0.652315362
 11
-0.4323066767
 21
-29.6831560484
  0
LINE
  5
39C
100
AcDbEntity
  8
ASSI
100
AcDbLine
 62
253
  6
CONTINUOUS
 10
-0.4323066767
 20
-35.0831560484
 11
-0.4323066767
 21
-54.5831560484
  0
LINE
  5
39D
100
AcDbEntity
  8
ASSI
100
AcDbLine
 62
253
  6
CONTINUOUS
 10
-0.2577517918
 20
0.5721160065
 11
-0.2577517918
 21
-29.6831560484
  0
LINE
  5
39E
100
AcDbEntity
  8
ASSI
100
AcDbLine
 62
253
  6
CONTINUOUS
 10
-0.2577517918
 20
-35.0831560484
 11
-0.2577517918
 21
-54.5831560484
  0
LINE
  5
39F
100
AcDbEntity
  8
ASSI
100
AcDbLine
 62
253
  6
CONTINUOUS
 10
-0.0
 20
0.453691778
 11
-0.0
 21
-29.6831560484
  0
LINE
  5
3A0
100
AcDbEntity
  8
ASSI
100
AcDbLine
 62
253
  6
CONTINUOUS
 10
-0.0
 20
-35.0831560484
 11
-0.0
 21
-54.5831560484
  0
LINE
  5
3A1
100
AcDbEntity
  8
0
100
AcDbLine
 62
7
  6
CONTINUOUS
 10
0.1399707657
 20
-55.6781560484
 11
0.1399707657
 21
-57.1481560484
  0
LINE
  5
3A2
100
AcDbEntity
  8
0
100
AcDbLine
 62
7
  6
CONTINUOUS
 10
0.1399707657
 20
-58.2181560484
 11
0.1399707657
 21
-59.6881560484
  0
LWPOLYLINE
  5
3A3
100
AcDbEntity
  8
RACCORDO
100
AcDbPolyline
 62
253
  6
CONTINUOUS
 90
5
 70
0
 10
12.1565086963
 20
-31.8866465297
 10
12.1537618275
 20
-31.8869852814
 10
12.1455657504
 20
-31.8872905558
 10
12.1320134431
 20
-31.8875540979
 10
12.1132594247
 20
-31.8877662512
  0
LINE
  5
3A4
100
AcDbEntity
  8
RACCORDO
100
AcDbLine
 62
253
  6
CONTINUOUS
 10
-6.7347013945
 20
-32.2783908723
 11
-6.7772109304
 21
-32.278759201
  0
LINE
  5
3A5
100
AcDbEntity
  8
RACCORDO
100
AcDbLine
 62
253
  6
CONTINUOUS
 10
10.9415224891
 20
-32.2783908723
 11
10.6916168318
 21
-32.2796655671
  0
LINE
  5
3A6
100
AcDbEntity
  8
RACCORDO
100
AcDbLine
 62
253
  6
CONTINUOUS
 10
10.6916168318
 20
-32.2796655671
 11
-6.3016753003
 21
-32.2796655671
  0
LINE
  5
3A7
100
AcDbEntity
  8
RACCORDO
100
AcDbLine
 62
253
  6
CONTINUOUS
 10
-6.6362902782
 20
-32.278231059
 11
-6.7347013945
 21
-32.2783908723
  0
LINE
  5
3A8
100
AcDbEntity
  8
RACCORDO
100
AcDbLine
 62
253
  6
CONTINUOUS
 10
11.096033643
 20
-32.2782817195
 11
10.9415224891
 21
-32.2783908723
  0
LINE
  5
3A9
100
AcDbEntity
  8
RACCORDO
100
AcDbLine
 62
253
  6
CONTINUOUS
 10
-6.4056730755
 20
-32.2790037983
 11
-6.6362902782
 21
-32.278231059
  0
LINE
  5
3AA
100
AcDbEntity
  8
RACCORDO
100
AcDbLine
 62
253
  6
CONTINUOUS
 10
-6.3016753003
 20
-32.2796655671
 11
-6.4056730755
 21
-32.2790037983
  0
LWPOLYLINE
  5
3AB
100
AcDbEntity
  8
RACCORDO
100
AcDbPolyline
 62
253
  6
CONTINUOUS
 90
5
 70
0
 10
-7.7961493854
 20
-30.1918822516
 10
-7.7918542522
 20
-30.1929460584
 10
-7.7790820578
 20
-30.1938424202
 10
-7.7580512531
 20
-30.194556006
 10
-7.7291215417
 20
-30.1950746109
  0
LINE
  5
3AC
100
AcDbEntity
  8
0
100
AcDbLine
 62
7
  6
CONTINUOUS
 10
8.0583996479
 20
-57.2345688484
 11
7.9949707657
 21
-57.0591201862
  0
LINE
  5
3AD
100
AcDbEntity
  8
0
100
AcDbLine
 62
7
  6
CONTINUOUS
 10
0.3149707657
 20
-61.6331560484
 11
0.3149707657
 21
-60.7331560484
  0
LINE
  5
3AE
100
AcDbEntity
  8
0
100
AcDbLine
 62
7
  6
CONTINUOUS
 10
0.4899707657
 20
-56.0281560484
 11
0.4899707657
 21
-56.7981560484
  0
LINE
  5
3AF
100
AcDbEntity
  8
0
100
AcDbLine
 62
7
  6
CONTINUOUS
 10
0.4899707657
 20
-58.5681560484
 11
0.4899707657
 21
-59.3381560484
  0
LINE
  5
3B0
100
AcDbEntity
  8
ASSI
100
AcDbLine
 62
253
  6
CONTINUOUS
 10
0.5799415315
 20
0.1606345001
 11
0.5799415315
 21
-29.6831560484
  0
LINE
  5
3B1
100
AcDbEntity
  8
ASSI
100
AcDbLine
 62
253
  6
CONTINUOUS
 10
0.5799415315
 20
-35.0831560484
 11
0.5799415315
 21
-54.5831560484
  0
LINE
  5
3B2
100
AcDbEntity
  8
ASSI
100
AcDbLine
 62
253
  6
CONTINUOUS
 10
0.8376933233
 20
0.0040479135
 11
0.8376933233
 21
-29.6831560484
  0
LINE
  5
3B3
100
AcDbEntity
  8
ASSI
100
AcDbLine
 62
253
  6
CONTINUOUS
 10
0.8376933233
 20
-35.0831560484
 11
0.8376933233
 21
-54.5831560484
  0
LINE
  5
3B4
100
AcDbEntity
  8
ASSI
100
AcDbLine
 62
253
  6
CONTINUOUS
 10
1.0122482082
 20
-0.1019957862
 11
1.0122482082
 21
-29.6831560484
  0
LINE
  5
3B5
100
AcDbEntity
  8
ASSI
100
AcDbLine
 62
253
  6
CONTINUOUS
 10
1.0122482082
 20
-35.0831560484
 11
1.0122482082
 21
-54.5831560484
  0
LINE
  5
3B6
100
AcDbEntity
  8
ASSI
100
AcDbLine
 62
253
  6
CONTINUOUS
 10
1.27
 20
-0.2585823728
 11
1.27
 21
-29.6831560484
  0
LINE
  5
3B7
100
AcDbEntity
  8
ASSI
100
AcDbLine
 62
253
  6
CONTINUOUS
 10
1.27
 20
-35.0831560484
 11
1.27
 21
-54.5831560484
  0
LINE
  5
3B8
100
AcDbEntity
  8
0
100
AcDbLine
 62
7
  6
CONTINUOUS
 10
1.3149707657
 20
-60.7331560484
 11
1.3149707657
 21
-61.6331560484
  0
LINE
  5
3B9
100
AcDbEntity
  8
0
100
AcDbLine
 62
7
  6
CONTINUOUS
 10
1.3399707657
 20
-59.3381560484
 11
1.3399707657
 21
-58.5681560484
  0
LINE
  5
3BA
100
AcDbEntity
  8
0
100
AcDbLine
 62
7
  6
CONTINUOUS
 10
1.3399707657
 20
-56.7981560484
 11
1.3399707657
 21
-56.0281560484
  0
LINE
  5
3BB
100
AcDbEntity
  8
0
100
AcDbLine
 62
7
  6
CONTINUOUS
 10
1.6899707657
 20
-59.6881560484
 11
1.6899707657
 21
-58.2181560484
  0
LINE
  5
3BC
100
AcDbEntity
  8
0
100
AcDbLine
 62
7
  6
CONTINUOUS
 10
1.6899707657
 20
-57.1481560484
 11
1.6899707657
 21
-55.6781560484
  0
LINE
  5
3BD
100
AcDbEntity
  8
ASSI
100
AcDbLine
 62
253
  6
CONTINUOUS
 10
1.8499415315
 20
-0.6109021926
 11
1.8499415315
 21
-29.6831560484
  0
LINE
  5
3BE
100
AcDbEntity
  8
ASSI
100
AcDbLine
 62
253
  6
CONTINUOUS
 10
1.8499415315
 20
-35.0831560484
 11
1.8499415315
 21
-54.5831560484
  0
LINE
  5
3BF
100
AcDbEntity
  8
ASSI
100
AcDbLine
 62
253
  6
CONTINUOUS
 10
2.1076933233
 20
-0.7579901892
 11
2.1076933233
 21
-29.6831560484
  0
LINE
  5
3C0
100
AcDbEntity
  8
ASSI
100
AcDbLine
 62
253
  6
CONTINUOUS
 10
2.1076933233
 20
-35.0831560484
 11
2.1076933233
 21
-54.5831560484
  0
LINE
  5
3C1
100
AcDbEntity
  8
ASSI
100
AcDbLine
 62
253
  6
CONTINUOUS
 10
2.2822482082
 20
-0.8558785695
 11
2.2822482082
 21
-29.6831560484
  0
LINE
  5
3C2
100
AcDbEntity
  8
ASSI
100
AcDbLine
 62
253
  6
CONTINUOUS
 10
2.2822482082
 20
-35.0831560484
 11
2.2822482082
 21
-54.5831560484
  0
LWPOLYLINE
  5
3C3
100
AcDbEntity
  8
RACCORDO
100
AcDbPolyline
 62
253
  6
CONTINUOUS
 90
4
 70
0
 10
-6.7772109304
 20
-32.278759201
 10
-6.7907227958
 20
-32.2790043604
 10
-6.7988780361
 20
-32.2793036422
 10
-6.8015991479
 20
-32.2796655671
  0
LWPOLYLINE
  5
3C4
100
AcDbEntity
  8
RACCORDO
100
AcDbPolyline
 62
253
  6
CONTINUOUS
 90
5
 70
0
 10
12.1190630853
 20
-30.1950746107
 10
12.1479927937
 20
-30.1945560058
 10
12.1690235941
 20
-30.1938424199
 10
12.1817957851
 20
-30.1929460582
 10
12.1860909168
 20
-30.1918822516
  0
LINE
  5
3C5
100
AcDbEntity
  8
RACCORDO
100
AcDbLine
 62
253
  6
CONTINUOUS
 10
-7.4255908263
 20
-30.1938424199
 11
-7.2962255378
 21
-30.1918822516
  0
LINE
  5
3C6
100
AcDbEntity
  8
RACCORDO
100
AcDbLine
 62
253
  6
CONTINUOUS
 10
-7.5461434986
 20
-30.1950746107
 11
-7.4255908263
 21
-30.1938424199
  0
LINE
  5
3C7
100
AcDbEntity
  8
RACCORDO
100
AcDbLine
 62
253
  6
CONTINUOUS
 10
12.1132594247
 20
-31.8877662512
 11
12.0610162016
 21
-31.8880309816
  0
LINE
  5
3C8
100
AcDbEntity
  8
RACCORDO
100
AcDbLine
 62
253
  6
CONTINUOUS
 10
-7.2666433173
 20
-31.8866465297
 11
-7.5604755298
 21
-31.8880309816
  0
LWPOLYLINE
  5
3C9
100
AcDbEntity
  8
RACCORDO
100
AcDbPolyline
 62
253
  6
CONTINUOUS
 90
3
 70
0
 10
12.0396127959
 20
-30.1954948844
 10
12.0827292719
 20
-30.1953893648
 10
12.1190630853
 20
-30.1950746107
  0
LINE
  5
3CA
100
AcDbEntity
  8
RACCORDO
100
AcDbLine
 62
7
  6
CONTINUOUS
 10
11.9565391573
 20
-32.0831560484
 11
-7.5665976258
 21
-32.0831560484
  0
LINE
  5
3CB
100
AcDbEntity
  8
RACCORDO
100
AcDbLine
 62
253
  6
CONTINUOUS
 10
11.6565848487
 20
-31.8866465297
 11
-7.2666433173
 21
-31.8866465297
  0
LINE
  5
3CC
100
AcDbEntity
  8
RACCORDO
100
AcDbLine
 62
253
  6
CONTINUOUS
 10
-7.2962255378
 20
-30.1918822516
 11
11.6861670693
 21
-30.1918822516
  0
LINE
  5
3CD
100
AcDbEntity
  8
RACCORDO
100
AcDbLine
 62
253
  6
CONTINUOUS
 10
-7.5604755298
 20
-31.8880309816
 11
-7.6711055138
 21
-31.8880316655
  0
LINE
  5
3CE
100
AcDbEntity
  8
RACCORDO
100
AcDbLine
 62
253
  6
CONTINUOUS
 10
12.0610162016
 20
-31.8880309816
 11
11.9064896804
 21
-31.8879246356
  0
LINE
  5
3CF
100
AcDbEntity
  8
RACCORDO
100
AcDbLine
 62
253
  6
CONTINUOUS
 10
11.9360850511
 20
-30.1950746109
 11
12.0396127959
 21
-30.1954948844
  0
LINE
  5
3D0
100
AcDbEntity
  8
RACCORDO
100
AcDbLine
 62
253
  6
CONTINUOUS
 10
11.9064896804
 20
-31.8879246356
 11
11.6565848487
 21
-31.8866465297
  0
LWPOLYLINE
  5
3D1
100
AcDbEntity
  8
RACCORDO
100
AcDbPolyline
 62
253
  6
CONTINUOUS
 90
6
 70
0
 10
-7.6711055138
 20
-31.8880316655
 10
-7.7233475225
 20
-31.8877665124
 10
-7.7420946814
 20
-31.8875540146
 10
-7.7556366276
 20
-31.8872903152
 10
-7.7638239693
 20
-31.8869850501
 10
-7.7665671648
 20
-31.8866465297
  0
LWPOLYLINE
  5
3D2
100
AcDbEntity
  8
RACCORDO
100
AcDbPolyline
 62
253
  6
CONTINUOUS
 90
4
 70
0
 10
-7.7291215417
 20
-30.1950746109
 10
-7.692787727
 20
-30.1953893648
 10
-7.6496712499
 20
-30.1954948844
 10
-7.5461434986
 20
-30.1950746107
  0
LINE
  5
3D3
100
AcDbEntity
  8
RACCORDO
100
AcDbLine
 62
253
  6
CONTINUOUS
 10
11.8155323759
 20
-30.1938424202
 11
11.9360850511
 21
-30.1950746109
  0
LINE
  5
3D4
100
AcDbEntity
  8
RACCORDO
100
AcDbLine
 62
253
  6
CONTINUOUS
 10
11.6861670693
 20
-30.1918822516
 11
11.8155323759
 21
-30.1938424202
  0
LWPOLYLINE
  5
3D5
100
AcDbEntity
  8
RACCORDO
100
AcDbPolyline
 62
253
  6
CONTINUOUS
 90
6
 70
0
 10
11.1915406793
 20
-32.2796655671
 10
11.188806522
 20
-32.2793034906
 10
11.1806205662
 20
-32.2790037983
 10
11.1670730415
 20
-32.2787581772
 10
11.1483117314
 20
-32.2785535926
 10
11.096033643
 20
-32.2782817195
  0
LINE
  5
3D6
100
AcDbEntity
  8
ASSI
100
AcDbLine
 62
253
  6
CONTINUOUS
 10
2.54
 20
-1.0004228224
 11
2.54
 21
-29.6831560484
  0
LINE
  5
3D7
100
AcDbEntity
  8
ASSI
100
AcDbLine
 62
253
  6
CONTINUOUS
 10
2.54
 20
-35.0831560484
 11
2.54
 21
-54.5831560484
  0
LINE
  5
3D8
100
AcDbEntity
  8
0
100
AcDbLine
 62
7
  6
CONTINUOUS
 10
2.6799707657
 20
-55.6781560484
 11
2.6799707657
 21
-57.1481560484
  0
LINE
  5
3D9
100
AcDbEntity
  8
0
100
AcDbLine
 62
7
  6
CONTINUOUS
 10
2.6799707657
 20
-58.2181560484
 11
2.6799707657
 21
-59.6881560484
  0
LINE
  5
3DA
100
AcDbEntity
  8
0
100
AcDbLine
 62
7
  6
CONTINUOUS
 10
3.0149707657
 20
-61.6331560484
 11
3.0149707657
 21
-60.7331560484
  0
LINE
  5
3DB
100
AcDbEntity
  8
0
100
AcDbLine
 62
7
  6
CONTINUOUS
 10
3.0299707657
 20
-56.0281560484
 11
3.0299707657
 21
-56.7981560484
  0
LINE
  5
3DC
100
AcDbEntity
  8
0
100
AcDbLine
 62
7
  6
CONTINUOUS
 10
3.0299707657
 20
-58.5681560484
 11
3.0299707657
 21
-59.3381560484
  0
LINE
  5
3DD
100
AcDbEntity
  8
ASSI
100
AcDbLine
 62
253
  6
CONTINUOUS
 10
3.1199415315
 20
-1.3256473913
 11
3.1199415315
 21
-29.6831560484
  0
LINE
  5
3DE
100
AcDbEntity
  8
ASSI
100
AcDbLine
 62
253
  6
CONTINUOUS
 10
3.1199415315
 20
-35.0831560484
 11
3.1199415315
 21
-54.5831560484
  0
LINE
  5
3DF
100
AcDbEntity
  8
ASSI
100
AcDbLine
 62
253
  6
CONTINUOUS
 10
3.3776933233
 20
-1.4701916441
 11
3.3776933233
 21
-29.6831560484
  0
LINE
  5
3E0
100
AcDbEntity
  8
ASSI
100
AcDbLine
 62
253
  6
CONTINUOUS
 10
3.3776933233
 20
-35.0831560484
 11
3.3776933233
 21
-54.5831560484
  0
LINE
  5
3E1
100
AcDbEntity
  8
ASSI
100
AcDbLine
 62
253
  6
CONTINUOUS
 10
3.5522482082
 20
-1.5318872219
 11
3.5522482082
 21
-29.6831560484
  0
LINE
  5
3E2
100
AcDbEntity
  8
ASSI
100
AcDbLine
 62
253
  6
CONTINUOUS
 10
3.5522482082
 20
-35.0831560484
 11
3.5522482082
 21
-54.5831560484
  0
LINE
  5
3E3
100
AcDbEntity
  8
ASSI
100
AcDbLine
 62
253
  6
CONTINUOUS
 10
3.81
 20
-1.6028576847
 11
3.81
 21
-29.6831560484
  0
LINE
  5
3E4
100
AcDbEntity
  8
ASSI
100
AcDbLine
 62
253
  6
CONTINUOUS
 10
3.81
 20
-35.0831560484
 11
3.81
 21
-54.5831560484
  0
LINE
  5
3E5
100
AcDbEntity
  8
0
100
AcDbLine
 62
7
  6
CONTINUOUS
 10
3.8799707657
 20
-59.3381560484
 11
3.8799707657
 21
-58.5681560484
  0
LINE
  5
3E6
100
AcDbEntity
  8
0
100
AcDbLine
 62
7
  6
CONTINUOUS
 10
3.8799707657
 20
-56.7981560484
 11
3.8799707657
 21
-56.0281560484
  0
LINE
  5
3E7
100
AcDbEntity
  8
0
100
AcDbLine
 62
7
  6
CONTINUOUS
 10
4.0149707657
 20
-60.7331560484
 11
4.0149707657
 21
-61.6331560484
  0
LINE
  5
3E8
100
AcDbEntity
  8
0
100
AcDbLine
 62
7
  6
CONTINUOUS
 10
4.2299707657
 20
-59.6881560484
 11
4.2299707657
 21
-58.2181560484
  0
LINE
  5
3E9
100
AcDbEntity
  8
0
100
AcDbLine
 62
7
  6
CONTINUOUS
 10
4.2299707657
 20
-57.1481560484
 11
4.2299707657
 21
-55.6781560484
  0
LINE
  5
3EA
100
AcDbEntity
  8
ASSI
100
AcDbLine
 62
253
  6
CONTINUOUS
 10
4.3899415315
 20
-1.7625412261
 11
4.3899415315
 21
-29.6831560484
  0
LINE
  5
3EB
100
AcDbEntity
  8
ASSI
100
AcDbLine
 62
253
  6
CONTINUOUS
 10
4.3899415315
 20
-35.0831560484
 11
4.3899415315
 21
-54.5831560484
  0
LINE
  5
3EC
100
AcDbEntity
  8
ASSI
100
AcDbLine
 62
253
  6
CONTINUOUS
 10
4.6476933233
 20
-1.8335116889
 11
4.6476933233
 21
-29.6831560484
  0
LINE
  5
3ED
100
AcDbEntity
  8
ASSI
100
AcDbLine
 62
253
  6
CONTINUOUS
 10
4.6476933233
 20
-35.0831560484
 11
4.6476933233
 21
-54.5831560484
  0
LINE
  5
3EE
100
AcDbEntity
  8
RACCORDO
100
AcDbLine
 62
7
  6
CONTINUOUS
 10
-7.2962255378
 20
-29.6831560484
 11
11.6861670693
 21
-29.6831560484
  0
LINE
  5
3EF
100
AcDbEntity
  8
ASSI
100
AcDbLine
 62
253
  6
CONTINUOUS
 10
4.8222482082
 20
-1.8815743654
 11
4.8222482082
 21
-29.6831560484
  0
LINE
  5
3F0
100
AcDbEntity
  8
ASSI
100
AcDbLine
 62
253
  6
CONTINUOUS
 10
4.8222482082
 20
-35.0831560484
 11
4.8222482082
 21
-54.5831560484
  0
LINE
  5
3F1
100
AcDbEntity
  8
ASSI
100
AcDbLine
 62
253
  6
CONTINUOUS
 10
5.08
 20
-1.9525448282
 11
5.08
 21
-29.6831560484
  0
LINE
  5
3F2
100
AcDbEntity
  8
ASSI
100
AcDbLine
 62
253
  6
CONTINUOUS
 10
5.08
 20
-35.0831560484
 11
5.08
 21
-54.5831560484
  0
LINE
  5
3F3
100
AcDbEntity
  8
0
100
AcDbLine
 62
7
  6
CONTINUOUS
 10
5.2199707657
 20
-55.6781560484
 11
5.2199707657
 21
-57.1481560484
  0
LINE
  5
3F4
100
AcDbEntity
  8
0
100
AcDbLine
 62
7
  6
CONTINUOUS
 10
5.2199707657
 20
-58.2181560484
 11
5.2199707657
 21
-59.6881560484
  0
LINE
  5
3F5
100
AcDbEntity
  8
0
100
AcDbLine
 62
7
  6
CONTINUOUS
 10
5.5699707657
 20
-56.0281560484
 11
5.5699707657
 21
-56.7981560484
  0
LINE
  5
3F6
100
AcDbEntity
  8
0
100
AcDbLine
 62
7
  6
CONTINUOUS
 10
5.5699707657
 20
-58.5681560484
 11
5.5699707657
 21
-59.3381560484
  0
LINE
  5
3F7
100
AcDbEntity
  8
ASSI
100
AcDbLine
 62
253
  6
CONTINUOUS
 10
5.6599415315
 20
-1.9581804547
 11
5.6599415315
 21
-29.6831560484
  0
LINE
  5
3F8
100
AcDbEntity
  8
ASSI
100
AcDbLine
 62
253
  6
CONTINUOUS
 10
5.6599415315
 20
-35.0831560484
 11
5.6599415315
 21
-54.5831560484
  0
LINE
  5
3F9
100
AcDbEntity
  8
ASSI
100
AcDbLine
 62
253
  6
CONTINUOUS
 10
5.9176933233
 20
-1.8791203625
 11
5.9176933233
 21
-29.6831560484
  0
LINE
  5
3FA
100
AcDbEntity
  8
ASSI
100
AcDbLine
 62
253
  6
CONTINUOUS
 10
5.9176933233
 20
-35.0831560484
 11
5.9176933233
 21
-54.5831560484
  0
LINE
  5
3FB
100
AcDbEntity
  8
ASSI
100
AcDbLine
 62
253
  6
CONTINUOUS
 10
6.0922482082
 20
-1.8255792204
 11
6.0922482082
 21
-29.6831560484
  0
LINE
  5
3FC
100
AcDbEntity
  8
ASSI
100
AcDbLine
 62
253
  6
CONTINUOUS
 10
6.0922482082
 20
-35.0831560484
 11
6.0922482082
 21
-54.5831560484
  0
LINE
  5
3FD
100
AcDbEntity
  8
ASSI
100
AcDbLine
 62
253
  6
CONTINUOUS
 10
6.35
 20
-1.7465191282
 11
6.35
 21
-29.6831560484
  0
LINE
  5
3FE
100
AcDbEntity
  8
ASSI
100
AcDbLine
 62
253
  6
CONTINUOUS
 10
6.35
 20
-35.0831560484
 11
6.35
 21
-54.5831560484
  0
LINE
  5
3FF
100
AcDbEntity
  8
0
100
AcDbLine
 62
7
  6
CONTINUOUS
 10
6.4199707657
 20
-59.3381560484
 11
6.4199707657
 21
-58.5681560484
  0
LINE
  5
400
100
AcDbEntity
  8
0
100
AcDbLine
 62
7
  6
CONTINUOUS
 10
6.4199707657
 20
-56.7981560484
 11
6.4199707657
 21
-56.0281560484
  0
LINE
  5
401
100
AcDbEntity
  8
0
100
AcDbLine
 62
7
  6
CONTINUOUS
 10
6.7699707657
 20
-59.6881560484
 11
6.7699707657
 21
-58.2181560484
  0
LINE
  5
402
100
AcDbEntity
  8
0
100
AcDbLine
 62
7
  6
CONTINUOUS
 10
6.7699707657
 20
-57.1481560484
 11
6.7699707657
 21
-55.6781560484
  0
LINE
  5
403
100
AcDbEntity
  8
0
100
AcDbLine
 62
7
  6
CONTINUOUS
 10
-3.6850292343
 20
-56.8931560484
 11
-3.8084581208
 21
-57.2345688604
  0
LWPOLYLINE
  5
404
100
AcDbEntity
  8
0
100
AcDbPolyline
 62
7
  6
CONTINUOUS
 90
3
 70
0
 10
9.0649770471
 20
-56.8928564975
 10
9.0675578994
 20
-56.9253176784
 10
9.067629992
 20
-56.9316912663
  0
LINE
  5
405
100
AcDbEntity
  8
ASSI
100
AcDbLine
 62
7
  6
CONTINUOUS
 10
7.0899707657
 20
-1.5195482251
 11
7.0899707657
 21
-29.6831560484
  0
LINE
  5
406
100
AcDbEntity
  8
ASSI
100
AcDbLine
 62
7
  6
CONTINUOUS
 10
7.0899707657
 20
-35.0831560484
 11
7.0899707657
 21
-54.5831560484
  0
LINE
  5
407
100
AcDbEntity
  8
0
100
AcDbLine
 62
7
  6
CONTINUOUS
 10
7.9949707657
 20
-60.7331560484
 11
7.9949707657
 21
-54.6331560484
  0
LINE
  5
408
100
AcDbEntity
  8
0
100
AcDbLine
 62
7
  6
CONTINUOUS
 10
8.0583996522
 20
-57.2345688604
 11
8.0583996522
 21
-58.1317432364
  0
LINE
  5
409
100
AcDbEntity
  8
0
100
AcDbLine
 62
253
  6
CONTINUOUS
 10
8.1949707657
 20
-56.2174706235
 11
8.1949707657
 21
-56.8331560484
  0
LINE
  5
40A
100
AcDbEntity
  8
0
100
AcDbLine
 62
253
  6
CONTINUOUS
 10
8.1949707657
 20
-58.5331560484
 11
8.1949707657
 21
-59.1488414734
  0
LINE
  5
40B
100
AcDbEntity
  8
0
100
AcDbLine
 62
253
  6
CONTINUOUS
 10
8.5953460439
 20
-59.1488414734
 11
8.5953460439
 21
-58.5331560484
  0
LINE
  5
40C
100
AcDbEntity
  8
0
100
AcDbLine
 62
253
  6
CONTINUOUS
 10
8.5953460439
 20
-56.8331560484
 11
8.5953460439
 21
-56.2174706235
  0
LINE
  5
40D
100
AcDbEntity
  8
0
100
AcDbLine
 62
7
  6
CONTINUOUS
 10
8.7953460439
 20
-56.3359424529
 11
8.7953460439
 21
-56.8331560484
  0
LINE
  5
40E
100
AcDbEntity
  8
0
100
AcDbLine
 62
7
  6
CONTINUOUS
 10
8.7953460439
 20
-58.5331560484
 11
8.7953460439
 21
-59.0303696439
  0
LINE
  5
40F
100
AcDbEntity
  8
0
100
AcDbLine
 62
7
  6
CONTINUOUS
 10
8.8349707657
 20
-58.5131560484
 11
8.8349706562
 21
-57.2345688604
  0
LINE
  5
410
100
AcDbEntity
  8
0
100
AcDbLine
 62
7
  6
CONTINUOUS
 10
8.8349707657
 20
-56.8931146536
 11
8.8349707657
 21
-56.8331560484
  0
LINE
  5
411
100
AcDbEntity
  8
0
100
AcDbLine
 62
7
  6
CONTINUOUS
 10
9.0249707657
 20
-58.5131560484
 11
9.0249707657
 21
-58.4731560484
  0
LINE
  5
412
100
AcDbEntity
  8
0
100
AcDbLine
 62
7
  6
CONTINUOUS
 10
9.0249707657
 20
-57.7231560484
 11
9.0249707657
 21
-57.6431560484
  0
LINE
  5
413
100
AcDbEntity
  8
0
100
AcDbLine
 62
7
  6
CONTINUOUS
 10
9.0249707657
 20
-56.8928556663
 11
9.0249707657
 21
-56.8331560484
  0
LINE
  5
414
100
AcDbEntity
  8
0
100
AcDbLine
 62
7
  6
CONTINUOUS
 10
9.0678443387
 20
-57.6431560484
 11
9.0678443387
 21
-56.9316912797
  0
LINE
  5
415
100
AcDbEntity
  8
0
100
AcDbLine
 62
7
  6
CONTINUOUS
 10
9.0749707657
 20
-58.4731560484
 11
9.0749707657
 21
-57.7231560484
  0
LINE
  5
416
100
AcDbEntity
  8
0
100
AcDbLine
 62
7
  6
CONTINUOUS
 10
9.4749707657
 20
-56.1831560484
 11
9.4749707657
 21
-59.1831560484
  0
LINE
  5
417
100
AcDbEntity
  8
RACCORDO
100
AcDbLine
 62
253
  6
CONTINUOUS
 10
10.6512569394
 20
-35.0831560484
 11
10.6512569394
 21
-34.5918822516
  0
LINE
  5
418
100
AcDbEntity
  8
RACCORDO
100
AcDbLine
 62
253
  6
CONTINUOUS
 10
10.6916168318
 20
-32.0831560484
 11
10.6916168318
 21
-32.2796655671
  0
LINE
  5
419
100
AcDbEntity
  8
RACCORDO
100
AcDbLine
 62
253
  6
CONTINUOUS
 10
10.6916168318
 20
-32.2796655671
 11
10.6512569394
 21
-34.5918822516
  0
LINE
  5
41A
100
AcDbEntity
  8
RACCORDO
100
AcDbLine
 62
7
  6
CONTINUOUS
 10
11.1915406793
 20
-32.2796655671
 11
11.151180787
 21
-34.5918822516
  0
LWPOLYLINE
  5
41B
100
AcDbEntity
  8
0
100
AcDbPolyline
 62
7
  6
CONTINUOUS
 90
12
 70
0
 10
9.067629992
 20
-56.9316912663
 10
9.0664381196
 20
-56.9567349965
 10
9.0616177077
 20
-56.9871084517
 10
9.0532613974
 20
-57.0161459997
 10
9.0412044551
 20
-57.0441396849
 10
9.0249526793
 20
-57.0719656403
 10
9.004466948
 20
-57.1000115576
 10
8.9797863832
 20
-57.1278897451
 10
8.9505341503
 20
-57.1553132621
 10
8.9165846377
 20
-57.1821864615
 10
8.878063457
 20
-57.2086049903
 10
8.834970608
 20
-57.2345688484
  0
LINE
  5
41C
100
AcDbEntity
  8
RACCORDO
100
AcDbLine
 62
253
  6
CONTINUOUS
 10
11.6565848487
 20
-32.0831560484
 11
11.6565848487
 21
-31.8866465297
  0
LINE
  5
41D
100
AcDbEntity
  8
RACCORDO
100
AcDbLine
 62
253
  6
CONTINUOUS
 10
11.6861670693
 20
-29.6831560484
 11
11.6861670759
 21
-30.1918822519
  0
LINE
  5
41E
100
AcDbEntity
  8
RACCORDO
100
AcDbLine
 62
7
  6
CONTINUOUS
 10
12.186090942
 20
-30.1744312865
 11
12.1860909168
 21
-30.1918822516
  0
LINE
  5
41F
100
AcDbEntity
  8
RACCORDO
100
AcDbLine
 62
253
  6
CONTINUOUS
 10
11.6861670693
 20
-30.1918822516
 11
11.6565848487
 21
-31.8866465297
  0
LINE
  5
420
100
AcDbEntity
  8
RACCORDO
100
AcDbLine
 62
7
  6
CONTINUOUS
 10
12.1860909168
 20
-30.1918822516
 11
12.1565086963
 21
-31.8866465297
  0
LINE
  5
421
100
AcDbEntity
  8
0
100
AcDbLine
 62
7
  6
CONTINUOUS
 10
8.0583996522
 20
-58.1317432364
 11
7.9949707657
 21
-58.3071919107
  0
LINE
  5
422
100
AcDbEntity
  8
0
100
AcDbLine
 62
7
  6
CONTINUOUS
 10
-0.7950292343
 20
-60.2331560484
 11
-1.1450292343
 21
-60.7331560484
  0
LINE
  5
423
100
AcDbEntity
  8
0
100
AcDbLine
 62
7
  6
CONTINUOUS
 10
1.7849707657
 20
-60.2331560484
 11
1.4349707657
 21
-60.7331560484
  0
LINE
  5
424
100
AcDbEntity
  8
0
100
AcDbLine
 62
7
  6
CONTINUOUS
 10
-2.0500292343
 20
-56.7981560484
 11
-2.4000292343
 21
-57.1481560484
  0
LINE
  5
425
100
AcDbEntity
  8
0
100
AcDbLine
 62
7
  6
CONTINUOUS
 10
-0.8500292343
 20
-55.6781560484
 11
-1.2000292343
 21
-56.0281560484
  0
LINE
  5
426
100
AcDbEntity
  8
0
100
AcDbLine
 62
7
  6
CONTINUOUS
 10
0.4899707657
 20
-56.7981560484
 11
0.1399707657
 21
-57.1481560484
  0
LINE
  5
427
100
AcDbEntity
  8
0
100
AcDbLine
 62
7
  6
CONTINUOUS
 10
-2.0500292343
 20
-59.3381560484
 11
-2.4000292343
 21
-59.6881560484
  0
LINE
  5
428
100
AcDbEntity
  8
0
100
AcDbLine
 62
7
  6
CONTINUOUS
 10
1.6899707657
 20
-55.6781560484
 11
1.3399707657
 21
-56.0281560484
  0
LINE
  5
429
100
AcDbEntity
  8
0
100
AcDbLine
 62
7
  6
CONTINUOUS
 10
-0.8500292343
 20
-58.2181560484
 11
-1.2000292343
 21
-58.5681560484
  0
LINE
  5
42A
100
AcDbEntity
  8
0
100
AcDbLine
 62
7
  6
CONTINUOUS
 10
3.0299707657
 20
-56.7981560484
 11
2.6799707657
 21
-57.1481560484
  0
LINE
  5
42B
100
AcDbEntity
  8
0
100
AcDbLine
 62
7
  6
CONTINUOUS
 10
0.4899707657
 20
-59.3381560484
 11
0.1399707657
 21
-59.6881560484
  0
LINE
  5
42C
100
AcDbEntity
  8
0
100
AcDbLine
 62
7
  6
CONTINUOUS
 10
4.2299707657
 20
-55.6781560484
 11
3.8799707657
 21
-56.0281560484
  0
LINE
  5
42D
100
AcDbEntity
  8
0
100
AcDbLine
 62
7
  6
CONTINUOUS
 10
1.6899707657
 20
-58.2181560484
 11
1.3399707657
 21
-58.5681560484
  0
LINE
  5
42E
100
AcDbEntity
  8
0
100
AcDbLine
 62
7
  6
CONTINUOUS
 10
5.5699707657
 20
-56.7981560484
 11
5.2199707657
 21
-57.1481560484
  0
LINE
  5
42F
100
AcDbEntity
  8
0
100
AcDbLine
 62
7
  6
CONTINUOUS
 10
3.0299707657
 20
-59.3381560484
 11
2.6799707657
 21
-59.6881560484
  0
LINE
  5
430
100
AcDbEntity
  8
0
100
AcDbLine
 62
7
  6
CONTINUOUS
 10
6.7699707657
 20
-55.6781560484
 11
6.4199707657
 21
-56.0281560484
  0
LINE
  5
431
100
AcDbEntity
  8
0
100
AcDbLine
 62
7
  6
CONTINUOUS
 10
4.2299707657
 20
-58.2181560484
 11
3.8799707657
 21
-58.5681560484
  0
LINE
  5
432
100
AcDbEntity
  8
0
100
AcDbLine
 62
7
  6
CONTINUOUS
 10
5.5699707657
 20
-59.3381560484
 11
5.2199707657
 21
-59.6881560484
  0
LINE
  5
433
100
AcDbEntity
  8
0
100
AcDbLine
 62
7
  6
CONTINUOUS
 10
6.7699707657
 20
-58.2181560484
 11
6.4199707657
 21
-58.5681560484
  0
LINE
  5
434
100
AcDbEntity
  8
0
100
AcDbLine
 62
7
  6
CONTINUOUS
 10
3.4254536022
 20
-1.4969750616
 11
1.904387332
 21
-0.6439785177
  0
LINE
  5
435
100
AcDbEntity
  8
0
100
AcDbLine
 62
7
  6
CONTINUOUS
 10
1.904387332
 20
-0.6439785177
 11
0.4002642165
 21
0.2697901232
  0
LINE
  5
436
100
AcDbEntity
  8
0
100
AcDbLine
 62
7
  6
CONTINUOUS
 10
5.3952879342
 20
-2.0393575346
 11
3.4254536022
 21
-1.4969750616
  0
LINE
  5
437
100
AcDbEntity
  8
0
100
AcDbLine
 62
7
  6
CONTINUOUS
 10
0.4002642165
 20
0.2697901232
 11
-1.0926593594
 21
0.9557148319
  0
LINE
  5
438
100
AcDbEntity
  8
0
100
AcDbLine
 62
7
  6
CONTINUOUS
 10
-1.0926593594
 20
0.9557148319
 11
-2.6816462385
 21
1.1106562418
  0
LINE
  5
439
100
AcDbEntity
  8
0
100
AcDbLine
 62
7
  6
CONTINUOUS
 10
-99.6374993572
 20
4.1108582418
 11
-99.2058823529
 21
4.0687714581
  0
LINE
  5
43A
100
AcDbEntity
  8
0
100
AcDbLine
 62
7
  6
CONTINUOUS
 10
-101.7352670205
 20
48.3313944118
 11
-101.2352670205
 21
48.8313944118
  0
LINE
  5
43B
100
AcDbEntity
  8
0
100
AcDbLine
 62
7
  6
CONTINUOUS
 10
-96.235881191
 20
45.1410948608
 11
-95.5352670452
 21
45.4828072117
  0
LINE
  5
43C
100
AcDbEntity
  8
RACCORDO
100
AcDbLine
 62
7
  6
CONTINUOUS
 10
-110.5470025292
 20
18.4226696498
 11
-110.547002504
 21
18.440120615
  0
LINE
  5
43D
100
AcDbEntity
  8
RACCORDO
100
AcDbLine
 62
7
  6
CONTINUOUS
 10
-110.547002504
 20
18.440120615
 11
-110.5174202835
 21
20.134884893
  0
LINE
  5
43E
100
AcDbEntity
  8
RACCORDO
100
AcDbLine
 62
253
  6
CONTINUOUS
 10
-110.0470786564
 20
17.9313944118
 11
-110.0470786631
 21
18.4401206152
  0
LINE
  5
43F
100
AcDbEntity
  8
RACCORDO
100
AcDbLine
 62
253
  6
CONTINUOUS
 10
-110.0174964359
 20
20.3313944118
 11
-110.0174964359
 21
20.134884893
  0
LINE
  5
440
100
AcDbEntity
  8
RACCORDO
100
AcDbLine
 62
253
  6
CONTINUOUS
 10
-109.0525284189
 20
20.3313944118
 11
-109.0525284189
 21
20.5279039305
  0
LINE
  5
441
100
AcDbEntity
  8
RACCORDO
100
AcDbLine
 62
253
  6
CONTINUOUS
 10
-109.0121685266
 20
23.3313944118
 11
-109.0121685266
 21
22.840120615
  0
LINE
  5
442
100
AcDbEntity
  8
RACCORDO
100
AcDbLine
 62
253
  6
CONTINUOUS
 10
-110.0470786564
 20
18.440120615
 11
-110.0174964359
 21
20.134884893
  0
LINE
  5
443
100
AcDbEntity
  8
RACCORDO
100
AcDbLine
 62
7
  6
CONTINUOUS
 10
-109.5524522665
 20
20.5279039305
 11
-109.5120923742
 21
22.840120615
  0
LINE
  5
444
100
AcDbEntity
  8
RACCORDO
100
AcDbLine
 62
253
  6
CONTINUOUS
 10
-109.0525284189
 20
20.5279039305
 11
-109.0121685266
 21
22.840120615
  0
LINE
  5
445
100
AcDbEntity
  8
RACCORDO
100
AcDbLine
 62
253
  6
CONTINUOUS
 10
-96.7353207609
 20
18.4420807833
 11
-96.8646860494
 21
18.440120615
  0
LINE
  5
446
100
AcDbEntity
  8
RACCORDO
100
AcDbLine
 62
253
  6
CONTINUOUS
 10
-96.6147680886
 20
18.4433129741
 11
-96.7353207609
 21
18.4420807833
  0
LWPOLYLINE
  5
447
100
AcDbEntity
  8
RACCORDO
100
AcDbPolyline
 62
253
  6
CONTINUOUS
 90
3
 70
0
 10
-110.4005243831
 20
18.4437332477
 10
-110.4436408591
 20
18.4436277281
 10
-110.4799746725
 20
18.4433129741
  0
LINE
  5
448
100
AcDbEntity
  8
RACCORDO
100
AcDbLine
 62
7
  6
CONTINUOUS
 10
-96.8646860494
 20
17.9313944118
 11
-110.0470786564
 21
17.9313944118
  0
LINE
  5
449
100
AcDbEntity
  8
RACCORDO
100
AcDbLine
 62
253
  6
CONTINUOUS
 10
-96.8646860494
 20
18.440120615
 11
-110.0470786564
 21
18.440120615
  0
LINE
  5
44A
100
AcDbEntity
  8
RACCORDO
100
AcDbLine
 62
253
  6
CONTINUOUS
 10
-110.2969966383
 20
18.4433129742
 11
-110.4005243831
 21
18.4437332477
  0
LWPOLYLINE
  5
44B
100
AcDbEntity
  8
RACCORDO
100
AcDbPolyline
 62
253
  6
CONTINUOUS
 90
4
 70
0
 10
-96.4317900455
 20
18.4433129742
 10
-96.4681238602
 20
18.4436277282
 10
-96.5112403372
 20
18.4437332477
 10
-96.6147680886
 20
18.4433129741
  0
LINE
  5
44C
100
AcDbEntity
  8
RACCORDO
100
AcDbLine
 62
253
  6
CONTINUOUS
 10
-110.1764439631
 20
18.4420807835
 11
-110.2969966383
 21
18.4433129742
  0
LINE
  5
44D
100
AcDbEntity
  8
RACCORDO
100
AcDbLine
 62
253
  6
CONTINUOUS
 10
-110.0470786564
 20
18.440120615
 11
-110.1764439631
 21
18.4420807835
  0
LWPOLYLINE
  5
44E
100
AcDbEntity
  8
RACCORDO
100
AcDbPolyline
 62
253
  6
CONTINUOUS
 90
5
 70
0
 10
-110.4799746725
 20
18.4433129741
 10
-110.5089043809
 20
18.4427943691
 10
-110.5299351813
 20
18.4420807833
 10
-110.5427073723
 20
18.4411844215
 10
-110.547002504
 20
18.440120615
  0
LINE
  5
44F
100
AcDbEntity
  8
RACCORDO
100
AcDbLine
 62
253
  6
CONTINUOUS
 10
-110.4741710119
 20
20.1360046145
 11
-110.4219277888
 21
20.1362693449
  0
LINE
  5
450
100
AcDbEntity
  8
RACCORDO
100
AcDbLine
 62
253
  6
CONTINUOUS
 10
-96.8942682699
 20
20.134884893
 11
-96.6004360573
 21
20.1362693449
  0
LINE
  5
451
100
AcDbEntity
  8
RACCORDO
100
AcDbLine
 62
253
  6
CONTINUOUS
 10
-110.0174964359
 20
20.134884893
 11
-96.8942682699
 21
20.134884893
  0
LINE
  5
452
100
AcDbEntity
  8
RACCORDO
100
AcDbLine
 62
253
  6
CONTINUOUS
 10
-96.6004360573
 20
20.1362693449
 11
-96.4898060734
 21
20.1362700289
  0
LINE
  5
453
100
AcDbEntity
  8
RACCORDO
100
AcDbLine
 62
253
  6
CONTINUOUS
 10
-110.4219277888
 20
20.1362693449
 11
-110.2674012675
 21
20.136162999
  0
LINE
  5
454
100
AcDbEntity
  8
RACCORDO
100
AcDbLine
 62
253
  6
CONTINUOUS
 10
-110.2674012675
 20
20.136162999
 11
-110.0174964359
 21
20.134884893
  0
LWPOLYLINE
  5
455
100
AcDbEntity
  8
RACCORDO
100
AcDbPolyline
 62
253
  6
CONTINUOUS
 90
6
 70
0
 10
-96.4898060734
 20
20.1362700289
 10
-96.4375640647
 20
20.1360048758
 10
-96.4188169058
 20
20.135792378
 10
-96.4052749595
 20
20.1355286785
 10
-96.3970876179
 20
20.1352234135
 10
-96.3943444224
 20
20.134884893
  0
LWPOLYLINE
  5
456
100
AcDbEntity
  8
RACCORDO
100
AcDbPolyline
 62
253
  6
CONTINUOUS
 90
6
 70
0
 10
-109.5524522665
 20
20.5279039305
 10
-109.5497181092
 20
20.5275418539
 10
-109.5415321534
 20
20.5272421617
 10
-109.5279846287
 20
20.5269965406
 10
-109.5092233186
 20
20.5267919559
 10
-109.4569452302
 20
20.5265200828
  0
LWPOLYLINE
  5
457
100
AcDbEntity
  8
RACCORDO
100
AcDbPolyline
 62
253
  6
CONTINUOUS
 90
5
 70
0
 10
-96.3647622018
 20
18.440120615
 10
-96.369057335
 20
18.4411844217
 10
-96.3818295294
 20
18.4420807835
 10
-96.402860334
 20
18.4427943693
 10
-96.4317900455
 20
18.4433129742
  0
LINE
  5
458
100
AcDbEntity
  8
0
100
AcDbLine
 62
7
  6
CONTINUOUS
 10
-103.2852670205
 20
43.5313944118
 11
-103.2852670205
 21
48.3313944118
  0
LWPOLYLINE
  5
459
100
AcDbEntity
  8
RACCORDO
100
AcDbPolyline
 62
253
  6
CONTINUOUS
 90
5
 70
0
 10
-110.5174202835
 20
20.134884893
 10
-110.5146734147
 20
20.1352236447
 10
-110.5064773376
 20
20.1355289191
 10
-110.4929250303
 20
20.1357924612
 10
-110.4741710119
 20
20.1360046145
  0
LWPOLYLINE
  5
45A
100
AcDbEntity
  8
RACCORDO
100
AcDbPolyline
 62
253
  6
CONTINUOUS
 90
4
 70
0
 10
-97.3837006568
 20
20.5269975643
 10
-97.3701887914
 20
20.5272427237
 10
-97.3620335511
 20
20.5275420056
 10
-97.3593124393
 20
20.5279039305
  0
LINE
  5
45B
100
AcDbEntity
  8
RACCORDO
100
AcDbLine
 62
253
  6
CONTINUOUS
 10
-97.4262101927
 20
20.5266292356
 11
-97.3837006568
 21
20.5269975643
  0
LINE
  5
45C
100
AcDbEntity
  8
RACCORDO
100
AcDbLine
 62
253
  6
CONTINUOUS
 10
-109.3024340763
 20
20.5266292356
 11
-109.0525284189
 21
20.5279039305
  0
LINE
  5
45D
100
AcDbEntity
  8
RACCORDO
100
AcDbLine
 62
7
  6
CONTINUOUS
 10
-110.3174507445
 20
20.3313944118
 11
-96.5943139614
 21
20.3313944118
  0
LINE
  5
45E
100
AcDbEntity
  8
RACCORDO
100
AcDbLine
 62
253
  6
CONTINUOUS
 10
-97.524621309
 20
20.5264694223
 11
-97.4262101927
 21
20.5266292356
  0
LINE
  5
45F
100
AcDbEntity
  8
RACCORDO
100
AcDbLine
 62
253
  6
CONTINUOUS
 10
-109.0525284189
 20
20.5279039305
 11
-97.8592362869
 21
20.5279039305
  0
LINE
  5
460
100
AcDbEntity
  8
RACCORDO
100
AcDbLine
 62
253
  6
CONTINUOUS
 10
-109.4569452302
 20
20.5265200828
 11
-109.3024340763
 21
20.5266292356
  0
LINE
  5
461
100
AcDbEntity
  8
RACCORDO
100
AcDbLine
 62
253
  6
CONTINUOUS
 10
-97.7552385117
 20
20.5272421617
 11
-97.524621309
 21
20.5264694223
  0
LINE
  5
462
100
AcDbEntity
  8
RACCORDO
100
AcDbLine
 62
253
  6
CONTINUOUS
 10
-97.8592362869
 20
20.5279039305
 11
-97.7552385117
 21
20.5272421617
  0
LINE
  5
463
100
AcDbEntity
  8
0
100
AcDbLine
 62
7
  6
CONTINUOUS
 10
-102.7352670205
 20
47.4313944118
 11
-102.7352670205
 21
46.7213944118
  0
LINE
  5
464
100
AcDbEntity
  8
0
100
AcDbLine
 62
7
  6
CONTINUOUS
 10
-102.7352670205
 20
45.1413530169
 11
-102.7352670205
 21
44.4313944118
  0
LINE
  5
465
100
AcDbEntity
  8
RACCORDO
100
AcDbLine
 62
253
  6
CONTINUOUS
 10
-97.8995961793
 20
22.840120615
 11
-97.7702308908
 21
22.8420807833
  0
LINE
  5
466
100
AcDbEntity
  8
RACCORDO
100
AcDbLine
 62
253
  6
CONTINUOUS
 10
-97.7702308908
 20
22.8420807833
 11
-97.6496782185
 21
22.8433129741
  0
LWPOLYLINE
  5
467
100
AcDbEntity
  8
RACCORDO
100
AcDbPolyline
 62
253
  6
CONTINUOUS
 90
8
 70
0
 10
-97.6496782185
 20
22.8433129741
 10
-97.5461504671
 20
22.8437332477
 10
-97.5030339901
 20
22.8436277282
 10
-97.4667001754
 20
22.8433129742
 10
-97.4377704639
 20
22.8427943693
 10
-97.4167396593
 20
22.8420807835
 10
-97.4039674649
 20
22.8411844217
 10
-97.3996723317
 20
22.840120615
  0
LINE
  5
468
100
AcDbEntity
  8
RACCORDO
100
AcDbLine
 62
253
  6
CONTINUOUS
 10
-109.0121685266
 20
22.840120615
 11
-97.8995961793
 21
22.840120615
  0
LINE
  5
469
100
AcDbEntity
  8
RACCORDO
100
AcDbLine
 62
7
  6
CONTINUOUS
 10
-109.0121685266
 20
23.3313944118
 11
-97.8995961793
 21
23.3313944118
  0
LINE
  5
46A
100
AcDbEntity
  8
RACCORDO
100
AcDbLine
 62
253
  6
CONTINUOUS
 10
-109.3656142532
 20
22.8437332477
 11
-109.2620865085
 21
22.8433129742
  0
LINE
  5
46B
100
AcDbEntity
  8
RACCORDO
100
AcDbLine
 62
253
  6
CONTINUOUS
 10
-109.2620865085
 20
22.8433129742
 11
-109.1415338332
 21
22.8420807835
  0
LINE
  5
46C
100
AcDbEntity
  8
RACCORDO
100
AcDbLine
 62
253
  6
CONTINUOUS
 10
-109.1415338332
 20
22.8420807835
 11
-109.0121685266
 21
22.840120615
  0
LINE
  5
46D
100
AcDbEntity
  8
0
100
AcDbLine
 62
7
  6
CONTINUOUS
 10
-101.1358823529
 20
47.4313944118
 11
-101.1358823529
 21
44.4313944118
  0
LINE
  5
46E
100
AcDbEntity
  8
ASSI
100
AcDbLine
 62
7
  6
CONTINUOUS
 10
-100.1058823529
 20
42.8313944118
 11
-100.1058823529
 21
23.3313944118
  0
LINE
  5
46F
100
AcDbEntity
  8
ASSI
100
AcDbLine
 62
7
  6
CONTINUOUS
 10
-100.1058823529
 20
17.9313944118
 11
-100.1058823529
 21
3.8791855357
  0
LINE
  5
470
100
AcDbEntity
  8
0
100
AcDbLine
 62
7
  6
CONTINUOUS
 10
-99.6558823529
 20
42.8813944118
 11
-99.6558823529
 21
44.4313944118
  0
LINE
  5
471
100
AcDbEntity
  8
0
100
AcDbLine
 62
7
  6
CONTINUOUS
 10
-99.6558823529
 20
47.4313944118
 11
-99.6558823529
 21
48.9813944118
  0
LWPOLYLINE
  5
472
100
AcDbEntity
  8
RACCORDO
100
AcDbPolyline
 62
253
  6
CONTINUOUS
 90
7
 70
0
 10
-109.5120923742
 20
22.840120615
 10
-109.5077972424
 20
22.8411844215
 10
-109.4950250514
 20
22.8420807833
 10
-109.473994251
 20
22.8427943691
 10
-109.4450645427
 20
22.8433129741
 10
-109.4087307292
 20
22.8436277281
 10
-109.3656142532
 20
22.8437332477
  0
LINE
  5
473
100
AcDbEntity
  8
RACCORDO
100
AcDbLine
 62
253
  6
CONTINUOUS
 10
-97.8592362869
 20
20.5279039305
 11
-97.8995961793
 21
22.840120615
  0
LINE
  5
474
100
AcDbEntity
  8
ASSI
100
AcDbLine
 62
7
  6
CONTINUOUS
 10
-99.2058823529
 20
42.8313944118
 11
-99.2058823529
 21
23.3313944118
  0
LINE
  5
475
100
AcDbEntity
  8
ASSI
100
AcDbLine
 62
7
  6
CONTINUOUS
 10
-99.2058823529
 20
17.9313944118
 11
-99.2058823529
 21
4.0687714581
  0
LINE
  5
476
100
AcDbEntity
  8
0
100
AcDbLine
 62
7
  6
CONTINUOUS
 10
-99.1358823529
 20
45.0813944118
 11
-99.1358823529
 21
46.7813944118
  0
LINE
  5
477
100
AcDbEntity
  8
0
100
AcDbLine
 62
7
  6
CONTINUOUS
 10
-98.9858823529
 20
46.7213944118
 11
-98.9858823529
 21
45.9713944118
  0
LINE
  5
478
100
AcDbEntity
  8
0
100
AcDbLine
 62
7
  6
CONTINUOUS
 10
-98.1558823529
 20
48.9813944118
 11
-98.1558823529
 21
49.8813944118
  0
LINE
  5
479
100
AcDbEntity
  8
0
100
AcDbLine
 62
7
  6
CONTINUOUS
 10
-98.0901901591
 20
45.9713944118
 11
-98.0901901591
 21
46.7213944118
  0
LINE
  5
47A
100
AcDbEntity
  8
RACCORDO
100
AcDbLine
 62
253
  6
CONTINUOUS
 10
-97.8995961793
 20
23.3313944118
 11
-97.8995962044
 21
22.8401206151
  0
LINE
  5
47B
100
AcDbEntity
  8
RACCORDO
100
AcDbLine
 62
253
  6
CONTINUOUS
 10
-97.8592362869
 20
20.3313944118
 11
-97.8592362869
 21
20.5279039305
  0
LINE
  5
47C
100
AcDbEntity
  8
RACCORDO
100
AcDbLine
 62
7
  6
CONTINUOUS
 10
-97.3593124393
 20
20.5279039305
 11
-97.3996723317
 21
22.840120615
  0
LINE
  5
47D
100
AcDbEntity
  8
RACCORDO
100
AcDbLine
 62
253
  6
CONTINUOUS
 10
-96.8646860494
 20
18.440120615
 11
-96.8942682699
 21
20.134884893
  0
LINE
  5
47E
100
AcDbEntity
  8
RACCORDO
100
AcDbLine
 62
7
  6
CONTINUOUS
 10
-96.3647622018
 20
18.440120615
 11
-96.3943444224
 21
20.134884893
  0
LINE
  5
47F
100
AcDbEntity
  8
RACCORDO
100
AcDbLine
 62
253
  6
CONTINUOUS
 10
-96.8942682699
 20
20.3313944118
 11
-96.8942682999
 21
20.1348848934
  0
LINE
  5
480
100
AcDbEntity
  8
RACCORDO
100
AcDbLine
 62
253
  6
CONTINUOUS
 10
-96.8646860494
 20
17.9313944118
 11
-96.8646860494
 21
18.440120615
  0
LINE
  5
481
100
AcDbEntity
  8
RACCORDO
100
AcDbLine
 62
7
  6
CONTINUOUS
 10
-96.3647622085
 20
18.4226678274
 11
-96.3647622018
 21
18.4401206152
  0
LINE
  5
482
100
AcDbEntity
  8
0
100
AcDbLine
 62
7
  6
CONTINUOUS
 10
-96.2358823529
 20
45.1410956092
 11
-96.2358823529
 21
45.8913944118
  0
LINE
  5
483
100
AcDbEntity
  8
0
100
AcDbLine
 62
7
  6
CONTINUOUS
 10
-95.5558823529
 20
46.8313944118
 11
-95.5558823529
 21
46.7813944118
  0
LINE
  5
484
100
AcDbEntity
  8
0
100
AcDbLine
 62
7
  6
CONTINUOUS
 10
-95.5558823529
 20
45.0813944118
 11
-95.5558823529
 21
45.0313944118
  0
LINE
  5
485
100
AcDbEntity
  8
0
100
AcDbLine
 62
7
  6
CONTINUOUS
 10
-95.5352670987
 20
46.3799816379
 11
-95.5352670205
 21
45.4828072237
  0
LINE
  5
486
100
AcDbEntity
  8
0
100
AcDbLine
 62
7
  6
CONTINUOUS
 10
-93.1558823529
 20
42.8813944118
 11
-93.1558823529
 21
49.8813944118
  0
LINE
  5
487
100
AcDbEntity
  8
0
100
AcDbLine
 62
7
  6
CONTINUOUS
 10
-101.2352670205
 20
43.0313944118
 11
-101.7352670205
 21
43.5313944118
  0
LINE
  5
488
100
AcDbEntity
  8
ASSI
100
AcDbLine
 62
7
  6
CONTINUOUS
 10
-99.2064410663
 20
42.8313944118
 11
-100.1053236395
 21
42.8313944118
  0
LINE
  5
489
100
AcDbEntity
  8
0
100
AcDbLine
 62
7
  6
CONTINUOUS
 10
-99.6558823529
 20
42.8813944118
 11
-93.1558823529
 21
42.8813944118
  0
LINE
  5
48A
100
AcDbEntity
  8
0
100
AcDbLine
 62
7
  6
CONTINUOUS
 10
-99.6558823529
 20
43.0313944118
 11
-101.2352670205
 21
43.0313944118
  0
LINE
  5
48B
100
AcDbEntity
  8
0
100
AcDbLine
 62
7
  6
CONTINUOUS
 10
-100.1058823529
 20
3.8791855357
 11
-99.6374993572
 21
4.1108582418
  0
LINE
  5
48C
100
AcDbEntity
  8
0
100
AcDbLine
 62
7
  6
CONTINUOUS
 10
-101.7352670205
 20
43.5313944118
 11
-103.2852670205
 21
43.5313944118
  0
LINE
  5
48D
100
AcDbEntity
  8
0
100
AcDbLine
 62
7
  6
CONTINUOUS
 10
-101.1358823529
 20
44.4313944118
 11
-96.1558823529
 21
44.4313944118
  0
LINE
  5
48E
100
AcDbEntity
  8
0
100
AcDbLine
 62
7
  6
CONTINUOUS
 10
-102.7352670205
 20
44.4313944118
 11
-103.2852670205
 21
44.4313944118
  0
LINE
  5
48F
100
AcDbEntity
  8
0
100
AcDbLine
 62
7
  6
CONTINUOUS
 10
-95.5558823529
 20
45.0813944118
 11
-99.1358823529
 21
45.0813944118
  0
LINE
  5
490
100
AcDbEntity
  8
0
100
AcDbLine
 62
7
  6
CONTINUOUS
 10
-102.7352670205
 20
45.1413944118
 11
-101.1358823529
 21
45.1413944118
  0
LINE
  5
491
100
AcDbEntity
  8
0
100
AcDbLine
 62
7
  6
CONTINUOUS
 10
-99.1358823529
 20
45.1413944118
 11
-96.2355249545
 21
45.1413944118
  0
LINE
  5
492
100
AcDbEntity
  8
0
100
AcDbLine
 62
7
  6
CONTINUOUS
 10
-95.5352672317
 20
45.8913944118
 11
-96.2358821803
 21
45.8913944118
  0
LINE
  5
493
100
AcDbEntity
  8
0
100
AcDbLine
 62
7
  6
CONTINUOUS
 10
-98.0901901591
 20
45.9713944118
 11
-99.1358823529
 21
45.9713944118
  0
LINE
  5
494
100
AcDbEntity
  8
0
100
AcDbLine
 62
7
  6
CONTINUOUS
 10
-102.7352670205
 20
46.7213944118
 11
-101.1358823529
 21
46.7213944118
  0
LINE
  5
495
100
AcDbEntity
  8
0
100
AcDbLine
 62
7
  6
CONTINUOUS
 10
-96.2352670205
 20
46.7213944118
 11
-99.1358823529
 21
46.7213944118
  0
LINE
  5
496
100
AcDbEntity
  8
0
100
AcDbLine
 62
7
  6
CONTINUOUS
 10
-95.5558823529
 20
46.7813944118
 11
-99.1358823529
 21
46.7813944118
  0
LINE
  5
497
100
AcDbEntity
  8
0
100
AcDbLine
 62
7
  6
CONTINUOUS
 10
-96.2352670205
 20
46.7213944118
 11
-95.5352670987
 21
46.3799816379
  0
LINE
  5
498
100
AcDbEntity
  8
0
100
AcDbLine
 62
7
  6
CONTINUOUS
 10
-103.2852670205
 20
47.4313944118
 11
-102.7352670205
 21
47.4313944118
  0
LINE
  5
499
100
AcDbEntity
  8
0
100
AcDbLine
 62
7
  6
CONTINUOUS
 10
-101.1358823529
 20
47.4313944118
 11
-96.1558823529
 21
47.4313944118
  0
LINE
  5
49A
100
AcDbEntity
  8
0
100
AcDbLine
 62
7
  6
CONTINUOUS
 10
-103.2852670205
 20
48.3313944118
 11
-101.7352670205
 21
48.3313944118
  0
LINE
  5
49B
100
AcDbEntity
  8
0
100
AcDbLine
 62
7
  6
CONTINUOUS
 10
-99.6558823529
 20
48.8313944118
 11
-101.2352670205
 21
48.8313944118
  0
LINE
  5
49C
100
AcDbEntity
  8
0
100
AcDbLine
 62
7
  6
CONTINUOUS
 10
-99.6558823529
 20
48.9813944118
 11
-93.1558823529
 21
48.9813944118
  0
LINE
  5
49D
100
AcDbEntity
  8
0
100
AcDbLine
 62
7
  6
CONTINUOUS
 10
-98.1558823529
 20
49.8813944118
 11
-93.1558823529
 21
49.8813944118
  0
LINE
  5
49E
100
AcDbEntity
  8
0
100
AcDbLine
 62
7
  6
CONTINUOUS
 10
-101.1558823529
 20
-61.6331560484
 11
-106.1558823529
 21
-61.6331560484
  0
LINE
  5
49F
100
AcDbEntity
  8
0
100
AcDbLine
 62
7
  6
CONTINUOUS
 10
-99.6558823529
 20
-60.7331560484
 11
-106.1558823529
 21
-60.7331560484
  0
LINE
  5
4A0
100
AcDbEntity
  8
0
100
AcDbLine
 62
7
  6
CONTINUOUS
 10
-99.6558823529
 20
-60.5831560484
 11
-98.0764976854
 21
-60.5831560484
  0
LINE
  5
4A1
100
AcDbEntity
  8
0
100
AcDbLine
 62
7
  6
CONTINUOUS
 10
-96.0264976854
 20
-60.0831560484
 11
-97.5764976854
 21
-60.0831560484
  0
LINE
  5
4A2
100
AcDbEntity
  8
0
100
AcDbLine
 62
7
  6
CONTINUOUS
 10
-96.0264976854
 20
-59.1831560484
 11
-96.5764976854
 21
-59.1831560484
  0
LINE
  5
4A3
100
AcDbEntity
  8
0
100
AcDbLine
 62
7
  6
CONTINUOUS
 10
-98.1758823529
 20
-59.1831560484
 11
-103.1558823529
 21
-59.1831560484
  0
LINE
  5
4A4
100
AcDbEntity
  8
0
100
AcDbLine
 62
7
  6
CONTINUOUS
 10
-99.6374993572
 20
1.1106562418
 11
-100.1058823529
 21
0.8789835357
  0
LINE
  5
4A5
100
AcDbEntity
  8
0
100
AcDbLine
 62
7
  6
CONTINUOUS
 10
-103.7558823529
 20
-58.5331560484
 11
-100.1758823529
 21
-58.5331560484
  0
LINE
  5
4A6
100
AcDbEntity
  8
0
100
AcDbLine
 62
7
  6
CONTINUOUS
 10
-96.5764976854
 20
-58.4731560484
 11
-98.1758823529
 21
-58.4731560484
  0
LINE
  5
4A7
100
AcDbEntity
  8
0
100
AcDbLine
 62
7
  6
CONTINUOUS
 10
-100.1758823529
 20
-58.4731560484
 11
-103.0764976854
 21
-58.4731560484
  0
LINE
  5
4A8
100
AcDbEntity
  8
0
100
AcDbLine
 62
7
  6
CONTINUOUS
 10
-100.1758823529
 20
-57.7231560484
 11
-101.2215745467
 21
-57.7231560484
  0
LINE
  5
4A9
100
AcDbEntity
  8
0
100
AcDbLine
 62
7
  6
CONTINUOUS
 10
-103.7764974742
 20
-57.6431560484
 11
-103.0758825256
 21
-57.6431560484
  0
LINE
  5
4AA
100
AcDbEntity
  8
0
100
AcDbLine
 62
7
  6
CONTINUOUS
 10
-96.5764976854
 20
-56.8931560484
 11
-98.1758823529
 21
-56.8931560484
  0
LINE
  5
4AB
100
AcDbEntity
  8
0
100
AcDbLine
 62
7
  6
CONTINUOUS
 10
-100.1758823529
 20
-56.8931560484
 11
-103.0762397514
 21
-56.8931560484
  0
LINE
  5
4AC
100
AcDbEntity
  8
0
100
AcDbLine
 62
7
  6
CONTINUOUS
 10
-103.7558823529
 20
-56.8331560484
 11
-100.1758823529
 21
-56.8331560484
  0
LINE
  5
4AD
100
AcDbEntity
  8
0
100
AcDbLine
 62
7
  6
CONTINUOUS
 10
-103.0764976854
 20
-58.4731560484
 11
-103.7764976072
 21
-58.1317432746
  0
LINE
  5
4AE
100
AcDbEntity
  8
0
100
AcDbLine
 62
7
  6
CONTINUOUS
 10
-96.5764976854
 20
-56.1831560484
 11
-96.0264976854
 21
-56.1831560484
  0
LINE
  5
4AF
100
AcDbEntity
  8
0
100
AcDbLine
 62
7
  6
CONTINUOUS
 10
-98.1758823529
 20
-56.1831560484
 11
-103.1558823529
 21
-56.1831560484
  0
LINE
  5
4B0
100
AcDbEntity
  8
0
100
AcDbLine
 62
7
  6
CONTINUOUS
 10
-97.5764976854
 20
-55.2831560484
 11
-96.0264976854
 21
-55.2831560484
  0
LINE
  5
4B1
100
AcDbEntity
  8
0
100
AcDbLine
 62
7
  6
CONTINUOUS
 10
-99.6558823529
 20
-54.7831560484
 11
-98.0764976854
 21
-54.7831560484
  0
LINE
  5
4B2
100
AcDbEntity
  8
0
100
AcDbLine
 62
7
  6
CONTINUOUS
 10
-99.6558823529
 20
-54.6331560484
 11
-106.1558823529
 21
-54.6331560484
  0
LINE
  5
4B3
100
AcDbEntity
  8
ASSI
100
AcDbLine
 62
7
  6
CONTINUOUS
 10
-99.2064410663
 20
-54.5831560484
 11
-100.1053236395
 21
-54.5831560484
  0
LINE
  5
4B4
100
AcDbEntity
  8
0
100
AcDbLine
 62
7
  6
CONTINUOUS
 10
-98.0764976854
 20
-54.7831560484
 11
-97.5764976854
 21
-55.2831560484
  0
LINE
  5
4B5
100
AcDbEntity
  8
0
100
AcDbLine
 62
7
  6
CONTINUOUS
 10
-106.1558823529
 20
-54.6331560484
 11
-106.1558823529
 21
-61.6331560484
  0
LWPOLYLINE
  5
4B6
100
AcDbEntity
  8
RACCORDO
100
AcDbPolyline
 62
253
  6
CONTINUOUS
 90
7
 70
0
 10
-89.7996723317
 20
-34.5918822516
 10
-89.8039674635
 20
-34.5929460582
 10
-89.8167396544
 20
-34.5938424199
 10
-89.8377704548
 20
-34.5945560058
 10
-89.8667001632
 20
-34.5950746107
 10
-89.9030339766
 20
-34.5953893648
 10
-89.9461504526
 20
-34.5954948844
  0
LINE
  5
4B7
100
AcDbEntity
  8
RACCORDO
100
AcDbLine
 62
253
  6
CONTINUOUS
 10
-101.4121685266
 20
-34.5918822516
 11
-101.5415338151
 21
-34.5938424199
  0
LINE
  5
4B8
100
AcDbEntity
  8
RACCORDO
100
AcDbLine
 62
253
  6
CONTINUOUS
 10
-101.5415338151
 20
-34.5938424199
 11
-101.6620864874
 21
-34.5950746107
  0
LWPOLYLINE
  5
4B9
100
AcDbEntity
  8
RACCORDO
100
AcDbPolyline
 62
253
  6
CONTINUOUS
 90
8
 70
0
 10
-101.6620864874
 20
-34.5950746107
 10
-101.7656142388
 20
-34.5954948844
 10
-101.8087307158
 20
-34.5953893648
 10
-101.8450645305
 20
-34.5950746109
 10
-101.873994242
 20
-34.594556006
 10
-101.8950250466
 20
-34.5938424202
 10
-101.907797241
 20
-34.5929460584
 10
-101.9120923742
 20
-34.5918822516
  0
LINE
  5
4BA
100
AcDbEntity
  8
RACCORDO
100
AcDbLine
 62
7
  6
CONTINUOUS
 10
-90.2995961793
 20
-35.0831560484
 11
-101.4121685266
 21
-35.0831560484
  0
LINE
  5
4BB
100
AcDbEntity
  8
RACCORDO
100
AcDbLine
 62
253
  6
CONTINUOUS
 10
-90.2995961793
 20
-34.5918822516
 11
-101.4121685266
 21
-34.5918822516
  0
LINE
  5
4BC
100
AcDbEntity
  8
RACCORDO
100
AcDbLine
 62
253
  6
CONTINUOUS
 10
-89.9461504526
 20
-34.5954948844
 11
-90.0496781974
 21
-34.5950746109
  0
LINE
  5
4BD
100
AcDbEntity
  8
RACCORDO
100
AcDbLine
 62
253
  6
CONTINUOUS
 10
-90.0496781974
 20
-34.5950746109
 11
-90.1702308726
 21
-34.5938424202
  0
LINE
  5
4BE
100
AcDbEntity
  8
RACCORDO
100
AcDbLine
 62
253
  6
CONTINUOUS
 10
-90.1702308726
 20
-34.5938424202
 11
-90.2995961793
 21
-34.5918822516
  0
LINE
  5
4BF
100
AcDbEntity
  8
RACCORDO
100
AcDbLine
 62
7
  6
CONTINUOUS
 10
-102.947002504
 20
-30.1918822516
 11
-102.9174202835
 21
-31.8866465297
  0
LINE
  5
4C0
100
AcDbEntity
  8
RACCORDO
100
AcDbLine
 62
253
  6
CONTINUOUS
 10
-102.4470786564
 20
-30.1918822516
 11
-102.4174964359
 21
-31.8866465297
  0
LINE
  5
4C1
100
AcDbEntity
  8
RACCORDO
100
AcDbLine
 62
7
  6
CONTINUOUS
 10
-101.9524522665
 20
-32.2796655671
 11
-101.9120923742
 21
-34.5918822516
  0
LINE
  5
4C2
100
AcDbEntity
  8
0
100
AcDbLine
 62
7
  6
CONTINUOUS
 10
-103.7764976072
 20
-58.1317432746
 11
-103.7764976854
 21
-57.2345688604
  0
LINE
  5
4C3
100
AcDbEntity
  8
0
100
AcDbLine
 62
7
  6
CONTINUOUS
 10
-103.7558823529
 20
-58.5831560484
 11
-103.7558823529
 21
-58.5331560484
  0
LINE
  5
4C4
100
AcDbEntity
  8
0
100
AcDbLine
 62
7
  6
CONTINUOUS
 10
-103.7558823529
 20
-56.8331560484
 11
-103.7558823529
 21
-56.7831560484
  0
LINE
  5
4C5
100
AcDbEntity
  8
0
100
AcDbLine
 62
7
  6
CONTINUOUS
 10
-103.0758823529
 20
-56.8928572459
 11
-103.0758823529
 21
-57.6431560484
  0
LINE
  5
4C6
100
AcDbEntity
  8
RACCORDO
100
AcDbLine
 62
7
  6
CONTINUOUS
 10
-102.9470024974
 20
-30.1744294641
 11
-102.947002504
 21
-30.1918822519
  0
LINE
  5
4C7
100
AcDbEntity
  8
RACCORDO
100
AcDbLine
 62
253
  6
CONTINUOUS
 10
-102.4470786564
 20
-29.6831560484
 11
-102.4470786564
 21
-30.1918822516
  0
LINE
  5
4C8
100
AcDbEntity
  8
RACCORDO
100
AcDbLine
 62
253
  6
CONTINUOUS
 10
-102.4174964359
 20
-32.0831560484
 11
-102.417496406
 21
-31.8866465301
  0
LWPOLYLINE
  5
4C9
100
AcDbEntity
  8
RACCORDO
100
AcDbPolyline
 62
253
  6
CONTINUOUS
 90
5
 70
0
 10
-88.7943444224
 20
-31.8866465297
 10
-88.7970912912
 20
-31.8869852814
 10
-88.8052873682
 20
-31.8872905558
 10
-88.8188396755
 20
-31.8875540979
 10
-88.837593694
 20
-31.8877662512
  0
LWPOLYLINE
  5
4CA
100
AcDbEntity
  8
RACCORDO
100
AcDbPolyline
 62
253
  6
CONTINUOUS
 90
4
 70
0
 10
-101.928064049
 20
-32.278759201
 10
-101.9415759144
 20
-32.2790043604
 10
-101.9497311548
 20
-32.2793036422
 10
-101.9524522665
 20
-32.2796655671
  0
LINE
  5
4CB
100
AcDbEntity
  8
RACCORDO
100
AcDbLine
 62
253
  6
CONTINUOUS
 10
-101.8855545131
 20
-32.2783908723
 11
-101.928064049
 21
-32.278759201
  0
LINE
  5
4CC
100
AcDbEntity
  8
RACCORDO
100
AcDbLine
 62
253
  6
CONTINUOUS
 10
-90.0093306296
 20
-32.2783908723
 11
-90.2592362869
 21
-32.2796655671
  0
LINE
  5
4CD
100
AcDbEntity
  8
RACCORDO
100
AcDbLine
 62
253
  6
CONTINUOUS
 10
-90.2592362869
 20
-32.2796655671
 11
-101.4525284189
 21
-32.2796655671
  0
LINE
  5
4CE
100
AcDbEntity
  8
RACCORDO
100
AcDbLine
 62
253
  6
CONTINUOUS
 10
-101.7871433968
 20
-32.278231059
 11
-101.8855545131
 21
-32.2783908723
  0
LINE
  5
4CF
100
AcDbEntity
  8
RACCORDO
100
AcDbLine
 62
253
  6
CONTINUOUS
 10
-89.8548194757
 20
-32.2782817195
 11
-90.0093306296
 21
-32.2783908723
  0
LINE
  5
4D0
100
AcDbEntity
  8
RACCORDO
100
AcDbLine
 62
253
  6
CONTINUOUS
 10
-101.5565261941
 20
-32.2790037983
 11
-101.7871433968
 21
-32.278231059
  0
LINE
  5
4D1
100
AcDbEntity
  8
RACCORDO
100
AcDbLine
 62
253
  6
CONTINUOUS
 10
-101.4525284189
 20
-32.2796655671
 11
-101.5565261941
 21
-32.2790037983
  0
LINE
  5
4D2
100
AcDbEntity
  8
RACCORDO
100
AcDbLine
 62
253
  6
CONTINUOUS
 10
-101.4525284189
 20
-32.2796655671
 11
-101.4121685266
 21
-34.5918822516
  0
LINE
  5
4D3
100
AcDbEntity
  8
RACCORDO
100
AcDbLine
 62
253
  6
CONTINUOUS
 10
-101.4525284189
 20
-32.0831560484
 11
-101.4525284189
 21
-32.2796655671
  0
LINE
  5
4D4
100
AcDbEntity
  8
RACCORDO
100
AcDbLine
 62
253
  6
CONTINUOUS
 10
-101.4121685266
 20
-35.0831560484
 11
-101.4121685014
 21
-34.5918822518
  0
LINE
  5
4D5
100
AcDbEntity
  8
0
100
AcDbLine
 62
7
  6
CONTINUOUS
 10
-101.2215745467
 20
-57.7231560484
 11
-101.2215745467
 21
-58.4731560484
  0
LINE
  5
4D6
100
AcDbEntity
  8
0
100
AcDbLine
 62
7
  6
CONTINUOUS
 10
-101.1558823529
 20
-60.7331560484
 11
-101.1558823529
 21
-61.6331560484
  0
LINE
  5
4D7
100
AcDbEntity
  8
0
100
AcDbLine
 62
7
  6
CONTINUOUS
 10
-100.3258823529
 20
-58.4731560484
 11
-100.3258823529
 21
-57.7231560484
  0
LINE
  5
4D8
100
AcDbEntity
  8
0
100
AcDbLine
 62
7
  6
CONTINUOUS
 10
-100.1758823529
 20
-56.8331560484
 11
-100.1758823529
 21
-58.5331560484
  0
LINE
  5
4D9
100
AcDbEntity
  8
ASSI
100
AcDbLine
 62
7
  6
CONTINUOUS
 10
-100.1058823529
 20
0.8789835357
 11
-100.1058823529
 21
-29.6831560484
  0
LINE
  5
4DA
100
AcDbEntity
  8
ASSI
100
AcDbLine
 62
7
  6
CONTINUOUS
 10
-100.1058823529
 20
-35.0831560484
 11
-100.1058823529
 21
-54.5831560484
  0
LINE
  5
4DB
100
AcDbEntity
  8
0
100
AcDbLine
 62
7
  6
CONTINUOUS
 10
-99.6558823529
 20
-54.6331560484
 11
-99.6558823529
 21
-56.1831560484
  0
LINE
  5
4DC
100
AcDbEntity
  8
0
100
AcDbLine
 62
7
  6
CONTINUOUS
 10
-99.6558823529
 20
-59.1831560484
 11
-99.6558823529
 21
-60.7331560484
  0
LWPOLYLINE
  5
4DD
100
AcDbEntity
  8
RACCORDO
100
AcDbPolyline
 62
253
  6
CONTINUOUS
 90
5
 70
0
 10
-88.8317900333
 20
-30.1950746107
 10
-88.802860325
 20
-30.1945560058
 10
-88.7818295246
 20
-30.1938424199
 10
-88.7690573336
 20
-30.1929460582
 10
-88.7647622018
 20
-30.1918822516
  0
LINE
  5
4DE
100
AcDbEntity
  8
RACCORDO
100
AcDbLine
 62
253
  6
CONTINUOUS
 10
-102.5764439449
 20
-30.1938424199
 11
-102.4470786564
 21
-30.1918822516
  0
LINE
  5
4DF
100
AcDbEntity
  8
RACCORDO
100
AcDbLine
 62
253
  6
CONTINUOUS
 10
-102.6969966172
 20
-30.1950746107
 11
-102.5764439449
 21
-30.1938424199
  0
LINE
  5
4E0
100
AcDbEntity
  8
RACCORDO
100
AcDbLine
 62
253
  6
CONTINUOUS
 10
-88.837593694
 20
-31.8877662512
 11
-88.889836917
 21
-31.8880309816
  0
LINE
  5
4E1
100
AcDbEntity
  8
RACCORDO
100
AcDbLine
 62
253
  6
CONTINUOUS
 10
-102.4174964359
 20
-31.8866465297
 11
-102.7113286485
 21
-31.8880309816
  0
LWPOLYLINE
  5
4E2
100
AcDbEntity
  8
RACCORDO
100
AcDbPolyline
 62
253
  6
CONTINUOUS
 90
3
 70
0
 10
-88.9112403228
 20
-30.1954948844
 10
-88.8681238468
 20
-30.1953893648
 10
-88.8317900333
 20
-30.1950746107
  0
LINE
  5
4E3
100
AcDbEntity
  8
RACCORDO
100
AcDbLine
 62
7
  6
CONTINUOUS
 10
-88.9943139614
 20
-32.0831560484
 11
-102.7174507445
 21
-32.0831560484
  0
LINE
  5
4E4
100
AcDbEntity
  8
RACCORDO
100
AcDbLine
 62
253
  6
CONTINUOUS
 10
-89.2942682699
 20
-31.8866465297
 11
-102.4174964359
 21
-31.8866465297
  0
LINE
  5
4E5
100
AcDbEntity
  8
RACCORDO
100
AcDbLine
 62
253
  6
CONTINUOUS
 10
-102.4470786564
 20
-30.1918822516
 11
-89.2646860494
 21
-30.1918822516
  0
LINE
  5
4E6
100
AcDbEntity
  8
RACCORDO
100
AcDbLine
 62
253
  6
CONTINUOUS
 10
-102.7113286485
 20
-31.8880309816
 11
-102.8219586325
 21
-31.8880316655
  0
LINE
  5
4E7
100
AcDbEntity
  8
RACCORDO
100
AcDbLine
 62
253
  6
CONTINUOUS
 10
-88.889836917
 20
-31.8880309816
 11
-89.0443634383
 21
-31.8879246356
  0
LINE
  5
4E8
100
AcDbEntity
  8
RACCORDO
100
AcDbLine
 62
253
  6
CONTINUOUS
 10
-89.0147680675
 20
-30.1950746109
 11
-88.9112403228
 21
-30.1954948844
  0
LINE
  5
4E9
100
AcDbEntity
  8
RACCORDO
100
AcDbLine
 62
253
  6
CONTINUOUS
 10
-89.0443634383
 20
-31.8879246356
 11
-89.2942682699
 21
-31.8866465297
  0
LWPOLYLINE
  5
4EA
100
AcDbEntity
  8
RACCORDO
100
AcDbPolyline
 62
253
  6
CONTINUOUS
 90
6
 70
0
 10
-102.8219586325
 20
-31.8880316655
 10
-102.8742006412
 20
-31.8877665124
 10
-102.8929478001
 20
-31.8875540146
 10
-102.9064897463
 20
-31.8872903152
 10
-102.914677088
 20
-31.8869850501
 10
-102.9174202835
 20
-31.8866465297
  0
LWPOLYLINE
  5
4EB
100
AcDbEntity
  8
RACCORDO
100
AcDbPolyline
 62
253
  6
CONTINUOUS
 90
4
 70
0
 10
-102.8799746604
 20
-30.1950746109
 10
-102.8436408457
 20
-30.1953893648
 10
-102.8005243686
 20
-30.1954948844
 10
-102.6969966172
 20
-30.1950746107
  0
LINE
  5
4EC
100
AcDbEntity
  8
RACCORDO
100
AcDbLine
 62
253
  6
CONTINUOUS
 10
-89.1353207428
 20
-30.1938424202
 11
-89.0147680675
 21
-30.1950746109
  0
LINE
  5
4ED
100
AcDbEntity
  8
RACCORDO
100
AcDbLine
 62
253
  6
CONTINUOUS
 10
-89.2646860494
 20
-30.1918822516
 11
-89.1353207428
 21
-30.1938424202
  0
LWPOLYLINE
  5
4EE
100
AcDbEntity
  8
RACCORDO
100
AcDbPolyline
 62
253
  6
CONTINUOUS
 90
6
 70
0
 10
-89.7593124393
 20
-32.2796655671
 10
-89.7620465967
 20
-32.2793034906
 10
-89.7702325525
 20
-32.2790037983
 10
-89.7837800771
 20
-32.2787581772
 10
-89.8025413872
 20
-32.2785535926
 10
-89.8548194757
 20
-32.2782817195
  0
LWPOLYLINE
  5
4EF
100
AcDbEntity
  8
RACCORDO
100
AcDbPolyline
 62
253
  6
CONTINUOUS
 90
5
 70
0
 10
-102.947002504
 20
-30.1918822516
 10
-102.9427073708
 20
-30.1929460584
 10
-102.9299351764
 20
-30.1938424202
 10
-102.9089043718
 20
-30.194556006
 10
-102.8799746604
 20
-30.1950746109
  0
LINE
  5
4F0
100
AcDbEntity
  8
ASSI
100
AcDbLine
 62
7
  6
CONTINUOUS
 10
-99.2058823529
 20
1.0685694581
 11
-99.2058823529
 21
-29.6831560484
  0
LINE
  5
4F1
100
AcDbEntity
  8
ASSI
100
AcDbLine
 62
7
  6
CONTINUOUS
 10
-99.2058823529
 20
-35.0831560484
 11
-99.2058823529
 21
-54.5831560484
  0
LINE
  5
4F2
100
AcDbEntity
  8
0
100
AcDbLine
 62
7
  6
CONTINUOUS
 10
-98.1758823529
 20
-59.1831560484
 11
-98.1758823529
 21
-56.1831560484
  0
LINE
  5
4F3
100
AcDbEntity
  8
RACCORDO
100
AcDbLine
 62
7
  6
CONTINUOUS
 10
-102.4470786564
 20
-29.6831560484
 11
-89.2646860494
 21
-29.6831560484
  0
LINE
  5
4F4
100
AcDbEntity
  8
0
100
AcDbLine
 62
7
  6
CONTINUOUS
 10
-96.5764976854
 20
-59.1831560484
 11
-96.5764976854
 21
-58.4731560484
  0
LINE
  5
4F5
100
AcDbEntity
  8
0
100
AcDbLine
 62
7
  6
CONTINUOUS
 10
-96.5764976854
 20
-56.8931146536
 11
-96.5764976854
 21
-56.1831560484
  0
LINE
  5
4F6
100
AcDbEntity
  8
0
100
AcDbLine
 62
7
  6
CONTINUOUS
 10
-96.0264976854
 20
-55.2831560484
 11
-96.0264976854
 21
-60.0831560484
  0
LINE
  5
4F7
100
AcDbEntity
  8
RACCORDO
100
AcDbLine
 62
253
  6
CONTINUOUS
 10
-90.2995961793
 20
-35.0831560484
 11
-90.2995961793
 21
-34.5918822516
  0
LINE
  5
4F8
100
AcDbEntity
  8
RACCORDO
100
AcDbLine
 62
253
  6
CONTINUOUS
 10
-90.2592362869
 20
-32.0831560484
 11
-90.2592362869
 21
-32.2796655671
  0
LINE
  5
4F9
100
AcDbEntity
  8
RACCORDO
100
AcDbLine
 62
253
  6
CONTINUOUS
 10
-89.2942682699
 20
-32.0831560484
 11
-89.2942682699
 21
-31.8866465297
  0
LINE
  5
4FA
100
AcDbEntity
  8
RACCORDO
100
AcDbLine
 62
253
  6
CONTINUOUS
 10
-89.2646860494
 20
-29.6831560484
 11
-89.2646860428
 21
-30.1918822519
  0
LINE
  5
4FB
100
AcDbEntity
  8
RACCORDO
100
AcDbLine
 62
7
  6
CONTINUOUS
 10
-88.7647621767
 20
-30.1744312865
 11
-88.7647622018
 21
-30.1918822516
  0
LINE
  5
4FC
100
AcDbEntity
  8
RACCORDO
100
AcDbLine
 62
253
  6
CONTINUOUS
 10
-90.2592362869
 20
-32.2796655671
 11
-90.2995961793
 21
-34.5918822516
  0
LINE
  5
4FD
100
AcDbEntity
  8
RACCORDO
100
AcDbLine
 62
7
  6
CONTINUOUS
 10
-89.7593124393
 20
-32.2796655671
 11
-89.7996723317
 21
-34.5918822516
  0
LINE
  5
4FE
100
AcDbEntity
  8
RACCORDO
100
AcDbLine
 62
253
  6
CONTINUOUS
 10
-89.2646860494
 20
-30.1918822516
 11
-89.2942682699
 21
-31.8866465297
  0
LINE
  5
4FF
100
AcDbEntity
  8
RACCORDO
100
AcDbLine
 62
7
  6
CONTINUOUS
 10
-88.7647622018
 20
-30.1918822516
 11
-88.7943444224
 21
-31.8866465297
  0
LINE
  5
500
100
AcDbEntity
  8
0
100
AcDbLine
 62
7
  6
CONTINUOUS
 10
-97.5764976854
 20
-60.0831560484
 11
-98.0764976854
 21
-60.5831560484
  0
LINE
  5
501
100
AcDbEntity
  8
0
100
AcDbLine
 62
7
  6
CONTINUOUS
 10
-103.0758835149
 20
-56.8928564975
 11
-103.7764976607
 21
-57.2345688484
  0
LINE
  5
502
100
AcDbEntity
  8
0
100
AcDbLine
 62
7
  6
CONTINUOUS
 10
-99.2058823529
 20
1.0685694581
 11
-99.6374993572
 21
1.1106562418
  0
ARC
  5
503
100
AcDbEntity
  8
RACCORDO
100
AcDbCircle
 62
7
  6
CONTINUOUS
 10
11.6861670693
 20
18.4313944118
 40
0.5
100
AcDbArc
 50
270.0000000029
 51
358.9999563168
  0
ARC
  5
504
100
AcDbEntity
  8
RACCORDO
100
AcDbCircle
 62
7
  6
CONTINUOUS
 10
-7.2962255378
 20
18.4313944118
 40
0.5
100
AcDbArc
 50
180.9998348179
 51
269.9999999971
  0
ARC
  5
505
100
AcDbEntity
  8
RACCORDO
100
AcDbCircle
 62
7
  6
CONTINUOUS
 10
-6.2613154079
 20
22.8313944118
 40
0.5
100
AcDbArc
 50
90.0
 51
179.0
  0
ARC
  5
506
100
AcDbEntity
  8
RACCORDO
100
AcDbCircle
 62
7
  6
CONTINUOUS
 10
10.6512569394
 20
22.8313944118
 40
0.5
100
AcDbArc
 50
1.0
 51
90.0
  0
ARC
  5
507
100
AcDbEntity
  8
RACCORDO
100
AcDbCircle
 62
7
  6
CONTINUOUS
 10
-7.5665976258
 20
20.1313944118
 40
0.2
100
AcDbArc
 50
90.0
 51
179.0
  0
ARC
  5
508
100
AcDbEntity
  8
RACCORDO
100
AcDbCircle
 62
7
  6
CONTINUOUS
 10
11.9565391573
 20
20.1313944118
 40
0.2
100
AcDbArc
 50
1.0
 51
90.0
  0
ARC
  5
509
100
AcDbEntity
  8
RACCORDO
100
AcDbCircle
 62
7
  6
CONTINUOUS
 10
-7.0015222666
 20
20.5313944118
 40
0.1999867391
100
AcDbArc
 50
269.9867015777
 51
358.9997678567
  0
ARC
  5
50A
100
AcDbEntity
  8
RACCORDO
100
AcDbCircle
 62
7
  6
CONTINUOUS
 10
11.3914637981
 20
20.5313944118
 40
0.1999867391
100
AcDbArc
 50
181.0002321433
 51
270.0132984223
  0
ARC
  5
50B
100
AcDbEntity
  8
RACCORDO
100
AcDbCircle
 62
7
  6
CONTINUOUS
 10
11.6861670693
 20
-30.1831560484
 40
0.5
100
AcDbArc
 50
0.9998348179
 51
89.9999999971
  0
ARC
  5
50C
100
AcDbEntity
  8
RACCORDO
100
AcDbCircle
 62
7
  6
CONTINUOUS
 10
-7.2962255378
 20
-30.1831560484
 40
0.5
100
AcDbArc
 50
90.0000000029
 51
178.9999563168
  0
ARC
  5
50D
100
AcDbEntity
  8
RACCORDO
100
AcDbCircle
 62
7
  6
CONTINUOUS
 10
-6.2613154079
 20
-34.5831560484
 40
0.5
100
AcDbArc
 50
181.0
 51
270.0
  0
ARC
  5
50E
100
AcDbEntity
  8
RACCORDO
100
AcDbCircle
 62
7
  6
CONTINUOUS
 10
10.6512569394
 20
-34.5831560484
 40
0.5
100
AcDbArc
 50
270.0
 51
358.9999999823
  0
ARC
  5
50F
100
AcDbEntity
  8
RACCORDO
100
AcDbCircle
 62
7
  6
CONTINUOUS
 10
-7.5665976258
 20
-31.8831560484
 40
0.2
100
AcDbArc
 50
181.0
 51
270.0
  0
ARC
  5
510
100
AcDbEntity
  8
RACCORDO
100
AcDbCircle
 62
7
  6
CONTINUOUS
 10
11.9565391573
 20
-31.8831560484
 40
0.2
100
AcDbArc
 50
270.0
 51
359.0
  0
ARC
  5
511
100
AcDbEntity
  8
RACCORDO
100
AcDbCircle
 62
7
  6
CONTINUOUS
 10
-7.0015222666
 20
-32.2831560484
 40
0.1999867391
100
AcDbArc
 50
1.0002321433
 51
90.0132984223
  0
ARC
  5
512
100
AcDbEntity
  8
RACCORDO
100
AcDbCircle
 62
7
  6
CONTINUOUS
 10
11.3914637981
 20
-32.2831560484
 40
0.1999867391
100
AcDbArc
 50
89.9867015777
 51
178.9997678567
  0
ARC
  5
513
100
AcDbEntity
  8
0
100
AcDbCircle
 62
7
  6
CONTINUOUS
 10
-96.1558823529
 20
45.0313944118
 40
0.6
100
AcDbArc
 50
270.0
 51
360.0
  0
ARC
  5
514
100
AcDbEntity
  8
0
100
AcDbCircle
 62
7
  6
CONTINUOUS
 10
-96.1558823529
 20
46.8313944118
 40
0.6
100
AcDbArc
 50
0.0
 51
90.0
  0
ARC
  5
515
100
AcDbEntity
  8
RACCORDO
100
AcDbCircle
 62
7
  6
CONTINUOUS
 10
-96.8646860494
 20
18.4313944118
 40
0.5
100
AcDbArc
 50
270.0000000029
 51
358.9999563168
  0
ARC
  5
516
100
AcDbEntity
  8
RACCORDO
100
AcDbCircle
 62
7
  6
CONTINUOUS
 10
-110.0470786564
 20
18.4313944118
 40
0.5
100
AcDbArc
 50
181.0000436832
 51
269.9999999971
  0
ARC
  5
517
100
AcDbEntity
  8
RACCORDO
100
AcDbCircle
 62
7
  6
CONTINUOUS
 10
-97.8995961793
 20
22.8313944118
 40
0.5
100
AcDbArc
 50
1.0
 51
90.0
  0
ARC
  5
518
100
AcDbEntity
  8
RACCORDO
100
AcDbCircle
 62
7
  6
CONTINUOUS
 10
-109.0121685266
 20
22.8313944118
 40
0.5
100
AcDbArc
 50
90.0
 51
178.9999999823
  0
ARC
  5
519
100
AcDbEntity
  8
RACCORDO
100
AcDbCircle
 62
7
  6
CONTINUOUS
 10
-96.5943139614
 20
20.1313944118
 40
0.2
100
AcDbArc
 50
1.0
 51
90.0
  0
ARC
  5
51A
100
AcDbEntity
  8
RACCORDO
100
AcDbCircle
 62
7
  6
CONTINUOUS
 10
-110.3174129928
 20
20.1313944118
 40
0.2
100
AcDbArc
 50
90.0108150696
 51
179.0001886065
  0
ARC
  5
51B
100
AcDbEntity
  8
RACCORDO
100
AcDbCircle
 62
7
  6
CONTINUOUS
 10
-97.1593893206
 20
20.5313944118
 40
0.1999867391
100
AcDbArc
 50
181.0002321433
 51
270.0132984223
  0
ARC
  5
51C
100
AcDbEntity
  8
RACCORDO
100
AcDbCircle
 62
7
  6
CONTINUOUS
 10
-109.7523753853
 20
20.5313944118
 40
0.1999867391
100
AcDbArc
 50
269.9867015777
 51
358.9997678567
  0
ARC
  5
51D
100
AcDbEntity
  8
0
100
AcDbCircle
 62
7
  6
CONTINUOUS
 10
-103.1558823529
 20
-56.7831560484
 40
0.6
100
AcDbArc
 50
90.0
 51
180.0
  0
ARC
  5
51E
100
AcDbEntity
  8
0
100
AcDbCircle
 62
7
  6
CONTINUOUS
 10
-103.1558823529
 20
-58.5831560484
 40
0.6
100
AcDbArc
 50
180.0
 51
270.0
  0
ARC
  5
51F
100
AcDbEntity
  8
RACCORDO
100
AcDbCircle
 62
7
  6
CONTINUOUS
 10
-102.4470786564
 20
-30.1831560484
 40
0.5
100
AcDbArc
 50
90.0000000029
 51
178.9999563168
  0
ARC
  5
520
100
AcDbEntity
  8
RACCORDO
100
AcDbCircle
 62
7
  6
CONTINUOUS
 10
-89.2646860494
 20
-30.1831560484
 40
0.5
100
AcDbArc
 50
1.0000436832
 51
89.9999999971
  0
ARC
  5
521
100
AcDbEntity
  8
RACCORDO
100
AcDbCircle
 62
7
  6
CONTINUOUS
 10
-101.4121685266
 20
-34.5831560484
 40
0.5
100
AcDbArc
 50
181.0
 51
270.0
  0
ARC
  5
522
100
AcDbEntity
  8
RACCORDO
100
AcDbCircle
 62
7
  6
CONTINUOUS
 10
-90.2995961793
 20
-34.5831560484
 40
0.5
100
AcDbArc
 50
270.0
 51
358.9999999823
  0
ARC
  5
523
100
AcDbEntity
  8
RACCORDO
100
AcDbCircle
 62
7
  6
CONTINUOUS
 10
-102.7174507445
 20
-31.8831560484
 40
0.2
100
AcDbArc
 50
181.0
 51
270.0
  0
ARC
  5
524
100
AcDbEntity
  8
RACCORDO
100
AcDbCircle
 62
7
  6
CONTINUOUS
 10
-88.9943517131
 20
-31.8831560484
 40
0.2
100
AcDbArc
 50
270.0108150696
 51
359.0001886065
  0
ARC
  5
525
100
AcDbEntity
  8
RACCORDO
100
AcDbCircle
 62
7
  6
CONTINUOUS
 10
-102.1523753853
 20
-32.2831560484
 40
0.1999867391
100
AcDbArc
 50
1.0002321433
 51
90.0132984223
  0
ARC
  5
526
100
AcDbEntity
  8
RACCORDO
100
AcDbCircle
 62
7
  6
CONTINUOUS
 10
-89.5593893206
 20
-32.2831560484
 40
0.1999867391
100
AcDbArc
 50
89.9867015777
 51
178.9997678567
  0
ENDSEC
  0
SECTION
  2
OBJECTS
  0
DICTIONARY
  5
C
100
AcDbDictionary
280
0
281
1
  3
ACAD_GROUP
350
D
  3
ACAD_MLINESTYLE
350
17
  3
ACAD_LAYOUT
350
1A
  3
ACAD_PLOTSETTINGS
350
19
  3
ACAD_PLOTSTYLENAME
350
E
  0
DICTIONARY
  5
D
102
{ACAD_REACTORS
330
C
102
}
100
AcDbDictionary
280
0
281
1
  0
ACDBDICTIONARYWDFLT
  5
E
102
{ACAD_REACTORS
330
C
102
}
100
AcDbDictionary
281
1
  3
Normal
350
F
100
AcDbDictionaryWithDefault
340
F
  0
DICTIONARY
  5
17
102
{ACAD_REACTORS
330
C
102
}
100
AcDbDictionary
280
0
281
1
  3
Standard
350
18
  0
DICTIONARY
  5
19
102
{ACAD_REACTORS
330
C
102
}
100
AcDbDictionary
281
1
  0
DICTIONARY
  5
1A
102
{ACAD_REACTORS
330
C
102
}
100
AcDbDictionary
281
1
  3
Model
350
527
  3
Layout1
350
528
  0
ACDBPLACEHOLDER
  5
F
102
{ACAD_REACTORS
330
E
102
}
  0
MLINESTYLE
  5
18
102
{ACAD_REACTORS
330
17
102
}
100
AcDbMlineStyle
  2
STANDARD
 70
0
  3

 62
256
 51
90.0
 52
90.0
 71
2
 49
0.5
 62
256
  6
BYLAYER
 49
-0.5
 62
256
  6
BYLAYER
  0
LAYOUT
  5
527
102
{ACAD_REACTORS
330
1A
102
}
100
AcDbPlotSettings
  1

  2
none_device
  4

  6

 40
0.0
 41
0.0
 42
0.0
 43
0.0
 44
210.0
 45
297.0
 46
0.0
 47
0.0
 48
0.0
 49
0.0
140
0.0
141
0.0
142
1.0
143
1.0
 70
1024
 72
1
 73
0
 74
0
  7

 75
0
147
1.0
148
0.0
149
0.0
100
AcDbLayout
  1
Model
 70
0
 71
0
 10
0.0
 20
0.0
 11
210.0
 21
297.0
 12
0.0
 22
0.0
 32
0.0
 14
0.0
 24
0.0
 34
0.0
 15
0.0
 25
0.0
 35
0.0
146
0.0
 13
0.0
 23
0.0
 33
0.0
 16
1.0
 26
0.0
 36
0.0
 17
0.0
 27
1.0
 37
0.0
 76
0
330
20F
345
0
346
0
  0
LAYOUT
  5
528
102
{ACAD_REACTORS
330
1A
102
}
100
AcDbPlotSettings
  1

  2
none_device
  4

  6

 40
0.0
 41
0.0
 42
0.0
 43
0.0
 44
210.0
 45
297.0
 46
0.0
 47
0.0
 48
0.0
 49
0.0
140
0.0
141
0.0
142
1.0
143
1.0
 70
0
 72
1
 73
0
 74
0
  7

 75
0
147
1.0
148
0.0
149
0.0
100
AcDbLayout
  1
Layout1
 70
0
 71
1
 10
0.0
 20
0.0
 11
210.0
 21
297.0
 12
0.0
 22
0.0
 32
0.0
 14
0.0
 24
0.0
 34
0.0
 15
0.0
 25
0.0
 35
0.0
146
0.0
 13
0.0
 23
0.0
 33
0.0
 16
1.0
 26
0.0
 36
0.0
 17
0.0
 27
1.0
 37
0.0
 76
0
330
210
345
0
346
0
  0
ENDSEC
  0
EOF
