  0
SECTION
  2
HEADER
  9
$ACADVER
  1
AC1024
  9
$DWGCODEPAGE
  3
ANSI_1252
  9
$EXTMAX
 10
420.0
 20
297.0
 30
0.0
  9
$EXTMIN
 10
0.0
 20
-0.0
 30
0.0
  9
$LIMMIN
 10
0.0
 20
-0.0
  9
$LIMMAX
 10
420.0
 20
297.0
  9
$VIEWCTR
 10
210.0
 20
148.5
  9
$VIEWSIZE
 40
297.0
  9
$CLAYER
  8
0
  9
$LTSCALE
 40
23.1
  9
$CELTYPE
  6
BYLAYER
  9
$DIMSCALE
 40
1.0
  9
$DIMASZ
 40
3.0
  9
$DIMEXO
 40
0.5
  9
$DIMDLI
 40
15.96
  9
$DIMEXE
 40
1.5
  9
$DIMCEN
 40
3.78
  9
$DIMLFAC
 40
1.0
  9
$DIMBLK
  1
_FILLED
  9
$DIMALT
 70
0
  9
$DIMALTF
 40
0.0393700787
  9
$DIMTXT
 40
3.0
  9
$DIMTOL
 70
1
  9
$DIMLIM
 70
0
  9
$DIMTFAC
 40
1.0
  9
$DIMTP
 40
0.01
  9
$DIMTM
 40
0.01
  9
$DIMGAP
 40
0.625
  9
$DIMDSEP
 70
44
  9
$AUNITS
 70
0
  9
$PDMODE
 70
3
  9
$PDSIZE
 40
3.0
  9
$HANDSEED
  5
5A4
  9
$TILEMODE
 70
1
  9
$MEASUREMENT
 70
1
  9
$INSUNITS
 70
4
  0
ENDSEC
  0
SECTION
  2
CLASSES
  0
CLASS
  1
ACDBDICTIONARYWDFLT
  2
AcDbDictionaryWithDefault
  3
AutoCAD 2000
 90
0
 91
1
280
0
281
0
  0
CLASS
  1
ACDBPLACEHOLDER
  2
AcDbPlaceHolder
  3
AutoCAD 2000
 90
0
 91
1
280
0
281
0
  0
CLASS
  1
LAYOUT
  2
AcDbLayout
  3
AutoCAD 2000
 90
0
 91
0
280
0
281
0
  0
ENDSEC
  0
SECTION
  2
TABLES
  0
TABLE
  2
VPORT
  5
8
100
AcDbSymbolTable
 70
2
  0
VPORT
  5
1F4
100
AcDbSymbolTableRecord
100
AcDbViewportTableRecord
  2
*ACTIVE
 70
0
 10
0.0
 20
0.0
 11
1.0
 21
1.0
 12
210.0
 22
148.5
 13
0.0
 23
0.0
 14
1.0
 24
1.0
 15
0.0
 25
0.0
 16
0.0
 26
0.0
 36
1.0
 17
0.0
 27
0.0
 37
0.0
 40
297.0
 41
1.4141414141
 42
50.0
 43
0.0
 44
0.0
 50
0.0
 51
0.0
 71
0
 72
100
 73
1
 74
1
 75
0
 76
0
 77
0
 78
0
  0
ENDTAB
  0
TABLE
  2
LTYPE
  5
5
100
AcDbSymbolTable
 70
6
  0
LTYPE
  5
14
100
AcDbSymbolTableRecord
100
AcDbLinetypeTableRecord
  2
BYBLOCK
 70
0
  3

 72
65
 73
0
 40
0.0
  0
LTYPE
  5
15
100
AcDbSymbolTableRecord
100
AcDbLinetypeTableRecord
  2
BYLAYER
 70
0
  3

 72
65
 73
0
 40
0.0
  0
LTYPE
  5
16
100
AcDbSymbolTableRecord
100
AcDbLinetypeTableRecord
  2
CONTINUOUS
 70
64
  3
Solid line
 72
65
 73
0
 40
0.0
  0
LTYPE
  5
1F5
100
AcDbSymbolTableRecord
100
AcDbLinetypeTableRecord
  2
CENTER
 70
64
  3
____ _ ____ _ ____ _ ____ _ ____ _ ____ _ ____
 72
65
 73
4
 40
0.6
 49
0.375
 74
0
 49
-0.075
 74
0
 49
0.075
 74
0
 49
-0.075
 74
0
  0
LTYPE
  5
1F6
100
AcDbSymbolTableRecord
100
AcDbLinetypeTableRecord
  2
HIDDEN
 70
64
  3
- - - - - - - - - - - - - - - - - - - -
 72
65
 73
2
 40
0.2
 49
0.1
 74
0
 49
-0.1
 74
0
  0
LTYPE
  5
1F7
100
AcDbSymbolTableRecord
100
AcDbLinetypeTableRecord
  2
PHANTOM
 70
64
  3
_____ _ _ _____ _ _ _____ _ _ _____
 72
65
 73
6
 40
0.8
 49
0.45
 74
0
 49
-0.05
 74
0
 49
0.1
 74
0
 49
-0.05
 74
0
 49
0.1
 74
0
 49
-0.05
 74
0
  0
LTYPE
  5
1F8
100
AcDbSymbolTableRecord
100
AcDbLinetypeTableRecord
  2
DOT
 70
64
  3
. . . . . . . . . . . . . . . . . . . .
 72
65
 73
2
 40
0.2
 49
0.1
 74
0
 49
-0.1
 74
0
  0
LTYPE
  5
1F9
100
AcDbSymbolTableRecord
100
AcDbLinetypeTableRecord
  2
DASHED
 70
64
  3
- - - - - - - - - - - - - - - - - - - -
 72
65
 73
2
 40
0.2
 49
0.1
 74
0
 49
-0.1
 74
0
  0
ENDTAB
  0
TABLE
  2
LAYER
  5
2
100
AcDbSymbolTable
 70
36
  0
LAYER
  5
10
100
AcDbSymbolTableRecord
100
AcDbLayerTableRecord
  2
0
 70
0
 62
7
  6
CONTINUOUS
370
-3
390
F
  0
LAYER
  5
1FA
100
AcDbSymbolTableRecord
100
AcDbLayerTableRecord
  2
DEFAULT_1
 70
0
 62
7
  6
CENTER
370
-3
390
F
  0
LAYER
  5
1FB
100
AcDbSymbolTableRecord
100
AcDbLayerTableRecord
  2
DEFAULT_2
 70
0
 62
7
  6
HIDDEN
370
-3
390
F
  0
LAYER
  5
1FC
100
AcDbSymbolTableRecord
100
AcDbLayerTableRecord
  2
DEFAULT_3
 70
0
 62
7
  6
PHANTOM
370
-3
390
F
  0
LAYER
  5
1FD
100
AcDbSymbolTableRecord
100
AcDbLayerTableRecord
  2
ASSI
 70
0
 62
7
  6
CONTINUOUS
370
-3
390
F
  0
LAYER
  5
1FE
100
AcDbSymbolTableRecord
100
AcDbLayerTableRecord
  2
COLOR5
 70
0
 62
7
  6
CONTINUOUS
370
-3
390
F
  0
LAYER
  5
1FF
100
AcDbSymbolTableRecord
100
AcDbLayerTableRecord
  2
COLOR7
 70
0
 62
7
  6
CONTINUOUS
370
-3
390
F
  0
LAYER
  5
200
100
AcDbSymbolTableRecord
100
AcDbLayerTableRecord
  2
COORDINATE
 70
0
 62
7
  6
CONTINUOUS
370
-3
390
F
  0
LAYER
  5
201
100
AcDbSymbolTableRecord
100
AcDbLayerTableRecord
  2
COPY_PUBLISH
 70
0
 62
7
  6
CONTINUOUS
370
-3
390
F
  0
LAYER
  5
202
100
AcDbSymbolTableRecord
100
AcDbLayerTableRecord
  2
COSMETICI
 70
0
 62
7
  6
CONTINUOUS
370
-3
390
F
  0
LAYER
  5
203
100
AcDbSymbolTableRecord
100
AcDbLayerTableRecord
  2
CURVE
 70
0
 62
7
  6
CONTINUOUS
370
-3
390
F
  0
LAYER
  5
204
100
AcDbSymbolTableRecord
100
AcDbLayerTableRecord
  2
DRAFT
 70
0
 62
7
  6
CONTINUOUS
370
-3
390
F
  0
LAYER
  5
205
100
AcDbSymbolTableRecord
100
AcDbLayerTableRecord
  2
IMPORT_IGES
 70
0
 62
7
  6
CONTINUOUS
370
-3
390
F
  0
LAYER
  5
206
100
AcDbSymbolTableRecord
100
AcDbLayerTableRecord
  2
INTF_1
 70
0
 62
7
  6
CONTINUOUS
370
-3
390
F
  0
LAYER
  5
207
100
AcDbSymbolTableRecord
100
AcDbLayerTableRecord
  2
INTF_YELLOW
 70
0
 62
7
  6
CONTINUOUS
370
-3
390
F
  0
LAYER
  5
208
100
AcDbSymbolTableRecord
100
AcDbLayerTableRecord
  2
NOTE
 70
0
 62
7
  6
CONTINUOUS
370
-3
390
F
  0
LAYER
  5
209
100
AcDbSymbolTableRecord
100
AcDbLayerTableRecord
  2
PIANI
 70
0
 62
7
  6
CONTINUOUS
370
-3
390
F
  0
LAYER
  5
20A
100
AcDbSymbolTableRecord
100
AcDbLayerTableRecord
  2
PUNTI
 70
0
 62
7
  6
CONTINUOUS
370
-3
390
F
  0
LAYER
  5
20B
100
AcDbSymbolTableRecord
100
AcDbLayerTableRecord
  2
RACCORDO
 70
0
 62
7
  6
CONTINUOUS
370
-3
390
F
  0
LAYER
  5
20C
100
AcDbSymbolTableRecord
100
AcDbLayerTableRecord
  2
SIMBOLI
 70
0
 62
7
  6
CONTINUOUS
370
-3
390
F
  0
LAYER
  5
20D
100
AcDbSymbolTableRecord
100
AcDbLayerTableRecord
  2
SMUSSO
 70
0
 62
7
  6
CONTINUOUS
370
-3
390
F
  0
LAYER
  5
20E
100
AcDbSymbolTableRecord
100
AcDbLayerTableRecord
  2
SUPERFICI
 70
0
 62
7
  6
CONTINUOUS
370
-3
390
F
  0
LAYER
  5
20F
100
AcDbSymbolTableRecord
100
AcDbLayerTableRecord
  2
TRASH
 70
0
 62
7
  6
CONTINUOUS
370
-3
390
F
  0
ENDTAB
  0
TABLE
  2
STYLE
  5
3
100
AcDbSymbolTable
 70
1
  0
STYLE
  5
11
100
AcDbSymbolTableRecord
100
AcDbTextStyleTableRecord
  2
STANDARD
 70
0
 40
0.0
 41
0.8
 50
0.0
 71
0
 42
0.2
  3
txt
  4

  0
STYLE
  5
210
100
AcDbSymbolTableRecord
100
AcDbTextStyleTableRecord
  2
TEXTSTYLE_1
 70
0
 40
0.0
 41
0.8
 50
0.0
 71
0
 42
0.2
  3
gdt
  4

  0
ENDTAB
  0
TABLE
  2
VIEW
  5
6
100
AcDbSymbolTable
 70
0
  0
ENDTAB
  0
TABLE
  2
UCS
  5
7
100
AcDbSymbolTable
 70
0
  0
ENDTAB
  0
TABLE
  2
APPID
  5
9
100
AcDbSymbolTable
 70
1
  0
APPID
  5
211
100
AcDbSymbolTableRecord
100
AcDbRegAppTableRecord
  2
ACAD
 70
0
  0
ENDTAB
  0
TABLE
  2
BLOCK_RECORD
  5
1
100
AcDbSymbolTable
 70
0
  0
BLOCK_RECORD
  5
212
100
AcDbSymbolTableRecord
100
AcDbBlockTableRecord
  2
*Model_Space
  0
BLOCK_RECORD
  5
213
100
AcDbSymbolTableRecord
100
AcDbBlockTableRecord
  2
*Paper_Space
  0
BLOCK_RECORD
  5
214
100
AcDbSymbolTableRecord
100
AcDbBlockTableRecord
  2
_FILLED
  0
BLOCK_RECORD
  5
215
100
AcDbSymbolTableRecord
100
AcDbBlockTableRecord
  2
*D0
  0
BLOCK_RECORD
  5
216
100
AcDbSymbolTableRecord
100
AcDbBlockTableRecord
  2
*D1
  0
BLOCK_RECORD
  5
217
100
AcDbSymbolTableRecord
100
AcDbBlockTableRecord
  2
*D2
  0
BLOCK_RECORD
  5
218
100
AcDbSymbolTableRecord
100
AcDbBlockTableRecord
  2
*D3
  0
ENDTAB
  0
TABLE
  2
DIMSTYLE
  5
A
100
AcDbSymbolTable
 70
1
100
AcDbDimStyleTable
 71
0
  0
DIMSTYLE
105
219
100
AcDbSymbolTableRecord
100
AcDbDimStyleTableRecord
  2
STANDARD
 70
0
  3

  4

 40
1.0
 41
3.0
 42
0.5
 43
0.38
 44
1.5
 45
0.0
 46
0.0
 47
0.01
 48
0.01
140
3.0
141
0.09
142
0.0
143
25.4
144
1.0
145
0.0
146
1.0
147
0.625
 71
1
 72
0
 73
0
 74
0
 75
0
 76
0
 77
1
 78
8
 79
2
170
0
171
1
172
0
173
0
174
0
175
0
176
0
177
0
178
0
270
2
179
2
271
2
272
2
273
2
274
2
275
0
280
0
281
0
282
0
283
1
284
8
285
0
286
0
287
3
288
0
340
11
278
44
341
214
342
214
343
214
344
214
  0
DIMSTYLE
105
21A
100
AcDbSymbolTableRecord
100
AcDbDimStyleTableRecord
  2
DIMSTYLE_1
 70
0
  3

  4

 40
1.0
 41
3.0
 42
0.5
 43
0.38
 44
1.5
 45
0.0
 46
0.0
 47
0.0
 48
0.0
140
3.0
141
0.09
142
0.0
143
25.4
144
1.0
145
0.0
146
1.0
147
0.75
 71
0
 72
0
 73
0
 74
0
 75
0
 76
0
 77
1
 78
8
 79
2
170
0
171
1
172
0
173
0
174
0
175
0
176
0
177
0
178
0
270
2
179
2
271
2
272
2
273
2
274
2
275
0
280
0
281
0
282
0
283
1
284
8
285
0
286
0
287
3
288
0
340
11
278
44
341
214
342
214
343
214
344
214
  0
ENDTAB
  0
ENDSEC
  0
SECTION
  2
BLOCKS
  0
BLOCK
  5
20
100
AcDbEntity
  8
0
100
AcDbBlockBegin
  2
*Model_Space
 70
0
 10
0.0
 20
0.0
 30
0.0
  3
*Model_Space
  1

  0
ENDBLK
  5
21
100
AcDbEntity
  8
0
100
AcDbBlockEnd
  0
BLOCK
  5
1C
100
AcDbEntity
  8
0
100
AcDbBlockBegin
  2
*Paper_Space
 70
0
 10
0.0
 20
0.0
 30
0.0
  3
*Paper_Space
  1

  0
ENDBLK
  5
1D
100
AcDbEntity
  8
0
100
AcDbBlockEnd
  0
BLOCK
  5
21B
100
AcDbEntity
  8
0
100
AcDbBlockBegin
  2
_FILLED
 70
64
 10
0.0
 20
0.0
  3
_FILLED
  1

  0
SOLID
  5
21C
100
AcDbEntity
  8
0
  6
BYBLOCK
 62
0
100
AcDbTrace
 10
0.0
 20
0.0
 11
-1.0
 21
0.3166666667
 12
-1.0
 22
-0.3166666667
 13
-1.0
 23
-0.3166666667
  0
ENDBLK
  5
21D
100
AcDbEntity
  8
0
  6
BYBLOCK
 62
0
100
AcDbBlockEnd
  0
BLOCK
  5
21E
100
AcDbEntity
  8
0
100
AcDbBlockBegin
 62
7
  6
CONTINUOUS
  2
*D0
 70
65
 10
0.0
 20
0.0
  3
*D0
  1

  0
MTEXT
  5
21F
100
AcDbEntity
  8
0
100
AcDbMText
 62
7
  6
CONTINUOUS
  7
STANDARD
 71
2
 72
1
 10
93.4684805109
 20
-0.0
 30
0.0
 11
0.0
 21
1.0
 31
0.0
 73
2
 44
0.9
  1
{\ftxt;\W0.0001;\H0.0001;\~}{\ftxt;\W3.5714285714;\H3.0; }{\ftxt;\W0.0001;\H0.0001;\~}
 40
3.0
 41
16.0714285714
  0
LINE
  5
220
100
AcDbEntity
  8
0
100
AcDbLine
 62
7
  6
CONTINUOUS
 10
78.817650213
 20
119.75
 11
98.7184805109
 21
119.75
  0
LINE
  5
221
100
AcDbEntity
  8
0
100
AcDbLine
 62
7
  6
CONTINUOUS
 10
72.0068523262
 20
-119.75
 11
98.7184805109
 21
-119.75
  0
LINE
  5
222
100
AcDbEntity
  8
0
100
AcDbLine
 62
7
  6
CONTINUOUS
 10
97.2184805109
 20
119.75
 11
97.2184805109
 21
0.0
  0
LINE
  5
223
100
AcDbEntity
  8
0
100
AcDbLine
 62
7
  6
CONTINUOUS
 10
97.2184805109
 20
-119.75
 11
97.2184805109
 21
0.0
  0
INSERT
  5
224
100
AcDbEntity
  8
0
100
AcDbBlockReference
 62
7
  6
CONTINUOUS
  2
_FILLED
 10
97.2184805109
 20
119.75
 41
3.0
 42
3.0
 43
3.0
 50
90.0
  0
INSERT
  5
225
100
AcDbEntity
  8
0
100
AcDbBlockReference
 62
7
  6
CONTINUOUS
  2
_FILLED
 10
97.2184805109
 20
-119.75
 41
3.0
 42
3.0
 43
3.0
 50
270.0
  0
ENDBLK
  5
226
100
AcDbEntity
  8
0
  6
BYBLOCK
 62
0
100
AcDbBlockEnd
  0
BLOCK
  5
227
100
AcDbEntity
  8
0
100
AcDbBlockBegin
 62
7
  6
CONTINUOUS
  2
*D1
 70
65
 10
0.0
 20
0.0
  3
*D1
  1

  0
MTEXT
  5
228
100
AcDbEntity
  8
0
100
AcDbMText
 62
7
  6
CONTINUOUS
  7
STANDARD
 71
2
 72
1
 10
0.0
 20
141.7358760238
 30
0.0
 11
1.0
 21
0.0
 31
0.0
 73
2
 44
0.9
  1
{\ftxt;\W0.0001;\H0.0001;\~}{\ftxt;\W2.0;\H3.0; }{\ftxt;\W0.0001;\H0.0001;\~}
 40
3.0
 41
9.0
  0
LINE
  5
229
100
AcDbEntity
  8
0
100
AcDbLine
 62
7
  6
CONTINUOUS
 10
-76.5
 20
115.2568523262
 11
-76.5
 21
139.4858760238
  0
LINE
  5
22A
100
AcDbEntity
  8
0
100
AcDbLine
 62
7
  6
CONTINUOUS
 10
76.5
 20
121.7952182975
 11
76.5
 21
139.4858760238
  0
LINE
  5
22B
100
AcDbEntity
  8
0
100
AcDbLine
 62
7
  6
CONTINUOUS
 10
-76.5
 20
137.9858760238
 11
0.0
 21
137.9858760238
  0
LINE
  5
22C
100
AcDbEntity
  8
0
100
AcDbLine
 62
7
  6
CONTINUOUS
 10
76.5
 20
137.9858760238
 11
0.0
 21
137.9858760238
  0
INSERT
  5
22D
100
AcDbEntity
  8
0
100
AcDbBlockReference
 62
7
  6
CONTINUOUS
  2
_FILLED
 10
-76.5
 20
137.9858760238
 41
3.0
 42
3.0
 43
3.0
 50
180.0
  0
INSERT
  5
22E
100
AcDbEntity
  8
0
100
AcDbBlockReference
 62
7
  6
CONTINUOUS
  2
_FILLED
 10
76.5
 20
137.9858760238
 41
3.0
 42
3.0
 43
3.0
  0
ENDBLK
  5
22F
100
AcDbEntity
  8
0
  6
BYBLOCK
 62
0
100
AcDbBlockEnd
  0
BLOCK
  5
230
100
AcDbEntity
  8
0
100
AcDbBlockBegin
 62
7
  6
CONTINUOUS
  2
*D2
 70
65
 10
0.0
 20
0.0
  3
*D2
  1

  0
MTEXT
  5
231
100
AcDbEntity
  8
0
100
AcDbMText
 62
7
  6
CONTINUOUS
  7
STANDARD
 71
2
 72
1
 10
-209.932917579
 20
141.5743280415
 30
0.0
 11
1.0
 21
0.0
 31
0.0
 73
2
 44
0.9
  1
{\ftxt;\W0.0001;\H0.0001;\~}{\ftxt;\W1.5;\H3.0; }{\ftxt;\W0.0001;\H0.0001;\~}
 40
3.0
 41
6.75
  0
LINE
  5
232
100
AcDbEntity
  8
0
100
AcDbLine
 62
7
  6
CONTINUOUS
 10
-234.932917579
 20
112.7741795085
 11
-234.932917579
 21
139.3243280415
  0
LINE
  5
233
100
AcDbEntity
  8
0
100
AcDbLine
 62
7
  6
CONTINUOUS
 10
-184.932917579
 20
110.980707301
 11
-184.932917579
 21
139.3243280415
  0
LINE
  5
234
100
AcDbEntity
  8
0
100
AcDbLine
 62
7
  6
CONTINUOUS
 10
-234.932917579
 20
137.8243280415
 11
-209.932917579
 21
137.8243280415
  0
LINE
  5
235
100
AcDbEntity
  8
0
100
AcDbLine
 62
7
  6
CONTINUOUS
 10
-184.932917579
 20
137.8243280415
 11
-209.932917579
 21
137.8243280415
  0
INSERT
  5
236
100
AcDbEntity
  8
0
100
AcDbBlockReference
 62
7
  6
CONTINUOUS
  2
_FILLED
 10
-234.932917579
 20
137.8243280415
 41
3.0
 42
3.0
 43
3.0
 50
180.0
  0
INSERT
  5
237
100
AcDbEntity
  8
0
100
AcDbBlockReference
 62
7
  6
CONTINUOUS
  2
_FILLED
 10
-184.932917579
 20
137.8243280415
 41
3.0
 42
3.0
 43
3.0
  0
ENDBLK
  5
238
100
AcDbEntity
  8
0
  6
BYBLOCK
 62
0
100
AcDbBlockEnd
  0
BLOCK
  5
239
100
AcDbEntity
  8
0
100
AcDbBlockBegin
 62
7
  6
CONTINUOUS
  2
*D3
 70
65
 10
0.0
 20
0.0
  3
*D3
  1

  0
MTEXT
  5
23A
100
AcDbEntity
  8
0
100
AcDbMText
 62
7
  6
CONTINUOUS
  7
STANDARD
 71
2
 72
1
 10
-242.432917579
 20
141.5857951415
 30
0.0
 11
1.0
 21
0.0
 31
0.0
 73
2
 44
0.9
  1
{\ftxt;\W0.0001;\H0.0001;\~}{\ftxt;\W1.2857142857;\H3.0; }{\ftxt;\W0.0001;\H0.0001;\~}
 40
3.0
 41
5.7857142857
  0
LINE
  5
23B
100
AcDbEntity
  8
0
100
AcDbLine
 62
7
  6
CONTINUOUS
 10
-249.932917579
 20
116.6169896376
 11
-249.932917579
 21
139.3357951415
  0
LINE
  5
23C
100
AcDbEntity
  8
0
100
AcDbLine
 62
7
  6
CONTINUOUS
 10
-234.932917579
 20
120.25
 11
-234.932917579
 21
139.3357951415
  0
LINE
  5
23D
100
AcDbEntity
  8
0
100
AcDbLine
 62
7
  6
CONTINUOUS
 10
-249.932917579
 20
137.8357951415
 11
-242.432917579
 21
137.8357951415
  0
LINE
  5
23E
100
AcDbEntity
  8
0
100
AcDbLine
 62
7
  6
CONTINUOUS
 10
-234.932917579
 20
137.8357951415
 11
-242.432917579
 21
137.8357951415
  0
INSERT
  5
23F
100
AcDbEntity
  8
0
100
AcDbBlockReference
 62
7
  6
CONTINUOUS
  2
_FILLED
 10
-249.932917579
 20
137.8357951415
 41
3.0
 42
3.0
 43
3.0
 50
180.0
  0
INSERT
  5
240
100
AcDbEntity
  8
0
100
AcDbBlockReference
 62
7
  6
CONTINUOUS
  2
_FILLED
 10
-234.932917579
 20
137.8357951415
 41
3.0
 42
3.0
 43
3.0
  0
ENDBLK
  5
241
100
AcDbEntity
  8
0
  6
BYBLOCK
 62
0
100
AcDbBlockEnd
  0
ENDSEC
  0
SECTION
  2
ENTITIES
  0
DIMENSION
  5
242
100
AcDbEntity
  8
0
100
AcDbDimension
 62
7
  6
CONTINUOUS
  2
*D0
 10
97.2184805109
 20
-119.75
 11
97.2184805109
 21
-0.4285704506
 70
160
 71
2
 72
2
 41
0.9
 42
239.5
  1
{\ftxt;\W0.0001;\H0.0001;\~}{\ftxt;\W3.5714285714;\H3.0; }{\ftxt;\W0.0001;\H0.0001;\~}
  3
DIMSTYLE_1
100
AcDbAlignedDimension
 13
78.317650213
 23
119.75
 14
71.5068523262
 24
-119.75
 50
270.0
100
AcDbRotatedDimension
  0
DIMENSION
  5
243
100
AcDbEntity
  8
0
100
AcDbDimension
 62
7
  6
CONTINUOUS
  2
*D1
 10
76.5
 20
137.9858760238
 11
-0.4285714245
 21
137.9858760238
 70
160
 71
2
 72
2
 41
0.9
 42
153.0
  1
{\ftxt;\W0.0001;\H0.0001;\~}{\ftxt;\W2.0;\H3.0; }{\ftxt;\W0.0001;\H0.0001;\~}
  3
DIMSTYLE_1
100
AcDbAlignedDimension
 13
-76.5
 23
114.7568523262
 14
76.5
 24
121.2952182975
100
AcDbRotatedDimension
  0
DIMENSION
  5
244
100
AcDbEntity
  8
0
100
AcDbDimension
 62
7
  6
CONTINUOUS
  2
*D2
 10
-184.932917579
 20
137.8243280415
 11
-210.3614886475
 21
137.8243280415
 70
160
 71
2
 72
2
 41
0.9
 42
50.0
  1
{\ftxt;\W0.0001;\H0.0001;\~}{\ftxt;\W1.5;\H3.0; }{\ftxt;\W0.0001;\H0.0001;\~}
  3
DIMSTYLE_1
100
AcDbAlignedDimension
 13
-234.932917579
 23
112.2741795085
 14
-184.932917579
 24
110.480707301
100
AcDbRotatedDimension
  0
DIMENSION
  5
245
100
AcDbEntity
  8
0
100
AcDbDimension
 62
7
  6
CONTINUOUS
  2
*D3
 10
-234.932917579
 20
137.8357951415
 11
-242.8614880371
 21
137.8357951415
 70
160
 71
2
 72
2
 41
0.9
 42
15.0
  1
{\ftxt;\W0.0001;\H0.0001;\~}{\ftxt;\W1.2857142857;\H3.0; }{\ftxt;\W0.0001;\H0.0001;\~}
  3
DIMSTYLE_1
100
AcDbAlignedDimension
 13
-249.932917579
 23
116.1169896376
 14
-234.932917579
 24
119.75
100
AcDbRotatedDimension
  0
LWPOLYLINE
  5
246
100
AcDbEntity
  8
RACCORDO
100
AcDbPolyline
 62
250
  6
CONTINUOUS
 90
34
 70
0
 10
-71.1379272718
 20
119.3810749456
 10
-71.1577121357
 20
119.370751914
 10
-71.1774550883
 20
119.3541044158
 10
-71.1971143073
 20
119.331167716
 10
-71.2166481476
 20
119.3019904026
 10
-71.2360152297
 20
119.2666342833
 10
-71.2551745274
 20
119.2251742546
 10
-71.2740854546
 20
119.1776981433
 10
-71.2927079515
 20
119.1243065202
 10
-71.311002569
 20
119.0651124874
 10
-71.3289305528
 20
119.0002414384
 10
-71.3464539253
 20
118.9298307927
 10
-71.3635355657
 20
118.8540297045
 10
-71.3801392893
 20
118.7729987469
 10
-71.3962299235
 20
118.6869095716
 10
-71.4117733829
 20
118.5959445454
 10
-71.4267367409
 20
118.500296364
 10
-71.4410883
 20
118.4001676434
 10
-71.4547976585
 20
118.2957704911
 10
-71.4678357753
 20
118.1873260567
 10
-71.4801750311
 20
118.075064063
 10
-71.491789287
 20
117.9592223202
 10
-71.50265394
 20
117.8400462214
 10
-71.512745975
 20
117.7177882229
 10
-71.5220440136
 20
117.5927073099
 10
-71.5305283592
 20
117.4650684471
 10
-71.5381810391
 20
117.3351420181
 10
-71.5449858422
 20
117.2032032524
 10
-71.5509283536
 20
117.0695316421
 10
-71.555995985
 20
116.9344103502
 10
-71.5601780014
 20
116.7981256108
 10
-71.5634655437
 20
116.6609661222
 10
-71.5658516479
 20
116.523222436
 10
-71.5673312594
 20
116.3851863413
  0
LWPOLYLINE
  5
247
100
AcDbEntity
  8
RACCORDO
100
AcDbPolyline
 62
250
  6
CONTINUOUS
 90
34
 70
0
 10
-71.1379272718
 20
-119.3810749456
 10
-71.157712141
 20
-119.3707519122
 10
-71.1774550986
 20
-119.3541044105
 10
-71.1971143224
 20
-119.3311677058
 10
-71.2166481671
 20
-119.3019903861
 10
-71.2360152534
 20
-119.2666342592
 10
-71.2551745549
 20
-119.2251742219
 10
-71.2740854855
 20
-119.1776981011
 10
-71.2927079854
 20
-119.1243064678
 10
-71.3110026055
 20
-119.0651124244
 10
-71.3289305916
 20
-119.0002413644
 10
-71.3464539658
 20
-118.9298307077
 10
-71.3635356076
 20
-118.8540296086
 10
-71.3801393321
 20
-118.7729986404
 10
-71.3962299668
 20
-118.6869094551
 10
-71.4117734263
 20
-118.5959444198
 10
-71.426736784
 20
-118.5002962301
 10
-71.4410883424
 20
-118.4001675024
 10
-71.4547976998
 20
-118.2957703444
 10
-71.4678358151
 20
-118.1873259058
 10
-71.4801750691
 20
-118.0750639096
 10
-71.491789323
 20
-117.9592221661
 10
-71.5026539736
 20
-117.8400460685
 10
-71.5127460061
 20
-117.7177880732
 10
-71.5220440418
 20
-117.5927071655
 10
-71.5305283845
 20
-117.4650683103
 10
-71.5381810613
 20
-117.335141891
 10
-71.5449858612
 20
-117.2032031372
 10
-71.5509283693
 20
-117.069531541
 10
-71.5559959975
 20
-116.9344102655
 10
-71.5601780106
 20
-116.7981255443
 10
-71.5634655497
 20
-116.660966076
 10
-71.5658516508
 20
-116.5232224121
 10
-71.5673312594
 20
-116.3851863413
  0
LWPOLYLINE
  5
248
100
AcDbEntity
  8
0
100
AcDbPolyline
 62
7
  6
CONTINUOUS
 90
5
 70
0
 43
0.3499999917
 10
1.7142856979
 20
140.4501580811
 10
2.0714286518
 20
140.6644519043
 10
2.0714286518
 20
141.3073077393
 10
1.7142856979
 20
141.735869751
 10
0.857142849
 20
141.735869751
  0
LINE
  5
249
100
AcDbEntity
  8
RACCORDO
100
AcDbLine
 62
250
  6
CONTINUOUS
 10
-66.9640617929
 20
-116.3516972378
 11
-71.5673312594
 21
-116.3851863413
  0
LINE
  5
24A
100
AcDbEntity
  8
RACCORDO
100
AcDbLine
 62
250
  6
CONTINUOUS
 10
-57.8139025657
 20
-116.2916947387
 11
-66.9640617929
 21
-116.3516972378
  0
LINE
  5
24B
100
AcDbEntity
  8
RACCORDO
100
AcDbLine
 62
7
  6
CONTINUOUS
 10
-71.5068523262
 20
-119.75
 11
71.5068523262
 21
-119.75
  0
LINE
  5
24C
100
AcDbEntity
  8
RACCORDO
100
AcDbLine
 62
250
  6
CONTINUOUS
 10
-76.1465507535
 20
-114.4034030797
 11
-73.5922154419
 21
-114.4034030797
  0
LINE
  5
24D
100
AcDbEntity
  8
RACCORDO
100
AcDbLine
 62
250
  6
CONTINUOUS
 10
76.1465507535
 20
-114.4034030797
 11
73.5922154419
 21
-114.4034030797
  0
LWPOLYLINE
  5
24E
100
AcDbEntity
  8
RACCORDO
100
AcDbPolyline
 62
250
  6
CONTINUOUS
 90
27
 70
0
 10
54.1449909513
 20
-116.2701004133
 10
49.9176458541
 20
-116.2470802009
 10
45.6858916622
 20
-116.2259467428
 10
41.4325639598
 20
-116.2065717076
 10
37.1754121675
 20
-116.1890834266
 10
32.9156093581
 20
-116.1734907542
 10
28.6537717974
 20
-116.1597958757
 10
24.3899053013
 20
-116.1479966057
 10
20.1242691638
 20
-116.1380952429
 10
15.8571167573
 20
-116.1300921433
 10
11.5888169673
 20
-116.1239869509
 10
7.3198025276
 20
-116.1197808954
 10
3.0507155518
 20
-116.1174739779
 10
-1.2184633278
 20
-116.1170661973
 10
-5.488293582
 20
-116.1185587802
 10
-9.7601108643
 20
-116.1219559299
 10
-14.0319555127
 20
-116.1272534429
 10
-18.2994461068
 20
-116.1344399363
 10
-22.5442426942
 20
-116.143440299
 10
-26.7840850658
 20
-116.154329642
 10
-31.0686531487
 20
-116.1673219146
 10
-35.4133855341
 20
-116.1824206642
 10
-39.8020304407
 20
-116.1996223435
 10
-44.236631809
 20
-116.2191302598
 10
-48.7257205995
 20
-116.2410058494
 10
-53.2598007749
 20
-116.2651876761
 10
-57.8139025657
 20
-116.2916947387
  0
LINE
  5
24F
100
AcDbEntity
  8
RACCORDO
100
AcDbLine
 62
250
  6
CONTINUOUS
 10
58.9232079423
 20
-116.298600369
 11
54.1449909513
 21
-116.2701004133
  0
LWPOLYLINE
  5
250
100
AcDbEntity
  8
RACCORDO
100
AcDbPolyline
 62
250
  6
CONTINUOUS
 90
34
 70
0
 10
71.1379272718
 20
-119.3810749456
 10
66.7355820936
 20
-119.3488777778
 10
62.3790982561
 20
-119.3189435039
 10
58.0684757592
 20
-119.2912721239
 10
53.8203706484
 20
-119.2659890176
 10
49.6181268782
 20
-119.2429688052
 10
45.4117763122
 20
-119.2218353471
 10
41.184069215
 20
-119.2024603118
 10
36.952255322
 20
-119.1849720309
 10
32.718115702
 20
-119.1693793585
 10
28.4819520498
 20
-119.1556844799
 10
24.2434626706
 20
-119.14388521
 10
20.0035235489
 20
-119.1339838471
 10
15.7620770502
 20
-119.1259807476
 10
11.5191808089
 20
-119.1198755551
 10
7.2758837124
 20
-119.1156694996
 10
3.0325142929
 20
-119.1133625821
 10
-1.2112559818
 20
-119.1129548016
 10
-5.4553638205
 20
-119.1144473845
 10
-9.7014448629
 20
-119.1178445341
 10
-13.9478634693
 20
-119.1231420472
 10
-18.1896494302
 20
-119.1303285405
 10
-22.4089210905
 20
-119.1393289033
 10
-26.6235601052
 20
-119.1502182462
 10
-30.8822412298
 20
-119.1632105189
 10
-35.2008020733
 20
-119.1783092685
 10
-39.5634050266
 20
-119.1955109477
 10
-43.9712120182
 20
-119.2150188641
 10
-48.4331931482
 20
-119.2368944537
 10
-52.9403783165
 20
-119.2610762803
 10
-57.4670191503
 20
-119.287583343
 10
-62.0045328586
 20
-119.3164219746
 10
-66.5615022325
 20
-119.3475858421
 10
-71.1379272718
 20
-119.3810749456
  0
LWPOLYLINE
  5
251
100
AcDbEntity
  8
RACCORDO
100
AcDbPolyline
 62
250
  6
CONTINUOUS
 90
4
 70
0
 10
71.5673312594
 20
-116.3851863413
 10
67.1392347267
 20
-116.3529891735
 10
62.7562815242
 20
-116.3230548996
 10
58.9232079423
 20
-116.298600369
  0
LWPOLYLINE
  5
252
100
AcDbEntity
  8
RACCORDO
100
AcDbPolyline
 62
250
  6
CONTINUOUS
 90
43
 70
0
 10
-71.5673312594
 20
-116.3851863413
 10
-71.6455595681
 20
-116.3841259731
 10
-71.7226432939
 20
-116.380361573
 10
-71.7985825123
 20
-116.3738931412
 10
-71.8731911916
 20
-116.3647068347
 10
-71.9466555196
 20
-116.3528164964
 10
-72.019533863
 20
-116.3382636546
 10
-72.0921286939
 20
-116.3210308481
 10
-72.164137599
 20
-116.3011355381
 10
-72.2352116034
 20
-116.2786716365
 10
-72.3053238791
 20
-116.2536329654
 10
-72.3745013688
 20
-116.2260257028
 10
-72.4424757911
 20
-116.1959622944
 10
-72.5092465022
 20
-116.1634317044
 10
-72.5748142872
 20
-116.1284449685
 10
-72.6389130382
 20
-116.09114764
 10
-72.7015359939
 20
-116.0515308696
 10
-72.7626900794
 20
-116.0096035065
 10
-72.822129743
 20
-115.9655376514
 10
-72.8798477754
 20
-115.919325259
 10
-72.9358515638
 20
-115.8709743746
 10
-72.9899174711
 20
-115.8206812347
 10
-73.0420388057
 20
-115.7684369761
 10
-73.0922224424
 20
-115.7142504621
 10
-73.1402651095
 20
-115.6583445189
 10
-73.1861540923
 20
-115.6007195631
 10
-73.2299022854
 20
-115.5413751781
 10
-73.2713448415
 20
-115.4805329395
 10
-73.3104879181
 20
-115.4181548471
 10
-73.347325524
 20
-115.3542789012
 10
-73.3816745942
 20
-115.2892406787
 10
-73.4134445456
 20
-115.2233101354
 10
-73.4427261109
 20
-115.1562173155
 10
-73.4696081942
 20
-115.0874879286
 10
-73.4942252084
 20
-115.0169216621
 10
-73.5164428497
 20
-114.9447188287
 10
-73.5359469433
 20
-114.8710060762
 10
-73.5527492921
 20
-114.7955986385
 10
-73.5668381818
 20
-114.7186812818
 10
-73.5778641636
 20
-114.6409349529
 10
-73.5857107738
 20
-114.5625866341
 10
-73.5904945288
 20
-114.483409343
 10
-73.5922154419
 20
-114.4034030797
  0
LWPOLYLINE
  5
253
100
AcDbEntity
  8
RACCORDO
100
AcDbPolyline
 62
250
  6
CONTINUOUS
 90
43
 70
0
 10
-71.1379272718
 20
-119.3810749456
 10
-71.3307242314
 20
-119.3776523914
 10
-71.5211981639
 20
-119.3669927185
 10
-71.7090876074
 20
-119.3493433031
 10
-71.8934500878
 20
-119.3250641507
 10
-72.0747675947
 20
-119.2943591798
 10
-72.2549025557
 20
-119.2570198206
 10
-72.434341226
 20
-119.2128943714
 10
-72.6120956672
 20
-119.1621737593
 10
-72.7877840391
 20
-119.1049623555
 10
-72.9611160467
 20
-119.0413653406
 10
-73.1319144359
 20
-118.9714588426
 10
-73.2999751832
 20
-118.8953285363
 10
-73.4650818059
 20
-118.8130757969
 10
-73.6270019097
 20
-118.7248199019
 10
-73.7855126988
 20
-118.6306828891
 10
-73.9403994927
 20
-118.5307968568
 10
-74.0914563938
 20
-118.4252995509
 10
-74.2384812879
 20
-118.3143329909
 10
-74.3812760172
 20
-118.1980510537
 10
-74.5196503602
 20
-118.07661336
 10
-74.6534221308
 20
-117.9501802918
 10
-74.7824145748
 20
-117.8189219994
 10
-74.9064518682
 20
-117.6830209445
 10
-75.0253629239
 20
-117.5426654202
 10
-75.138976311
 20
-117.3980640535
 10
-75.2471544317
 20
-117.2493988936
 10
-75.3497830677
 20
-117.0968234798
 10
-75.4467658994
 20
-116.9404656242
 10
-75.5379173712
 20
-116.7806089295
 10
-75.623015802
 20
-116.6176561344
 10
-75.7016669846
 20
-116.4524910872
 10
-75.7741265254
 20
-116.2847127768
 10
-75.8409847834
 20
-116.1127282407
 10
-75.9021407728
 20
-115.9361747686
 10
-75.9571105483
 20
-115.7557480515
 10
-76.0056872061
 20
-115.5713742424
 10
-76.0476552465
 20
-115.3828582553
 10
-76.0826082486
 20
-115.1908279608
 10
-76.1101390061
 20
-114.9964839327
 10
-76.1300513241
 20
-114.8004261027
 10
-76.1422380286
 20
-114.6026314826
 10
-76.1465507535
 20
-114.4034030797
  0
LWPOLYLINE
  5
254
100
AcDbEntity
  8
0
100
AcDbPolyline
 62
7
  6
CONTINUOUS
 90
3
 70
0
 43
0.3499999917
 10
-2.9999999714
 20
140.8787329102
 10
-2.1428571224
 20
141.735869751
 10
-2.1428571224
 20
138.735871582
  0
LWPOLYLINE
  5
255
100
AcDbEntity
  8
RACCORDO
100
AcDbPolyline
 62
7
  6
CONTINUOUS
 90
43
 70
0
 10
44.7350841742
 20
-93.9700013268
 10
44.9216686394
 20
-93.9665478489
 10
45.1078193284
 20
-93.9560875836
 10
45.2935362588
 20
-93.938620531
 10
45.4792281472
 20
-93.9140908165
 10
45.6644862846
 20
-93.8825543147
 10
45.8480846757
 20
-93.8441786488
 10
46.029918365
 20
-93.7989093491
 10
46.210092603
 20
-93.7468008853
 10
46.3876969216
 20
-93.6881842893
 10
46.5624791388
 20
-93.6231522674
 10
46.7346919193
 20
-93.5516121133
 10
46.9041821695
 20
-93.4736167405
 10
47.0712182739
 20
-93.3890336529
 10
47.2355323145
 20
-93.2979953464
 10
47.3961668453
 20
-93.2009522229
 10
47.5531199789
 20
-93.0978111595
 10
47.7063942443
 20
-92.988665279
 10
47.8550389865
 20
-92.8742443514
 10
47.9988412999
 20
-92.7546727784
 10
48.1380148657
 20
-92.6298261582
 10
48.2722490035
 20
-92.5000610551
 10
48.4015603111
 20
-92.3653844687
 10
48.5259329366
 20
-92.2257893995
 10
48.6450075579
 20
-92.0816114125
 10
48.7589018666
 20
-91.9326426089
 10
48.8674988844
 20
-91.7790908876
 10
48.9700873353
 20
-91.6219155106
 10
49.0665723036
 20
-91.4611217103
 10
49.1570494146
 20
-91.2967042544
 10
49.2410932427
 20
-91.1296067076
 10
49.3185754528
 20
-90.9600972417
 10
49.3896250037
 20
-90.7879076849
 10
49.454202399
 20
-90.613177087
 10
49.5124029391
 20
-90.435645357
 10
49.5641317986
 20
-90.2555725859
 10
49.6090642671
 20
-90.0738780968
 10
49.6471446686
 20
-89.8904625727
 10
49.6784290208
 20
-89.7054253305
 10
49.7027601257
 20
-89.5199836442
 10
49.7200856437
 20
-89.3345432718
 10
49.7304580904
 20
-89.1486984553
 10
49.7338775094
 20
-88.9624491947
  0
LINE
  5
256
100
AcDbEntity
  8
RACCORDO
100
AcDbLine
 62
250
  6
CONTINUOUS
 10
44.7984940257
 20
-94.4893563784
 11
-44.7984940257
 21
-94.4893563784
  0
LINE
  5
257
100
AcDbEntity
  8
RACCORDO
100
AcDbLine
 62
250
  6
CONTINUOUS
 10
44.7544820396
 20
-93.9894331493
 11
-44.7544820396
 21
-93.9894331493
  0
LINE
  5
258
100
AcDbEntity
  8
RACCORDO
100
AcDbLine
 62
7
  6
CONTINUOUS
 10
44.7350841742
 20
-93.9700013268
 11
-44.7350841742
 21
-93.9700013268
  0
LINE
  5
259
100
AcDbEntity
  8
SUPERFICI
100
AcDbLine
 62
7
  6
CONTINUOUS
 10
44.7350841742
 20
-93.97
 11
-44.7350841742
 21
-93.97
  0
LWPOLYLINE
  5
25A
100
AcDbEntity
  8
RACCORDO
100
AcDbPolyline
 62
250
  6
CONTINUOUS
 90
43
 70
0
 10
-44.7544820396
 20
-93.9894331493
 10
-44.9433202458
 20
-93.985829471
 10
-45.1311432644
 20
-93.9751298357
 10
-45.3176887348
 20
-93.9574343717
 10
-45.5023745082
 20
-93.9329015466
 10
-45.6852837084
 20
-93.9016244317
 10
-45.8671444869
 20
-93.8635090265
 10
-46.0481382816
 20
-93.8184640053
 10
-46.2275595064
 20
-93.7666111011
 10
-46.4047992011
 20
-93.7081217305
 10
-46.5795024124
 20
-93.6431357965
 10
-46.7515456813
 20
-93.5717223009
 10
-46.9206857362
 20
-93.4940009175
 10
-47.0866572953
 20
-93.4101139347
 10
-47.2492759676
 20
-93.3201752951
 10
-47.4084221168
 20
-93.2242644554
 10
-47.563895724
 20
-93.1225045694
 10
-47.7154644902
 20
-93.015050351
 10
-47.8629591755
 20
-92.9020250877
 10
-48.0061979174
 20
-92.7835637768
 10
-48.1449570086
 20
-92.6598468951
 10
-48.279013452
 20
-92.5310766282
 10
-48.4081732622
 20
-92.3974449591
 10
-48.5322719728
 20
-92.2591278248
 10
-48.6511441793
 20
-92.1163165962
 10
-48.7646093172
 20
-91.9692352796
 10
-48.8725334663
 20
-91.8180648011
 10
-48.9748233898
 20
-91.6629339694
 10
-49.0713696038
 20
-91.5039865937
 10
-49.1619886638
 20
-91.3415009111
 10
-49.2464919188
 20
-91.1758165594
 10
-49.3246111136
 20
-91.00752154
 10
-49.3964281094
 20
-90.836506713
 10
-49.4621990482
 20
-90.662033949
 10
-49.52184801
 20
-90.4839327609
 10
-49.5750416365
 20
-90.3027834788
 10
-49.6215677186
 20
-90.1189500931
 10
-49.6613079869
 20
-89.9324636108
 10
-49.6940547625
 20
-89.7437808915
 10
-49.7195772478
 20
-89.5539384493
 10
-49.7378121942
 20
-89.3634735199
 10
-49.7487659429
 20
-89.1724066048
 10
-49.7524161661
 20
-88.9810170053
  0
LWPOLYLINE
  5
25B
100
AcDbEntity
  8
RACCORDO
100
AcDbPolyline
 62
250
  6
CONTINUOUS
 90
43
 70
0
 10
-44.7984940257
 20
-94.4893563784
 10
-45.0069190461
 20
-94.4852188814
 10
-45.2136615666
 20
-94.4735127439
 10
-45.4187217407
 20
-94.4542379657
 10
-45.6220203333
 20
-94.4273756116
 10
-45.8236368925
 20
-94.3929446169
 10
-46.0238097198
 20
-94.3510017873
 10
-46.2230250614
 20
-94.3014549607
 10
-46.4207968902
 20
-94.2443962991
 10
-46.615905207
 20
-94.1801590941
 10
-46.8082041941
 20
-94.1087274635
 10
-46.9978402017
 20
-94.0301172894
 10
-47.1840316995
 20
-93.9447095098
 10
-47.3667247553
 20
-93.8525043277
 10
-47.5459739789
 20
-93.7535015402
 10
-47.7211607942
 20
-93.6480814769
 10
-47.8922952114
 20
-93.5362163937
 10
-48.0593679897
 20
-93.4179340347
 10
-48.2217317936
 20
-93.2936979618
 10
-48.3793935207
 20
-93.1634632122
 10
-48.532347119
 20
-93.0272747488
 10
-48.6799259373
 20
-92.8857310216
 10
-48.8220932273
 20
-92.7388201519
 10
-48.9588866323
 20
-92.5865540185
 10
-49.0897511713
 20
-92.4295667077
 10
-49.2146477766
 20
-92.2678704832
 10
-49.3336164022
 20
-92.1014530814
 10
-49.4462206482
 20
-91.9309117979
 10
-49.5524768822
 20
-91.7561577502
 10
-49.6523695595
 20
-91.5772798208
 10
-49.7454144377
 20
-91.3951419534
 10
-49.831466068
 20
-91.2101395283
 10
-49.9106706377
 20
-91.0218771652
 10
-49.9829813494
 20
-90.8300326663
 10
-50.0485878434
 20
-90.6341982757
 10
-50.1073010473
 20
-90.4347817493
 10
-50.1585060773
 20
-90.2326841579
 10
-50.2021537732
 20
-90.027634798
 10
-50.2382937283
 20
-89.819904373
 10
-50.2664591701
 20
-89.6112060632
 10
-50.2864945903
 20
-89.4021109287
 10
-50.2985557328
 20
-89.1920479094
 10
-50.3026426564
 20
-88.9810170053
  0
LINE
  5
25C
100
AcDbEntity
  8
RACCORDO
100
AcDbLine
 62
250
  6
CONTINUOUS
 10
-50.3026426564
 20
-88.9810170053
 11
-49.7524161661
 21
-88.9810170053
  0
LINE
  5
25D
100
AcDbEntity
  8
RACCORDO
100
AcDbLine
 62
250
  6
CONTINUOUS
 10
50.3026426564
 20
-88.9810170053
 11
49.7524161661
 21
-88.9810170053
  0
LINE
  5
25E
100
AcDbEntity
  8
RACCORDO
100
AcDbLine
 62
7
  6
CONTINUOUS
 10
-76.5
 20
114.7568523262
 11
-76.5
 21
-114.7568523262
  0
LINE
  5
25F
100
AcDbEntity
  8
RACCORDO
100
AcDbLine
 62
250
  6
CONTINUOUS
 10
-76.1465507535
 20
-114.4034030797
 11
-76.1465507535
 21
114.4034030797
  0
LWPOLYLINE
  5
260
100
AcDbEntity
  8
RACCORDO
100
AcDbPolyline
 62
250
  6
CONTINUOUS
 90
43
 70
0
 10
-76.1465507535
 20
114.4034030797
 10
-76.1425580706
 20
114.5947836707
 10
-76.1313738447
 20
114.7838731883
 10
-76.1132395607
 20
114.9704131249
 10
-76.0885097181
 20
115.1534680552
 10
-76.0573815211
 20
115.3335172516
 10
-76.0196405879
 20
115.5124112086
 10
-75.9751317727
 20
115.6906266616
 10
-75.9240421168
 20
115.8671885887
 10
-75.8664693961
 20
116.0417363705
 10
-75.8025106563
 20
116.2139857046
 10
-75.7322376903
 20
116.3837531594
 10
-75.6557335127
 20
116.5508365214
 10
-75.5730942714
 20
116.7150169911
 10
-75.4844331444
 20
116.8760621088
 10
-75.3898681014
 20
117.0337535226
 10
-75.2895246836
 20
117.1878754242
 10
-75.1835359504
 20
117.3382178306
 10
-75.0720427238
 20
117.4845779415
 10
-74.9551934301
 20
117.6267547635
 10
-74.8331435347
 20
117.7645536685
 10
-74.7060549468
 20
117.8977892513
 10
-74.574093023
 20
118.0262815328
 10
-74.4374376498
 20
118.1498493293
 10
-74.2962832722
 20
118.2683156072
 10
-74.1508363762
 20
118.3815047076
 10
-74.0012767606
 20
118.4892746634
 10
-73.8477653974
 20
118.5915060854
 10
-73.6904262095
 20
118.6880998777
 10
-73.5295447502
 20
118.7788649265
 10
-73.3655417238
 20
118.8635722646
 10
-73.1993007817
 20
118.9418286931
 10
-73.0304224635
 20
119.0138834367
 10
-72.8573363262
 20
119.0803123835
 10
-72.6796936039
 20
119.1410073893
 10
-72.4981797953
 20
119.1954924474
 10
-72.3127074891
 20
119.2435691062
 10
-72.1230786145
 20
119.2850190863
 10
-71.9299265523
 20
119.319434269
 10
-71.7344505039
 20
119.346414365
 10
-71.5372511033
 20
119.3657630191
 10
-71.3383082894
 20
119.3773669704
 10
-71.1379272718
 20
119.3810749456
  0
LWPOLYLINE
  5
261
100
AcDbEntity
  8
RACCORDO
100
AcDbPolyline
 62
250
  6
CONTINUOUS
 90
43
 70
0
 10
-73.5922154419
 20
114.4034030797
 10
-73.5905589806
 20
114.4802316057
 10
-73.5861879876
 20
114.5559296681
 10
-73.5791024521
 20
114.6304972669
 10
-73.5692912854
 20
114.7037512272
 10
-73.5567655348
 20
114.775874724
 10
-73.5415583838
 20
114.8474172817
 10
-73.5236508833
 20
114.9186739437
 10
-73.5030619022
 20
114.9893496668
 10
-73.4798813437
 20
115.0591088458
 10
-73.4541026825
 20
115.1279277843
 10
-73.4257323295
 20
115.1958301788
 10
-73.3948795885
 20
115.2625515141
 10
-73.3615333609
 20
115.3280909971
 10
-73.3257046019
 20
115.3924494209
 10
-73.2875356944
 20
115.4553646501
 10
-73.2470171204
 20
115.5168308526
 10
-73.2041582327
 20
115.5768538605
 10
-73.1591297242
 20
115.6351890348
 10
-73.1119227809
 20
115.6918296628
 10
-73.0625460379
 20
115.7467824573
 10
-73.0111963708
 20
115.7998229176
 10
-72.957863796
 20
115.850944737
 10
-72.9025581133
 20
115.9001542224
 10
-72.8455058879
 20
115.947245793
 10
-72.786706979
 20
115.9922066496
 10
-72.7261613484
 20
116.0350495916
 10
-72.6640957343
 20
116.0756074364
 10
-72.600469833
 20
116.1138860763
 10
-72.5353237787
 20
116.149879619
 10
-72.4690049965
 20
116.1834032055
 10
-72.401785709
 20
116.2143688141
 10
-72.3333935679
 20
116.2428644664
 10
-72.2633591314
 20
116.2689693676
 10
-72.19148396
 20
116.292812461
 10
-72.1179662816
 20
116.3142648034
 10
-72.0429316315
 20
116.3330187698
 10
-71.966191513
 20
116.3490857104
 10
-71.887934215
 20
116.3624542751
 10
-71.8088505044
 20
116.3727827881
 10
-71.7291706211
 20
116.3799573575
 10
-71.6486642248
 20
116.3840918752
 10
-71.5673312594
 20
116.3851863413
  0
LINE
  5
262
100
AcDbEntity
  8
RACCORDO
100
AcDbLine
 62
250
  6
CONTINUOUS
 10
-73.5922154419
 20
-114.4034030797
 11
-73.5922154419
 21
114.4034030797
  0
LWPOLYLINE
  5
263
100
AcDbEntity
  8
RACCORDO
100
AcDbPolyline
 62
7
  6
CONTINUOUS
 90
43
 70
0
 10
-49.7338775094
 20
-88.9624491947
 10
-49.7304585544
 20
-89.1486860886
 10
-49.7200874741
 20
-89.3345187012
 10
-49.7027642248
 20
-89.5199470327
 10
-49.6784361335
 20
-89.7053772807
 10
-49.6471556973
 20
-89.8904032476
 10
-49.6090805871
 20
-90.07380634
 10
-49.5641559671
 20
-90.2554842637
 10
-49.5124363315
 20
-90.435539313
 10
-49.4542433174
 20
-90.6130597766
 10
-49.3896704776
 20
-90.7877898524
 10
-49.3186237841
 20
-90.9599853424
 10
-49.2411434777
 20
-91.1295019415
 10
-49.1570998845
 20
-91.2966075386
 10
-49.0666220545
 20
-91.4610342447
 10
-48.9701383035
 20
-91.6218340877
 10
-48.8675545415
 20
-91.7790096546
 10
-48.7589641491
 20
-91.9325583585
 10
-48.6450766864
 20
-92.0815244659
 10
-48.5260094946
 20
-92.2257005003
 10
-48.4016445193
 20
-92.3652939382
 10
-48.2723382764
 20
-92.4999714763
 10
-48.1381049522
 20
-92.6297417933
 10
-47.998929614
 20
-92.7545962105
 10
-47.8551251326
 20
-92.874175388
 10
-47.7064773289
 20
-92.9886034134
 10
-47.5531996062
 20
-93.097756199
 10
-47.3962463041
 20
-93.2009021424
 10
-47.235617563
 20
-93.2979465375
 10
-47.0713126017
 20
-93.3889840903
 10
-46.904284544
 20
-93.4735673168
 10
-46.734801645
 20
-93.5515644172
 10
-46.5625951827
 20
-93.6231071913
 10
-46.3878129157
 20
-93.6881435545
 10
-46.2101979358
 20
-93.7467675033
 10
-46.0300066668
 20
-93.7988850412
 10
-45.8481569695
 20
-93.8441620941
 10
-45.6645465219
 20
-93.8825430357
 10
-45.4792773514
 20
-93.9140834923
 10
-45.2935740618
 20
-93.9386162692
 10
-45.1078448986
 20
-93.9560856348
 10
-44.9216816085
 20
-93.9665473207
 10
-44.7350841742
 20
-93.9700013268
  0
LINE
  5
264
100
AcDbEntity
  8
RACCORDO
100
AcDbLine
 62
250
  6
CONTINUOUS
 10
-50.3026426564
 20
-88.9810170053
 11
-50.3026426564
 21
88.9810170053
  0
LINE
  5
265
100
AcDbEntity
  8
RACCORDO
100
AcDbLine
 62
250
  6
CONTINUOUS
 10
-49.7524161661
 20
-88.9810170053
 11
-49.7524161661
 21
88.9810170053
  0
LINE
  5
266
100
AcDbEntity
  8
RACCORDO
100
AcDbLine
 62
7
  6
CONTINUOUS
 10
-49.7338775094
 20
88.9624491947
 11
-49.7338775094
 21
-88.9624491947
  0
LWPOLYLINE
  5
267
100
AcDbEntity
  8
RACCORDO
100
AcDbPolyline
 62
250
  6
CONTINUOUS
 90
43
 70
0
 10
-49.7524161661
 20
88.9810170053
 10
-49.7488880594
 20
89.169186836
 10
-49.7383517636
 20
89.3563565097
 10
-49.7209059383
 20
89.5422678864
 10
-49.6967084023
 20
89.7263375747
 10
-49.6658496277
 20
89.9086579741
 10
-49.6282297605
 20
90.0899767145
 10
-49.5837592509
 20
90.2704633688
 10
-49.5325525208
 20
90.4494308558
 10
-49.4747528334
 20
90.6263325483
 10
-49.4104815352
 20
90.8008324771
 10
-49.3398031102
 20
90.9727868089
 10
-49.2628226196
 20
91.1419521482
 10
-49.1796652802
 20
91.3080724339
 10
-49.09043998
 20
91.4709476231
 10
-48.9952331002
 20
91.6304212765
 10
-48.8941625916
 20
91.7862891855
 10
-48.7873759149
 20
91.9383175574
 10
-48.6750068318
 20
92.0863076106
 10
-48.5571927126
 20
92.2300695606
 10
-48.4341061748
 20
92.3693841829
 10
-48.3059479666
 20
92.5040195865
 10
-48.1729172272
 20
92.633770992
 10
-48.0351792174
 20
92.7584813959
 10
-47.8928953609
 20
92.8780013582
 10
-47.7462876865
 20
92.9921433913
 10
-47.5955316491
 20
93.1007699223
 10
-47.4407163334
 20
93.2038017405
 10
-47.2819663391
 20
93.3011280254
 10
-47.1195689013
 20
93.3925453897
 10
-46.9538651691
 20
93.4778478966
 10
-46.7854201949
 20
93.5567649738
 10
-46.6141431083
 20
93.6293591232
 10
-46.4393636802
 20
93.6958513078
 10
-46.2609325519
 20
93.756157541
 10
-46.0794142085
 20
93.809947254
 10
-45.8951889699
 20
93.856998457
 10
-45.7083019475
 20
93.8971899585
 10
-45.519202947
 20
93.9303158397
 10
-45.3289134585
 20
93.956143387
 10
-45.1379678867
 20
93.9746069545
 10
-44.9463964258
 20
93.9857114807
 10
-44.7544820396
 20
93.9894331493
  0
LWPOLYLINE
  5
268
100
AcDbEntity
  8
RACCORDO
100
AcDbPolyline
 62
250
  6
CONTINUOUS
 90
43
 70
0
 10
-50.3026426564
 20
88.9810170053
 10
-50.2985535853
 20
89.1884571991
 10
-50.2869803167
 20
89.3942412139
 10
-50.2679227976
 20
89.5983690496
 10
-50.2413658917
 20
89.8007515202
 10
-50.2073245273
 20
90.0014778118
 10
-50.1658436987
 20
90.2008154826
 10
-50.1168422585
 20
90.399235969
 10
-50.0604009441
 20
90.5962678346
 10
-49.9968075376
 20
90.7907643286
 10
-49.9260434811
 20
90.9826044914
 10
-49.8481267522
 20
91.1719092825
 10
-49.7633999173
 20
91.3578948304
 10
-49.6718532531
 20
91.54052113
 10
-49.5734957643
 20
91.7198281864
 10
-49.4686981077
 20
91.895152143
 10
-49.3574279699
 20
92.066499482
 10
-49.2397168394
 20
92.2338637212
 10
-49.1160310957
 20
92.3965615577
 10
-48.9863280994
 20
92.55459153
 10
-48.8506496038
 20
92.7079550996
 10
-48.7095886297
 20
92.8559733473
 10
-48.5631436045
 20
92.9986012698
 10
-48.4113152121
 20
93.1358838705
 10
-48.2546999375
 20
93.2672772396
 10
-48.0933142453
 20
93.3927455966
 10
-47.9271408154
 20
93.5123247221
 10
-47.7567255465
 20
93.6255780484
 10
-47.5819633871
 20
93.7325347189
 10
-47.4029585774
 20
93.8331655901
 10
-47.2205710835
 20
93.9269466641
 10
-47.0351695301
 20
94.0137364212
 10
-46.8463846586
 20
94.0936763812
 10
-46.6539696663
 20
94.1666671053
 10
-46.4575328445
 20
94.2328850436
 10
-46.2574651369
 20
94.2921537461
 10
-46.0546937913
 20
94.3438444236
 10
-45.8489588154
 20
94.3879043692
 10
-45.6405196366
 20
94.4243862898
 10
-45.4310829305
 20
94.4528195178
 10
-45.221217625
 20
94.473047164
 10
-45.0103546821
 20
94.4852261175
 10
-44.7984940257
 20
94.4893563784
  0
LWPOLYLINE
  5
269
100
AcDbEntity
  8
RACCORDO
100
AcDbPolyline
 62
250
  6
CONTINUOUS
 90
22
 70
0
 10
-44.7984940257
 20
94.4893563784
 10
-44.7983716489
 20
94.4524074164
 10
-44.7980049661
 20
94.4156605054
 10
-44.7973959825
 20
94.3793165913
 10
-44.7965480283
 20
94.3435744165
 10
-44.7954657404
 20
94.3086294328
 10
-44.7941550372
 20
94.2746727324
 10
-44.7926230861
 20
94.2418900036
 10
-44.7908782644
 20
94.2104605148
 10
-44.7889301134
 20
94.1805561342
 10
-44.7867892863
 20
94.1523403904
 10
-44.7844674901
 20
94.1259675777
 10
-44.7819774211
 20
94.1015819127
 10
-44.7793326961
 20
94.0793167454
 10
-44.7765477773
 20
94.0592938302
 10
-44.7736378938
 20
94.0416226599
 10
-44.7706189579
 20
94.0263998673
 10
-44.7675074783
 20
94.0137086963
 10
-44.7643204698
 20
94.003618547
 10
-44.76107536
 20
93.9961845962
 10
-44.7577898946
 20
93.9914474956
 10
-44.7544820396
 20
93.9894331493
  0
LWPOLYLINE
  5
26A
100
AcDbEntity
  8
RACCORDO
100
AcDbPolyline
 62
250
  6
CONTINUOUS
 90
22
 70
0
 10
-44.7984940257
 20
-94.4893563784
 10
-44.7983716481
 20
-94.4524073061
 10
-44.7980049633
 20
-94.4156602997
 10
-44.7973959768
 20
-94.3793163063
 10
-44.7965480188
 20
-94.3435740693
 10
-44.7954657268
 20
-94.3086290405
 10
-44.7941550193
 20
-94.2746723115
 10
-44.792623064
 20
-94.2418895702
 10
-44.7908782384
 20
-94.2104600837
 10
-44.7889300841
 20
-94.1805557181
 10
-44.7867892545
 20
-94.1523400006
 10
-44.7844674565
 20
-94.1259672237
 10
-44.7819773868
 20
-94.1015816007
 10
-44.779332662
 20
-94.0793164798
 10
-44.7765477446
 20
-94.0592936134
 10
-44.7736378634
 20
-94.041622491
 10
-44.7706189307
 20
-94.0263997437
 10
-44.7675074554
 20
-94.0137086134
 10
-44.7643204518
 20
-94.003618498
 10
-44.7610753475
 20
-93.9961845729
 10
-44.7577898881
 20
-93.9914474889
 10
-44.7544820396
 20
-93.9894331493
  0
LINE
  5
26B
100
AcDbEntity
  8
RACCORDO
100
AcDbLine
 62
250
  6
CONTINUOUS
 10
44.7350841742
 20
93.9700013268
 11
44.7544820396
 21
93.9894331493
  0
LINE
  5
26C
100
AcDbEntity
  8
RACCORDO
100
AcDbLine
 62
250
  6
CONTINUOUS
 10
49.7338775094
 20
88.9624491947
 11
49.7524161661
 21
88.9810170053
  0
LINE
  5
26D
100
AcDbEntity
  8
RACCORDO
100
AcDbLine
 62
250
  6
CONTINUOUS
 10
71.1379272718
 20
119.3810749456
 11
71.5068523262
 21
119.75
  0
LINE
  5
26E
100
AcDbEntity
  8
ASSI
100
AcDbLine
 62
7
  6
CONTINUOUS
 10
-9.1923881554
 20
-31.529462827
 11
-8.5
 21
-31.529462827
  0
LINE
  5
26F
100
AcDbEntity
  8
ASSI
100
AcDbLine
 62
7
  6
CONTINUOUS
 10
8.5
 20
-31.529462827
 11
9.1923881554
 21
-31.529462827
  0
LINE
  5
270
100
AcDbEntity
  8
RACCORDO
100
AcDbLine
 62
250
  6
CONTINUOUS
 10
71.5068523262
 20
-119.75
 11
71.1379272718
 21
-119.3810749456
  0
LINE
  5
271
100
AcDbEntity
  8
RACCORDO
100
AcDbLine
 62
250
  6
CONTINUOUS
 10
44.7350841742
 20
-93.9700013268
 11
44.7544820396
 21
-93.9894331493
  0
LINE
  5
272
100
AcDbEntity
  8
RACCORDO
100
AcDbLine
 62
250
  6
CONTINUOUS
 10
49.7338775094
 20
-88.9624491947
 11
49.7524161661
 21
-88.9810170053
  0
LINE
  5
273
100
AcDbEntity
  8
RACCORDO
100
AcDbLine
 62
250
  6
CONTINUOUS
 10
76.1465507535
 20
114.4034030797
 11
76.5
 21
114.7568523262
  0
LINE
  5
274
100
AcDbEntity
  8
RACCORDO
100
AcDbLine
 62
250
  6
CONTINUOUS
 10
76.5
 20
-114.7568523262
 11
76.1465507535
 21
-114.4034030797
  0
LINE
  5
275
100
AcDbEntity
  8
RACCORDO
100
AcDbLine
 62
250
  6
CONTINUOUS
 10
-49.7338775094
 20
-88.9624491947
 11
-49.7524161661
 21
-88.9810170053
  0
LINE
  5
276
100
AcDbEntity
  8
RACCORDO
100
AcDbLine
 62
250
  6
CONTINUOUS
 10
-76.1465507535
 20
-114.4034030797
 11
-76.5
 21
-114.7568523262
  0
LINE
  5
277
100
AcDbEntity
  8
RACCORDO
100
AcDbLine
 62
250
  6
CONTINUOUS
 10
-76.5
 20
114.7568523262
 11
-76.1465507535
 21
114.4034030797
  0
LINE
  5
278
100
AcDbEntity
  8
RACCORDO
100
AcDbLine
 62
250
  6
CONTINUOUS
 10
-49.7338775094
 20
88.9624491947
 11
-49.7524161661
 21
88.9810170053
  0
LINE
  5
279
100
AcDbEntity
  8
RACCORDO
100
AcDbLine
 62
250
  6
CONTINUOUS
 10
-44.7350841742
 20
-93.9700013268
 11
-44.7544820396
 21
-93.9894331493
  0
LINE
  5
27A
100
AcDbEntity
  8
RACCORDO
100
AcDbLine
 62
250
  6
CONTINUOUS
 10
-71.1379272718
 20
-119.3810749456
 11
-71.5068523262
 21
-119.75
  0
LINE
  5
27B
100
AcDbEntity
  8
ASSI
100
AcDbLine
 62
7
  6
CONTINUOUS
 10
9.1923881554
 20
31.529462827
 11
8.5
 21
31.529462827
  0
LINE
  5
27C
100
AcDbEntity
  8
ASSI
100
AcDbLine
 62
7
  6
CONTINUOUS
 10
-8.5
 20
31.529462827
 11
-9.1923881554
 21
31.529462827
  0
LWPOLYLINE
  5
27D
100
AcDbEntity
  8
0
100
AcDbPolyline
 62
7
  6
CONTINUOUS
 90
3
 70
0
 43
0.3499999917
 10
96.1827685547
 20
2.2142871094
 10
96.3970495605
 20
2.142855835
 10
96.6827682495
 20
1.9999996948
  0
LINE
  5
27E
100
AcDbEntity
  8
RACCORDO
100
AcDbLine
 62
250
  6
CONTINUOUS
 10
-71.5068523262
 20
119.75
 11
-71.1379272718
 21
119.3810749456
  0
LINE
  5
27F
100
AcDbEntity
  8
RACCORDO
100
AcDbLine
 62
250
  6
CONTINUOUS
 10
-44.7350841742
 20
93.9700013268
 11
-44.7544820396
 21
93.9894331493
  0
LWPOLYLINE
  5
280
100
AcDbEntity
  8
RACCORDO
100
AcDbPolyline
 62
250
  6
CONTINUOUS
 90
22
 70
0
 10
44.7984940257
 20
-94.4893563784
 10
44.7983716489
 20
-94.4524074165
 10
44.7980049661
 20
-94.4156605055
 10
44.7973959825
 20
-94.3793165915
 10
44.7965480283
 20
-94.3435744167
 10
44.7954657405
 20
-94.308629433
 10
44.7941550372
 20
-94.2746727327
 10
44.7926230861
 20
-94.2418900039
 10
44.7908782644
 20
-94.210460515
 10
44.7889301134
 20
-94.1805561345
 10
44.7867892864
 20
-94.1523403906
 10
44.7844674901
 20
-94.1259675779
 10
44.7819774212
 20
-94.1015819129
 10
44.7793326961
 20
-94.0793167456
 10
44.7765477773
 20
-94.0592938303
 10
44.7736378938
 20
-94.0416226601
 10
44.7706189579
 20
-94.0263998674
 10
44.7675074783
 20
-94.0137086964
 10
44.7643204698
 20
-94.0036185471
 10
44.76107536
 20
-93.9961845962
 10
44.7577898946
 20
-93.9914474956
 10
44.7544820396
 20
-93.9894331493
  0
LWPOLYLINE
  5
281
100
AcDbEntity
  8
RACCORDO
100
AcDbPolyline
 62
250
  6
CONTINUOUS
 90
22
 70
0
 10
44.7984940257
 20
94.4893563784
 10
44.7983716481
 20
94.4524073061
 10
44.7980049633
 20
94.4156602997
 10
44.7973959768
 20
94.3793163062
 10
44.7965480188
 20
94.3435740693
 10
44.7954657268
 20
94.3086290405
 10
44.7941550193
 20
94.2746723115
 10
44.792623064
 20
94.2418895702
 10
44.7908782384
 20
94.2104600837
 10
44.7889300841
 20
94.1805557181
 10
44.7867892545
 20
94.1523400006
 10
44.7844674565
 20
94.1259672237
 10
44.7819773868
 20
94.1015816007
 10
44.779332662
 20
94.0793164798
 10
44.7765477446
 20
94.0592936134
 10
44.7736378634
 20
94.041622491
 10
44.7706189307
 20
94.0263997437
 10
44.7675074554
 20
94.0137086134
 10
44.7643204518
 20
94.003618498
 10
44.7610753475
 20
93.9961845729
 10
44.7577898881
 20
93.9914474889
 10
44.7544820396
 20
93.9894331493
  0
LWPOLYLINE
  5
282
100
AcDbEntity
  8
0
100
AcDbPolyline
 62
7
  6
CONTINUOUS
 90
10
 70
0
 43
0.3499999917
 10
95.9684811401
 20
2.142855835
 10
96.1113372803
 20
2.2142871094
 10
96.1827685547
 20
2.2142871094
 10
96.3256246948
 20
2.0714277649
 10
96.3256246948
 20
1.9999996948
 10
96.2541934204
 20
1.9285716248
 10
96.1827685547
 20
1.9285716248
 10
96.0399060059
 20
1.9999996948
 10
95.9684811401
 20
2.0714277649
 10
95.9684811401
 20
2.142855835
  0
LWPOLYLINE
  5
283
100
AcDbEntity
  8
RACCORDO
100
AcDbPolyline
 62
7
  6
CONTINUOUS
 90
43
 70
0
 10
49.7338775094
 20
88.9624491947
 10
49.7304585544
 20
89.1486860886
 10
49.7200874741
 20
89.3345187012
 10
49.7027642248
 20
89.5199470327
 10
49.6784361335
 20
89.7053772807
 10
49.6471556973
 20
89.8904032476
 10
49.6090805871
 20
90.07380634
 10
49.5641559671
 20
90.2554842637
 10
49.5124363315
 20
90.435539313
 10
49.4542433174
 20
90.6130597766
 10
49.3896704776
 20
90.7877898524
 10
49.3186237841
 20
90.9599853424
 10
49.2411434777
 20
91.1295019415
 10
49.1570998845
 20
91.2966075386
 10
49.0666220545
 20
91.4610342447
 10
48.9701383035
 20
91.6218340877
 10
48.8675545415
 20
91.7790096546
 10
48.7589641491
 20
91.9325583585
 10
48.6450766864
 20
92.0815244659
 10
48.5260094946
 20
92.2257005003
 10
48.4016445193
 20
92.3652939382
 10
48.2723382764
 20
92.4999714763
 10
48.1381049522
 20
92.6297417933
 10
47.998929614
 20
92.7545962105
 10
47.8551251326
 20
92.874175388
 10
47.7064773289
 20
92.9886034134
 10
47.5531996062
 20
93.097756199
 10
47.3962463041
 20
93.2009021424
 10
47.235617563
 20
93.2979465375
 10
47.0713126017
 20
93.3889840903
 10
46.904284544
 20
93.4735673168
 10
46.734801645
 20
93.5515644172
 10
46.5625951827
 20
93.6231071913
 10
46.3878129157
 20
93.6881435545
 10
46.2101979358
 20
93.7467675033
 10
46.0300066668
 20
93.7988850412
 10
45.8481569695
 20
93.8441620941
 10
45.6645465219
 20
93.8825430357
 10
45.4792773514
 20
93.9140834923
 10
45.2935740618
 20
93.9386162692
 10
45.1078448986
 20
93.9560856348
 10
44.9216816085
 20
93.9665473207
 10
44.7350841742
 20
93.9700013268
  0
LINE
  5
284
100
AcDbEntity
  8
RACCORDO
100
AcDbLine
 62
7
  6
CONTINUOUS
 10
49.7338775094
 20
88.9624491947
 11
49.7338775094
 21
-88.9624491947
  0
LINE
  5
285
100
AcDbEntity
  8
RACCORDO
100
AcDbLine
 62
250
  6
CONTINUOUS
 10
49.7524161661
 20
88.9810170053
 11
49.7524161661
 21
-88.9810170053
  0
LINE
  5
286
100
AcDbEntity
  8
RACCORDO
100
AcDbLine
 62
250
  6
CONTINUOUS
 10
50.3026426564
 20
88.9810170053
 11
50.3026426564
 21
-88.9810170053
  0
LWPOLYLINE
  5
287
100
AcDbEntity
  8
RACCORDO
100
AcDbPolyline
 62
250
  6
CONTINUOUS
 90
43
 70
0
 10
49.7524161661
 20
-88.9810170053
 10
49.7488883852
 20
-89.1691781519
 10
49.7383530247
 20
-89.3563397107
 10
49.7209086776
 20
-89.5422435719
 10
49.6967132033
 20
-89.7263056389
 10
49.6658569521
 20
-89.908619071
 10
49.6282395215
 20
-90.0899336787
 10
49.5837707609
 20
-90.2704201222
 10
49.5325650051
 20
-90.4493900992
 10
49.4747656455
 20
-90.6262956679
 10
49.4104941377
 20
-90.8008001233
 10
49.339814608
 20
-90.9727602466
 10
49.2628316027
 20
-91.1419333402
 10
49.1796696378
 20
-91.3080641182
 10
49.0904378008
 20
-91.4709514325
 10
48.9952234513
 20
-91.6304367787
 10
48.8941442609
 20
-91.7863163389
 10
48.7873479814
 20
-91.9383557984
 10
48.6749707782
 20
-92.0863533079
 10
48.5571515433
 20
-92.2301179368
 10
48.434062176
 20
-92.369432157
 10
48.3059026626
 20
-92.5040654443
 10
48.1728725482
 20
-92.6338129793
 10
48.0351370466
 20
-92.7585181762
 10
47.8928558078
 20
-92.8780333494
 10
47.7462501558
 20
-92.9921715071
 10
47.5954961481
 20
-93.1007945132
 10
47.4406828769
 20
-93.2038231192
 10
47.2819348453
 20
-93.3011465353
 10
47.1195393345
 20
-93.3925613147
 10
46.9538377366
 20
-93.4778613773
 10
46.7853952589
 20
-93.5567760949
 10
46.6141208664
 20
-93.629368065
 10
46.4393440999
 20
-93.6958583398
 10
46.2609155118
 20
-93.7561629442
 10
46.0793996405
 20
-93.8099512719
 10
45.8951767817
 20
-93.8570013236
 10
45.708292006
 20
-93.8971918979
 10
45.5191951307
 20
-93.9303170543
 10
45.3289077024
 20
-93.9561440556
 10
45.1379641381
 20
-93.9746072443
 10
44.946394599
 20
-93.9857115513
 10
44.7544820396
 20
-93.9894331493
  0
LWPOLYLINE
  5
288
100
AcDbEntity
  8
RACCORDO
100
AcDbPolyline
 62
250
  6
CONTINUOUS
 90
43
 70
0
 10
50.3026426564
 20
-88.9810170053
 10
50.2985540672
 20
-89.1884476006
 10
50.2869818043
 20
-89.3942227004
 10
50.2679258151
 20
-89.5983423049
 10
50.2413712996
 20
-89.8007164424
 10
50.2073328497
 20
-90.0014350846
 10
50.1658544496
 20
-90.2007681463
 10
50.1168547339
 20
-90.3991883774
 10
50.0604146581
 20
-90.5962230281
 10
49.9968216482
 20
-90.7907237635
 10
49.926057351
 20
-90.98256892
 10
49.8481395395
 20
-91.1718801613
 10
49.7634098107
 20
-91.3578741436
 10
49.6718578312
 20
-91.5405118671
 10
49.5734932156
 20
-91.7198323317
 10
49.4686874812
 20
-91.8951691934
 10
49.3574075848
 20
-92.0665291611
 10
49.2396857444
 20
-92.2339055259
 10
49.1159913898
 20
-92.3966118175
 10
48.9862829865
 20
-92.5546448667
 10
48.8506011833
 20
-92.7080078426
 10
48.7095387369
 20
-92.8560237824
 10
48.5630945849
 20
-92.9986476311
 10
48.4112689016
 20
-93.1359244438
 10
48.2546563784
 20
-93.2673124228
 10
48.0932728991
 20
-93.3927765132
 10
47.9271017245
 20
-93.5123517699
 10
47.7566887018
 20
-93.6256015592
 10
47.5819286852
 20
-93.7325550539
 10
47.4029260094
 20
-93.8331830811
 10
47.220540873
 20
-93.9269614883
 10
47.0351420718
 20
-94.0137486703
 10
46.8463601761
 20
-94.0936862323
 10
46.6539481034
 20
-94.1666748374
 10
46.4575140719
 20
-94.2328909827
 10
46.2574490982
 20
-94.2921581711
 10
46.0546803691
 20
-94.343847575
 10
45.8489478602
 20
-94.3879064924
 10
45.6405110309
 20
-94.4243876253
 10
45.4310765915
 20
-94.4528202525
 10
45.2212134817
 20
-94.4730474669
 10
45.0103526518
 20
-94.4852261755
 10
44.7984940257
 20
-94.4893563784
  0
LINE
  5
289
100
AcDbEntity
  8
RACCORDO
100
AcDbLine
 62
250
  6
CONTINUOUS
 10
73.5922154419
 20
114.4034030797
 11
73.5922154419
 21
-114.4034030797
  0
LINE
  5
28A
100
AcDbEntity
  8
RACCORDO
100
AcDbLine
 62
250
  6
CONTINUOUS
 10
76.1465507535
 20
114.4034030797
 11
76.1465507535
 21
-114.4034030797
  0
LINE
  5
28B
100
AcDbEntity
  8
RACCORDO
100
AcDbLine
 62
7
  6
CONTINUOUS
 10
76.5
 20
114.7568523262
 11
76.5
 21
-114.7568523262
  0
LWPOLYLINE
  5
28C
100
AcDbEntity
  8
RACCORDO
100
AcDbPolyline
 62
250
  6
CONTINUOUS
 90
43
 70
0
 10
73.5922154419
 20
-114.4034030797
 10
73.5905589806
 20
-114.4802316057
 10
73.5861879876
 20
-114.5559296681
 10
73.5791024521
 20
-114.6304972669
 10
73.5692912854
 20
-114.7037512272
 10
73.5567655348
 20
-114.775874724
 10
73.5415583838
 20
-114.8474172817
 10
73.5236508833
 20
-114.9186739437
 10
73.5030619022
 20
-114.9893496668
 10
73.4798813437
 20
-115.0591088458
 10
73.4541026825
 20
-115.1279277843
 10
73.4257323295
 20
-115.1958301788
 10
73.3948795885
 20
-115.2625515141
 10
73.3615333609
 20
-115.3280909971
 10
73.3257046019
 20
-115.3924494209
 10
73.2875356944
 20
-115.4553646501
 10
73.2470171204
 20
-115.5168308526
 10
73.2041582327
 20
-115.5768538605
 10
73.1591297242
 20
-115.6351890348
 10
73.1119227809
 20
-115.6918296628
 10
73.0625460379
 20
-115.7467824573
 10
73.0111963708
 20
-115.7998229176
 10
72.957863796
 20
-115.850944737
 10
72.9025581133
 20
-115.9001542224
 10
72.8455058879
 20
-115.947245793
 10
72.786706979
 20
-115.9922066496
 10
72.7261613484
 20
-116.0350495916
 10
72.6640957343
 20
-116.0756074364
 10
72.600469833
 20
-116.1138860763
 10
72.5353237787
 20
-116.149879619
 10
72.4690049965
 20
-116.1834032055
 10
72.401785709
 20
-116.2143688141
 10
72.3333935679
 20
-116.2428644664
 10
72.2633591314
 20
-116.2689693676
 10
72.19148396
 20
-116.292812461
 10
72.1179662816
 20
-116.3142648034
 10
72.0429316315
 20
-116.3330187698
 10
71.966191513
 20
-116.3490857104
 10
71.887934215
 20
-116.3624542751
 10
71.8088505044
 20
-116.3727827881
 10
71.7291706211
 20
-116.3799573575
 10
71.6486642248
 20
-116.3840918752
 10
71.5673312594
 20
-116.3851863413
  0
LWPOLYLINE
  5
28D
100
AcDbEntity
  8
0
100
AcDbPolyline
 62
7
  6
CONTINUOUS
 90
10
 70
0
 43
0.3499999917
 10
96.468480835
 20
-0.4285707092
 10
95.6113375854
 20
0.4285725403
 10
94.7541943359
 20
0.6428567505
 10
93.8970510864
 20
0.6428567505
 10
93.468482666
 20
0.2142851257
 10
93.468482666
 20
-0.4285707092
 10
93.8970510864
 20
-0.857142334
 10
94.7541943359
 20
-0.857142334
 10
95.182769165
 20
-0.4285707092
 10
95.182769165
 20
0.5000006104
  0
LWPOLYLINE
  5
28E
100
AcDbEntity
  8
RACCORDO
100
AcDbPolyline
 62
250
  6
CONTINUOUS
 90
43
 70
0
 10
76.1465507535
 20
-114.4034030797
 10
76.1425580706
 20
-114.5947836707
 10
76.1313738447
 20
-114.7838731883
 10
76.1132395607
 20
-114.9704131249
 10
76.0885097181
 20
-115.1534680552
 10
76.0573815211
 20
-115.3335172516
 10
76.0196405879
 20
-115.5124112086
 10
75.9751317727
 20
-115.6906266616
 10
75.9240421168
 20
-115.8671885887
 10
75.8664693961
 20
-116.0417363705
 10
75.8025106563
 20
-116.2139857046
 10
75.7322376903
 20
-116.3837531594
 10
75.6557335127
 20
-116.5508365214
 10
75.5730942714
 20
-116.7150169911
 10
75.4844331444
 20
-116.8760621088
 10
75.3898681014
 20
-117.0337535226
 10
75.2895246836
 20
-117.1878754242
 10
75.1835359504
 20
-117.3382178306
 10
75.0720427238
 20
-117.4845779415
 10
74.9551934301
 20
-117.6267547635
 10
74.8331435347
 20
-117.7645536685
 10
74.7060549468
 20
-117.8977892513
 10
74.574093023
 20
-118.0262815328
 10
74.4374376498
 20
-118.1498493293
 10
74.2962832722
 20
-118.2683156072
 10
74.1508363762
 20
-118.3815047076
 10
74.0012767606
 20
-118.4892746634
 10
73.8477653974
 20
-118.5915060854
 10
73.6904262095
 20
-118.6880998777
 10
73.5295447502
 20
-118.7788649265
 10
73.3655417238
 20
-118.8635722646
 10
73.1993007817
 20
-118.9418286931
 10
73.0304224635
 20
-119.0138834367
 10
72.8573363262
 20
-119.0803123835
 10
72.6796936039
 20
-119.1410073893
 10
72.4981797953
 20
-119.1954924474
 10
72.3127074891
 20
-119.2435691062
 10
72.1230786145
 20
-119.2850190863
 10
71.9299265523
 20
-119.319434269
 10
71.7344505039
 20
-119.346414365
 10
71.5372511033
 20
-119.3657630191
 10
71.3383082894
 20
-119.3773669704
 10
71.1379272718
 20
-119.3810749456
  0
LWPOLYLINE
  5
28F
100
AcDbEntity
  8
0
100
AcDbPolyline
 62
7
  6
CONTINUOUS
 90
5
 70
0
 43
0.3499999917
 10
94.7541943359
 20
-2.1428572083
 10
94.5399069214
 20
-1.7857136536
 10
93.8970510864
 20
-1.7857136536
 10
93.468482666
 20
-2.1428572083
 10
93.468482666
 20
-3.0000004578
  0
LWPOLYLINE
  5
290
100
AcDbEntity
  8
RACCORDO
100
AcDbPolyline
 62
7
  6
CONTINUOUS
 90
43
 70
0
 10
-44.7350841742
 20
93.9700013268
 10
-44.9216686394
 20
93.9665478489
 10
-45.1078193284
 20
93.9560875836
 10
-45.2935362588
 20
93.938620531
 10
-45.4792281472
 20
93.9140908165
 10
-45.6644862846
 20
93.8825543147
 10
-45.8480846757
 20
93.8441786488
 10
-46.029918365
 20
93.7989093491
 10
-46.210092603
 20
93.7468008853
 10
-46.3876969216
 20
93.6881842893
 10
-46.5624791388
 20
93.6231522674
 10
-46.7346919193
 20
93.5516121133
 10
-46.9041821695
 20
93.4736167405
 10
-47.0712182739
 20
93.3890336529
 10
-47.2355323145
 20
93.2979953464
 10
-47.3961668453
 20
93.2009522229
 10
-47.5531199789
 20
93.0978111595
 10
-47.7063942443
 20
92.988665279
 10
-47.8550389865
 20
92.8742443514
 10
-47.9988412999
 20
92.7546727784
 10
-48.1380148657
 20
92.6298261582
 10
-48.2722490035
 20
92.5000610551
 10
-48.4015603111
 20
92.3653844687
 10
-48.5259329366
 20
92.2257893995
 10
-48.6450075579
 20
92.0816114125
 10
-48.7589018666
 20
91.9326426089
 10
-48.8674988844
 20
91.7790908876
 10
-48.9700873353
 20
91.6219155106
 10
-49.0665723036
 20
91.4611217103
 10
-49.1570494146
 20
91.2967042544
 10
-49.2410932427
 20
91.1296067076
 10
-49.3185754528
 20
90.9600972417
 10
-49.3896250037
 20
90.7879076849
 10
-49.454202399
 20
90.613177087
 10
-49.5124029391
 20
90.435645357
 10
-49.5641317986
 20
90.2555725859
 10
-49.6090642671
 20
90.0738780968
 10
-49.6471446686
 20
89.8904625727
 10
-49.6784290208
 20
89.7054253305
 10
-49.7027601257
 20
89.5199836442
 10
-49.7200856437
 20
89.3345432718
 10
-49.7304580904
 20
89.1486984553
 10
-49.7338775094
 20
88.9624491947
  0
LINE
  5
291
100
AcDbEntity
  8
RACCORDO
100
AcDbLine
 62
250
  6
CONTINUOUS
 10
-50.3026426564
 20
88.9810170053
 11
-49.7524161661
 21
88.9810170053
  0
LINE
  5
292
100
AcDbEntity
  8
RACCORDO
100
AcDbLine
 62
250
  6
CONTINUOUS
 10
50.3026426564
 20
88.9810170053
 11
49.7524161661
 21
88.9810170053
  0
LINE
  5
293
100
AcDbEntity
  8
RACCORDO
100
AcDbLine
 62
7
  6
CONTINUOUS
 10
44.7350841742
 20
93.9700013268
 11
-44.7350841742
 21
93.9700013268
  0
LINE
  5
294
100
AcDbEntity
  8
SUPERFICI
100
AcDbLine
 62
7
  6
CONTINUOUS
 10
44.7350841742
 20
93.97
 11
-44.7350841742
 21
93.97
  0
LINE
  5
295
100
AcDbEntity
  8
RACCORDO
100
AcDbLine
 62
250
  6
CONTINUOUS
 10
-44.7544820396
 20
93.9894331493
 11
44.7544820396
 21
93.9894331493
  0
LINE
  5
296
100
AcDbEntity
  8
RACCORDO
100
AcDbLine
 62
250
  6
CONTINUOUS
 10
-44.7984940257
 20
94.4893563784
 11
44.7984940257
 21
94.4893563784
  0
LWPOLYLINE
  5
297
100
AcDbEntity
  8
RACCORDO
100
AcDbPolyline
 62
250
  6
CONTINUOUS
 90
43
 70
0
 10
44.7544820396
 20
93.9894331493
 10
44.9433174982
 20
93.9858295755
 10
45.1311375731
 20
93.9751302678
 10
45.3176799175
 20
93.9574353757
 10
45.5023623408
 20
93.9329033949
 10
45.6852680408
 20
93.9016274118
 10
45.8671253566
 20
93.8635134094
 10
46.0481157516
 20
93.8184700619
 10
46.2275336459
 20
93.766619102
 10
46.4047702312
 20
93.7081318951
 10
46.5794706984
 20
93.6431482722
 10
46.7515114587
 20
93.5717372604
 10
46.9206489873
 20
93.4940186405
 10
47.0866179474
 20
93.4101347504
 10
47.2492340477
 20
93.3201995077
 10
47.4083776456
 20
93.2242923959
 10
47.5638481288
 20
93.1225369997
 10
47.7154138758
 20
93.0150876648
 10
47.8629074078
 20
92.9020663051
 10
48.0061469198
 20
92.7836075724
 10
48.1449083691
 20
92.6598919096
 10
48.2789696589
 20
92.5311202858
 10
48.4081376824
 20
92.397483165
 10
48.5322464126
 20
92.2591573994
 10
48.651127848
 20
92.1163369733
 10
48.7646010834
 20
91.9692463724
 10
48.872532528
 20
91.8180661688
 10
48.9748278417
 20
91.6629269375
 10
49.0713772657
 20
91.5039734352
 10
49.1619980582
 20
91.3414833062
 10
49.2465020658
 20
91.1757957178
 10
49.3246212165
 20
91.0074986759
 10
49.3964374761
 20
90.8364831998
 10
49.4622072682
 20
90.6620108512
 10
49.5218547415
 20
90.4839113368
 10
49.5750467219
 20
90.3027648716
 10
49.6215713256
 20
90.1189346164
 10
49.661310316
 20
89.9324515606
 10
49.6940560441
 20
89.7437725654
 10
49.7195778407
 20
89.5539332955
 10
49.7378124114
 20
89.3634706826
 10
49.7487659857
 20
89.1724054893
 10
49.7524161661
 20
88.9810170053
  0
LWPOLYLINE
  5
298
100
AcDbEntity
  8
RACCORDO
100
AcDbPolyline
 62
250
  6
CONTINUOUS
 90
43
 70
0
 10
44.7984940257
 20
94.4893563784
 10
45.0069159925
 20
94.4852189589
 10
45.2136552764
 20
94.473513189
 10
45.4187120308
 20
94.4542390687
 10
45.6220069403
 20
94.4273776617
 10
45.8236196334
 20
94.3929479043
 10
46.0237886525
 20
94.3510066056
 10
46.2230002594
 20
94.3014616302
 10
46.4207684115
 20
94.2444051135
 10
46.6158733037
 20
94.1801702706
 10
46.8081692647
 20
94.1087411577
 10
46.9978024984
 20
94.0301337186
 10
47.1839912291
 20
93.9447289991
 10
47.3666814281
 20
93.8525272215
 10
47.5459278017
 20
93.7535281636
 10
47.7211118193
 20
93.6481122037
 10
47.8922429002
 20
93.5362521803
 10
48.0593123943
 20
93.4179752551
 10
48.2216747829
 20
93.2937432917
 10
48.3793373967
 20
93.1635113677
 10
48.5322937502
 20
93.0273244057
 10
48.6798777085
 20
92.8857790367
 10
48.8220537624
 20
92.7388618962
 10
48.9588583157
 20
92.5865863487
 10
49.0897331857
 20
92.4295891193
 10
49.2146385807
 20
92.2678826287
 10
49.3336151789
 20
92.1014544561
 10
49.4462255511
 20
91.9309040637
 10
49.5524854176
 20
91.7561433744
 10
49.6523798812
 20
91.5772604652
 10
49.7454256129
 20
91.3951190299
 10
49.8314772672
 20
91.2101144338
 10
49.9106809282
 20
91.0218513116
 10
49.9829904025
 20
90.8300072607
 10
50.0485953569
 20
90.6341747494
 10
50.1073066926
 20
90.4347613094
 10
50.15851005
 20
90.2326671346
 10
50.2021564102
 20
90.0276215499
 10
50.2382952252
 20
89.8198952304
 10
50.2664598232
 20
89.6112003943
 10
50.2864947294
 20
89.4021077812
 10
50.2985556542
 20
89.1920466515
 10
50.3026426564
 20
88.9810170053
  0
LWPOLYLINE
  5
299
100
AcDbEntity
  8
0
100
AcDbPolyline
 62
7
  6
CONTINUOUS
 90
7
 70
0
 43
0.3499999917
 10
96.468480835
 20
-3.8571421051
 10
96.468480835
 20
-5.3571427917
 10
94.3256259155
 20
-3.8571421051
 10
93.8970510864
 20
-3.8571421051
 10
93.468482666
 20
-4.2857137299
 10
93.468482666
 20
-4.928571167
 10
94.111338501
 20
-5.3571427917
  0
LWPOLYLINE
  5
29A
100
AcDbEntity
  8
0
100
AcDbPolyline
 62
7
  6
CONTINUOUS
 90
6
 70
0
 43
0.3499999917
 10
96.468480835
 20
-3.0000004578
 10
96.468480835
 20
-1.9285713959
 10
96.2541934204
 20
-1.7142855835
 10
95.182769165
 20
-1.7142855835
 10
94.7541943359
 20
-2.1428572083
 10
94.7541943359
 20
-2.571428833
  0
LWPOLYLINE
  5
29B
100
AcDbEntity
  8
0
100
AcDbPolyline
 62
7
  6
CONTINUOUS
 90
8
 70
0
 43
0.3499999917
 10
96.468480835
 20
3.214286499
 10
96.468480835
 20
4.0714297485
 10
96.0399060059
 20
4.5000013733
 10
95.182769165
 20
4.5000013733
 10
94.7541943359
 20
4.0714297485
 10
94.7541943359
 20
3.214286499
 10
93.468482666
 20
3.214286499
 10
93.468482666
 20
4.5000013733
  0
LINE
  5
29C
100
AcDbEntity
  8
RACCORDO
100
AcDbLine
 62
250
  6
CONTINUOUS
 10
-76.1465507535
 20
114.4034030797
 11
-73.5922154419
 21
114.4034030797
  0
LINE
  5
29D
100
AcDbEntity
  8
RACCORDO
100
AcDbLine
 62
250
  6
CONTINUOUS
 10
76.1465507535
 20
114.4034030797
 11
73.5922154419
 21
114.4034030797
  0
LINE
  5
29E
100
AcDbEntity
  8
RACCORDO
100
AcDbLine
 62
250
  6
CONTINUOUS
 10
66.9640391112
 20
116.3516971169
 11
71.5673312594
 21
116.3851863413
  0
LINE
  5
29F
100
AcDbEntity
  8
RACCORDO
100
AcDbLine
 62
250
  6
CONTINUOUS
 10
57.8138831178
 20
116.2916946208
 11
66.9640391112
 21
116.3516971169
  0
LINE
  5
2A0
100
AcDbEntity
  8
RACCORDO
100
AcDbLine
 62
7
  6
CONTINUOUS
 10
-71.5068523262
 20
119.75
 11
71.5068523262
 21
119.75
  0
LWPOLYLINE
  5
2A1
100
AcDbEntity
  8
RACCORDO
100
AcDbPolyline
 62
250
  6
CONTINUOUS
 90
27
 70
0
 10
-54.1447516445
 20
116.2700990518
 10
-49.9173705216
 20
116.2470787682
 10
-45.6855921894
 20
116.2259453114
 10
-41.4322580295
 20
116.2065703658
 10
-37.1751117368
 20
116.189082247
 10
-32.9153111815
 20
116.1734897294
 10
-28.653466222
 20
116.1597949663
 10
-24.3895890644
 20
116.1479958044
 10
-20.1239429742
 20
116.1380945584
 10
-15.8567826772
 20
116.1300915908
 10
-11.5884757116
 20
116.123986539
 10
-7.3194547358
 20
116.1197806301
 10
-3.0503630483
 20
116.1174738629
 10
1.2188199002
 20
116.1170662386
 10
5.4886572062
 20
116.1185589882
 10
9.7604901412
 20
116.1219563268
 10
14.0323534173
 20
116.1272540392
 10
18.2998523794
 20
116.1344407114
 10
22.5446466735
 20
116.1434412536
 10
26.7844765104
 20
116.1543307555
 10
31.0690098454
 20
116.1673230714
 10
35.4136694298
 20
116.182421677
 10
39.8022194354
 20
116.1996230966
 10
44.2367394805
 20
116.219130758
 10
48.7257714311
 20
116.2410061119
 10
53.2598082988
 20
116.2651877076
 10
57.8138831178
 20
116.2916946208
  0
LINE
  5
2A2
100
AcDbEntity
  8
RACCORDO
100
AcDbLine
 62
250
  6
CONTINUOUS
 10
-58.923207942
 20
116.2986004108
 11
-54.1447516445
 21
116.2700990518
  0
LWPOLYLINE
  5
2A3
100
AcDbEntity
  8
RACCORDO
100
AcDbPolyline
 62
250
  6
CONTINUOUS
 90
4
 70
0
 10
-71.5673312594
 20
116.3851863413
 10
-67.1391605716
 20
116.3529886737
 10
-62.7561428483
 20
116.3230540045
 10
-58.923207942
 20
116.2986004108
  0
LWPOLYLINE
  5
2A4
100
AcDbEntity
  8
RACCORDO
100
AcDbPolyline
 62
250
  6
CONTINUOUS
 90
34
 70
0
 10
-71.1379272718
 20
119.3810749456
 10
-66.7355083078
 20
119.348877278
 10
-62.3789603537
 20
119.3189426088
 10
-58.0682834095
 20
119.291270938
 10
-53.8201327951
 20
119.265987656
 10
-49.6178531906
 20
119.2429673725
 10
-45.4114786362
 20
119.2218339156
 10
-41.1837651502
 20
119.2024589701
 10
-36.9519567143
 20
119.1849708513
 10
-32.7178193144
 20
119.1693783337
 10
-28.4816483026
 20
119.1556835706
 10
-24.2431483267
 20
119.1438844087
 10
-20.0031993163
 20
119.1339831627
 10
-15.7617449757
 20
119.125980195
 10
-11.5188416005
 20
119.1198751432
 10
-7.2755380074
 20
119.1156692344
 10
-3.0321639045
 20
119.1133624671
 10
1.2116104163
 20
119.1129548428
 10
5.4557252629
 20
119.1144475924
 10
9.7018218569
 20
119.117844931
 10
13.9482589767
 20
119.1231426435
 10
18.1900532652
 20
119.1303293156
 10
22.4093226325
 20
119.1393298579
 10
26.6239491685
 20
119.1502193598
 10
30.8825957864
 20
119.1632116757
 10
35.2010843169
 20
119.1783102813
 10
39.5635929292
 20
119.1955117008
 10
43.9713190436
 20
119.2150193622
 10
48.4332436831
 20
119.2368947161
 10
52.9403858245
 20
119.2610763118
 10
57.4669998191
 20
119.2875832251
 10
62.0045037836
 20
119.3164218144
 10
66.5614796012
 20
119.3475857212
 10
71.1379272718
 20
119.3810749456
  0
LWPOLYLINE
  5
2A5
100
AcDbEntity
  8
RACCORDO
100
AcDbPolyline
 62
250
  6
CONTINUOUS
 90
43
 70
0
 10
71.5673312594
 20
116.3851863413
 10
71.6455595681
 20
116.3841259731
 10
71.7226432939
 20
116.380361573
 10
71.7985825123
 20
116.3738931412
 10
71.8731911916
 20
116.3647068347
 10
71.9466555196
 20
116.3528164964
 10
72.019533863
 20
116.3382636546
 10
72.0921286939
 20
116.3210308481
 10
72.164137599
 20
116.3011355381
 10
72.2352116034
 20
116.2786716365
 10
72.3053238791
 20
116.2536329654
 10
72.3745013688
 20
116.2260257028
 10
72.4424757911
 20
116.1959622944
 10
72.5092465022
 20
116.1634317044
 10
72.5748142872
 20
116.1284449685
 10
72.6389130382
 20
116.09114764
 10
72.7015359939
 20
116.0515308696
 10
72.7626900794
 20
116.0096035065
 10
72.822129743
 20
115.9655376514
 10
72.8798477754
 20
115.919325259
 10
72.9358515638
 20
115.8709743746
 10
72.9899174711
 20
115.8206812347
 10
73.0420388057
 20
115.7684369761
 10
73.0922224424
 20
115.7142504621
 10
73.1402651095
 20
115.6583445189
 10
73.1861540923
 20
115.6007195631
 10
73.2299022854
 20
115.5413751781
 10
73.2713448415
 20
115.4805329395
 10
73.3104879181
 20
115.4181548471
 10
73.347325524
 20
115.3542789012
 10
73.3816745942
 20
115.2892406787
 10
73.4134445456
 20
115.2233101354
 10
73.4427261109
 20
115.1562173155
 10
73.4696081942
 20
115.0874879286
 10
73.4942252084
 20
115.0169216621
 10
73.5164428497
 20
114.9447188287
 10
73.5359469433
 20
114.8710060762
 10
73.5527492921
 20
114.7955986385
 10
73.5668381818
 20
114.7186812818
 10
73.5778641636
 20
114.6409349529
 10
73.5857107738
 20
114.5625866341
 10
73.5904945288
 20
114.483409343
 10
73.5922154419
 20
114.4034030797
  0
LWPOLYLINE
  5
2A6
100
AcDbEntity
  8
RACCORDO
100
AcDbPolyline
 62
250
  6
CONTINUOUS
 90
43
 70
0
 10
71.1379272718
 20
119.3810749456
 10
71.3307242314
 20
119.3776523914
 10
71.5211981639
 20
119.3669927185
 10
71.7090876074
 20
119.3493433031
 10
71.8934500878
 20
119.3250641507
 10
72.0747675947
 20
119.2943591798
 10
72.2549025557
 20
119.2570198206
 10
72.434341226
 20
119.2128943714
 10
72.6120956672
 20
119.1621737593
 10
72.7877840391
 20
119.1049623555
 10
72.9611160467
 20
119.0413653406
 10
73.1319144359
 20
118.9714588426
 10
73.2999751832
 20
118.8953285363
 10
73.4650818059
 20
118.8130757969
 10
73.6270019097
 20
118.7248199019
 10
73.7855126988
 20
118.6306828891
 10
73.9403994927
 20
118.5307968568
 10
74.0914563938
 20
118.4252995509
 10
74.2384812879
 20
118.3143329909
 10
74.3812760172
 20
118.1980510537
 10
74.5196503602
 20
118.07661336
 10
74.6534221308
 20
117.9501802918
 10
74.7824145748
 20
117.8189219994
 10
74.9064518682
 20
117.6830209445
 10
75.0253629239
 20
117.5426654202
 10
75.138976311
 20
117.3980640535
 10
75.2471544317
 20
117.2493988936
 10
75.3497830677
 20
117.0968234798
 10
75.4467658994
 20
116.9404656242
 10
75.5379173712
 20
116.7806089295
 10
75.623015802
 20
116.6176561344
 10
75.7016669846
 20
116.4524910872
 10
75.7741265254
 20
116.2847127768
 10
75.8409847834
 20
116.1127282407
 10
75.9021407728
 20
115.9361747686
 10
75.9571105483
 20
115.7557480515
 10
76.0056872061
 20
115.5713742424
 10
76.0476552465
 20
115.3828582553
 10
76.0826082486
 20
115.1908279608
 10
76.1101390061
 20
114.9964839327
 10
76.1300513241
 20
114.8004261027
 10
76.1422380286
 20
114.6026314826
 10
76.1465507535
 20
114.4034030797
  0
LWPOLYLINE
  5
2A7
100
AcDbEntity
  8
RACCORDO
100
AcDbPolyline
 62
250
  6
CONTINUOUS
 90
34
 70
0
 10
71.1379272718
 20
-119.3810749456
 10
71.1577121357
 20
-119.370751914
 10
71.1774550883
 20
-119.3541044158
 10
71.1971143073
 20
-119.331167716
 10
71.2166481476
 20
-119.3019904027
 10
71.2360152297
 20
-119.2666342834
 10
71.2551745274
 20
-119.2251742547
 10
71.2740854546
 20
-119.1776981434
 10
71.2927079515
 20
-119.1243065203
 10
71.311002569
 20
-119.0651124875
 10
71.3289305528
 20
-119.0002414385
 10
71.3464539252
 20
-118.9298307929
 10
71.3635355657
 20
-118.8540297047
 10
71.3801392893
 20
-118.7729987471
 10
71.3962299235
 20
-118.6869095718
 10
71.4117733829
 20
-118.5959445456
 10
71.4267367409
 20
-118.5002963642
 10
71.4410883
 20
-118.4001676436
 10
71.4547976585
 20
-118.2957704913
 10
71.4678357753
 20
-118.1873260569
 10
71.480175031
 20
-118.0750640632
 10
71.491789287
 20
-117.9592223204
 10
71.50265394
 20
-117.8400462216
 10
71.512745975
 20
-117.7177882231
 10
71.5220440136
 20
-117.59270731
 10
71.5305283592
 20
-117.4650684472
 10
71.5381810391
 20
-117.3351420182
 10
71.5449858422
 20
-117.2032032525
 10
71.5509283536
 20
-117.0695316422
 10
71.555995985
 20
-116.9344103503
 10
71.5601780014
 20
-116.7981256108
 10
71.5634655437
 20
-116.6609661222
 10
71.5658516479
 20
-116.523222436
 10
71.5673312594
 20
-116.3851863413
  0
LWPOLYLINE
  5
2A8
100
AcDbEntity
  8
0
100
AcDbPolyline
 62
7
  6
CONTINUOUS
 90
8
 70
0
 43
0.3499999917
 10
-1.2857142735
 20
138.735871582
 10
-0.4285714245
 20
138.735871582
 10
0.0
 20
139.1644464111
 10
0.0
 20
140.0215960693
 10
-0.4285714245
 20
140.4501580811
 10
-1.2857142735
 20
140.4501580811
 10
-1.2857142735
 20
141.735869751
 10
0.0
 20
141.735869751
  0
LWPOLYLINE
  5
2A9
100
AcDbEntity
  8
0
100
AcDbPolyline
 62
7
  6
CONTINUOUS
 90
6
 70
0
 43
0.3499999917
 10
0.857142849
 20
138.735871582
 10
1.9285715103
 20
138.735871582
 10
2.1428571224
 20
138.9501654053
 10
2.1428571224
 20
140.0215960693
 10
1.7142856979
 20
140.4501580811
 10
1.2857142735
 20
140.4501580811
  0
LWPOLYLINE
  5
2AA
100
AcDbEntity
  8
RACCORDO
100
AcDbPolyline
 62
250
  6
CONTINUOUS
 90
34
 70
0
 10
71.1379272718
 20
119.3810749456
 10
71.157712141
 20
119.3707519122
 10
71.1774550986
 20
119.3541044105
 10
71.1971143224
 20
119.3311677058
 10
71.2166481671
 20
119.3019903861
 10
71.2360152534
 20
119.2666342592
 10
71.2551745549
 20
119.2251742219
 10
71.2740854855
 20
119.1776981011
 10
71.2927079854
 20
119.1243064678
 10
71.3110026055
 20
119.0651124244
 10
71.3289305916
 20
119.0002413644
 10
71.3464539658
 20
118.9298307077
 10
71.3635356076
 20
118.8540296086
 10
71.3801393321
 20
118.7729986404
 10
71.3962299668
 20
118.6869094551
 10
71.4117734263
 20
118.5959444198
 10
71.426736784
 20
118.5002962301
 10
71.4410883424
 20
118.4001675024
 10
71.4547976998
 20
118.2957703444
 10
71.4678358151
 20
118.1873259058
 10
71.4801750691
 20
118.0750639096
 10
71.491789323
 20
117.9592221661
 10
71.5026539736
 20
117.8400460685
 10
71.5127460061
 20
117.7177880732
 10
71.5220440418
 20
117.5927071655
 10
71.5305283845
 20
117.4650683103
 10
71.5381810613
 20
117.335141891
 10
71.5449858612
 20
117.2032031372
 10
71.5509283693
 20
117.069531541
 10
71.5559959975
 20
116.9344102655
 10
71.5601780106
 20
116.7981255443
 10
71.5634655497
 20
116.660966076
 10
71.5658516508
 20
116.5232224121
 10
71.5673312594
 20
116.3851863413
  0
LWPOLYLINE
  5
2AB
100
AcDbEntity
  8
0
100
AcDbPolyline
 62
7
  6
CONTINUOUS
 90
3
 70
0
 43
0.3499999917
 10
-244.3614807129
 20
140.7286541748
 10
-243.5043566895
 20
141.5857910156
 10
-243.5043566895
 20
138.5857928467
  0
LINE
  5
2AC
100
AcDbEntity
  8
RACCORDO
100
AcDbLine
 62
250
  6
CONTINUOUS
 10
-244.7845287681
 20
-116.3851863413
 11
-249.932917579
 21
-116.1169888449
  0
LINE
  5
2AD
100
AcDbEntity
  8
RACCORDO
100
AcDbLine
 62
7
  6
CONTINUOUS
 10
-234.932917579
 20
-119.75
 11
-247.0899249392
 21
-119.1128782415
  0
LINE
  5
2AE
100
AcDbEntity
  8
RACCORDO
100
AcDbLine
 62
250
  6
CONTINUOUS
 10
-234.932917579
 20
-114.7568523262
 11
-241.6771309639
 21
-114.4034030797
  0
LWPOLYLINE
  5
2AF
100
AcDbEntity
  8
RACCORDO
100
AcDbPolyline
 62
250
  6
CONTINUOUS
 90
34
 70
0
 10
-241.9724269697
 20
-119.3810749456
 10
-242.1086882099
 20
-119.370751914
 10
-242.2443282042
 20
-119.3541044158
 10
-242.37905962
 20
-119.331167716
 10
-242.5125970491
 20
-119.3019904027
 10
-242.6446576129
 20
-119.2666342834
 10
-242.7749615612
 20
-119.2251742547
 10
-242.9032328648
 20
-119.1776981434
 10
-243.0291998004
 20
-119.1243065203
 10
-243.1525955263
 20
-119.0651124875
 10
-243.2731586474
 20
-119.0002414385
 10
-243.3906337689
 20
-118.9298307929
 10
-243.5047720377
 20
-118.8540297047
 10
-243.6153316693
 20
-118.7729987471
 10
-243.7220784598
 20
-118.6869095718
 10
-243.8247862823
 20
-118.5959445456
 10
-243.923237566
 20
-118.5002963642
 10
-244.0172237568
 20
-118.4001676436
 10
-244.1065457591
 20
-118.2957704913
 10
-244.191014358
 20
-118.1873260569
 10
-244.2704506194
 20
-118.0750640632
 10
-244.3446862697
 20
-117.9592223204
 10
-244.4135640519
 20
-117.8400462216
 10
-244.4769380591
 20
-117.7177882231
 10
-244.5346740428
 20
-117.59270731
 10
-244.5866496983
 20
-117.4650684472
 10
-244.6327549229
 20
-117.3351420182
 10
-244.6728920498
 20
-117.2032032525
 10
-244.7069760545
 20
-117.0695316422
 10
-244.7349347353
 20
-116.9344103503
 10
-244.7567088658
 20
-116.7981256108
 10
-244.7722523211
 20
-116.6609661222
 10
-244.7815321745
 20
-116.523222436
 10
-244.7845287681
 20
-116.3851863413
  0
LWPOLYLINE
  5
2B0
100
AcDbEntity
  8
RACCORDO
100
AcDbPolyline
 62
250
  6
CONTINUOUS
 90
17
 70
0
 10
-185.0951366088
 20
-110.7561348628
 10
-185.0783496241
 20
-110.7536957847
 10
-185.0619687608
 20
-110.7503806922
 10
-185.0461159337
 20
-110.7462142575
 10
-185.0309091275
 20
-110.7412274893
 10
-185.0164615195
 20
-110.7354575013
 10
-185.0028806363
 20
-110.7289472365
 10
-184.990267554
 20
-110.7217451472
 10
-184.978716146
 20
-110.7139048351
 10
-184.9683123845
 20
-110.7054846514
 10
-184.9591336999
 20
-110.6965472633
 10
-184.9512484054
 20
-110.6871591873
 10
-184.9447151882
 20
-110.6773902943
 10
-184.9395826724
 20
-110.6673132894
 10
-184.9358890575
 20
-110.6570031709
 10
-184.9336618341
 20
-110.6465366721
 10
-184.932917579
 20
-110.6359916903
  0
LWPOLYLINE
  5
2B1
100
AcDbEntity
  8
RACCORDO
100
AcDbPolyline
 62
250
  6
CONTINUOUS
 90
19
 70
0
 10
-185.1294270943
 20
-105.4540342297
 10
-185.1122046353
 20
-105.4531456915
 10
-185.0951363433
 20
-105.4509982978
 10
-185.0783492509
 20
-105.4476080328
 10
-185.0619682954
 20
-105.4430001299
 10
-185.0461153951
 20
-105.4372088862
 10
-185.030908542
 20
-105.4302774082
 10
-185.0164609128
 20
-105.4222572872
 10
-185.0028800326
 20
-105.4132082161
 10
-184.9902669795
 20
-105.4031975495
 10
-184.9787156232
 20
-105.3922997959
 10
-184.9683119306
 20
-105.3805960648
 10
-184.959133329
 20
-105.3681734673
 10
-184.9512481248
 20
-105.355124462
 10
-184.9447149971
 20
-105.3415461675
 10
-184.9395825628
 20
-105.327539644
 10
-184.935889013
 20
-105.3132091362
 10
-184.9336618289
 20
-105.2986612982
 10
-184.932917579
 20
-105.2840044009
  0
LWPOLYLINE
  5
2B2
100
AcDbEntity
  8
RACCORDO
100
AcDbPolyline
 62
250
  6
CONTINUOUS
 90
3
 70
0
 10
-185.1294270997
 20
-110.7583190198
 10
-185.1122047773
 20
-110.7576797737
 10
-185.0951366088
 20
-110.7561348628
  0
LINE
  5
2B3
100
AcDbEntity
  8
DRAFT
100
AcDbLine
 62
7
  6
CONTINUOUS
 10
-185.1294270977
 20
-112.1599578788
 11
-218.7364080603
 21
-112.7465699136
  0
LINE
  5
2B4
100
AcDbEntity
  8
RACCORDO
100
AcDbLine
 62
7
  6
CONTINUOUS
 10
-185.1294270977
 20
-110.68067684
 11
-218.9329175795
 21
-111.2707189612
  0
LINE
  5
2B5
100
AcDbEntity
  8
RACCORDO
100
AcDbLine
 62
250
  6
CONTINUOUS
 10
-185.1294270977
 20
-110.480707301
 11
-218.3407321652
 21
-111.0604127873
  0
LINE
  5
2B6
100
AcDbEntity
  8
RACCORDO
100
AcDbLine
 62
250
  6
CONTINUOUS
 10
-185.1294270977
 20
-106.253353934
 11
-218.932917579
 21
-106.8433960551
  0
LINE
  5
2B7
100
AcDbEntity
  8
RACCORDO
100
AcDbLine
 62
250
  6
CONTINUOUS
 10
-185.1294270997
 20
-110.7583190198
 11
-218.7364080603
 21
-111.334571598
  0
LINE
  5
2B8
100
AcDbEntity
  8
RACCORDO
100
AcDbLine
 62
250
  6
CONTINUOUS
 10
-218.9327942003
 20
-111.0648444216
 11
-218.3407321652
 21
-111.0604127873
  0
LINE
  5
2B9
100
AcDbEntity
  8
RACCORDO
100
AcDbLine
 62
250
  6
CONTINUOUS
 10
-241.6771309639
 20
-114.4034030797
 11
-244.4874502914
 21
-114.4034030797
  0
LINE
  5
2BA
100
AcDbEntity
  8
RACCORDO
100
AcDbLine
 62
250
  6
CONTINUOUS
 10
-229.732917579
 20
-112.8667827332
 11
-229.438153301
 21
-112.8667827332
  0
LINE
  5
2BB
100
AcDbEntity
  8
RACCORDO
100
AcDbLine
 62
250
  6
CONTINUOUS
 10
-223.932917579
 20
-110.9717568059
 11
-223.4416437822
 21
-110.9717568059
  0
LINE
  5
2BC
100
AcDbEntity
  8
RACCORDO
100
AcDbLine
 62
250
  6
CONTINUOUS
 10
-185.1294270977
 20
-110.480707301
 11
-184.932917579
 21
-110.480707301
  0
LINE
  5
2BD
100
AcDbEntity
  8
0
100
AcDbLine
 62
7
  6
CONTINUOUS
 10
-234.932917579
 20
-110.375
 11
-233.752917579
 21
-110.375
  0
LINE
  5
2BE
100
AcDbEntity
  8
RACCORDO
100
AcDbLine
 62
250
  6
CONTINUOUS
 10
-229.732917579
 20
-108.55
 11
-233.752917579
 21
-108.55
  0
LINE
  5
2BF
100
AcDbEntity
  8
RACCORDO
100
AcDbLine
 62
250
  6
CONTINUOUS
 10
-223.932917579
 20
-107.3368148931
 11
-224.2276818571
 21
-107.3368148931
  0
LINE
  5
2C0
100
AcDbEntity
  8
RACCORDO
100
AcDbLine
 62
250
  6
CONTINUOUS
 10
-229.732917579
 20
-107.2355755166
 11
-230.0276818571
 21
-107.2355755166
  0
LINE
  5
2C1
100
AcDbEntity
  8
RACCORDO
100
AcDbLine
 62
7
  6
CONTINUOUS
 10
-218.932917579
 20
-114.05
 11
-229.438153301
 21
-113.8666304284
  0
LINE
  5
2C2
100
AcDbEntity
  8
RACCORDO
100
AcDbLine
 62
250
  6
CONTINUOUS
 10
-224.2276818571
 20
-112.9577318506
 11
-229.438153301
 21
-112.8667827332
  0
LINE
  5
2C3
100
AcDbEntity
  8
DRAFT
100
AcDbLine
 62
7
  6
CONTINUOUS
 10
-230.0276818571
 20
-112.5563401692
 11
-234.7364080603
 21
-112.4741490476
  0
LINE
  5
2C4
100
AcDbEntity
  8
RACCORDO
100
AcDbLine
 62
250
  6
CONTINUOUS
 10
-223.4416437822
 20
-110.9717568059
 11
-218.3407321652
 21
-111.0604127873
  0
LINE
  5
2C5
100
AcDbEntity
  8
RACCORDO
100
AcDbLine
 62
250
  6
CONTINUOUS
 10
-224.2276818571
 20
-107.3368148931
 11
-229.438153301
 21
-107.2458657758
  0
LINE
  5
2C6
100
AcDbEntity
  8
RACCORDO
100
AcDbLine
 62
250
  6
CONTINUOUS
 10
-230.0276818571
 20
-107.2355755166
 11
-233.752917579
 21
-107.1705512852
  0
LINE
  5
2C7
100
AcDbEntity
  8
RACCORDO
100
AcDbLine
 62
7
  6
CONTINUOUS
 10
-233.752917579
 20
-106.8705969766
 11
-224.2276818571
 21
-107.0368605846
  0
LINE
  5
2C8
100
AcDbEntity
  8
RACCORDO
100
AcDbLine
 62
7
  6
CONTINUOUS
 10
-223.4475081167
 20
-113.9711630875
 11
-223.4438939878
 21
-113.9712555331
  0
LWPOLYLINE
  5
2C9
100
AcDbEntity
  8
RACCORDO
100
AcDbPolyline
 62
7
  6
CONTINUOUS
 90
6
 70
0
 10
-218.8870267958
 20
-111.2699179205
 10
-218.8784168008
 20
-111.2702011003
 10
-218.8690428135
 20
-111.2712872256
 10
-218.8589173967
 20
-111.2732162262
 10
-218.848078382
 20
-111.2760463072
 10
-218.8365337887
 20
-111.2798014675
  0
LINE
  5
2CA
100
AcDbEntity
  8
RACCORDO
100
AcDbLine
 62
250
  6
CONTINUOUS
 10
-229.7323099221
 20
-107.2355976083
 11
-229.48490211
 21
-107.2442993117
  0
LWPOLYLINE
  5
2CB
100
AcDbEntity
  8
RACCORDO
100
AcDbPolyline
 62
7
  6
CONTINUOUS
 90
4
 70
0
 10
-223.4539228027
 20
-113.9709345944
 10
-223.4513053505
 20
-113.9710377862
 10
-223.4488057196
 20
-113.9711235173
 10
-223.4465551475
 20
-113.9711900011
  0
LINE
  5
2CC
100
AcDbEntity
  8
RACCORDO
100
AcDbLine
 62
250
  6
CONTINUOUS
 10
-229.48490211
 20
-107.2442993117
 11
-229.4469957378
 21
-107.2458657757
  0
LWPOLYLINE
  5
2CD
100
AcDbEntity
  8
RACCORDO
100
AcDbPolyline
 62
7
  6
CONTINUOUS
 90
5
 70
0
 10
-223.4635610529
 20
-113.9704360992
 10
-223.4610825022
 20
-113.9705821125
 10
-223.4586227363
 20
-113.9707148141
 10
-223.456194391
 20
-113.9708339035
 10
-223.4538622032
 20
-113.9709371388
  0
LWPOLYLINE
  5
2CE
100
AcDbEntity
  8
RACCORDO
100
AcDbPolyline
 62
7
  6
CONTINUOUS
 90
3
 70
0
 10
-223.4710210071
 20
-113.9699220188
 10
-223.4681053746
 20
-113.9701362866
 10
-223.4652141059
 20
-113.9703318489
  0
LWPOLYLINE
  5
2CF
100
AcDbEntity
  8
RACCORDO
100
AcDbPolyline
 62
7
  6
CONTINUOUS
 90
4
 70
0
 10
-223.4786600556
 20
-113.969279233
 10
-223.4761249636
 20
-113.9695056273
 10
-223.4736029237
 20
-113.9697179575
 10
-223.4710918626
 20
-113.9699165983
  0
LWPOLYLINE
  5
2D0
100
AcDbEntity
  8
RACCORDO
100
AcDbPolyline
 62
7
  6
CONTINUOUS
 90
6
 70
0
 10
-218.8365337198
 20
111.279801471
 10
-218.8480783182
 20
111.2760463144
 10
-218.8589173365
 20
111.2732162355
 10
-218.8690427558
 20
111.271287236
 10
-218.8784167445
 20
111.2702011097
 10
-218.8870267403
 20
111.2699179266
  0
LWPOLYLINE
  5
2D1
100
AcDbEntity
  8
RACCORDO
100
AcDbPolyline
 62
250
  6
CONTINUOUS
 90
7
 70
0
 10
-229.4469957378
 20
-107.2458657757
 10
-229.4455199139
 20
-107.2457799984
 10
-229.4440448755
 20
-107.245728532
 10
-229.4425706588
 20
-107.2457113766
 10
-229.4410973002
 20
-107.245728532
 10
-229.4396248356
 20
-107.2457799984
 10
-229.438153301
 20
-107.2458657758
  0
LINE
  5
2D2
100
AcDbEntity
  8
RACCORDO
100
AcDbLine
 62
250
  6
CONTINUOUS
 10
-197.1748934063
 20
-105.6927217048
 11
-185.1294270943
 21
-105.4540342297
  0
LWPOLYLINE
  5
2D3
100
AcDbEntity
  8
RACCORDO
100
AcDbPolyline
 62
250
  6
CONTINUOUS
 90
3
 70
0
 10
-218.932917579
 20
-106.1122008316
 10
-213.2428358767
 20
-106.0037370269
 10
-197.1748934063
 20
-105.6927217048
  0
LINE
  5
2D4
100
AcDbEntity
  8
RACCORDO
100
AcDbLine
 62
7
  6
CONTINUOUS
 10
-218.932917579
 20
-106.3434722076
 11
-185.1294270977
 21
-105.7534300864
  0
LINE
  5
2D5
100
AcDbEntity
  8
RACCORDO
100
AcDbLine
 62
250
  6
CONTINUOUS
 10
-185.1294270977
 20
-106.253353934
 11
-184.932917579
 21
-106.253353934
  0
LINE
  5
2D6
100
AcDbEntity
  8
RACCORDO
100
AcDbLine
 62
250
  6
CONTINUOUS
 10
-223.932917579
 20
-103.5373936516
 11
-224.2276818571
 21
-103.5373936516
  0
LINE
  5
2D7
100
AcDbEntity
  8
RACCORDO
100
AcDbLine
 62
250
  6
CONTINUOUS
 10
-185.1294270978
 20
-98.485589865
 11
-184.932917579
 21
-98.485589865
  0
LINE
  5
2D8
100
AcDbEntity
  8
RACCORDO
100
AcDbLine
 62
250
  6
CONTINUOUS
 10
-185.1294270978
 20
-98.485589865
 11
-218.932917579
 21
-98.2964880722
  0
LINE
  5
2D9
100
AcDbEntity
  8
RACCORDO
100
AcDbLine
 62
250
  6
CONTINUOUS
 10
-185.1294270978
 20
-99.6729271187
 11
-218.932917579
 21
-99.4349191928
  0
LINE
  5
2DA
100
AcDbEntity
  8
RACCORDO
100
AcDbLine
 62
250
  6
CONTINUOUS
 10
-233.752917579
 20
-103.3711300436
 11
-224.2276818571
 21
-103.5373936516
  0
LWPOLYLINE
  5
2DB
100
AcDbEntity
  8
RACCORDO
100
AcDbPolyline
 62
250
  6
CONTINUOUS
 90
18
 70
0
 10
-185.1294270978
 20
-99.6729271186
 10
-185.1122048695
 20
-99.6735475798
 10
-185.095136787
 20
-99.6750470912
 10
-185.0783498785
 20
-99.6774144939
 10
-185.0619690819
 20
-99.6806321694
 10
-185.0461163091
 20
-99.6846761716
 10
-185.0309095394
 20
-99.6895164059
 10
-185.0164619499
 20
-99.6951168508
 10
-185.0028810686
 20
-99.7014358268
 10
-184.9902679696
 20
-99.7084263087
 10
-184.9787165289
 20
-99.7160362718
 10
-184.9683127217
 20
-99.7242090807
 10
-184.9591339808
 20
-99.7328839124
 10
-184.9512486237
 20
-99.741996206
 10
-184.9447153429
 20
-99.751478144
 10
-184.9395827675
 20
-99.7612591588
 10
-184.9358891029
 20
-99.7712664555
 10
-184.9336618458
 20
-99.781425554
  0
LWPOLYLINE
  5
2DC
100
AcDbEntity
  8
RACCORDO
100
AcDbPolyline
 62
7
  6
CONTINUOUS
 90
8
 70
0
 10
-218.8365337887
 20
-111.2798014675
 10
-218.8242533362
 20
-111.2844799881
 10
-218.8112846014
 20
-111.2901429843
 10
-218.7976554377
 20
-111.2968348939
 10
-218.7833025015
 20
-111.3045545471
 10
-218.7682423141
 20
-111.3133577823
 10
-218.7525824347
 20
-111.3233388841
 10
-218.7364080603
 20
-111.334571598
  0
LWPOLYLINE
  5
2DD
100
AcDbEntity
  8
RACCORDO
100
AcDbPolyline
 62
7
  6
CONTINUOUS
 90
8
 70
0
 10
-218.7364080603
 20
111.334571598
 10
-218.7525823845
 20
111.3233388548
 10
-218.768242229
 20
111.3133577318
 10
-218.7833023972
 20
111.304554486
 10
-218.7976553344
 20
111.2968348422
 10
-218.811284513
 20
111.2901429578
 10
-218.8242532608
 20
111.284479983
 10
-218.8365337198
 20
111.279801471
  0
LWPOLYLINE
  5
2DE
100
AcDbEntity
  8
RACCORDO
100
AcDbPolyline
 62
250
  6
CONTINUOUS
 90
19
 70
0
 10
-185.1294224799
 20
-91.7928445149
 10
-185.1227662575
 20
-91.7923637492
 10
-185.1148484021
 20
-91.790669641
 10
-185.1058562781
 20
-91.787704251
 10
-185.0962575909
 20
-91.7834149002
 10
-185.0859216607
 20
-91.7777666183
 10
-185.0742507474
 20
-91.7707371014
 10
-185.0614659774
 20
-91.762262696
 10
-185.0479363294
 20
-91.7523623457
 10
-185.0334814781
 20
-91.7411994834
 10
-185.0184099318
 20
-91.7289006274
 10
-185.0031852723
 20
-91.7154815082
 10
-184.9880359845
 20
-91.7009958261
 10
-184.9732212764
 20
-91.6854299745
 10
-184.9597048956
 20
-91.6689614996
 10
-184.9485394343
 20
-91.6519856258
 10
-184.9401612327
 20
-91.6347442638
 10
-184.9347934642
 20
-91.6172840339
 10
-184.9329194545
 20
-91.5997355526
  0
LWPOLYLINE
  5
2DF
100
AcDbEntity
  8
RACCORDO
100
AcDbPolyline
 62
7
  6
CONTINUOUS
 90
23
 70
0
 10
-249.441643563
 20
-93.9893890374
 10
-249.4767509637
 20
-93.9912379758
 10
-249.5122122271
 20
-93.9956406009
 10
-249.5472687615
 20
-94.0025647397
 10
-249.5817415222
 20
-94.0119750919
 10
-249.6154543937
 20
-94.0238236464
 10
-249.6482350946
 20
-94.0380499095
 10
-249.6799161557
 20
-94.0545812497
 10
-249.7103357462
 20
-94.0733332715
 10
-249.7393384391
 20
-94.0942102122
 10
-249.7667760586
 20
-94.1171054574
 10
-249.7925084343
 20
-94.1419020921
 10
-249.816404096
 20
-94.1684734812
 10
-249.8383409499
 20
-94.1966839178
 10
-249.8582069086
 20
-94.2263893229
 10
-249.875900463
 20
-94.2574379832
 10
-249.8913311941
 20
-94.2896713153
 10
-249.9044202369
 20
-94.3229246743
 10
-249.9151006886
 20
-94.3570282027
 10
-249.9233179488
 20
-94.3918076952
 10
-249.9290299991
 20
-94.4270854886
 10
-249.9322076182
 20
-94.4626813695
 10
-249.9329173595
 20
-94.489312885
  0
LINE
  5
2E0
100
AcDbEntity
  8
RACCORDO
100
AcDbLine
 62
7
  6
CONTINUOUS
 10
-249.441643563
 20
-93.9893890374
 11
-249.44236368
 21
-93.9894131214
  0
LINE
  5
2E1
100
AcDbEntity
  8
RACCORDO
100
AcDbLine
 62
250
  6
CONTINUOUS
 10
-187.6294270977
 20
-96.3526206873
 11
-218.9329475061
 21
-96.8990256685
  0
LINE
  5
2E2
100
AcDbEntity
  8
RACCORDO
100
AcDbLine
 62
7
  6
CONTINUOUS
 10
-218.932917579
 20
-96.3991012986
 11
-187.6294270977
 21
-95.8526968397
  0
LINE
  5
2E3
100
AcDbEntity
  8
RACCORDO
100
AcDbLine
 62
250
  6
CONTINUOUS
 10
-218.932917579
 20
-96.09914699
 11
-187.6294270977
 21
-95.5527425312
  0
LINE
  5
2E4
100
AcDbEntity
  8
DRAFT
100
AcDbLine
 62
7
  6
CONTINUOUS
 10
-248.332917579
 20
-93.9700361568
 11
-249.4416435629
 21
-93.9893890408
  0
LINE
  5
2E5
100
AcDbEntity
  8
RACCORDO
100
AcDbLine
 62
250
  6
CONTINUOUS
 10
-187.6294270977
 20
-95.5527425312
 11
-187.432917579
 21
-95.5527425312
  0
LINE
  5
2E6
100
AcDbEntity
  8
RACCORDO
100
AcDbLine
 62
250
  6
CONTINUOUS
 10
-247.9219685962
 20
-94.4893563784
 11
-249.932917579
 21
-94.4893128036
  0
LINE
  5
2E7
100
AcDbEntity
  8
RACCORDO
100
AcDbLine
 62
7
  6
CONTINUOUS
 10
-247.7248542136
 20
-93.9893858565
 11
-249.441643563
 21
-93.9893890374
  0
LINE
  5
2E8
100
AcDbEntity
  8
SUPERFICI
100
AcDbLine
 62
7
  6
CONTINUOUS
 10
-247.7203089589
 20
-93.97
 11
-248.332917579
 21
-93.97
  0
LINE
  5
2E9
100
AcDbEntity
  8
RACCORDO
100
AcDbLine
 62
7
  6
CONTINUOUS
 10
-247.720313793
 20
-93.9700206178
 11
-248.332917579
 21
-93.9700361568
  0
LINE
  5
2EA
100
AcDbEntity
  8
RACCORDO
100
AcDbLine
 62
250
  6
CONTINUOUS
 10
-185.1294270977
 20
-91.9928144622
 11
-184.932917579
 21
-91.9928144622
  0
LINE
  5
2EB
100
AcDbEntity
  8
RACCORDO
100
AcDbLine
 62
250
  6
CONTINUOUS
 10
-187.6294270977
 20
-91.9491767998
 11
-187.432917579
 21
-91.9491767998
  0
LINE
  5
2EC
100
AcDbEntity
  8
RACCORDO
100
AcDbLine
 62
250
  6
CONTINUOUS
 10
-218.932917579
 20
-91.402772341
 11
-187.6294270977
 21
-91.9491767998
  0
LINE
  5
2ED
100
AcDbEntity
  8
RACCORDO
100
AcDbLine
 62
250
  6
CONTINUOUS
 10
-185.1294270977
 20
-91.9928144622
 11
-187.4329774332
 21
-91.9526058415
  0
LINE
  5
2EE
100
AcDbEntity
  8
RACCORDO
100
AcDbLine
 62
7
  6
CONTINUOUS
 10
-185.1294270977
 20
-91.7928449231
 11
-218.932917579
 21
-91.202802802
  0
LINE
  5
2EF
100
AcDbEntity
  8
RACCORDO
100
AcDbLine
 62
250
  6
CONTINUOUS
 10
-185.4154678307
 20
-91.5879434326
 11
-188.932917579
 21
-91.5265461188
  0
LINE
  5
2F0
100
AcDbEntity
  8
RACCORDO
100
AcDbLine
 62
250
  6
CONTINUOUS
 10
-184.932917579
 20
-91.5997355569
 11
-185.4154678307
 21
-91.5879434326
  0
LINE
  5
2F1
100
AcDbEntity
  8
RACCORDO
100
AcDbLine
 62
250
  6
CONTINUOUS
 10
-247.3961264114
 20
-88.9810170053
 11
-247.3986632025
 21
-88.9810170054
  0
LWPOLYLINE
  5
2F2
100
AcDbEntity
  8
RACCORDO
100
AcDbPolyline
 62
250
  6
CONTINUOUS
 90
87
 70
0
 10
-201.3824024136
 20
-91.5091481837
 10
-201.5819032149
 20
-91.4699176233
 10
-201.9826834554
 20
-91.3774462015
 10
-202.381277244
 20
-91.2718511885
 10
-202.7759473546
 20
-91.1534821152
 10
-203.1666429823
 20
-91.0222515104
 10
-203.5534149319
 20
-90.8782468454
 10
-203.9346783921
 20
-90.7220800649
 10
-204.310263459
 20
-90.553754763
 10
-204.6803400366
 20
-90.3732673456
 10
-205.043833025
 20
-90.1812189754
 10
-205.4006709222
 20
-89.9776257801
 10
-205.7509252303
 20
-89.762471632
 10
-206.093735355
 20
-89.5363093119
 10
-206.429150659
 20
-89.2990790205
 10
-206.7571217797
 20
-89.0508405571
 10
-207.0766400354
 20
-88.7923260998
 10
-207.3877179553
 20
-88.5234645263
 10
-207.6903430103
 20
-88.2443269589
 10
-207.9834689311
 20
-87.9558589428
 10
-208.2670400138
 20
-87.6580432072
 10
-208.5411119624
 20
-87.3508970229
 10
-208.8048056194
 20
-87.0354177471
 10
-209.0580726549
 20
-86.7115987181
 10
-209.3009613989
 20
-86.3794465976
 10
-209.5327376834
 20
-86.0399787277
 10
-209.7533724684
 20
-85.6931702798
 10
-209.9628947938
 20
-85.3390460826
 10
-210.1606576114
 20
-84.9786979642
 10
-210.3466301343
 20
-84.6120959681
 10
-210.5208431492
 20
-84.2392700509
 10
-210.6827419681
 20
-83.8614019095
 10
-210.8322858623
 20
-83.4784772199
 10
-210.9695155604
 20
-83.0905103063
 10
-211.0939985602
 20
-82.6987258375
 10
-211.2056936473
 20
-82.303114722
 10
-211.3046420361
 20
-81.9036860514
 10
-211.3905348673
 20
-81.50169177
 10
-211.4633314227
 20
-81.0971245264
 10
-211.5230724206
 20
-80.6899916719
 10
-211.5695711565
 20
-80.2815672051
 10
-211.6027863874
 20
-79.8718451933
 10
-211.6227593563
 20
-79.4608315691
 10
-211.629427088
 20
-79.0498181301
 10
-211.6227475928
 20
-78.6388049014
 10
-211.6027628604
 20
-78.2277918577
 10
-211.5695358854
 20
-77.8180707212
 10
-211.5230254321
 20
-77.4096474161
 10
-211.4632727362
 20
-77.0025160182
 10
-211.390464499
 20
-76.5979504762
 10
-211.3045599785
 20
-76.1959580654
 10
-211.2055999167
 20
-75.7965315104
 10
-211.0938932417
 20
-75.4009229343
 10
-210.9693987102
 20
-75.0091414262
 10
-210.8321575655
 20
-74.6211778969
 10
-210.6826024649
 20
-74.2382572027
 10
-210.5206927618
 20
-73.8603938462
 10
-210.3464691027
 20
-73.4875733248
 10
-210.1604860848
 20
-73.1209769868
 10
-209.9627130375
 20
-72.7606348602
 10
-209.7531806313
 20
-72.4065169171
 10
-209.5325354743
 20
-72.0597144216
 10
-209.3007482634
 20
-71.7202518022
 10
-209.0578483017
 20
-71.3881046305
 10
-208.8045701067
 20
-71.0642908849
 10
-208.5408649219
 20
-70.7488169885
 10
-208.2667815037
 20
-70.4416765183
 10
-207.9832006392
 20
-70.143868184
 10
-207.6900672327
 20
-69.8554100017
 10
-207.3874363798
 20
-69.5762839553
 10
-207.0763541537
 20
-69.307434706
 10
-206.7568344943
 20
-69.048934048
 10
-206.4288634618
 20
-68.8007101871
 10
-206.0934453099
 20
-68.5634924021
 10
-205.7506284435
 20
-68.3373393415
 10
-205.4003644578
 20
-68.1221923569
 10
-205.0435123917
 20
-67.9186047816
 10
-204.6799975123
 20
-67.7265592973
 10
-204.3098945525
 20
-67.5460732225
 10
-203.9342867491
 20
-67.3777518461
 10
-203.553003948
 20
-67.2215927303
 10
-203.1662163034
 20
-67.0775983128
 10
-202.7755175148
 20
-66.946381196
 10
-202.3808594835
 20
-66.8280302494
 10
-201.9822903082
 20
-66.7224566034
 10
-201.5815479856
 20
-66.6300062511
 10
-201.3824105992
 20
-66.5908519592
  0
LWPOLYLINE
  5
2F3
100
AcDbEntity
  8
RACCORDO
100
AcDbPolyline
 62
7
  6
CONTINUOUS
 90
8
 70
0
 10
-223.8520697785
 20
113.7439772748
 10
-223.8536800695
 20
113.7414851411
 10
-223.8552559146
 20
113.7390144723
 10
-223.8567968104
 20
113.7365672874
 10
-223.8583003731
 20
113.7341487159
 10
-223.859768835
 20
113.7317565429
 10
-223.8612011102
 20
113.7293939042
 10
-223.8625901233
 20
113.7270741164
  0
LINE
  5
2F4
100
AcDbEntity
  8
RACCORDO
100
AcDbLine
 62
7
  6
CONTINUOUS
 10
-223.8479343659
 20
113.7502285073
 11
-223.8517264776
 21
113.7445044091
  0
LINE
  5
2F5
100
AcDbEntity
  8
RACCORDO
100
AcDbLine
 62
250
  6
CONTINUOUS
 10
-185.4154678307
 20
-66.5120565674
 11
-184.932917579
 21
-66.5002644431
  0
LINE
  5
2F6
100
AcDbEntity
  8
RACCORDO
100
AcDbLine
 62
250
  6
CONTINUOUS
 10
-188.932917579
 20
-66.5734538812
 11
-185.4154678307
 21
-66.5120565674
  0
LINE
  5
2F7
100
AcDbEntity
  8
RACCORDO
100
AcDbLine
 62
7
  6
CONTINUOUS
 10
-185.1294270977
 20
-66.3071550769
 11
-218.932917579
 21
-66.897197198
  0
LINE
  5
2F8
100
AcDbEntity
  8
RACCORDO
100
AcDbLine
 62
250
  6
CONTINUOUS
 10
-187.4329774332
 20
-66.1473941585
 11
-185.1294270977
 21
-66.1071855378
  0
LINE
  5
2F9
100
AcDbEntity
  8
RACCORDO
100
AcDbLine
 62
250
  6
CONTINUOUS
 10
-187.6294270977
 20
-66.1508232002
 11
-218.932917579
 21
-66.697227659
  0
LINE
  5
2FA
100
AcDbEntity
  8
RACCORDO
100
AcDbLine
 62
250
  6
CONTINUOUS
 10
-187.432917579
 20
-66.1508232002
 11
-187.6294270977
 21
-66.1508232002
  0
LINE
  5
2FB
100
AcDbEntity
  8
RACCORDO
100
AcDbLine
 62
250
  6
CONTINUOUS
 10
-185.1294270977
 20
-66.1071855378
 11
-184.932917579
 21
-66.1071855378
  0
LWPOLYLINE
  5
2FC
100
AcDbEntity
  8
RACCORDO
100
AcDbPolyline
 62
7
  6
CONTINUOUS
 90
120
 70
0
 10
-223.8393627027
 20
-113.7625844855
 10
-223.83659682
 20
-113.7664066608
 10
-223.8338060101
 20
-113.7701877903
 10
-223.830990943
 20
-113.7739278418
 10
-223.8281522792
 20
-113.7776267987
 10
-223.8252906747
 20
-113.7812846535
 10
-223.8224067867
 20
-113.7849014003
 10
-223.8195012622
 20
-113.7884770489
 10
-223.8165747439
 20
-113.7920116172
 10
-223.813627875
 20
-113.7955051247
 10
-223.8106612888
 20
-113.7989576058
 10
-223.8076756134
 20
-113.802369103
 10
-223.8046714778
 20
-113.8057396599
 10
-223.8016495007
 20
-113.8090693344
 10
-223.7986102951
 20
-113.8123581921
 10
-223.7955544754
 20
-113.8156062995
 10
-223.7924826447
 20
-113.8188137369
 10
-223.7893954009
 20
-113.8219805918
 10
-223.7862933427
 20
-113.8251069524
 10
-223.7831770576
 20
-113.8281929202
 10
-223.7800471276
 20
-113.8312386032
 10
-223.7769041356
 20
-113.8342441102
 10
-223.7737486527
 20
-113.8372095625
 10
-223.7705812449
 20
-113.8401350878
 10
-223.7674024786
 20
-113.843020814
 10
-223.7642129086
 20
-113.8458668814
 10
-223.7610130839
 20
-113.8486734358
 10
-223.7578035547
 20
-113.8514406234
 10
-223.7545848588
 20
-113.8541686019
 10
-223.7513575283
 20
-113.8568575345
 10
-223.7481220966
 20
-113.8595075841
 10
-223.7448790844
 20
-113.862118925
 10
-223.7416290068
 20
-113.8646917363
 10
-223.73837238
 20
-113.867226197
 10
-223.7351097075
 20
-113.8697224964
 10
-223.731841487
 20
-113.8721808287
 10
-223.7285682177
 20
-113.8746013875
 10
-223.7252903857
 20
-113.8769843764
 10
-223.7220084713
 20
-113.8793300034
 10
-223.7187229562
 20
-113.8816384757
 10
-223.7154343093
 20
-113.8839100102
 10
-223.7121429934
 20
-113.8861448274
 10
-223.7088494728
 20
-113.8883431474
 10
-223.705554199
 20
-113.8905051988
 10
-223.7022576172
 20
-113.8926312141
 10
-223.6989601746
 20
-113.8947214249
 10
-223.6956623049
 20
-113.8967760708
 10
-223.6923644361
 20
-113.8987953951
 10
-223.689066998
 20
-113.9007796399
 10
-223.6857704071
 20
-113.9027290549
 10
-223.6824750738
 20
-113.9046438931
 10
-223.6791814108
 20
-113.9065244062
 10
-223.6758897766
 20
-113.9083708756
 10
-223.6726006048
 20
-113.9101835398
 10
-223.6693144137
 20
-113.9119625933
 10
-223.6660314476
 20
-113.9137083793
 10
-223.6627522224
 20
-113.9154210946
 10
-223.6594776632
 20
-113.9171007327
 10
-223.6562081128
 20
-113.9187475977
 10
-223.652943967
 20
-113.9203619656
 10
-223.6496862358
 20
-113.9219438173
 10
-223.6464352806
 20
-113.9234934621
 10
-223.6431914565
 20
-113.925011211
 10
-223.6399557686
 20
-113.9264970785
 10
-223.6367285663
 20
-113.9279513928
 10
-223.6335101929
 20
-113.9293744836
 10
-223.6303016471
 20
-113.9307663974
 10
-223.6271032656
 20
-113.9321274802
 10
-223.6239153788
 20
-113.933458079
 10
-223.620738978
 20
-113.9347582711
 10
-223.6175743911
 20
-113.9360284171
 10
-223.61442193
 20
-113.9372688818
 10
-223.6112825647
 20
-113.938479777
 10
-223.6081568154
 20
-113.9396614007
 10
-223.605044774
 20
-113.9408142122
 10
-223.6019467636
 20
-113.9419385792
 10
-223.598863374
 20
-113.9430347741
 10
-223.5957945895
 20
-113.9441032844
 10
-223.5927398093
 20
-113.9451447838
 10
-223.5896993213
 20
-113.9461596254
 10
-223.5866733619
 20
-113.9471481774
 10
-223.5836612327
 20
-113.9481111008
 10
-223.5806631758
 20
-113.9490487373
 10
-223.5776794278
 20
-113.9499614284
 10
-223.574709263
 20
-113.9508497985
 10
-223.5717529024
 20
-113.9517141704
 10
-223.5688105621
 20
-113.952554867
 10
-223.565881491
 20
-113.953372476
 10
-223.562965891
 20
-113.9541673019
 10
-223.5600639595
 20
-113.9549396488
 10
-223.5571749223
 20
-113.9556900686
 10
-223.5542989637
 20
-113.9564188474
 10
-223.5514362639
 20
-113.9571262708
 10
-223.5485860278
 20
-113.9578128552
 10
-223.545748423
 20
-113.9584788687
 10
-223.5429236148
 20
-113.9591245788
 10
-223.5401107908
 20
-113.9597504662
 10
-223.5373100227
 20
-113.9603567987
 10
-223.5345215428
 20
-113.9609438076
 10
-223.5317447689
 20
-113.9615118895
 10
-223.5289797499
 20
-113.9620612993
 10
-223.5262267164
 20
-113.9625922542
 10
-223.52348535
 20
-113.9631050741
 10
-223.5207557796
 20
-113.9635999876
 10
-223.5180381353
 20
-113.9640772221
 10
-223.5153320942
 20
-113.9645370802
 10
-223.5126377788
 20
-113.9649797814
 10
-223.5099553063
 20
-113.9654055455
 10
-223.507284339
 20
-113.9658146597
 10
-223.5046249905
 20
-113.9662073353
 10
-223.501977369
 20
-113.9665837833
 10
-223.499341123
 20
-113.9669442758
 10
-223.4967163577
 20
-113.9672890156
 10
-223.4941031731
 20
-113.9676182053
 10
-223.4915012039
 20
-113.9679321017
 10
-223.4889105476
 20
-113.9682308991
 10
-223.4863312965
 20
-113.9685147916
 10
-223.483763072
 20
-113.9687840209
 10
-223.4812059629
 20
-113.9690387728
 10
-223.4786600556
 20
-113.969279233
  0
LWPOLYLINE
  5
2FD
100
AcDbEntity
  8
RACCORDO
100
AcDbPolyline
 62
7
  6
CONTINUOUS
 90
4
 70
0
 10
-223.8475040725
 20
-113.7508720832
 10
-223.8448170065
 20
-113.7548171448
 10
-223.8421029892
 20
-113.758721299
 10
-223.8393627027
 20
-113.7625844855
  0
LINE
  5
2FE
100
AcDbEntity
  8
RACCORDO
100
AcDbLine
 62
7
  6
CONTINUOUS
 10
-223.8521257718
 20
-113.7438911602
 11
-223.8479465527
 21
-113.7502089028
  0
LWPOLYLINE
  5
2FF
100
AcDbEntity
  8
RACCORDO
100
AcDbPolyline
 62
7
  6
CONTINUOUS
 90
4
 70
0
 10
-223.8629853593
 20
113.7264087948
 10
-223.8654770026
 20
113.7221595067
 10
-223.8679358233
 20
113.7178697107
 10
-223.8703611033
 20
113.713539551
  0
LINE
  5
300
100
AcDbEntity
  8
RACCORDO
100
AcDbLine
 62
250
  6
CONTINUOUS
 10
-187.6294270977
 20
-62.5472574688
 11
-187.432917579
 21
-62.5472574688
  0
LINE
  5
301
100
AcDbEntity
  8
RACCORDO
100
AcDbLine
 62
250
  6
CONTINUOUS
 10
-187.6294270977
 20
-62.5472574688
 11
-218.932917579
 21
-62.00085301
  0
LINE
  5
302
100
AcDbEntity
  8
RACCORDO
100
AcDbLine
 62
7
  6
CONTINUOUS
 10
-187.6294270977
 20
-62.2473031603
 11
-218.932917579
 21
-61.7008987014
  0
LINE
  5
303
100
AcDbEntity
  8
RACCORDO
100
AcDbLine
 62
250
  6
CONTINUOUS
 10
-218.9329475061
 20
-61.2009743315
 11
-187.6294270977
 21
-61.7473793127
  0
LINE
  5
304
100
AcDbEntity
  8
RACCORDO
100
AcDbLine
 62
7
  6
CONTINUOUS
 10
-223.8677845977
 20
-113.7181364055
 11
-223.8516991451
 21
-113.7445463203
  0
LINE
  5
305
100
AcDbEntity
  8
RACCORDO
100
AcDbLine
 62
7
  6
CONTINUOUS
 10
-223.8699322077
 20
-113.7143126905
 11
-223.8677845977
 21
-113.7181364055
  0
LINE
  5
306
100
AcDbEntity
  8
RACCORDO
100
AcDbLine
 62
7
  6
CONTINUOUS
 10
-223.871634102
 20
-113.711225606
 11
-223.8699322077
 21
-113.7143126905
  0
LWPOLYLINE
  5
307
100
AcDbEntity
  8
RACCORDO
100
AcDbPolyline
 62
250
  6
CONTINUOUS
 90
44
 70
0
 10
-224.100875104
 20
-113.1098769875
 10
-224.104628214
 20
-113.1026644608
 10
-224.1083353654
 20
-113.0956184967
 10
-224.1119946928
 20
-113.0887375749
 10
-224.1156066952
 20
-113.0820370272
 10
-224.1191689589
 20
-113.0755193092
 10
-224.1226803953
 20
-113.0691819653
 10
-224.1261437331
 20
-113.0630329598
 10
-224.129557398
 20
-113.0570737627
 10
-224.1329200877
 20
-113.051302904
 10
-224.1362351765
 20
-113.0457239376
 10
-224.1395010096
 20
-113.0403387641
 10
-224.1427168913
 20
-113.0351454828
 10
-224.1458878537
 20
-113.0301419454
 10
-224.1490124012
 20
-113.0253297734
 10
-224.1520901444
 20
-113.0207073452
 10
-224.1551279854
 20
-113.0162676474
 10
-224.1581254288
 20
-113.0120107846
 10
-224.1610814923
 20
-113.0079366522
 10
-224.1640025289
 20
-113.0040379219
 10
-224.166889081
 20
-113.000313667
 10
-224.1697394388
 20
-112.9967648143
 10
-224.1725566982
 20
-112.9933868165
 10
-224.175339113
 20
-112.9901814467
 10
-224.1780874569
 20
-112.9871469317
 10
-224.1808087042
 20
-112.9842734047
 10
-224.1835002554
 20
-112.9815622087
 10
-224.1861639393
 20
-112.9790120006
 10
-224.1888135005
 20
-112.976608884
 10
-224.1914513238
 20
-112.9743494156
 10
-224.1940744693
 20
-112.9722370386
 10
-224.1966887907
 20
-112.9702681865
 10
-224.1992947815
 20
-112.9684420718
 10
-224.2018914728
 20
-112.9667594821
 10
-224.2044825659
 20
-112.9652192141
 10
-224.2070676057
 20
-112.9638212043
 10
-224.2096466188
 20
-112.9625655162
 10
-224.2122240556
 20
-112.9614511366
 10
-224.2148002403
 20
-112.9604776708
 10
-224.2173744555
 20
-112.9596455134
 10
-224.219949605
 20
-112.9589548356
 10
-224.2225265318
 20
-112.9584056944
 10
-224.2251040127
 20
-112.9579980327
 10
-224.2276818571
 20
-112.9577318506
  0
LWPOLYLINE
  5
308
100
AcDbEntity
  8
RACCORDO
100
AcDbPolyline
 62
250
  6
CONTINUOUS
 90
3
 70
0
 10
-224.0893575171
 20
-113.13244556
 10
-224.0932382327
 20
-113.1247772752
 10
-224.100875104
 20
-113.1098769875
  0
LINE
  5
309
100
AcDbEntity
  8
RACCORDO
100
AcDbLine
 62
250
  6
CONTINUOUS
 10
-223.9421406497
 20
113.4474917825
 11
-223.9400681097
 21
113.4525886757
  0
LINE
  5
30A
100
AcDbEntity
  8
RACCORDO
100
AcDbLine
 62
250
  6
CONTINUOUS
 10
-223.9445868656
 20
113.4415853466
 11
-223.9421406497
 21
113.4474917825
  0
LINE
  5
30B
100
AcDbEntity
  8
RACCORDO
100
AcDbLine
 62
250
  6
CONTINUOUS
 10
-223.9474488843
 20
113.4347817452
 11
-223.9445868656
 21
113.4415853466
  0
LINE
  5
30C
100
AcDbEntity
  8
RACCORDO
100
AcDbLine
 62
250
  6
CONTINUOUS
 10
-223.9507704584
 20
113.4270195194
 11
-223.9474488843
 21
113.4347817452
  0
LINE
  5
30D
100
AcDbEntity
  8
RACCORDO
100
AcDbLine
 62
250
  6
CONTINUOUS
 10
-223.9546000948
 20
113.4182033461
 11
-223.9507704584
 21
113.4270195194
  0
LINE
  5
30E
100
AcDbEntity
  8
RACCORDO
100
AcDbLine
 62
250
  6
CONTINUOUS
 10
-223.9589860616
 20
113.4082327492
 11
-223.9546000948
 21
113.4182033461
  0
LWPOLYLINE
  5
30F
100
AcDbEntity
  8
RACCORDO
100
AcDbPolyline
 62
250
  6
CONTINUOUS
 90
9
 70
0
 10
-230.0276818571
 20
106.935621208
 10
-230.0273054208
 20
106.9364664406
 10
-230.0269603577
 20
106.9389837611
 10
-230.0266485968
 20
106.9431590973
 10
-230.026371881
 20
106.9489691079
 10
-230.0261317571
 20
106.956381314
 10
-230.0259295674
 20
106.9653542815
 10
-230.0257664424
 20
106.9758378462
 10
-230.0255608102
 20
107.0010942589
  0
LWPOLYLINE
  5
310
100
AcDbEntity
  8
RACCORDO
100
AcDbPolyline
 62
250
  6
CONTINUOUS
 90
9
 70
0
 10
-224.2276818571
 20
107.0368605846
 10
-224.2273054208
 20
107.0377058172
 10
-224.2269603577
 20
107.0402231377
 10
-224.2266485968
 20
107.0443984739
 10
-224.226371881
 20
107.0502084845
 10
-224.2261317571
 20
107.0576206906
 10
-224.2259295674
 20
107.066593658
 10
-224.2257664424
 20
107.0770772228
 10
-224.2255608102
 20
107.1023336355
  0
LINE
  5
311
100
AcDbEntity
  8
RACCORDO
100
AcDbLine
 62
250
  6
CONTINUOUS
 10
-223.9667230914
 20
113.3909244748
 11
-223.9589860616
 21
113.4082327492
  0
LINE
  5
312
100
AcDbEntity
  8
RACCORDO
100
AcDbLine
 62
250
  6
CONTINUOUS
 10
-223.9760334375
 20
113.370417161
 11
-223.9667230914
 21
113.3909244748
  0
LINE
  5
313
100
AcDbEntity
  8
RACCORDO
100
AcDbLine
 62
250
  6
CONTINUOUS
 10
-223.990848042
 20
113.3382702576
 11
-223.9760334375
 21
113.370417161
  0
LINE
  5
314
100
AcDbEntity
  8
RACCORDO
100
AcDbLine
 62
250
  6
CONTINUOUS
 10
-224.0153692736
 20
113.2858238833
 11
-223.990848042
 21
113.3382702576
  0
LINE
  5
315
100
AcDbEntity
  8
RACCORDO
100
AcDbLine
 62
250
  6
CONTINUOUS
 10
-224.0404120891
 20
113.2329194599
 11
-224.0153692736
 21
113.2858238833
  0
LINE
  5
316
100
AcDbEntity
  8
RACCORDO
100
AcDbLine
 62
250
  6
CONTINUOUS
 10
-224.0570700499
 20
113.1981546773
 11
-224.0404120891
 21
113.2329194599
  0
LINE
  5
317
100
AcDbEntity
  8
RACCORDO
100
AcDbLine
 62
250
  6
CONTINUOUS
 10
-224.0694022948
 20
113.1727316557
 11
-224.0570700499
 21
113.1981546773
  0
LINE
  5
318
100
AcDbEntity
  8
RACCORDO
100
AcDbLine
 62
250
  6
CONTINUOUS
 10
-224.0774869332
 20
113.1562592895
 11
-224.0694022948
 21
113.1727316557
  0
LWPOLYLINE
  5
319
100
AcDbEntity
  8
RACCORDO
100
AcDbPolyline
 62
250
  6
CONTINUOUS
 90
3
 70
0
 10
-224.0893575171
 20
113.13244556
 10
-224.0854383593
 20
113.1402589944
 10
-224.0774869332
 20
113.1562592895
  0
LINE
  5
31A
100
AcDbEntity
  8
RACCORDO
100
AcDbLine
 62
250
  6
CONTINUOUS
 10
-224.0814806585
 20
-113.1481964354
 11
-224.0893575171
 21
-113.13244556
  0
LINE
  5
31B
100
AcDbEntity
  8
RACCORDO
100
AcDbLine
 62
250
  6
CONTINUOUS
 10
-224.0734603951
 20
-113.1644461503
 11
-224.0814806585
 21
-113.1481964354
  0
LINE
  5
31C
100
AcDbEntity
  8
RACCORDO
100
AcDbLine
 62
250
  6
CONTINUOUS
 10
-224.0612027125
 20
-113.189603581
 11
-224.0734603951
 21
-113.1644461503
  0
LINE
  5
31D
100
AcDbEntity
  8
RACCORDO
100
AcDbLine
 62
250
  6
CONTINUOUS
 10
-224.0445876
 20
-113.2241700007
 11
-224.0612027125
 21
-113.189603581
  0
LINE
  5
31E
100
AcDbEntity
  8
RACCORDO
100
AcDbLine
 62
250
  6
CONTINUOUS
 10
-224.0195362157
 20
-113.2769804021
 11
-224.0445876
 21
-113.2241700007
  0
LINE
  5
31F
100
AcDbEntity
  8
RACCORDO
100
AcDbLine
 62
250
  6
CONTINUOUS
 10
-223.9948354165
 20
-113.3296991645
 11
-224.0195362157
 21
-113.2769804021
  0
LINE
  5
320
100
AcDbEntity
  8
RACCORDO
100
AcDbLine
 62
250
  6
CONTINUOUS
 10
-223.9795235691
 20
-113.3628039609
 11
-223.9948354165
 21
-113.3296991645
  0
LINE
  5
321
100
AcDbEntity
  8
RACCORDO
100
AcDbLine
 62
250
  6
CONTINUOUS
 10
-223.9696397879
 20
-113.3844774179
 11
-223.9795235691
 21
-113.3628039609
  0
LINE
  5
322
100
AcDbEntity
  8
RACCORDO
100
AcDbLine
 62
250
  6
CONTINUOUS
 10
-223.9639789269
 20
-113.39703328
 11
-223.9696397879
 21
-113.3844774179
  0
LINE
  5
323
100
AcDbEntity
  8
RACCORDO
100
AcDbLine
 62
250
  6
CONTINUOUS
 10
-223.9589860616
 20
-113.4082327492
 11
-223.9639789269
 21
-113.39703328
  0
LINE
  5
324
100
AcDbEntity
  8
RACCORDO
100
AcDbLine
 62
250
  6
CONTINUOUS
 10
-223.9526191497
 20
-113.4227433343
 11
-223.9589860616
 21
-113.4082327492
  0
LINE
  5
325
100
AcDbEntity
  8
RACCORDO
100
AcDbLine
 62
250
  6
CONTINUOUS
 10
-223.9490488868
 20
-113.4310325338
 11
-223.9526191497
 21
-113.4227433343
  0
LINE
  5
326
100
AcDbEntity
  8
RACCORDO
100
AcDbLine
 62
250
  6
CONTINUOUS
 10
-223.9459631013
 20
-113.4382990828
 11
-223.9490488868
 21
-113.4310325338
  0
LINE
  5
327
100
AcDbEntity
  8
RACCORDO
100
AcDbLine
 62
250
  6
CONTINUOUS
 10
-223.9433150901
 20
-113.4446397367
 11
-223.9459631013
 21
-113.4382990828
  0
LWPOLYLINE
  5
328
100
AcDbEntity
  8
RACCORDO
100
AcDbPolyline
 62
250
  6
CONTINUOUS
 90
3
 70
0
 10
-223.9400681097
 20
-113.4525886757
 10
-223.9410600486
 20
-113.4501414013
 10
-223.9433150901
 20
-113.4446397367
  0
LWPOLYLINE
  5
329
100
AcDbEntity
  8
RACCORDO
100
AcDbPolyline
 62
250
  6
CONTINUOUS
 90
3
 70
0
 10
-223.9330302872
 20
113.4710348585
 10
-223.9329458516
 20
113.4712813608
 10
-223.932917579
 20
113.4713760438
  0
LINE
  5
32A
100
AcDbEntity
  8
RACCORDO
100
AcDbLine
 62
250
  6
CONTINUOUS
 10
-223.9333652926
 20
113.4700811985
 11
-223.9331703061
 21
113.4706365369
  0
LWPOLYLINE
  5
32B
100
AcDbEntity
  8
RACCORDO
100
AcDbPolyline
 62
250
  6
CONTINUOUS
 90
3
 70
0
 10
-223.9342740029
 20
113.467554721
 10
-223.9339179462
 20
113.4685306565
 10
-223.9336146651
 20
113.4693740408
  0
LWPOLYLINE
  5
32C
100
AcDbEntity
  8
RACCORDO
100
AcDbPolyline
 62
250
  6
CONTINUOUS
 90
3
 70
0
 10
-223.9356631221
 20
113.463829098
 10
-223.9351459107
 20
113.4651987365
 10
-223.9346827003
 20
113.4664425589
  0
LINE
  5
32D
100
AcDbEntity
  8
RACCORDO
100
AcDbLine
 62
250
  6
CONTINUOUS
 10
-223.9375635379
 20
113.458896317
 11
-223.9362351478
 21
113.4623277992
  0
LWPOLYLINE
  5
32E
100
AcDbEntity
  8
RACCORDO
100
AcDbPolyline
 62
250
  6
CONTINUOUS
 90
3
 70
0
 10
-223.9400681097
 20
113.4525886757
 10
-223.9391565589
 20
113.4548633826
 10
-223.9375635379
 20
113.458896317
  0
LINE
  5
32F
100
AcDbEntity
  8
RACCORDO
100
AcDbLine
 62
250
  6
CONTINUOUS
 10
-223.9383232262
 20
-113.4569661336
 11
-223.9400681097
 21
-113.4525886757
  0
LWPOLYLINE
  5
330
100
AcDbEntity
  8
RACCORDO
100
AcDbPolyline
 62
250
  6
CONTINUOUS
 90
3
 70
0
 10
-223.9362351478
 20
-113.4623277992
 10
-223.9368680952
 20
-113.4606818748
 10
-223.9383232262
 20
-113.4569661336
  0
LWPOLYLINE
  5
331
100
AcDbEntity
  8
RACCORDO
100
AcDbPolyline
 62
250
  6
CONTINUOUS
 90
3
 70
0
 10
-223.9346827003
 20
-113.4664425589
 10
-223.9351459107
 20
-113.4651987365
 10
-223.9356631221
 20
-113.463829098
  0
LWPOLYLINE
  5
332
100
AcDbEntity
  8
RACCORDO
100
AcDbPolyline
 62
250
  6
CONTINUOUS
 90
4
 70
0
 10
-223.9333652926
 20
-113.4700811985
 10
-223.9336146651
 20
-113.4693740408
 10
-223.9339179462
 20
-113.4685306565
 10
-223.9342740029
 20
-113.467554721
  0
LINE
  5
333
100
AcDbEntity
  8
ASSI
100
AcDbLine
 62
7
  6
CONTINUOUS
 10
-249.932917579
 20
116.1169896376
 11
-249.932917579
 21
94.489312885
  0
LINE
  5
334
100
AcDbEntity
  8
ASSI
100
AcDbLine
 62
7
  6
CONTINUOUS
 10
-249.932917579
 20
-94.489312885
 11
-249.932917579
 21
-116.1169896376
  0
LWPOLYLINE
  5
335
100
AcDbEntity
  8
RACCORDO
100
AcDbPolyline
 62
250
  6
CONTINUOUS
 90
3
 70
0
 10
-223.932917579
 20
-113.4713760438
 10
-223.9329458516
 20
-113.4712813608
 10
-223.9330302872
 20
-113.4710348585
  0
LINE
  5
336
100
AcDbEntity
  8
RACCORDO
100
AcDbLine
 62
7
  6
CONTINUOUS
 10
-247.4939420184
 20
92.0601090605
 11
-247.4823289448
 21
91.8816925581
  0
LINE
  5
337
100
AcDbEntity
  8
RACCORDO
100
AcDbLine
 62
7
  6
CONTINUOUS
 10
-247.4823289448
 20
91.8816925581
 11
-247.4711606424
 21
91.6947341524
  0
LINE
  5
338
100
AcDbEntity
  8
RACCORDO
100
AcDbLine
 62
7
  6
CONTINUOUS
 10
-247.4711606424
 20
91.6947341524
 11
-247.4605003707
 21
91.4991287573
  0
LINE
  5
339
100
AcDbEntity
  8
RACCORDO
100
AcDbLine
 62
7
  6
CONTINUOUS
 10
-247.4605003707
 20
91.4991287573
 11
-247.4504107887
 21
91.2947045065
  0
LINE
  5
33A
100
AcDbEntity
  8
RACCORDO
100
AcDbLine
 62
7
  6
CONTINUOUS
 10
-247.4504107887
 20
91.2947045065
 11
-247.4409589095
 21
91.0812761744
  0
LINE
  5
33B
100
AcDbEntity
  8
RACCORDO
100
AcDbLine
 62
7
  6
CONTINUOUS
 10
-247.4409589095
 20
91.0812761744
 11
-247.4322228278
 21
90.8587903541
  0
LINE
  5
33C
100
AcDbEntity
  8
RACCORDO
100
AcDbLine
 62
250
  6
CONTINUOUS
 10
-247.4435444739
 20
91.2101144338
 11
-247.4283453675
 21
90.8300072607
  0
LWPOLYLINE
  5
33D
100
AcDbEntity
  8
RACCORDO
100
AcDbPolyline
 62
250
  6
CONTINUOUS
 90
13
 70
0
 10
-247.9219685962
 20
94.4893563784
 10
-247.9206069817
 20
94.4524073061
 10
-247.9165296059
 20
94.4156602997
 10
-247.9097587684
 20
94.3793163062
 10
-247.9003314978
 20
94.3435740693
 10
-247.888299349
 20
94.3086290405
 10
-247.8737281209
 20
94.2746723115
 10
-247.8566974973
 20
94.2418895702
 10
-247.8373006107
 20
94.2104600837
 10
-247.815643532
 20
94.1805557181
 10
-247.7918446926
 20
94.1523400006
 10
-247.7660342352
 20
94.1259672237
 10
-247.7609066734
 20
94.1214500789
  0
LINE
  5
33E
100
AcDbEntity
  8
RACCORDO
100
AcDbLine
 62
7
  6
CONTINUOUS
 10
-247.4322228278
 20
90.8587903541
 11
-247.4242820244
 21
90.6271376761
  0
LINE
  5
33F
100
AcDbEntity
  8
RACCORDO
100
AcDbLine
 62
250
  6
CONTINUOUS
 10
-247.4283453675
 20
90.8300072607
 11
-247.4158397141
 21
90.4347613094
  0
LINE
  5
340
100
AcDbEntity
  8
RACCORDO
100
AcDbLine
 62
7
  6
CONTINUOUS
 10
-247.4242820244
 20
90.6271376761
 11
-247.4172242247
 21
90.3862702158
  0
LWPOLYLINE
  5
341
100
AcDbEntity
  8
RACCORDO
100
AcDbPolyline
 62
7
  6
CONTINUOUS
 90
23
 70
0
 10
-249.9329173597
 20
94.489312885
 10
-249.9322076178
 20
94.4626813592
 10
-249.9290299976
 20
94.4270854755
 10
-249.9233179459
 20
94.3918076798
 10
-249.915100684
 20
94.3570281855
 10
-249.9044202305
 20
94.3229246558
 10
-249.8913311857
 20
94.2896712959
 10
-249.8759004528
 20
94.2574379634
 10
-249.8582068965
 20
94.2263893032
 10
-249.8383409361
 20
94.1966838986
 10
-249.8164040808
 20
94.1684734629
 10
-249.7925084179
 20
94.141902075
 10
-249.7667760413
 20
94.1171054418
 10
-249.7393384213
 20
94.0942101983
 10
-249.7103357283
 20
94.0733332595
 10
-249.6799161382
 20
94.0545812396
 10
-249.6482350778
 20
94.0380499014
 10
-249.6154543783
 20
94.0238236403
 10
-249.5817415086
 20
94.0119750877
 10
-249.5472687504
 20
94.0025647371
 10
-249.5122122192
 20
93.9956405997
 10
-249.4767509596
 20
93.9912379754
 10
-249.4416435631
 20
93.9893890374
  0
LINE
  5
342
100
AcDbEntity
  8
RACCORDO
100
AcDbLine
 62
7
  6
CONTINUOUS
 10
-247.4172242247
 20
90.3862702158
 11
-247.4111457896
 21
90.1362969532
  0
LINE
  5
343
100
AcDbEntity
  8
RACCORDO
100
AcDbLine
 62
250
  6
CONTINUOUS
 10
-247.4158397141
 20
90.4347613094
 11
-247.406277159
 21
90.0276215499
  0
LINE
  5
344
100
AcDbEntity
  8
RACCORDO
100
AcDbLine
 62
7
  6
CONTINUOUS
 10
-247.4111457896
 20
90.1362969532
 11
-247.4061459809
 21
89.8773063364
  0
LINE
  5
345
100
AcDbEntity
  8
RACCORDO
100
AcDbLine
 62
250
  6
CONTINUOUS
 10
-247.406277159
 20
90.0276215499
 11
-247.3997838293
 21
89.6112003943
  0
LINE
  5
346
100
AcDbEntity
  8
RACCORDO
100
AcDbLine
 62
7
  6
CONTINUOUS
 10
-247.4061459809
 20
89.8773063364
 11
-247.4023299119
 21
89.6093934026
  0
LINE
  5
347
100
AcDbEntity
  8
RACCORDO
100
AcDbLine
 62
7
  6
CONTINUOUS
 10
-247.4023299119
 20
89.6093934026
 11
-247.3998102376
 21
89.3328664239
  0
LINE
  5
348
100
AcDbEntity
  8
RACCORDO
100
AcDbLine
 62
250
  6
CONTINUOUS
 10
-247.3997838293
 20
89.6112003943
 11
-247.3965396652
 21
89.1920466515
  0
LINE
  5
349
100
AcDbEntity
  8
RACCORDO
100
AcDbLine
 62
7
  6
CONTINUOUS
 10
-247.3998102376
 20
89.3328664239
 11
-247.3987047675
 21
89.0480301691
  0
LINE
  5
34A
100
AcDbEntity
  8
RACCORDO
100
AcDbLine
 62
7
  6
CONTINUOUS
 10
-247.3987047675
 20
89.0480301691
 11
-247.3986632025
 21
-88.9810170054
  0
LINE
  5
34B
100
AcDbEntity
  8
RACCORDO
100
AcDbLine
 62
250
  6
CONTINUOUS
 10
-247.3965396652
 20
89.1920466515
 11
-247.3961264114
 21
-88.9810170053
  0
LINE
  5
34C
100
AcDbEntity
  8
RACCORDO
100
AcDbLine
 62
250
  6
CONTINUOUS
 10
-244.4877063689
 20
114.483409343
 11
-244.4874502914
 21
-114.4034030797
  0
LINE
  5
34D
100
AcDbEntity
  8
RACCORDO
100
AcDbLine
 62
250
  6
CONTINUOUS
 10
-241.6771309639
 20
114.4034030797
 11
-241.6771309639
 21
-114.4034030797
  0
LINE
  5
34E
100
AcDbEntity
  8
RACCORDO
100
AcDbLine
 62
7
  6
CONTINUOUS
 10
-247.3986632025
 20
-88.9810170054
 11
-247.3990471787
 21
-89.1846733988
  0
LWPOLYLINE
  5
34F
100
AcDbEntity
  8
RACCORDO
100
AcDbPolyline
 62
250
  6
CONTINUOUS
 90
43
 70
0
 10
-244.4874502914
 20
-114.4034030797
 10
-244.4876967784
 20
-114.4802316057
 10
-244.4883471695
 20
-114.5559296681
 10
-244.4894013929
 20
-114.6304972669
 10
-244.4908609787
 20
-114.7037512272
 10
-244.4927241182
 20
-114.775874724
 10
-244.494985666
 20
-114.8474172817
 10
-244.4976481864
 20
-114.9186739437
 10
-244.5007085754
 20
-114.9893496668
 10
-244.5041531333
 20
-115.0591088458
 10
-244.5079824571
 20
-115.1279277843
 10
-244.5121951796
 20
-115.1958301788
 10
-244.5167746247
 20
-115.2625515141
 10
-244.521721964
 20
-115.3280909971
 10
-244.5270350578
 20
-115.3924494209
 10
-244.5326922573
 20
-115.4553646501
 10
-244.5386944185
 20
-115.5168308526
 10
-244.545039567
 20
-115.5768538605
 10
-244.5517018341
 20
-115.6351890348
 10
-244.5586819174
 20
-115.6918296628
 10
-244.565977904
 20
-115.7467824573
 10
-244.5735600706
 20
-115.7998229176
 10
-244.5814292621
 20
-115.850944737
 10
-244.5895833792
 20
-115.9001542224
 10
-244.5979883814
 20
-115.947245793
 10
-244.6066436724
 20
-115.9922066496
 10
-244.6155486219
 20
-116.0350495916
 10
-244.62466927
 20
-116.0756074364
 10
-244.6340109476
 20
-116.1138860763
 10
-244.6435671554
 20
-116.149879619
 10
-244.6532863883
 20
-116.1834032055
 10
-244.6631283264
 20
-116.2143688141
 10
-244.673132414
 20
-116.2428644664
 10
-244.6833667219
 20
-116.2689693676
 10
-244.693859493
 20
-116.292812461
 10
-244.7045810152
 20
-116.3142648034
 10
-244.7155122627
 20
-116.3330187698
 10
-244.7266799479
 20
-116.3490857104
 10
-244.7380559055
 20
-116.3624542751
 10
-244.7495391564
 20
-116.3727827881
 10
-244.7610959218
 20
-116.3799573575
 10
-244.7727592599
 20
-116.3840918752
 10
-244.7845287681
 20
-116.3851863413
  0
LINE
  5
350
100
AcDbEntity
  8
RACCORDO
100
AcDbLine
 62
250
  6
CONTINUOUS
 10
-247.3961264114
 20
-88.9810170053
 11
-247.3977097614
 21
-89.3942227004
  0
LINE
  5
351
100
AcDbEntity
  8
RACCORDO
100
AcDbLine
 62
7
  6
CONTINUOUS
 10
-247.3990471787
 20
-89.1846733988
 11
-247.4008424617
 21
-89.4657568834
  0
LINE
  5
352
100
AcDbEntity
  8
RACCORDO
100
AcDbLine
 62
7
  6
CONTINUOUS
 10
-247.4008424617
 20
-89.4657568834
 11
-247.4039956697
 21
-89.7382946576
  0
LINE
  5
353
100
AcDbEntity
  8
RACCORDO
100
AcDbLine
 62
250
  6
CONTINUOUS
 10
-247.3977097614
 20
-89.3942227004
 11
-247.402318256
 21
-89.8007164424
  0
LINE
  5
354
100
AcDbEntity
  8
RACCORDO
100
AcDbLine
 62
7
  6
CONTINUOUS
 10
-247.4039956697
 20
-89.7382946576
 11
-247.4083913884
 21
-90.0020450742
  0
LINE
  5
355
100
AcDbEntity
  8
RACCORDO
100
AcDbLine
 62
250
  6
CONTINUOUS
 10
-247.402318256
 20
-89.8007164424
 11
-247.4099392065
 21
-90.2007681463
  0
LINE
  5
356
100
AcDbEntity
  8
RACCORDO
100
AcDbLine
 62
7
  6
CONTINUOUS
 10
-247.4083913884
 20
-90.0020450742
 11
-247.4139217543
 21
-90.2568661062
  0
LINE
  5
357
100
AcDbEntity
  8
RACCORDO
100
AcDbLine
 62
7
  6
CONTINUOUS
 10
-247.4139217543
 20
-90.2568661062
 11
-247.4204822266
 21
-90.5025676782
  0
LINE
  5
358
100
AcDbEntity
  8
RACCORDO
100
AcDbLine
 62
250
  6
CONTINUOUS
 10
-247.4099392065
 20
-90.2007681463
 11
-247.4205605253
 21
-90.5962230281
  0
LINE
  5
359
100
AcDbEntity
  8
RACCORDO
100
AcDbLine
 62
7
  6
CONTINUOUS
 10
-247.4204822266
 20
-90.5025676782
 11
-247.427975827
 21
-90.7390931216
  0
LWPOLYLINE
  5
35A
100
AcDbEntity
  8
RACCORDO
100
AcDbPolyline
 62
250
  6
CONTINUOUS
 90
13
 70
0
 10
-247.9219685962
 20
-94.4893563784
 10
-247.9206069899
 20
-94.4524074165
 10
-247.9165296364
 20
-94.4156605055
 10
-247.9097588324
 20
-94.3793165915
 10
-247.9003316033
 20
-94.3435744167
 10
-247.8882995005
 20
-94.308629433
 10
-247.8737283203
 20
-94.2746727327
 10
-247.8566977434
 20
-94.2418900039
 10
-247.8373008994
 20
-94.210460515
 10
-247.8156438576
 20
-94.1805561345
 10
-247.791845047
 20
-94.1523403906
 10
-247.7660346085
 20
-94.1259675779
 10
-247.7609043701
 20
-94.1214480659
  0
LINE
  5
35B
100
AcDbEntity
  8
RACCORDO
100
AcDbLine
 62
250
  6
CONTINUOUS
 10
-247.4205605253
 20
-90.5962230281
 11
-247.4340620977
 21
-90.98256892
  0
LINE
  5
35C
100
AcDbEntity
  8
RACCORDO
100
AcDbLine
 62
7
  6
CONTINUOUS
 10
-247.427975827
 20
-90.7390931216
 11
-247.4363116134
 21
-90.9664587925
  0
LINE
  5
35D
100
AcDbEntity
  8
RACCORDO
100
AcDbLine
 62
7
  6
CONTINUOUS
 10
-247.4363116134
 20
-90.9664587925
 11
-247.4454027251
 21
-91.1846533151
  0
LWPOLYLINE
  5
35E
100
AcDbEntity
  8
RACCORDO
100
AcDbPolyline
 62
250
  6
CONTINUOUS
 90
22
 70
0
 10
-247.4340620977
 20
-90.98256892
 10
-247.4503575186
 20
-91.3578741436
 10
-247.4595063555
 20
-91.5405118671
 10
-247.4693170217
 20
-91.7198323317
 10
-247.4797484994
 20
-91.8951691934
 10
-247.490799957
 20
-92.0665291611
 10
-247.5024638213
 20
-92.2339055259
 10
-247.51468914
 20
-92.3966118175
 10
-247.5274755066
 20
-92.5546448667
 10
-247.5408141844
 20
-92.7080078426
 10
-247.5546422214
 20
-92.8560237824
 10
-247.5689551048
 20
-92.9986476311
 10
-247.5837480248
 20
-93.1359244438
 10
-247.5989583511
 20
-93.2673124228
 10
-247.6145799917
 20
-93.3927765132
 10
-247.6306098786
 20
-93.5123517699
 10
-247.646990802
 20
-93.6256015592
 10
-247.6637284222
 20
-93.7325550539
 10
-247.6808081881
 20
-93.8331830811
 10
-247.6981438852
 20
-93.9269614883
 10
-247.7156969219
 20
-94.0137486703
 10
-247.7334986737
 20
-94.0936862323
  0
LINE
  5
35F
100
AcDbEntity
  8
RACCORDO
100
AcDbLine
 62
7
  6
CONTINUOUS
 10
-247.4454027251
 20
-91.1846533151
 11
-247.4551718247
 21
-91.3938055692
  0
LINE
  5
360
100
AcDbEntity
  8
RACCORDO
100
AcDbLine
 62
7
  6
CONTINUOUS
 10
-247.4551718247
 20
-91.3938055692
 11
-247.4655483123
 21
-91.5940778727
  0
LINE
  5
361
100
AcDbEntity
  8
RACCORDO
100
AcDbLine
 62
7
  6
CONTINUOUS
 10
-247.4655483123
 20
-91.5940778727
 11
-247.4764631643
 21
-91.7855661741
  0
LWPOLYLINE
  5
362
100
AcDbEntity
  8
RACCORDO
100
AcDbPolyline
 62
7
  6
CONTINUOUS
 90
3
 70
0
 10
-247.4764631643
 20
-91.7855661741
 10
-247.4878558291
 20
-91.9684593838
 10
-247.4937132584
 20
-92.0567342939
  0
LWPOLYLINE
  5
363
100
AcDbEntity
  8
RACCORDO
100
AcDbPolyline
 62
250
  6
CONTINUOUS
 90
5
 70
0
 10
-229.438153301
 20
-113.8666304284
 10
-229.4384454812
 20
-113.8649324918
 10
-229.4387230191
 20
-113.8598552662
 10
-229.4389828029
 20
-113.8514165698
 10
-229.4392202464
 20
-113.8396461224
  0
LINE
  5
364
100
AcDbEntity
  8
RACCORDO
100
AcDbLine
 62
7
  6
CONTINUOUS
 10
-247.5767977277
 20
93.0239251613
 11
-247.5634838676
 21
92.8966851924
  0
LINE
  5
365
100
AcDbEntity
  8
RACCORDO
100
AcDbLine
 62
7
  6
CONTINUOUS
 10
-247.5634838676
 20
92.8966851924
 11
-247.550312986
 21
92.7620370649
  0
LINE
  5
366
100
AcDbEntity
  8
RACCORDO
100
AcDbLine
 62
7
  6
CONTINUOUS
 10
-247.550312986
 20
92.7620370649
 11
-247.5373288644
 21
92.6198606534
  0
LINE
  5
367
100
AcDbEntity
  8
RACCORDO
100
AcDbLine
 62
7
  6
CONTINUOUS
 10
-247.5373288644
 20
92.6198606534
 11
-247.5245685979
 21
92.4699384459
  0
LINE
  5
368
100
AcDbEntity
  8
RACCORDO
100
AcDbLine
 62
7
  6
CONTINUOUS
 10
-247.5245685979
 20
92.4699384459
 11
-247.5120770886
 21
92.3121122104
  0
LWPOLYLINE
  5
369
100
AcDbEntity
  8
RACCORDO
100
AcDbPolyline
 62
7
  6
CONTINUOUS
 90
3
 70
0
 10
-247.5120770886
 20
92.3121122104
 10
-247.499898788
 20
92.1461797263
 10
-247.4939420184
 20
92.0601090605
  0
LINE
  5
36A
100
AcDbEntity
  8
RACCORDO
100
AcDbLine
 62
250
  6
CONTINUOUS
 10
-241.876218275
 20
118.6306828891
 11
-241.8612322681
 21
118.4252995509
  0
LINE
  5
36B
100
AcDbEntity
  8
RACCORDO
100
AcDbLine
 62
250
  6
CONTINUOUS
 10
-241.8612322681
 20
118.4252995509
 11
-241.8459965132
 21
118.1980510537
  0
LINE
  5
36C
100
AcDbEntity
  8
RACCORDO
100
AcDbLine
 62
250
  6
CONTINUOUS
 10
-241.8459965132
 20
118.1980510537
 11
-241.8305722719
 21
117.9501802918
  0
LINE
  5
36D
100
AcDbEntity
  8
RACCORDO
100
AcDbLine
 62
250
  6
CONTINUOUS
 10
-241.8305722719
 20
117.9501802918
 11
-241.8073079407
 21
117.5426654202
  0
LINE
  5
36E
100
AcDbEntity
  8
RACCORDO
100
AcDbLine
 62
250
  6
CONTINUOUS
 10
-241.8073079407
 20
117.5426654202
 11
-241.7841506498
 21
117.0968234798
  0
LINE
  5
36F
100
AcDbEntity
  8
RACCORDO
100
AcDbLine
 62
250
  6
CONTINUOUS
 10
-241.7841506498
 20
117.0968234798
 11
-241.7539567527
 21
116.4524910872
  0
LINE
  5
370
100
AcDbEntity
  8
RACCORDO
100
AcDbLine
 62
250
  6
CONTINUOUS
 10
-241.7539567527
 20
116.4524910872
 11
-241.724856174
 21
115.7557480515
  0
LINE
  5
371
100
AcDbEntity
  8
RACCORDO
100
AcDbLine
 62
250
  6
CONTINUOUS
 10
-241.724856174
 20
115.7557480515
 11
-241.6967256322
 21
114.9964839327
  0
LINE
  5
372
100
AcDbEntity
  8
RACCORDO
100
AcDbLine
 62
250
  6
CONTINUOUS
 10
-241.6967256322
 20
114.9964839327
 11
-241.6771309639
 21
114.4034030797
  0
LWPOLYLINE
  5
373
100
AcDbEntity
  8
RACCORDO
100
AcDbPolyline
 62
250
  6
CONTINUOUS
 90
43
 70
0
 10
-232.9784697462
 20
1.0984259458
 10
-232.9782568055
 20
1.0897630476
 10
-232.9770120063
 20
1.0809618412
 10
-232.9747357393
 20
1.0720306024
 10
-232.971479579
 20
1.0629779442
 10
-232.9671927766
 20
1.0538144362
 10
-232.9617222615
 20
1.0445526475
 10
-232.9550472586
 20
1.0351911215
 10
-232.9471894763
 20
1.0257563849
 10
-232.9380595077
 20
1.0163035462
 10
-232.9276394348
 20
1.0068495816
 10
-232.915947973
 20
0.9974057555
 10
-232.9029505152
 20
0.9880177228
 10
-232.8886293409
 20
0.978701579
 10
-232.8730028363
 20
0.9694710196
 10
-232.8560904118
 20
0.9603665023
 10
-232.8378841221
 20
0.9514068444
 10
-232.8183924099
 20
0.9426024743
 10
-232.7976591512
 20
0.9339795542
 10
-232.7756971927
 20
0.9255600326
 10
-232.7524940538
 20
0.917350157
 10
-232.7280556081
 20
0.9093527922
 10
-232.7023768035
 20
0.9015824531
 10
-232.675463095
 20
0.8940555592
 10
-232.6473361697
 20
0.8867797325
 10
-232.6180008808
 20
0.8797733155
 10
-232.5874527588
 20
0.8730507163
 10
-232.5556995711
 20
0.8666162634
 10
-232.5227826803
 20
0.8604954037
 10
-232.4886611127
 20
0.8546985218
 10
-232.4532193333
 20
0.8492149845
 10
-232.4164857177
 20
0.8440725139
 10
-232.3784325258
 20
0.8392923431
 10
-232.3388604248
 20
0.8348693523
 10
-232.2977703861
 20
0.8308390365
 10
-232.2551624172
 20
0.8272362816
 10
-232.2108361846
 20
0.8240756394
 10
-232.1647783447
 20
0.8214060423
 10
-232.1170035083
 20
0.8192753813
 10
-232.0673537341
 20
0.8177217455
 10
-232.0157769898
 20
0.8168070961
 10
-231.9623268299
 20
0.8166024638
 10
-231.9070038495
 20
0.8171741441
  0
LINE
  5
374
100
AcDbEntity
  8
RACCORDO
100
AcDbLine
 62
7
  6
CONTINUOUS
 10
-234.932917579
 20
119.75
 11
-234.932917579
 21
-119.75
  0
LINE
  5
375
100
AcDbEntity
  8
RACCORDO
100
AcDbLine
 62
250
  6
CONTINUOUS
 10
-234.7364080603
 20
-112.4741490476
 11
-234.7364080603
 21
-110.375
  0
LINE
  5
376
100
AcDbEntity
  8
RACCORDO
100
AcDbLine
 62
250
  6
CONTINUOUS
 10
-234.7364080603
 20
85.375
 11
-234.7364080603
 21
85.55
  0
LINE
  5
377
100
AcDbEntity
  8
0
100
AcDbLine
 62
7
  6
CONTINUOUS
 10
-233.752917579
 20
85.375
 11
-233.752917579
 21
-110.375
  0
LINE
  5
378
100
AcDbEntity
  8
RACCORDO
100
AcDbLine
 62
7
  6
CONTINUOUS
 10
-233.752917579
 20
85.55
 11
-233.752917579
 21
114.35
  0
LINE
  5
379
100
AcDbEntity
  8
RACCORDO
100
AcDbLine
 62
7
  6
CONTINUOUS
 10
-233.056044378
 20
-0.8904816259
 11
-233.0560432722
 21
0.8904802
  0
LINE
  5
37A
100
AcDbEntity
  8
RACCORDO
100
AcDbLine
 62
250
  6
CONTINUOUS
 10
-241.6771309639
 20
-114.4034030797
 11
-241.702241685
 21
-115.1534680552
  0
LWPOLYLINE
  5
37B
100
AcDbEntity
  8
RACCORDO
100
AcDbPolyline
 62
7
  6
CONTINUOUS
 90
13
 70
0
 10
-233.0560432729
 20
0.8904793628
 10
-233.0552196765
 20
0.9134747891
 10
-233.0532270362
 20
0.9354904453
 10
-233.0500653521
 20
0.9565263314
 10
-233.0456503072
 20
0.9766171001
 10
-233.0400662185
 20
0.9957280986
 10
-233.0335660367
 20
1.0137553694
 10
-233.0261364174
 20
1.030683773
 10
-233.017790705
 20
1.0465284487
 10
-233.0088218834
 20
1.0612308578
 10
-232.9993276136
 20
1.0747714872
 10
-232.9892102346
 20
1.0871698499
 10
-232.9784697462
 20
1.0984259458
  0
LINE
  5
37C
100
AcDbEntity
  8
RACCORDO
100
AcDbLine
 62
250
  6
CONTINUOUS
 10
-241.702241685
 20
-115.1534680552
 11
-241.7292987132
 21
-115.8671885887
  0
LINE
  5
37D
100
AcDbEntity
  8
RACCORDO
100
AcDbLine
 62
250
  6
CONTINUOUS
 10
-241.7292987132
 20
-115.8671885887
 11
-241.7583527
 21
-116.5508365214
  0
LINE
  5
37E
100
AcDbEntity
  8
RACCORDO
100
AcDbLine
 62
250
  6
CONTINUOUS
 10
-241.7583527
 20
-116.5508365214
 11
-241.7887109977
 21
-117.1878754242
  0
LINE
  5
37F
100
AcDbEntity
  8
RACCORDO
100
AcDbLine
 62
250
  6
CONTINUOUS
 10
-241.7887109977
 20
-117.1878754242
 11
-241.811923884
 21
-117.6267547635
  0
LINE
  5
380
100
AcDbEntity
  8
RACCORDO
100
AcDbLine
 62
250
  6
CONTINUOUS
 10
-241.811923884
 20
-117.6267547635
 11
-241.835187061
 21
-118.0262815328
  0
LINE
  5
381
100
AcDbEntity
  8
RACCORDO
100
AcDbLine
 62
250
  6
CONTINUOUS
 10
-241.835187061
 20
-118.0262815328
 11
-241.8505783541
 21
-118.2683156072
  0
LWPOLYLINE
  5
382
100
AcDbEntity
  8
RACCORDO
100
AcDbPolyline
 62
250
  6
CONTINUOUS
 90
3
 70
0
 10
-241.8505783541
 20
-118.2683156072
 10
-241.8657680062
 20
-118.4892746634
 10
-241.8732539441
 20
-118.5915060854
  0
LINE
  5
383
100
AcDbEntity
  8
RACCORDO
100
AcDbLine
 62
7
  6
CONTINUOUS
 10
-247.4937132584
 20
-92.0567342939
 11
-247.5057136271
 21
-92.2270060586
  0
LINE
  5
384
100
AcDbEntity
  8
RACCORDO
100
AcDbLine
 62
7
  6
CONTINUOUS
 10
-247.5057136271
 20
-92.2270060586
 11
-247.5180544181
 21
-92.389091357
  0
LINE
  5
385
100
AcDbEntity
  8
RACCORDO
100
AcDbLine
 62
7
  6
CONTINUOUS
 10
-247.5180544181
 20
-92.389091357
 11
-247.5306845202
 21
-92.5431335175
  0
LINE
  5
386
100
AcDbEntity
  8
RACCORDO
100
AcDbLine
 62
7
  6
CONTINUOUS
 10
-247.5306845202
 20
-92.5431335175
 11
-247.5435618791
 21
-92.6893457399
  0
LINE
  5
387
100
AcDbEntity
  8
RACCORDO
100
AcDbLine
 62
7
  6
CONTINUOUS
 10
-247.5435618791
 20
-92.6893457399
 11
-247.5566470153
 21
-92.8279337549
  0
LINE
  5
388
100
AcDbEntity
  8
RACCORDO
100
AcDbLine
 62
7
  6
CONTINUOUS
 10
-247.5566470153
 20
-92.8279337549
 11
-247.5698961732
 21
-92.9590302394
  0
LINE
  5
389
100
AcDbEntity
  8
RACCORDO
100
AcDbLine
 62
7
  6
CONTINUOUS
 10
-247.5698961732
 20
-92.9590302394
 11
-247.5832683764
 21
-93.0827783012
  0
LINE
  5
38A
100
AcDbEntity
  8
RACCORDO
100
AcDbLine
 62
7
  6
CONTINUOUS
 10
-247.5832683764
 20
-93.0827783012
 11
-247.5967178931
 21
-93.1992732603
  0
LINE
  5
38B
100
AcDbEntity
  8
RACCORDO
100
AcDbLine
 62
7
  6
CONTINUOUS
 10
-247.5967178931
 20
-93.1992732603
 11
-247.6102001378
 21
-93.3086248202
  0
LWPOLYLINE
  5
38C
100
AcDbEntity
  8
RACCORDO
100
AcDbPolyline
 62
7
  6
CONTINUOUS
 90
31
 70
0
 10
-247.6102001378
 20
-93.3086248202
 10
-247.6236722623
 20
-93.4109577504
 10
-247.630390748
 20
-93.4595297841
 10
-247.6370904435
 20
-93.5063952699
 10
-247.6437658878
 20
-93.551570909
 10
-247.6504104109
 20
-93.5950660575
 10
-247.6570187185
 20
-93.6369000667
 10
-247.6635857735
 20
-93.6770943212
 10
-247.6701048884
 20
-93.7156609115
 10
-247.6765703354
 20
-93.7526188935
 10
-247.6829767998
 20
-93.7879902872
 10
-247.6893172492
 20
-93.8217884649
 10
-247.6955861566
 20
-93.8540359712
 10
-247.7017768307
 20
-93.8847501383
 10
-247.707878899
 20
-93.913932324
 10
-247.7138865042
 20
-93.9416080021
 10
-247.7197910845
 20
-93.9677912262
 10
-247.7255753983
 20
-93.992461764
 10
-247.7312317823
 20
-94.0156453374
 10
-247.7367488279
 20
-94.0373539876
 10
-247.742098815
 20
-94.0575424253
 10
-247.7472739438
 20
-94.0762488789
 10
-247.7522550767
 20
-94.0934730131
 10
-247.756989063
 20
-94.1091109173
 10
-247.7614646026
 20
-94.1232133609
 10
-247.7656511583
 20
-94.1357742322
 10
-247.7694522214
 20
-94.1466141264
 10
-247.7728430167
 20
-94.1557894419
 10
-247.7757815012
 20
-94.1633166154
 10
-247.7781205552
 20
-94.1689769397
 10
-247.779273296
 20
-94.1716339649
  0
LINE
  5
38D
100
AcDbEntity
  8
RACCORDO
100
AcDbLine
 62
7
  6
CONTINUOUS
 10
-247.6238871121
 20
93.4125359241
 11
-247.6104194289
 21
93.3103447296
  0
LWPOLYLINE
  5
38E
100
AcDbEntity
  8
RACCORDO
100
AcDbPolyline
 62
250
  6
CONTINUOUS
 90
6
 70
0
 10
-223.4416437822
 20
-113.9712998914
 10
-223.4420106567
 20
-113.9684379394
 10
-223.44236664
 20
-113.9598710784
 10
-223.4427076957
 20
-113.9456165136
 10
-223.4430271548
 20
-113.925702894
 10
-223.4433242459
 20
-113.9001686563
  0
LINE
  5
38F
100
AcDbEntity
  8
RACCORDO
100
AcDbLine
 62
7
  6
CONTINUOUS
 10
-247.6104194289
 20
93.3103447296
 11
-247.5969409444
 21
93.2011414364
  0
LWPOLYLINE
  5
390
100
AcDbEntity
  8
RACCORDO
100
AcDbPolyline
 62
7
  6
CONTINUOUS
 90
3
 70
0
 10
-247.5969409444
 20
93.2011414364
 10
-247.5834947335
 20
93.0848033525
 10
-247.5767977277
 20
93.0239251613
  0
LINE
  5
391
100
AcDbEntity
  8
RACCORDO
100
AcDbLine
 62
250
  6
CONTINUOUS
 10
-241.8908591636
 20
118.8130757969
 11
-241.876218275
 21
118.6306828891
  0
LWPOLYLINE
  5
392
100
AcDbEntity
  8
RACCORDO
100
AcDbPolyline
 62
250
  6
CONTINUOUS
 90
9
 70
0
 10
-224.2336550309
 20
-113.8511322262
 10
-224.2331642522
 20
-113.8757187776
 10
-224.2325958994
 20
-113.897200356
 10
-224.2319518949
 20
-113.9155043026
 10
-224.2312344171
 20
-113.9305687068
 10
-224.2304458926
 20
-113.9423426151
 10
-224.2295889887
 20
-113.9507862038
 10
-224.2286666035
 20
-113.9558709134
 10
-224.2276818571
 20
-113.9575795457
  0
LWPOLYLINE
  5
393
100
AcDbEntity
  8
RACCORDO
100
AcDbPolyline
 62
250
  6
CONTINUOUS
 90
8
 70
0
 10
-230.0257664433
 20
-106.9758377757
 10
-230.0259295685
 20
-106.9653542256
 10
-230.0261317581
 20
-106.9563812747
 10
-230.0263718819
 20
-106.9489690839
 10
-230.0266485975
 20
-106.9431590845
 10
-230.0269603582
 20
-106.9389837556
 10
-230.027305421
 20
-106.9364664393
 10
-230.0276818571
 20
-106.935621208
  0
LWPOLYLINE
  5
394
100
AcDbEntity
  8
RACCORDO
100
AcDbPolyline
 62
250
  6
CONTINUOUS
 90
8
 70
0
 10
-229.4362378855
 20
-106.9861281658
 10
-229.4364010105
 20
-106.9756445848
 10
-229.4366032001
 20
-106.9666716048
 10
-229.4368433241
 20
-106.9592593868
 10
-229.43712004
 20
-106.9534493671
 10
-229.4374318011
 20
-106.949274025
 10
-229.4377768644
 20
-106.946756701
 10
-229.438153301
 20
-106.9459114672
  0
LWPOLYLINE
  5
395
100
AcDbEntity
  8
RACCORDO
100
AcDbPolyline
 62
250
  6
CONTINUOUS
 90
8
 70
0
 10
-224.2257664433
 20
-107.0770771523
 10
-224.2259295685
 20
-107.0665936022
 10
-224.2261317581
 20
-107.0576206513
 10
-224.2263718819
 20
-107.0502084604
 10
-224.2266485975
 20
-107.0443984611
 10
-224.2269603582
 20
-107.0402231322
 10
-224.227305421
 20
-107.0377058159
 10
-224.2276818571
 20
-107.0368605846
  0
LINE
  5
396
100
AcDbEntity
  8
RACCORDO
100
AcDbLine
 62
250
  6
CONTINUOUS
 10
-230.0263718823
 20
107.147179245
 11
-230.0276818571
 21
107.2355755166
  0
LINE
  5
397
100
AcDbEntity
  8
RACCORDO
100
AcDbLine
 62
250
  6
CONTINUOUS
 10
-229.438153301
 20
107.2458657758
 11
-229.4368433239
 21
107.1574693129
  0
LINE
  5
398
100
AcDbEntity
  8
RACCORDO
100
AcDbLine
 62
250
  6
CONTINUOUS
 10
-224.2343974944
 20
-113.7929870687
 11
-224.2336550309
 21
-113.8511322262
  0
LINE
  5
399
100
AcDbEntity
  8
RACCORDO
100
AcDbLine
 62
250
  6
CONTINUOUS
 10
-229.4392202464
 20
-113.8396461224
 11
-229.4396279121
 21
-113.8062796921
  0
LINE
  5
39A
100
AcDbEntity
  8
RACCORDO
100
AcDbLine
 62
250
  6
CONTINUOUS
 10
-230.0257664434
 20
107.0856249766
 11
-230.0263718823
 21
107.147179245
  0
LINE
  5
39B
100
AcDbEntity
  8
RACCORDO
100
AcDbLine
 62
250
  6
CONTINUOUS
 10
-229.4368433239
 20
107.1574693129
 11
-229.4362378854
 21
107.0959149836
  0
LINE
  5
39C
100
AcDbEntity
  8
RACCORDO
100
AcDbLine
 62
250
  6
CONTINUOUS
 10
-230.0255608106
 20
-107.0010941597
 11
-230.0257664433
 21
-106.9758377757
  0
LINE
  5
39D
100
AcDbEntity
  8
RACCORDO
100
AcDbLine
 62
250
  6
CONTINUOUS
 10
-229.4360322537
 20
-107.0113845907
 11
-229.4362378855
 21
-106.9861281658
  0
LINE
  5
39E
100
AcDbEntity
  8
RACCORDO
100
AcDbLine
 62
250
  6
CONTINUOUS
 10
-224.2255608106
 20
-107.1023335362
 11
-224.2257664433
 21
-107.0770771523
  0
LINE
  5
39F
100
AcDbEntity
  8
RACCORDO
100
AcDbLine
 62
250
  6
CONTINUOUS
 10
-224.2348132531
 20
-113.7235508925
 11
-224.2343974944
 21
-113.7929870687
  0
LINE
  5
3A0
100
AcDbEntity
  8
RACCORDO
100
AcDbLine
 62
250
  6
CONTINUOUS
 10
-229.4396279121
 20
-113.8062796921
 11
-229.4400690811
 21
-113.7325771014
  0
LINE
  5
3A1
100
AcDbEntity
  8
RACCORDO
100
AcDbLine
 62
250
  6
CONTINUOUS
 10
-230.0255194526
 20
107.0315867049
 11
-230.0257664434
 21
107.0856249766
  0
LINE
  5
3A2
100
AcDbEntity
  8
RACCORDO
100
AcDbLine
 62
250
  6
CONTINUOUS
 10
-229.4362378854
 20
107.0959149836
 11
-229.4359908964
 21
107.0418769103
  0
LINE
  5
3A3
100
AcDbEntity
  8
RACCORDO
100
AcDbLine
 62
250
  6
CONTINUOUS
 10
-229.438153301
 20
112.8667827332
 11
-229.4402926303
 21
113.509263999
  0
LINE
  5
3A4
100
AcDbEntity
  8
0
100
AcDbLine
 62
250
  6
CONTINUOUS
 10
-230.1209600506
 20
-98.0
 11
-230.1209600506
 21
-0.8483496546
  0
LINE
  5
3A5
100
AcDbEntity
  8
0
100
AcDbLine
 62
250
  6
CONTINUOUS
 10
-230.1209600506
 20
0.8483496546
 11
-230.1209600506
 21
98.0
  0
LINE
  5
3A6
100
AcDbEntity
  8
RACCORDO
100
AcDbLine
 62
250
  6
CONTINUOUS
 10
-230.0276818571
 20
-112.5563401692
 11
-230.0276818571
 21
-107.2355755166
  0
LINE
  5
3A7
100
AcDbEntity
  8
RACCORDO
100
AcDbLine
 62
250
  6
CONTINUOUS
 10
-230.0276818571
 20
107.2355755166
 11
-230.0276818571
 21
112.5563401692
  0
LINE
  5
3A8
100
AcDbEntity
  8
RACCORDO
100
AcDbLine
 62
250
  6
CONTINUOUS
 10
-230.0255194524
 20
-107.0315865584
 11
-230.0255608106
 21
-107.0010941597
  0
LINE
  5
3A9
100
AcDbEntity
  8
RACCORDO
100
AcDbLine
 62
7
  6
CONTINUOUS
 10
-229.732917579
 20
-113.5666761198
 11
-229.732917579
 21
-107.2355755166
  0
LINE
  5
3AA
100
AcDbEntity
  8
RACCORDO
100
AcDbLine
 62
7
  6
CONTINUOUS
 10
-229.732917579
 20
107.2355755166
 11
-229.732917579
 21
113.5666761198
  0
LINE
  5
3AB
100
AcDbEntity
  8
RACCORDO
100
AcDbLine
 62
250
  6
CONTINUOUS
 10
-229.438153301
 20
-112.8667827332
 11
-229.438153301
 21
-107.2458657758
  0
LINE
  5
3AC
100
AcDbEntity
  8
RACCORDO
100
AcDbLine
 62
250
  6
CONTINUOUS
 10
-229.438153301
 20
107.2458657758
 11
-229.438153301
 21
112.8667827332
  0
LINE
  5
3AD
100
AcDbEntity
  8
RACCORDO
100
AcDbLine
 62
250
  6
CONTINUOUS
 10
-229.4359908964
 20
-107.0418769108
 11
-229.4360322537
 21
-107.0113845907
  0
LINE
  5
3AE
100
AcDbEntity
  8
RACCORDO
100
AcDbLine
 62
250
  6
CONTINUOUS
 10
-229.4400690811
 20
-113.7325771014
 11
-229.4402426459
 21
-113.4636226311
  0
LINE
  5
3AF
100
AcDbEntity
  8
RACCORDO
100
AcDbLine
 62
250
  6
CONTINUOUS
 10
-230.0255608102
 20
107.0010942589
 11
-230.0255194526
 21
107.0315867049
  0
LINE
  5
3B0
100
AcDbEntity
  8
RACCORDO
100
AcDbLine
 62
250
  6
CONTINUOUS
 10
-229.4359908964
 20
107.0418769103
 11
-229.4360322537
 21
107.0113845902
  0
LINE
  5
3B1
100
AcDbEntity
  8
RACCORDO
100
AcDbLine
 62
250
  6
CONTINUOUS
 10
-229.4402926303
 20
113.509263999
 11
-229.4400690811
 21
113.7325771014
  0
LINE
  5
3B2
100
AcDbEntity
  8
RACCORDO
100
AcDbLine
 62
250
  6
CONTINUOUS
 10
-229.4402426459
 20
-113.4636226311
 11
-229.438153301
 21
-112.8667827332
  0
LINE
  5
3B3
100
AcDbEntity
  8
RACCORDO
100
AcDbLine
 62
250
  6
CONTINUOUS
 10
-230.025766442
 20
-107.0856247915
 11
-230.0255194524
 21
-107.0315865584
  0
LINE
  5
3B4
100
AcDbEntity
  8
RACCORDO
100
AcDbLine
 62
250
  6
CONTINUOUS
 10
-229.4362378854
 20
-107.095914984
 11
-229.4359908964
 21
-107.0418769108
  0
LINE
  5
3B5
100
AcDbEntity
  8
RACCORDO
100
AcDbLine
 62
250
  6
CONTINUOUS
 10
-224.2348132531
 20
113.7235508925
 11
-224.2343974944
 21
113.7929870687
  0
LINE
  5
3B6
100
AcDbEntity
  8
RACCORDO
100
AcDbLine
 62
250
  6
CONTINUOUS
 10
-229.4400690811
 20
113.7325771014
 11
-229.4396279121
 21
113.8062796921
  0
LWPOLYLINE
  5
3B7
100
AcDbEntity
  8
RACCORDO
100
AcDbPolyline
 62
250
  6
CONTINUOUS
 90
9
 70
0
 10
-229.4360322537
 20
107.0113845902
 10
-229.4362378855
 20
106.9861281652
 10
-229.4364010105
 20
106.9756445844
 10
-229.4366032001
 20
106.9666716044
 10
-229.4368433241
 20
106.9592593865
 10
-229.4371200401
 20
106.9534493669
 10
-229.4374318011
 20
106.9492740249
 10
-229.4377768644
 20
106.9467567009
 10
-229.438153301
 20
106.9459114672
  0
LINE
  5
3B8
100
AcDbEntity
  8
RACCORDO
100
AcDbLine
 62
250
  6
CONTINUOUS
 10
-230.0263718809
 20
-107.1471791273
 11
-230.025766442
 21
-107.0856247915
  0
LINE
  5
3B9
100
AcDbEntity
  8
RACCORDO
100
AcDbLine
 62
250
  6
CONTINUOUS
 10
-229.4368433239
 20
-107.1574693131
 11
-229.4362378854
 21
-107.095914984
  0
LWPOLYLINE
  5
3BA
100
AcDbEntity
  8
RACCORDO
100
AcDbPolyline
 62
250
  6
CONTINUOUS
 90
6
 70
0
 10
-229.4396279121
 20
113.8062796921
 10
-229.4392202463
 20
113.8396461224
 10
-229.4389828029
 20
113.8514165698
 10
-229.4387230191
 20
113.8598552662
 10
-229.4384454812
 20
113.8649324918
 10
-229.438153301
 20
113.8666304284
  0
LWPOLYLINE
  5
3BB
100
AcDbEntity
  8
RACCORDO
100
AcDbPolyline
 62
250
  6
CONTINUOUS
 90
10
 70
0
 10
-224.2343974944
 20
113.7929870687
 10
-224.2336550309
 20
113.8511322262
 10
-224.2331642522
 20
113.8757187776
 10
-224.2325958994
 20
113.897200356
 10
-224.2319518949
 20
113.9155043026
 10
-224.2312344171
 20
113.9305687068
 10
-224.2304458926
 20
113.9423426151
 10
-224.2295889887
 20
113.9507862038
 10
-224.2286666035
 20
113.9558709134
 10
-224.2276818571
 20
113.9575795457
  0
LINE
  5
3BC
100
AcDbEntity
  8
RACCORDO
100
AcDbLine
 62
250
  6
CONTINUOUS
 10
-230.0276818571
 20
-107.2355755166
 11
-230.0263718809
 21
-107.1471791273
  0
LINE
  5
3BD
100
AcDbEntity
  8
RACCORDO
100
AcDbLine
 62
250
  6
CONTINUOUS
 10
-229.438153301
 20
-107.2458657758
 11
-229.4368433239
 21
-107.1574693131
  0
LWPOLYLINE
  5
3BE
100
AcDbEntity
  8
RACCORDO
100
AcDbPolyline
 62
250
  6
CONTINUOUS
 90
15
 70
0
 10
-241.8732539441
 20
-118.5915060854
 10
-241.8879966395
 20
-118.7788649265
 10
-241.8951997004
 20
-118.8635722646
 10
-241.9022497722
 20
-118.9418286931
 10
-241.909188504
 20
-119.0138834367
 10
-241.9160513568
 20
-119.0803123835
 10
-241.922847706
 20
-119.1410073893
 10
-241.9295552096
 20
-119.1954924474
 10
-241.9361465061
 20
-119.2435691062
 10
-241.9426346859
 20
-119.2850190863
 10
-241.9489966442
 20
-119.319434269
 10
-241.9551571398
 20
-119.346414365
 10
-241.9610983231
 20
-119.3657630191
 10
-241.9668522439
 20
-119.3773669704
 10
-241.9724269697
 20
-119.3810749456
  0
LWPOLYLINE
  5
3BF
100
AcDbEntity
  8
RACCORDO
100
AcDbPolyline
 62
7
  6
CONTINUOUS
 90
13
 70
0
 10
-232.9784697462
 20
-1.0984259458
 10
-232.9891401193
 20
-1.0872482697
 10
-232.9992000826
 20
-1.0749352014
 10
-233.0086496361
 20
-1.0614867411
 10
-233.0175836245
 20
-1.046900262
 10
-233.0259072031
 20
-1.0311783909
 10
-233.0333358377
 20
-1.0143290078
 10
-233.0398672895
 20
-0.9963215388
 10
-233.0455037974
 20
-0.9771865578
 10
-233.0499675431
 20
-0.9570236673
 10
-233.0531659207
 20
-0.9358660678
 10
-233.0551915361
 20
-0.9136805588
 10
-233.0560443895
 20
-0.8904671401
  0
LWPOLYLINE
  5
3C0
100
AcDbEntity
  8
RACCORDO
100
AcDbPolyline
 62
250
  6
CONTINUOUS
 90
31
 70
0
 10
-233.0560432722
 20
0.8904802
 10
-233.0422473729
 20
0.8709542323
 10
-233.0270958168
 20
0.8516634775
 10
-233.0105886041
 20
0.8326079359
 10
-232.9927061783
 20
0.8137414577
 10
-232.9734680959
 20
0.7951101925
 10
-232.952933026
 20
0.7768525891
 10
-232.9311180272
 20
0.7589915923
 10
-232.908006041
 20
0.7415042572
 10
-232.8836045609
 20
0.7244601983
 10
-232.8579094204
 20
0.7078550024
 10
-232.830924786
 20
0.6916930826
 10
-232.8026706515
 20
0.6760572926
 10
-232.773146257
 20
0.6609457388
 10
-232.7423523624
 20
0.6463603147
 10
-232.7103112402
 20
0.6323895541
 10
-232.6770670411
 20
0.6190408712
 10
-232.6425756144
 20
0.6063068518
 10
-232.6067267799
 20
0.5942537873
 10
-232.5695530768
 20
0.5828674883
 10
-232.5310219661
 20
0.5721621441
 10
-232.4909256503
 20
0.5622466148
 10
-232.4492656265
 20
0.5530896764
 10
-232.4060403978
 20
0.5447225528
 10
-232.3610376758
 20
0.5373477756
 10
-232.3142423009
 20
0.5309263226
 10
-232.2656694326
 20
0.5254972159
 10
-232.215152262
 20
0.5213800541
 10
-232.1626351862
 20
0.5186813698
 10
-232.108173808
 20
0.5172946303
 10
-232.0517681275
 20
0.5172198355
  0
LWPOLYLINE
  5
3C1
100
AcDbEntity
  8
RACCORDO
100
AcDbPolyline
 62
7
  6
CONTINUOUS
 90
16
 70
0
 10
-187.6294270977
 20
-61.7473793127
 10
-187.6060471204
 20
-61.7839157216
 10
-187.5838944536
 20
-61.8198141905
 10
-187.5629690974
 20
-61.8550747193
 10
-187.5431541624
 20
-61.8896466322
 10
-187.524566538
 20
-61.923580605
 10
-187.5075568923
 20
-61.9570286654
 10
-187.4921721357
 20
-61.9900554177
 10
-187.4783653579
 20
-62.0225962577
 10
-187.4663464953
 20
-62.0546094005
 10
-187.4561589282
 20
-62.0861483112
 10
-187.4477592764
 20
-62.1171595247
 10
-187.441227336
 20
-62.1474408605
 10
-187.4365897057
 20
-62.1769249251
 10
-187.4338197867
 20
-62.205679112
 10
-187.4329175791
 20
-62.2337034212
  0
LWPOLYLINE
  5
3C2
100
AcDbEntity
  8
RACCORDO
100
AcDbPolyline
 62
250
  6
CONTINUOUS
 90
22
 70
0
 10
-247.7370912157
 20
94.1087411577
 10
-247.7192236987
 20
94.0301337186
 10
-247.7016098164
 20
93.9447289991
 10
-247.6842586023
 20
93.8525272215
 10
-247.6671687106
 20
93.7535281636
 10
-247.6504031938
 20
93.6481122037
 10
-247.6339654682
 20
93.5362521803
 10
-247.6178605823
 20
93.4179752551
 10
-247.6021552069
 20
93.2937432917
 10
-247.5868532744
 20
93.1635113677
 10
-247.5719599213
 20
93.0273244057
 10
-247.5575446889
 20
92.8857790367
 10
-247.5436158828
 20
92.7388618962
 10
-247.5301745976
 20
92.5865863487
 10
-247.5172803717
 20
92.4295891193
 10
-247.5049418623
 20
92.2678826287
 10
-247.4931595733
 20
92.1014544561
 10
-247.481981269
 20
91.9309040637
 10
-247.4714097472
 20
91.7561433744
 10
-247.4614506021
 20
91.5772604652
 10
-247.4521560318
 20
91.3951190299
 10
-247.4435444739
 20
91.2101144338
  0
LWPOLYLINE
  5
3C3
100
AcDbEntity
  8
RACCORDO
100
AcDbPolyline
 62
250
  6
CONTINUOUS
 90
3
 70
0
 10
-224.2272771869
 20
107.0258855887
 10
-224.2274705084
 20
107.0341286408
 10
-224.2276818571
 20
107.0368605846
  0
LWPOLYLINE
  5
3C4
100
AcDbEntity
  8
RACCORDO
100
AcDbPolyline
 62
250
  6
CONTINUOUS
 90
8
 70
0
 10
-224.2257664434
 20
-0.9914337703
 10
-224.225929569
 20
-0.9809501994
 10
-224.2261317587
 20
-0.9719772528
 10
-224.2263718823
 20
-0.9645650739
 10
-224.2266485977
 20
-0.9587550819
 10
-224.2269603583
 20
-0.9545797551
 10
-224.227305421
 20
-0.9520624393
 10
-224.2276818571
 20
-0.9512172081
  0
LINE
  5
3C5
100
AcDbEntity
  8
RACCORDO
100
AcDbLine
 62
250
  6
CONTINUOUS
 10
-218.3399480849
 20
-111.1121599304
 11
-218.3407321653
 21
-111.0604127873
  0
LINE
  5
3C6
100
AcDbEntity
  8
RACCORDO
100
AcDbLine
 62
250
  6
CONTINUOUS
 10
-224.2263718819
 20
1.1627752125
 11
-224.2276818571
 21
1.2511715166
  0
LINE
  5
3C7
100
AcDbEntity
  8
RACCORDO
100
AcDbLine
 62
250
  6
CONTINUOUS
 10
-224.2263718823
 20
107.2484186216
 11
-224.2276818571
 21
107.3368148931
  0
LINE
  5
3C8
100
AcDbEntity
  8
RACCORDO
100
AcDbLine
 62
250
  6
CONTINUOUS
 10
-224.2276818571
 20
112.9577318506
 11
-224.2319518947
 21
113.244437387
  0
LWPOLYLINE
  5
3C9
100
AcDbEntity
  8
RACCORDO
100
AcDbPolyline
 62
250
  6
CONTINUOUS
 90
8
 70
0
 10
-218.3393620651
 20
111.2241969198
 10
-218.3394552217
 20
111.2335712069
 10
-218.3395846473
 20
111.2416281644
 10
-218.3397493571
 20
111.2483064979
 10
-218.3399480981
 20
111.2535554013
 10
-218.3401793583
 20
111.2573349431
 10
-218.3404413785
 20
111.25961637
 10
-218.3407321652
 20
111.2603823263
  0
LINE
  5
3CA
100
AcDbEntity
  8
RACCORDO
100
AcDbLine
 62
250
  6
CONTINUOUS
 10
-224.2269208375
 20
106.9926521982
 11
-224.2272771869
 21
107.0258855887
  0
LINE
  5
3CB
100
AcDbEntity
  8
RACCORDO
100
AcDbLine
 62
250
  6
CONTINUOUS
 10
-218.3394552094
 20
-111.1603816335
 11
-218.3399480849
 21
-111.1121599304
  0
LINE
  5
3CC
100
AcDbEntity
  8
RACCORDO
100
AcDbLine
 62
250
  6
CONTINUOUS
 10
-224.2257664433
 20
1.1012209673
 11
-224.2263718819
 21
1.1627752125
  0
LINE
  5
3CD
100
AcDbEntity
  8
RACCORDO
100
AcDbLine
 62
250
  6
CONTINUOUS
 10
-224.2257664434
 20
107.1868643532
 11
-224.2263718823
 21
107.2484186216
  0
LINE
  5
3CE
100
AcDbEntity
  8
RACCORDO
100
AcDbLine
 62
250
  6
CONTINUOUS
 10
-224.2319518947
 20
113.244437387
 11
-224.2340665755
 21
113.4575678047
  0
LINE
  5
3CF
100
AcDbEntity
  8
RACCORDO
100
AcDbLine
 62
250
  6
CONTINUOUS
 10
-224.2255608103
 20
-1.0166902382
 11
-224.2257664434
 21
-0.9914337703
  0
LINE
  5
3D0
100
AcDbEntity
  8
RACCORDO
100
AcDbLine
 62
250
  6
CONTINUOUS
 10
-223.4433242459
 20
-113.9001686563
 11
-223.4441005023
 21
-113.7903642615
  0
LINE
  5
3D1
100
AcDbEntity
  8
RACCORDO
100
AcDbLine
 62
250
  6
CONTINUOUS
 10
-218.3393058812
 20
-111.1889317402
 11
-218.3394552094
 21
-111.1603816335
  0
LINE
  5
3D2
100
AcDbEntity
  8
RACCORDO
100
AcDbLine
 62
250
  6
CONTINUOUS
 10
-224.2340665755
 20
113.4575678047
 11
-224.2348132531
 21
113.6003178985
  0
LINE
  5
3D3
100
AcDbEntity
  8
RACCORDO
100
AcDbLine
 62
250
  6
CONTINUOUS
 10
-224.2261707454
 20
106.811320445
 11
-224.2269208375
 21
106.9926521982
  0
LINE
  5
3D4
100
AcDbEntity
  8
RACCORDO
100
AcDbLine
 62
250
  6
CONTINUOUS
 10
-224.2255194527
 20
1.0471828238
 11
-224.2257664433
 21
1.1012209673
  0
LINE
  5
3D5
100
AcDbEntity
  8
RACCORDO
100
AcDbLine
 62
250
  6
CONTINUOUS
 10
-224.2255194526
 20
107.1328260814
 11
-224.2257664434
 21
107.1868643532
  0
LINE
  5
3D6
100
AcDbEntity
  8
RACCORDO
100
AcDbLine
 62
250
  6
CONTINUOUS
 10
-218.3392871121
 20
111.2017911001
 11
-218.3393620651
 21
111.2241969198
  0
LINE
  5
3D7
100
AcDbEntity
  8
RACCORDO
100
AcDbLine
 62
250
  6
CONTINUOUS
 10
-223.4416437822
 20
110.9717568059
 11
-223.4451509058
 21
112.7977687293
  0
LINE
  5
3D8
100
AcDbEntity
  8
RACCORDO
100
AcDbLine
 62
250
  6
CONTINUOUS
 10
-223.4441005023
 20
-113.7903642615
 11
-223.445244942
 21
-113.1832411868
  0
LINE
  5
3D9
100
AcDbEntity
  8
RACCORDO
100
AcDbLine
 62
250
  6
CONTINUOUS
 10
-224.5367343391
 20
0.6483952383
 11
-224.5367343391
 21
-0.6483952383
  0
LINE
  5
3DA
100
AcDbEntity
  8
RACCORDO
100
AcDbLine
 62
250
  6
CONTINUOUS
 10
-224.2255159896
 20
-105.9614343756
 11
-224.225588196
 21
-105.6393771149
  0
LINE
  5
3DB
100
AcDbEntity
  8
RACCORDO
100
AcDbLine
 62
250
  6
CONTINUOUS
 10
-224.2276818571
 20
-112.9577318506
 11
-224.2276818571
 21
-107.3368148931
  0
LINE
  5
3DC
100
AcDbEntity
  8
RACCORDO
100
AcDbLine
 62
250
  6
CONTINUOUS
 10
-224.225588196
 20
-105.6393771149
 11
-224.2276818571
 21
-1.2511715166
  0
LINE
  5
3DD
100
AcDbEntity
  8
RACCORDO
100
AcDbLine
 62
250
  6
CONTINUOUS
 10
-224.2276818571
 20
107.3368148931
 11
-224.2276818571
 21
112.9577318506
  0
LINE
  5
3DE
100
AcDbEntity
  8
RACCORDO
100
AcDbLine
 62
250
  6
CONTINUOUS
 10
-224.2255194524
 20
-107.132825935
 11
-224.2255608106
 21
-107.1023335362
  0
LINE
  5
3DF
100
AcDbEntity
  8
RACCORDO
100
AcDbLine
 62
250
  6
CONTINUOUS
 10
-224.2255194526
 20
-1.0471826932
 11
-224.2255608103
 21
-1.0166902382
  0
LINE
  5
3E0
100
AcDbEntity
  8
RACCORDO
100
AcDbLine
 62
7
  6
CONTINUOUS
 10
-223.932917579
 20
-113.4713760438
 11
-223.932917579
 21
-1.2511715166
  0
LINE
  5
3E1
100
AcDbEntity
  8
RACCORDO
100
AcDbLine
 62
7
  6
CONTINUOUS
 10
-223.932917579
 20
1.2511715166
 11
-223.932917579
 21
113.4713760438
  0
LINE
  5
3E2
100
AcDbEntity
  8
RACCORDO
100
AcDbLine
 62
250
  6
CONTINUOUS
 10
-223.571639152
 20
-1.0456572133
 11
-223.571639152
 21
1.0456600414
  0
LINE
  5
3E3
100
AcDbEntity
  8
RACCORDO
100
AcDbLine
 62
250
  6
CONTINUOUS
 10
-223.4416437822
 20
1.2648918622
 11
-223.4416437822
 21
110.9717568059
  0
LINE
  5
3E4
100
AcDbEntity
  8
RACCORDO
100
AcDbLine
 62
7
  6
CONTINUOUS
 10
-218.932917579
 20
-114.05
 11
-218.932917579
 21
114.05
  0
LINE
  5
3E5
100
AcDbEntity
  8
RACCORDO
100
AcDbLine
 62
250
  6
CONTINUOUS
 10
-218.7364080603
 20
112.7465699136
 11
-218.7364080603
 21
111.334571598
  0
LINE
  5
3E6
100
AcDbEntity
  8
RACCORDO
100
AcDbLine
 62
250
  6
CONTINUOUS
 10
-218.7364080603
 20
-111.334571598
 11
-218.7364080603
 21
-112.7465699136
  0
LINE
  5
3E7
100
AcDbEntity
  8
RACCORDO
100
AcDbLine
 62
250
  6
CONTINUOUS
 10
-224.2272768144
 20
103.8147588231
 11
-224.2261707454
 21
106.811320445
  0
LINE
  5
3E8
100
AcDbEntity
  8
RACCORDO
100
AcDbLine
 62
250
  6
CONTINUOUS
 10
-224.2276818571
 20
1.2511715166
 11
-224.2272768144
 21
103.8147588231
  0
LINE
  5
3E9
100
AcDbEntity
  8
RACCORDO
100
AcDbLine
 62
250
  6
CONTINUOUS
 10
-223.445244942
 20
-113.1832411868
 11
-223.4443176165
 21
-112.1196962319
  0
LINE
  5
3EA
100
AcDbEntity
  8
RACCORDO
100
AcDbLine
 62
250
  6
CONTINUOUS
 10
-224.2348132531
 20
-113.6003178985
 11
-224.2348132531
 21
-113.7235508925
  0
LINE
  5
3EB
100
AcDbEntity
  8
RACCORDO
100
AcDbLine
 62
250
  6
CONTINUOUS
 10
-224.2348132531
 20
113.6003178985
 11
-224.2348132531
 21
113.7235508925
  0
LINE
  5
3EC
100
AcDbEntity
  8
RACCORDO
100
AcDbLine
 62
250
  6
CONTINUOUS
 10
-223.4443176165
 20
-112.1196962319
 11
-223.4433242349
 21
-111.621034022
  0
LINE
  5
3ED
100
AcDbEntity
  8
RACCORDO
100
AcDbLine
 62
250
  6
CONTINUOUS
 10
-224.2255608102
 20
107.1023336355
 11
-224.2255194526
 21
107.1328260814
  0
LINE
  5
3EE
100
AcDbEntity
  8
RACCORDO
100
AcDbLine
 62
250
  6
CONTINUOUS
 10
-224.2255608097
 20
1.0166903715
 11
-224.2255194527
 21
1.0471828238
  0
LWPOLYLINE
  5
3EF
100
AcDbEntity
  8
RACCORDO
100
AcDbPolyline
 62
250
  6
CONTINUOUS
 90
3
 70
0
 10
-223.4433242349
 20
-111.621034022
 10
-223.4420106651
 20
-111.1026257449
 10
-223.4416437822
 20
-1.2648918622
  0
LINE
  5
3F0
100
AcDbEntity
  8
RACCORDO
100
AcDbLine
 62
250
  6
CONTINUOUS
 10
-223.4451509058
 20
112.7977687293
 11
-223.4443176165
 21
113.7429272264
  0
LINE
  5
3F1
100
AcDbEntity
  8
RACCORDO
100
AcDbLine
 62
250
  6
CONTINUOUS
 10
-218.3393620648
 20
111.1750912305
 11
-218.3392871121
 21
111.2017911001
  0
LINE
  5
3F2
100
AcDbEntity
  8
RACCORDO
100
AcDbLine
 62
250
  6
CONTINUOUS
 10
-224.2265885528
 20
-106.9367110815
 11
-224.2255159896
 21
-105.9614343756
  0
LINE
  5
3F3
100
AcDbEntity
  8
RACCORDO
100
AcDbLine
 62
250
  6
CONTINUOUS
 10
-224.2257664424
 20
-1.1012208452
 11
-224.2255194526
 21
-1.0471826932
  0
LINE
  5
3F4
100
AcDbEntity
  8
RACCORDO
100
AcDbLine
 62
250
  6
CONTINUOUS
 10
-224.225766442
 20
-107.1868641681
 11
-224.2255194524
 21
-107.132825935
  0
LINE
  5
3F5
100
AcDbEntity
  8
RACCORDO
100
AcDbLine
 62
250
  6
CONTINUOUS
 10
-224.2340665755
 20
-113.4575678047
 11
-224.2348132531
 21
-113.6003178985
  0
LWPOLYLINE
  5
3F6
100
AcDbEntity
  8
RACCORDO
100
AcDbPolyline
 62
250
  6
CONTINUOUS
 90
8
 70
0
 10
-223.4443176165
 20
113.7429272264
 10
-223.4436040578
 20
113.8690595013
 10
-223.4433242349
 20
113.9001675917
 10
-223.4430271514
 20
113.9257018079
 10
-223.4427077006
 20
113.9456156561
 10
-223.4423666493
 20
113.9598706075
 10
-223.4420106651
 20
113.9684377991
 10
-223.4416437822
 20
113.9712998914
  0
LINE
  5
3F7
100
AcDbEntity
  8
RACCORDO
100
AcDbLine
 62
250
  6
CONTINUOUS
 10
-218.3397493566
 20
111.1287937011
 11
-218.3393620648
 21
111.1750912305
  0
LINE
  5
3F8
100
AcDbEntity
  8
RACCORDO
100
AcDbLine
 62
250
  6
CONTINUOUS
 10
-224.226371881
 20
-1.1627751345
 11
-224.2257664424
 21
-1.1012208452
  0
LINE
  5
3F9
100
AcDbEntity
  8
RACCORDO
100
AcDbLine
 62
250
  6
CONTINUOUS
 10
-224.2263718809
 20
-107.2484185039
 11
-224.225766442
 21
-107.1868641681
  0
LINE
  5
3FA
100
AcDbEntity
  8
RACCORDO
100
AcDbLine
 62
250
  6
CONTINUOUS
 10
-224.2319518947
 20
-113.244437387
 11
-224.2340665755
 21
-113.4575678047
  0
LINE
  5
3FB
100
AcDbEntity
  8
RACCORDO
100
AcDbLine
 62
250
  6
CONTINUOUS
 10
-224.2276818571
 20
-1.2511715166
 11
-224.226371881
 21
-1.1627751345
  0
LINE
  5
3FC
100
AcDbEntity
  8
RACCORDO
100
AcDbLine
 62
250
  6
CONTINUOUS
 10
-224.2276818571
 20
-107.3368148931
 11
-224.2263718809
 21
-107.2484185039
  0
LWPOLYLINE
  5
3FD
100
AcDbEntity
  8
RACCORDO
100
AcDbPolyline
 62
250
  6
CONTINUOUS
 90
3
 70
0
 10
-218.3407321652
 20
111.0604127873
 10
-218.3404413783
 20
111.0778379165
 10
-218.3397493566
 20
111.1287937011
  0
LINE
  5
3FE
100
AcDbEntity
  8
RACCORDO
100
AcDbLine
 62
250
  6
CONTINUOUS
 10
-224.2276818571
 20
-112.9577318506
 11
-224.2319518947
 21
-113.244437387
  0
LWPOLYLINE
  5
3FF
100
AcDbEntity
  8
RACCORDO
100
AcDbPolyline
 62
250
  6
CONTINUOUS
 90
11
 70
0
 10
-247.7334986737
 20
-94.0936862323
 10
-247.7515684212
 20
-94.1666748374
 10
-247.7699384867
 20
-94.2328909827
 10
-247.7885677457
 20
-94.2921581711
 10
-247.8073660257
 20
-94.343847575
 10
-247.8263539488
 20
-94.3879064924
 10
-247.8455040366
 20
-94.4243876253
 10
-247.8646571576
 20
-94.4528202525
 10
-247.8837603851
 20
-94.4730474669
 10
-247.9028646182
 20
-94.4852261755
 10
-247.9219685962
 20
-94.4893563784
  0
LWPOLYLINE
  5
400
100
AcDbEntity
  8
RACCORDO
100
AcDbPolyline
 62
250
  6
CONTINUOUS
 90
10
 70
0
 10
-185.1294270977
 20
91.7928449231
 10
-185.1291363124
 20
91.7936108717
 10
-185.1288742934
 20
91.795892275
 10
-185.1286430341
 20
91.799671776
 10
-185.1284442936
 20
91.8049206188
 10
-185.128279584
 20
91.8115988726
 10
-185.1281501581
 20
91.8196557412
 10
-185.1280570006
 20
91.8290299387
 10
-185.1280008202
 20
91.8396501508
 10
-185.1280008167
 20
91.8642965816
  0
LWPOLYLINE
  5
401
100
AcDbEntity
  8
RACCORDO
100
AcDbPolyline
 62
250
  6
CONTINUOUS
 90
9
 70
0
 10
-224.2276818571
 20
0.9512172081
 10
-224.2273054207
 20
0.9520624412
 10
-224.2269603575
 20
0.9545797629
 10
-224.2266485966
 20
0.9587551005
 10
-224.2263718809
 20
0.9645651102
 10
-224.2261317571
 20
0.9719773136
 10
-224.2259295674
 20
0.9809502857
 10
-224.225766442
 20
0.9914338772
 10
-224.2255608097
 20
1.0166903715
  0
LWPOLYLINE
  5
402
100
AcDbEntity
  8
RACCORDO
100
AcDbPolyline
 62
250
  6
CONTINUOUS
 90
11
 70
0
 10
-187.6294270977
 20
62.2473031603
 10
-187.6292889616
 20
62.2475513054
 10
-187.6291564973
 20
62.2482907696
 10
-187.6290300404
 20
62.2495208674
 10
-187.6289111203
 20
62.2512238264
 10
-187.6287986689
 20
62.2534056179
 10
-187.6286898474
 20
62.256136002
 10
-187.6285849365
 20
62.2594825274
 10
-187.6284860726
 20
62.2634519638
 10
-187.6283938001
 20
62.2680487735
 10
-187.6282328655
 20
62.2791974356
  0
LWPOLYLINE
  5
403
100
AcDbEntity
  8
RACCORDO
100
AcDbPolyline
 62
250
  6
CONTINUOUS
 90
3
 70
0
 10
-223.4663905668
 20
1.2202210924
 10
-223.4537875065
 20
1.2428037869
 10
-223.4416437822
 20
1.2648918622
  0
LWPOLYLINE
  5
404
100
AcDbEntity
  8
RACCORDO
100
AcDbPolyline
 62
250
  6
CONTINUOUS
 90
7
 70
0
 10
-223.571639152
 20
1.0456600414
 10
-223.5539692931
 20
1.0728752264
 10
-223.5372216318
 20
1.0993032532
 10
-223.5213961681
 20
1.1249441218
 10
-223.5066471894
 20
1.1497003193
 10
-223.4928204083
 20
1.1736693586
 10
-223.4663905668
 20
1.2202210924
  0
LINE
  5
405
100
AcDbEntity
  8
RACCORDO
100
AcDbLine
 62
250
  6
CONTINUOUS
 10
-223.7276920765
 20
-1.151422411
 11
-223.6458756786
 21
-1.09575924
  0
LINE
  5
406
100
AcDbEntity
  8
RACCORDO
100
AcDbLine
 62
250
  6
CONTINUOUS
 10
-223.6458756786
 20
-1.09575924
 11
-223.5716390776
 21
-1.0456572152
  0
LWPOLYLINE
  5
407
100
AcDbEntity
  8
RACCORDO
100
AcDbPolyline
 62
250
  6
CONTINUOUS
 90
4
 70
0
 10
-223.8321385224
 20
1.1010382682
 10
-223.7981844238
 20
1.1181633054
 10
-223.7634335837
 20
1.13500072
 10
-223.7277058543
 20
1.1514174517
  0
LWPOLYLINE
  5
408
100
AcDbEntity
  8
RACCORDO
100
AcDbPolyline
 62
250
  6
CONTINUOUS
 90
6
 70
0
 10
-223.7277058543
 20
1.1514174517
 10
-223.6962977357
 20
1.1653251905
 10
-223.6647240047
 20
1.1789456772
 10
-223.6329953582
 20
1.19222727
 10
-223.6010880287
 20
1.2050499854
 10
-223.5690487141
 20
1.2174527849
  0
LWPOLYLINE
  5
409
100
AcDbEntity
  8
RACCORDO
100
AcDbPolyline
 62
250
  6
CONTINUOUS
 90
4
 70
0
 10
-223.5690487141
 20
1.2174527849
 10
-223.5051004547
 20
1.241659443
 10
-223.4732904569
 20
1.2534174947
 10
-223.4416437687
 20
1.2648918622
  0
LWPOLYLINE
  5
40A
100
AcDbEntity
  8
RACCORDO
100
AcDbPolyline
 62
250
  6
CONTINUOUS
 90
19
 70
0
 10
-195.9019480741
 20
-0.5543552696
 10
-195.8969909221
 20
-0.5531318106
 10
-195.8921110157
 20
-0.5496444529
 10
-195.8873453366
 20
-0.543919625
 10
-195.8827300011
 20
-0.5360007119
 10
-195.8782999861
 20
-0.5259477262
 10
-195.8740888637
 20
-0.5138368534
 10
-195.8701285477
 20
-0.4997598743
 10
-195.8664490508
 20
-0.4838234698
 10
-195.8630782576
 20
-0.4661484121
 10
-195.8600417134
 20
-0.4468686499
 10
-195.8573624302
 20
-0.4261302925
 10
-195.8550607128
 20
-0.4040905033
 10
-195.8531540043
 20
-0.3809163085
 10
-195.8516567547
 20
-0.3567833311
 10
-195.8505803107
 20
-0.3318744603
 10
-195.8499328299
 20
-0.3063784651
 10
-195.8497192192
 20
-0.2804885641
 10
-195.8499410974
 20
-0.2544009611
  0
LWPOLYLINE
  5
40B
100
AcDbEntity
  8
RACCORDO
100
AcDbPolyline
 62
250
  6
CONTINUOUS
 90
49
 70
0
 10
-192.105247741
 20
0.7162325017
 10
-192.0757061013
 20
0.720831409
 10
-192.0469772882
 20
0.7254408427
 10
-192.0190293197
 20
0.7300590084
 10
-191.9918702365
 20
0.7346827573
 10
-191.9654920942
 20
0.7393119491
 10
-191.9398389264
 20
0.7439494803
 10
-191.9149146768
 20
0.7485926433
 10
-191.8907154852
 20
0.7532412946
 10
-191.8671736649
 20
0.7579025071
 10
-191.8442899749
 20
0.762574014
 10
-191.8220637208
 20
0.7672557448
 10
-191.8004250159
 20
0.7719584866
 10
-191.7793703792
 20
0.7766808357
 10
-191.7589033326
 20
0.7814223908
 10
-191.7389644705
 20
0.7861958888
 10
-191.7195449633
 20
0.7910014732
 10
-191.7006536566
 20
0.7958376683
 10
-191.6822576353
 20
0.8007151579
 10
-191.6643485957
 20
0.805634524
 10
-191.6469348391
 20
0.810594141
 10
-191.6300083419
 20
0.8156016288
 10
-191.6135643087
 20
0.8206570121
 10
-191.5976075214
 20
0.8257593428
 10
-191.5821443104
 20
0.8309149342
 10
-191.5671707073
 20
0.8361238115
 10
-191.5526906584
 20
0.8413850645
 10
-191.5387223573
 20
0.8467036979
 10
-191.5252628553
 20
0.8520795801
 10
-191.5123150732
 20
0.8575119213
 10
-191.4999060017
 20
0.8630047885
 10
-191.4880364911
 20
0.868555817
 10
-191.4767056603
 20
0.8741663467
 10
-191.4659378933
 20
0.8798460693
 10
-191.4557331497
 20
0.8855903611
 10
-191.4460914283
 20
0.8914027623
 10
-191.4370371482
 20
0.8973053732
 10
-191.4285586296
 20
0.9032987252
 10
-191.4206674781
 20
0.9093812276
 10
-191.4134230115
 20
0.9155719519
 10
-191.4068109427
 20
0.9218817456
 10
-191.400845455
 20
0.9282985061
 10
-191.395628572
 20
0.9348067914
 10
-191.3911682734
 20
0.941412912
 10
-191.3874565077
 20
0.9481086734
 10
-191.3845712936
 20
0.9548566056
 10
-191.3825386476
 20
0.9616433726
 10
-191.3813325531
 20
0.9684798763
 10
-191.3809530081
 20
0.9753648548
  0
LINE
  5
40C
100
AcDbEntity
  8
RACCORDO
100
AcDbLine
 62
250
  6
CONTINUOUS
 10
-192.1667802561
 20
0.707071923
 11
-192.105247741
 21
0.7162325017
  0
LINE
  5
40D
100
AcDbEntity
  8
RACCORDO
100
AcDbLine
 62
250
  6
CONTINUOUS
 10
-192.2316042226
 20
0.6979822113
 11
-192.1667802561
 21
0.707071923
  0
LINE
  5
40E
100
AcDbEntity
  8
RACCORDO
100
AcDbLine
 62
250
  6
CONTINUOUS
 10
-192.2997686791
 20
0.6889793808
 11
-192.2316042226
 21
0.6979822113
  0
LWPOLYLINE
  5
40F
100
AcDbEntity
  8
RACCORDO
100
AcDbPolyline
 62
250
  6
CONTINUOUS
 90
64
 70
0
 10
-193.0235978394
 20
0.3806169499
 10
-192.9691708813
 20
0.3874988829
 10
-192.9161702382
 20
0.3944540268
 10
-192.8644966591
 20
0.4014665057
 10
-192.8141533426
 20
0.4085345272
 10
-192.7651370901
 20
0.4156598837
 10
-192.7173390541
 20
0.4228320752
 10
-192.6707567928
 20
0.4300500491
 10
-192.6253927479
 20
0.437314858
 10
-192.5811453974
 20
0.4446191608
 10
-192.5380118241
 20
0.4519620907
 10
-192.4959949451
 20
0.4593445144
 10
-192.4550019898
 20
0.4667616908
 10
-192.4150310763
 20
0.4742126385
 10
-192.3760840866
 20
0.4816983389
 10
-192.3380738959
 20
0.4892169949
 10
-192.3009935144
 20
0.4967688431
 10
-192.2648499318
 20
0.5043536469
 10
-192.2295769928
 20
0.5119688996
 10
-192.1951622302
 20
0.519616778
 10
-192.1616181113
 20
0.5272951053
 10
-192.1289158818
 20
0.534994844
 10
-192.0970513107
 20
0.5427171122
 10
-192.0660286291
 20
0.5504607918
 10
-192.0358317763
 20
0.5582134914
 10
-192.0064682716
 20
0.5659732677
 10
-191.9779305957
 20
0.5737420639
 10
-191.9501801301
 20
0.5815133187
 10
-191.9232247442
 20
0.5892840409
 10
-191.8970565685
 20
0.5970572218
 10
-191.8716133763
 20
0.6048352733
 10
-191.8468981359
 20
0.612615701
 10
-191.8229078789
 20
0.6204009993
 10
-191.7995714736
 20
0.6282010644
 10
-191.7768888615
 20
0.6360136562
 10
-191.754860101
 20
0.6438410147
 10
-191.7334142351
 20
0.651699756
 10
-191.7125462899
 20
0.6595890116
 10
-191.6922612393
 20
0.6675096499
 10
-191.672503048
 20
0.6754808926
 10
-191.6532616455
 20
0.6835043089
 10
-191.6345471024
 20
0.6915783296
 10
-191.6163335955
 20
0.6997174689
 10
-191.5986134123
 20
0.7079232532
 10
-191.5813942653
 20
0.716194156
 10
-191.5646734689
 20
0.7245401121
 10
-191.5484468373
 20
0.7329616019
 10
-191.5327185563
 20
0.7414581451
 10
-191.5174984977
 20
0.7500382345
 10
-191.502782574
 20
0.7587027442
 10
-191.4885748728
 20
0.7674508003
 10
-191.474897529
 20
0.7762882735
 10
-191.4617482879
 20
0.7852152198
 10
-191.4491294042
 20
0.7942315833
 10
-191.4370697769
 20
0.8033430673
 10
-191.4255711098
 20
0.8125450106
 10
-191.4146316991
 20
0.8218420744
 10
-191.404275332
 20
0.8312539458
 10
-191.3944995015
 20
0.8407740627
 10
-191.3853067147
 20
0.8504089871
 10
-191.3767282799
 20
0.860198092
 10
-191.3687746335
 20
0.8701545017
 10
-191.3614353392
 20
0.880265092
 10
-191.354710397
 20
0.8905298627
  0
LINE
  5
410
100
AcDbEntity
  8
RACCORDO
100
AcDbLine
 62
250
  6
CONTINUOUS
 10
-192.3713571802
 20
0.6800782805
 11
-192.2997686791
 21
0.6889793808
  0
LINE
  5
411
100
AcDbEntity
  8
RACCORDO
100
AcDbLine
 62
250
  6
CONTINUOUS
 10
-193.1367492995
 20
0.3670683907
 11
-193.0235978394
 21
0.3806169499
  0
LINE
  5
412
100
AcDbEntity
  8
RACCORDO
100
AcDbLine
 62
250
  6
CONTINUOUS
 10
-192.4465947488
 20
0.6712787854
 11
-192.3713571802
 21
0.6800782805
  0
LINE
  5
413
100
AcDbEntity
  8
RACCORDO
100
AcDbLine
 62
250
  6
CONTINUOUS
 10
-192.5256364648
 20
0.662588848
 11
-192.4465947488
 21
0.6712787854
  0
LWPOLYLINE
  5
414
100
AcDbEntity
  8
RACCORDO
100
AcDbPolyline
 62
250
  6
CONTINUOUS
 90
3
 70
0
 10
-193.3176093162
 20
0.3474265673
 10
-193.2558237516
 20
0.3538786419
 10
-193.1367492995
 20
0.3670683907
  0
LINE
  5
415
100
AcDbEntity
  8
RACCORDO
100
AcDbLine
 62
250
  6
CONTINUOUS
 10
-192.6087433334
 20
0.6540114431
 11
-192.5256364648
 21
0.662588848
  0
LINE
  5
416
100
AcDbEntity
  8
RACCORDO
100
AcDbLine
 62
250
  6
CONTINUOUS
 10
-193.4458420019
 20
0.3348865807
 11
-193.3176093162
 21
0.3474265673
  0
LINE
  5
417
100
AcDbEntity
  8
RACCORDO
100
AcDbLine
 62
250
  6
CONTINUOUS
 10
-192.6961888232
 20
0.6455543889
 11
-192.6087433334
 21
0.6540114431
  0
LINE
  5
418
100
AcDbEntity
  8
RACCORDO
100
AcDbLine
 62
250
  6
CONTINUOUS
 10
-192.7881633501
 20
0.6372330015
 11
-192.6961888232
 21
0.6455543889
  0
LINE
  5
419
100
AcDbEntity
  8
RACCORDO
100
AcDbLine
 62
250
  6
CONTINUOUS
 10
-193.5803918799
 20
0.3228573131
 11
-193.4458420019
 21
0.3348865807
  0
LINE
  5
41A
100
AcDbEntity
  8
RACCORDO
100
AcDbLine
 62
250
  6
CONTINUOUS
 10
-192.8849648379
 20
0.6290605133
 11
-192.7881633501
 21
0.6372330015
  0
LINE
  5
41B
100
AcDbEntity
  8
RACCORDO
100
AcDbLine
 62
250
  6
CONTINUOUS
 10
-193.721528701
 20
0.3114134844
 11
-193.5803918799
 21
0.3228573131
  0
LINE
  5
41C
100
AcDbEntity
  8
RACCORDO
100
AcDbLine
 62
250
  6
CONTINUOUS
 10
-192.9869163812
 20
0.621053927
 11
-192.8849648379
 21
0.6290605133
  0
LINE
  5
41D
100
AcDbEntity
  8
RACCORDO
100
AcDbLine
 62
250
  6
CONTINUOUS
 10
-193.09421637
 20
0.6132400116
 11
-192.9869163812
 21
0.621053927
  0
LINE
  5
41E
100
AcDbEntity
  8
RACCORDO
100
AcDbLine
 62
250
  6
CONTINUOUS
 10
-193.8697322656
 20
0.3006330416
 11
-193.721528701
 21
0.3114134844
  0
LINE
  5
41F
100
AcDbEntity
  8
RACCORDO
100
AcDbLine
 62
250
  6
CONTINUOUS
 10
-193.2071591905
 20
0.6056463803
 11
-193.09421637
 21
0.6132400116
  0
LINE
  5
420
100
AcDbEntity
  8
RACCORDO
100
AcDbLine
 62
250
  6
CONTINUOUS
 10
-194.0253313837
 20
0.2905749923
 11
-193.8697322656
 21
0.3006330416
  0
LINE
  5
421
100
AcDbEntity
  8
RACCORDO
100
AcDbLine
 62
250
  6
CONTINUOUS
 10
-193.3259299076
 20
0.5983112219
 11
-193.2071591905
 21
0.6056463803
  0
LINE
  5
422
100
AcDbEntity
  8
RACCORDO
100
AcDbLine
 62
250
  6
CONTINUOUS
 10
-193.4506551561
 20
0.5912756711
 11
-193.3259299076
 21
0.5983112219
  0
LINE
  5
423
100
AcDbEntity
  8
RACCORDO
100
AcDbLine
 62
250
  6
CONTINUOUS
 10
-194.1888572841
 20
0.2813332691
 11
-194.0253313837
 21
0.2905749923
  0
LINE
  5
424
100
AcDbEntity
  8
RACCORDO
100
AcDbLine
 62
250
  6
CONTINUOUS
 10
-193.5814870217
 20
0.5845843007
 11
-193.4506551561
 21
0.5912756711
  0
LINE
  5
425
100
AcDbEntity
  8
RACCORDO
100
AcDbLine
 62
250
  6
CONTINUOUS
 10
-193.7187315328
 20
0.5782762624
 11
-193.5814870217
 21
0.5845843007
  0
LWPOLYLINE
  5
426
100
AcDbEntity
  8
RACCORDO
100
AcDbPolyline
 62
250
  6
CONTINUOUS
 90
3
 70
0
 10
-194.4501782396
 20
0.2692541441
 10
-194.3608953484
 20
0.2730346668
 10
-194.1888572841
 20
0.2813332691
  0
LWPOLYLINE
  5
427
100
AcDbEntity
  8
RACCORDO
100
AcDbPolyline
 62
250
  6
CONTINUOUS
 90
19
 70
0
 10
-224.3412813342
 20
0.6512948217
 10
-224.2926761661
 20
0.653348686
 10
-224.2440453404
 20
0.6579897494
 10
-224.1954374117
 20
0.6652180119
 10
-224.1467947498
 20
0.6750467799
 10
-224.098264887
 20
0.6874627469
 10
-224.0502086559
 20
0.7024259939
 10
-224.0027331172
 20
0.7199018471
 10
-223.9558233017
 20
0.7399249802
 10
-223.9096619043
 20
0.7625594947
 10
-223.8640306716
 20
0.7880487201
 10
-223.8192220862
 20
0.816149327
 10
-223.7761917647
 20
0.8461954283
 10
-223.7348147605
 20
0.8787182323
 10
-223.6952831823
 20
0.9131865307
 10
-223.6590366672
 20
0.9473408119
 10
-223.6265718083
 20
0.9804279056
 10
-223.5974353582
 20
1.0132009821
 10
-223.571639152
 20
1.0456600414
  0
LINE
  5
428
100
AcDbEntity
  8
RACCORDO
100
AcDbLine
 62
250
  6
CONTINUOUS
 10
-193.8626369598
 20
0.5723975201
 11
-193.7187315328
 21
0.5782762624
  0
LINE
  5
429
100
AcDbEntity
  8
RACCORDO
100
AcDbLine
 62
250
  6
CONTINUOUS
 10
-194.013652899
 20
0.5669935322
 11
-193.8626369598
 21
0.5723975201
  0
LWPOLYLINE
  5
42A
100
AcDbEntity
  8
RACCORDO
100
AcDbPolyline
 62
250
  6
CONTINUOUS
 90
3
 70
0
 10
-194.7324022578
 20
0.2596994273
 10
-194.6359316943
 20
0.2625865244
 10
-194.4501782396
 20
0.2692541441
  0
LINE
  5
42B
100
AcDbEntity
  8
RACCORDO
100
AcDbLine
 62
250
  6
CONTINUOUS
 10
-194.1723115996
 20
0.5621161307
 11
-194.013652899
 21
0.5669935322
  0
LINE
  5
42C
100
AcDbEntity
  8
RACCORDO
100
AcDbLine
 62
250
  6
CONTINUOUS
 10
-194.3389758736
 20
0.5578318507
 11
-194.1723115996
 21
0.5621161307
  0
LINE
  5
42D
100
AcDbEntity
  8
RACCORDO
100
AcDbLine
 62
250
  6
CONTINUOUS
 10
-194.5142029828
 20
0.5542131124
 11
-194.3389758736
 21
0.5578318507
  0
LINE
  5
42E
100
AcDbEntity
  8
RACCORDO
100
AcDbLine
 62
250
  6
CONTINUOUS
 10
-218.932917579
 20
-1.4562861853
 11
-191.3809530081
 21
-0.9753648548
  0
LINE
  5
42F
100
AcDbEntity
  8
RACCORDO
100
AcDbLine
 62
7
  6
CONTINUOUS
 10
-195.9019480741
 20
-0.5543552696
 11
-218.932917579
 21
-0.9563623377
  0
LINE
  5
430
100
AcDbEntity
  8
RACCORDO
100
AcDbLine
 62
7
  6
CONTINUOUS
 10
-231.9070038495
 20
0.8171741441
 11
-224.2258350485
 21
0.9512494442
  0
LWPOLYLINE
  5
431
100
AcDbEntity
  8
RACCORDO
100
AcDbPolyline
 62
250
  6
CONTINUOUS
 90
3
 70
0
 10
-195.0377028901
 20
0.2532221175
 10
-194.9332878557
 20
0.2550172239
 10
-194.7324022578
 20
0.2596994273
  0
LINE
  5
432
100
AcDbEntity
  8
RACCORDO
100
AcDbLine
 62
250
  6
CONTINUOUS
 10
-232.0517681275
 20
0.5172198355
 11
-224.3412813342
 21
0.6512948217
  0
LINE
  5
433
100
AcDbEntity
  8
RACCORDO
100
AcDbLine
 62
250
  6
CONTINUOUS
 10
-194.698645099
 20
0.5513433454
 11
-194.5142029828
 21
0.5542131124
  0
LINE
  5
434
100
AcDbEntity
  8
RACCORDO
100
AcDbLine
 62
250
  6
CONTINUOUS
 10
-195.6157112
 20
-0.550358514
 11
-195.9019480741
 21
-0.5543552696
  0
LINE
  5
435
100
AcDbEntity
  8
RACCORDO
100
AcDbLine
 62
250
  6
CONTINUOUS
 10
-194.8927493064
 20
0.5493249837
 11
-194.698645099
 21
0.5513433454
  0
LINE
  5
436
100
AcDbEntity
  8
RACCORDO
100
AcDbLine
 62
250
  6
CONTINUOUS
 10
-195.3445033124
 20
-0.5484311366
 11
-195.6157112
 21
-0.550358514
  0
LINE
  5
437
100
AcDbEntity
  8
RACCORDO
100
AcDbLine
 62
250
  6
CONTINUOUS
 10
-195.0972717073
 20
0.548273321
 11
-194.8927493064
 21
0.5493249837
  0
LINE
  5
438
100
AcDbEntity
  8
RACCORDO
100
AcDbLine
 62
250
  6
CONTINUOUS
 10
-223.932917579
 20
-1.2511715166
 11
-224.2276818571
 21
-1.2511715166
  0
LWPOLYLINE
  5
439
100
AcDbEntity
  8
RACCORDO
100
AcDbPolyline
 62
250
  6
CONTINUOUS
 90
34
 70
0
 10
-232.0517681275
 20
-0.5172198355
 10
-232.1028401329
 20
-0.5171823234
 10
-232.1523165259
 20
-0.5182457614
 10
-232.2001973064
 20
-0.5204101493
 10
-232.2464309146
 20
-0.5237556845
 10
-232.2910689103
 20
-0.5282021698
 10
-232.3342659732
 20
-0.5335090135
 10
-232.3760152002
 20
-0.539646705
 10
-232.4163234944
 20
-0.546644755
 10
-232.4553662446
 20
-0.5543511037
 10
-232.4931571542
 20
-0.5627462164
 10
-232.5296825198
 20
-0.5718496277
 10
-232.5650766199
 20
-0.5815678821
 10
-232.5993751417
 20
-0.5918981929
 10
-232.632542398
 20
-0.6028433468
 10
-232.6646056051
 20
-0.6143182488
 10
-232.6955794785
 20
-0.6263247906
 10
-232.7254493028
 20
-0.6388610805
 10
-232.7541981482
 20
-0.651836348
 10
-232.7818113599
 20
-0.6652412747
 10
-232.8083035926
 20
-0.6790851789
 10
-232.8337018809
 20
-0.6933052449
 10
-232.8579985433
 20
-0.7078892983
 10
-232.8812012613
 20
-0.7228495136
 10
-232.9033601133
 20
-0.7381595982
 10
-232.9244870836
 20
-0.7538185694
 10
-232.944570188
 20
-0.7698274098
 10
-232.9636235522
 20
-0.7861627749
 10
-232.9816631094
 20
-0.8028355374
 10
-232.9986729263
 20
-0.8198348244
 10
-233.014619329
 20
-0.8371046731
 10
-233.0294910929
 20
-0.854626429
 10
-233.0432994425
 20
-0.8724187466
 10
-233.056044378
 20
-0.8904816259
  0
LINE
  5
43A
100
AcDbEntity
  8
RACCORDO
100
AcDbLine
 62
250
  6
CONTINUOUS
 10
-195.0881765868
 20
-0.5482967622
 11
-195.3445033124
 21
-0.5484311366
  0
LINE
  5
43B
100
AcDbEntity
  8
RACCORDO
100
AcDbLine
 62
250
  6
CONTINUOUS
 10
-195.3126097069
 20
0.5483236111
 11
-195.0972717073
 21
0.548273321
  0
LWPOLYLINE
  5
43C
100
AcDbEntity
  8
RACCORDO
100
AcDbPolyline
 62
250
  6
CONTINUOUS
 90
5
 70
0
 10
-195.6026276795
 20
0.2513346739
 10
-195.4835863223
 20
0.2506360118
 10
-195.3677122556
 20
0.2505287976
 10
-195.25491509
 20
0.2509779043
 10
-195.0377028901
 20
0.2532221175
  0
LINE
  5
43D
100
AcDbEntity
  8
RACCORDO
100
AcDbLine
 62
250
  6
CONTINUOUS
 10
-195.539187622
 20
0.5496311601
 11
-195.3126097069
 21
0.5483236111
  0
LINE
  5
43E
100
AcDbEntity
  8
RACCORDO
100
AcDbLine
 62
250
  6
CONTINUOUS
 10
-194.8462233138
 20
-0.5497171688
 11
-195.0881765868
 21
-0.5482967622
  0
LWPOLYLINE
  5
43F
100
AcDbEntity
  8
RACCORDO
100
AcDbPolyline
 62
250
  6
CONTINUOUS
 90
46
 70
0
 10
-231.9070038495
 20
-0.8171741441
 10
-231.9573920301
 20
-0.8166216655
 10
-232.0062246261
 20
-0.8167164286
 10
-232.053501183
 20
-0.8174075834
 10
-232.0991712407
 20
-0.8186405224
 10
-232.1432841086
 20
-0.8203674975
 10
-232.1859891211
 20
-0.8225595679
 10
-232.2272791665
 20
-0.8251801999
 10
-232.2671604332
 20
-0.8281917832
 10
-232.3058025734
 20
-0.8315838075
 10
-232.3432173517
 20
-0.8353308777
 10
-232.3793923171
 20
-0.8394047163
 10
-232.4144611251
 20
-0.8438059324
 10
-232.448457063
 20
-0.8485195908
 10
-232.4813463756
 20
-0.853521653
 10
-232.5131623655
 20
-0.8588082871
 10
-232.5439208119
 20
-0.8643665195
 10
-232.5736055253
 20
-0.8701763576
 10
-232.6022019311
 20
-0.8762270103
 10
-232.6296977555
 20
-0.882501038
 10
-232.6561048235
 20
-0.8889847944
 10
-232.6814447605
 20
-0.8956754695
 10
-232.7057086176
 20
-0.902556249
 10
-232.7289049317
 20
-0.9096165656
 10
-232.7510816646
 20
-0.9168665429
 10
-232.7722477874
 20
-0.9242959741
 10
-232.7923940347
 20
-0.9318926365
 10
-232.8115411415
 20
-0.9396671975
 10
-232.8297041642
 20
-0.9476153419
 10
-232.846867843
 20
-0.9557220637
 10
-232.8630075049
 20
-0.9639837112
 10
-232.8781266453
 20
-0.9723949317
 10
-232.8922215504
 20
-0.980941923
 10
-232.9052567214
 20
-0.9896082759
 10
-232.9172230908
 20
-0.99838145
 10
-232.9281294244
 20
-1.0072538951
 10
-232.9379669488
 20
-1.0162164315
 10
-232.946734357
 20
-1.0252653235
 10
-232.9544326386
 20
-1.0343846521
 10
-232.9610564226
 20
-1.0435466589
 10
-232.9665941835
 20
-1.0527501351
 10
-232.9710570365
 20
-1.0619765122
 10
-232.9744734492
 20
-1.0711713048
 10
-232.9768526808
 20
-1.0803097775
 10
-232.9781848742
 20
-1.0893975821
 10
-232.9784697462
 20
-1.0984259458
  0
LINE
  5
440
100
AcDbEntity
  8
RACCORDO
100
AcDbLine
 62
250
  6
CONTINUOUS
 10
-194.6182587349
 20
-0.552478411
 11
-194.8462233138
 21
-0.5497171688
  0
LINE
  5
441
100
AcDbEntity
  8
RACCORDO
100
AcDbLine
 62
250
  6
CONTINUOUS
 10
-195.8499410974
 20
0.2544009611
 11
-195.6026276795
 21
0.2513346739
  0
LWPOLYLINE
  5
442
100
AcDbEntity
  8
RACCORDO
100
AcDbPolyline
 62
250
  6
CONTINUOUS
 90
3
 70
0
 10
-195.9019480741
 20
0.5543552696
 10
-195.7780112439
 20
0.5523790134
 10
-195.539187622
 20
0.5496311601
  0
LINE
  5
443
100
AcDbEntity
  8
RACCORDO
100
AcDbLine
 62
250
  6
CONTINUOUS
 10
-232.9784697462
 20
-1.0984259458
 11
-224.2276818571
 21
-1.2511715166
  0
LINE
  5
444
100
AcDbEntity
  8
RACCORDO
100
AcDbLine
 62
7
  6
CONTINUOUS
 10
-224.225834763
 20
-0.9512494492
 11
-231.9070038495
 21
-0.8171741441
  0
LINE
  5
445
100
AcDbEntity
  8
RACCORDO
100
AcDbLine
 62
250
  6
CONTINUOUS
 10
-224.3412809598
 20
-0.6512949454
 11
-232.0517681275
 21
-0.5172198355
  0
LINE
  5
446
100
AcDbEntity
  8
RACCORDO
100
AcDbLine
 62
250
  6
CONTINUOUS
 10
-218.932917579
 20
0.6573158143
 11
-195.8499410974
 21
0.2544009611
  0
LINE
  5
447
100
AcDbEntity
  8
RACCORDO
100
AcDbLine
 62
7
  6
CONTINUOUS
 10
-218.932917579
 20
0.9563623377
 11
-195.9019480741
 21
0.5543552696
  0
LINE
  5
448
100
AcDbEntity
  8
RACCORDO
100
AcDbLine
 62
250
  6
CONTINUOUS
 10
-194.4039212353
 20
-0.556386804
 11
-194.6182587349
 21
-0.552478411
  0
LINE
  5
449
100
AcDbEntity
  8
RACCORDO
100
AcDbLine
 62
250
  6
CONTINUOUS
 10
-194.2025785611
 20
-0.5612755442
 11
-194.4039212353
 21
-0.556386804
  0
LINE
  5
44A
100
AcDbEntity
  8
RACCORDO
100
AcDbLine
 62
250
  6
CONTINUOUS
 10
-223.932917579
 20
-1.2511715166
 11
-223.4416437822
 21
-1.2648919118
  0
LINE
  5
44B
100
AcDbEntity
  8
RACCORDO
100
AcDbLine
 62
250
  6
CONTINUOUS
 10
-194.0132060498
 20
-0.5670083227
 11
-194.2025785611
 21
-0.5612755442
  0
LINE
  5
44C
100
AcDbEntity
  8
RACCORDO
100
AcDbLine
 62
250
  6
CONTINUOUS
 10
-193.8351740901
 20
-0.573463212
 11
-194.0132060498
 21
-0.5670083227
  0
LINE
  5
44D
100
AcDbEntity
  8
RACCORDO
100
AcDbLine
 62
250
  6
CONTINUOUS
 10
-193.667529335
 20
-0.5805475599
 11
-193.8351740901
 21
-0.573463212
  0
LINE
  5
44E
100
AcDbEntity
  8
RACCORDO
100
AcDbLine
 62
250
  6
CONTINUOUS
 10
-193.509452332
 20
-0.5881835447
 11
-193.667529335
 21
-0.5805475599
  0
LINE
  5
44F
100
AcDbEntity
  8
RACCORDO
100
AcDbLine
 62
250
  6
CONTINUOUS
 10
-193.3604157996
 20
-0.5962991001
 11
-193.509452332
 21
-0.5881835447
  0
LINE
  5
450
100
AcDbEntity
  8
RACCORDO
100
AcDbLine
 62
250
  6
CONTINUOUS
 10
-193.2196389442
 20
-0.6048457307
 11
-193.3604157996
 21
-0.5962991001
  0
LINE
  5
451
100
AcDbEntity
  8
RACCORDO
100
AcDbLine
 62
250
  6
CONTINUOUS
 10
-193.0865587158
 20
-0.6137772593
 11
-193.2196389442
 21
-0.6048457307
  0
LWPOLYLINE
  5
452
100
AcDbEntity
  8
RACCORDO
100
AcDbPolyline
 62
250
  6
CONTINUOUS
 90
19
 70
0
 10
-231.9070038495
 20
-0.8171741441
 10
-231.9199816445
 20
-0.815818486
 10
-231.9328223541
 20
-0.8122154606
 10
-231.9454293344
 20
-0.8063921873
 10
-231.9577077014
 20
-0.7983924957
 10
-231.969565043
 20
-0.7882765964
 10
-231.9809121154
 20
-0.7761206291
 10
-231.9916635168
 20
-0.7620160865
 10
-232.0017383294
 20
-0.7460691269
 10
-232.0110607263
 20
-0.728399777
 10
-232.0195605451
 20
-0.7091410254
 10
-232.027173815
 20
-0.6884378221
 10
-232.0338432368
 20
-0.6664459902
 10
-232.0395186161
 20
-0.64333105
 10
-232.0441572402
 20
-0.6192669731
 10
-232.0477241994
 20
-0.5944348756
 10
-232.0501926498
 20
-0.5690216528
 10
-232.0515440153
 20
-0.5432185723
 10
-232.0517681275
 20
-0.5172198355
  0
LWPOLYLINE
  5
453
100
AcDbEntity
  8
RACCORDO
100
AcDbPolyline
 62
250
  6
CONTINUOUS
 90
19
 70
0
 10
-224.391970061
 20
-0.9483495468
 10
-224.4049478104
 20
-0.9469938975
 10
-224.4177884792
 20
-0.9433908954
 10
-224.4303954241
 20
-0.9375676578
 10
-224.4426737612
 20
-0.9295680124
 10
-224.4545310797
 20
-0.9194521673
 10
-224.4658781373
 20
-0.9072962575
 10
-224.4766295323
 20
-0.8931917726
 10
-224.4867043462
 20
-0.8772448675
 10
-224.4960267526
 20
-0.859575564
 10
-224.504526588
 20
-0.8403168472
 10
-224.5121398797
 20
-0.8196136644
 10
-224.5188093276
 20
-0.7976218349
 10
-224.5244847352
 20
-0.7745068764
 10
-224.5291233876
 20
-0.7504427597
 10
-224.5326903726
 20
-0.7256105995
 10
-224.5351588439
 20
-0.7001972908
 10
-224.5365102231
 20
-0.6743941026
 10
-224.5367343391
 20
-0.6483952383
  0
LWPOLYLINE
  5
454
100
AcDbEntity
  8
RACCORDO
100
AcDbPolyline
 62
250
  6
CONTINUOUS
 90
19
 70
0
 10
-224.2258347566
 20
-0.9512494493
 10
-224.236283325
 20
-0.9499355503
 10
-224.2466135917
 20
-0.9463690661
 10
-224.2567476373
 20
-0.9405768981
 10
-224.2666090226
 20
-0.9326027353
 10
-224.276123365
 20
-0.9225067254
 10
-224.2852188995
 20
-0.9103650204
 10
-224.2938270202
 20
-0.896269203
 10
-224.3018827977
 20
-0.880325595
 10
-224.3093254686
 20
-0.8626544558
 10
-224.3160988943
 20
-0.8433890754
 10
-224.322151984
 20
-0.8226747688
 10
-224.3274390803
 20
-0.8006677797
 10
-224.3319203037
 20
-0.7775341026
 10
-224.335561853
 20
-0.7534482301
 10
-224.3383362606
 20
-0.7285918372
 10
-224.3402225996
 20
-0.7031524107
 10
-224.3412066417
 20
-0.6773218351
 10
-224.3412809642
 20
-0.6512949454
  0
LWPOLYLINE
  5
455
100
AcDbEntity
  8
RACCORDO
100
AcDbPolyline
 62
250
  6
CONTINUOUS
 90
3
 70
0
 10
-223.441643609
 20
-1.2648919158
 10
-223.4735547019
 20
-1.2533083316
 10
-223.5055438176
 20
-1.241476462
  0
LWPOLYLINE
  5
456
100
AcDbEntity
  8
RACCORDO
100
AcDbPolyline
 62
250
  6
CONTINUOUS
 90
7
 70
0
 10
-223.5055438176
 20
-1.241476462
 10
-223.5695755426
 20
-1.2172379432
 10
-223.6015200136
 20
-1.2048767093
 10
-223.633316992
 20
-1.1920994563
 10
-223.6649433175
 20
-1.1788562861
 10
-223.6964006946
 20
-1.1652789907
 10
-223.7276835573
 20
-1.1514168004
  0
LWPOLYLINE
  5
457
100
AcDbEntity
  8
RACCORDO
100
AcDbPolyline
 62
250
  6
CONTINUOUS
 90
4
 70
0
 10
-223.7276835573
 20
-1.1514168004
 10
-223.7663279867
 20
-1.1335349276
 10
-223.8032128967
 20
-1.1156153171
 10
-223.838560467
 20
-1.0977774681
  0
LWPOLYLINE
  5
458
100
AcDbEntity
  8
RACCORDO
100
AcDbPolyline
 62
250
  6
CONTINUOUS
 90
13
 70
0
 10
-223.9376369864
 20
-1.046182561
 10
-223.9664460628
 20
-1.0313955884
 10
-223.9935877527
 20
-1.017854985
 10
-224.019711658
 20
-1.0055507054
 10
-224.0448995432
 20
-0.9945116531
 10
-224.0691860149
 20
-0.9847377983
 10
-224.0929534128
 20
-0.976194192
 10
-224.1162291688
 20
-0.9688946548
 10
-224.1389649849
 20
-0.9628532463
 10
-224.1613188942
 20
-0.9580581425
 10
-224.18330087
 20
-0.9545179409
 10
-224.2048171496
 20
-0.9522473558
 10
-224.2258348147
 20
-0.9512490552
  0
LINE
  5
459
100
AcDbEntity
  8
RACCORDO
100
AcDbLine
 62
250
  6
CONTINUOUS
 10
-223.838560467
 20
-1.0977774681
 11
-223.9376369864
 21
-1.046182561
  0
LINE
  5
45A
100
AcDbEntity
  8
RACCORDO
100
AcDbLine
 62
250
  6
CONTINUOUS
 10
-223.6806815334
 20
1.1193582904
 11
-223.571639152
 21
1.0456600414
  0
LINE
  5
45B
100
AcDbEntity
  8
RACCORDO
100
AcDbLine
 62
250
  6
CONTINUOUS
 10
-223.7277047828
 20
1.151416749
 11
-223.6806815334
 21
1.1193582904
  0
LWPOLYLINE
  5
45C
100
AcDbEntity
  8
RACCORDO
100
AcDbPolyline
 62
250
  6
CONTINUOUS
 90
19
 70
0
 10
-223.571639152
 20
-1.0456572133
 10
-223.5999881564
 20
-1.0104012781
 10
-223.6312771122
 20
-0.9754965302
 10
-223.66549277
 20
-0.9409429694
 10
-223.7031463912
 20
-0.9060747037
 10
-223.7436809332
 20
-0.8715576253
 10
-223.7854798697
 20
-0.8393894102
 10
-223.8280942347
 20
-0.8101958673
 10
-223.8719153549
 20
-0.7833511878
 10
-223.9165936599
 20
-0.7589756219
 10
-223.9620616708
 20
-0.7371103018
 10
-224.0083123256
 20
-0.7177140952
 10
-224.0550884186
 20
-0.7007838551
 10
-224.1023754605
 20
-0.6863069199
 10
-224.1501007432
 20
-0.6742959512
 10
-224.1979257501
 20
-0.6647857857
 10
-224.2457117245
 20
-0.6577880357
 10
-224.2935121181
 20
-0.6532910889
 10
-224.3412809598
 20
-0.6512949454
  0
LWPOLYLINE
  5
45D
100
AcDbEntity
  8
RACCORDO
100
AcDbPolyline
 62
250
  6
CONTINUOUS
 90
6
 70
0
 10
-223.4930670532
 20
-1.1732357255
 10
-223.5068640808
 20
-1.1493361692
 10
-223.5215712869
 20
-1.1246630286
 10
-223.5373503969
 20
-1.0991013412
 10
-223.5540396852
 20
-1.0727660694
 10
-223.571639152
 20
-1.0456572133
  0
LWPOLYLINE
  5
45E
100
AcDbEntity
  8
RACCORDO
100
AcDbPolyline
 62
250
  6
CONTINUOUS
 90
4
 70
0
 10
-223.4416437822
 20
-1.2648918622
 10
-223.4539025289
 20
-1.2425921337
 10
-223.4665862772
 20
-1.2198637077
 10
-223.4930670532
 20
-1.1732357255
  0
LWPOLYLINE
  5
45F
100
AcDbEntity
  8
RACCORDO
100
AcDbPolyline
 62
250
  6
CONTINUOUS
 90
8
 70
0
 10
-187.6294270977
 20
-91.7492072608
 10
-187.6291358652
 20
-91.7499756771
 10
-187.6288734921
 20
-91.7522644683
 10
-187.6286419822
 20
-91.7560562237
 10
-187.6284431029
 20
-91.7613220884
 10
-187.6282783745
 20
-91.7680219103
 10
-187.6281490574
 20
-91.7761044789
 10
-187.6280561335
 20
-91.7855087833
  0
LWPOLYLINE
  5
460
100
AcDbEntity
  8
0
100
AcDbPolyline
 62
7
  6
CONTINUOUS
 90
13
 70
0
 43
0.3499999917
 10
-210.0400543213
 20
139.4314709473
 10
-210.0400543213
 20
140.7171826172
 10
-209.8257733154
 20
141.1457574463
 10
-209.3971984863
 20
141.5743322754
 10
-209.1829174805
 20
141.5743322754
 10
-208.7543426514
 20
141.1457574463
 10
-208.5400616455
 20
140.7171826172
 10
-208.5400616455
 20
139.4314709473
 10
-208.7543426514
 20
139.0028961182
 10
-209.1829174805
 20
138.5743341064
 10
-209.3971984863
 20
138.5743341064
 10
-209.8257733154
 20
139.0028961182
 10
-210.0400543213
 20
139.4314709473
  0
LWPOLYLINE
  5
461
100
AcDbEntity
  8
RACCORDO
100
AcDbPolyline
 62
250
  6
CONTINUOUS
 90
5
 70
0
 10
-224.2276818571
 20
-107.0368605846
 10
-224.2274703251
 20
-107.0341225066
 10
-224.2272768144
 20
-107.0258621161
 10
-224.2270965412
 20
-107.0120283115
 10
-224.2265885528
 20
-106.9367110815
  0
LWPOLYLINE
  5
462
100
AcDbEntity
  8
RACCORDO
100
AcDbPolyline
 62
250
  6
CONTINUOUS
 90
8
 70
0
 10
-187.6294270977
 20
95.8526968397
 10
-187.6292269528
 20
95.8535353377
 10
-187.6290434296
 20
95.8560588701
 10
-187.6288748712
 20
95.8602642651
 10
-187.6287179162
 20
95.8661460621
 10
-187.6285728824
 20
95.8736878616
 10
-187.6284439611
 20
95.882853841
 10
-187.6282321068
 20
95.9059126162
  0
LWPOLYLINE
  5
463
100
AcDbEntity
  8
RACCORDO
100
AcDbPolyline
 62
250
  6
CONTINUOUS
 90
8
 70
0
 10
-185.1294270977
 20
105.7534300864
 10
-185.1292297046
 20
105.7542437653
 10
-185.1290484868
 20
105.7566953078
 10
-185.1288817817
 20
105.7607856253
 10
-185.1287261634
 20
105.7665137521
 10
-185.1285819646
 20
105.7738678003
 10
-185.1284534777
 20
105.7828160586
 10
-185.1282411756
 20
105.8053833544
  0
LWPOLYLINE
  5
464
100
AcDbEntity
  8
RACCORDO
100
AcDbPolyline
 62
250
  6
CONTINUOUS
 90
8
 70
0
 10
-185.1294270979
 20
110.6806768418
 10
-185.1293318928
 20
110.6810213242
 10
-185.1292499075
 20
110.6820537909
 10
-185.12918095
 20
110.6837656959
 10
-185.129124443
 20
110.6861352124
 10
-185.1290808251
 20
110.6891550395
 10
-185.129051024
 20
110.6928590859
 10
-185.1290292591
 20
110.7023615467
  0
LWPOLYLINE
  5
465
100
AcDbEntity
  8
RACCORDO
100
AcDbPolyline
 62
250
  6
CONTINUOUS
 90
19
 70
0
 10
-224.2258350678
 20
0.9512483297
 10
-224.2362836407
 20
0.9499343866
 10
-224.2466138982
 20
0.9463678747
 10
-224.256747923
 20
0.9405756952
 10
-224.2666092779
 20
0.9326015371
 10
-224.2761235824
 20
0.9225055474
 10
-224.2852190735
 20
0.9103638774
 10
-224.2938271474
 20
0.8962681086
 10
-224.3018828766
 20
0.8803245617
 10
-224.3093254996
 20
0.8626534948
 10
-224.3160988797
 20
0.8433881961
 10
-224.3221519277
 20
0.8226739788
 10
-224.327438988
 20
0.8006670848
 10
-224.3319201823
 20
0.7775335065
 10
-224.3355617108
 20
0.7534477343
 10
-224.3383361071
 20
0.728591441
 10
-224.3402224453
 20
0.7031521113
 10
-224.3412064976
 20
0.6773216273
 10
-224.3412808422
 20
0.6512948217
  0
LWPOLYLINE
  5
466
100
AcDbEntity
  8
RACCORDO
100
AcDbPolyline
 62
250
  6
CONTINUOUS
 90
19
 70
0
 10
-224.391970061
 20
0.9483495468
 10
-224.4049478105
 20
0.9469938975
 10
-224.4177884792
 20
0.9433908953
 10
-224.4303954242
 20
0.9375676578
 10
-224.4426737613
 20
0.9295680124
 10
-224.4545310797
 20
0.9194521672
 10
-224.4658781373
 20
0.9072962574
 10
-224.4766295324
 20
0.8931917725
 10
-224.4867043463
 20
0.8772448674
 10
-224.4960267527
 20
0.8595755639
 10
-224.504526588
 20
0.840316847
 10
-224.5121398798
 20
0.8196136643
 10
-224.5188093277
 20
0.7976218348
 10
-224.5244847353
 20
0.7745068763
 10
-224.5291233876
 20
0.7504427596
 10
-224.5326903726
 20
0.7256105994
 10
-224.5351588439
 20
0.7001972907
 10
-224.5365102231
 20
0.6743941025
 10
-224.5367343391
 20
0.6483952383
  0
LWPOLYLINE
  5
467
100
AcDbEntity
  8
RACCORDO
100
AcDbPolyline
 62
250
  6
CONTINUOUS
 90
19
 70
0
 10
-231.9070038495
 20
0.8171741441
 10
-231.9199815989
 20
0.8158184948
 10
-231.9328222676
 20
0.8122154926
 10
-231.9454292126
 20
0.8063922551
 10
-231.9577075497
 20
0.7983926097
 10
-231.9695648681
 20
0.7882767646
 10
-231.9809119257
 20
0.7761208548
 10
-231.9916633207
 20
0.7620163699
 10
-232.0017381347
 20
0.7460694648
 10
-232.0110605411
 20
0.7284001613
 10
-232.0195603764
 20
0.7091414444
 10
-232.0271736681
 20
0.6884382617
 10
-232.0338431161
 20
0.6664464322
 10
-232.0395185237
 20
0.6433314737
 10
-232.044157176
 20
0.619267357
 10
-232.047724161
 20
0.5944351968
 10
-232.0501926323
 20
0.569021888
 10
-232.0515440115
 20
0.5432186998
 10
-232.0517681275
 20
0.5172198355
  0
LWPOLYLINE
  5
468
100
AcDbEntity
  8
RACCORDO
100
AcDbPolyline
 62
250
  6
CONTINUOUS
 90
13
 70
0
 10
-224.2258350755
 20
0.9512488143
 10
-224.2044532995
 20
0.9522753418
 10
-224.1825550769
 20
0.9546183971
 10
-224.1601746148
 20
0.9582750482
 10
-224.1374096782
 20
0.9632297549
 10
-224.1142502822
 20
0.9694730172
 10
-224.0905304666
 20
0.9770161841
 10
-224.0663220422
 20
0.9858364984
 10
-224.0415717855
 20
0.99592425
 10
-224.0158030504
 20
1.0073418336
 10
-223.9887880572
 20
1.0201713908
 10
-223.9606165894
 20
1.0343241646
 10
-223.8321385224
 20
1.1010382682
  0
LINE
  5
469
100
AcDbEntity
  8
RACCORDO
100
AcDbLine
 62
250
  6
CONTINUOUS
 10
-223.4416437822
 20
1.2648918622
 11
-223.932917579
 21
1.2511715166
  0
LINE
  5
46A
100
AcDbEntity
  8
RACCORDO
100
AcDbLine
 62
250
  6
CONTINUOUS
 10
-223.932917579
 20
1.2511715166
 11
-224.2276818571
 21
1.2511715166
  0
LINE
  5
46B
100
AcDbEntity
  8
RACCORDO
100
AcDbLine
 62
250
  6
CONTINUOUS
 10
-191.3809530081
 20
0.9753648548
 11
-218.9329475061
 21
1.4562867076
  0
LINE
  5
46C
100
AcDbEntity
  8
RACCORDO
100
AcDbLine
 62
250
  6
CONTINUOUS
 10
-192.9608721302
 20
-0.6230432097
 11
-193.0865587158
 21
-0.6137772593
  0
LINE
  5
46D
100
AcDbEntity
  8
RACCORDO
100
AcDbLine
 62
250
  6
CONTINUOUS
 10
-192.8422539974
 20
-0.6325964699
 11
-192.9608721302
 21
-0.6230432097
  0
LINE
  5
46E
100
AcDbEntity
  8
RACCORDO
100
AcDbLine
 62
250
  6
CONTINUOUS
 10
-192.7304724948
 20
-0.6423851782
 11
-192.8422539974
 21
-0.6325964699
  0
LINE
  5
46F
100
AcDbEntity
  8
RACCORDO
100
AcDbLine
 62
250
  6
CONTINUOUS
 10
-192.6253287819
 20
-0.6523646463
 11
-192.7304724948
 21
-0.6423851782
  0
LINE
  5
470
100
AcDbEntity
  8
RACCORDO
100
AcDbLine
 62
250
  6
CONTINUOUS
 10
-192.526488873
 20
-0.6624986931
 11
-192.6253287819
 21
-0.6523646463
  0
LINE
  5
471
100
AcDbEntity
  8
RACCORDO
100
AcDbLine
 62
250
  6
CONTINUOUS
 10
-192.4335319967
 20
-0.6727667877
 11
-192.526488873
 21
-0.6624986931
  0
LWPOLYLINE
  5
472
100
AcDbEntity
  8
RACCORDO
100
AcDbPolyline
 62
250
  6
CONTINUOUS
 90
19
 70
0
 10
-195.9019480741
 20
0.5543552696
 10
-195.8969909195
 20
0.5531318094
 10
-195.8921110107
 20
0.5496444482
 10
-195.8873453296
 20
0.5439196149
 10
-195.8827299924
 20
0.5360006946
 10
-195.878299976
 20
0.5259477004
 10
-195.8740888528
 20
0.5138368184
 10
-195.8701285364
 20
0.4997598299
 10
-195.8664490396
 20
0.4838234165
 10
-195.863078247
 20
0.4661483511
 10
-195.8600417038
 20
0.4468685828
 10
-195.8573624219
 20
0.4261302216
 10
-195.8550607061
 20
0.4040904316
 10
-195.8531539994
 20
0.3809162394
 10
-195.8516567514
 20
0.3567832681
 10
-195.8505803089
 20
0.3318744073
 10
-195.8499328292
 20
0.3063784261
 10
-195.8497192192
 20
0.2804885429
 10
-195.8499410974
 20
0.2544009611
  0
LWPOLYLINE
  5
473
100
AcDbEntity
  8
RACCORDO
100
AcDbPolyline
 62
7
  6
CONTINUOUS
 90
33
 70
0
 10
-247.7804271633
 20
94.1742717678
 10
-247.7808488673
 20
94.1750693985
 10
-247.7808211784
 20
94.1750052691
 10
-247.7798455623
 20
94.1729124246
 10
-247.7781594995
 20
94.1690683277
 10
-247.7758334253
 20
94.1634455883
 10
-247.7729069087
 20
94.1559572832
 10
-247.7695274443
 20
94.1468227063
 10
-247.7657371597
 20
94.1360254753
 10
-247.7615607819
 20
94.1235089222
 10
-247.7570948886
 20
94.1094522701
 10
-247.7523700843
 20
94.0938616741
 10
-247.7473976119
 20
94.0766860727
 10
-247.7422304979
 20
94.0580286372
 10
-247.7368878083
 20
94.0378892221
 10
-247.7313775385
 20
94.0162302955
 10
-247.7257275748
 20
93.9930976126
 10
-247.719949355
 20
93.9684791314
 10
-247.714050501
 20
93.9423488512
 10
-247.7080482749
 20
93.9147269459
 10
-247.7019512265
 20
93.8855992046
 10
-247.6957652039
 20
93.8549400232
 10
-247.6895006226
 20
93.8227481716
 10
-247.6831642584
 20
93.7890067172
 10
-247.6767616437
 20
93.7536930848
 10
-247.6702998413
 20
93.716794019
 10
-247.6637841334
 20
93.6782872871
 10
-247.6572202369
 20
93.6381537413
 10
-247.6506148952
 20
93.5963816337
 10
-247.6439731396
 20
93.5529495843
 10
-247.6373003226
 20
93.5078385843
 10
-247.630603168
 20
93.4610396326
 10
-247.6238871121
 20
93.4125359241
  0
LINE
  5
474
100
AcDbEntity
  8
RACCORDO
100
AcDbLine
 62
250
  6
CONTINUOUS
 10
-184.9336618458
 20
-99.781425554
 11
-184.932917579
 21
-99.7916608441
  0
LINE
  5
475
100
AcDbEntity
  8
RACCORDO
100
AcDbLine
 62
250
  6
CONTINUOUS
 10
-184.933661823
 20
99.7814257002
 11
-184.932917579
 21
99.7916608368
  0
LWPOLYLINE
  5
476
100
AcDbEntity
  8
RACCORDO
100
AcDbPolyline
 62
7
  6
CONTINUOUS
 90
10
 70
0
 10
-191.3809530081
 20
0.9753648548
 10
-191.3756675611
 20
0.9680007965
 10
-191.3709545003
 20
0.9601032861
 10
-191.3668138257
 20
0.9516723235
 10
-191.3632188519
 20
0.9426839939
 10
-191.3601962643
 20
0.9331622122
 10
-191.3578261194
 20
0.9231787225
 10
-191.3561351026
 20
0.9127574396
 10
-191.3550965285
 20
0.9018744487
 10
-191.354710397
 20
0.8905297499
  0
LWPOLYLINE
  5
477
100
AcDbEntity
  8
RACCORDO
100
AcDbPolyline
 62
250
  6
CONTINUOUS
 90
82
 70
0
 10
-191.354707123
 20
-0.8905342672
 10
-191.362467191
 20
-0.8787535282
 10
-191.3711376256
 20
-0.8670888259
 10
-191.3807184268
 20
-0.8555401602
 10
-191.3912554098
 20
-0.8440883839
 10
-191.4027027594
 20
-0.8327526443
 10
-191.4149230298
 20
-0.8215903827
 10
-191.42789537
 20
-0.8106252736
 10
-191.441640631
 20
-0.7998336425
 10
-191.4560839204
 20
-0.7892019071
 10
-191.4712023803
 20
-0.7787390097
 10
-191.4870188686
 20
-0.7684360079
 10
-191.5035270662
 20
-0.7582524927
 10
-191.5207216069
 20
-0.7481841177
 10
-191.5386078569
 20
-0.7382352293
 10
-191.5571955961
 20
-0.7283784575
 10
-191.5764710407
 20
-0.7186150317
 10
-191.5964479745
 20
-0.7089437226
 10
-191.6171775287
 20
-0.6993334721
 10
-191.638647588
 20
-0.6897839542
 10
-191.6608702678
 20
-0.680295495
 10
-191.6839330459
 20
-0.6708380145
 10
-191.7078351002
 20
-0.6614071547
 10
-191.7325772528
 20
-0.6520072737
 10
-191.7582494477
 20
-0.6426213658
 10
-191.7848623925
 20
-0.6332431469
 10
-191.8124053796
 20
-0.6238789012
 10
-191.8409362307
 20
-0.6145304756
 10
-191.8704665686
 20
-0.6051937791
 10
-191.9009847706
 20
-0.5958729026
 10
-191.9325137897
 20
-0.5865819654
 10
-191.96504523
 20
-0.5773232921
 10
-191.9985874874
 20
-0.5680945582
 10
-192.0331887027
 20
-0.5589029093
 10
-192.0688280098
 20
-0.5497522058
 10
-192.1055262748
 20
-0.5406385872
 10
-192.1433942368
 20
-0.5315576185
 10
-192.1824221174
 20
-0.5225089103
 10
-192.2226196951
 20
-0.5134928519
 10
-192.2641270447
 20
-0.5045061756
 10
-192.3069429459
 20
-0.4955464367
 10
-192.3510686189
 20
-0.4866160799
 10
-192.3966477991
 20
-0.4777191717
 10
-192.4436800153
 20
-0.4688533959
 10
-192.4921657387
 20
-0.4600210686
 10
-192.5422501177
 20
-0.451233205
 10
-192.5939391113
 20
-0.442486795
 10
-192.6472267604
 20
-0.4337848486
 10
-192.7022403369
 20
-0.4251474117
 10
-192.7589915748
 20
-0.416571389
 10
-192.8174687401
 20
-0.4080598757
 10
-192.8777639023
 20
-0.3996422032
 10
-192.9398723895
 20
-0.3913179059
 10
-193.0037988737
 20
-0.3830874494
 10
-193.0696494395
 20
-0.3749815622
 10
-193.1373959369
 20
-0.3670013885
 10
-193.2070665161
 20
-0.3591457842
 10
-193.2788517115
 20
-0.3514420452
 10
-193.3527290072
 20
-0.3438886579
 10
-193.4287209192
 20
-0.3364871359
 10
-193.5070855304
 20
-0.3292693164
 10
-193.5878127761
 20
-0.3222311372
 10
-193.6709127209
 20
-0.3153766604
 10
-193.7566736413
 20
-0.3087499094
 10
-193.8450833897
 20
-0.3023458677
 10
-193.9361541135
 20
-0.2961695518
 10
-194.0302105324
 20
-0.2902800345
 10
-194.1272476674
 20
-0.2846705602
 10
-194.2272704973
 20
-0.2793478845
 10
-194.3306186787
 20
-0.2743913472
 10
-194.4373253666
 20
-0.2697921338
 10
-194.5473574059
 20
-0.2655590589
 10
-194.6609549873
 20
-0.2617979051
 10
-194.7781485076
 20
-0.2585007049
 10
-194.8989075701
 20
-0.255675426
 10
-195.0233811749
 20
-0.2534517542
 10
-195.1515665847
 20
-0.2518211362
 10
-195.2834665369
 20
-0.2507921253
 10
-195.419238243
 20
-0.2505200677
 10
-195.5589341071
 20
-0.2510567455
 10
-195.7025017253
 20
-0.2523503766
 10
-218.932917579
 20
-0.6573158143
  0
LWPOLYLINE
  5
478
100
AcDbEntity
  8
RACCORDO
100
AcDbPolyline
 62
250
  6
CONTINUOUS
 90
22
 70
0
 10
-184.9329178592
 20
-66.5002644431
 10
-184.9343715839
 20
-66.4848159985
 10
-184.9384974153
 20
-66.4695214743
 10
-184.9449860913
 20
-66.4544659512
 10
-184.9536542496
 20
-66.4397000774
 10
-184.9642157331
 20
-66.4253443008
 10
-184.9760218888
 20
-66.4115680333
 10
-184.9885425291
 20
-66.398430486
 10
-185.0015503159
 20
-66.3859986841
 10
-185.0146573375
 20
-66.3744122634
 10
-185.0273899638
 20
-66.3637497567
 10
-185.0395771982
 20
-66.3539838727
 10
-185.0513772658
 20
-66.3450844226
 10
-185.0626230949
 20
-66.337073004
 10
-185.0731040698
 20
-66.3299807364
 10
-185.0830763987
 20
-66.323811206
 10
-185.092464159
 20
-66.3185632845
 10
-185.1011002109
 20
-66.3142877221
 10
-185.1091900212
 20
-66.3110360845
 10
-185.1167377079
 20
-66.3087926272
 10
-185.1235210559
 20
-66.3075106257
 10
-185.1294251546
 20
-66.3071550693
  0
LWPOLYLINE
  5
479
100
AcDbEntity
  8
RACCORDO
100
AcDbPolyline
 62
250
  6
CONTINUOUS
 90
50
 70
0
 10
-191.3809530081
 20
-0.9753648548
 10
-191.3812620393
 20
-0.9685121276
 10
-191.3824993998
 20
-0.9615976322
 10
-191.3846650079
 20
-0.9546227715
 10
-191.3877405814
 20
-0.9475779661
 10
-191.3917442279
 20
-0.9404759023
 10
-191.3967304738
 20
-0.9333514374
 10
-191.4027326089
 20
-0.9261965602
 10
-191.4097172118
 20
-0.9190227047
 10
-191.4176388194
 20
-0.9118935999
 10
-191.4265239542
 20
-0.9048150319
 10
-191.4363460767
 20
-0.8977841163
 10
-191.4469802307
 20
-0.8908509089
 10
-191.458420517
 20
-0.8840299258
 10
-191.4706729186
 20
-0.8773084949
 10
-191.4836303573
 20
-0.8706953498
 10
-191.4972687821
 20
-0.8642011091
 10
-191.5116123491
 20
-0.8578163296
 10
-191.5266262825
 20
-0.8515196529
 10
-191.5422999197
 20
-0.8453114586
 10
-191.5586439888
 20
-0.8391925947
 10
-191.5756557638
 20
-0.8331427635
 10
-191.5933261091
 20
-0.827162272
 10
-191.6116641922
 20
-0.8212522311
 10
-191.6306947053
 20
-0.8153939857
 10
-191.6504042624
 20
-0.8095892857
 10
-191.6708062494
 20
-0.8038381353
 10
-191.6919654768
 20
-0.7981198205
 10
-191.7138742952
 20
-0.7924347667
 10
-191.736540312
 20
-0.7867849454
 10
-191.7600511822
 20
-0.7811526365
 10
-191.7844105583
 20
-0.7755367276
 10
-191.8096147043
 20
-0.7699415305
 10
-191.8357401602
 20
-0.7643580636
 10
-191.862799225
 20
-0.7587850488
 10
-191.8907794897
 20
-0.7532276431
 10
-191.9197204171
 20
-0.7476868424
 10
-191.9496269129
 20
-0.7421639152
 10
-191.9804939576
 20
-0.7366617871
 10
-192.0123461249
 20
-0.7311840216
 10
-192.0451701401
 20
-0.725734939
 10
-192.0789791674
 20
-0.7203145889
 10
-192.1138374317
 20
-0.7149203346
 10
-192.1497277904
 20
-0.7095565937
 10
-192.1866672597
 20
-0.7042239355
 10
-192.2247712788
 20
-0.6989145696
 10
-192.2640332775
 20
-0.6936315882
 10
-192.3044596634
 20
-0.688378066
 10
-192.3461853086
 20
-0.6831471017
 10
-192.4335319967
 20
-0.6727667877
  0
LWPOLYLINE
  5
47A
100
AcDbEntity
  8
RACCORDO
100
AcDbPolyline
 62
250
  6
CONTINUOUS
 90
7
 70
0
 10
-187.6284820643
 20
-62.2636269928
 10
-187.6285967127
 20
-62.2590766999
 10
-187.6287252373
 20
-62.2551827534
 10
-187.628870615
 20
-62.2519396796
 10
-187.6290354235
 20
-62.2494499141
 10
-187.6292204793
 20
-62.2478627998
 10
-187.6294270977
 20
-62.2473031603
  0
LWPOLYLINE
  5
47B
100
AcDbEntity
  8
RACCORDO
100
AcDbPolyline
 62
250
  6
CONTINUOUS
 90
7
 70
0
 10
-187.6284820643
 20
95.8363730072
 10
-187.6285967127
 20
95.8409233001
 10
-187.6287252373
 20
95.8448172466
 10
-187.628870615
 20
95.8480603204
 10
-187.6290354235
 20
95.8505500859
 10
-187.6292204793
 20
95.8521372002
 10
-187.6294270977
 20
95.8526968397
  0
LWPOLYLINE
  5
47C
100
AcDbEntity
  8
RACCORDO
100
AcDbPolyline
 62
250
  6
CONTINUOUS
 90
6
 70
0
 10
-187.6285750666
 20
62.2265436134
 10
-187.6287124194
 20
62.2337204447
 10
-187.6288669031
 20
62.2394890533
 10
-187.629037941
 20
62.2437657356
 10
-187.6292247141
 20
62.2464042187
 10
-187.6294270977
 20
62.2473031603
  0
LWPOLYLINE
  5
47D
100
AcDbEntity
  8
RACCORDO
100
AcDbPolyline
 62
250
  6
CONTINUOUS
 90
6
 70
0
 10
-187.6285595507
 20
-95.8744505975
 10
-187.6287012978
 20
-95.8668246732
 10
-187.6288589539
 20
-95.8607609782
 10
-187.6290320012
 20
-95.8563235448
 10
-187.6292211907
 20
-95.8536124821
 10
-187.6294270977
 20
-95.8526968397
  0
LWPOLYLINE
  5
47E
100
AcDbEntity
  8
RACCORDO
100
AcDbPolyline
 62
250
  6
CONTINUOUS
 90
6
 70
0
 10
-185.1285437098
 20
-105.776328881
 10
-185.1286890876
 20
-105.7682057688
 10
-185.1288493625
 20
-105.761800977
 10
-185.1290248054
 20
-105.757176386
 10
-185.1292169989
 20
-105.7543713194
 10
-185.1294270977
 20
-105.7534300864
  0
LINE
  5
47F
100
AcDbEntity
  8
RACCORDO
100
AcDbLine
 62
250
  6
CONTINUOUS
 10
-187.6282925987
 20
-62.274478471
 11
-187.6284820643
 21
-62.2636269928
  0
LINE
  5
480
100
AcDbEntity
  8
RACCORDO
100
AcDbLine
 62
250
  6
CONTINUOUS
 10
-187.6282925987
 20
95.825521529
 11
-187.6284820643
 21
95.8363730072
  0
LINE
  5
481
100
AcDbEntity
  8
RACCORDO
100
AcDbLine
 62
250
  6
CONTINUOUS
 10
-187.6294270977
 20
-66.1508232002
 11
-187.6286430303
 21
-66.2025693222
  0
LINE
  5
482
100
AcDbEntity
  8
RACCORDO
100
AcDbLine
 62
250
  6
CONTINUOUS
 10
-185.1286430249
 20
-110.5324538461
 11
-185.1294270977
 21
-110.480707301
  0
LINE
  5
483
100
AcDbEntity
  8
RACCORDO
100
AcDbLine
 62
250
  6
CONTINUOUS
 10
-187.6294270977
 20
91.9491767998
 11
-187.6286430303
 21
91.8974306778
  0
LINE
  5
484
100
AcDbEntity
  8
RACCORDO
100
AcDbLine
 62
250
  6
CONTINUOUS
 10
-185.1286430242
 20
-66.158932141
 11
-185.1294270977
 21
-66.1071855378
  0
LINE
  5
485
100
AcDbEntity
  8
RACCORDO
100
AcDbLine
 62
250
  6
CONTINUOUS
 10
-185.1286430242
 20
91.941067859
 11
-185.1294270977
 21
91.9928144622
  0
LINE
  5
486
100
AcDbEntity
  8
RACCORDO
100
AcDbLine
 62
250
  6
CONTINUOUS
 10
-185.4154678307
 20
-66.5120565674
 11
-185.4159670175
 21
-66.4773455523
  0
LINE
  5
487
100
AcDbEntity
  8
RACCORDO
100
AcDbLine
 62
250
  6
CONTINUOUS
 10
-185.4154678307
 20
91.5879434326
 11
-185.4159670175
 21
91.6226544477
  0
LWPOLYLINE
  5
488
100
AcDbEntity
  8
RACCORDO
100
AcDbPolyline
 62
250
  6
CONTINUOUS
 90
6
 70
0
 10
-185.129066556
 20
-110.6907919932
 10
-185.1291066955
 20
-110.6872321556
 10
-185.1291627596
 20
-110.6844063342
 10
-185.1292353467
 20
-110.6823529115
 10
-185.1293234909
 20
-110.6810995862
 10
-185.1294270968
 20
-110.6806768313
  0
LINE
  5
489
100
AcDbEntity
  8
RACCORDO
100
AcDbLine
 62
250
  6
CONTINUOUS
 10
-187.6283428806
 20
62.2076876656
 11
-187.6285750666
 21
62.2265436134
  0
LINE
  5
48A
100
AcDbEntity
  8
RACCORDO
100
AcDbLine
 62
250
  6
CONTINUOUS
 10
-187.6283227142
 20
-95.8945072943
 11
-187.6285595507
 21
-95.8744505975
  0
LINE
  5
48B
100
AcDbEntity
  8
RACCORDO
100
AcDbLine
 62
250
  6
CONTINUOUS
 10
-185.1283037576
 20
-105.7972608664
 11
-185.1285437098
 21
-105.776328881
  0
LWPOLYLINE
  5
48C
100
AcDbEntity
  8
RACCORDO
100
AcDbPolyline
 62
250
  6
CONTINUOUS
 90
8
 70
0
 10
-185.1280569939
 20
-91.8290308347
 10
-185.1281501488
 20
-91.8196564676
 10
-185.1282795734
 20
-91.8115994034
 10
-185.1284442832
 20
-91.8049209606
 10
-185.1286430249
 20
-91.7996719675
 10
-185.1288742864
 20
-91.7958923612
 10
-185.1291363085
 20
-91.7936108935
 10
-185.1294270977
 20
-91.7928449231
  0
LWPOLYLINE
  5
48D
100
AcDbEntity
  8
RACCORDO
100
AcDbPolyline
 62
250
  6
CONTINUOUS
 90
8
 70
0
 10
-185.1280569939
 20
66.2709691653
 10
-185.1281501488
 20
66.2803435324
 10
-185.1282795734
 20
66.2884005966
 10
-185.1284442832
 20
66.2950790394
 10
-185.1286430249
 20
66.3003280325
 10
-185.1288742864
 20
66.3041076388
 10
-185.1291363085
 20
66.3063891065
 10
-185.1294270977
 20
66.3071550769
  0
LWPOLYLINE
  5
48E
100
AcDbEntity
  8
RACCORDO
100
AcDbPolyline
 62
250
  6
CONTINUOUS
 90
8
 70
0
 10
-185.1280569939
 20
110.6444909285
 10
-185.1281501488
 20
110.6538652955
 10
-185.1282795734
 20
110.6619223598
 10
-185.1284442832
 20
110.6686008026
 10
-185.1286430249
 20
110.6738497956
 10
-185.1288742864
 20
110.6776294019
 10
-185.1291363085
 20
110.6799108696
 10
-185.1294270977
 20
110.68067684
  0
LINE
  5
48F
100
AcDbEntity
  8
RACCORDO
100
AcDbLine
 62
250
  6
CONTINUOUS
 10
-187.6281476163
 20
-62.287807077
 11
-187.6282925987
 21
-62.274478471
  0
LINE
  5
490
100
AcDbEntity
  8
RACCORDO
100
AcDbLine
 62
250
  6
CONTINUOUS
 10
-187.6281476163
 20
95.812192923
 11
-187.6282925987
 21
95.825521529
  0
LWPOLYLINE
  5
491
100
AcDbEntity
  8
RACCORDO
100
AcDbPolyline
 62
250
  6
CONTINUOUS
 90
12
 70
0
 10
-185.4162054214
 20
-91.7026024665
 10
-185.4160762415
 20
-91.716439926
 10
-185.4158893547
 20
-91.7293002074
 10
-185.4156461823
 20
-91.741085512
 10
-185.4153485735
 20
-91.751706216
 10
-185.4149987914
 20
-91.761081552
 10
-185.4145994962
 20
-91.7691402235
 10
-185.4141537243
 20
-91.7758209465
 10
-185.4136648658
 20
-91.7810729161
 10
-185.4131366381
 20
-91.7848561927
 10
-185.4125730584
 20
-91.7871420055
 10
-185.4119784125
 20
-91.7879129716
  0
LWPOLYLINE
  5
492
100
AcDbEntity
  8
RACCORDO
100
AcDbPolyline
 62
250
  6
CONTINUOUS
 90
12
 70
0
 10
-185.4162054214
 20
66.3973975335
 10
-185.4160762415
 20
66.383560074
 10
-185.4158893547
 20
66.3706997926
 10
-185.4156461823
 20
66.358914488
 10
-185.4153485735
 20
66.348293784
 10
-185.4149987914
 20
66.338918448
 10
-185.4145994962
 20
66.3308597765
 10
-185.4141537243
 20
66.3241790535
 10
-185.4136648658
 20
66.3189270839
 10
-185.4131366381
 20
66.3151438073
 10
-185.4125730584
 20
66.3128579945
 10
-185.4119784125
 20
66.3120870284
  0
LINE
  5
493
100
AcDbEntity
  8
RACCORDO
100
AcDbLine
 62
250
  6
CONTINUOUS
 10
-187.6286430303
 20
-66.2025693222
 11
-187.6281501541
 21
-66.2507903912
  0
LINE
  5
494
100
AcDbEntity
  8
RACCORDO
100
AcDbLine
 62
250
  6
CONTINUOUS
 10
-187.6286430303
 20
91.8974306778
 11
-187.6281501541
 21
91.8492096088
  0
LINE
  5
495
100
AcDbEntity
  8
RACCORDO
100
AcDbLine
 62
250
  6
CONTINUOUS
 10
-185.1281501488
 20
-110.5806751984
 11
-185.1286430249
 21
-110.5324538461
  0
LINE
  5
496
100
AcDbEntity
  8
RACCORDO
100
AcDbLine
 62
250
  6
CONTINUOUS
 10
-185.1281501484
 20
-66.2071534943
 11
-185.1286430242
 21
-66.158932141
  0
LINE
  5
497
100
AcDbEntity
  8
RACCORDO
100
AcDbLine
 62
250
  6
CONTINUOUS
 10
-185.1281501484
 20
91.8928465057
 11
-185.1286430242
 21
91.941067859
  0
LINE
  5
498
100
AcDbEntity
  8
RACCORDO
100
AcDbLine
 62
250
  6
CONTINUOUS
 10
-187.6283866528
 20
-95.663344207
 11
-187.6294270977
 21
-95.5527425312
  0
LINE
  5
499
100
AcDbEntity
  8
RACCORDO
100
AcDbLine
 62
250
  6
CONTINUOUS
 10
-187.6283866528
 20
62.436655793
 11
-187.6294270977
 21
62.5472574688
  0
LINE
  5
49A
100
AcDbEntity
  8
RACCORDO
100
AcDbLine
 62
250
  6
CONTINUOUS
 10
-185.1291070693
 20
110.7221698582
 11
-185.1294270966
 21
110.7583190412
  0
LINE
  5
49B
100
AcDbEntity
  8
RACCORDO
100
AcDbLine
 62
250
  6
CONTINUOUS
 10
-185.4159670175
 20
-66.4773455523
 11
-185.4162391319
 21
-66.4436883963
  0
LINE
  5
49C
100
AcDbEntity
  8
RACCORDO
100
AcDbLine
 62
250
  6
CONTINUOUS
 10
-185.4159670175
 20
91.6226544477
 11
-185.4162391319
 21
91.6563116037
  0
LINE
  5
49D
100
AcDbEntity
  8
RACCORDO
100
AcDbLine
 62
250
  6
CONTINUOUS
 10
-187.6280976599
 20
62.1684978171
 11
-187.6283428806
 21
62.2076876656
  0
LINE
  5
49E
100
AcDbEntity
  8
RACCORDO
100
AcDbLine
 62
250
  6
CONTINUOUS
 10
-187.6280803947
 20
-95.9361054154
 11
-187.6283227142
 21
-95.8945072943
  0
LINE
  5
49F
100
AcDbEntity
  8
RACCORDO
100
AcDbLine
 62
250
  6
CONTINUOUS
 10
-187.6281501541
 20
-66.2507903912
 11
-187.6280008186
 21
-66.2793404099
  0
LINE
  5
4A0
100
AcDbEntity
  8
RACCORDO
100
AcDbLine
 62
250
  6
CONTINUOUS
 10
-187.6281501541
 20
91.8492096088
 11
-187.6280008186
 21
91.8206595901
  0
LINE
  5
4A1
100
AcDbEntity
  8
RACCORDO
100
AcDbLine
 62
250
  6
CONTINUOUS
 10
-185.1280008168
 20
-110.6092251461
 11
-185.1281501488
 21
-110.5806751984
  0
LINE
  5
4A2
100
AcDbEntity
  8
RACCORDO
100
AcDbLine
 62
250
  6
CONTINUOUS
 10
-185.1280710486
 20
-105.8393736882
 11
-185.1283037576
 21
-105.7972608664
  0
LINE
  5
4A3
100
AcDbEntity
  8
RACCORDO
100
AcDbLine
 62
250
  6
CONTINUOUS
 10
-185.1280008167
 20
-66.2357034184
 11
-185.1281501484
 21
-66.2071534943
  0
LINE
  5
4A4
100
AcDbEntity
  8
RACCORDO
100
AcDbLine
 62
250
  6
CONTINUOUS
 10
-185.1280008167
 20
91.8642965816
 11
-185.1281501484
 21
91.8928465057
  0
LINE
  5
4A5
100
AcDbEntity
  8
RACCORDO
100
AcDbLine
 62
250
  6
CONTINUOUS
 10
-187.6280138402
 20
-62.3124757238
 11
-187.6281476163
 21
-62.287807077
  0
LINE
  5
4A6
100
AcDbEntity
  8
RACCORDO
100
AcDbLine
 62
250
  6
CONTINUOUS
 10
-187.6280138402
 20
95.7875242762
 11
-187.6281476163
 21
95.812192923
  0
LINE
  5
4A7
100
AcDbEntity
  8
RACCORDO
100
AcDbLine
 62
250
  6
CONTINUOUS
 10
-187.628098747
 20
-62.0161423687
 11
-187.6294270977
 21
-61.7473793127
  0
LINE
  5
4A8
100
AcDbEntity
  8
RACCORDO
100
AcDbLine
 62
250
  6
CONTINUOUS
 10
-187.6280145572
 20
-95.7390829789
 11
-187.6283866528
 21
-95.663344207
  0
LINE
  5
4A9
100
AcDbEntity
  8
RACCORDO
100
AcDbLine
 62
250
  6
CONTINUOUS
 10
-187.6280145572
 20
62.3609170211
 11
-187.6283866528
 21
62.436655793
  0
LINE
  5
4AA
100
AcDbEntity
  8
RACCORDO
100
AcDbLine
 62
250
  6
CONTINUOUS
 10
-187.6280837527
 20
96.0775390481
 11
-187.6294270977
 21
96.3526206873
  0
LINE
  5
4AB
100
AcDbEntity
  8
RACCORDO
100
AcDbLine
 62
250
  6
CONTINUOUS
 10
-185.1280710486
 20
105.9730173898
 11
-185.1294270977
 21
106.253353934
  0
LINE
  5
4AC
100
AcDbEntity
  8
RACCORDO
100
AcDbLine
 62
250
  6
CONTINUOUS
 10
-185.1290291695
 20
-110.6998539434
 11
-185.129066556
 21
-110.6907919932
  0
LINE
  5
4AD
100
AcDbEntity
  8
RACCORDO
100
AcDbLine
 62
250
  6
CONTINUOUS
 10
-185.1290292591
 20
110.7023615467
 11
-185.1291070693
 21
110.7221698582
  0
LINE
  5
4AE
100
AcDbEntity
  8
RACCORDO
100
AcDbLine
 62
250
  6
CONTINUOUS
 10
-187.6280561335
 20
-91.7855087833
 11
-187.6279820488
 21
-91.8079816204
  0
LINE
  5
4AF
100
AcDbEntity
  8
RACCORDO
100
AcDbLine
 62
250
  6
CONTINUOUS
 10
-187.6280561335
 20
66.3144912167
 11
-187.6279820488
 21
66.2920183796
  0
LINE
  5
4B0
100
AcDbEntity
  8
RACCORDO
100
AcDbLine
 62
250
  6
CONTINUOUS
 10
-185.1279820446
 20
-91.8514367383
 11
-185.1280569939
 21
-91.8290308347
  0
LINE
  5
4B1
100
AcDbEntity
  8
RACCORDO
100
AcDbLine
 62
250
  6
CONTINUOUS
 10
-185.1279820446
 20
66.2485632617
 11
-185.1280569939
 21
66.2709691653
  0
LINE
  5
4B2
100
AcDbEntity
  8
RACCORDO
100
AcDbLine
 62
250
  6
CONTINUOUS
 10
-185.1293133489
 20
105.7267895944
 11
-185.129382638
 21
105.7516405961
  0
LINE
  5
4B3
100
AcDbEntity
  8
RACCORDO
100
AcDbLine
 62
250
  6
CONTINUOUS
 10
-185.1279820446
 20
110.6220850248
 11
-185.1280569939
 21
110.6444909285
  0
LINE
  5
4B4
100
AcDbEntity
  8
RACCORDO
100
AcDbLine
 62
250
  6
CONTINUOUS
 10
-185.4162871773
 20
-91.6724235633
 11
-185.4162054214
 21
-91.7026024665
  0
LINE
  5
4B5
100
AcDbEntity
  8
RACCORDO
100
AcDbLine
 62
250
  6
CONTINUOUS
 10
-185.4162871773
 20
66.4275764367
 11
-185.4162054214
 21
66.3973975335
  0
LINE
  5
4B6
100
AcDbEntity
  8
RACCORDO
100
AcDbLine
 62
7
  6
CONTINUOUS
 10
-191.354710397
 20
0.8905298627
 11
-191.354707123
 21
-0.8905342672
  0
LINE
  5
4B7
100
AcDbEntity
  8
RACCORDO
100
AcDbLine
 62
250
  6
CONTINUOUS
 10
-189.4241913758
 20
91.7178795338
 11
-189.4241913758
 21
66.3821204662
  0
LINE
  5
4B8
100
AcDbEntity
  8
RACCORDO
100
AcDbLine
 62
250
  6
CONTINUOUS
 10
-189.4241913758
 20
-66.3821204662
 11
-189.4241913758
 21
-91.7178795338
  0
LINE
  5
4B9
100
AcDbEntity
  8
RACCORDO
100
AcDbLine
 62
7
  6
CONTINUOUS
 10
-188.932917579
 20
91.7264547498
 11
-188.932917579
 21
66.3735452502
  0
LINE
  5
4BA
100
AcDbEntity
  8
RACCORDO
100
AcDbLine
 62
7
  6
CONTINUOUS
 10
-188.932917579
 20
-66.3735452502
 11
-188.932917579
 21
-91.7264547498
  0
LINE
  5
4BB
100
AcDbEntity
  8
RACCORDO
100
AcDbLine
 62
250
  6
CONTINUOUS
 10
-187.6294270977
 20
-95.5527425312
 11
-187.6294270977
 21
-91.9491767998
  0
LINE
  5
4BC
100
AcDbEntity
  8
RACCORDO
100
AcDbLine
 62
250
  6
CONTINUOUS
 10
-187.6294270977
 20
-66.1508232002
 11
-187.6294270977
 21
-62.5472574688
  0
LINE
  5
4BD
100
AcDbEntity
  8
RACCORDO
100
AcDbLine
 62
250
  6
CONTINUOUS
 10
-187.6294270977
 20
62.5472574688
 11
-187.6294270977
 21
66.1508232002
  0
LINE
  5
4BE
100
AcDbEntity
  8
RACCORDO
100
AcDbLine
 62
250
  6
CONTINUOUS
 10
-187.6294270977
 20
91.9491767998
 11
-187.6294270977
 21
95.5527425312
  0
LINE
  5
4BF
100
AcDbEntity
  8
RACCORDO
100
AcDbLine
 62
7
  6
CONTINUOUS
 10
-187.432917579
 20
-95.8662965776
 11
-187.432917579
 21
-91.9491767998
  0
LINE
  5
4C0
100
AcDbEntity
  8
RACCORDO
100
AcDbLine
 62
7
  6
CONTINUOUS
 10
-187.432917579
 20
-66.1508232002
 11
-187.432917579
 21
-62.2337034283
  0
LINE
  5
4C1
100
AcDbEntity
  8
RACCORDO
100
AcDbLine
 62
7
  6
CONTINUOUS
 10
-187.432917579
 20
62.2337034282
 11
-187.432917579
 21
66.1508232002
  0
LINE
  5
4C2
100
AcDbEntity
  8
RACCORDO
100
AcDbLine
 62
7
  6
CONTINUOUS
 10
-187.432917579
 20
91.9491767998
 11
-187.432917579
 21
95.8662965763
  0
LINE
  5
4C3
100
AcDbEntity
  8
RACCORDO
100
AcDbLine
 62
250
  6
CONTINUOUS
 10
-185.4154678307
 20
91.5879434326
 11
-185.4154678307
 21
66.5120565674
  0
LINE
  5
4C4
100
AcDbEntity
  8
RACCORDO
100
AcDbLine
 62
250
  6
CONTINUOUS
 10
-185.4154678307
 20
-66.5120565674
 11
-185.4154678307
 21
-91.5879434326
  0
LINE
  5
4C5
100
AcDbEntity
  8
RACCORDO
100
AcDbLine
 62
250
  6
CONTINUOUS
 10
-185.1292435661
 20
-99.0806252878
 11
-185.1292634676
 21
-98.9148899202
  0
LINE
  5
4C6
100
AcDbEntity
  8
RACCORDO
100
AcDbLine
 62
250
  6
CONTINUOUS
 10
-185.1294270977
 20
-112.1599578788
 11
-185.1294270997
 21
-110.7583190198
  0
LINE
  5
4C7
100
AcDbEntity
  8
RACCORDO
100
AcDbLine
 62
250
  6
CONTINUOUS
 10
-185.1294270977
 20
-110.480707301
 11
-185.1294270977
 21
-106.253353934
  0
LINE
  5
4C8
100
AcDbEntity
  8
RACCORDO
100
AcDbLine
 62
250
  6
CONTINUOUS
 10
-185.1292634676
 20
-98.9148899202
 11
-185.1294270977
 21
-91.9928144622
  0
LINE
  5
4C9
100
AcDbEntity
  8
RACCORDO
100
AcDbLine
 62
250
  6
CONTINUOUS
 10
-185.1294270977
 20
-66.1071855378
 11
-185.1294270977
 21
66.1071855378
  0
LINE
  5
4CA
100
AcDbEntity
  8
RACCORDO
100
AcDbLine
 62
250
  6
CONTINUOUS
 10
-185.1292634783
 20
99.2999005449
 11
-185.1294270998
 21
105.4540347459
  0
LINE
  5
4CB
100
AcDbEntity
  8
RACCORDO
100
AcDbLine
 62
250
  6
CONTINUOUS
 10
-185.1294270977
 20
106.253353934
 11
-185.1294270977
 21
110.480707301
  0
LINE
  5
4CC
100
AcDbEntity
  8
RACCORDO
100
AcDbLine
 62
250
  6
CONTINUOUS
 10
-185.1294270971
 20
110.758319043
 11
-185.1294270977
 21
112.1599578788
  0
LINE
  5
4CD
100
AcDbEntity
  8
RACCORDO
100
AcDbLine
 62
7
  6
CONTINUOUS
 10
-184.932917579
 20
-111.9599883398
 11
-184.932917579
 21
111.9599883398
  0
LINE
  5
4CE
100
AcDbEntity
  8
RACCORDO
100
AcDbLine
 62
250
  6
CONTINUOUS
 10
-185.1292517498
 20
-99.2394889251
 11
-185.1292435661
 21
-99.0806252878
  0
LINE
  5
4CF
100
AcDbEntity
  8
RACCORDO
100
AcDbLine
 62
250
  6
CONTINUOUS
 10
-185.1292829337
 20
-99.3891291529
 11
-185.1292517498
 21
-99.2394889251
  0
LINE
  5
4D0
100
AcDbEntity
  8
RACCORDO
100
AcDbLine
 62
250
  6
CONTINUOUS
 10
-187.6279922221
 20
62.0775418973
 11
-187.6280976599
 21
62.1684978171
  0
LWPOLYLINE
  5
4D1
100
AcDbEntity
  8
RACCORDO
100
AcDbPolyline
 62
250
  6
CONTINUOUS
 90
4
 70
0
 10
-185.1294270977
 20
91.9928144622
 10
-185.1293827984
 20
98.5697915331
 10
-185.1293438808
 20
98.6533631649
 10
-185.1292634783
 20
99.2999005449
  0
LINE
  5
4D2
100
AcDbEntity
  8
RACCORDO
100
AcDbLine
 62
250
  6
CONTINUOUS
 10
-185.1293439022
 20
-99.5336289904
 11
-185.1292829337
 21
-99.3891291529
  0
LWPOLYLINE
  5
4D3
100
AcDbEntity
  8
RACCORDO
100
AcDbPolyline
 62
250
  6
CONTINUOUS
 90
14
 70
0
 10
-185.4162391319
 20
91.6563116037
 10
-185.4162759123
 20
91.6878930363
 10
-185.4162054217
 20
91.7026024433
 10
-185.4160762419
 20
91.7164399029
 10
-185.4158893552
 20
91.7293001853
 10
-185.4156461828
 20
91.7410854917
 10
-185.415348574
 20
91.7517061983
 10
-185.4149987921
 20
91.7610815374
 10
-185.4145994969
 20
91.7691402122
 10
-185.414153725
 20
91.7758209386
 10
-185.4136648663
 20
91.7810729113
 10
-185.4131366386
 20
91.7848561904
 10
-185.4125730587
 20
91.7871420049
 10
-185.4119784126
 20
91.7879129716
  0
LWPOLYLINE
  5
4D4
100
AcDbEntity
  8
RACCORDO
100
AcDbPolyline
 62
250
  6
CONTINUOUS
 90
14
 70
0
 10
-185.4162391319
 20
-66.4436883963
 10
-185.4162759123
 20
-66.4121069637
 10
-185.4162054217
 20
-66.3973975567
 10
-185.4160762419
 20
-66.3835600971
 10
-185.4158893552
 20
-66.3706998147
 10
-185.4156461828
 20
-66.3589145083
 10
-185.415348574
 20
-66.3482938017
 10
-185.4149987921
 20
-66.3389184626
 10
-185.4145994969
 20
-66.3308597878
 10
-185.414153725
 20
-66.3241790614
 10
-185.4136648663
 20
-66.3189270887
 10
-185.4131366386
 20
-66.3151438096
 10
-185.4125730587
 20
-66.3128579951
 10
-185.4119784126
 20
-66.3120870284
  0
LINE
  5
4D5
100
AcDbEntity
  8
RACCORDO
100
AcDbLine
 62
250
  6
CONTINUOUS
 10
-185.1294270978
 20
-99.6729271188
 11
-185.1293439022
 21
-99.5336289904
  0
LINE
  5
4D6
100
AcDbEntity
  8
RACCORDO
100
AcDbLine
 62
250
  6
CONTINUOUS
 10
-187.628002165
 20
-96.0323808437
 11
-187.6280803947
 21
-95.9361054154
  0
LINE
  5
4D7
100
AcDbEntity
  8
RACCORDO
100
AcDbLine
 62
250
  6
CONTINUOUS
 10
-185.1294271002
 20
105.4540347996
 11
-185.1293133489
 21
105.7267895944
  0
LINE
  5
4D8
100
AcDbEntity
  8
RACCORDO
100
AcDbLine
 62
250
  6
CONTINUOUS
 10
-187.6279984623
 20
95.7467647548
 11
-187.6280138402
 21
95.7875242762
  0
LINE
  5
4D9
100
AcDbEntity
  8
RACCORDO
100
AcDbLine
 62
250
  6
CONTINUOUS
 10
-187.6279984623
 20
-62.3532352452
 11
-187.6280138402
 21
-62.3124757238
  0
LINE
  5
4DA
100
AcDbEntity
  8
RACCORDO
100
AcDbLine
 62
250
  6
CONTINUOUS
 10
-187.6279982835
 20
62.3186217838
 11
-187.6280145572
 21
62.3609170211
  0
LINE
  5
4DB
100
AcDbEntity
  8
RACCORDO
100
AcDbLine
 62
250
  6
CONTINUOUS
 10
-187.6279982835
 20
-95.7813782162
 11
-187.6280145572
 21
-95.7390829789
  0
LWPOLYLINE
  5
4DC
100
AcDbEntity
  8
RACCORDO
100
AcDbPolyline
 62
250
  6
CONTINUOUS
 90
10
 70
0
 10
-187.6280008186
 20
91.8206595901
 10
-187.6280008186
 20
91.7960129913
 10
-187.6280569975
 20
91.7853926878
 10
-187.6281501541
 20
91.7760183973
 10
-187.6282795795
 20
91.767961436
 10
-187.6284442893
 20
91.7612830987
 10
-187.6286430303
 20
91.7560341917
 10
-187.6288742906
 20
91.7522546469
 10
-187.6291363109
 20
91.7499732179
 10
-187.6294270977
 20
91.7492072608
  0
LINE
  5
4DD
100
AcDbEntity
  8
RACCORDO
100
AcDbLine
 62
250
  6
CONTINUOUS
 10
-187.6280168223
 20
-62.1403005644
 11
-187.628098747
 21
-62.0161423687
  0
LWPOLYLINE
  5
4DE
100
AcDbEntity
  8
RACCORDO
100
AcDbPolyline
 62
250
  6
CONTINUOUS
 90
10
 70
0
 10
-187.6280008186
 20
-66.2793404099
 10
-187.6280008186
 20
-66.3039870087
 10
-187.6280569975
 20
-66.3146073122
 10
-187.6281501541
 20
-66.3239816027
 10
-187.6282795795
 20
-66.332038564
 10
-187.6284442893
 20
-66.3387169013
 10
-187.6286430303
 20
-66.3439658083
 10
-187.6288742906
 20
-66.3477453531
 10
-187.6291363109
 20
-66.3500267821
 10
-187.6294270977
 20
-66.3507927392
  0
LINE
  5
4DF
100
AcDbEntity
  8
RACCORDO
100
AcDbLine
 62
250
  6
CONTINUOUS
 10
-185.1280398002
 20
-105.9579771494
 11
-185.1280710486
 21
-105.8393736882
  0
LINE
  5
4E0
100
AcDbEntity
  8
RACCORDO
100
AcDbLine
 62
250
  6
CONTINUOUS
 10
-187.6280342331
 20
95.9515571036
 11
-187.6280837527
 21
96.0775390481
  0
LINE
  5
4E1
100
AcDbEntity
  8
RACCORDO
100
AcDbLine
 62
250
  6
CONTINUOUS
 10
-185.1280398002
 20
105.8499654336
 11
-185.1280710486
 21
105.9730173898
  0
LINE
  5
4E2
100
AcDbEntity
  8
RACCORDO
100
AcDbLine
 62
250
  6
CONTINUOUS
 10
-185.1293417137
 20
-105.7422223188
 11
-185.1294270978
 21
-99.6729271187
  0
LINE
  5
4E3
100
AcDbEntity
  8
RACCORDO
100
AcDbLine
 62
250
  6
CONTINUOUS
 10
-185.1280570005
 20
110.5953851434
 11
-185.1279820446
 21
110.6220850248
  0
LINE
  5
4E4
100
AcDbEntity
  8
RACCORDO
100
AcDbLine
 62
250
  6
CONTINUOUS
 10
-185.1280570005
 20
66.2218633802
 11
-185.1279820446
 21
66.2485632617
  0
LINE
  5
4E5
100
AcDbEntity
  8
RACCORDO
100
AcDbLine
 62
250
  6
CONTINUOUS
 10
-185.1280570005
 20
-91.8781366198
 11
-185.1279820446
 21
-91.8514367383
  0
LINE
  5
4E6
100
AcDbEntity
  8
RACCORDO
100
AcDbLine
 62
250
  6
CONTINUOUS
 10
-187.6279820488
 20
66.2920183796
 11
-187.6280582661
 21
66.2652599727
  0
LINE
  5
4E7
100
AcDbEntity
  8
RACCORDO
100
AcDbLine
 62
250
  6
CONTINUOUS
 10
-187.6279820488
 20
-91.8079816204
 11
-187.6280582661
 21
-91.8347400273
  0
LINE
  5
4E8
100
AcDbEntity
  8
RACCORDO
100
AcDbLine
 62
250
  6
CONTINUOUS
 10
-185.1290798825
 20
-110.7177240969
 11
-185.1290291695
 21
-110.6998539434
  0
LINE
  5
4E9
100
AcDbEntity
  8
RACCORDO
100
AcDbLine
 62
250
  6
CONTINUOUS
 10
-187.6288227354
 20
61.8432927925
 11
-187.6279922221
 21
62.0775418973
  0
LINE
  5
4EA
100
AcDbEntity
  8
RACCORDO
100
AcDbLine
 62
250
  6
CONTINUOUS
 10
-187.6282321068
 20
95.9059126162
 11
-187.6280342331
 21
95.9515571036
  0
LINE
  5
4EB
100
AcDbEntity
  8
RACCORDO
100
AcDbLine
 62
250
  6
CONTINUOUS
 10
-187.6290466252
 20
-96.2952798385
 11
-187.628002165
 21
-96.0323808437
  0
LINE
  5
4EC
100
AcDbEntity
  8
RACCORDO
100
AcDbLine
 62
250
  6
CONTINUOUS
 10
-187.628309712
 20
95.6747158139
 11
-187.6279984623
 21
95.7467647548
  0
LINE
  5
4ED
100
AcDbEntity
  8
RACCORDO
100
AcDbLine
 62
250
  6
CONTINUOUS
 10
-187.6281076518
 20
62.2930003533
 11
-187.6279982835
 21
62.3186217838
  0
LINE
  5
4EE
100
AcDbEntity
  8
RACCORDO
100
AcDbLine
 62
250
  6
CONTINUOUS
 10
-187.628309712
 20
-62.4252841861
 11
-187.6279984623
 21
-62.3532352452
  0
LINE
  5
4EF
100
AcDbEntity
  8
RACCORDO
100
AcDbLine
 62
250
  6
CONTINUOUS
 10
-187.6281076518
 20
-95.8069996467
 11
-187.6279982835
 21
-95.7813782162
  0
LINE
  5
4F0
100
AcDbEntity
  8
RACCORDO
100
AcDbLine
 62
250
  6
CONTINUOUS
 10
-185.1282411756
 20
105.8053833544
 11
-185.1280398002
 21
105.8499654336
  0
LINE
  5
4F1
100
AcDbEntity
  8
RACCORDO
100
AcDbLine
 62
250
  6
CONTINUOUS
 10
-185.4161321404
 20
66.4603202408
 11
-185.4162871773
 21
66.4275764367
  0
LINE
  5
4F2
100
AcDbEntity
  8
RACCORDO
100
AcDbLine
 62
250
  6
CONTINUOUS
 10
-185.4161321404
 20
-91.6396797592
 11
-185.4162871773
 21
-91.6724235633
  0
LINE
  5
4F3
100
AcDbEntity
  8
RACCORDO
100
AcDbLine
 62
250
  6
CONTINUOUS
 10
-187.6294270977
 20
61.7473793127
 11
-187.6288227354
 21
61.8432927925
  0
LINE
  5
4F4
100
AcDbEntity
  8
RACCORDO
100
AcDbLine
 62
250
  6
CONTINUOUS
 10
-187.628266239
 20
-62.1987714211
 11
-187.6280168223
 21
-62.1403005644
  0
LINE
  5
4F5
100
AcDbEntity
  8
RACCORDO
100
AcDbLine
 62
250
  6
CONTINUOUS
 10
-187.6294270977
 20
-96.3526206873
 11
-187.6290466252
 21
-96.2952798385
  0
LWPOLYLINE
  5
4F6
100
AcDbEntity
  8
RACCORDO
100
AcDbPolyline
 62
250
  6
CONTINUOUS
 90
3
 70
0
 10
-185.1294270977
 20
-106.253353934
 10
-185.1292297046
 20
-106.2247748537
 10
-185.1280398002
 20
-105.9579771494
  0
LINE
  5
4F7
100
AcDbEntity
  8
RACCORDO
100
AcDbLine
 62
250
  6
CONTINUOUS
 10
-187.6280582661
 20
66.2652599727
 11
-187.6284481997
 21
66.2188523304
  0
LINE
  5
4F8
100
AcDbEntity
  8
RACCORDO
100
AcDbLine
 62
250
  6
CONTINUOUS
 10
-187.6282328655
 20
62.2791974356
 11
-187.6281076518
 21
62.2930003533
  0
LINE
  5
4F9
100
AcDbEntity
  8
RACCORDO
100
AcDbLine
 62
250
  6
CONTINUOUS
 10
-187.6280582661
 20
-91.8347400273
 11
-187.6284481997
 21
-91.8811476696
  0
LINE
  5
4FA
100
AcDbEntity
  8
RACCORDO
100
AcDbLine
 62
250
  6
CONTINUOUS
 10
-187.6282328655
 20
-95.8208025644
 11
-187.6281076518
 21
-95.8069996467
  0
LINE
  5
4FB
100
AcDbEntity
  8
RACCORDO
100
AcDbLine
 62
250
  6
CONTINUOUS
 10
-185.1284442936
 20
110.5490878096
 11
-185.1280570005
 21
110.5953851434
  0
LINE
  5
4FC
100
AcDbEntity
  8
RACCORDO
100
AcDbLine
 62
250
  6
CONTINUOUS
 10
-185.1284442936
 20
66.1755660464
 11
-185.1280570005
 21
66.2218633802
  0
LINE
  5
4FD
100
AcDbEntity
  8
RACCORDO
100
AcDbLine
 62
250
  6
CONTINUOUS
 10
-185.1284442936
 20
-91.9244339536
 11
-185.1280570005
 21
-91.8781366198
  0
LINE
  5
4FE
100
AcDbEntity
  8
RACCORDO
100
AcDbLine
 62
250
  6
CONTINUOUS
 10
-185.1294271009
 20
-110.7583190361
 11
-185.1290798825
 21
-110.7177240969
  0
LWPOLYLINE
  5
4FF
100
AcDbEntity
  8
RACCORDO
100
AcDbPolyline
 62
250
  6
CONTINUOUS
 90
3
 70
0
 10
-187.6294270977
 20
95.5527425312
 10
-187.6292920647
 20
95.5646121398
 10
-187.628309712
 20
95.6747158139
  0
LWPOLYLINE
  5
500
100
AcDbEntity
  8
RACCORDO
100
AcDbPolyline
 62
250
  6
CONTINUOUS
 90
3
 70
0
 10
-187.6294270977
 20
-62.5472574688
 10
-187.6292920647
 20
-62.5353878602
 10
-187.628309712
 20
-62.4252841861
  0
LWPOLYLINE
  5
501
100
AcDbEntity
  8
RACCORDO
100
AcDbPolyline
 62
250
  6
CONTINUOUS
 90
3
 70
0
 10
-187.6284481997
 20
66.2188523304
 10
-187.6291389398
 20
66.1680832999
 10
-187.6294270977
 20
66.1508232002
  0
LWPOLYLINE
  5
502
100
AcDbEntity
  8
RACCORDO
100
AcDbPolyline
 62
250
  6
CONTINUOUS
 90
3
 70
0
 10
-187.6284481997
 20
-91.8811476696
 10
-187.6291389398
 20
-91.9319167001
 10
-187.6294270977
 20
-91.9491767998
  0
LWPOLYLINE
  5
503
100
AcDbEntity
  8
RACCORDO
100
AcDbPolyline
 62
250
  6
CONTINUOUS
 90
3
 70
0
 10
-185.4154678307
 20
66.5120565674
 10
-185.415745018
 20
66.4946348113
 10
-185.4161321404
 20
66.4603202408
  0
LWPOLYLINE
  5
504
100
AcDbEntity
  8
RACCORDO
100
AcDbPolyline
 62
250
  6
CONTINUOUS
 90
3
 70
0
 10
-185.4154678307
 20
-91.5879434326
 10
-185.415745018
 20
-91.6053651887
 10
-185.4161321404
 20
-91.6396797592
  0
LWPOLYLINE
  5
505
100
AcDbEntity
  8
RACCORDO
100
AcDbPolyline
 62
250
  6
CONTINUOUS
 90
3
 70
0
 10
-185.1294270977
 20
110.480707301
 10
-185.1291363124
 20
110.4981323296
 10
-185.1284442936
 20
110.5490878096
  0
LWPOLYLINE
  5
506
100
AcDbEntity
  8
RACCORDO
100
AcDbPolyline
 62
250
  6
CONTINUOUS
 90
3
 70
0
 10
-185.1294270977
 20
66.1071855378
 10
-185.1291363124
 20
66.1246105665
 10
-185.1284442936
 20
66.1755660464
  0
LWPOLYLINE
  5
507
100
AcDbEntity
  8
RACCORDO
100
AcDbPolyline
 62
250
  6
CONTINUOUS
 90
3
 70
0
 10
-185.1294270977
 20
-91.9928144622
 10
-185.1291363124
 20
-91.9753894335
 10
-185.1284442936
 20
-91.9244339536
  0
LWPOLYLINE
  5
508
100
AcDbEntity
  8
RACCORDO
100
AcDbPolyline
 62
7
  6
CONTINUOUS
 90
13
 70
0
 10
-191.3547071129
 20
-0.890482679
 10
-191.3549182792
 20
-0.8989099228
 10
-191.3554885204
 20
-0.9070768609
 10
-191.3564178367
 20
-0.9149834935
 10
-191.3577080306
 20
-0.9226180695
 10
-191.3593572996
 20
-0.9299923398
 10
-191.3613602354
 20
-0.9371415578
 10
-191.3637091478
 20
-0.9440780824
 10
-191.366411727
 20
-0.9507895547
 10
-191.3694856364
 20
-0.9572741504
 10
-191.3729367635
 20
-0.9635312617
 10
-191.3767592208
 20
-0.9695614965
 10
-191.3809530081
 20
-0.9753648548
  0
LWPOLYLINE
  5
509
100
AcDbEntity
  8
RACCORDO
100
AcDbPolyline
 62
7
  6
CONTINUOUS
 90
16
 70
0
 10
-187.4329175791
 20
62.2337034212
 10
-187.4338193944
 20
62.2056802591
 10
-187.4365893823
 20
62.1769258947
 10
-187.4412275428
 20
62.1474403279
 10
-187.4477606727
 20
62.1171553081
 10
-187.4561619752
 20
62.0861390859
 10
-187.4663510607
 20
62.0545964134
 10
-187.4783713132
 20
62.0225818168
 10
-187.4921793486
 20
61.9900407699
 10
-187.5075646251
 20
61.9570144451
 10
-187.5245736349
 20
61.9235672594
 10
-187.5431598856
 20
61.8896347959
 10
-187.5629733591
 20
61.8550649772
 10
-187.5838973826
 20
61.8198071109
 10
-187.6060486288
 20
61.7839118894
 10
-187.6294270977
 20
61.7473793127
  0
LWPOLYLINE
  5
50A
100
AcDbEntity
  8
RACCORDO
100
AcDbPolyline
 62
7
  6
CONTINUOUS
 90
16
 70
0
 10
-187.432917579
 20
-95.8662965776
 10
-187.4338196573
 20
-95.8943197107
 10
-187.4365898086
 20
-95.9230740642
 10
-187.441228033
 20
-95.9525596382
 10
-187.4477610337
 20
-95.9828447033
 10
-187.4561621075
 20
-96.0138609888
 10
-187.4663511448
 20
-96.0454036833
 10
-187.4783716141
 20
-96.0774182933
 10
-187.4921800469
 20
-96.1099593123
 10
-187.5075659293
 20
-96.1429854093
 10
-187.5245761099
 20
-96.1764318915
 10
-187.5431637401
 20
-96.2103634516
 10
-187.56297776
 20
-96.2449328365
 10
-187.5839011496
 20
-96.280190962
 10
-187.6060509288
 20
-96.3160869122
 10
-187.6294270977
 20
-96.3526206873
  0
LWPOLYLINE
  5
50B
100
AcDbEntity
  8
RACCORDO
100
AcDbPolyline
 62
250
  6
CONTINUOUS
 90
22
 70
0
 10
-184.9329178592
 20
91.5997355569
 10
-184.9343715839
 20
91.6151840015
 10
-184.9384974153
 20
91.6304785257
 10
-184.9449860913
 20
91.6455340488
 10
-184.9536542496
 20
91.6602999226
 10
-184.9642157331
 20
91.6746556992
 10
-184.9760218888
 20
91.6884319667
 10
-184.9885425291
 20
91.701569514
 10
-185.0015503159
 20
91.7140013158
 10
-185.0146573375
 20
91.7255877366
 10
-185.0273899638
 20
91.7362502433
 10
-185.0395771982
 20
91.7460161273
 10
-185.0513772658
 20
91.7549155774
 10
-185.0626230949
 20
91.762926996
 10
-185.0731040698
 20
91.7700192636
 10
-185.0830763987
 20
91.776188794
 10
-185.092464159
 20
91.7814367155
 10
-185.1011002109
 20
91.7857122779
 10
-185.1091900212
 20
91.7889639155
 10
-185.1167377079
 20
91.7912073728
 10
-185.1235210559
 20
91.7924893743
 10
-185.1294251546
 20
91.7928449307
  0
LINE
  5
50C
100
AcDbEntity
  8
RACCORDO
100
AcDbLine
 62
250
  6
CONTINUOUS
 10
-185.129382638
 20
105.7516405961
 11
-185.1294270977
 21
105.7534300864
  0
LWPOLYLINE
  5
50D
100
AcDbEntity
  8
RACCORDO
100
AcDbPolyline
 62
250
  6
CONTINUOUS
 90
3
 70
0
 10
-185.1294270977
 20
-105.7534300864
 10
-185.1293917126
 20
-105.7521507301
 10
-185.1293417137
 20
-105.7422223188
  0
LWPOLYLINE
  5
50E
100
AcDbEntity
  8
RACCORDO
100
AcDbPolyline
 62
250
  6
CONTINUOUS
 90
10
 70
0
 10
-218.3407321652
 20
-111.2603823263
 10
-218.3404413877
 20
-111.2596164209
 10
-218.3401793737
 20
-111.2573351309
 10
-218.3399481166
 20
-111.253555789
 10
-218.3397493762
 20
-111.2483071234
 10
-218.3395846648
 20
-111.2416290422
 10
-218.3394552362
 20
-111.2335723327
 10
-218.3393620752
 20
-111.2241982678
 10
-218.3393058913
 20
-111.2135781455
 10
-218.3393058812
 20
-111.1889317402
  0
LWPOLYLINE
  5
50F
100
AcDbEntity
  8
RACCORDO
100
AcDbPolyline
 62
250
  6
CONTINUOUS
 90
8
 70
0
 10
-187.6294270977
 20
-62.2473031603
 10
-187.6292363883
 20
-62.2465422617
 10
-187.6290605973
 20
-62.2442509058
 10
-187.6288982569
 20
-62.2404300425
 10
-187.6287463007
 20
-62.2350841345
 10
-187.6286050919
 20
-62.2282242644
 10
-187.6284784955
 20
-62.2198712383
 10
-187.628266239
 20
-62.1987714211
  0
LWPOLYLINE
  5
510
100
AcDbEntity
  8
RACCORDO
100
AcDbPolyline
 62
250
  6
CONTINUOUS
 90
10
 70
0
 10
-185.1294270977
 20
-66.3071550769
 10
-185.1291363124
 20
-66.3063891283
 10
-185.1288742934
 20
-66.304107725
 10
-185.1286430341
 20
-66.300328224
 10
-185.1284442936
 20
-66.2950793812
 10
-185.128279584
 20
-66.2884011274
 10
-185.1281501581
 20
-66.2803442588
 10
-185.1280570006
 20
-66.2709700613
 10
-185.1280008202
 20
-66.2603498492
 10
-185.1280008167
 20
-66.2357034184
  0
LWPOLYLINE
  5
511
100
AcDbEntity
  8
RACCORDO
100
AcDbPolyline
 62
250
  6
CONTINUOUS
 90
8
 70
0
 10
-187.6294270977
 20
66.3507927392
 10
-187.6291358652
 20
66.3500243229
 10
-187.6288734921
 20
66.3477355317
 10
-187.6286419822
 20
66.3439437763
 10
-187.6284431029
 20
66.3386779116
 10
-187.6282783745
 20
66.3319780897
 10
-187.6281490574
 20
66.3238955211
 10
-187.6280561335
 20
66.3144912167
  0
LWPOLYLINE
  5
512
100
AcDbEntity
  8
RACCORDO
100
AcDbPolyline
 62
250
  6
CONTINUOUS
 90
19
 70
0
 10
-185.1294224799
 20
66.3071554851
 10
-185.1227662575
 20
66.3076362508
 10
-185.1148484021
 20
66.309330359
 10
-185.1058562781
 20
66.312295749
 10
-185.0962575909
 20
66.3165850998
 10
-185.0859216607
 20
66.3222333817
 10
-185.0742507474
 20
66.3292628986
 10
-185.0614659774
 20
66.337737304
 10
-185.0479363294
 20
66.3476376543
 10
-185.0334814781
 20
66.3588005166
 10
-185.0184099318
 20
66.3710993726
 10
-185.0031852723
 20
66.3845184918
 10
-184.9880359845
 20
66.3990041739
 10
-184.9732212764
 20
66.4145700255
 10
-184.9597048956
 20
66.4310385004
 10
-184.9485394343
 20
66.4480143742
 10
-184.9401612327
 20
66.4652557362
 10
-184.9347934642
 20
66.4827159661
 10
-184.9329194545
 20
66.5002644474
  0
LINE
  5
513
100
AcDbEntity
  8
RACCORDO
100
AcDbLine
 62
250
  6
CONTINUOUS
 10
-187.6294270977
 20
61.7473793127
 11
-218.932917579
 21
61.2009748539
  0
LINE
  5
514
100
AcDbEntity
  8
RACCORDO
100
AcDbLine
 62
7
  6
CONTINUOUS
 10
-218.932917579
 20
61.7008987014
 11
-187.6294270977
 21
62.2473031603
  0
LINE
  5
515
100
AcDbEntity
  8
RACCORDO
100
AcDbLine
 62
250
  6
CONTINUOUS
 10
-218.932917579
 20
62.00085301
 11
-187.6294270977
 21
62.5472574688
  0
LINE
  5
516
100
AcDbEntity
  8
RACCORDO
100
AcDbLine
 62
250
  6
CONTINUOUS
 10
-187.6294270977
 20
62.5472574688
 11
-187.432917579
 21
62.5472574688
  0
LINE
  5
517
100
AcDbEntity
  8
RACCORDO
100
AcDbLine
 62
250
  6
CONTINUOUS
 10
-185.1294270977
 20
66.1071855378
 11
-184.932917579
 21
66.1071855378
  0
LINE
  5
518
100
AcDbEntity
  8
RACCORDO
100
AcDbLine
 62
250
  6
CONTINUOUS
 10
-187.6294270977
 20
66.1508232002
 11
-187.432917579
 21
66.1508232002
  0
LINE
  5
519
100
AcDbEntity
  8
RACCORDO
100
AcDbLine
 62
250
  6
CONTINUOUS
 10
-218.932917579
 20
66.697227659
 11
-187.6294270977
 21
66.1508232002
  0
LINE
  5
51A
100
AcDbEntity
  8
RACCORDO
100
AcDbLine
 62
250
  6
CONTINUOUS
 10
-185.1294270977
 20
66.1071855378
 11
-187.4329774332
 21
66.1473941585
  0
LINE
  5
51B
100
AcDbEntity
  8
RACCORDO
100
AcDbLine
 62
7
  6
CONTINUOUS
 10
-185.1294270977
 20
66.3071550769
 11
-218.932917579
 21
66.897197198
  0
LINE
  5
51C
100
AcDbEntity
  8
RACCORDO
100
AcDbLine
 62
250
  6
CONTINUOUS
 10
-185.4154678307
 20
66.5120565674
 11
-188.932917579
 21
66.5734538812
  0
LINE
  5
51D
100
AcDbEntity
  8
RACCORDO
100
AcDbLine
 62
250
  6
CONTINUOUS
 10
-184.932917579
 20
66.5002644431
 11
-185.4154678307
 21
66.5120565674
  0
LWPOLYLINE
  5
51E
100
AcDbEntity
  8
RACCORDO
100
AcDbPolyline
 62
250
  6
CONTINUOUS
 90
10
 70
0
 10
-185.1294270977
 20
-110.68067684
 10
-185.1291363124
 20
-110.6799108913
 10
-185.1288742934
 20
-110.6776294877
 10
-185.128643034
 20
-110.6738499861
 10
-185.1284442936
 20
-110.6686011427
 10
-185.128279584
 20
-110.6619228881
 10
-185.1281501581
 20
-110.6538660175
 10
-185.1280570005
 20
-110.6444918156
 10
-185.1280008202
 20
-110.6338715968
 10
-185.1280008168
 20
-110.6092251461
  0
LWPOLYLINE
  5
51F
100
AcDbEntity
  8
RACCORDO
100
AcDbPolyline
 62
250
  6
CONTINUOUS
 90
11
 70
0
 10
-187.6294270977
 20
-95.8526968397
 10
-187.6292889616
 20
-95.8524486946
 10
-187.6291564973
 20
-95.8517092304
 10
-187.6290300404
 20
-95.8504791326
 10
-187.6289111203
 20
-95.8487761736
 10
-187.6287986689
 20
-95.8465943821
 10
-187.6286898474
 20
-95.843863998
 10
-187.6285849365
 20
-95.8405174726
 10
-187.6284860726
 20
-95.8365480362
 10
-187.6283938001
 20
-95.8319512265
 10
-187.6282328655
 20
-95.8208025644
  0
LWPOLYLINE
  5
520
100
AcDbEntity
  8
RACCORDO
100
AcDbPolyline
 62
250
  6
CONTINUOUS
 90
87
 70
0
 10
-201.3824024136
 20
66.5908518163
 10
-201.5819032149
 20
66.6300823767
 10
-201.9826834554
 20
66.7225537985
 10
-202.381277244
 20
66.8281488115
 10
-202.7759473546
 20
66.9465178848
 10
-203.1666429823
 20
67.0777484896
 10
-203.5534149319
 20
67.2217531546
 10
-203.9346783921
 20
67.3779199351
 10
-204.310263459
 20
67.546245237
 10
-204.6803400366
 20
67.7267326544
 10
-205.043833025
 20
67.9187810246
 10
-205.4006709222
 20
68.1223742199
 10
-205.7509252303
 20
68.337528368
 10
-206.093735355
 20
68.5636906881
 10
-206.429150659
 20
68.8009209795
 10
-206.7571217797
 20
69.0491594429
 10
-207.0766400354
 20
69.3076739002
 10
-207.3877179553
 20
69.5765354737
 10
-207.6903430103
 20
69.8556730411
 10
-207.9834689311
 20
70.1441410572
 10
-208.2670400138
 20
70.4419567928
 10
-208.5411119624
 20
70.7491029771
 10
-208.8048056194
 20
71.0645822529
 10
-209.0580726549
 20
71.3884012819
 10
-209.3009613989
 20
71.7205534024
 10
-209.5327376834
 20
72.0600212723
 10
-209.7533724684
 20
72.4068297202
 10
-209.9628947938
 20
72.7609539174
 10
-210.1606576114
 20
73.1213020358
 10
-210.3466301343
 20
73.4879040319
 10
-210.5208431492
 20
73.8607299491
 10
-210.6827419681
 20
74.2385980905
 10
-210.8322858623
 20
74.6215227801
 10
-210.9695155604
 20
75.0094896937
 10
-211.0939985602
 20
75.4012741625
 10
-211.2056936473
 20
75.796885278
 10
-211.3046420361
 20
76.1963139486
 10
-211.3905348673
 20
76.59830823
 10
-211.4633314227
 20
77.0028754736
 10
-211.5230724206
 20
77.4100083281
 10
-211.5695711565
 20
77.8184327949
 10
-211.6027863874
 20
78.2281548067
 10
-211.6227593563
 20
78.6391684309
 10
-211.629427088
 20
79.0501818699
 10
-211.6227475928
 20
79.4611950986
 10
-211.6027628604
 20
79.8722081423
 10
-211.5695358854
 20
80.2819292788
 10
-211.5230254321
 20
80.6903525839
 10
-211.4632727362
 20
81.0974839818
 10
-211.390464499
 20
81.5020495238
 10
-211.3045599785
 20
81.9040419346
 10
-211.2055999167
 20
82.3034684896
 10
-211.0938932417
 20
82.6990770657
 10
-210.9693987102
 20
83.0908585738
 10
-210.8321575655
 20
83.4788221031
 10
-210.6826024649
 20
83.8617427973
 10
-210.5206927618
 20
84.2396061538
 10
-210.3464691027
 20
84.6124266752
 10
-210.1604860848
 20
84.9790230132
 10
-209.9627130375
 20
85.3393651398
 10
-209.7531806313
 20
85.6934830829
 10
-209.5325354743
 20
86.0402855784
 10
-209.3007482634
 20
86.3797481978
 10
-209.0578483017
 20
86.7118953695
 10
-208.8045701067
 20
87.0357091151
 10
-208.5408649219
 20
87.3511830115
 10
-208.2667815037
 20
87.6583234817
 10
-207.9832006392
 20
87.956131816
 10
-207.6900672327
 20
88.2445899983
 10
-207.3874363798
 20
88.5237160447
 10
-207.0763541537
 20
88.792565294
 10
-206.7568344943
 20
89.051065952
 10
-206.4288634618
 20
89.2992898129
 10
-206.0934453099
 20
89.5365075979
 10
-205.7506284435
 20
89.7626606585
 10
-205.4003644578
 20
89.9778076431
 10
-205.0435123917
 20
90.1813952184
 10
-204.6799975123
 20
90.3734407027
 10
-204.3098945525
 20
90.5539267775
 10
-203.9342867491
 20
90.7222481539
 10
-203.553003948
 20
90.8784072697
 10
-203.1662163034
 20
91.0224016872
 10
-202.7755175148
 20
91.153618804
 10
-202.3808594835
 20
91.2719697506
 10
-201.9822903082
 20
91.3775433966
 10
-201.5815479856
 20
91.4699937489
 10
-201.3824105992
 20
91.5091480408
  0
LWPOLYLINE
  5
521
100
AcDbEntity
  8
RACCORDO
100
AcDbPolyline
 62
7
  6
CONTINUOUS
 90
16
 70
0
 10
-187.6294270977
 20
96.3526206873
 10
-187.6060527468
 20
96.3160899331
 10
-187.5839043272
 20
96.2801963659
 10
-187.5629818387
 20
96.2449399858
 10
-187.5431681533
 20
96.2103715647
 10
-187.524580399
 20
96.1764403306
 10
-187.5075699605
 20
96.1429939676
 10
-187.4921837303
 20
96.1099677199
 10
-187.4783748157
 20
96.0774263432
 10
-187.466353923
 20
96.0454117886
 10
-187.4561646527
 20
96.0138704489
 10
-187.4477634044
 20
95.9828559313
 10
-187.4412300824
 20
95.9525710081
 10
-187.4365913216
 20
95.9230832702
 10
-187.4338204871
 20
95.8943251268
 10
-187.432917579
 20
95.8662965779
  0
LINE
  5
522
100
AcDbEntity
  8
RACCORDO
100
AcDbLine
 62
250
  6
CONTINUOUS
 10
-185.4154678307
 20
91.5879434326
 11
-184.932917579
 21
91.5997355569
  0
LINE
  5
523
100
AcDbEntity
  8
RACCORDO
100
AcDbLine
 62
250
  6
CONTINUOUS
 10
-188.932917579
 20
91.5265461188
 11
-185.4154678307
 21
91.5879434326
  0
LINE
  5
524
100
AcDbEntity
  8
RACCORDO
100
AcDbLine
 62
7
  6
CONTINUOUS
 10
-185.1294270977
 20
91.7928449231
 11
-218.932917579
 21
91.202802802
  0
LINE
  5
525
100
AcDbEntity
  8
RACCORDO
100
AcDbLine
 62
250
  6
CONTINUOUS
 10
-187.4329774332
 20
91.9526058415
 11
-185.1294270977
 21
91.9928144622
  0
LINE
  5
526
100
AcDbEntity
  8
RACCORDO
100
AcDbLine
 62
250
  6
CONTINUOUS
 10
-187.6294270977
 20
91.9491767998
 11
-218.932917579
 21
91.402772341
  0
LINE
  5
527
100
AcDbEntity
  8
0
100
AcDbLine
 62
7
  6
CONTINUOUS
 10
-234.932917579
 20
85.375
 11
-233.752917579
 21
85.375
  0
LINE
  5
528
100
AcDbEntity
  8
RACCORDO
100
AcDbLine
 62
7
  6
CONTINUOUS
 10
-233.752917579
 20
85.55
 11
-234.932917579
 21
85.55
  0
LINE
  5
529
100
AcDbEntity
  8
RACCORDO
100
AcDbLine
 62
250
  6
CONTINUOUS
 10
-233.752917579
 20
86.05
 11
-234.932917579
 21
86.05
  0
LINE
  5
52A
100
AcDbEntity
  8
RACCORDO
100
AcDbLine
 62
250
  6
CONTINUOUS
 10
-247.3961264114
 20
88.9810170053
 11
-247.3986632025
 21
88.9810170053
  0
LINE
  5
52B
100
AcDbEntity
  8
RACCORDO
100
AcDbLine
 62
250
  6
CONTINUOUS
 10
-187.432917579
 20
91.9491767998
 11
-187.6294270977
 21
91.9491767998
  0
LINE
  5
52C
100
AcDbEntity
  8
RACCORDO
100
AcDbLine
 62
250
  6
CONTINUOUS
 10
-185.1294270977
 20
91.9928144622
 11
-184.932917579
 21
91.9928144622
  0
LWPOLYLINE
  5
52D
100
AcDbEntity
  8
RACCORDO
100
AcDbPolyline
 62
250
  6
CONTINUOUS
 90
11
 70
0
 10
-247.9219685962
 20
94.4893563784
 10
-247.9031752379
 20
94.4852189589
 10
-247.8844467227
 20
94.473513189
 10
-247.86578514
 20
94.4542390687
 10
-247.8471998433
 20
94.4273776617
 10
-247.8286856708
 20
94.3929479043
 10
-247.8102226232
 20
94.3510066056
 10
-247.7917673015
 20
94.3014616302
 10
-247.7733661768
 20
94.2444051135
 10
-247.7551351991
 20
94.1801702706
 10
-247.7370912157
 20
94.1087411577
  0
LWPOLYLINE
  5
52E
100
AcDbEntity
  8
RACCORDO
100
AcDbPolyline
 62
250
  6
CONTINUOUS
 90
14
 70
0
 10
-241.9724269697
 20
119.3810749456
 10
-241.9670763219
 20
119.3776523914
 10
-241.9615806733
 20
119.3669927185
 10
-241.9559392857
 20
119.3493433031
 10
-241.9501593652
 20
119.3250641507
 10
-241.9442391268
 20
119.2943591798
 10
-241.9381520494
 20
119.2570198206
 10
-241.9318557868
 20
119.2128943714
 10
-241.925368449
 20
119.1621737593
 10
-241.9187419368
 20
119.1049623555
 10
-241.9119727817
 20
119.0413653406
 10
-241.9050494512
 20
118.9714588426
 10
-241.8980134868
 20
118.8953285363
 10
-241.8908591636
 20
118.8130757969
  0
LWPOLYLINE
  5
52F
100
AcDbEntity
  8
RACCORDO
100
AcDbPolyline
 62
250
  6
CONTINUOUS
 90
18
 70
0
 10
-185.1294270974
 20
99.6729271076
 10
-185.1122046992
 20
99.6735475793
 10
-185.095136462
 20
99.6750471174
 10
-185.078349417
 20
99.6774145607
 10
-185.061968502
 20
99.6806322892
 10
-185.0461156335
 20
99.684676354
 10
-185.0309088
 20
99.6895166554
 10
-185.0164611783
 20
99.6951171682
 10
-185.0028802946
 20
99.7014362094
 10
-184.990267226
 20
99.7084267473
 10
-184.978715844
 20
99.7160367535
 10
-184.9683121183
 20
99.7242095892
 10
-184.9591334777
 20
99.7328844262
 10
-184.9512482319
 20
99.7419967007
 10
-184.944715064
 20
99.7514785939
 10
-184.9395825947
 20
99.7612595356
 10
-184.9358890191
 20
99.7712667305
 10
-184.933661823
 20
99.7814257002
  0
LINE
  5
530
100
AcDbEntity
  8
RACCORDO
100
AcDbLine
 62
250
  6
CONTINUOUS
 10
-218.932917579
 20
99.4349256823
 11
-185.1294270974
 21
99.6729271077
  0
LINE
  5
531
100
AcDbEntity
  8
RACCORDO
100
AcDbLine
 62
250
  6
CONTINUOUS
 10
-218.932917579
 20
98.2964735554
 11
-185.1294270969
 21
98.4855898395
  0
LINE
  5
532
100
AcDbEntity
  8
RACCORDO
100
AcDbLine
 62
7
  6
CONTINUOUS
 10
-247.7203111582
 20
93.9700206177
 11
-248.332917579
 21
93.9700361568
  0
LINE
  5
533
100
AcDbEntity
  8
SUPERFICI
100
AcDbLine
 62
7
  6
CONTINUOUS
 10
-247.720306319
 20
93.97
 11
-248.332917579
 21
93.97
  0
LINE
  5
534
100
AcDbEntity
  8
RACCORDO
100
AcDbLine
 62
7
  6
CONTINUOUS
 10
-249.4423666872
 20
93.989413143
 11
-247.7248609139
 21
93.9894051474
  0
LINE
  5
535
100
AcDbEntity
  8
RACCORDO
100
AcDbLine
 62
250
  6
CONTINUOUS
 10
-249.932917579
 20
94.4893128036
 11
-247.9219685962
 21
94.4893563784
  0
LINE
  5
536
100
AcDbEntity
  8
RACCORDO
100
AcDbLine
 62
250
  6
CONTINUOUS
 10
-187.6294270977
 20
95.5527425312
 11
-187.432917579
 21
95.5527425312
  0
LINE
  5
537
100
AcDbEntity
  8
RACCORDO
100
AcDbLine
 62
250
  6
CONTINUOUS
 10
-185.1294270969
 20
98.4855898395
 11
-184.932917579
 21
98.4855898395
  0
LINE
  5
538
100
AcDbEntity
  8
DRAFT
100
AcDbLine
 62
7
  6
CONTINUOUS
 10
-249.441643563
 20
93.9893890408
 11
-248.332917579
 21
93.9700361568
  0
LINE
  5
539
100
AcDbEntity
  8
RACCORDO
100
AcDbLine
 62
250
  6
CONTINUOUS
 10
-187.6294270977
 20
95.5527425312
 11
-218.932917579
 21
96.09914699
  0
LINE
  5
53A
100
AcDbEntity
  8
RACCORDO
100
AcDbLine
 62
7
  6
CONTINUOUS
 10
-187.6294270977
 20
95.8526968397
 11
-218.932917579
 21
96.3991012986
  0
LINE
  5
53B
100
AcDbEntity
  8
RACCORDO
100
AcDbLine
 62
250
  6
CONTINUOUS
 10
-218.9329475061
 20
96.8990256685
 11
-187.6294270977
 21
96.3526206873
  0
LWPOLYLINE
  5
53C
100
AcDbEntity
  8
RACCORDO
100
AcDbPolyline
 62
250
  6
CONTINUOUS
 90
7
 70
0
 10
-229.438153301
 20
107.2458657758
 10
-229.4396229903
 20
107.2457801061
 10
-229.4410936087
 20
107.2457287042
 10
-229.4425651206
 20
107.2457115703
 10
-229.44403749
 20
107.2457287042
 10
-229.4455106809
 20
107.245780106
 10
-229.4469846569
 20
107.2458657758
  0
LINE
  5
53D
100
AcDbEntity
  8
RACCORDO
100
AcDbLine
 62
250
  6
CONTINUOUS
 10
-229.4469846569
 20
107.2458657758
 11
-229.5035467352
 21
107.2435833716
  0
LINE
  5
53E
100
AcDbEntity
  8
RACCORDO
100
AcDbLine
 62
250
  6
CONTINUOUS
 10
-229.5035467352
 20
107.2435833716
 11
-229.7323098928
 21
107.2355976094
  0
LINE
  5
53F
100
AcDbEntity
  8
RACCORDO
100
AcDbLine
 62
250
  6
CONTINUOUS
 10
-233.752917579
 20
103.3711300436
 11
-224.2276818571
 21
103.5373936516
  0
LINE
  5
540
100
AcDbEntity
  8
RACCORDO
100
AcDbLine
 62
7
  6
CONTINUOUS
 10
-233.752917579
 20
106.8705969766
 11
-224.2276818571
 21
107.0368605846
  0
LINE
  5
541
100
AcDbEntity
  8
RACCORDO
100
AcDbLine
 62
250
  6
CONTINUOUS
 10
-233.752917579
 20
107.1705512852
 11
-230.0276818571
 21
107.2355755166
  0
LINE
  5
542
100
AcDbEntity
  8
RACCORDO
100
AcDbLine
 62
250
  6
CONTINUOUS
 10
-229.438153301
 20
107.2458657758
 11
-224.2276818571
 21
107.3368148931
  0
LINE
  5
543
100
AcDbEntity
  8
RACCORDO
100
AcDbLine
 62
250
  6
CONTINUOUS
 10
-223.932917579
 20
103.5373936516
 11
-224.2276818571
 21
103.5373936516
  0
LINE
  5
544
100
AcDbEntity
  8
RACCORDO
100
AcDbLine
 62
250
  6
CONTINUOUS
 10
-185.1294270977
 20
106.253353934
 11
-184.932917579
 21
106.253353934
  0
LINE
  5
545
100
AcDbEntity
  8
RACCORDO
100
AcDbLine
 62
250
  6
CONTINUOUS
 10
-229.732917579
 20
107.2355755166
 11
-230.0276818571
 21
107.2355755166
  0
LINE
  5
546
100
AcDbEntity
  8
RACCORDO
100
AcDbLine
 62
250
  6
CONTINUOUS
 10
-223.932917579
 20
107.3368148931
 11
-224.2276818571
 21
107.3368148931
  0
LINE
  5
547
100
AcDbEntity
  8
RACCORDO
100
AcDbLine
 62
250
  6
CONTINUOUS
 10
-229.732917579
 20
108.55
 11
-233.752917579
 21
108.55
  0
LINE
  5
548
100
AcDbEntity
  8
RACCORDO
100
AcDbLine
 62
7
  6
CONTINUOUS
 10
-218.932917579
 20
106.3434722076
 11
-185.1294270977
 21
105.7534300864
  0
LINE
  5
549
100
AcDbEntity
  8
RACCORDO
100
AcDbLine
 62
250
  6
CONTINUOUS
 10
-185.1294270977
 20
106.253353934
 11
-218.932917579
 21
106.8433960551
  0
LINE
  5
54A
100
AcDbEntity
  8
RACCORDO
100
AcDbLine
 62
250
  6
CONTINUOUS
 10
-218.932917579
 20
106.112136601
 11
-207.5816319094
 21
105.8949247671
  0
LINE
  5
54B
100
AcDbEntity
  8
RACCORDO
100
AcDbLine
 62
250
  6
CONTINUOUS
 10
-207.5816319094
 20
105.8949247671
 11
-195.663829449
 21
105.663074886
  0
LINE
  5
54C
100
AcDbEntity
  8
RACCORDO
100
AcDbLine
 62
250
  6
CONTINUOUS
 10
-195.663829449
 20
105.663074886
 11
-185.1294270998
 21
105.4540347459
  0
LWPOLYLINE
  5
54D
100
AcDbEntity
  8
RACCORDO
100
AcDbPolyline
 62
250
  6
CONTINUOUS
 90
19
 70
0
 10
-185.1294270998
 20
105.4540347458
 10
-185.1122046964
 20
105.4531462128
 10
-185.0951364545
 20
105.4509988316
 10
-185.0783494057
 20
105.4476085852
 10
-185.0619684873
 20
105.4430007062
 10
-185.0461156165
 20
105.4372094903
 10
-185.0309087817
 20
105.4302780414
 10
-185.0164611599
 20
105.4222579489
 10
-185.0028802771
 20
105.4132089039
 10
-184.9902672103
 20
105.4031982576
 10
-184.978715831
 20
105.3923005165
 10
-184.9683121083
 20
105.3805967886
 10
-184.959133471
 20
105.3681741823
 10
-184.9512482285
 20
105.3551251544
 10
-184.9447150635
 20
105.3415468236
 10
-184.9395825963
 20
105.3275402483
 10
-184.9358890217
 20
105.3132096734
 10
-184.9336618252
 20
105.2986617539
 10
-184.932917579
 20
105.2840047624
  0
LWPOLYLINE
  5
54E
100
AcDbEntity
  8
RACCORDO
100
AcDbPolyline
 62
7
  6
CONTINUOUS
 90
145
 70
0
 10
-223.4908266175
 20
113.9680112248
 10
-223.4930066777
 20
113.9677521713
 10
-223.4951953145
 20
113.9674823262
 10
-223.4973924882
 20
113.9672015634
 10
-223.4995981411
 20
113.9669097585
 10
-223.5018122104
 20
113.9666067876
 10
-223.5040346469
 20
113.9662925241
 10
-223.506265389
 20
113.965966843
 10
-223.5085043704
 20
113.9656296193
 10
-223.5107515328
 20
113.9652807265
 10
-223.513006811
 20
113.9649200388
 10
-223.5152701348
 20
113.9645474305
 10
-223.5175414371
 20
113.9641627754
 10
-223.5198206488
 20
113.963765947
 10
-223.5221076958
 20
113.9633568193
 10
-223.5244025016
 20
113.9629352665
 10
-223.5267049587
 20
113.9625011683
 10
-223.5290150236
 20
113.9620543924
 10
-223.5313327133
 20
113.961594793
 10
-223.5336577999
 20
113.9611222727
 10
-223.5359903519
 20
113.9606366742
 10
-223.5383308274
 20
113.9601377527
 10
-223.5406791279
 20
113.9596253753
 10
-223.5430351803
 20
113.959099403
 10
-223.5453994763
 20
113.9585595658
 10
-223.547771926
 20
113.9580057187
 10
-223.5501524344
 20
113.9574377171
 10
-223.5525414791
 20
113.9568552754
 10
-223.5549389613
 20
113.95625824
 10
-223.5573447807
 20
113.9556464574
 10
-223.5597594051
 20
113.9550196247
 10
-223.5621827284
 20
113.9543775795
 10
-223.5646146423
 20
113.9537201595
 10
-223.5670556044
 20
113.9530470443
 10
-223.5695055002
 20
113.9523580627
 10
-223.5719642131
 20
113.9516530435
 10
-223.5744321895
 20
113.9509316486
 10
-223.576909306
 20
113.9501936978
 10
-223.5793954367
 20
113.949439011
 10
-223.5818910163
 20
113.9486672322
 10
-223.5843959117
 20
113.9478781723
 10
-223.5869099871
 20
113.947071642
 10
-223.5894336644
 20
113.9462472675
 10
-223.5919668001
 20
113.9454048504
 10
-223.594509248
 20
113.9445441925
 10
-223.5970614151
 20
113.9436649021
 10
-223.5996232245
 20
113.9427667444
 10
-223.6021944406
 20
113.9418495384
 10
-223.6047752234
 20
113.9409129596
 10
-223.6073655957
 20
113.9399567251
 10
-223.6099652003
 20
113.9389806903
 10
-223.6125736232
 20
113.937984736
 10
-223.6151907192
 20
113.936968643
 10
-223.6178162848
 20
113.9359322136
 10
-223.6204498165
 20
113.9348753711
 10
-223.6230911348
 20
113.9337979133
 10
-223.625740057
 20
113.9326996384
 10
-223.6283960753
 20
113.9315804817
 10
-223.6310590034
 20
113.9304402477
 10
-223.6337286521
 20
113.9292787415
 10
-223.6364045093
 20
113.928095911
 10
-223.6390863822
 20
113.9268915679
 10
-223.6417740753
 20
113.9256655246
 10
-223.6444670726
 20
113.9244177421
 10
-223.6471651753
 20
113.9231480398
 10
-223.6498681814
 20
113.9218562379
 10
-223.6525755717
 20
113.920542311
 10
-223.6552871414
 20
113.9192060868
 10
-223.6580026826
 20
113.9178473935
 10
-223.6607216732
 20
113.9164662199
 10
-223.6634438951
 20
113.9150624061
 10
-223.6661691425
 20
113.9136357852
 10
-223.6688969131
 20
113.9121863487
 10
-223.6716269483
 20
113.9107139642
 10
-223.6743590721
 20
113.909218455
 10
-223.6770929068
 20
113.9076997553
 10
-223.6798282148
 20
113.9061577248
 10
-223.6825647857
 20
113.9045922077
 10
-223.6853022817
 20
113.903003122
 10
-223.688040473
 20
113.901390325
 10
-223.6907791276
 20
113.8997536753
 10
-223.6935179018
 20
113.8980930993
 10
-223.6962565593
 20
113.8964084608
 10
-223.6989948611
 20
113.8946996249
 10
-223.7017324581
 20
113.8929665269
 10
-223.7044691073
 20
113.8912090373
 10
-223.7072045632
 20
113.8894270283
 10
-223.7099384713
 20
113.8876204442
 10
-223.7126705823
 20
113.8857891627
 10
-223.7154006439
 20
113.8839330633
 10
-223.7181282969
 20
113.8820520998
 10
-223.7208532854
 20
113.8801461576
 10
-223.723575351
 20
113.8782151237
 10
-223.7262941294
 20
113.8762589618
 10
-223.7290093588
 20
113.8742775652
 10
-223.7317207745
 20
113.8722708289
 10
-223.7344280079
 20
113.8702387269
 10
-223.7371307909
 20
113.8681811607
 10
-223.7398288531
 20
113.8660980336
 10
-223.7425218216
 20
113.8639893303
 10
-223.7452094226
 20
113.8618549607
 10
-223.7478913799
 20
113.8596948371
 10
-223.7505673166
 20
113.8575089549
 10
-223.7532369535
 20
113.855297233
 10
-223.755900009
 20
113.8530595928
 10
-223.7585561023
 20
113.8507960408
 10
-223.7612049492
 20
113.8485065053
 10
-223.7638462626
 20
113.8461909169
 10
-223.7664796588
 20
113.843849294
 10
-223.7691048481
 20
113.8414815741
 10
-223.771721539
 20
113.839087698
 10
-223.7743293444
 20
113.8366676954
 10
-223.7769279732
 20
113.8342215114
 10
-223.7795171261
 20
113.8317490992
 10
-223.7820964046
 20
113.8292505095
 10
-223.7846660048
 20
113.8267252112
 10
-223.7872251248
 20
113.8241736476
 10
-223.7897719024
 20
113.8215973717
 10
-223.7923070926
 20
113.8189953249
 10
-223.794829384
 20
113.8163685551
 10
-223.7973339515
 20
113.8137219147
 10
-223.7998207556
 20
113.8110553738
 10
-223.8022894999
 20
113.8083691783
 10
-223.8047351959
 20
113.805668803
 10
-223.8071577957
 20
113.8029544654
 10
-223.8095572534
 20
113.8002263829
 10
-223.8119288209
 20
113.7974902397
 10
-223.8142725751
 20
113.7947463542
 10
-223.816588596
 20
113.7919950416
 10
-223.818872381
 20
113.7892421827
 10
-223.8211241351
 20
113.7864881852
 10
-223.8233440661
 20
113.7837334519
 10
-223.8255279188
 20
113.7809840438
 10
-223.8276760199
 20
113.7782404541
 10
-223.8297887106
 20
113.7755031525
 10
-223.8318619981
 20
113.7727783401
 10
-223.8338958389
 20
113.7700672376
 10
-223.8358911999
 20
113.7673697183
 10
-223.8378457995
 20
113.7646900923
 10
-223.8397593187
 20
113.7620301234
 10
-223.8416331591
 20
113.759389186
 10
-223.8434676993
 20
113.7567680455
 10
-223.8452633907
 20
113.7541673588
 10
-223.8470208528
 20
113.7515875268
 10
-223.8479343659
 20
113.7502285073
  0
LINE
  5
54F
100
AcDbEntity
  8
RACCORDO
100
AcDbLine
 62
7
  6
CONTINUOUS
 10
-223.4864924594
 20
113.9684974495
 11
-223.4908266175
 21
113.9680112248
  0
LWPOLYLINE
  5
550
100
AcDbEntity
  8
RACCORDO
100
AcDbPolyline
 62
250
  6
CONTINUOUS
 90
46
 70
0
 10
-224.2276818571
 20
112.9577318506
 10
-224.2251040127
 20
112.9579980327
 10
-224.2225265318
 20
112.9584056944
 10
-224.219949605
 20
112.9589548356
 10
-224.2173744555
 20
112.9596455134
 10
-224.2148002403
 20
112.9604776708
 10
-224.2122240556
 20
112.9614511366
 10
-224.2096466188
 20
112.9625655162
 10
-224.2070676057
 20
112.9638212043
 10
-224.2044825659
 20
112.9652192141
 10
-224.2018914728
 20
112.9667594821
 10
-224.1992947815
 20
112.9684420718
 10
-224.1966887907
 20
112.9702681865
 10
-224.1940744693
 20
112.9722370386
 10
-224.1914513238
 20
112.9743494156
 10
-224.1888135005
 20
112.976608884
 10
-224.1861639393
 20
112.9790120006
 10
-224.1835002554
 20
112.9815622087
 10
-224.1808087042
 20
112.9842734047
 10
-224.1780874569
 20
112.9871469317
 10
-224.175339113
 20
112.9901814467
 10
-224.1725566982
 20
112.9933868165
 10
-224.1697394388
 20
112.9967648143
 10
-224.166889081
 20
113.000313667
 10
-224.1640025289
 20
113.0040379219
 10
-224.1610814923
 20
113.0079366522
 10
-224.1581254288
 20
113.0120107846
 10
-224.1551279854
 20
113.0162676474
 10
-224.1520901444
 20
113.0207073452
 10
-224.1490124012
 20
113.0253297734
 10
-224.1458878537
 20
113.0301419454
 10
-224.1427168913
 20
113.0351454828
 10
-224.1395010096
 20
113.0403387641
 10
-224.1362351765
 20
113.0457239376
 10
-224.1329200877
 20
113.051302904
 10
-224.129557398
 20
113.0570737627
 10
-224.1261437331
 20
113.0630329598
 10
-224.1226803953
 20
113.0691819653
 10
-224.1191689589
 20
113.0755193092
 10
-224.1156066952
 20
113.0820370272
 10
-224.1119946928
 20
113.0887375749
 10
-224.1083353654
 20
113.0956184967
 10
-224.104628214
 20
113.1026644608
 10
-224.100875104
 20
113.1098769875
 10
-224.0970783218
 20
113.1172545566
 10
-224.0893575171
 20
113.13244556
  0
LINE
  5
551
100
AcDbEntity
  8
RACCORDO
100
AcDbLine
 62
7
  6
CONTINUOUS
 10
-223.482193203
 20
113.9689419919
 11
-223.4864924594
 21
113.9684974495
  0
LINE
  5
552
100
AcDbEntity
  8
RACCORDO
100
AcDbLine
 62
7
  6
CONTINUOUS
 10
-223.477929211
 20
113.969345835
 11
-223.482193203
 21
113.9689419919
  0
LWPOLYLINE
  5
553
100
AcDbEntity
  8
RACCORDO
100
AcDbPolyline
 62
7
  6
CONTINUOUS
 90
5
 70
0
 10
-223.4694477057
 20
113.9700397686
 10
-223.4719640918
 20
113.9698490423
 10
-223.4744914496
 20
113.9696446194
 10
-223.4770322013
 20
113.9694261017
 10
-223.4785207146
 20
113.9692904124
  0
LWPOLYLINE
  5
554
100
AcDbEntity
  8
RACCORDO
100
AcDbPolyline
 62
250
  6
CONTINUOUS
 90
34
 70
0
 10
-241.9724269697
 20
119.3810749456
 10
-242.1086882282
 20
119.3707519122
 10
-242.2443282398
 20
119.3541044105
 10
-242.3790596718
 20
119.3311677058
 10
-242.5125971162
 20
119.3019903861
 10
-242.644657694
 20
119.2666342592
 10
-242.7749616548
 20
119.2251742219
 10
-242.9032329694
 20
119.1776981011
 10
-243.0291999145
 20
119.1243064678
 10
-243.1525956482
 20
119.0651124244
 10
-243.2731587752
 20
119.0002413644
 10
-243.3906339011
 20
118.9298307077
 10
-243.5047721726
 20
118.8540296086
 10
-243.615331805
 20
118.7729986404
 10
-243.7220785947
 20
118.6869094551
 10
-243.8247864149
 20
118.5959444198
 10
-243.9232376947
 20
118.5002962301
 10
-244.0172238802
 20
118.4001675024
 10
-244.1065458759
 20
118.2957703444
 10
-244.191014467
 20
118.1873259058
 10
-244.2704507198
 20
118.0750639096
 10
-244.3446863607
 20
117.9592221661
 10
-244.413564133
 20
117.8400460685
 10
-244.4769381297
 20
117.7177880732
 10
-244.534674103
 20
117.5927071655
 10
-244.5866497481
 20
117.4650683103
 10
-244.6327549626
 20
117.335141891
 10
-244.6728920801
 20
117.2032031372
 10
-244.7069760762
 20
117.069531541
 10
-244.7349347494
 20
116.9344102655
 10
-244.7567088739
 20
116.7981255443
 10
-244.7722523245
 20
116.660966076
 10
-244.7815321752
 20
116.5232224121
 10
-244.7845287681
 20
116.3851863413
  0
LINE
  5
555
100
AcDbEntity
  8
RACCORDO
100
AcDbLine
 62
7
  6
CONTINUOUS
 10
-223.4653516631
 20
113.970322926
 11
-223.4695084009
 21
113.9700353186
  0
LWPOLYLINE
  5
556
100
AcDbEntity
  8
RACCORDO
100
AcDbPolyline
 62
7
  6
CONTINUOUS
 90
4
 70
0
 10
-223.4594051716
 20
113.9706739207
 10
-223.4618824673
 20
113.9705363357
 10
-223.4644068319
 20
113.9703834468
 10
-223.466934356
 20
113.9702175214
  0
LINE
  5
557
100
AcDbEntity
  8
RACCORDO
100
AcDbLine
 62
250
  6
CONTINUOUS
 10
-241.6771309639
 20
114.4034030797
 11
-234.932917579
 21
114.7568523262
  0
LINE
  5
558
100
AcDbEntity
  8
RACCORDO
100
AcDbLine
 62
7
  6
CONTINUOUS
 10
-247.0899249392
 20
119.1128782415
 11
-234.932917579
 21
119.75
  0
LINE
  5
559
100
AcDbEntity
  8
RACCORDO
100
AcDbLine
 62
250
  6
CONTINUOUS
 10
-249.932917579
 20
116.1169888407
 11
-244.7845287681
 21
116.3851863413
  0
LINE
  5
55A
100
AcDbEntity
  8
RACCORDO
100
AcDbLine
 62
7
  6
CONTINUOUS
 10
-223.4551030599
 20
113.9708835699
 11
-223.4591788991
 21
113.970685873
  0
LWPOLYLINE
  5
55B
100
AcDbEntity
  8
RACCORDO
100
AcDbPolyline
 62
7
  6
CONTINUOUS
 90
3
 70
0
 10
-223.4523004818
 20
113.9710001717
 10
-223.4545795204
 20
113.9709065481
 10
-223.4569687207
 20
113.9707972146
  0
LINE
  5
55C
100
AcDbEntity
  8
RACCORDO
100
AcDbLine
 62
7
  6
CONTINUOUS
 10
-223.4480842169
 20
113.9711459355
 11
-223.4523004818
 21
113.9710001717
  0
LINE
  5
55D
100
AcDbEntity
  8
RACCORDO
100
AcDbLine
 62
7
  6
CONTINUOUS
 10
-223.4476324262
 20
113.9711594427
 11
-223.4493755528
 21
113.9711050749
  0
LINE
  5
55E
100
AcDbEntity
  8
RACCORDO
100
AcDbLine
 62
7
  6
CONTINUOUS
 10
-223.4443997296
 20
113.9712441696
 11
-223.4461879308
 21
113.9711998868
  0
LINE
  5
55F
100
AcDbEntity
  8
RACCORDO
100
AcDbLine
 62
250
  6
CONTINUOUS
 10
-223.4416437822
 20
110.9717568059
 11
-218.3407321652
 21
111.0604127873
  0
LINE
  5
560
100
AcDbEntity
  8
DRAFT
100
AcDbLine
 62
7
  6
CONTINUOUS
 10
-230.0276818571
 20
112.5563401692
 11
-233.752917579
 21
112.4913159378
  0
LINE
  5
561
100
AcDbEntity
  8
RACCORDO
100
AcDbLine
 62
250
  6
CONTINUOUS
 10
-229.438153301
 20
112.8667827332
 11
-224.2276818571
 21
112.9577318506
  0
LINE
  5
562
100
AcDbEntity
  8
RACCORDO
100
AcDbLine
 62
7
  6
CONTINUOUS
 10
-229.438153301
 20
113.8666304284
 11
-218.932917579
 21
114.05
  0
LINE
  5
563
100
AcDbEntity
  8
RACCORDO
100
AcDbLine
 62
250
  6
CONTINUOUS
 10
-185.1294270977
 20
110.480707301
 11
-184.932917579
 21
110.480707301
  0
LINE
  5
564
100
AcDbEntity
  8
RACCORDO
100
AcDbLine
 62
250
  6
CONTINUOUS
 10
-233.752917579
 20
110.55
 11
-234.932917579
 21
110.55
  0
LINE
  5
565
100
AcDbEntity
  8
RACCORDO
100
AcDbLine
 62
250
  6
CONTINUOUS
 10
-223.932917579
 20
110.9717568059
 11
-223.4416437822
 21
110.9717568058
  0
LINE
  5
566
100
AcDbEntity
  8
RACCORDO
100
AcDbLine
 62
250
  6
CONTINUOUS
 10
-229.732917579
 20
112.8667827332
 11
-229.438153301
 21
112.8667827334
  0
LINE
  5
567
100
AcDbEntity
  8
RACCORDO
100
AcDbLine
 62
7
  6
CONTINUOUS
 10
-233.752917579
 20
114.35
 11
-234.932917579
 21
114.35
  0
LINE
  5
568
100
AcDbEntity
  8
RACCORDO
100
AcDbLine
 62
250
  6
CONTINUOUS
 10
-241.6771309639
 20
114.4034030797
 11
-244.4874502914
 21
114.4034030797
  0
LWPOLYLINE
  5
569
100
AcDbEntity
  8
0
100
AcDbPolyline
 62
7
  6
CONTINUOUS
 90
8
 70
0
 43
0.3499999917
 10
-212.1829156494
 20
138.5743341064
 10
-211.3257788086
 20
138.5743341064
 10
-210.8972039795
 20
139.0028961182
 10
-210.8972039795
 20
139.8600457764
 10
-211.3257788086
 20
140.2886077881
 10
-212.1829156494
 20
140.2886077881
 10
-212.1829156494
 20
141.5743322754
 10
-210.8972039795
 20
141.5743322754
  0
LWPOLYLINE
  5
56A
100
AcDbEntity
  8
0
100
AcDbPolyline
 62
7
  6
CONTINUOUS
 90
8
 70
0
 43
0.3499999917
 10
-242.6472070312
 20
138.5857928467
 10
-241.790057373
 20
138.5857928467
 10
-241.3614953613
 20
139.0143676758
 10
-241.3614953613
 20
139.8715045166
 10
-241.790057373
 20
140.3000793457
 10
-242.6472070312
 20
140.3000793457
 10
-242.6472070312
 20
141.5857910156
 10
-241.3614953613
 20
141.5857910156
  0
LINE
  5
56B
100
AcDbEntity
  8
RACCORDO
100
AcDbLine
 62
250
  6
CONTINUOUS
 10
-218.3407321652
 20
111.0604127873
 11
-218.932917579
 21
111.0648453449
  0
LINE
  5
56C
100
AcDbEntity
  8
RACCORDO
100
AcDbLine
 62
250
  6
CONTINUOUS
 10
-218.7364080603
 20
111.334571598
 11
-185.1294270971
 21
110.758319043
  0
LINE
  5
56D
100
AcDbEntity
  8
RACCORDO
100
AcDbLine
 62
250
  6
CONTINUOUS
 10
-185.1294270977
 20
110.480707301
 11
-218.3407321652
 21
111.0604127873
  0
LINE
  5
56E
100
AcDbEntity
  8
RACCORDO
100
AcDbLine
 62
7
  6
CONTINUOUS
 10
-185.1294270977
 20
110.68067684
 11
-218.9329175795
 21
111.2707189612
  0
LINE
  5
56F
100
AcDbEntity
  8
DRAFT
100
AcDbLine
 62
7
  6
CONTINUOUS
 10
-185.1294270977
 20
112.1599578788
 11
-218.7364080603
 21
112.7465699136
  0
LWPOLYLINE
  5
570
100
AcDbEntity
  8
RACCORDO
100
AcDbPolyline
 62
250
  6
CONTINUOUS
 90
3
 70
0
 10
-185.1294270971
 20
110.758319043
 10
-185.1122046854
 20
110.7576797912
 10
-185.0951364359
 20
110.7561348658
  0
LWPOLYLINE
  5
571
100
AcDbEntity
  8
RACCORDO
100
AcDbPolyline
 62
250
  6
CONTINUOUS
 90
42
 70
0
 10
-244.7845287681
 20
116.3851863413
 10
-244.7732087783
 20
116.3841259731
 10
-244.7620420644
 20
116.380361573
 10
-244.7510291607
 20
116.3738931412
 10
-244.7401976264
 20
116.3647068347
 10
-244.7295210026
 20
116.3528164964
 10
-244.7189185351
 20
116.3382636546
 10
-244.7083464156
 20
116.3210308481
 10
-244.6978488793
 20
116.3011355381
 10
-244.6874771382
 20
116.2786716365
 10
-244.6772355239
 20
116.2536329654
 10
-244.6671205119
 20
116.2260257028
 10
-244.6571717866
 20
116.1959622944
 10
-244.6473899484
 20
116.1634317044
 10
-244.6377753793
 20
116.1284449685
 10
-244.6283676416
 20
116.09114764
 10
-244.6191683119
 20
116.0515308696
 10
-244.6101769436
 20
116.0096035065
 10
-244.6014302415
 20
115.9655376514
 10
-244.5929298988
 20
115.919325259
 10
-244.5846754417
 20
115.8709743746
 10
-244.5767004648
 20
115.8206812347
 10
-244.5690066052
 20
115.7684369761
 10
-244.5615934748
 20
115.7142504621
 10
-244.5544917342
 20
115.6583445189
 10
-244.5477039019
 20
115.6007195631
 10
-244.5412286811
 20
115.5413751781
 10
-244.5350910732
 20
115.4805329395
 10
-244.5292907574
 20
115.4181548471
 10
-244.5238291802
 20
115.3542789012
 10
-244.5187340293
 20
115.2892406787
 10
-244.5140192802
 20
115.2233101354
 10
-244.5096719675
 20
115.1562173155
 10
-244.5056793359
 20
115.0874879286
 10
-244.5020218112
 20
115.0169216621
 10
-244.4987197032
 20
114.9447188287
 10
-244.4958200567
 20
114.8710060762
 10
-244.4933214445
 20
114.7955986385
 10
-244.4912258905
 20
114.7186812818
 10
-244.4895856213
 20
114.6409349529
 10
-244.4884181752
 20
114.5625866341
 10
-244.4877063689
 20
114.483409343
  0
LWPOLYLINE
  5
572
100
AcDbEntity
  8
RACCORDO
100
AcDbPolyline
 62
250
  6
CONTINUOUS
 90
17
 70
0
 10
-185.0951364359
 20
110.7561348658
 10
-185.0783493802
 20
110.7536957658
 10
-185.0619684557
 20
110.7503806448
 10
-185.0461155798
 20
110.7462141767
 10
-185.0309087412
 20
110.7412273726
 10
-185.0164611171
 20
110.7354573483
 10
-185.0028802334
 20
110.7289470488
 10
-184.9902671673
 20
110.7217449297
 10
-184.9787157901
 20
110.7139045946
 10
-184.9683120709
 20
110.7054843965
 10
-184.9591334384
 20
110.6965470054
 10
-184.9512482015
 20
110.6871589392
 10
-184.9447150426
 20
110.6773900694
 10
-184.9395825817
 20
110.6673131024
 10
-184.9358890129
 20
110.6570030368
 10
-184.9336618215
 20
110.646536605
 10
-184.932917579
 20
110.6359917032
  0
ARC
  5
573
100
AcDbEntity
  8
ASSI
100
AcDbCircle
 62
7
  6
CONTINUOUS
 10
0.0
 20
-40.0
 40
12.5
100
AcDbArc
 50
137.3402698586
 51
42.6597301414
  0
ARC
  5
574
100
AcDbEntity
  8
ASSI
100
AcDbCircle
 62
7
  6
CONTINUOUS
 10
0.0
 20
40.0
 40
12.5
100
AcDbArc
 50
317.3402698586
 51
222.6597301414
  0
ARC
  5
575
100
AcDbEntity
  8
ASSI
100
AcDbCircle
 62
7
  6
CONTINUOUS
 10
0.0
 20
-40.0
 40
12.0
100
AcDbArc
 50
135.0994720393
 51
44.9005279607
  0
ARC
  5
576
100
AcDbEntity
  8
ASSI
100
AcDbCircle
 62
7
  6
CONTINUOUS
 10
0.0
 20
40.0
 40
12.0
100
AcDbArc
 50
315.0994720393
 51
224.9005279607
  0
ARC
  5
577
100
AcDbEntity
  8
RACCORDO
100
AcDbCircle
 62
7
  6
CONTINUOUS
 10
-246.9329170705
 20
-116.1169896373
 40
3.0
100
AcDbArc
 50
180.0000000063
 51
267.0
  0
ARC
  5
578
100
AcDbEntity
  8
RACCORDO
100
AcDbCircle
 62
7
  6
CONTINUOUS
 10
-234.732917579
 20
-112.2741795085
 40
0.2
100
AcDbArc
 50
180.0
 51
269.0
  0
ARC
  5
579
100
AcDbEntity
  8
RACCORDO
100
AcDbCircle
 62
7
  6
CONTINUOUS
 10
-223.432917579
 20
-113.4713760438
 40
0.5
100
AcDbArc
 50
180.0
 51
269.000006693
  0
ARC
  5
57A
100
AcDbEntity
  8
RACCORDO
100
AcDbCircle
 62
7
  6
CONTINUOUS
 10
-230.032917579
 20
-112.8562944777
 40
0.3
100
AcDbArc
 50
16.9523809524
 51
89.0
  0
ARC
  5
57B
100
AcDbEntity
  8
RACCORDO
100
AcDbCircle
 62
7
  6
CONTINUOUS
 10
-229.432917579
 20
-113.5666722219
 40
0.3
100
AcDbArc
 50
180.0007444583
 51
269.000012992
  0
ARC
  5
57C
100
AcDbEntity
  8
RACCORDO
100
AcDbCircle
 62
7
  6
CONTINUOUS
 10
-230.032917579
 20
-107.2355755166
 40
0.3
100
AcDbArc
 50
0.0
 51
89.0
  0
ARC
  5
57D
100
AcDbEntity
  8
RACCORDO
100
AcDbCircle
 62
7
  6
CONTINUOUS
 10
-224.232917579
 20
-107.3368117204
 40
0.2999997496
100
AcDbArc
 50
359.9993940595
 51
88.9999894248
  0
ARC
  5
57E
100
AcDbEntity
  8
RACCORDO
100
AcDbCircle
 62
7
  6
CONTINUOUS
 10
-218.732917579
 20
-112.9465394526
 40
0.2
100
AcDbArc
 50
91.0
 51
180.0
  0
ARC
  5
57F
100
AcDbEntity
  8
RACCORDO
100
AcDbCircle
 62
7
  6
CONTINUOUS
 10
-224.2329162493
 20
-1.2511715398
 40
0.2999995014
100
AcDbArc
 50
0.0000044328
 51
89.0002539943
  0
ARC
  5
580
100
AcDbEntity
  8
RACCORDO
100
AcDbCircle
 62
7
  6
CONTINUOUS
 10
-246.9329170705
 20
116.1169896373
 40
3.0
100
AcDbArc
 50
93.0
 51
179.9999999937
  0
ARC
  5
581
100
AcDbEntity
  8
RACCORDO
100
AcDbCircle
 62
7
  6
CONTINUOUS
 10
-223.432917579
 20
113.4713760438
 40
0.5
100
AcDbArc
 50
91.0
 51
180.0
  0
ARC
  5
582
100
AcDbEntity
  8
RACCORDO
100
AcDbCircle
 62
7
  6
CONTINUOUS
 10
-230.032917579
 20
112.8562944777
 40
0.3
100
AcDbArc
 50
271.0
 51
343.0476190476
  0
ARC
  5
583
100
AcDbEntity
  8
RACCORDO
100
AcDbCircle
 62
7
  6
CONTINUOUS
 10
-229.432917579
 20
113.5666761198
 40
0.3
100
AcDbArc
 50
91.0
 51
180.0
  0
ARC
  5
584
100
AcDbEntity
  8
RACCORDO
100
AcDbCircle
 62
7
  6
CONTINUOUS
 10
-224.232917579
 20
1.2511715166
 40
0.3
100
AcDbArc
 50
271.0
 51
360.0
  0
ARC
  5
585
100
AcDbEntity
  8
RACCORDO
100
AcDbCircle
 62
7
  6
CONTINUOUS
 10
-230.032917579
 20
107.2355755166
 40
0.3
100
AcDbArc
 50
271.0
 51
360.0
  0
ARC
  5
586
100
AcDbEntity
  8
RACCORDO
100
AcDbCircle
 62
7
  6
CONTINUOUS
 10
-224.232917579
 20
107.3368148931
 40
0.3
100
AcDbArc
 50
271.0
 51
360.0
  0
ARC
  5
587
100
AcDbEntity
  8
RACCORDO
100
AcDbCircle
 62
7
  6
CONTINUOUS
 10
-218.732917579
 20
112.9465394526
 40
0.2
100
AcDbArc
 50
180.0
 51
269.0
  0
ARC
  5
588
100
AcDbEntity
  8
RACCORDO
100
AcDbCircle
 62
7
  6
CONTINUOUS
 10
-198.932917579
 20
-79.05
 40
12.5
100
AcDbArc
 50
91.0
 51
269.0
  0
ARC
  5
589
100
AcDbEntity
  8
RACCORDO
100
AcDbCircle
 62
7
  6
CONTINUOUS
 10
-185.132917579
 20
-111.9599883398
 40
0.2
100
AcDbArc
 50
271.0
 51
360.0
  0
ARC
  5
58A
100
AcDbEntity
  8
RACCORDO
100
AcDbCircle
 62
7
  6
CONTINUOUS
 10
-185.132917579
 20
-110.480707301
 40
0.2
100
AcDbArc
 50
271.0
 51
360.0
  0
ARC
  5
58B
100
AcDbEntity
  8
RACCORDO
100
AcDbCircle
 62
7
  6
CONTINUOUS
 10
-185.132917579
 20
-105.5534605474
 40
0.2
100
AcDbArc
 50
271.0
 51
360.0
  0
ARC
  5
58C
100
AcDbEntity
  8
RACCORDO
100
AcDbCircle
 62
7
  6
CONTINUOUS
 10
-185.132917579
 20
-91.9928144622
 40
0.2
100
AcDbArc
 50
0.0
 51
89.0
  0
ARC
  5
58D
100
AcDbEntity
  8
RACCORDO
100
AcDbCircle
 62
7
  6
CONTINUOUS
 10
-185.132917579
 20
-66.1071855378
 40
0.2
100
AcDbArc
 50
271.0
 51
360.0
  0
ARC
  5
58E
100
AcDbEntity
  8
RACCORDO
100
AcDbCircle
 62
7
  6
CONTINUOUS
 10
-187.632917579
 20
-95.6527273007
 40
0.2
100
AcDbArc
 50
271.0
 51
360.0
  0
ARC
  5
58F
100
AcDbEntity
  8
RACCORDO
100
AcDbCircle
 62
7
  6
CONTINUOUS
 10
-187.632917579
 20
-91.9491767998
 40
0.2
100
AcDbArc
 50
0.0
 51
89.0
  0
ARC
  5
590
100
AcDbEntity
  8
RACCORDO
100
AcDbCircle
 62
7
  6
CONTINUOUS
 10
-187.632917579
 20
-66.1508232002
 40
0.2
100
AcDbArc
 50
271.0
 51
360.0
  0
ARC
  5
591
100
AcDbEntity
  8
RACCORDO
100
AcDbCircle
 62
7
  6
CONTINUOUS
 10
-187.632917579
 20
-62.4472689233
 40
0.1999989213
100
AcDbArc
 50
359.9989182471
 51
88.9999811205
  0
ARC
  5
592
100
AcDbEntity
  8
RACCORDO
100
AcDbCircle
 62
7
  6
CONTINUOUS
 10
-198.932917579
 20
79.05
 40
12.5
100
AcDbArc
 50
91.0
 51
269.0
  0
ARC
  5
593
100
AcDbEntity
  8
RACCORDO
100
AcDbCircle
 62
7
  6
CONTINUOUS
 10
-185.132917579
 20
111.9599883398
 40
0.2
100
AcDbArc
 50
0.0
 51
89.0
  0
ARC
  5
594
100
AcDbEntity
  8
RACCORDO
100
AcDbCircle
 62
7
  6
CONTINUOUS
 10
-185.132917579
 20
110.480707301
 40
0.2
100
AcDbArc
 50
0.0
 51
89.0
  0
ARC
  5
595
100
AcDbEntity
  8
RACCORDO
100
AcDbCircle
 62
7
  6
CONTINUOUS
 10
-185.132917579
 20
66.1071855378
 40
0.2
100
AcDbArc
 50
0.0
 51
89.0
  0
ARC
  5
596
100
AcDbEntity
  8
RACCORDO
100
AcDbCircle
 62
7
  6
CONTINUOUS
 10
-185.132917579
 20
91.9928144622
 40
0.2
100
AcDbArc
 50
271.0
 51
360.0
  0
ARC
  5
597
100
AcDbEntity
  8
RACCORDO
100
AcDbCircle
 62
7
  6
CONTINUOUS
 10
-185.132917579
 20
105.5534605474
 40
0.2
100
AcDbArc
 50
0.0
 51
89.0
  0
ARC
  5
598
100
AcDbEntity
  8
RACCORDO
100
AcDbCircle
 62
7
  6
CONTINUOUS
 10
-187.632917579
 20
62.4472726993
 40
0.2
100
AcDbArc
 50
271.0
 51
360.0
  0
ARC
  5
599
100
AcDbEntity
  8
RACCORDO
100
AcDbCircle
 62
7
  6
CONTINUOUS
 10
-187.632917579
 20
66.1508232002
 40
0.2
100
AcDbArc
 50
0.0
 51
89.0
  0
ARC
  5
59A
100
AcDbEntity
  8
RACCORDO
100
AcDbCircle
 62
7
  6
CONTINUOUS
 10
-187.632917579
 20
91.9491767998
 40
0.2
100
AcDbArc
 50
271.0
 51
360.0
  0
ARC
  5
59B
100
AcDbEntity
  8
RACCORDO
100
AcDbCircle
 62
7
  6
CONTINUOUS
 10
-187.632917579
 20
95.6527326641
 40
0.1999984678
100
AcDbArc
 50
359.9984634992
 51
88.9999731836
  0
ELLIPSE
  5
59C
100
AcDbEntity
  8
RACCORDO
100
AcDbEllipse
 62
7
  6
CONTINUOUS
 10
-71.49313827
 20
-114.74313827
 30
0.0
 11
3.5452312172
 21
3.5452312172
 31
0.0
 40
0.9972646886
 41
-3.9256212891
 42
-2.3575640181
  0
ELLIPSE
  5
59D
100
AcDbEntity
  8
RACCORDO
100
AcDbEllipse
 62
7
  6
CONTINUOUS
 10
71.49313827
 20
-114.74313827
 30
0.0
 11
3.5452312172
 21
-3.5452312172
 31
0.0
 40
0.9972646886
 41
-0.7840286355
 42
0.7840286355
  0
ELLIPSE
  5
59E
100
AcDbEntity
  8
RACCORDO
100
AcDbEllipse
 62
7
  6
CONTINUOUS
 10
71.49313827
 20
114.74313827
 30
0.0
 11
3.5452312172
 21
3.5452312172
 31
0.0
 40
0.9972646886
 41
-0.7840286355
 42
0.7840286355
  0
ELLIPSE
  5
59F
100
AcDbEntity
  8
RACCORDO
100
AcDbEllipse
 62
7
  6
CONTINUOUS
 10
-71.49313827
 20
114.74313827
 30
0.0
 11
3.5452312172
 21
-3.5452312172
 31
0.0
 40
0.9972646886
 41
2.3575640181
 42
3.9256212891
  0
ELLIPSE
  5
5A0
100
AcDbEntity
  8
ASSI
100
AcDbEllipse
 62
7
  6
CONTINUOUS
 10
-42.5
 20
-119.4748591588
 30
0.0
 11
2.75
 21
0.0
 31
0.0
 40
0.0524077793
 41
0.0
 42
6.2831853072
  0
ELLIPSE
  5
5A1
100
AcDbEntity
  8
ASSI
100
AcDbEllipse
 62
7
  6
CONTINUOUS
 10
42.5
 20
-119.4748591588
 30
0.0
 11
2.75
 21
-0.0
 31
0.0
 40
0.0524077793
 41
0.0
 42
6.2831853072
  0
ENDSEC
  0
SECTION
  2
OBJECTS
  0
DICTIONARY
  5
C
100
AcDbDictionary
280
0
281
1
  3
ACAD_GROUP
350
D
  3
ACAD_MLINESTYLE
350
17
  3
ACAD_LAYOUT
350
1A
  3
ACAD_PLOTSETTINGS
350
19
  3
ACAD_PLOTSTYLENAME
350
E
  0
DICTIONARY
  5
D
102
{ACAD_REACTORS
330
C
102
}
100
AcDbDictionary
280
0
281
1
  0
ACDBDICTIONARYWDFLT
  5
E
102
{ACAD_REACTORS
330
C
102
}
100
AcDbDictionary
281
1
  3
Normal
350
F
100
AcDbDictionaryWithDefault
340
F
  0
DICTIONARY
  5
17
102
{ACAD_REACTORS
330
C
102
}
100
AcDbDictionary
280
0
281
1
  3
Standard
350
18
  0
DICTIONARY
  5
19
102
{ACAD_REACTORS
330
C
102
}
100
AcDbDictionary
281
1
  0
DICTIONARY
  5
1A
102
{ACAD_REACTORS
330
C
102
}
100
AcDbDictionary
281
1
  3
Model
350
5A2
  3
Layout1
350
5A3
  0
ACDBPLACEHOLDER
  5
F
102
{ACAD_REACTORS
330
E
102
}
  0
MLINESTYLE
  5
18
102
{ACAD_REACTORS
330
17
102
}
100
AcDbMlineStyle
  2
STANDARD
 70
0
  3

 62
256
 51
90.0
 52
90.0
 71
2
 49
0.5
 62
256
  6
BYLAYER
 49
-0.5
 62
256
  6
BYLAYER
  0
LAYOUT
  5
5A2
102
{ACAD_REACTORS
330
1A
102
}
100
AcDbPlotSettings
  1

  2
none_device
  4
ISO_A3_(420.00_x_297.00_MM)
  6

 40
0.0
 41
0.0
 42
0.0
 43
0.0
 44
420.0
 45
297.0
 46
0.0
 47
0.0
 48
0.0
 49
0.0
140
0.0
141
0.0
142
1.0
143
1.0
 70
1024
 72
1
 73
0
 74
0
  7

 75
0
147
1.0
148
0.0
149
0.0
100
AcDbLayout
  1
Model
 70
0
 71
0
 10
0.0
 20
0.0
 11
420.0
 21
297.0
 12
0.0
 22
0.0
 32
0.0
 14
0.0
 24
0.0
 34
0.0
 15
0.0
 25
0.0
 35
0.0
146
0.0
 13
0.0
 23
0.0
 33
0.0
 16
1.0
 26
0.0
 36
0.0
 17
0.0
 27
1.0
 37
0.0
 76
0
330
212
345
0
346
0
  0
LAYOUT
  5
5A3
102
{ACAD_REACTORS
330
1A
102
}
100
AcDbPlotSettings
  1

  2
none_device
  4
ISO_A3_(420.00_x_297.00_MM)
  6

 40
0.0
 41
0.0
 42
0.0
 43
0.0
 44
420.0
 45
297.0
 46
0.0
 47
0.0
 48
0.0
 49
0.0
140
0.0
141
0.0
142
1.0
143
1.0
 70
0
 72
1
 73
0
 74
0
  7

 75
0
147
1.0
148
0.0
149
0.0
100
AcDbLayout
  1
Layout1
 70
0
 71
1
 10
0.0
 20
0.0
 11
420.0
 21
297.0
 12
0.0
 22
0.0
 32
0.0
 14
0.0
 24
0.0
 34
0.0
 15
0.0
 25
0.0
 35
0.0
146
0.0
 13
0.0
 23
0.0
 33
0.0
 16
1.0
 26
0.0
 36
0.0
 17
0.0
 27
1.0
 37
0.0
 76
0
330
213
345
0
346
0
  0
ENDSEC
  0
EOF
