  0
SECTION
  2
HEADER
  9
$ACADVER
  1
AC1024
  9
$DWGCODEPAGE
  3
ANSI_1252
  9
$EXTMAX
 10
210.0
 20
297.0
 30
0.0
  9
$EXTMIN
 10
0.0
 20
0.0
 30
0.0
  9
$LIMMIN
 10
0.0
 20
0.0
  9
$LIMMAX
 10
210.0
 20
297.0
  9
$VIEWCTR
 10
105.0
 20
148.5
  9
$VIEWSIZE
 40
297.0
  9
$CLAYER
  8
0
  9
$LTSCALE
 40
19.36
  9
$CELTYPE
  6
BYLAYER
  9
$DIMSCALE
 40
1.0
  9
$DIMASZ
 40
3.0
  9
$DIMEXO
 40
0.5
  9
$DIMDLI
 40
13.376
  9
$DIMEXE
 40
1.5
  9
$DIMCEN
 40
3.168
  9
$DIMLFAC
 40
1.0
  9
$DIMBLK
  1
_FILLED
  9
$DIMALT
 70
0
  9
$DIMALTF
 40
0.0393700787
  9
$DIMTXT
 40
3.0
  9
$DIMTOL
 70
1
  9
$DIMLIM
 70
0
  9
$DIMTFAC
 40
1.0
  9
$DIMTP
 40
0.01
  9
$DIMTM
 40
0.01
  9
$DIMGAP
 40
0.625
  9
$DIMDSEP
 70
44
  9
$AUNITS
 70
0
  9
$PDMODE
 70
3
  9
$PDSIZE
 40
3.0
  9
$HANDSEED
  5
2E5
  9
$TILEMODE
 70
1
  9
$MEASUREMENT
 70
1
  9
$INSUNITS
 70
4
  0
ENDSEC
  0
SECTION
  2
CLASSES
  0
CLASS
  1
ACDBDICTIONARYWDFLT
  2
AcDbDictionaryWithDefault
  3
AutoCAD 2000
 90
0
 91
1
280
0
281
0
  0
CLASS
  1
ACDBPLACEHOLDER
  2
AcDbPlaceHolder
  3
AutoCAD 2000
 90
0
 91
1
280
0
281
0
  0
CLASS
  1
LAYOUT
  2
AcDbLayout
  3
AutoCAD 2000
 90
0
 91
0
280
0
281
0
  0
ENDSEC
  0
SECTION
  2
TABLES
  0
TABLE
  2
VPORT
  5
8
100
AcDbSymbolTable
 70
2
  0
VPORT
  5
1F4
100
AcDbSymbolTableRecord
100
AcDbViewportTableRecord
  2
*ACTIVE
 70
0
 10
0.0
 20
0.0
 11
1.0
 21
1.0
 12
105.0
 22
148.5
 13
0.0
 23
0.0
 14
1.0
 24
1.0
 15
0.0
 25
0.0
 16
0.0
 26
0.0
 36
1.0
 17
0.0
 27
0.0
 37
0.0
 40
297.0
 41
0.7070707071
 42
50.0
 43
0.0
 44
0.0
 50
0.0
 51
0.0
 71
0
 72
100
 73
1
 74
1
 75
0
 76
0
 77
0
 78
0
  0
ENDTAB
  0
TABLE
  2
LTYPE
  5
5
100
AcDbSymbolTable
 70
6
  0
LTYPE
  5
14
100
AcDbSymbolTableRecord
100
AcDbLinetypeTableRecord
  2
BYBLOCK
 70
0
  3

 72
65
 73
0
 40
0.0
  0
LTYPE
  5
15
100
AcDbSymbolTableRecord
100
AcDbLinetypeTableRecord
  2
BYLAYER
 70
0
  3

 72
65
 73
0
 40
0.0
  0
LTYPE
  5
16
100
AcDbSymbolTableRecord
100
AcDbLinetypeTableRecord
  2
CONTINUOUS
 70
64
  3
Solid line
 72
65
 73
0
 40
0.0
  0
LTYPE
  5
1F5
100
AcDbSymbolTableRecord
100
AcDbLinetypeTableRecord
  2
CENTER
 70
64
  3
____ _ ____ _ ____ _ ____ _ ____ _ ____ _ ____
 72
65
 73
4
 40
0.6
 49
0.375
 74
0
 49
-0.075
 74
0
 49
0.075
 74
0
 49
-0.075
 74
0
  0
LTYPE
  5
1F6
100
AcDbSymbolTableRecord
100
AcDbLinetypeTableRecord
  2
HIDDEN
 70
64
  3
- - - - - - - - - - - - - - - - - - - -
 72
65
 73
2
 40
0.2
 49
0.1
 74
0
 49
-0.1
 74
0
  0
LTYPE
  5
1F7
100
AcDbSymbolTableRecord
100
AcDbLinetypeTableRecord
  2
PHANTOM
 70
64
  3
_____ _ _ _____ _ _ _____ _ _ _____
 72
65
 73
6
 40
0.8
 49
0.45
 74
0
 49
-0.05
 74
0
 49
0.1
 74
0
 49
-0.05
 74
0
 49
0.1
 74
0
 49
-0.05
 74
0
  0
LTYPE
  5
1F8
100
AcDbSymbolTableRecord
100
AcDbLinetypeTableRecord
  2
DOT
 70
64
  3
. . . . . . . . . . . . . . . . . . . .
 72
65
 73
2
 40
0.2
 49
0.1
 74
0
 49
-0.1
 74
0
  0
LTYPE
  5
1F9
100
AcDbSymbolTableRecord
100
AcDbLinetypeTableRecord
  2
DASHED
 70
64
  3
- - - - - - - - - - - - - - - - - - - -
 72
65
 73
2
 40
0.2
 49
0.1
 74
0
 49
-0.1
 74
0
  0
ENDTAB
  0
TABLE
  2
LAYER
  5
2
100
AcDbSymbolTable
 70
36
  0
LAYER
  5
10
100
AcDbSymbolTableRecord
100
AcDbLayerTableRecord
  2
0
 70
0
 62
7
  6
CONTINUOUS
370
-3
390
F
  0
LAYER
  5
1FA
100
AcDbSymbolTableRecord
100
AcDbLayerTableRecord
  2
DEFAULT_1
 70
0
 62
7
  6
CENTER
370
-3
390
F
  0
LAYER
  5
1FB
100
AcDbSymbolTableRecord
100
AcDbLayerTableRecord
  2
DEFAULT_2
 70
0
 62
7
  6
HIDDEN
370
-3
390
F
  0
LAYER
  5
1FC
100
AcDbSymbolTableRecord
100
AcDbLayerTableRecord
  2
DEFAULT_3
 70
0
 62
7
  6
PHANTOM
370
-3
390
F
  0
LAYER
  5
1FD
100
AcDbSymbolTableRecord
100
AcDbLayerTableRecord
  2
ASSI
 70
0
 62
7
  6
CONTINUOUS
370
-3
390
F
  0
LAYER
  5
1FE
100
AcDbSymbolTableRecord
100
AcDbLayerTableRecord
  2
COORDINATE
 70
0
 62
7
  6
CONTINUOUS
370
-3
390
F
  0
LAYER
  5
1FF
100
AcDbSymbolTableRecord
100
AcDbLayerTableRecord
  2
COPY_PUBLISH
 70
0
 62
7
  6
CONTINUOUS
370
-3
390
F
  0
LAYER
  5
200
100
AcDbSymbolTableRecord
100
AcDbLayerTableRecord
  2
COSMETICI
 70
0
 62
7
  6
CONTINUOUS
370
-3
390
F
  0
LAYER
  5
201
100
AcDbSymbolTableRecord
100
AcDbLayerTableRecord
  2
CURVE
 70
0
 62
7
  6
CONTINUOUS
370
-3
390
F
  0
LAYER
  5
202
100
AcDbSymbolTableRecord
100
AcDbLayerTableRecord
  2
DRAFT
 70
0
 62
7
  6
CONTINUOUS
370
-3
390
F
  0
LAYER
  5
203
100
AcDbSymbolTableRecord
100
AcDbLayerTableRecord
  2
IMPORT_IGES
 70
0
 62
7
  6
CONTINUOUS
370
-3
390
F
  0
LAYER
  5
204
100
AcDbSymbolTableRecord
100
AcDbLayerTableRecord
  2
NOTE
 70
0
 62
7
  6
CONTINUOUS
370
-3
390
F
  0
LAYER
  5
205
100
AcDbSymbolTableRecord
100
AcDbLayerTableRecord
  2
PIANI
 70
0
 62
7
  6
CONTINUOUS
370
-3
390
F
  0
LAYER
  5
206
100
AcDbSymbolTableRecord
100
AcDbLayerTableRecord
  2
PUNTI
 70
0
 62
7
  6
CONTINUOUS
370
-3
390
F
  0
LAYER
  5
207
100
AcDbSymbolTableRecord
100
AcDbLayerTableRecord
  2
RACCORDO
 70
0
 62
7
  6
CONTINUOUS
370
-3
390
F
  0
LAYER
  5
208
100
AcDbSymbolTableRecord
100
AcDbLayerTableRecord
  2
SIMBOLI
 70
0
 62
7
  6
CONTINUOUS
370
-3
390
F
  0
LAYER
  5
209
100
AcDbSymbolTableRecord
100
AcDbLayerTableRecord
  2
SMUSSO
 70
0
 62
7
  6
CONTINUOUS
370
-3
390
F
  0
LAYER
  5
20A
100
AcDbSymbolTableRecord
100
AcDbLayerTableRecord
  2
SNAPLINE
 70
0
 62
7
  6
CONTINUOUS
370
-3
390
F
  0
LAYER
  5
20B
100
AcDbSymbolTableRecord
100
AcDbLayerTableRecord
  2
SUPERFICI
 70
0
 62
7
  6
CONTINUOUS
370
-3
390
F
  0
LAYER
  5
20C
100
AcDbSymbolTableRecord
100
AcDbLayerTableRecord
  2
TRASH
 70
0
 62
7
  6
CONTINUOUS
370
-3
390
F
  0
ENDTAB
  0
TABLE
  2
STYLE
  5
3
100
AcDbSymbolTable
 70
1
  0
STYLE
  5
11
100
AcDbSymbolTableRecord
100
AcDbTextStyleTableRecord
  2
STANDARD
 70
0
 40
0.0
 41
0.8
 50
0.0
 71
0
 42
0.2
  3
txt
  4

  0
STYLE
  5
20D
100
AcDbSymbolTableRecord
100
AcDbTextStyleTableRecord
  2
TEXTSTYLE_1
 70
0
 40
0.0
 41
0.8
 50
0.0
 71
0
 42
0.2
  3
gdt
  4

  0
STYLE
  5
20E
100
AcDbSymbolTableRecord
100
AcDbTextStyleTableRecord
  2
TEXTSTYLE_2
 70
0
 40
0.0
 41
1.0
 50
0.0
 71
0
 42
0.2
  3
txt
  4

  0
ENDTAB
  0
TABLE
  2
VIEW
  5
6
100
AcDbSymbolTable
 70
0
  0
ENDTAB
  0
TABLE
  2
UCS
  5
7
100
AcDbSymbolTable
 70
0
  0
ENDTAB
  0
TABLE
  2
APPID
  5
9
100
AcDbSymbolTable
 70
1
  0
APPID
  5
20F
100
AcDbSymbolTableRecord
100
AcDbRegAppTableRecord
  2
ACAD
 70
0
  0
ENDTAB
  0
TABLE
  2
BLOCK_RECORD
  5
1
100
AcDbSymbolTable
 70
0
  0
BLOCK_RECORD
  5
210
100
AcDbSymbolTableRecord
100
AcDbBlockTableRecord
  2
*Model_Space
  0
BLOCK_RECORD
  5
211
100
AcDbSymbolTableRecord
100
AcDbBlockTableRecord
  2
*Paper_Space
  0
BLOCK_RECORD
  5
212
100
AcDbSymbolTableRecord
100
AcDbBlockTableRecord
  2
_FILLED
  0
BLOCK_RECORD
  5
213
100
AcDbSymbolTableRecord
100
AcDbBlockTableRecord
  2
*D0
  0
BLOCK_RECORD
  5
214
100
AcDbSymbolTableRecord
100
AcDbBlockTableRecord
  2
*D1
  0
BLOCK_RECORD
  5
215
100
AcDbSymbolTableRecord
100
AcDbBlockTableRecord
  2
*D2
  0
ENDTAB
  0
TABLE
  2
DIMSTYLE
  5
A
100
AcDbSymbolTable
 70
1
100
AcDbDimStyleTable
 71
0
  0
DIMSTYLE
105
216
100
AcDbSymbolTableRecord
100
AcDbDimStyleTableRecord
  2
STANDARD
 70
0
  3

  4

 40
1.0
 41
3.0
 42
0.5
 43
0.38
 44
1.5
 45
0.0
 46
0.0
 47
0.01
 48
0.01
140
3.0
141
0.09
142
0.0
143
25.4
144
1.0
145
0.0
146
1.0
147
0.625
 71
1
 72
0
 73
0
 74
0
 75
0
 76
0
 77
1
 78
8
 79
2
170
0
171
1
172
0
173
0
174
0
175
0
176
0
177
0
178
0
270
2
179
2
271
2
272
2
273
2
274
2
275
0
280
0
281
0
282
0
283
1
284
8
285
0
286
0
287
3
288
0
340
11
278
44
341
212
342
212
343
212
344
212
  0
DIMSTYLE
105
217
100
AcDbSymbolTableRecord
100
AcDbDimStyleTableRecord
  2
DIMSTYLE_1
 70
0
  3

  4

 40
1.0
 41
3.0
 42
0.5
 43
0.38
 44
1.5
 45
0.0
 46
0.0
 47
0.0
 48
0.0
140
3.0
141
0.09
142
0.0
143
25.4
144
1.0
145
0.0
146
1.0
147
0.75
 71
0
 72
0
 73
0
 74
0
 75
0
 76
0
 77
1
 78
8
 79
2
170
0
171
1
172
0
173
0
174
0
175
0
176
0
177
0
178
0
270
2
179
2
271
2
272
2
273
2
274
2
275
0
280
0
281
0
282
0
283
1
284
8
285
0
286
0
287
3
288
0
340
11
278
44
341
212
342
212
343
212
344
212
  0
DIMSTYLE
105
218
100
AcDbSymbolTableRecord
100
AcDbDimStyleTableRecord
  2
DIMSTYLE_2
 70
0
  3
<>
  4

 40
1.0
 41
3.0
 42
0.5
 43
0.38
 44
1.5
 45
0.0
 46
0.0
 47
0.0
 48
0.0
140
3.0
141
0.09
142
0.0
143
25.4
144
1.0
145
0.0
146
1.0
147
0.625
 71
0
 72
0
 73
0
 74
0
 75
0
 76
0
 77
1
 78
8
 79
2
170
0
171
1
172
1
173
0
174
0
175
0
176
0
177
0
178
0
270
2
179
2
271
2
272
2
273
2
274
2
275
0
280
0
281
0
282
0
283
1
284
8
285
0
286
0
287
3
288
1
340
11
278
44
289
2
341
212
342
212
343
212
344
212
  0
ENDTAB
  0
ENDSEC
  0
SECTION
  2
BLOCKS
  0
BLOCK
  5
20
100
AcDbEntity
  8
0
100
AcDbBlockBegin
  2
*Model_Space
 70
0
 10
0.0
 20
0.0
 30
0.0
  3
*Model_Space
  1

  0
ENDBLK
  5
21
100
AcDbEntity
  8
0
100
AcDbBlockEnd
  0
BLOCK
  5
1C
100
AcDbEntity
  8
0
100
AcDbBlockBegin
  2
*Paper_Space
 70
0
 10
0.0
 20
0.0
 30
0.0
  3
*Paper_Space
  1

  0
ENDBLK
  5
1D
100
AcDbEntity
  8
0
100
AcDbBlockEnd
  0
BLOCK
  5
219
100
AcDbEntity
  8
0
100
AcDbBlockBegin
  2
_FILLED
 70
64
 10
0.0
 20
0.0
  3
_FILLED
  1

  0
SOLID
  5
21A
100
AcDbEntity
  8
0
  6
BYBLOCK
 62
0
100
AcDbTrace
 10
0.0
 20
0.0
 11
-1.0
 21
0.3166666667
 12
-1.0
 22
-0.3166666667
 13
-1.0
 23
-0.3166666667
  0
ENDBLK
  5
21B
100
AcDbEntity
  8
0
  6
BYBLOCK
 62
0
100
AcDbBlockEnd
  0
BLOCK
  5
21C
100
AcDbEntity
  8
0
100
AcDbBlockBegin
 62
7
  6
CONTINUOUS
  2
*D0
 70
65
 10
0.0
 20
0.0
  3
*D0
  1

  0
MTEXT
  5
21D
100
AcDbEntity
  8
0
100
AcDbMText
 62
7
  6
CONTINUOUS
  7
STANDARD
 71
3
 72
1
 10
-63.3269190601
 20
31.3832689295
 30
0.0
 11
1.0
 21
0.0
 31
0.0
 73
2
 44
0.9
  1
{\ftxt;\W0.0001;\H0.0001;\~}{\ftxt;\W2.0714285714;\H3.0; }{\ftxt;\W0.0001;\H0.0001;\~}
 40
3.0
 41
9.3214285714
  0
LINE
  5
21E
100
AcDbEntity
  8
0
100
AcDbLine
 62
7
  6
CONTINUOUS
 10
-51.5269190601
 20
19.4313282193
 11
-51.5269190601
 21
29.1332689295
  0
LINE
  5
21F
100
AcDbEntity
  8
0
100
AcDbLine
 62
7
  6
CONTINUOUS
 10
-47.9269190601
 20
19.4313282193
 11
-47.9269190601
 21
29.1332689295
  0
LINE
  5
220
100
AcDbEntity
  8
0
100
AcDbLine
 62
7
  6
CONTINUOUS
 10
-51.5269190601
 20
27.6332689295
 11
-69.5412047743
 21
27.6332689295
  0
LINE
  5
221
100
AcDbEntity
  8
0
100
AcDbLine
 62
7
  6
CONTINUOUS
 10
-69.5412047743
 20
27.6332689295
 11
-49.7269190601
 21
27.6332689295
  0
LINE
  5
222
100
AcDbEntity
  8
0
100
AcDbLine
 62
7
  6
CONTINUOUS
 10
-47.9269190601
 20
27.6332689295
 11
-43.9269190601
 21
27.6332689295
  0
LINE
  5
223
100
AcDbEntity
  8
0
100
AcDbLine
 62
7
  6
CONTINUOUS
 10
-43.9269190601
 20
27.6332689295
 11
-49.7269190601
 21
27.6332689295
  0
INSERT
  5
224
100
AcDbEntity
  8
0
100
AcDbBlockReference
 62
7
  6
CONTINUOUS
  2
_FILLED
 10
-51.5269190601
 20
27.6332689295
 41
3.0
 42
3.0
 43
3.0
  0
INSERT
  5
225
100
AcDbEntity
  8
0
100
AcDbBlockReference
 62
7
  6
CONTINUOUS
  2
_FILLED
 10
-47.9269190601
 20
27.6332689295
 41
3.0
 42
3.0
 43
3.0
 50
180.0
  0
ENDBLK
  5
226
100
AcDbEntity
  8
0
  6
BYBLOCK
 62
0
100
AcDbBlockEnd
  0
BLOCK
  5
227
100
AcDbEntity
  8
0
100
AcDbBlockBegin
 62
7
  6
CONTINUOUS
  2
*D1
 70
65
 10
0.0
 20
0.0
  3
*D1
  1

  0
MTEXT
  5
228
100
AcDbEntity
  8
0
100
AcDbMText
 62
7
  6
CONTINUOUS
  7
STANDARD
 71
2
 72
1
 10
20.2151111688
 20
-0.0
 30
0.0
 11
0.0
 21
1.0
 31
0.0
 73
2
 44
0.9
  1
{\ftxt;\W0.0001;\H0.0001;\~}{\ftxt;\W2.8571428571;\H3.0; }{\ftxt;\W0.0001;\H0.0001;\~}
 40
3.0
 41
12.8571428571
  0
LINE
  5
229
100
AcDbEntity
  8
0
100
AcDbLine
 62
7
  6
CONTINUOUS
 10
0.5
 20
20.15
 11
25.4651111688
 21
20.15
  0
LINE
  5
22A
100
AcDbEntity
  8
0
100
AcDbLine
 62
7
  6
CONTINUOUS
 10
0.5
 20
-20.15
 11
25.4651111688
 21
-20.15
  0
LINE
  5
22B
100
AcDbEntity
  8
0
100
AcDbLine
 62
7
  6
CONTINUOUS
 10
23.9651111688
 20
20.15
 11
23.9651111688
 21
0.0
  0
LINE
  5
22C
100
AcDbEntity
  8
0
100
AcDbLine
 62
7
  6
CONTINUOUS
 10
23.9651111688
 20
-20.15
 11
23.9651111688
 21
0.0
  0
INSERT
  5
22D
100
AcDbEntity
  8
0
100
AcDbBlockReference
 62
7
  6
CONTINUOUS
  2
_FILLED
 10
23.9651111688
 20
20.15
 41
3.0
 42
3.0
 43
3.0
 50
90.0
  0
INSERT
  5
22E
100
AcDbEntity
  8
0
100
AcDbBlockReference
 62
7
  6
CONTINUOUS
  2
_FILLED
 10
23.9651111688
 20
-20.15
 41
3.0
 42
3.0
 43
3.0
 50
270.0
  0
ENDBLK
  5
22F
100
AcDbEntity
  8
0
  6
BYBLOCK
 62
0
100
AcDbBlockEnd
  0
BLOCK
  5
230
100
AcDbEntity
  8
0
100
AcDbBlockBegin
 62
7
  6
CONTINUOUS
  2
*D2
 70
65
 10
0.0
 20
0.0
  3
*D2
  1

  0
MTEXT
  5
231
100
AcDbEntity
  8
0
100
AcDbMText
 62
7
  6
CONTINUOUS
  7
TEXTSTYLE_2
 71
1
 72
1
 10
21.3030523237
 20
28.0479682151
 30
0.0
 11
1.0
 21
0.0
 31
0.0
 73
2
 44
0.9
  1
{\ftxt;\W0.0001;\H0.0001;\~}{\ftxt;\W1.3333333333;\H3.0; }{\ftxt;\W0.0001;\H0.0001;\~}{\ftxt;\W0.0001;\H0.0001;\~}{\ftxt;\W1.5;\H3.0; }{\ftxt;\W0.0001;\H0.0001;\~}
 40
3.0
 41
12.75
  0
LINE
  5
232
100
AcDbEntity
  8
0
100
AcDbLine
 62
7
  6
CONTINUOUS
 10
11.3570003642
 20
15.4202503401
 11
0.0
 21
4.15
  0
LINE
  5
233
100
AcDbEntity
  8
0
100
AcDbLine
 62
7
  6
CONTINUOUS
 10
0.0
 20
4.15
 11
20.3030523237
 21
24.2979682151
  0
LINE
  5
234
100
AcDbEntity
  8
0
100
AcDbLine
 62
7
  6
CONTINUOUS
 10
20.3030523237
 20
24.2979682151
 11
31.3030523237
 21
24.2979682151
  0
LINE
  5
235
100
AcDbEntity
  8
0
100
AcDbLine
 62
7
  6
CONTINUOUS
 10
31.3030523237
 20
24.2979682151
 11
20.3030523237
 21
24.2979682151
  0
LINE
  5
236
100
AcDbEntity
  8
0
100
AcDbLine
 62
7
  6
CONTINUOUS
 10
-11.3570003642
 20
-7.1202503401
 11
0.0
 21
4.15
  0
INSERT
  5
237
100
AcDbEntity
  8
0
100
AcDbBlockReference
 62
7
  6
CONTINUOUS
  2
_FILLED
 10
11.3570003642
 20
15.4202503401
 41
3.0
 42
3.0
 43
3.0
 50
44.7803362872
  0
INSERT
  5
238
100
AcDbEntity
  8
0
100
AcDbBlockReference
 62
7
  6
CONTINUOUS
  2
_FILLED
 10
-11.3570003642
 20
-7.1202503401
 41
3.0
 42
3.0
 43
3.0
 50
224.7803362872
  0
ENDBLK
  5
239
100
AcDbEntity
  8
0
  6
BYBLOCK
 62
0
100
AcDbBlockEnd
  0
ENDSEC
  0
SECTION
  2
ENTITIES
  0
DIMENSION
  5
23A
100
AcDbEntity
  8
0
100
AcDbDimension
 62
7
  6
CONTINUOUS
  2
*D0
 10
-47.9269190601
 20
27.6332689295
 11
-66.8626333084
 21
27.6332689295
 70
160
 71
3
 72
2
 41
0.9
 42
3.6
  1
{\ftxt;\W0.0001;\H0.0001;\~}{\ftxt;\W2.0714285714;\H3.0; }{\ftxt;\W0.0001;\H0.0001;\~}
  3
DIMSTYLE_1
100
AcDbAlignedDimension
 13
-51.5269190601
 23
18.9313282193
 14
-47.9269190601
 24
18.9313282193
100
AcDbRotatedDimension
  0
DIMENSION
  5
23B
100
AcDbEntity
  8
0
100
AcDbDimension
 62
7
  6
CONTINUOUS
  2
*D1
 10
23.9651111688
 20
-20.15
 11
23.9651111688
 21
-0.428574478
 70
160
 71
2
 72
2
 41
0.9
 42
40.3
  1
{\ftxt;\W0.0001;\H0.0001;\~}{\ftxt;\W2.8571428571;\H3.0; }{\ftxt;\W0.0001;\H0.0001;\~}
  3
DIMSTYLE_1
100
AcDbAlignedDimension
 13
0.0
 23
20.15
 14
0.0
 24
-20.15
 50
270.0
100
AcDbRotatedDimension
  0
DIMENSION
  5
23C
100
AcDbEntity
  8
0
100
AcDbDimension
 62
7
  6
CONTINUOUS
  2
*D2
 10
11.3570003642
 20
15.4202503401
 11
25.3030523237
 21
25.0479682151
 70
163
 71
1
 72
2
 41
0.9
 42
32.0
  1
{\ftxt;\W0.0001;\H0.0001;\~}{\ftxt;\W1.3333333333;\H3.0; }{\ftxt;\W0.0001;\H0.0001;\~}{\ftxt;\W0.0001;\H0.0001;\~}{\ftxt;\W1.5;\H3.0; }{\ftxt;\W0.0001;\H0.0001;\~}
  3
DIMSTYLE_2
100
AcDbDiametricDimension
 15
-11.3570003642
 25
-7.1202503401
1001
ACAD
1000
DSTYLE
1002
{
1070
73
1070
1
1070
74
1070
1
1002
}
  0
LWPOLYLINE
  5
23D
100
AcDbEntity
  8
RACCORDO
100
AcDbPolyline
 62
250
  6
CONTINUOUS
 90
28
 70
0
 10
2.0722148424
 20
-17.2157458292
 10
2.203096885
 20
-17.2102451735
 10
2.3309114851
 20
-17.1956730362
 10
2.4556586427
 20
-17.1720294174
 10
2.5785806149
 20
-17.1383843314
 10
2.6984351446
 20
-17.0956677638
 10
2.8114954608
 20
-17.0466696715
 10
2.9168663743
 20
-16.991167081
 10
3.0154430744
 20
-16.9293829659
 10
3.1061843574
 20
-16.8647762033
 10
3.1883761069
 20
-16.7977815719
 10
3.2627324393
 20
-16.727964293
 10
3.3303545005
 20
-16.6574789073
 10
3.391110056
 20
-16.586760005
 10
3.4451313403
 20
-16.5153729958
 10
3.4939162024
 20
-16.4441686505
 10
3.5375296573
 20
-16.3735258487
 10
3.5759066901
 20
-16.3030657107
 10
3.6103501051
 20
-16.232502368
 10
3.641000722
 20
-16.1624304697
 10
3.6677177211
 20
-16.0922553667
 10
3.6913814472
 20
-16.0199072436
 10
3.7124801608
 20
-15.9452084067
 10
3.7305256015
 20
-15.8683365498
 10
3.7449333323
 20
-15.7877549383
 10
3.7555085411
 20
-15.7029513275
 10
3.76244604
 20
-15.6144379622
 10
3.7657458292
 20
-15.5222148424
  0
LWPOLYLINE
  5
23E
100
AcDbEntity
  8
RACCORDO
100
AcDbPolyline
 62
250
  6
CONTINUOUS
 90
28
 70
0
 10
2.072214826
 20
-17.0165068731
 10
2.1868328727
 20
-17.0122590054
 10
2.2999179118
 20
-16.9994162879
 10
2.4108489237
 20
-16.978234921
 10
2.5197447996
 20
-16.9487911338
 10
2.6253117045
 20
-16.9115402858
 10
2.7250269942
 20
-16.8678277629
 10
2.8182722879
 20
-16.8186752666
 10
2.9052657539
 20
-16.7647416627
 10
2.9851466604
 20
-16.7074335853
 10
3.0576677364
 20
-16.6479482023
 10
3.1234180057
 20
-16.5868325119
 10
3.1829588051
 20
-16.5245391639
 10
3.2364381062
 20
-16.4618265704
 10
3.2842535551
 20
-16.3991501494
 10
3.3272338307
 20
-16.3362801082
 10
3.3655418047
 20
-16.2737202987
 10
3.3994897677
 20
-16.2117182049
 10
3.4298851626
 20
-16.1494312768
 10
3.4566958759
 20
-16.0874320727
 10
3.4802090089
 20
-16.0255781225
 10
3.5012667145
 20
-15.9617306554
 10
3.5197599361
 20
-15.895739751
 10
3.5354286069
 20
-15.8279310568
 10
3.5483599934
 20
-15.7567319836
 10
3.5581965248
 20
-15.6816707819
 10
3.564392671
 20
-15.6034393366
 10
3.5665068895
 20
-15.5222148424
  0
LINE
  5
23F
100
AcDbEntity
  8
RACCORDO
100
AcDbLine
 62
250
  6
CONTINUOUS
 10
-2.0722148424
 20
-17.2157458292
 11
2.0722148424
 21
-17.2157458292
  0
LINE
  5
240
100
AcDbEntity
  8
RACCORDO
100
AcDbLine
 62
250
  6
CONTINUOUS
 10
-2.0722148424
 20
-17.0165068895
 11
2.0722148424
 21
-17.0165068895
  0
LWPOLYLINE
  5
241
100
AcDbEntity
  8
RACCORDO
100
AcDbPolyline
 62
7
  6
CONTINUOUS
 90
22
 70
0
 10
-1.9307079529
 20
-16.875
 10
-2.0425666676
 20
-16.8708435291
 10
-2.1537746807
 20
-16.8583709587
 10
-2.2637198086
 20
-16.8376468082
 10
-2.3718266132
 20
-16.8087751111
 10
-2.4774646286
 20
-16.771912491
 10
-2.5799589371
 20
-16.7272881462
 10
-2.6786835892
 20
-16.6751970996
 10
-2.7731690354
 20
-16.6159137581
 10
-2.862997944
 20
-16.5496911033
 10
-2.9477332456
 20
-16.476815047
 10
-3.026815047
 20
-16.3977332456
 10
-3.0996911033
 20
-16.312997944
 10
-3.1659137581
 20
-16.2231690354
 10
-3.2251970996
 20
-16.1286835892
 10
-3.2772881462
 20
-16.0299589371
 10
-3.321912491
 20
-15.9274646286
 10
-3.3587751111
 20
-15.8218266132
 10
-3.3876468082
 20
-15.7137198086
 10
-3.4083709587
 20
-15.6037746807
 10
-3.4208435291
 20
-15.4925666676
 10
-3.425
 20
-15.3807079529
  0
LINE
  5
242
100
AcDbEntity
  8
RACCORDO
100
AcDbLine
 62
7
  6
CONTINUOUS
 10
-1.9307079529
 20
-16.875
 11
1.9307079529
 21
-16.875
  0
LINE
  5
243
100
AcDbEntity
  8
RACCORDO
100
AcDbLine
 62
250
  6
CONTINUOUS
 10
-3.5665068895
 20
-15.5222148424
 11
-3.7657458292
 21
-15.5222148424
  0
LINE
  5
244
100
AcDbEntity
  8
RACCORDO
100
AcDbLine
 62
250
  6
CONTINUOUS
 10
3.5665068895
 20
-15.5222148424
 11
3.7657458292
 21
-15.5222148424
  0
LWPOLYLINE
  5
245
100
AcDbEntity
  8
RACCORDO
100
AcDbPolyline
 62
7
  6
CONTINUOUS
 90
22
 70
0
 10
-1.9307079529
 20
-13.825
 10
-2.0425666676
 20
-13.8291564709
 10
-2.1537746807
 20
-13.8416290413
 10
-2.2637198086
 20
-13.8623531918
 10
-2.3718266132
 20
-13.8912248889
 10
-2.4774646286
 20
-13.928087509
 10
-2.5799589371
 20
-13.9727118538
 10
-2.6786835892
 20
-14.0248029004
 10
-2.7731690354
 20
-14.0840862419
 10
-2.862997944
 20
-14.1503088967
 10
-2.9477332456
 20
-14.223184953
 10
-3.026815047
 20
-14.3022667544
 10
-3.0996911033
 20
-14.387002056
 10
-3.1659137581
 20
-14.4768309646
 10
-3.2251970996
 20
-14.5713164108
 10
-3.2772881462
 20
-14.6700410629
 10
-3.321912491
 20
-14.7725353714
 10
-3.3587751111
 20
-14.8781733868
 10
-3.3876468082
 20
-14.9862801914
 10
-3.4083709587
 20
-15.0962253193
 10
-3.4208435291
 20
-15.2074333324
 10
-3.425
 20
-15.3192920471
  0
LWPOLYLINE
  5
246
100
AcDbEntity
  8
RACCORDO
100
AcDbPolyline
 62
250
  6
CONTINUOUS
 90
28
 70
0
 10
-2.072214826
 20
-13.6834931269
 10
-2.1868328727
 20
-13.6877409946
 10
-2.2999179118
 20
-13.7005837121
 10
-2.4108489237
 20
-13.721765079
 10
-2.5197447996
 20
-13.7512088662
 10
-2.6253117045
 20
-13.7884597142
 10
-2.7250269942
 20
-13.8321722371
 10
-2.8182722879
 20
-13.8813247334
 10
-2.9052657539
 20
-13.9352583373
 10
-2.9851466604
 20
-13.9925664147
 10
-3.0576677364
 20
-14.0520517977
 10
-3.1234180057
 20
-14.1131674881
 10
-3.1829588051
 20
-14.1754608361
 10
-3.2364381062
 20
-14.2381734296
 10
-3.2842535551
 20
-14.3008498506
 10
-3.3272338307
 20
-14.3637198918
 10
-3.3655418047
 20
-14.4262797013
 10
-3.3994897677
 20
-14.4882817951
 10
-3.4298851626
 20
-14.5505687232
 10
-3.4566958759
 20
-14.6125679273
 10
-3.4802090089
 20
-14.6744218775
 10
-3.5012667145
 20
-14.7382693446
 10
-3.5197599361
 20
-14.804260249
 10
-3.5354286069
 20
-14.8720689432
 10
-3.5483599934
 20
-14.9432680164
 10
-3.5581965248
 20
-15.0183292181
 10
-3.564392671
 20
-15.0965606634
 10
-3.5665068895
 20
-15.1777851576
  0
LINE
  5
247
100
AcDbEntity
  8
RACCORDO
100
AcDbLine
 62
250
  6
CONTINUOUS
 10
-3.5665068895
 20
-15.1777851576
 11
-3.7657458292
 21
-15.1777851576
  0
LINE
  5
248
100
AcDbEntity
  8
RACCORDO
100
AcDbLine
 62
250
  6
CONTINUOUS
 10
3.5665068895
 20
-15.1777851576
 11
3.7657458292
 21
-15.1777851576
  0
LINE
  5
249
100
AcDbEntity
  8
RACCORDO
100
AcDbLine
 62
7
  6
CONTINUOUS
 10
1.9307079529
 20
-13.825
 11
-1.9307079529
 21
-13.825
  0
LINE
  5
24A
100
AcDbEntity
  8
RACCORDO
100
AcDbLine
 62
250
  6
CONTINUOUS
 10
2.0722148424
 20
-13.6834931105
 11
-2.0722148424
 21
-13.6834931105
  0
LINE
  5
24B
100
AcDbEntity
  8
RACCORDO
100
AcDbLine
 62
250
  6
CONTINUOUS
 10
2.0722148424
 20
-13.4842541708
 11
-2.0722148424
 21
-13.4842541708
  0
LWPOLYLINE
  5
24C
100
AcDbEntity
  8
RACCORDO
100
AcDbPolyline
 62
7
  6
CONTINUOUS
 90
22
 70
0
 10
1.9307079529
 20
-13.825
 10
2.0425666676
 20
-13.8291564709
 10
2.1537746807
 20
-13.8416290413
 10
2.2637198086
 20
-13.8623531918
 10
2.3718266132
 20
-13.8912248889
 10
2.4774646286
 20
-13.928087509
 10
2.5799589371
 20
-13.9727118538
 10
2.6786835892
 20
-14.0248029004
 10
2.7731690354
 20
-14.0840862419
 10
2.862997944
 20
-14.1503088967
 10
2.9477332456
 20
-14.223184953
 10
3.026815047
 20
-14.3022667544
 10
3.0996911033
 20
-14.387002056
 10
3.1659137581
 20
-14.4768309646
 10
3.2251970996
 20
-14.5713164108
 10
3.2772881462
 20
-14.6700410629
 10
3.321912491
 20
-14.7725353714
 10
3.3587751111
 20
-14.8781733868
 10
3.3876468082
 20
-14.9862801914
 10
3.4083709587
 20
-15.0962253193
 10
3.4208435291
 20
-15.2074333324
 10
3.425
 20
-15.3192920471
  0
LINE
  5
24D
100
AcDbEntity
  8
DRAFT
100
AcDbLine
 62
7
  6
CONTINUOUS
 10
-14.227219422
 20
-3.1702614379
 11
-8.0028109249
 21
-15.2676470588
  0
LINE
  5
24E
100
AcDbEntity
  8
RACCORDO
100
AcDbLine
 62
250
  6
CONTINUOUS
 10
-7.9932976271
 20
-15.2627522284
 11
-14.2177061242
 21
-3.1653666075
  0
LINE
  5
24F
100
AcDbEntity
  8
RACCORDO
100
AcDbLine
 62
250
  6
CONTINUOUS
 10
-7.8603894193
 20
-15.19436762
 11
-14.0847979164
 21
-3.0969819991
  0
LWPOLYLINE
  5
250
100
AcDbEntity
  8
RACCORDO
100
AcDbPolyline
 62
250
  6
CONTINUOUS
 90
28
 70
0
 10
-2.0722148424
 20
-13.4842541708
 10
-2.203096885
 20
-13.4897548265
 10
-2.3309114851
 20
-13.5043269638
 10
-2.4556586427
 20
-13.5279705826
 10
-2.5785806149
 20
-13.5616156686
 10
-2.6984351446
 20
-13.6043322362
 10
-2.8114954608
 20
-13.6533303285
 10
-2.9168663743
 20
-13.708832919
 10
-3.0154430744
 20
-13.7706170341
 10
-3.1061843574
 20
-13.8352237967
 10
-3.1883761069
 20
-13.9022184281
 10
-3.2627324393
 20
-13.972035707
 10
-3.3303545005
 20
-14.0425210927
 10
-3.391110056
 20
-14.113239995
 10
-3.4451313403
 20
-14.1846270042
 10
-3.4939162024
 20
-14.2558313495
 10
-3.5375296573
 20
-14.3264741513
 10
-3.5759066901
 20
-14.3969342893
 10
-3.6103501051
 20
-14.467497632
 10
-3.641000722
 20
-14.5375695303
 10
-3.6677177211
 20
-14.6077446333
 10
-3.6913814472
 20
-14.6800927564
 10
-3.7124801608
 20
-14.7547915933
 10
-3.7305256015
 20
-14.8316634502
 10
-3.7449333323
 20
-14.9122450617
 10
-3.7555085411
 20
-14.9970486725
 10
-3.76244604
 20
-15.0855620378
 10
-3.7657458292
 20
-15.1777851576
  0
LINE
  5
251
100
AcDbEntity
  8
RACCORDO
100
AcDbLine
 62
250
  6
CONTINUOUS
 10
-3.5665068895
 20
-15.1777851576
 11
-3.425
 21
-15.3192920471
  0
LINE
  5
252
100
AcDbEntity
  8
RACCORDO
100
AcDbLine
 62
250
  6
CONTINUOUS
 10
-13.4551996796
 20
-2.7730379059
 11
-7.2307911825
 21
-14.8704235268
  0
LINE
  5
253
100
AcDbEntity
  8
RACCORDO
100
AcDbLine
 62
250
  6
CONTINUOUS
 10
-13.1435749953
 20
-2.6126991853
 11
-6.9191664981
 21
-14.7100848062
  0
LINE
  5
254
100
AcDbEntity
  8
RACCORDO
100
AcDbLine
 62
250
  6
CONTINUOUS
 10
-2.0722148424
 20
-13.6834931105
 11
-1.9307079529
 21
-13.825
  0
LINE
  5
255
100
AcDbEntity
  8
RACCORDO
100
AcDbLine
 62
250
  6
CONTINUOUS
 10
2.0722148424
 20
-17.0165068895
 11
1.9307079529
 21
-16.875
  0
LWPOLYLINE
  5
256
100
AcDbEntity
  8
RACCORDO
100
AcDbPolyline
 62
250
  6
CONTINUOUS
 90
40
 70
0
 10
-5.8665301236
 20
-13.1509586018
 10
-5.8186080819
 20
-13.2344078612
 10
-5.7652134695
 20
-13.3123364906
 10
-5.7063462864
 20
-13.3847444899
 10
-5.6416279223
 20
-13.4518896193
 10
-5.5714369874
 20
-13.5135141186
 10
-5.4969093126
 20
-13.5688447077
 10
-5.4178487331
 20
-13.6179226057
 10
-5.3344514136
 20
-13.6607065934
 10
-5.2484416784
 20
-13.6962997333
 10
-5.1597878712
 20
-13.7245418985
 10
-5.0685216483
 20
-13.7455932159
 10
-4.9764623035
 20
-13.7590371294
 10
-4.8835847529
 20
-13.7647222426
 10
-4.7899140803
 20
-13.7627999519
 10
-4.697344831
 20
-13.7533078894
 10
-4.6059032211
 20
-13.7360922662
 10
-4.5155630344
 20
-13.7113068713
 10
-4.4281401672
 20
-13.679450703
 10
-4.3436928681
 20
-13.6403808002
 10
-4.2621628884
 20
-13.594240124
 10
-4.1851913788
 20
-13.5419565571
 10
-4.1128693605
 20
-13.4834034946
 10
-4.0451058122
 20
-13.4187075414
 10
-3.9832688203
 20
-13.3491763939
 10
-3.9274315018
 20
-13.274461872
 10
-3.8775207398
 20
-13.1949121557
 10
-3.8346852688
 20
-13.112879482
 10
-3.7993194607
 20
-13.0278678658
 10
-3.7710289436
 20
-12.9403732922
 10
-3.7497793376
 20
-12.8542359529
 10
-3.7359624716
 20
-12.7709054248
 10
-3.7291865167
 20
-12.6889321312
 10
-3.7282416055
 20
-12.6078075334
 10
-3.7323252025
 20
-12.5282036408
 10
-3.7422398433
 20
-12.4494484442
 10
-3.7591832671
 20
-12.3690173771
 10
-3.7835547206
 20
-12.2860689176
 10
-3.8149549571
 20
-12.2014445877
 10
-3.8533839767
 20
-12.1151443875
  0
LINE
  5
257
100
AcDbEntity
  8
RACCORDO
100
AcDbLine
 62
250
  6
CONTINUOUS
 10
-7.4220856791
 20
-10.1276744746
 11
-5.8665301236
 21
-13.1509586018
  0
LINE
  5
258
100
AcDbEntity
  8
RACCORDO
100
AcDbLine
 62
250
  6
CONTINUOUS
 10
-7.2449221721
 20
-10.0365194042
 11
-5.6893666166
 21
-13.0598035314
  0
LINE
  5
259
100
AcDbEntity
  8
RACCORDO
100
AcDbLine
 62
250
  6
CONTINUOUS
 10
-5.5855209697
 20
-13.00637234
 11
-7.1410765253
 21
-9.9830882128
  0
LINE
  5
25A
100
AcDbEntity
  8
RACCORDO
100
AcDbLine
 62
250
  6
CONTINUOUS
 10
-5.4083574628
 20
-12.9152172695
 11
-6.9639130183
 21
-9.8919331424
  0
LWPOLYLINE
  5
25B
100
AcDbEntity
  8
RACCORDO
100
AcDbPolyline
 62
250
  6
CONTINUOUS
 90
37
 70
0
 10
-6.9639130183
 20
-9.8919331424
 10
-6.9873064745
 20
-9.840182393
 10
-7.0058197031
 20
-9.7877829926
 10
-7.0194527043
 20
-9.7347349411
 10
-7.028186778
 20
-9.6807427605
 10
-7.0320406241
 20
-9.6261019289
 10
-7.0310703426
 20
-9.5716988805
 10
-7.0252116431
 20
-9.5173813998
 10
-7.0145288158
 20
-9.4633017023
 10
-6.999270831
 20
-9.4108028694
 10
-6.9793318419
 20
-9.3599575636
 10
-6.9548176953
 20
-9.3106931224
 10
-6.9262949019
 20
-9.2641346389
 10
-6.8936667084
 20
-9.2203356113
 10
-6.8570298681
 20
-9.1792425415
 10
-6.8172411516
 20
-9.141820028
 10
-6.774224684
 20
-9.1081556211
 10
-6.7280563401
 20
-9.0781617707
 10
-6.6798205153
 20
-9.0525404244
 10
-6.6294776728
 20
-9.0313959488
 10
-6.5770673494
 20
-9.0146239774
 10
-6.5237925508
 20
-9.0026133585
 10
-6.4695401391
 20
-8.9955028324
 10
-6.4144232522
 20
-8.9931536587
 10
-6.3599843101
 20
-8.9955384643
 10
-6.3060197115
 20
-9.0030309776
 10
-6.2527330576
 20
-9.0152574701
 10
-6.2022775725
 20
-9.0310693825
 10
-6.1554943192
 20
-9.0502660394
 10
-6.1115422346
 20
-9.0730481162
 10
-6.0700513533
 20
-9.0988690799
 10
-6.0310812872
 20
-9.1271362651
 10
-5.9945724244
 20
-9.1584423372
 10
-5.9599759636
 20
-9.1940187596
 10
-5.9271089713
 20
-9.2342760203
 10
-5.8961543811
 20
-9.2788036312
 10
-5.867112193
 20
-9.3276015925
  0
LWPOLYLINE
  5
25C
100
AcDbEntity
  8
0
100
AcDbPolyline
 62
7
  6
CONTINUOUS
 90
5
 70
0
 43
0.3500000019
 10
26.1601962891
 20
26.762253418
 10
26.5173417969
 20
26.9765385742
 10
26.5173417969
 20
27.6193967285
 10
26.1601962891
 20
28.047967041
 10
25.3030556641
 20
28.047967041
  0
LINE
  5
25D
100
AcDbEntity
  8
RACCORDO
100
AcDbLine
 62
250
  6
CONTINUOUS
 10
6.9191664981
 20
-14.7100848062
 11
8.0028109249
 21
-15.2676470588
  0
LINE
  5
25E
100
AcDbEntity
  8
RACCORDO
100
AcDbLine
 62
250
  6
CONTINUOUS
 10
3.8533839767
 20
-12.1151443875
 11
4.3115566375
 21
-12.3508857197
  0
LINE
  5
25F
100
AcDbEntity
  8
RACCORDO
100
AcDbLine
 62
250
  6
CONTINUOUS
 10
5.4083574628
 20
-12.9152172695
 11
5.8665301236
 21
-13.1509586018
  0
LINE
  5
260
100
AcDbEntity
  8
RACCORDO
100
AcDbLine
 62
250
  6
CONTINUOUS
 10
3.5665068895
 20
-15.5222148424
 11
3.425
 21
-15.3807079529
  0
LWPOLYLINE
  5
261
100
AcDbEntity
  8
RACCORDO
100
AcDbPolyline
 62
250
  6
CONTINUOUS
 90
40
 70
0
 10
-5.4089395323
 20
-9.0918602603
 10
-5.4565403175
 20
-9.0088974027
 10
-5.5095747775
 20
-8.9313748843
 10
-5.5680429123
 20
-8.8592927052
 10
-5.632308742
 20
-8.7923951399
 10
-5.7020082465
 20
-8.7309379139
 10
-5.7760493654
 20
-8.6756882028
 10
-5.8546439626
 20
-8.6265959012
 10
-5.9375801743
 20
-8.5837111145
 10
-6.0231303483
 20
-8.5479513346
 10
-6.1113141771
 20
-8.5194832532
 10
-6.2021119681
 20
-8.4981401785
 10
-6.293736992
 20
-8.4843395272
 10
-6.3862197768
 20
-8.4782290971
 10
-6.4795297944
 20
-8.4796610904
 10
-6.5717887304
 20
-8.4886095299
 10
-6.6629691577
 20
-8.5052263124
 10
-6.7530985033
 20
-8.5293595412
 10
-6.8403807342
 20
-8.5605275487
 10
-6.9247613116
 20
-8.5988728844
 10
-7.0062947742
 20
-8.644252999
 10
-7.0833487043
 20
-8.6957585769
 10
-7.155829884
 20
-8.7535096018
 10
-7.2238315313
 20
-8.8173860901
 10
-7.286000882
 20
-8.8861187756
 10
-7.3422582033
 20
-8.9599736435
 10
-7.3926832281
 20
-9.0386847087
 10
-7.436162391
 20
-9.1201847495
 10
-7.4723836781
 20
-9.2050740188
 10
-7.5016591035
 20
-9.2927522639
 10
-7.5238111434
 20
-9.3793515047
 10
-7.538408434
 20
-9.4634717409
 10
-7.5458823392
 20
-9.5465129729
 10
-7.5473494273
 20
-9.6288072227
 10
-7.5435580456
 20
-9.7097198183
 10
-7.5337598468
 20
-9.7898854316
 10
-7.5168263581
 20
-9.8715401002
 10
-7.4923814217
 20
-9.9554291698
 10
-7.4608011954
 20
-10.0408072946
 10
-7.4220856791
 20
-10.1276744746
  0
LINE
  5
262
100
AcDbEntity
  8
RACCORDO
100
AcDbLine
 62
250
  6
CONTINUOUS
 10
-5.867112193
 20
-9.3276015925
 11
-4.3115566375
 21
-12.3508857197
  0
LINE
  5
263
100
AcDbEntity
  8
RACCORDO
100
AcDbLine
 62
250
  6
CONTINUOUS
 10
-5.6899486861
 20
-9.2364465221
 11
-4.1343931305
 21
-12.2597306493
  0
LINE
  5
264
100
AcDbEntity
  8
RACCORDO
100
AcDbLine
 62
250
  6
CONTINUOUS
 10
-4.0305474837
 20
-12.2062994579
 11
-5.5861030392
 21
-9.1830153307
  0
LINE
  5
265
100
AcDbEntity
  8
RACCORDO
100
AcDbLine
 62
250
  6
CONTINUOUS
 10
-3.8533839767
 20
-12.1151443875
 11
-5.4089395323
 21
-9.0918602603
  0
LWPOLYLINE
  5
266
100
AcDbEntity
  8
RACCORDO
100
AcDbPolyline
 62
250
  6
CONTINUOUS
 90
37
 70
0
 10
-4.3115566375
 20
-12.3508857197
 10
-4.2876352192
 20
-12.4040568432
 10
-4.2688412907
 20
-12.4578366195
 10
-4.2551748521
 20
-12.5122250487
 10
-4.2466660399
 20
-12.5675328467
 10
-4.2432847176
 20
-12.6234492976
 10
-4.2449404753
 20
-12.679042253
 10
-4.2516987712
 20
-12.7344718632
 10
-4.2634941472
 20
-12.7895779781
 10
-4.2800398191
 20
-12.8429479984
 10
-4.3014508352
 20
-12.8945093247
 10
-4.3276121473
 20
-12.9443345565
 10
-4.3578918272
 20
-12.9912288935
 10
-4.3923959801
 20
-13.0351299819
 10
-4.4310185008
 20
-13.0761001755
 10
-4.4728091459
 20
-13.1131317352
 10
-4.5178358959
 20
-13.1461223165
 10
-4.5660307704
 20
-13.1751742639
 10
-4.6162395844
 20
-13.1995868722
 10
-4.6685421909
 20
-13.2192499788
 10
-4.722858737
 20
-13.2342737464
 10
-4.777795479
 20
-13.2442879573
 10
-4.8336324397
 20
-13.2490302743
 10
-4.8900895963
 20
-13.2487630345
 10
-4.9449331376
 20
-13.2439030328
 10
-4.9979850415
 20
-13.2340556798
 10
-5.0494233299
 20
-13.2196155649
 10
-5.0975482582
 20
-13.20218325
 10
-5.1414811804
 20
-13.1821480793
 10
-5.1821007424
 20
-13.1591207088
 10
-5.2203431361
 20
-13.1335336683
 10
-5.2562756805
 20
-13.1059721031
 10
-5.2898310566
 20
-13.0758508681
 10
-5.3217434994
 20
-13.0418470577
 10
-5.3522577539
 20
-13.0035197036
 10
-5.381129075
 20
-12.9613097742
 10
-5.4083574628
 20
-12.9152172695
  0
LINE
  5
267
100
AcDbEntity
  8
RACCORDO
100
AcDbLine
 62
250
  6
CONTINUOUS
 10
5.4089395323
 20
-9.0918602603
 11
5.867112193
 21
-9.3276015925
  0
LINE
  5
268
100
AcDbEntity
  8
RACCORDO
100
AcDbLine
 62
250
  6
CONTINUOUS
 10
6.9639130183
 20
-9.8919331424
 11
7.4220856791
 21
-10.1276744746
  0
LWPOLYLINE
  5
269
100
AcDbEntity
  8
RACCORDO
100
AcDbPolyline
 62
250
  6
CONTINUOUS
 90
28
 70
0
 10
-3.7657458292
 20
-15.5222148424
 10
-3.7602451735
 20
-15.653096885
 10
-3.7456730362
 20
-15.7809114851
 10
-3.7220294174
 20
-15.9056586427
 10
-3.6883843314
 20
-16.0285806149
 10
-3.6456677638
 20
-16.1484351446
 10
-3.5966696715
 20
-16.2614954608
 10
-3.541167081
 20
-16.3668663743
 10
-3.4793829659
 20
-16.4654430744
 10
-3.4147762033
 20
-16.5561843574
 10
-3.3477815719
 20
-16.6383761069
 10
-3.277964293
 20
-16.7127324393
 10
-3.2074789073
 20
-16.7803545005
 10
-3.136760005
 20
-16.841110056
 10
-3.0653729958
 20
-16.8951313403
 10
-2.9941686505
 20
-16.9439162024
 10
-2.9235258487
 20
-16.9875296573
 10
-2.8530657107
 20
-17.0259066901
 10
-2.782502368
 20
-17.0603501051
 10
-2.7124304697
 20
-17.091000722
 10
-2.6422553667
 20
-17.1177177211
 10
-2.5699072436
 20
-17.1413814472
 10
-2.4952084067
 20
-17.1624801608
 10
-2.4183365498
 20
-17.1805256015
 10
-2.3377549383
 20
-17.1949333323
 10
-2.2529513275
 20
-17.2055085411
 10
-2.1644379622
 20
-17.21244604
 10
-2.0722148424
 20
-17.2157458292
  0
LWPOLYLINE
  5
26A
100
AcDbEntity
  8
RACCORDO
100
AcDbPolyline
 62
250
  6
CONTINUOUS
 90
28
 70
0
 10
-3.5665068731
 20
-15.522214826
 10
-3.5622590054
 20
-15.6368328727
 10
-3.5494162879
 20
-15.7499179118
 10
-3.528234921
 20
-15.8608489237
 10
-3.4987911338
 20
-15.9697447996
 10
-3.4615402858
 20
-16.0753117045
 10
-3.4178277629
 20
-16.1750269942
 10
-3.3686752666
 20
-16.2682722879
 10
-3.3147416627
 20
-16.3552657539
 10
-3.2574335853
 20
-16.4351466604
 10
-3.1979482023
 20
-16.5076677364
 10
-3.1368325119
 20
-16.5734180057
 10
-3.0745391639
 20
-16.6329588051
 10
-3.0118265704
 20
-16.6864381062
 10
-2.9491501494
 20
-16.7342535551
 10
-2.8862801082
 20
-16.7772338307
 10
-2.8237202987
 20
-16.8155418047
 10
-2.7617182049
 20
-16.8494897677
 10
-2.6994312768
 20
-16.8798851626
 10
-2.6374320727
 20
-16.9066958759
 10
-2.5755781225
 20
-16.9302090089
 10
-2.5117306554
 20
-16.9512667145
 10
-2.445739751
 20
-16.9697599361
 10
-2.3779310568
 20
-16.9854286069
 10
-2.3067319836
 20
-16.9983599934
 10
-2.2316707819
 20
-17.0081965248
 10
-2.1534393366
 20
-17.014392671
 10
-2.0722148424
 20
-17.0165068895
  0
LINE
  5
26B
100
AcDbEntity
  8
RACCORDO
100
AcDbLine
 62
250
  6
CONTINUOUS
 10
-3.7657458292
 20
-15.1777851576
 11
-3.7657458292
 21
-15.5222148424
  0
LINE
  5
26C
100
AcDbEntity
  8
RACCORDO
100
AcDbLine
 62
250
  6
CONTINUOUS
 10
-3.5665068895
 20
-15.1777851576
 11
-3.5665068895
 21
-15.5222148424
  0
LINE
  5
26D
100
AcDbEntity
  8
RACCORDO
100
AcDbLine
 62
7
  6
CONTINUOUS
 10
-3.425
 20
-15.3192920471
 11
-3.425
 21
-15.3807079529
  0
LINE
  5
26E
100
AcDbEntity
  8
RACCORDO
100
AcDbLine
 62
250
  6
CONTINUOUS
 10
-14.227219422
 20
-3.1702614379
 11
-13.1435749953
 21
-2.6126991853
  0
LWPOLYLINE
  5
26F
100
AcDbEntity
  8
0
100
AcDbPolyline
 62
7
  6
CONTINUOUS
 90
2
 70
0
 43
0.3500000019
 10
23.2151074219
 20
-3.2857142334
 10
21.7151113281
 20
-3.2857142334
  0
LINE
  5
270
100
AcDbEntity
  8
RACCORDO
100
AcDbLine
 62
250
  6
CONTINUOUS
 10
-2.0722148424
 20
-13.6834931105
 11
-2.0722148424
 21
-13.4842541708
  0
LINE
  5
271
100
AcDbEntity
  8
RACCORDO
100
AcDbLine
 62
250
  6
CONTINUOUS
 10
-2.0722148424
 20
-17.0165068895
 11
-2.0722148424
 21
-17.2157458292
  0
LWPOLYLINE
  5
272
100
AcDbEntity
  8
0
100
AcDbPolyline
 62
7
  6
CONTINUOUS
 90
13
 70
0
 43
0.3500000019
 10
22.3579667969
 20
-1.9285714417
 10
21.0722558594
 20
-1.9285714417
 10
20.6436855469
 20
-1.7142857819
 10
20.2151152344
 20
-1.2857142944
 10
20.2151152344
 20
-1.0714285507
 10
20.6436855469
 20
-0.6428571472
 10
21.0722558594
 20
-0.4285714455
 10
22.3579667969
 20
-0.4285714455
 10
22.7865371094
 20
-0.6428571472
 10
23.2151074219
 20
-1.0714285507
 10
23.2151074219
 20
-1.2857142944
 10
22.7865371094
 20
-1.7142857819
 10
22.3579667969
 20
-1.9285714417
  0
LWPOLYLINE
  5
273
100
AcDbEntity
  8
RACCORDO
100
AcDbPolyline
 62
250
  6
CONTINUOUS
 90
28
 70
0
 10
3.7657458292
 20
-15.1777851576
 10
3.7602451735
 20
-15.046903115
 10
3.7456730362
 20
-14.9190885149
 10
3.7220294174
 20
-14.7943413573
 10
3.6883843314
 20
-14.6714193851
 10
3.6456677638
 20
-14.5515648554
 10
3.5966696715
 20
-14.4385045392
 10
3.541167081
 20
-14.3331336257
 10
3.4793829659
 20
-14.2345569256
 10
3.4147762033
 20
-14.1438156426
 10
3.3477815719
 20
-14.0616238931
 10
3.277964293
 20
-13.9872675607
 10
3.2074789073
 20
-13.9196454995
 10
3.136760005
 20
-13.858889944
 10
3.0653729958
 20
-13.8048686597
 10
2.9941686505
 20
-13.7560837976
 10
2.9235258487
 20
-13.7124703427
 10
2.8530657107
 20
-13.6740933099
 10
2.782502368
 20
-13.6396498949
 10
2.7124304697
 20
-13.608999278
 10
2.6422553667
 20
-13.5822822789
 10
2.5699072436
 20
-13.5586185528
 10
2.4952084067
 20
-13.5375198392
 10
2.4183365498
 20
-13.5194743985
 10
2.3377549383
 20
-13.5050666677
 10
2.2529513275
 20
-13.4944914589
 10
2.1644379622
 20
-13.48755396
 10
2.0722148424
 20
-13.4842541708
  0
LWPOLYLINE
  5
274
100
AcDbEntity
  8
RACCORDO
100
AcDbPolyline
 62
250
  6
CONTINUOUS
 90
28
 70
0
 10
3.5665068731
 20
-15.177785174
 10
3.5622590054
 20
-15.0631671273
 10
3.5494162879
 20
-14.9500820882
 10
3.528234921
 20
-14.8391510763
 10
3.4987911338
 20
-14.7302552004
 10
3.4615402858
 20
-14.6246882955
 10
3.4178277629
 20
-14.5249730058
 10
3.3686752666
 20
-14.4317277121
 10
3.3147416627
 20
-14.3447342461
 10
3.2574335853
 20
-14.2648533396
 10
3.1979482023
 20
-14.1923322636
 10
3.1368325119
 20
-14.1265819943
 10
3.0745391639
 20
-14.0670411949
 10
3.0118265704
 20
-14.0135618938
 10
2.9491501494
 20
-13.9657464449
 10
2.8862801082
 20
-13.9227661693
 10
2.8237202987
 20
-13.8844581953
 10
2.7617182049
 20
-13.8505102323
 10
2.6994312768
 20
-13.8201148374
 10
2.6374320727
 20
-13.7933041241
 10
2.5755781225
 20
-13.7697909911
 10
2.5117306554
 20
-13.7487332855
 10
2.445739751
 20
-13.7302400639
 10
2.3779310568
 20
-13.7145713931
 10
2.3067319836
 20
-13.7016400066
 10
2.2316707819
 20
-13.6918034752
 10
2.1534393366
 20
-13.685607329
 10
2.0722148424
 20
-13.6834931105
  0
LINE
  5
275
100
AcDbEntity
  8
RACCORDO
100
AcDbLine
 62
250
  6
CONTINUOUS
 10
2.0722148424
 20
-13.6834931105
 11
2.0722148424
 21
-13.4842541708
  0
LINE
  5
276
100
AcDbEntity
  8
RACCORDO
100
AcDbLine
 62
250
  6
CONTINUOUS
 10
2.0722148424
 20
-17.0165068895
 11
2.0722148424
 21
-17.2157458292
  0
LINE
  5
277
100
AcDbEntity
  8
RACCORDO
100
AcDbLine
 62
7
  6
CONTINUOUS
 10
3.425
 20
-15.3807079529
 11
3.425
 21
-15.3192920471
  0
LINE
  5
278
100
AcDbEntity
  8
RACCORDO
100
AcDbLine
 62
250
  6
CONTINUOUS
 10
3.5665068895
 20
-15.5222148424
 11
3.5665068895
 21
-15.1777851576
  0
LINE
  5
279
100
AcDbEntity
  8
RACCORDO
100
AcDbLine
 62
250
  6
CONTINUOUS
 10
3.7657458292
 20
-15.5222148424
 11
3.7657458292
 21
-15.1777851576
  0
LWPOLYLINE
  5
27A
100
AcDbEntity
  8
RACCORDO
100
AcDbPolyline
 62
7
  6
CONTINUOUS
 90
22
 70
0
 10
3.425
 20
-15.3807079529
 10
3.4208435291
 20
-15.4925666676
 10
3.4083709587
 20
-15.6037746807
 10
3.3876468082
 20
-15.7137198086
 10
3.3587751111
 20
-15.8218266132
 10
3.321912491
 20
-15.9274646286
 10
3.2772881462
 20
-16.0299589371
 10
3.2251970996
 20
-16.1286835892
 10
3.1659137581
 20
-16.2231690354
 10
3.0996911033
 20
-16.312997944
 10
3.026815047
 20
-16.3977332456
 10
2.9477332456
 20
-16.476815047
 10
2.862997944
 20
-16.5496911033
 10
2.7731690354
 20
-16.6159137581
 10
2.6786835892
 20
-16.6751970996
 10
2.5799589371
 20
-16.7272881462
 10
2.4774646286
 20
-16.771912491
 10
2.3718266132
 20
-16.8087751111
 10
2.2637198086
 20
-16.8376468082
 10
2.1537746807
 20
-16.8583709587
 10
2.0425666676
 20
-16.8708435291
 10
1.9307079529
 20
-16.875
  0
LINE
  5
27B
100
AcDbEntity
  8
RACCORDO
100
AcDbLine
 62
250
  6
CONTINUOUS
 10
13.1435749953
 20
-2.6126991853
 11
14.227219422
 21
-3.1702614379
  0
LWPOLYLINE
  5
27C
100
AcDbEntity
  8
0
100
AcDbPolyline
 62
7
  6
CONTINUOUS
 90
2
 70
0
 43
0.3500000019
 10
21.5530546875
 20
24.29796875
 10
24.0530517578
 20
28.7979677734
  0
LINE
  5
27D
100
AcDbEntity
  8
RACCORDO
100
AcDbLine
 62
250
  6
CONTINUOUS
 10
-6.9639130183
 20
-9.8919331424
 11
-7.4220856791
 21
-10.1276744746
  0
LINE
  5
27E
100
AcDbEntity
  8
RACCORDO
100
AcDbLine
 62
250
  6
CONTINUOUS
 10
-5.867112193
 20
-9.3276015925
 11
-5.4089395323
 21
-9.0918602603
  0
LINE
  5
27F
100
AcDbEntity
  8
RACCORDO
100
AcDbLine
 62
250
  6
CONTINUOUS
 10
-3.5665068895
 20
-15.5222148424
 11
-3.425
 21
-15.3807079529
  0
LWPOLYLINE
  5
280
100
AcDbEntity
  8
0
100
AcDbPolyline
 62
7
  6
CONTINUOUS
 90
3
 70
0
 43
0.3500000019
 10
22.9293974609
 20
1.142857132
 10
23.1436826172
 20
1.0714285507
 10
23.4293925781
 20
0.9285713882
  0
LINE
  5
281
100
AcDbEntity
  8
RACCORDO
100
AcDbLine
 62
250
  6
CONTINUOUS
 10
3.8533839767
 20
-12.1151443875
 11
5.4089395323
 21
-9.0918602603
  0
LINE
  5
282
100
AcDbEntity
  8
RACCORDO
100
AcDbLine
 62
250
  6
CONTINUOUS
 10
4.0305474837
 20
-12.2062994579
 11
5.5861030392
 21
-9.1830153307
  0
LINE
  5
283
100
AcDbEntity
  8
RACCORDO
100
AcDbLine
 62
250
  6
CONTINUOUS
 10
4.1343931305
 20
-12.2597306493
 11
5.6899486861
 21
-9.2364465221
  0
LINE
  5
284
100
AcDbEntity
  8
RACCORDO
100
AcDbLine
 62
250
  6
CONTINUOUS
 10
4.3115566375
 20
-12.3508857197
 11
5.867112193
 21
-9.3276015925
  0
LWPOLYLINE
  5
285
100
AcDbEntity
  8
RACCORDO
100
AcDbPolyline
 62
250
  6
CONTINUOUS
 90
40
 70
0
 10
5.4089395323
 20
-9.0918602603
 10
5.4563158919
 20
-9.0091616649
 10
5.5092013008
 20
-8.9318075615
 10
5.5675957591
 20
-8.8597979499
 10
5.6319003423
 20
-8.7928331944
 10
5.7017139747
 20
-8.7312129308
 10
5.7758334302
 20
-8.6758360663
 10
5.8544184096
 20
-8.626710042
 10
5.9373092119
 20
-8.5838274167
 10
6.0228235085
 20
-8.5480647741
 10
6.1110005819
 20
-8.519573614
 10
6.2018011495
 20
-8.4982024365
 10
6.2934250353
 20
-8.4843733258
 10
6.3858958139
 20
-8.4782360454
 10
6.4791899108
 20
-8.4796408319
 10
6.5714364266
 20
-8.4885604794
 10
6.6626107466
 20
-8.5051463414
 10
6.7527374856
 20
-8.5292470644
 10
6.8400195886
 20
-8.5603813826
 10
6.9244008857
 20
-8.5986905263
 10
7.0059375467
 20
-8.6440332652
 10
7.0830010266
 20
-8.6955046417
 10
7.1555020945
 20
-8.7532290139
 10
7.2235299813
 20
-8.8170820239
 10
7.2857238341
 20
-8.88578564
 10
7.3419648426
 20
-8.959435422
 10
7.3923718172
 20
-9.0379358102
 10
7.4359403365
 20
-9.1197220941
 10
7.4725305069
 20
-9.2049430799
 10
7.5022822221
 20
-9.2934499613
 10
7.5246107416
 20
-9.3832316094
 10
7.5391755498
 20
-9.4746999947
 10
7.5463171624
 20
-9.5674431466
 10
7.5464723857
 20
-9.6582140236
 10
7.5390267288
 20
-9.746939647
 10
7.5245946827
 20
-9.8336929954
 10
7.5054565268
 20
-9.915445963
 10
7.4823723541
 20
-9.9911891811
 10
7.4545820715
 20
-10.0619320183
 10
7.4220856791
 20
-10.1276744746
  0
LWPOLYLINE
  5
286
100
AcDbEntity
  8
RACCORDO
100
AcDbPolyline
 62
250
  6
CONTINUOUS
 90
37
 70
0
 10
5.867112193
 20
-9.3276015925
 10
5.8964678821
 20
-9.2772265377
 10
5.9292997055
 20
-9.2306696106
 10
5.9656076634
 20
-9.1879308113
 10
6.0056620895
 20
-9.1488540233
 10
6.0491926499
 20
-9.1135953631
 10
6.0953883437
 20
-9.0826231803
 10
6.1444175313
 20
-9.0558976303
 10
6.1961118522
 20
-9.0334585579
 10
6.2491552236
 20
-9.0158938468
 10
6.3035554593
 20
-9.003339312
 10
6.3593047455
 20
-8.9956591387
 10
6.4150635589
 20
-8.9930337657
 10
6.4708428505
 20
-8.9955857753
 10
6.5266316694
 20
-9.0031925852
 10
6.5810576392
 20
-9.0156668886
 10
6.6340770085
 20
-9.0331234962
 10
6.6857335287
 20
-9.0554475973
 10
6.7347860783
 20
-9.0821074516
 10
6.7811914467
 20
-9.1132320752
 10
6.8249928444
 20
-9.148692452
 10
6.8650787812
 20
-9.187569794
 10
6.9013985999
 20
-9.2302444529
 10
6.9340029578
 20
-9.2763360769
 10
6.9619323357
 20
-9.3237848228
 10
6.9847621823
 20
-9.3726752407
 10
7.002917049
 20
-9.4229227805
 10
7.0167110706
 20
-9.472213949
 10
7.0259502288
 20
-9.5196074894
 10
7.0308285418
 20
-9.5660446585
 10
7.0322421993
 20
-9.6120357325
 10
7.0307064399
 20
-9.6572953068
 10
7.025706025
 20
-9.702108786
 10
7.016591428
 20
-9.7478426602
 10
7.0031461402
 20
-9.794952426
 10
6.9855866703
 20
-9.8429825867
 10
6.9639130183
 20
-9.8919331424
  0
LINE
  5
287
100
AcDbEntity
  8
RACCORDO
100
AcDbLine
 62
250
  6
CONTINUOUS
 10
-5.8665301236
 20
-13.1509586018
 11
-5.4083574628
 21
-12.9152172695
  0
LINE
  5
288
100
AcDbEntity
  8
RACCORDO
100
AcDbLine
 62
250
  6
CONTINUOUS
 10
-4.3115566375
 20
-12.3508857197
 11
-3.8533839767
 21
-12.1151443875
  0
LINE
  5
289
100
AcDbEntity
  8
RACCORDO
100
AcDbLine
 62
250
  6
CONTINUOUS
 10
-8.0028109249
 20
-15.2676470588
 11
-6.9191664981
 21
-14.7100848062
  0
LWPOLYLINE
  5
28A
100
AcDbEntity
  8
0
100
AcDbPolyline
 62
7
  6
CONTINUOUS
 90
10
 70
0
 43
0.3500000019
 10
22.7151123047
 20
1.0714285507
 10
22.8579726563
 20
1.142857132
 10
22.9293974609
 20
1.142857132
 10
23.0722578125
 20
0.9999999695
 10
23.0722578125
 20
0.9285713882
 10
23.0008222656
 20
0.8571428909
 10
22.9293974609
 20
0.8571428909
 10
22.7865371094
 20
0.9285713882
 10
22.7151123047
 20
0.9999999695
 10
22.7151123047
 20
1.0714285507
  0
LWPOLYLINE
  5
28B
100
AcDbEntity
  8
0
100
AcDbPolyline
 62
7
  6
CONTINUOUS
 90
13
 70
0
 43
0.3500000019
 10
21.3030517578
 20
26.5479682617
 10
21.5530546875
 20
27.2979689941
 10
22.0530498047
 20
27.7979694824
 10
22.8030478516
 20
28.047967041
 10
23.5530566406
 20
27.7979694824
 10
24.0530517578
 20
27.2979689941
 10
24.3030546875
 20
26.5479682617
 10
24.0530517578
 20
25.7979675293
 10
23.5530566406
 20
25.297967041
 10
22.8030478516
 20
25.0479694824
 10
22.0530498047
 20
25.297967041
 10
21.5530546875
 20
25.7979675293
 10
21.3030517578
 20
26.5479682617
  0
LINE
  5
28C
100
AcDbEntity
  8
RACCORDO
100
AcDbLine
 62
250
  6
CONTINUOUS
 10
6.9639130183
 20
-9.8919331424
 11
5.4083574628
 21
-12.9152172695
  0
LINE
  5
28D
100
AcDbEntity
  8
RACCORDO
100
AcDbLine
 62
250
  6
CONTINUOUS
 10
7.1410765253
 20
-9.9830882128
 11
5.5855209697
 21
-13.00637234
  0
LINE
  5
28E
100
AcDbEntity
  8
RACCORDO
100
AcDbLine
 62
250
  6
CONTINUOUS
 10
7.2449221721
 20
-10.0365194042
 11
5.6893666166
 21
-13.0598035314
  0
LINE
  5
28F
100
AcDbEntity
  8
RACCORDO
100
AcDbLine
 62
250
  6
CONTINUOUS
 10
7.4220856791
 20
-10.1276744746
 11
5.8665301236
 21
-13.1509586018
  0
LWPOLYLINE
  5
290
100
AcDbEntity
  8
RACCORDO
100
AcDbPolyline
 62
250
  6
CONTINUOUS
 90
40
 70
0
 10
5.8665301236
 20
-13.1509586018
 10
5.8192005344
 20
-13.2336092765
 10
5.7663365101
 20
-13.3109392007
 10
5.7079380507
 20
-13.3829483744
 10
5.6436135622
 20
-13.4499418663
 10
5.5737546386
 20
-13.5116146078
 10
5.4995360619
 20
-13.5670513926
 10
5.4207708824
 20
-13.6162541815
 10
5.3376460498
 20
-13.6592210138
 10
5.2518971949
 20
-13.6950308007
 10
5.1635025537
 20
-13.7235164602
 10
5.0724838903
 20
-13.7448450744
 10
4.980642127
 20
-13.7585968007
 10
4.8879473623
 20
-13.7646220908
 10
4.7944294977
 20
-13.763070493
 10
4.70197916
 20
-13.7539708093
 10
4.6106244121
 20
-13.7371700029
 10
4.5203371911
 20
-13.7128211105
 10
4.4329239343
 20
-13.6814120441
 10
4.3484394856
 20
-13.6427988681
 10
4.2668290012
 20
-13.597125518
 10
4.1897343875
 20
-13.5453117131
 10
4.1172505984
 20
-13.487237218
 10
4.04928268
 20
-13.4230222681
 10
3.9871876773
 20
-13.3539472884
 10
3.9310359326
 20
-13.2796921375
 10
3.8807571037
 20
-13.200576957
 10
3.8374972082
 20
-13.1188425969
 10
3.8016186931
 20
-13.0339730256
 10
3.7727591113
 20
-12.9464842748
 10
3.7509771396
 20
-12.8601652895
 10
3.7366657861
 20
-12.776442007
 10
3.7294320426
 20
-12.6938884899
 10
3.7281555605
 20
-12.6120158715
 10
3.7320915747
 20
-12.5313633037
 10
3.7419848502
 20
-12.4513916346
 10
3.7589493336
 20
-12.3699945408
 10
3.7833563402
 20
-12.2864699144
 10
3.8148345546
 20
-12.2015198633
 10
3.8533839767
 20
-12.1151443875
  0
LWPOLYLINE
  5
291
100
AcDbEntity
  8
RACCORDO
100
AcDbPolyline
 62
250
  6
CONTINUOUS
 90
37
 70
0
 10
5.4083574628
 20
-12.9152172695
 10
5.3798505237
 20
-12.9643370037
 10
5.3479786536
 20
-13.0098630478
 10
5.3127418524
 20
-13.051795402
 10
5.2738888336
 20
-13.0902906294
 10
5.2316708838
 20
-13.1251921669
 10
5.1868418625
 20
-13.1560303246
 10
5.1392405442
 20
-13.1828412846
 10
5.0890281546
 20
-13.2055888647
 10
5.0374422299
 20
-13.2236948287
 10
4.9844803571
 20
-13.2370308115
 10
4.9301449493
 20
-13.2457251782
 10
4.8756807818
 20
-13.2495847876
 10
4.821075135
 20
-13.2484998152
 10
4.7663407285
 20
-13.2425800855
 10
4.7127604962
 20
-13.2319619317
 10
4.6603615629
 20
-13.2165327202
 10
4.609116804
 20
-13.1964050846
 10
4.5602277792
 20
-13.1720532583
 10
4.5137564214
 20
-13.1433843982
 10
4.4696407979
 20
-13.1104913475
 10
4.4288966708
 20
-13.0741268697
 10
4.3915711526
 20
-13.0341182526
 10
4.3576171308
 20
-12.9906382084
 10
4.3279090308
 20
-12.944957638
 10
4.3026325712
 20
-12.8966936116
 10
4.2816020334
 20
-12.8462290589
 10
4.2651346874
 20
-12.7959836703
 10
4.2535562124
 20
-12.7467584396
 10
4.2465409291
 20
-12.697752373
 10
4.2434290699
 20
-12.64898218
 10
4.2437730694
 20
-12.6008409142
 10
4.2480204929
 20
-12.5529355219
 10
4.2568542686
 20
-12.5041035514
 10
4.2705020393
 20
-12.453957519
 10
4.2887361623
 20
-12.4028849084
 10
4.3115566375
 20
-12.3508857197
  0
LINE
  5
292
100
AcDbEntity
  8
RACCORDO
100
AcDbLine
 62
250
  6
CONTINUOUS
 10
-2.0722148424
 20
-17.0165068895
 11
-1.9307079529
 21
-16.875
  0
LINE
  5
293
100
AcDbEntity
  8
RACCORDO
100
AcDbLine
 62
250
  6
CONTINUOUS
 10
2.0722148424
 20
-13.6834931105
 11
1.9307079529
 21
-13.825
  0
LINE
  5
294
100
AcDbEntity
  8
RACCORDO
100
AcDbLine
 62
250
  6
CONTINUOUS
 10
6.9191664981
 20
-14.7100848062
 11
13.1435749953
 21
-2.6126991853
  0
LINE
  5
295
100
AcDbEntity
  8
RACCORDO
100
AcDbLine
 62
250
  6
CONTINUOUS
 10
7.2307911825
 20
-14.8704235268
 11
13.4551996796
 21
-2.7730379059
  0
LINE
  5
296
100
AcDbEntity
  8
RACCORDO
100
AcDbLine
 62
250
  6
CONTINUOUS
 10
3.5665068895
 20
-15.1777851576
 11
3.425
 21
-15.3192920471
  0
LINE
  5
297
100
AcDbEntity
  8
RACCORDO
100
AcDbLine
 62
250
  6
CONTINUOUS
 10
14.0847979164
 20
-3.0969819991
 11
7.8603894193
 21
-15.19436762
  0
LINE
  5
298
100
AcDbEntity
  8
RACCORDO
100
AcDbLine
 62
250
  6
CONTINUOUS
 10
14.2177061242
 20
-3.1653666075
 11
7.9932976271
 21
-15.2627522284
  0
LINE
  5
299
100
AcDbEntity
  8
DRAFT
100
AcDbLine
 62
7
  6
CONTINUOUS
 10
8.0028109249
 20
-15.2676470588
 11
14.227219422
 21
-3.1702614379
  0
LWPOLYLINE
  5
29A
100
AcDbEntity
  8
0
100
AcDbPolyline
 62
7
  6
CONTINUOUS
 90
5
 70
0
 43
0.3500000019
 10
21.5008261719
 20
2.9999999084
 10
21.2865410156
 20
3.3571427307
 10
20.6436855469
 20
3.3571427307
 10
20.2151152344
 20
2.9999999084
 10
20.2151152344
 20
2.1428571014
  0
LWPOLYLINE
  5
29B
100
AcDbEntity
  8
0
100
AcDbPolyline
 62
7
  6
CONTINUOUS
 90
3
 70
0
 43
0.3500000019
 10
22.5722519531
 20
-2.7857142487
 10
22.5722519531
 20
-4.2857142029
 10
20.2151152344
 20
-3.6428570557
  0
LWPOLYLINE
  5
29C
100
AcDbEntity
  8
0
100
AcDbPolyline
 62
7
  6
CONTINUOUS
 90
6
 70
0
 43
0.3500000019
 10
23.2151074219
 20
2.1428571014
 10
23.2151074219
 20
3.2142857361
 10
23.0008222656
 20
3.4285715637
 10
21.9293964844
 20
3.4285715637
 10
21.5008261719
 20
2.9999999084
 10
21.5008261719
 20
2.5714285889
  0
LWPOLYLINE
  5
29D
100
AcDbEntity
  8
0
100
AcDbPolyline
 62
7
  6
CONTINUOUS
 90
7
 70
0
 43
0.3500000019
 10
28.9459140625
 20
25.0479694824
 10
27.4459072266
 20
25.0479694824
 10
28.9459140625
 20
27.190826416
 10
28.9459140625
 20
27.6193967285
 10
28.5173330078
 20
28.047967041
 10
27.8744775391
 20
28.047967041
 10
27.4459072266
 20
27.4051115723
  0
LWPOLYLINE
  5
29E
100
AcDbEntity
  8
0
100
AcDbPolyline
 62
7
  6
CONTINUOUS
 90
6
 70
0
 43
0.3500000019
 10
25.3030556641
 20
25.0479694824
 10
26.3744814453
 20
25.0479694824
 10
26.5887666016
 20
25.2622546387
 10
26.5887666016
 20
26.3336831055
 10
26.1601962891
 20
26.762253418
 10
25.7316259766
 20
26.762253418
  0
LWPOLYLINE
  5
29F
100
AcDbEntity
  8
0
100
AcDbPolyline
 62
7
  6
CONTINUOUS
 90
3
 70
0
 43
0.3500000019
 10
-66.6840619812
 20
28.6689836426
 10
-66.7554904785
 20
28.4546984863
 10
-66.8983474731
 20
28.1689831543
  0
LWPOLYLINE
  5
2A0
100
AcDbEntity
  8
0
100
AcDbPolyline
 62
7
  6
CONTINUOUS
 90
10
 70
0
 43
0.3500000019
 10
-64.6126335449
 20
31.3832685547
 10
-65.2554903564
 20
30.7404130859
 10
-65.6840620117
 20
29.8832697754
 10
-65.6840620117
 20
28.8118413086
 10
-65.2554903564
 20
28.3832683105
 10
-64.6126335449
 20
28.3832683105
 10
-64.1840618896
 20
28.8118413086
 10
-64.1840618896
 20
29.6689819336
 10
-64.6126335449
 20
30.0975549316
 10
-65.5412046814
 20
30.0975549316
  0
LWPOLYLINE
  5
2A1
100
AcDbEntity
  8
0
100
AcDbPolyline
 62
7
  6
CONTINUOUS
 90
5
 70
0
 43
0.3500000019
 10
-68.6840619202
 20
30.0975549316
 10
-68.3269190979
 20
30.3118400879
 10
-68.3269190979
 20
30.9546982422
 10
-68.6840619202
 20
31.3832685547
 10
-69.5412047272
 20
31.3832685547
  0
LINE
  5
2A2
100
AcDbEntity
  8
DRAFT
100
AcDbLine
 62
7
  6
CONTINUOUS
 10
-49.1139908996
 20
-20.1393012992
 11
-49.7269190601
 21
-20.15
  0
LINE
  5
2A3
100
AcDbEntity
  8
DRAFT
100
AcDbLine
 62
7
  6
CONTINUOUS
 10
-49.7269190601
 20
-20.15
 11
-50.3398472206
 21
-20.1393012992
  0
LINE
  5
2A4
100
AcDbEntity
  8
DRAFT
100
AcDbLine
 62
7
  6
CONTINUOUS
 10
-51.3835442846
 20
19.2817828514
 11
-50.6877462419
 21
19.9898320837
  0
LWPOLYLINE
  5
2A5
100
AcDbEntity
  8
RACCORDO
100
AcDbPolyline
 62
250
  6
CONTINUOUS
 90
10
 70
0
 10
-49.1139908996
 20
-15.2627522284
 10
-49.0709350534
 20
-15.2615569867
 10
-49.0282645965
 20
-15.2586683619
 10
-48.9862971044
 20
-15.2541078527
 10
-48.9453449214
 20
-15.2479094008
 10
-48.905712835
 20
-15.2401191383
 10
-48.8676958079
 20
-15.2307950444
 10
-48.8315767827
 20
-15.2200065138
 10
-48.7976245761
 20
-15.2078338406
 10
-48.7660918782
 20
-15.19436762
  0
LINE
  5
2A6
100
AcDbEntity
  8
RACCORDO
100
AcDbLine
 62
250
  6
CONTINUOUS
 10
-49.1139908996
 20
-15.2627522284
 11
-49.7269190601
 21
-15.2676470588
  0
LINE
  5
2A7
100
AcDbEntity
  8
RACCORDO
100
AcDbLine
 62
250
  6
CONTINUOUS
 10
-49.7269190601
 20
-15.2676470588
 11
-50.3398472206
 21
-15.2627522284
  0
LWPOLYLINE
  5
2A8
100
AcDbEntity
  8
RACCORDO
100
AcDbPolyline
 62
250
  6
CONTINUOUS
 90
10
 70
0
 10
-50.3398472206
 20
-15.2627522284
 10
-50.3829030667
 20
-15.2615569867
 10
-50.4255735236
 20
-15.2586683619
 10
-50.4675410157
 20
-15.2541078527
 10
-50.5084931987
 20
-15.2479094008
 10
-50.5481252851
 20
-15.2401191383
 10
-50.5861423122
 20
-15.2307950444
 10
-50.6222613374
 20
-15.2200065138
 10
-50.656213544
 20
-15.2078338406
 10
-50.6877462419
 20
-15.19436762
  0
LINE
  5
2A9
100
AcDbEntity
  8
DRAFT
100
AcDbLine
 62
7
  6
CONTINUOUS
 10
-51.3835442846
 20
-19.2817828514
 11
-50.6877462419
 21
-19.9898320837
  0
LINE
  5
2AA
100
AcDbEntity
  8
RACCORDO
100
AcDbLine
 62
250
  6
CONTINUOUS
 10
-51.3835442846
 20
-14.8704235268
 11
-50.6877462419
 21
-15.19436762
  0
LWPOLYLINE
  5
2AB
100
AcDbEntity
  8
RACCORDO
100
AcDbPolyline
 62
250
  6
CONTINUOUS
 90
10
 70
0
 10
-51.5269190601
 20
-14.7100848062
 10
-51.5250584292
 20
-14.729801419
 10
-51.5194903846
 20
-14.7493712904
 10
-51.5102563664
 20
-14.7686487712
 10
-51.4974250991
 20
-14.7874903883
 10
-51.4810920796
 20
-14.8057559126
 10
-51.4613788668
 20
-14.8233094025
 10
-51.4384321769
 20
-14.8400202157
 10
-51.412422791
 20
-14.8557639816
 10
-51.3835442846
 20
-14.8704235268
  0
LWPOLYLINE
  5
2AC
100
AcDbEntity
  8
RACCORDO
100
AcDbPolyline
 62
250
  6
CONTINUOUS
 90
10
 70
0
 10
-49.1139908996
 20
-3.1653666075
 10
-49.0709350534
 20
-3.1641713658
 10
-49.0282645965
 20
-3.161282741
 10
-48.9862971044
 20
-3.1567222318
 10
-48.9453449214
 20
-3.1505237799
 10
-48.905712835
 20
-3.1427335174
 10
-48.8676958079
 20
-3.1334094234
 10
-48.8315767827
 20
-3.1226208929
 10
-48.7976245761
 20
-3.1104482197
 10
-48.7660918782
 20
-3.0969819991
  0
LINE
  5
2AD
100
AcDbEntity
  8
RACCORDO
100
AcDbLine
 62
250
  6
CONTINUOUS
 10
-49.7269190601
 20
-3.1702614379
 11
-49.1139908996
 21
-3.1653666075
  0
LINE
  5
2AE
100
AcDbEntity
  8
RACCORDO
100
AcDbLine
 62
250
  6
CONTINUOUS
 10
-50.3398472206
 20
-3.1653666075
 11
-49.7269190601
 21
-3.1702614379
  0
LWPOLYLINE
  5
2AF
100
AcDbEntity
  8
RACCORDO
100
AcDbPolyline
 62
250
  6
CONTINUOUS
 90
10
 70
0
 10
-50.3398472206
 20
-3.1653666075
 10
-50.3829030667
 20
-3.1641713658
 10
-50.4255735236
 20
-3.161282741
 10
-50.4675410157
 20
-3.1567222318
 10
-50.5084931987
 20
-3.1505237799
 10
-50.5481252851
 20
-3.1427335174
 10
-50.5861423122
 20
-3.1334094234
 10
-50.6222613374
 20
-3.1226208929
 10
-50.656213544
 20
-3.1104482197
 10
-50.6877462419
 20
-3.0969819991
  0
LINE
  5
2B0
100
AcDbEntity
  8
RACCORDO
100
AcDbLine
 62
250
  6
CONTINUOUS
 10
-51.3835442846
 20
-2.7730379059
 11
-50.6877462419
 21
-3.0969819991
  0
LWPOLYLINE
  5
2B1
100
AcDbEntity
  8
RACCORDO
100
AcDbPolyline
 62
250
  6
CONTINUOUS
 90
10
 70
0
 10
-51.5269190601
 20
-2.6126991853
 10
-51.5250584292
 20
-2.632415798
 10
-51.5194903846
 20
-2.6519856694
 10
-51.5102563664
 20
-2.6712631503
 10
-51.4974250991
 20
-2.6901047674
 10
-51.4810920796
 20
-2.7083702917
 10
-51.4613788668
 20
-2.7259237816
 10
-51.4384321769
 20
-2.7426345948
 10
-51.412422791
 20
-2.7583783607
 10
-51.3835442846
 20
-2.7730379059
  0
LINE
  5
2B2
100
AcDbEntity
  8
RACCORDO
100
AcDbLine
 62
7
  6
CONTINUOUS
 10
-51.5269190601
 20
-18.9313282193
 11
-51.5269190601
 21
18.9313282193
  0
LINE
  5
2B3
100
AcDbEntity
  8
RACCORDO
100
AcDbLine
 62
250
  6
CONTINUOUS
 10
-51.3835442846
 20
-19.2817828514
 11
-51.3835442846
 21
19.2817828514
  0
LWPOLYLINE
  5
2B4
100
AcDbEntity
  8
0
100
AcDbPolyline
 62
7
  6
CONTINUOUS
 90
10
 70
0
 43
0.3500000019
 10
-66.7554904785
 20
28.8832687988
 10
-66.6840619812
 20
28.7404111328
 10
-66.6840619812
 20
28.6689836426
 10
-66.8269189758
 20
28.5261259766
 10
-66.8983474731
 20
28.5261259766
 10
-66.9697763062
 20
28.5975534668
 10
-66.9697763062
 20
28.6689836426
 10
-66.8983474731
 20
28.8118413086
 10
-66.8269189758
 20
28.8832687988
 10
-66.7554904785
 20
28.8832687988
  0
LINE
  5
2B5
100
AcDbEntity
  8
RACCORDO
100
AcDbLine
 62
250
  6
CONTINUOUS
 10
-50.6877462419
 20
19.9898320837
 11
-50.6877462419
 21
-19.9898320837
  0
LINE
  5
2B6
100
AcDbEntity
  8
RACCORDO
100
AcDbLine
 62
250
  6
CONTINUOUS
 10
-50.3398472206
 20
20.1393012992
 11
-50.3398472206
 21
-20.1393012992
  0
LINE
  5
2B7
100
AcDbEntity
  8
DRAFT
100
AcDbLine
 62
7
  6
CONTINUOUS
 10
-49.7269190601
 20
-20.15
 11
-49.7269190601
 21
20.15
  0
LINE
  5
2B8
100
AcDbEntity
  8
RACCORDO
100
AcDbLine
 62
250
  6
CONTINUOUS
 10
-49.1139908996
 20
-20.1393012992
 11
-49.1139908995
 21
20.1393012992
  0
LINE
  5
2B9
100
AcDbEntity
  8
RACCORDO
100
AcDbLine
 62
250
  6
CONTINUOUS
 10
-48.7660918782
 20
-19.9898320837
 11
-48.7660918782
 21
19.9898320837
  0
LINE
  5
2BA
100
AcDbEntity
  8
RACCORDO
100
AcDbLine
 62
250
  6
CONTINUOUS
 10
-48.0702938355
 20
19.2817828514
 11
-48.0702938355
 21
-19.2817828514
  0
LINE
  5
2BB
100
AcDbEntity
  8
RACCORDO
100
AcDbLine
 62
7
  6
CONTINUOUS
 10
-47.9269190601
 20
18.9313282193
 11
-47.9269190601
 21
-18.9313282193
  0
LWPOLYLINE
  5
2BC
100
AcDbEntity
  8
RACCORDO
100
AcDbPolyline
 62
250
  6
CONTINUOUS
 90
10
 70
0
 10
-47.9269190601
 20
-2.6126991853
 10
-47.9287796909
 20
-2.632415798
 10
-47.9343477355
 20
-2.6519856694
 10
-47.9435817537
 20
-2.6712631503
 10
-47.956413021
 20
-2.6901047674
 10
-47.9727460405
 20
-2.7083702917
 10
-47.9924592533
 20
-2.7259237816
 10
-48.0154059432
 20
-2.7426345948
 10
-48.0414153291
 20
-2.7583783607
 10
-48.0702938355
 20
-2.7730379059
  0
LWPOLYLINE
  5
2BD
100
AcDbEntity
  8
RACCORDO
100
AcDbPolyline
 62
250
  6
CONTINUOUS
 90
10
 70
0
 10
-47.9269190601
 20
-14.7100848062
 10
-47.9287796909
 20
-14.729801419
 10
-47.9343477355
 20
-14.7493712904
 10
-47.9435817537
 20
-14.7686487712
 10
-47.956413021
 20
-14.7874903883
 10
-47.9727460405
 20
-14.8057559126
 10
-47.9924592533
 20
-14.8233094025
 10
-48.0154059432
 20
-14.8400202157
 10
-48.0414153291
 20
-14.8557639816
 10
-48.0702938355
 20
-14.8704235268
  0
LINE
  5
2BE
100
AcDbEntity
  8
RACCORDO
100
AcDbLine
 62
250
  6
CONTINUOUS
 10
-48.7660918782
 20
-3.0969819991
 11
-48.0702938355
 21
-2.7730379059
  0
LINE
  5
2BF
100
AcDbEntity
  8
DRAFT
100
AcDbLine
 62
7
  6
CONTINUOUS
 10
-48.0702938355
 20
-19.2817828514
 11
-48.7660918782
 21
-19.9898320837
  0
LINE
  5
2C0
100
AcDbEntity
  8
RACCORDO
100
AcDbLine
 62
250
  6
CONTINUOUS
 10
-48.7660918782
 20
-15.19436762
 11
-48.0702938355
 21
-14.8704235268
  0
LINE
  5
2C1
100
AcDbEntity
  8
DRAFT
100
AcDbLine
 62
7
  6
CONTINUOUS
 10
-48.0702938355
 20
19.2817828514
 11
-48.7660918782
 21
19.9898320837
  0
LINE
  5
2C2
100
AcDbEntity
  8
DRAFT
100
AcDbLine
 62
7
  6
CONTINUOUS
 10
-49.7269190601
 20
20.15
 11
-50.3398472206
 21
20.1393012992
  0
LWPOLYLINE
  5
2C3
100
AcDbEntity
  8
0
100
AcDbPolyline
 62
7
  6
CONTINUOUS
 90
6
 70
0
 43
0.3500000019
 10
-69.5412047272
 20
28.3832683105
 10
-68.4697762604
 20
28.3832683105
 10
-68.2554904327
 20
28.5975534668
 10
-68.2554904327
 20
29.6689819336
 10
-68.6840619202
 20
30.0975549316
 10
-69.1126334076
 20
30.0975549316
  0
LINE
  5
2C4
100
AcDbEntity
  8
DRAFT
100
AcDbLine
 62
7
  6
CONTINUOUS
 10
-49.1139908995
 20
20.1393012992
 11
-49.7269190601
 21
20.15
  0
ARC
  5
2C5
100
AcDbEntity
  8
DRAFT
100
AcDbCircle
 62
7
  6
CONTINUOUS
 10
0.0
 20
4.15
 40
16.0
100
AcDbArc
 50
332.7730427857
 51
207.2269572143
  0
ARC
  5
2C6
100
AcDbEntity
  8
RACCORDO
100
AcDbCircle
 62
250
  6
CONTINUOUS
 10
0.0
 20
4.15
 40
15.9893012992
100
AcDbArc
 50
332.7730427857
 51
207.2269572143
  0
ARC
  5
2C7
100
AcDbEntity
  8
RACCORDO
100
AcDbCircle
 62
250
  6
CONTINUOUS
 10
0.0
 20
4.15
 40
15.8398320837
100
AcDbArc
 50
332.7730427857
 51
207.2269572143
  0
ARC
  5
2C8
100
AcDbEntity
  8
RACCORDO
100
AcDbCircle
 62
250
  6
CONTINUOUS
 10
0.0
 20
4.15
 40
15.1317828514
100
AcDbArc
 50
332.7730427857
 51
207.2269572143
  0
ARC
  5
2C9
100
AcDbEntity
  8
RACCORDO
100
AcDbCircle
 62
250
  6
CONTINUOUS
 10
0.0
 20
4.15
 40
14.7813282193
100
AcDbArc
 50
332.7730427857
 51
207.2269572143
  0
CIRCLE
  5
2CA
100
AcDbEntity
  8
DRAFT
100
AcDbCircle
 62
7
  6
CONTINUOUS
 10
0.0
 20
4.15
 40
12.8314191169
  0
CIRCLE
  5
2CB
100
AcDbEntity
  8
DRAFT
100
AcDbCircle
 62
7
  6
CONTINUOUS
 10
0.0
 20
4.15
 40
12.8192005714
  0
CIRCLE
  5
2CC
100
AcDbEntity
  8
DRAFT
100
AcDbCircle
 62
7
  6
CONTINUOUS
 10
0.0
 20
4.15
 40
12.1807994286
  0
CIRCLE
  5
2CD
100
AcDbEntity
  8
DRAFT
100
AcDbCircle
 62
7
  6
CONTINUOUS
 10
0.0
 20
4.15
 40
12.1685808831
  0
ARC
  5
2CE
100
AcDbEntity
  8
DRAFT
100
AcDbCircle
 62
7
  6
CONTINUOUS
 10
0.0
 20
-11.15
 40
9.0
100
AcDbArc
 50
207.2269572143
 51
332.7730427857
  0
ARC
  5
2CF
100
AcDbEntity
  8
RACCORDO
100
AcDbCircle
 62
250
  6
CONTINUOUS
 10
0.0
 20
-11.15
 40
8.9893012992
100
AcDbArc
 50
207.2269572143
 51
332.7730427857
  0
ARC
  5
2D0
100
AcDbEntity
  8
RACCORDO
100
AcDbCircle
 62
250
  6
CONTINUOUS
 10
0.0
 20
-11.15
 40
8.8398320837
100
AcDbArc
 50
207.2269572143
 51
332.7730427857
  0
ARC
  5
2D1
100
AcDbEntity
  8
RACCORDO
100
AcDbCircle
 62
250
  6
CONTINUOUS
 10
0.0
 20
-11.15
 40
8.1317828514
100
AcDbArc
 50
207.2269572143
 51
332.7730427857
  0
ARC
  5
2D2
100
AcDbEntity
  8
RACCORDO
100
AcDbCircle
 62
250
  6
CONTINUOUS
 10
0.0
 20
-11.15
 40
7.7813282193
100
AcDbArc
 50
207.2269572143
 51
332.7730427857
  0
ARC
  5
2D3
100
AcDbEntity
  8
RACCORDO
100
AcDbCircle
 62
250
  6
CONTINUOUS
 10
4.8599570501
 20
-12.6330514946
 40
0.9327580232
100
AcDbArc
 50
152.7730427857
 51
332.7730427857
  0
ARC
  5
2D4
100
AcDbEntity
  8
RACCORDO
100
AcDbCircle
 62
250
  6
CONTINUOUS
 10
6.4155126057
 20
-9.6097673674
 40
0.9327580232
100
AcDbArc
 50
332.7730427857
 51
152.7730427857
  0
ARC
  5
2D5
100
AcDbEntity
  8
RACCORDO
100
AcDbCircle
 62
250
  6
CONTINUOUS
 10
-4.8599570501
 20
-12.6330514946
 40
0.9327580232
100
AcDbArc
 50
207.2269572143
 51
27.2269572143
  0
ARC
  5
2D6
100
AcDbEntity
  8
RACCORDO
100
AcDbCircle
 62
250
  6
CONTINUOUS
 10
-6.4155126057
 20
-9.6097673674
 40
0.9327580232
100
AcDbArc
 50
27.2269572143
 51
207.2269572143
  0
ARC
  5
2D7
100
AcDbEntity
  8
RACCORDO
100
AcDbCircle
 62
250
  6
CONTINUOUS
 10
4.8599570501
 20
-12.6330514946
 40
0.8159727048
100
AcDbArc
 50
152.7730427857
 51
332.7730427857
  0
ARC
  5
2D8
100
AcDbEntity
  8
RACCORDO
100
AcDbCircle
 62
250
  6
CONTINUOUS
 10
6.4155126057
 20
-9.6097673674
 40
0.8159727048
100
AcDbArc
 50
332.7730427857
 51
152.7730427857
  0
ARC
  5
2D9
100
AcDbEntity
  8
RACCORDO
100
AcDbCircle
 62
250
  6
CONTINUOUS
 10
-4.8599570501
 20
-12.6330514946
 40
0.8159727048
100
AcDbArc
 50
207.2269572143
 51
27.2269572143
  0
ARC
  5
2DA
100
AcDbEntity
  8
RACCORDO
100
AcDbCircle
 62
250
  6
CONTINUOUS
 10
-6.4155126057
 20
-9.6097673674
 40
0.8159727048
100
AcDbArc
 50
27.2269572143
 51
207.2269572143
  0
ARC
  5
2DB
100
AcDbEntity
  8
RACCORDO
100
AcDbCircle
 62
7
  6
CONTINUOUS
 10
-50.3311210173
 20
19.6393774516
 40
0.5
100
AcDbArc
 50
91.0
 51
135.5
  0
ARC
  5
2DC
100
AcDbEntity
  8
RACCORDO
100
AcDbCircle
 62
7
  6
CONTINUOUS
 10
-50.3311210173
 20
-19.6393774516
 40
0.5
100
AcDbArc
 50
224.5
 51
269.0
  0
ARC
  5
2DD
100
AcDbEntity
  8
RACCORDO
100
AcDbCircle
 62
7
  6
CONTINUOUS
 10
-48.4269190601
 20
-18.9313282193
 40
0.5
100
AcDbArc
 50
315.5
 51
360.0
  0
ARC
  5
2DE
100
AcDbEntity
  8
RACCORDO
100
AcDbCircle
 62
7
  6
CONTINUOUS
 10
-48.4269190601
 20
18.9313282193
 40
0.5
100
AcDbArc
 50
0.0
 51
44.5
  0
ARC
  5
2DF
100
AcDbEntity
  8
RACCORDO
100
AcDbCircle
 62
7
  6
CONTINUOUS
 10
-49.1227171028
 20
19.6393774516
 40
0.5
100
AcDbArc
 50
44.5
 51
89.0
  0
ARC
  5
2E0
100
AcDbEntity
  8
RACCORDO
100
AcDbCircle
 62
7
  6
CONTINUOUS
 10
-49.1227171028
 20
-19.6393774516
 40
0.5
100
AcDbArc
 50
271.0
 51
315.5
  0
ARC
  5
2E1
100
AcDbEntity
  8
RACCORDO
100
AcDbCircle
 62
7
  6
CONTINUOUS
 10
-51.0269190601
 20
18.9313282193
 40
0.5
100
AcDbArc
 50
135.5
 51
180.0
  0
ARC
  5
2E2
100
AcDbEntity
  8
RACCORDO
100
AcDbCircle
 62
7
  6
CONTINUOUS
 10
-51.0269190601
 20
-18.9313282193
 40
0.5
100
AcDbArc
 50
180.0
 51
224.5
  0
ENDSEC
  0
SECTION
  2
OBJECTS
  0
DICTIONARY
  5
C
100
AcDbDictionary
280
0
281
1
  3
ACAD_GROUP
350
D
  3
ACAD_MLINESTYLE
350
17
  3
ACAD_LAYOUT
350
1A
  3
ACAD_PLOTSETTINGS
350
19
  3
ACAD_PLOTSTYLENAME
350
E
  0
DICTIONARY
  5
D
102
{ACAD_REACTORS
330
C
102
}
100
AcDbDictionary
280
0
281
1
  0
ACDBDICTIONARYWDFLT
  5
E
102
{ACAD_REACTORS
330
C
102
}
100
AcDbDictionary
281
1
  3
Normal
350
F
100
AcDbDictionaryWithDefault
340
F
  0
DICTIONARY
  5
17
102
{ACAD_REACTORS
330
C
102
}
100
AcDbDictionary
280
0
281
1
  3
Standard
350
18
  0
DICTIONARY
  5
19
102
{ACAD_REACTORS
330
C
102
}
100
AcDbDictionary
281
1
  0
DICTIONARY
  5
1A
102
{ACAD_REACTORS
330
C
102
}
100
AcDbDictionary
281
1
  3
Model
350
2E3
  3
Layout1
350
2E4
  0
ACDBPLACEHOLDER
  5
F
102
{ACAD_REACTORS
330
E
102
}
  0
MLINESTYLE
  5
18
102
{ACAD_REACTORS
330
17
102
}
100
AcDbMlineStyle
  2
STANDARD
 70
0
  3

 62
256
 51
90.0
 52
90.0
 71
2
 49
0.5
 62
256
  6
BYLAYER
 49
-0.5
 62
256
  6
BYLAYER
  0
LAYOUT
  5
2E3
102
{ACAD_REACTORS
330
1A
102
}
100
AcDbPlotSettings
  1

  2
none_device
  4

  6

 40
0.0
 41
0.0
 42
0.0
 43
0.0
 44
210.0
 45
297.0
 46
0.0
 47
0.0
 48
0.0
 49
0.0
140
0.0
141
0.0
142
1.0
143
1.0
 70
1024
 72
1
 73
0
 74
0
  7

 75
0
147
1.0
148
0.0
149
0.0
100
AcDbLayout
  1
Model
 70
0
 71
0
 10
0.0
 20
0.0
 11
210.0
 21
297.0
 12
0.0
 22
0.0
 32
0.0
 14
0.0
 24
0.0
 34
0.0
 15
0.0
 25
0.0
 35
0.0
146
0.0
 13
0.0
 23
0.0
 33
0.0
 16
1.0
 26
0.0
 36
0.0
 17
0.0
 27
1.0
 37
0.0
 76
0
330
210
345
0
346
0
  0
LAYOUT
  5
2E4
102
{ACAD_REACTORS
330
1A
102
}
100
AcDbPlotSettings
  1

  2
none_device
  4

  6

 40
0.0
 41
0.0
 42
0.0
 43
0.0
 44
210.0
 45
297.0
 46
0.0
 47
0.0
 48
0.0
 49
0.0
140
0.0
141
0.0
142
1.0
143
1.0
 70
0
 72
1
 73
0
 74
0
  7

 75
0
147
1.0
148
0.0
149
0.0
100
AcDbLayout
  1
Layout1
 70
0
 71
1
 10
0.0
 20
0.0
 11
210.0
 21
297.0
 12
0.0
 22
0.0
 32
0.0
 14
0.0
 24
0.0
 34
0.0
 15
0.0
 25
0.0
 35
0.0
146
0.0
 13
0.0
 23
0.0
 33
0.0
 16
1.0
 26
0.0
 36
0.0
 17
0.0
 27
1.0
 37
0.0
 76
0
330
211
345
0
346
0
  0
ENDSEC
  0
EOF
