  0
SECTION
  2
HEADER
  9
$ACADVER
  1
AC1024
  9
$DWGCODEPAGE
  3
ANSI_1252
  9
$EXTMAX
 10
297.0
 20
210.0
 30
0.0
  9
$EXTMIN
 10
0.0
 20
0.0
 30
0.0
  9
$LIMMIN
 10
0.0
 20
0.0
  9
$LIMMAX
 10
297.0
 20
210.0
  9
$VIEWCTR
 10
148.5
 20
105.0
  9
$VIEWSIZE
 40
210.0
  9
$CLAYER
  8
0
  9
$LTSCALE
 40
16.335
  9
$CELTYPE
  6
BYLAYER
  9
$DIMSCALE
 40
1.0
  9
$DIMASZ
 40
3.0
  9
$DIMEXO
 40
0.5
  9
$DIMDLI
 40
11.286
  9
$DIMEXE
 40
1.5
  9
$DIMCEN
 40
2.673
  9
$DIMLFAC
 40
1.0
  9
$DIMBLK
  1
_FILLED
  9
$DIMALT
 70
0
  9
$DIMALTF
 40
0.0393700787
  9
$DIMTXT
 40
3.0
  9
$DIMTOL
 70
1
  9
$DIMLIM
 70
0
  9
$DIMTFAC
 40
1.0
  9
$DIMTP
 40
0.01
  9
$DIMTM
 40
0.01
  9
$DIMGAP
 40
0.625
  9
$DIMDSEP
 70
44
  9
$AUNITS
 70
0
  9
$PDMODE
 70
3
  9
$PDSIZE
 40
3.0
  9
$HANDSEED
  5
3BB
  9
$TILEMODE
 70
1
  9
$MEASUREMENT
 70
1
  9
$INSUNITS
 70
4
  0
ENDSEC
  0
SECTION
  2
CLASSES
  0
CLASS
  1
ACDBDICTIONARYWDFLT
  2
AcDbDictionaryWithDefault
  3
AutoCAD 2000
 90
0
 91
1
280
0
281
0
  0
CLASS
  1
ACDBPLACEHOLDER
  2
AcDbPlaceHolder
  3
AutoCAD 2000
 90
0
 91
1
280
0
281
0
  0
CLASS
  1
LAYOUT
  2
AcDbLayout
  3
AutoCAD 2000
 90
0
 91
0
280
0
281
0
  0
ENDSEC
  0
SECTION
  2
TABLES
  0
TABLE
  2
VPORT
  5
8
100
AcDbSymbolTable
 70
2
  0
VPORT
  5
1F4
100
AcDbSymbolTableRecord
100
AcDbViewportTableRecord
  2
*ACTIVE
 70
0
 10
0.0
 20
0.0
 11
1.0
 21
1.0
 12
148.5
 22
105.0
 13
0.0
 23
0.0
 14
1.0
 24
1.0
 15
0.0
 25
0.0
 16
0.0
 26
0.0
 36
1.0
 17
0.0
 27
0.0
 37
0.0
 40
210.0
 41
1.4142857143
 42
50.0
 43
0.0
 44
0.0
 50
0.0
 51
0.0
 71
0
 72
100
 73
1
 74
1
 75
0
 76
0
 77
0
 78
0
  0
ENDTAB
  0
TABLE
  2
LTYPE
  5
5
100
AcDbSymbolTable
 70
6
  0
LTYPE
  5
14
100
AcDbSymbolTableRecord
100
AcDbLinetypeTableRecord
  2
BYBLOCK
 70
0
  3

 72
65
 73
0
 40
0.0
  0
LTYPE
  5
15
100
AcDbSymbolTableRecord
100
AcDbLinetypeTableRecord
  2
BYLAYER
 70
0
  3

 72
65
 73
0
 40
0.0
  0
LTYPE
  5
16
100
AcDbSymbolTableRecord
100
AcDbLinetypeTableRecord
  2
CONTINUOUS
 70
64
  3
Solid line
 72
65
 73
0
 40
0.0
  0
LTYPE
  5
1F5
100
AcDbSymbolTableRecord
100
AcDbLinetypeTableRecord
  2
CENTER
 70
64
  3
____ _ ____ _ ____ _ ____ _ ____ _ ____ _ ____
 72
65
 73
4
 40
0.6
 49
0.375
 74
0
 49
-0.075
 74
0
 49
0.075
 74
0
 49
-0.075
 74
0
  0
LTYPE
  5
1F6
100
AcDbSymbolTableRecord
100
AcDbLinetypeTableRecord
  2
HIDDEN
 70
64
  3
- - - - - - - - - - - - - - - - - - - -
 72
65
 73
2
 40
0.2
 49
0.1
 74
0
 49
-0.1
 74
0
  0
LTYPE
  5
1F7
100
AcDbSymbolTableRecord
100
AcDbLinetypeTableRecord
  2
PHANTOM
 70
64
  3
_____ _ _ _____ _ _ _____ _ _ _____
 72
65
 73
6
 40
0.8
 49
0.45
 74
0
 49
-0.05
 74
0
 49
0.1
 74
0
 49
-0.05
 74
0
 49
0.1
 74
0
 49
-0.05
 74
0
  0
LTYPE
  5
1F8
100
AcDbSymbolTableRecord
100
AcDbLinetypeTableRecord
  2
DOT
 70
64
  3
. . . . . . . . . . . . . . . . . . . .
 72
65
 73
2
 40
0.2
 49
0.1
 74
0
 49
-0.1
 74
0
  0
LTYPE
  5
1F9
100
AcDbSymbolTableRecord
100
AcDbLinetypeTableRecord
  2
DASHED
 70
64
  3
- - - - - - - - - - - - - - - - - - - -
 72
65
 73
2
 40
0.2
 49
0.1
 74
0
 49
-0.1
 74
0
  0
ENDTAB
  0
TABLE
  2
LAYER
  5
2
100
AcDbSymbolTable
 70
36
  0
LAYER
  5
10
100
AcDbSymbolTableRecord
100
AcDbLayerTableRecord
  2
0
 70
0
 62
7
  6
CONTINUOUS
370
-3
390
F
  0
LAYER
  5
1FA
100
AcDbSymbolTableRecord
100
AcDbLayerTableRecord
  2
DEFAULT_1
 70
0
 62
7
  6
CENTER
370
-3
390
F
  0
LAYER
  5
1FB
100
AcDbSymbolTableRecord
100
AcDbLayerTableRecord
  2
DEFAULT_2
 70
0
 62
7
  6
HIDDEN
370
-3
390
F
  0
LAYER
  5
1FC
100
AcDbSymbolTableRecord
100
AcDbLayerTableRecord
  2
DEFAULT_3
 70
0
 62
7
  6
PHANTOM
370
-3
390
F
  0
LAYER
  5
1FD
100
AcDbSymbolTableRecord
100
AcDbLayerTableRecord
  2
ASSI
 70
0
 62
7
  6
CONTINUOUS
370
-3
390
F
  0
LAYER
  5
1FE
100
AcDbSymbolTableRecord
100
AcDbLayerTableRecord
  2
COORDINATE
 70
0
 62
7
  6
CONTINUOUS
370
-3
390
F
  0
LAYER
  5
1FF
100
AcDbSymbolTableRecord
100
AcDbLayerTableRecord
  2
COPY_PUBLISH
 70
0
 62
7
  6
CONTINUOUS
370
-3
390
F
  0
LAYER
  5
200
100
AcDbSymbolTableRecord
100
AcDbLayerTableRecord
  2
COSMETICI
 70
0
 62
7
  6
CONTINUOUS
370
-3
390
F
  0
LAYER
  5
201
100
AcDbSymbolTableRecord
100
AcDbLayerTableRecord
  2
CURVE
 70
0
 62
7
  6
CONTINUOUS
370
-3
390
F
  0
LAYER
  5
202
100
AcDbSymbolTableRecord
100
AcDbLayerTableRecord
  2
DRAFT
 70
0
 62
7
  6
CONTINUOUS
370
-3
390
F
  0
LAYER
  5
203
100
AcDbSymbolTableRecord
100
AcDbLayerTableRecord
  2
IMPORT_IGES
 70
0
 62
7
  6
CONTINUOUS
370
-3
390
F
  0
LAYER
  5
204
100
AcDbSymbolTableRecord
100
AcDbLayerTableRecord
  2
NOTE
 70
0
 62
7
  6
CONTINUOUS
370
-3
390
F
  0
LAYER
  5
205
100
AcDbSymbolTableRecord
100
AcDbLayerTableRecord
  2
PIANI
 70
0
 62
7
  6
CONTINUOUS
370
-3
390
F
  0
LAYER
  5
206
100
AcDbSymbolTableRecord
100
AcDbLayerTableRecord
  2
PUNTI
 70
0
 62
7
  6
CONTINUOUS
370
-3
390
F
  0
LAYER
  5
207
100
AcDbSymbolTableRecord
100
AcDbLayerTableRecord
  2
RACCORDO
 70
0
 62
7
  6
CONTINUOUS
370
-3
390
F
  0
LAYER
  5
208
100
AcDbSymbolTableRecord
100
AcDbLayerTableRecord
  2
SIMBOLI
 70
0
 62
7
  6
CONTINUOUS
370
-3
390
F
  0
LAYER
  5
209
100
AcDbSymbolTableRecord
100
AcDbLayerTableRecord
  2
SMUSSO
 70
0
 62
7
  6
CONTINUOUS
370
-3
390
F
  0
LAYER
  5
20A
100
AcDbSymbolTableRecord
100
AcDbLayerTableRecord
  2
SNAPLINE
 70
0
 62
7
  6
CONTINUOUS
370
-3
390
F
  0
LAYER
  5
20B
100
AcDbSymbolTableRecord
100
AcDbLayerTableRecord
  2
SUPERFICI
 70
0
 62
7
  6
CONTINUOUS
370
-3
390
F
  0
LAYER
  5
20C
100
AcDbSymbolTableRecord
100
AcDbLayerTableRecord
  2
TRASH
 70
0
 62
7
  6
CONTINUOUS
370
-3
390
F
  0
ENDTAB
  0
TABLE
  2
STYLE
  5
3
100
AcDbSymbolTable
 70
1
  0
STYLE
  5
11
100
AcDbSymbolTableRecord
100
AcDbTextStyleTableRecord
  2
STANDARD
 70
0
 40
0.0
 41
0.8
 50
0.0
 71
0
 42
0.2
  3
txt
  4

  0
STYLE
  5
20D
100
AcDbSymbolTableRecord
100
AcDbTextStyleTableRecord
  2
TEXTSTYLE_1
 70
0
 40
0.0
 41
0.8
 50
0.0
 71
0
 42
0.2
  3
gdt
  4

  0
ENDTAB
  0
TABLE
  2
VIEW
  5
6
100
AcDbSymbolTable
 70
0
  0
ENDTAB
  0
TABLE
  2
UCS
  5
7
100
AcDbSymbolTable
 70
0
  0
ENDTAB
  0
TABLE
  2
APPID
  5
9
100
AcDbSymbolTable
 70
1
  0
APPID
  5
20E
100
AcDbSymbolTableRecord
100
AcDbRegAppTableRecord
  2
ACAD
 70
0
  0
ENDTAB
  0
TABLE
  2
BLOCK_RECORD
  5
1
100
AcDbSymbolTable
 70
0
  0
BLOCK_RECORD
  5
20F
100
AcDbSymbolTableRecord
100
AcDbBlockTableRecord
  2
*Model_Space
  0
BLOCK_RECORD
  5
210
100
AcDbSymbolTableRecord
100
AcDbBlockTableRecord
  2
*Paper_Space
  0
BLOCK_RECORD
  5
211
100
AcDbSymbolTableRecord
100
AcDbBlockTableRecord
  2
_FILLED
  0
BLOCK_RECORD
  5
212
100
AcDbSymbolTableRecord
100
AcDbBlockTableRecord
  2
*D0
  0
BLOCK_RECORD
  5
213
100
AcDbSymbolTableRecord
100
AcDbBlockTableRecord
  2
*D1
  0
BLOCK_RECORD
  5
214
100
AcDbSymbolTableRecord
100
AcDbBlockTableRecord
  2
*D2
  0
BLOCK_RECORD
  5
215
100
AcDbSymbolTableRecord
100
AcDbBlockTableRecord
  2
*D3
  0
ENDTAB
  0
TABLE
  2
DIMSTYLE
  5
A
100
AcDbSymbolTable
 70
1
100
AcDbDimStyleTable
 71
0
  0
DIMSTYLE
105
216
100
AcDbSymbolTableRecord
100
AcDbDimStyleTableRecord
  2
STANDARD
 70
0
  3

  4

 40
1.0
 41
3.0
 42
0.5
 43
0.38
 44
1.5
 45
0.0
 46
0.0
 47
0.01
 48
0.01
140
3.0
141
0.09
142
0.0
143
25.4
144
1.0
145
0.0
146
1.0
147
0.625
 71
1
 72
0
 73
0
 74
0
 75
0
 76
0
 77
1
 78
8
 79
2
170
0
171
1
172
0
173
0
174
0
175
0
176
0
177
0
178
0
270
2
179
2
271
2
272
2
273
2
274
2
275
0
280
0
281
0
282
0
283
1
284
8
285
0
286
0
287
3
288
0
340
11
278
44
341
211
342
211
343
211
344
211
  0
DIMSTYLE
105
217
100
AcDbSymbolTableRecord
100
AcDbDimStyleTableRecord
  2
DIMSTYLE_1
 70
0
  3

  4

 40
1.0
 41
3.0
 42
0.5
 43
0.38
 44
1.5
 45
0.0
 46
0.0
 47
0.0
 48
0.0
140
3.0
141
0.09
142
0.0
143
25.4
144
1.0
145
0.0
146
1.0
147
0.75
 71
0
 72
0
 73
0
 74
0
 75
0
 76
0
 77
1
 78
8
 79
2
170
0
171
1
172
0
173
0
174
0
175
0
176
0
177
0
178
0
270
2
179
2
271
2
272
2
273
2
274
2
275
0
280
0
281
0
282
0
283
1
284
8
285
0
286
0
287
3
288
0
340
11
278
44
341
211
342
211
343
211
344
211
  0
ENDTAB
  0
ENDSEC
  0
SECTION
  2
BLOCKS
  0
BLOCK
  5
20
100
AcDbEntity
  8
0
100
AcDbBlockBegin
  2
*Model_Space
 70
0
 10
0.0
 20
0.0
 30
0.0
  3
*Model_Space
  1

  0
ENDBLK
  5
21
100
AcDbEntity
  8
0
100
AcDbBlockEnd
  0
BLOCK
  5
1C
100
AcDbEntity
  8
0
100
AcDbBlockBegin
  2
*Paper_Space
 70
0
 10
0.0
 20
0.0
 30
0.0
  3
*Paper_Space
  1

  0
ENDBLK
  5
1D
100
AcDbEntity
  8
0
100
AcDbBlockEnd
  0
BLOCK
  5
218
100
AcDbEntity
  8
0
100
AcDbBlockBegin
  2
_FILLED
 70
64
 10
0.0
 20
0.0
  3
_FILLED
  1

  0
SOLID
  5
219
100
AcDbEntity
  8
0
  6
BYBLOCK
 62
0
100
AcDbTrace
 10
0.0
 20
0.0
 11
-1.0
 21
0.3166666667
 12
-1.0
 22
-0.3166666667
 13
-1.0
 23
-0.3166666667
  0
ENDBLK
  5
21A
100
AcDbEntity
  8
0
  6
BYBLOCK
 62
0
100
AcDbBlockEnd
  0
BLOCK
  5
21B
100
AcDbEntity
  8
0
100
AcDbBlockBegin
 62
7
  6
CONTINUOUS
  2
*D0
 70
65
 10
0.0
 20
0.0
  3
*D0
  1

  0
MTEXT
  5
21C
100
AcDbEntity
  8
0
100
AcDbMText
 62
7
  6
CONTINUOUS
  7
STANDARD
 71
2
 72
1
 10
0.0
 20
19.15
 30
0.0
 11
1.0
 21
0.0
 31
0.0
 73
2
 44
0.9
  1
{\ftxt;\W0.0001;\H0.0001;\~}{\ftxt;\W1.5714285714;\H3.0; }{\ftxt;\W0.0001;\H0.0001;\~}
 40
3.0
 41
7.0714285714
  0
LINE
  5
21D
100
AcDbEntity
  8
0
100
AcDbLine
 62
7
  6
CONTINUOUS
 10
-43.0
 20
7.0
 11
-43.0
 21
16.9
  0
LINE
  5
21E
100
AcDbEntity
  8
0
100
AcDbLine
 62
7
  6
CONTINUOUS
 10
43.0
 20
7.0
 11
43.0
 21
16.9
  0
LINE
  5
21F
100
AcDbEntity
  8
0
100
AcDbLine
 62
7
  6
CONTINUOUS
 10
-43.0
 20
15.4
 11
0.0
 21
15.4
  0
LINE
  5
220
100
AcDbEntity
  8
0
100
AcDbLine
 62
7
  6
CONTINUOUS
 10
43.0
 20
15.4
 11
0.0
 21
15.4
  0
INSERT
  5
221
100
AcDbEntity
  8
0
100
AcDbBlockReference
 62
7
  6
CONTINUOUS
  2
_FILLED
 10
-43.0
 20
15.4
 41
3.0
 42
3.0
 43
3.0
 50
180.0
  0
INSERT
  5
222
100
AcDbEntity
  8
0
100
AcDbBlockReference
 62
7
  6
CONTINUOUS
  2
_FILLED
 10
43.0
 20
15.4
 41
3.0
 42
3.0
 43
3.0
  0
ENDBLK
  5
223
100
AcDbEntity
  8
0
  6
BYBLOCK
 62
0
100
AcDbBlockEnd
  0
BLOCK
  5
224
100
AcDbEntity
  8
0
100
AcDbBlockBegin
 62
7
  6
CONTINUOUS
  2
*D1
 70
65
 10
0.0
 20
0.0
  3
*D1
  1

  0
MTEXT
  5
225
100
AcDbEntity
  8
0
100
AcDbMText
 62
7
  6
CONTINUOUS
  7
STANDARD
 71
2
 72
1
 10
47.25
 20
0.0
 30
0.0
 11
0.0
 21
1.0
 31
0.0
 73
2
 44
0.9
  1
{\ftxt;\W0.0001;\H0.0001;\~}{\ftxt;\W2.7142857143;\H3.0; }{\ftxt;\W0.0001;\H0.0001;\~}
 40
3.0
 41
12.2142857143
  0
LINE
  5
226
100
AcDbEntity
  8
0
100
AcDbLine
 62
7
  6
CONTINUOUS
 10
42.5050125629
 20
7.4
 11
52.5
 21
7.4
  0
LINE
  5
227
100
AcDbEntity
  8
0
100
AcDbLine
 62
7
  6
CONTINUOUS
 10
42.5050125629
 20
-7.4
 11
52.5
 21
-7.4
  0
LINE
  5
228
100
AcDbEntity
  8
0
100
AcDbLine
 62
7
  6
CONTINUOUS
 10
51.0
 20
7.4
 11
51.0
 21
0.0
  0
LINE
  5
229
100
AcDbEntity
  8
0
100
AcDbLine
 62
7
  6
CONTINUOUS
 10
51.0
 20
-7.4
 11
51.0
 21
0.0
  0
INSERT
  5
22A
100
AcDbEntity
  8
0
100
AcDbBlockReference
 62
7
  6
CONTINUOUS
  2
_FILLED
 10
51.0
 20
7.4
 41
3.0
 42
3.0
 43
3.0
 50
90.0
  0
INSERT
  5
22B
100
AcDbEntity
  8
0
100
AcDbBlockReference
 62
7
  6
CONTINUOUS
  2
_FILLED
 10
51.0
 20
-7.4
 41
3.0
 42
3.0
 43
3.0
 50
270.0
  0
ENDBLK
  5
22C
100
AcDbEntity
  8
0
  6
BYBLOCK
 62
0
100
AcDbBlockEnd
  0
BLOCK
  5
22D
100
AcDbEntity
  8
0
100
AcDbBlockBegin
 62
7
  6
CONTINUOUS
  2
*D2
 70
65
 10
0.0
 20
0.0
  3
*D2
  1

  0
MTEXT
  5
22E
100
AcDbEntity
  8
0
100
AcDbMText
 62
7
  6
CONTINUOUS
  7
STANDARD
 71
3
 72
1
 10
-70.0032956898
 20
19.15
 30
0.0
 11
1.0
 21
0.0
 31
0.0
 73
2
 44
0.9
  1
{\ftxt;\W0.0001;\H0.0001;\~}{\ftxt;\W2.1428571429;\H3.0; }{\ftxt;\W0.0001;\H0.0001;\~}
 40
3.0
 41
9.6428571429
  0
LINE
  5
22F
100
AcDbEntity
  8
0
100
AcDbLine
 62
7
  6
CONTINUOUS
 10
-66.664708009
 20
7.0
 11
-66.664708009
 21
16.9
  0
LINE
  5
230
100
AcDbEntity
  8
0
100
AcDbLine
 62
7
  6
CONTINUOUS
 10
-64.264708009
 20
4.7994997051
 11
-64.264708009
 21
16.9
  0
LINE
  5
231
100
AcDbEntity
  8
0
100
AcDbLine
 62
7
  6
CONTINUOUS
 10
-66.664708009
 20
15.4
 11
-76.4318671184
 21
15.4
  0
LINE
  5
232
100
AcDbEntity
  8
0
100
AcDbLine
 62
7
  6
CONTINUOUS
 10
-76.4318671184
 20
15.4
 11
-65.464708009
 21
15.4
  0
LINE
  5
233
100
AcDbEntity
  8
0
100
AcDbLine
 62
7
  6
CONTINUOUS
 10
-64.264708009
 20
15.4
 11
-60.264708009
 21
15.4
  0
LINE
  5
234
100
AcDbEntity
  8
0
100
AcDbLine
 62
7
  6
CONTINUOUS
 10
-60.264708009
 20
15.4
 11
-65.464708009
 21
15.4
  0
INSERT
  5
235
100
AcDbEntity
  8
0
100
AcDbBlockReference
 62
7
  6
CONTINUOUS
  2
_FILLED
 10
-66.664708009
 20
15.4
 41
3.0
 42
3.0
 43
3.0
  0
INSERT
  5
236
100
AcDbEntity
  8
0
100
AcDbBlockReference
 62
7
  6
CONTINUOUS
  2
_FILLED
 10
-64.264708009
 20
15.4
 41
3.0
 42
3.0
 43
3.0
 50
180.0
  0
ENDBLK
  5
237
100
AcDbEntity
  8
0
  6
BYBLOCK
 62
0
100
AcDbBlockEnd
  0
BLOCK
  5
238
100
AcDbEntity
  8
0
100
AcDbBlockBegin
 62
7
  6
CONTINUOUS
  2
*D3
 70
65
 10
0.0
 20
0.0
  3
*D3
  1

  0
MTEXT
  5
239
100
AcDbEntity
  8
0
100
AcDbMText
 62
7
  6
CONTINUOUS
  7
STANDARD
 71
3
 72
1
 10
-72.4096445392
 20
29.15
 30
0.0
 11
1.0
 21
0.0
 31
0.0
 73
2
 44
0.9
  1
{\ftxt;\W0.0001;\H0.0001;\~}{\ftxt;\W2.1428571429;\H3.0; }{\ftxt;\W0.0001;\H0.0001;\~}
 40
3.0
 41
9.6428571429
  0
LINE
  5
23A
100
AcDbEntity
  8
0
100
AcDbLine
 62
7
  6
CONTINUOUS
 10
-70.664708009
 20
7.3388311305
 11
-70.664708009
 21
26.9
  0
LINE
  5
23B
100
AcDbEntity
  8
0
100
AcDbLine
 62
7
  6
CONTINUOUS
 10
-64.264708009
 20
4.7994997051
 11
-64.264708009
 21
26.9
  0
LINE
  5
23C
100
AcDbEntity
  8
0
100
AcDbLine
 62
7
  6
CONTINUOUS
 10
-70.664708009
 20
25.4
 11
-78.8382159678
 21
25.4
  0
LINE
  5
23D
100
AcDbEntity
  8
0
100
AcDbLine
 62
7
  6
CONTINUOUS
 10
-78.8382159678
 20
25.4
 11
-67.464708009
 21
25.4
  0
LINE
  5
23E
100
AcDbEntity
  8
0
100
AcDbLine
 62
7
  6
CONTINUOUS
 10
-64.264708009
 20
25.4
 11
-60.264708009
 21
25.4
  0
LINE
  5
23F
100
AcDbEntity
  8
0
100
AcDbLine
 62
7
  6
CONTINUOUS
 10
-60.264708009
 20
25.4
 11
-67.464708009
 21
25.4
  0
INSERT
  5
240
100
AcDbEntity
  8
0
100
AcDbBlockReference
 62
7
  6
CONTINUOUS
  2
_FILLED
 10
-70.664708009
 20
25.4
 41
3.0
 42
3.0
 43
3.0
  0
INSERT
  5
241
100
AcDbEntity
  8
0
100
AcDbBlockReference
 62
7
  6
CONTINUOUS
  2
_FILLED
 10
-64.264708009
 20
25.4
 41
3.0
 42
3.0
 43
3.0
 50
180.0
  0
ENDBLK
  5
242
100
AcDbEntity
  8
0
  6
BYBLOCK
 62
0
100
AcDbBlockEnd
  0
ENDSEC
  0
SECTION
  2
ENTITIES
  0
DIMENSION
  5
243
100
AcDbEntity
  8
0
100
AcDbDimension
 62
7
  6
CONTINUOUS
  2
*D0
 10
43.0
 20
15.4
 11
-0.4285713773
 21
15.4
 70
160
 71
2
 72
2
 41
0.9
 42
86.0
  1
{\ftxt;\W0.0001;\H0.0001;\~}{\ftxt;\W1.5714285714;\H3.0; }{\ftxt;\W0.0001;\H0.0001;\~}
  3
DIMSTYLE_1
100
AcDbAlignedDimension
 13
-43.0
 23
6.5
 14
43.0
 24
6.5
100
AcDbRotatedDimension
  0
DIMENSION
  5
244
100
AcDbEntity
  8
0
100
AcDbDimension
 62
7
  6
CONTINUOUS
  2
*D1
 10
51.0
 20
-7.4
 11
51.0
 21
-0.4285701959
 70
160
 71
2
 72
2
 41
0.9
 42
14.8
  1
{\ftxt;\W0.0001;\H0.0001;\~}{\ftxt;\W2.7142857143;\H3.0; }{\ftxt;\W0.0001;\H0.0001;\~}
  3
DIMSTYLE_1
100
AcDbAlignedDimension
 13
42.0050125629
 23
7.4
 14
42.0050125629
 24
-7.4
 50
270.0
100
AcDbRotatedDimension
  0
DIMENSION
  5
245
100
AcDbEntity
  8
0
100
AcDbDimension
 62
7
  6
CONTINUOUS
  2
*D2
 10
-64.264708009
 20
15.4
 11
-73.6461522675
 21
15.4
 70
160
 71
3
 72
2
 41
0.9
 42
2.4
  1
{\ftxt;\W0.0001;\H0.0001;\~}{\ftxt;\W2.1428571429;\H3.0; }{\ftxt;\W0.0001;\H0.0001;\~}
  3
DIMSTYLE_1
100
AcDbAlignedDimension
 13
-66.664708009
 23
6.5
 14
-64.264708009
 24
4.2994997051
100
AcDbRotatedDimension
  0
DIMENSION
  5
246
100
AcDbEntity
  8
0
100
AcDbDimension
 62
7
  6
CONTINUOUS
  2
*D3
 10
-64.264708009
 20
25.4
 11
-76.0525021362
 21
25.4
 70
160
 71
3
 72
2
 41
0.9
 42
6.4
  1
{\ftxt;\W0.0001;\H0.0001;\~}{\ftxt;\W2.1428571429;\H3.0; }{\ftxt;\W0.0001;\H0.0001;\~}
  3
DIMSTYLE_1
100
AcDbAlignedDimension
 13
-70.664708009
 23
6.8388311305
 14
-64.264708009
 24
4.2994997051
100
AcDbRotatedDimension
  0
LINE
  5
247
100
AcDbEntity
  8
DRAFT
100
AcDbLine
 62
7
  6
CONTINUOUS
 10
-43.0
 20
6.5
 11
-43.0
 21
-6.5
  0
LWPOLYLINE
  5
248
100
AcDbEntity
  8
DRAFT
100
AcDbPolyline
 62
7
  6
CONTINUOUS
 90
7
 70
0
 10
-40.0227683442
 20
-2.0178801897
 10
-40.0230628457
 20
-2.0059376206
 10
-40.0233708163
 20
-1.9962263037
 10
-40.0236893377
 20
-1.9889694824
 10
-40.0240221706
 20
-1.9841732795
 10
-40.0243655543
 20
-1.9818315722
 10
-40.0244371313
 20
-1.9816716038
  0
LWPOLYLINE
  5
249
100
AcDbEntity
  8
DRAFT
100
AcDbPolyline
 62
7
  6
CONTINUOUS
 90
7
 70
0
 10
-40.0262728336
 20
2.0222389504
 10
-40.0259800236
 20
2.0093482675
 10
-40.0256747997
 20
1.9988537906
 10
-40.0253558613
 20
1.9907828385
 10
-40.0250245089
 20
1.9851080926
 10
-40.0246906809
 20
1.9820744985
 10
-40.0244371161
 20
1.9816394343
  0
LINE
  5
24A
100
AcDbEntity
  8
DRAFT
100
AcDbLine
 62
7
  6
CONTINUOUS
 10
-38.9831231009
 20
-4.0168768991
 11
-38.9964469686
 21
-3.2535530314
  0
LINE
  5
24B
100
AcDbEntity
  8
DRAFT
100
AcDbLine
 62
7
  6
CONTINUOUS
 10
-39.0051466838
 20
3.2448533162
 11
-39.0114931534
 21
3.6084423186
  0
LINE
  5
24C
100
AcDbEntity
  8
DRAFT
100
AcDbLine
 62
7
  6
CONTINUOUS
 10
-40.0222216937
 20
-2.0483102555
 11
-40.0227683442
 21
-2.0178801897
  0
LINE
  5
24D
100
AcDbEntity
  8
DRAFT
100
AcDbLine
 62
7
  6
CONTINUOUS
 10
-40.0268031454
 20
2.0542200216
 11
-40.0262728336
 21
2.0222389504
  0
LINE
  5
24E
100
AcDbEntity
  8
DRAFT
100
AcDbLine
 62
7
  6
CONTINUOUS
 10
-40.0222216937
 20
-2.0483102555
 11
-40.0142121255
 21
-2.6590280662
  0
LINE
  5
24F
100
AcDbEntity
  8
DRAFT
100
AcDbLine
 62
7
  6
CONTINUOUS
 10
-40.0274424499
 20
2.1167166208
 11
-40.0268031454
 21
2.0542200216
  0
LINE
  5
250
100
AcDbEntity
  8
DRAFT
100
AcDbLine
 62
7
  6
CONTINUOUS
 10
-40.0278343258
 20
2.1947139324
 11
-40.0274424499
 21
2.1167166208
  0
LINE
  5
251
100
AcDbEntity
  8
DRAFT
100
AcDbLine
 62
7
  6
CONTINUOUS
 10
-40.0278343258
 20
2.1947139324
 11
-40.0279281039
 21
5.25
  0
LINE
  5
252
100
AcDbEntity
  8
DRAFT
100
AcDbLine
 62
7
  6
CONTINUOUS
 10
-40.0
 20
5.25
 11
-40.0
 21
4.3084219849
  0
LINE
  5
253
100
AcDbEntity
  8
DRAFT
100
AcDbLine
 62
7
  6
CONTINUOUS
 10
-40.0
 20
-4.3084219849
 11
-40.0
 21
-5.25
  0
LINE
  5
254
100
AcDbEntity
  8
DRAFT
100
AcDbLine
 62
7
  6
CONTINUOUS
 10
-39.9860359481
 20
4.2994997051
 11
-39.9860359481
 21
2.7151271344
  0
LINE
  5
255
100
AcDbEntity
  8
DRAFT
100
AcDbLine
 62
7
  6
CONTINUOUS
 10
-39.9860359481
 20
-2.7151271344
 11
-39.9860359481
 21
-4.2994997051
  0
LINE
  5
256
100
AcDbEntity
  8
DRAFT
100
AcDbLine
 62
7
  6
CONTINUOUS
 10
-39.0139640519
 20
4.6262202069
 11
-39.0139640519
 21
3.6103153465
  0
LINE
  5
257
100
AcDbEntity
  8
DRAFT
100
AcDbLine
 62
7
  6
CONTINUOUS
 10
-39.0139640519
 20
-4.6262202069
 11
-39.0139640519
 21
-3.6103153465
  0
LINE
  5
258
100
AcDbEntity
  8
DRAFT
100
AcDbLine
 62
7
  6
CONTINUOUS
 10
-39.0
 20
-5.25
 11
-39.0
 21
-4.6435439053
  0
LINE
  5
259
100
AcDbEntity
  8
DRAFT
100
AcDbLine
 62
7
  6
CONTINUOUS
 10
-39.0
 20
4.6435439053
 11
-39.0
 21
5.25
  0
LINE
  5
25A
100
AcDbEntity
  8
DRAFT
100
AcDbLine
 62
7
  6
CONTINUOUS
 10
-38.9720718961
 20
-5.25
 11
-38.9720718961
 21
-4.0279281039
  0
LINE
  5
25B
100
AcDbEntity
  8
DRAFT
100
AcDbLine
 62
7
  6
CONTINUOUS
 10
-38.9720718961
 20
4.0279281039
 11
-38.9720718961
 21
5.25
  0
LINE
  5
25C
100
AcDbEntity
  8
DRAFT
100
AcDbLine
 62
7
  6
CONTINUOUS
 10
-40.0277391469
 20
-2.1672367251
 11
-40.0279281039
 21
-5.25
  0
LINE
  5
25D
100
AcDbEntity
  8
DRAFT
100
AcDbLine
 62
7
  6
CONTINUOUS
 10
-40.027257738
 20
-2.0946229873
 11
-40.0277391469
 21
-2.1672367251
  0
LINE
  5
25E
100
AcDbEntity
  8
DRAFT
100
AcDbLine
 62
7
  6
CONTINUOUS
 10
-40.0268110041
 20
-2.0547878316
 11
-40.027257738
 21
-2.0946229873
  0
LINE
  5
25F
100
AcDbEntity
  8
DRAFT
100
AcDbLine
 62
7
  6
CONTINUOUS
 10
-38.9964469686
 20
3.2535530314
 11
-38.9831231009
 21
4.0168768991
  0
LINE
  5
260
100
AcDbEntity
  8
DRAFT
100
AcDbLine
 62
7
  6
CONTINUOUS
 10
-39.0114931534
 20
-3.6084423186
 11
-39.0051466838
 21
-3.2448533162
  0
LWPOLYLINE
  5
261
100
AcDbEntity
  8
DRAFT
100
AcDbPolyline
 62
7
  6
CONTINUOUS
 90
9
 70
0
 10
-40.0244371161
 20
1.9816394343
 10
-40.0243535816
 20
1.9818327634
 10
-40.0240140068
 20
1.9842321802
 10
-40.0236842811
 20
1.9890655731
 10
-40.0233673587
 20
1.9963339914
 10
-40.0230602854
 20
2.0060363858
 10
-40.0227665238
 20
2.0179624328
 10
-40.0224872282
 20
2.0320420248
 10
-40.0142121255
 20
2.6590280662
  0
LWPOLYLINE
  5
262
100
AcDbEntity
  8
DRAFT
100
AcDbPolyline
 62
7
  6
CONTINUOUS
 90
7
 70
0
 10
-35.9772316558
 20
2.0178801897
 10
-35.9769371543
 20
2.0059376206
 10
-35.9766291837
 20
1.9962263037
 10
-35.9763106623
 20
1.9889694824
 10
-35.9759778294
 20
1.9841732795
 10
-35.9756344457
 20
1.9818315722
 10
-35.9755628687
 20
1.9816716038
  0
LWPOLYLINE
  5
263
100
AcDbEntity
  8
DRAFT
100
AcDbPolyline
 62
7
  6
CONTINUOUS
 90
7
 70
0
 10
-35.9737271664
 20
-2.0222389504
 10
-35.9740199764
 20
-2.0093482675
 10
-35.9743252003
 20
-1.9988537906
 10
-35.9746441387
 20
-1.9907828385
 10
-35.9749754911
 20
-1.9851080926
 10
-35.9753093191
 20
-1.9820744985
 10
-35.9755628839
 20
-1.9816394343
  0
LINE
  5
264
100
AcDbEntity
  8
DRAFT
100
AcDbLine
 62
7
  6
CONTINUOUS
 10
-36.9885068466
 20
-3.6084423186
 11
-36.9948533162
 21
-3.2448533162
  0
LINE
  5
265
100
AcDbEntity
  8
DRAFT
100
AcDbLine
 62
7
  6
CONTINUOUS
 10
-37.0035530314
 20
3.2535530314
 11
-37.0168768991
 21
4.0168768991
  0
LINE
  5
266
100
AcDbEntity
  8
DRAFT
100
AcDbLine
 62
7
  6
CONTINUOUS
 10
-35.9777783063
 20
2.0483102555
 11
-35.9772316558
 21
2.0178801897
  0
LINE
  5
267
100
AcDbEntity
  8
DRAFT
100
AcDbLine
 62
7
  6
CONTINUOUS
 10
-35.9731968546
 20
-2.0542200216
 11
-35.9737271664
 21
-2.0222389504
  0
LINE
  5
268
100
AcDbEntity
  8
DRAFT
100
AcDbLine
 62
7
  6
CONTINUOUS
 10
-35.9777783063
 20
2.0483102555
 11
-35.9857878745
 21
2.6590280662
  0
LINE
  5
269
100
AcDbEntity
  8
DRAFT
100
AcDbLine
 62
7
  6
CONTINUOUS
 10
-35.9725575501
 20
-2.1167166208
 11
-35.9731968546
 21
-2.0542200216
  0
LINE
  5
26A
100
AcDbEntity
  8
DRAFT
100
AcDbLine
 62
7
  6
CONTINUOUS
 10
-35.9721656742
 20
-2.1947139324
 11
-35.9725575501
 21
-2.1167166208
  0
LINE
  5
26B
100
AcDbEntity
  8
DRAFT
100
AcDbLine
 62
7
  6
CONTINUOUS
 10
-37.0279281039
 20
5.25
 11
-37.0279281039
 21
4.0279281039
  0
LINE
  5
26C
100
AcDbEntity
  8
DRAFT
100
AcDbLine
 62
7
  6
CONTINUOUS
 10
-37.0279281039
 20
-4.0279281039
 11
-37.0279281039
 21
-5.25
  0
LINE
  5
26D
100
AcDbEntity
  8
DRAFT
100
AcDbLine
 62
7
  6
CONTINUOUS
 10
-37.0
 20
5.25
 11
-37.0
 21
4.6435439053
  0
LINE
  5
26E
100
AcDbEntity
  8
DRAFT
100
AcDbLine
 62
7
  6
CONTINUOUS
 10
-37.0
 20
-4.6435439053
 11
-37.0
 21
-5.25
  0
LINE
  5
26F
100
AcDbEntity
  8
DRAFT
100
AcDbLine
 62
7
  6
CONTINUOUS
 10
-36.9860359481
 20
4.6262202069
 11
-36.9860359481
 21
3.6103153465
  0
LINE
  5
270
100
AcDbEntity
  8
DRAFT
100
AcDbLine
 62
7
  6
CONTINUOUS
 10
-36.9860359481
 20
-4.6262202069
 11
-36.9860359481
 21
-3.6103153465
  0
LINE
  5
271
100
AcDbEntity
  8
DRAFT
100
AcDbLine
 62
7
  6
CONTINUOUS
 10
-36.0139640519
 20
-4.2994997051
 11
-36.0139640519
 21
-2.7151271344
  0
LINE
  5
272
100
AcDbEntity
  8
DRAFT
100
AcDbLine
 62
7
  6
CONTINUOUS
 10
-36.0139640519
 20
2.7151271344
 11
-36.0139640519
 21
4.2994997051
  0
LINE
  5
273
100
AcDbEntity
  8
DRAFT
100
AcDbLine
 62
7
  6
CONTINUOUS
 10
-36.0
 20
-5.25
 11
-36.0
 21
-4.3084219849
  0
LINE
  5
274
100
AcDbEntity
  8
DRAFT
100
AcDbLine
 62
7
  6
CONTINUOUS
 10
-36.0
 20
4.3084219849
 11
-36.0
 21
5.25
  0
LINE
  5
275
100
AcDbEntity
  8
DRAFT
100
AcDbLine
 62
7
  6
CONTINUOUS
 10
-35.9721656742
 20
-2.1947139324
 11
-35.9720718961
 21
-5.25
  0
LINE
  5
276
100
AcDbEntity
  8
DRAFT
100
AcDbLine
 62
7
  6
CONTINUOUS
 10
-35.9722608531
 20
2.1672367251
 11
-35.9720718961
 21
5.25
  0
LINE
  5
277
100
AcDbEntity
  8
DRAFT
100
AcDbLine
 62
7
  6
CONTINUOUS
 10
-35.972742262
 20
2.0946229873
 11
-35.9722608531
 21
2.1672367251
  0
LINE
  5
278
100
AcDbEntity
  8
DRAFT
100
AcDbLine
 62
7
  6
CONTINUOUS
 10
-35.9731889959
 20
2.0547878316
 11
-35.972742262
 21
2.0946229873
  0
LINE
  5
279
100
AcDbEntity
  8
DRAFT
100
AcDbLine
 62
7
  6
CONTINUOUS
 10
-36.9948533162
 20
3.2448533162
 11
-36.9885068466
 21
3.6084423186
  0
LINE
  5
27A
100
AcDbEntity
  8
DRAFT
100
AcDbLine
 62
7
  6
CONTINUOUS
 10
-37.0168768991
 20
-4.0168768991
 11
-37.0035530314
 21
-3.2535530314
  0
LWPOLYLINE
  5
27B
100
AcDbEntity
  8
RACCORDO
100
AcDbPolyline
 62
250
  6
CONTINUOUS
 90
19
 70
0
 10
-34.4589278676
 20
6.85900402
 10
-34.457012975
 20
6.9025668289
 10
-34.4513094024
 20
6.945798227
 10
-34.4418605405
 20
6.9883693248
 10
-34.4287382731
 20
7.0299562561
 10
-34.4120424297
 20
7.0702426419
 10
-34.3919000266
 20
7.1089219972
 10
-34.3684643004
 20
7.1457000629
 10
-34.3419135418
 20
7.1802970441
 10
-34.3124497398
 20
7.212449739
 10
-34.2802970449
 20
7.2419135411
 10
-34.2457000637
 20
7.2684642998
 10
-34.208921998
 20
7.2919000262
 10
-34.1702426426
 20
7.3120424294
 10
-34.1299562568
 20
7.3287382728
 10
-34.0883693253
 20
7.3418605404
 10
-34.0457982274
 20
7.3513094023
 10
-34.0025668291
 20
7.357012975
 10
-33.95900402
 20
7.3589278676
  0
LINE
  5
27C
100
AcDbEntity
  8
DRAFT
100
AcDbLine
 62
7
  6
CONTINUOUS
 10
-39.998592255
 20
2.6902718783
 11
-40.0142121255
 21
2.6590280662
  0
LINE
  5
27D
100
AcDbEntity
  8
DRAFT
100
AcDbLine
 62
7
  6
CONTINUOUS
 10
-39.9860359481
 20
2.7151271344
 11
-39.998592255
 21
2.6902718783
  0
LINE
  5
27E
100
AcDbEntity
  8
DRAFT
100
AcDbLine
 62
7
  6
CONTINUOUS
 10
-39.9860359481
 20
-2.7151271344
 11
-40.0017229427
 21
-2.6840388625
  0
LINE
  5
27F
100
AcDbEntity
  8
DRAFT
100
AcDbLine
 62
7
  6
CONTINUOUS
 10
-40.0017229427
 20
-2.6840388625
 11
-40.0142121255
 21
-2.6590280662
  0
LWPOLYLINE
  5
280
100
AcDbEntity
  8
RACCORDO
100
AcDbPolyline
 62
250
  6
CONTINUOUS
 90
3
 70
0
 10
-33.9866768695
 20
-7.1437624652
 10
-33.9882206409
 20
-7.1071685304
 10
-33.9908454354
 20
-7.0287001948
  0
LINE
  5
281
100
AcDbEntity
  8
RACCORDO
100
AcDbLine
 62
250
  6
CONTINUOUS
 10
-33.9908454354
 20
-7.0287001948
 11
-33.9917057403
 21
-6.9873639742
  0
LWPOLYLINE
  5
282
100
AcDbEntity
  8
RACCORDO
100
AcDbPolyline
 62
250
  6
CONTINUOUS
 90
3
 70
0
 10
-33.9917057403
 20
-6.9873639742
 10
-33.9923988742
 20
-6.9020791223
 10
-33.992997017
 20
-6.85900402
  0
LINE
  5
283
100
AcDbEntity
  8
RACCORDO
100
AcDbLine
 62
7
  6
CONTINUOUS
 10
-34.5
 20
6.9000761524
 11
-34.5
 21
2.5157095584
  0
LINE
  5
284
100
AcDbEntity
  8
RACCORDO
100
AcDbLine
 62
7
  6
CONTINUOUS
 10
-34.5
 20
-2.5157095584
 11
-34.5
 21
-6.9000761524
  0
LINE
  5
285
100
AcDbEntity
  8
DRAFT
100
AcDbLine
 62
7
  6
CONTINUOUS
 10
-34.4842904416
 20
-2.5
 11
-34.4842904416
 21
2.5
  0
LINE
  5
286
100
AcDbEntity
  8
RACCORDO
100
AcDbLine
 62
250
  6
CONTINUOUS
 10
-34.4589278676
 20
-6.85900402
 11
-34.4589278676
 21
6.85900402
  0
LINE
  5
287
100
AcDbEntity
  8
RACCORDO
100
AcDbLine
 62
250
  6
CONTINUOUS
 10
-33.992997017
 20
-6.85900402
 11
-33.992997017
 21
6.85900402
  0
LWPOLYLINE
  5
288
100
AcDbEntity
  8
RACCORDO
100
AcDbPolyline
 62
250
  6
CONTINUOUS
 90
3
 70
0
 10
-33.9917057471
 20
6.9873639646
 10
-33.9923988774
 20
6.9020791188
 10
-33.992997017
 20
6.85900402
  0
LWPOLYLINE
  5
289
100
AcDbEntity
  8
RACCORDO
100
AcDbPolyline
 62
250
  6
CONTINUOUS
 90
3
 70
0
 10
-33.9882206474
 20
7.1071685144
 10
-33.9908454427
 20
7.0287001825
 10
-33.9917057471
 20
6.9873639646
  0
LWPOLYLINE
  5
28A
100
AcDbEntity
  8
RACCORDO
100
AcDbPolyline
 62
250
  6
CONTINUOUS
 90
3
 70
0
 10
-33.9827845678
 20
7.2101924944
 10
-33.986676876
 20
7.1437624489
 10
-33.9882206474
 20
7.1071685144
  0
LWPOLYLINE
  5
28B
100
AcDbEntity
  8
DRAFT
100
AcDbPolyline
 62
7
  6
CONTINUOUS
 90
9
 70
0
 10
-35.9755628839
 20
-1.9816394343
 10
-35.9756464184
 20
-1.9818327634
 10
-35.9759859932
 20
-1.9842321802
 10
-35.9763157189
 20
-1.9890655731
 10
-35.9766326413
 20
-1.9963339914
 10
-35.9769397146
 20
-2.0060363858
 10
-35.9772334762
 20
-2.0179624328
 10
-35.9775127718
 20
-2.0320420248
 10
-35.9857878745
 20
-2.6590280662
  0
LWPOLYLINE
  5
28C
100
AcDbEntity
  8
DRAFT
100
AcDbPolyline
 62
7
  6
CONTINUOUS
 90
8
 70
0
 10
-40.0244371313
 20
-1.9816716038
 10
-40.0247052893
 20
-1.982149235
 10
-40.0250396737
 20
-1.9852882432
 10
-40.0253704093
 20
-1.9910866215
 10
-40.025688402
 20
-1.9992633197
 10
-40.0259925775
 20
-2.0098388444
 10
-40.0262840101
 20
-2.0227926889
 10
-40.0268110041
 20
-2.0547878316
  0
LWPOLYLINE
  5
28D
100
AcDbEntity
  8
DRAFT
100
AcDbPolyline
 62
7
  6
CONTINUOUS
 90
8
 70
0
 10
-35.9755628687
 20
1.9816716038
 10
-35.9752947107
 20
1.982149235
 10
-35.9749603263
 20
1.9852882432
 10
-35.9746295907
 20
1.9910866215
 10
-35.974311598
 20
1.9992633197
 10
-35.9740074225
 20
2.0098388444
 10
-35.9737159899
 20
2.0227926889
 10
-35.9731889959
 20
2.0547878316
  0
LINE
  5
28E
100
AcDbEntity
  8
DRAFT
100
AcDbLine
 62
7
  6
CONTINUOUS
 10
-39.0139640519
 20
4.6262202069
 11
-39.0
 21
4.6435439053
  0
LINE
  5
28F
100
AcDbEntity
  8
DRAFT
100
AcDbLine
 62
7
  6
CONTINUOUS
 10
-39.0
 20
-4.6435439053
 11
-39.0139640519
 21
-4.6262202069
  0
LINE
  5
290
100
AcDbEntity
  8
DRAFT
100
AcDbLine
 62
7
  6
CONTINUOUS
 10
-36.001407745
 20
-2.6902718783
 11
-35.9857878745
 21
-2.6590280662
  0
LINE
  5
291
100
AcDbEntity
  8
DRAFT
100
AcDbLine
 62
7
  6
CONTINUOUS
 10
-36.0139640519
 20
-2.7151271344
 11
-36.001407745
 21
-2.6902718783
  0
LINE
  5
292
100
AcDbEntity
  8
DRAFT
100
AcDbLine
 62
7
  6
CONTINUOUS
 10
-38.9831231009
 20
4.0168768991
 11
-38.9720718961
 21
4.0279281039
  0
LINE
  5
293
100
AcDbEntity
  8
DRAFT
100
AcDbLine
 62
7
  6
CONTINUOUS
 10
-38.9964469686
 20
3.2535530314
 11
-39.0051466838
 21
3.2448533162
  0
LINE
  5
294
100
AcDbEntity
  8
DRAFT
100
AcDbLine
 62
7
  6
CONTINUOUS
 10
-38.9831231009
 20
-4.0168768991
 11
-38.9720718961
 21
-4.0279281039
  0
LINE
  5
295
100
AcDbEntity
  8
DRAFT
100
AcDbLine
 62
7
  6
CONTINUOUS
 10
-39.0051466838
 20
-3.2448533162
 11
-38.9964469686
 21
-3.2535530314
  0
LINE
  5
296
100
AcDbEntity
  8
DRAFT
100
AcDbLine
 62
7
  6
CONTINUOUS
 10
-36.0139640519
 20
2.7151271344
 11
-35.9982770573
 21
2.6840388625
  0
LINE
  5
297
100
AcDbEntity
  8
DRAFT
100
AcDbLine
 62
7
  6
CONTINUOUS
 10
-35.9982770573
 20
2.6840388625
 11
-35.9857878745
 21
2.6590280662
  0
LINE
  5
298
100
AcDbEntity
  8
DRAFT
100
AcDbLine
 62
7
  6
CONTINUOUS
 10
-36.9860359481
 20
-4.6262202069
 11
-37.0
 21
-4.6435439053
  0
LWPOLYLINE
  5
299
100
AcDbEntity
  8
RACCORDO
100
AcDbPolyline
 62
250
  6
CONTINUOUS
 90
10
 70
0
 10
-33.959004021
 20
7.3589278676
 10
-33.9622559901
 20
7.3563174188
 10
-33.9650499651
 20
7.3501130074
 10
-33.9676208741
 20
7.3403979137
 10
-33.9704139835
 20
7.3270942431
 10
-33.9733030732
 20
7.3101517959
 10
-33.9757474478
 20
7.2898117144
 10
-33.978139681
 20
7.2663199113
 10
-33.9807078199
 20
7.2397057685
 10
-33.9827845678
 20
7.2101924944
  0
LWPOLYLINE
  5
29A
100
AcDbEntity
  8
RACCORDO
100
AcDbPolyline
 62
250
  6
CONTINUOUS
 90
11
 70
0
 10
-33.959004021
 20
-7.3589278676
 10
-33.9622559883
 20
-7.3563174198
 10
-33.9650499623
 20
-7.3501130106
 10
-33.9676208708
 20
-7.3403979203
 10
-33.9704139791
 20
-7.3270942539
 10
-33.9733030676
 20
-7.3101518117
 10
-33.975747442
 20
-7.2898117345
 10
-33.9781396758
 20
-7.2663199323
 10
-33.9807078146
 20
-7.2397057874
 10
-33.9827845618
 20
-7.2101925109
 10
-33.9866768695
 20
-7.1437624652
  0
LINE
  5
29B
100
AcDbEntity
  8
DRAFT
100
AcDbLine
 62
7
  6
CONTINUOUS
 10
-37.0
 20
4.6435439053
 11
-36.9860359481
 21
4.6262202069
  0
LINE
  5
29C
100
AcDbEntity
  8
DRAFT
100
AcDbLine
 62
7
  6
CONTINUOUS
 10
-36.9948533162
 20
-3.2448533162
 11
-37.0035530314
 21
-3.2535530314
  0
LINE
  5
29D
100
AcDbEntity
  8
DRAFT
100
AcDbLine
 62
7
  6
CONTINUOUS
 10
-37.0168768991
 20
-4.0168768991
 11
-37.0279281039
 21
-4.0279281039
  0
LINE
  5
29E
100
AcDbEntity
  8
DRAFT
100
AcDbLine
 62
7
  6
CONTINUOUS
 10
-36.9860359481
 20
3.6103153465
 11
-36.9885068466
 21
3.6084423186
  0
LINE
  5
29F
100
AcDbEntity
  8
DRAFT
100
AcDbLine
 62
7
  6
CONTINUOUS
 10
-36.0
 20
4.3084219849
 11
-36.0139640519
 21
4.2994997051
  0
LINE
  5
2A0
100
AcDbEntity
  8
DRAFT
100
AcDbLine
 62
7
  6
CONTINUOUS
 10
-36.0139640519
 20
-4.2994997051
 11
-36.0
 21
-4.3084219849
  0
LINE
  5
2A1
100
AcDbEntity
  8
DRAFT
100
AcDbLine
 62
7
  6
CONTINUOUS
 10
-36.9885068466
 20
-3.6084423186
 11
-36.9860359481
 21
-3.6103153465
  0
LINE
  5
2A2
100
AcDbEntity
  8
DRAFT
100
AcDbLine
 62
7
  6
CONTINUOUS
 10
-37.0035530314
 20
3.2535530314
 11
-36.9948533162
 21
3.2448533162
  0
LINE
  5
2A3
100
AcDbEntity
  8
DRAFT
100
AcDbLine
 62
7
  6
CONTINUOUS
 10
-37.0168768991
 20
4.0168768991
 11
-37.0279281039
 21
4.0279281039
  0
LINE
  5
2A4
100
AcDbEntity
  8
DRAFT
100
AcDbLine
 62
7
  6
CONTINUOUS
 10
-34.5
 20
-2.5157095584
 11
-34.4842904416
 21
-2.5
  0
LINE
  5
2A5
100
AcDbEntity
  8
DRAFT
100
AcDbLine
 62
7
  6
CONTINUOUS
 10
-39.0139640519
 20
-3.6103153465
 11
-39.0114931534
 21
-3.6084423186
  0
LINE
  5
2A6
100
AcDbEntity
  8
DRAFT
100
AcDbLine
 62
7
  6
CONTINUOUS
 10
-39.0114931534
 20
3.6084423186
 11
-39.0139640519
 21
3.6103153465
  0
LINE
  5
2A7
100
AcDbEntity
  8
DRAFT
100
AcDbLine
 62
7
  6
CONTINUOUS
 10
-34.5
 20
2.5157095584
 11
-34.4842904416
 21
2.5
  0
LINE
  5
2A8
100
AcDbEntity
  8
RACCORDO
100
AcDbLine
 62
250
  6
CONTINUOUS
 10
-34.4589278676
 20
-6.85900402
 11
-34.5
 21
-6.9000761524
  0
LINE
  5
2A9
100
AcDbEntity
  8
RACCORDO
100
AcDbLine
 62
250
  6
CONTINUOUS
 10
-33.95900402
 20
-7.3589278676
 11
-34.0000761524
 21
-7.4
  0
LINE
  5
2AA
100
AcDbEntity
  8
DRAFT
100
AcDbLine
 62
7
  6
CONTINUOUS
 10
-40.0
 20
-4.3084219849
 11
-39.9860359481
 21
-4.2994997051
  0
LINE
  5
2AB
100
AcDbEntity
  8
DRAFT
100
AcDbLine
 62
7
  6
CONTINUOUS
 10
-39.9860359481
 20
4.2994997051
 11
-40.0
 21
4.3084219849
  0
LINE
  5
2AC
100
AcDbEntity
  8
RACCORDO
100
AcDbLine
 62
250
  6
CONTINUOUS
 10
-34.5
 20
6.9000761524
 11
-34.4589278676
 21
6.85900402
  0
LINE
  5
2AD
100
AcDbEntity
  8
RACCORDO
100
AcDbLine
 62
250
  6
CONTINUOUS
 10
-34.0000761524
 20
7.4
 11
-33.95900402
 21
7.3589278676
  0
LWPOLYLINE
  5
2AE
100
AcDbEntity
  8
0
100
AcDbPolyline
 62
7
  6
CONTINUOUS
 90
10
 70
0
 43
0.3500000006
 10
1.0714285848
 20
19.1500009918
 10
0.4285714127
 20
18.5071430054
 10
0.0
 20
17.6500005341
 10
0.0
 20
16.578571312
 10
0.4285714127
 20
16.1500000763
 10
1.0714285848
 20
16.1500000763
 10
1.5000000329
 20
16.578571312
 10
1.5000000329
 20
17.4357137833
 10
1.0714285848
 20
17.8642850189
 10
0.1428571435
 20
17.8642850189
  0
LWPOLYLINE
  5
2AF
100
AcDbEntity
  8
RACCORDO
100
AcDbPolyline
 62
250
  6
CONTINUOUS
 90
19
 70
0
 10
-33.95900402
 20
-7.3589278676
 10
-34.0025668291
 20
-7.357012975
 10
-34.0457982274
 20
-7.3513094023
 10
-34.0883693253
 20
-7.3418605404
 10
-34.1299562568
 20
-7.3287382728
 10
-34.1702426426
 20
-7.3120424294
 10
-34.208921998
 20
-7.2919000262
 10
-34.2457000637
 20
-7.2684642998
 10
-34.2802970449
 20
-7.2419135411
 10
-34.3124497398
 20
-7.212449739
 10
-34.3419135418
 20
-7.1802970441
 10
-34.3684643004
 20
-7.1457000629
 10
-34.3919000266
 20
-7.1089219972
 10
-34.4120424297
 20
-7.0702426419
 10
-34.4287382731
 20
-7.0299562561
 10
-34.4418605405
 20
-6.9883693248
 10
-34.4513094024
 20
-6.945798227
 10
-34.457012975
 20
-6.9025668289
 10
-34.4589278676
 20
-6.85900402
  0
LINE
  5
2B0
100
AcDbEntity
  8
RACCORDO
100
AcDbLine
 62
250
  6
CONTINUOUS
 10
-20.1602304425
 20
-7.3458592996
 11
-33.95900402
 21
-7.3589278676
  0
LINE
  5
2B1
100
AcDbEntity
  8
RACCORDO
100
AcDbLine
 62
250
  6
CONTINUOUS
 10
-20.1804108534
 20
-6.845935452
 11
-33.992997017
 21
-6.85900402
  0
LINE
  5
2B2
100
AcDbEntity
  8
RACCORDO
100
AcDbLine
 62
7
  6
CONTINUOUS
 10
-34.0000761524
 20
-7.4
 11
34.0000761524
 21
-7.4
  0
LINE
  5
2B3
100
AcDbEntity
  8
DRAFT
100
AcDbLine
 62
7
  6
CONTINUOUS
 10
-42.0050125629
 20
-7.4
 11
42.0050125629
 21
-7.4
  0
LINE
  5
2B4
100
AcDbEntity
  8
RACCORDO
100
AcDbLine
 62
250
  6
CONTINUOUS
 10
2.6366910262
 20
-7.3388808317
 11
-20.1602304425
 21
-7.3458592996
  0
LINE
  5
2B5
100
AcDbEntity
  8
RACCORDO
100
AcDbLine
 62
250
  6
CONTINUOUS
 10
-34.4589278676
 20
-6.85900402
 11
-33.992997017
 21
-6.85900402
  0
LINE
  5
2B6
100
AcDbEntity
  8
RACCORDO
100
AcDbLine
 62
250
  6
CONTINUOUS
 10
2.6392276145
 20
-6.8389569841
 11
-20.1804108534
 21
-6.845935452
  0
LINE
  5
2B7
100
AcDbEntity
  8
RACCORDO
100
AcDbLine
 62
250
  6
CONTINUOUS
 10
15.9894736668
 20
-7.3432059433
 11
2.6366910262
 21
-7.3388808317
  0
LINE
  5
2B8
100
AcDbEntity
  8
RACCORDO
100
AcDbLine
 62
250
  6
CONTINUOUS
 10
16.0053279772
 20
-6.8432820958
 11
2.6392276145
 21
-6.8389569841
  0
LWPOLYLINE
  5
2B9
100
AcDbEntity
  8
RACCORDO
100
AcDbPolyline
 62
250
  6
CONTINUOUS
 90
3
 70
0
 10
33.95900402
 20
-7.3589278676
 10
29.4261202627
 20
-7.3539180049
 10
15.9894736668
 20
-7.3432059433
  0
LWPOLYLINE
  5
2BA
100
AcDbEntity
  8
RACCORDO
100
AcDbPolyline
 62
250
  6
CONTINUOUS
 90
3
 70
0
 10
34.4589278676
 20
-6.85900402
 10
29.4562333318
 20
-6.8539941573
 10
16.0053279772
 20
-6.8432820958
  0
LINE
  5
2BB
100
AcDbEntity
  8
DRAFT
100
AcDbLine
 62
250
  6
CONTINUOUS
 10
40.0279281039
 20
-5.25
 11
40.0
 21
-5.25
  0
LINE
  5
2BC
100
AcDbEntity
  8
DRAFT
100
AcDbLine
 62
250
  6
CONTINUOUS
 10
-40.0279281039
 20
-5.25
 11
-40.0
 21
-5.25
  0
LINE
  5
2BD
100
AcDbEntity
  8
DRAFT
100
AcDbLine
 62
250
  6
CONTINUOUS
 10
37.0279281039
 20
-5.25
 11
37.0
 21
-5.25
  0
LINE
  5
2BE
100
AcDbEntity
  8
DRAFT
100
AcDbLine
 62
250
  6
CONTINUOUS
 10
-37.0279281039
 20
-5.25
 11
-37.0
 21
-5.25
  0
LINE
  5
2BF
100
AcDbEntity
  8
DRAFT
100
AcDbLine
 62
250
  6
CONTINUOUS
 10
35.9720718961
 20
-5.25
 11
36.0
 21
-5.25
  0
LINE
  5
2C0
100
AcDbEntity
  8
DRAFT
100
AcDbLine
 62
250
  6
CONTINUOUS
 10
-35.9720718961
 20
-5.25
 11
-36.0
 21
-5.25
  0
LINE
  5
2C1
100
AcDbEntity
  8
DRAFT
100
AcDbLine
 62
250
  6
CONTINUOUS
 10
38.9720718961
 20
-5.25
 11
39.0
 21
-5.25
  0
LINE
  5
2C2
100
AcDbEntity
  8
DRAFT
100
AcDbLine
 62
250
  6
CONTINUOUS
 10
-38.9720718961
 20
-5.25
 11
-39.0
 21
-5.25
  0
LINE
  5
2C3
100
AcDbEntity
  8
DRAFT
100
AcDbLine
 62
7
  6
CONTINUOUS
 10
-38.9720718961
 20
-4.0279281039
 11
-37.0279281039
 21
-4.0279281039
  0
LINE
  5
2C4
100
AcDbEntity
  8
DRAFT
100
AcDbLine
 62
7
  6
CONTINUOUS
 10
37.0279281039
 20
-4.0279281039
 11
38.9720718961
 21
-4.0279281039
  0
LINE
  5
2C5
100
AcDbEntity
  8
DRAFT
100
AcDbLine
 62
7
  6
CONTINUOUS
 10
-38.9831231009
 20
-4.0168768991
 11
-37.0168768991
 21
-4.0168768991
  0
LINE
  5
2C6
100
AcDbEntity
  8
DRAFT
100
AcDbLine
 62
7
  6
CONTINUOUS
 10
37.0168768991
 20
-4.0168768991
 11
38.9831231009
 21
-4.0168768991
  0
LINE
  5
2C7
100
AcDbEntity
  8
DRAFT
100
AcDbLine
 62
7
  6
CONTINUOUS
 10
38.9964469686
 20
-3.2535530314
 11
37.0035530314
 21
-3.2535530314
  0
LINE
  5
2C8
100
AcDbEntity
  8
DRAFT
100
AcDbLine
 62
7
  6
CONTINUOUS
 10
-37.0035530314
 20
-3.2535530314
 11
-38.9964469686
 21
-3.2535530314
  0
LINE
  5
2C9
100
AcDbEntity
  8
DRAFT
100
AcDbLine
 62
7
  6
CONTINUOUS
 10
-39.0051466838
 20
-3.2448533162
 11
-36.9948533162
 21
-3.2448533162
  0
LINE
  5
2CA
100
AcDbEntity
  8
DRAFT
100
AcDbLine
 62
7
  6
CONTINUOUS
 10
39.0051466838
 20
-3.2448533162
 11
36.9948533162
 21
-3.2448533162
  0
LWPOLYLINE
  5
2CB
100
AcDbEntity
  8
0
100
AcDbPolyline
 62
7
  6
CONTINUOUS
 90
4
 70
0
 43
0.3500000006
 10
-2.3571427875
 20
16.578571312
 10
-2.3571427875
 20
17.4357137833
 10
-1.9285714102
 20
17.8642850189
 10
-1.2857142735
 20
17.8642850189
  0
LWPOLYLINE
  5
2CC
100
AcDbEntity
  8
0
100
AcDbPolyline
 62
7
  6
CONTINUOUS
 90
2
 70
0
 43
0.3500000006
 10
50.2500017395
 20
-1.3571429443
 10
48.7500012817
 20
-1.3571429443
  0
LWPOLYLINE
  5
2CD
100
AcDbEntity
  8
0
100
AcDbPolyline
 62
7
  6
CONTINUOUS
 90
4
 70
0
 43
0.3500000006
 10
49.8214282379
 20
1.7142846222
 10
48.9642857666
 20
1.7142846222
 10
48.535712265
 20
2.1428581238
 10
48.535712265
 20
2.7857138443
  0
LINE
  5
2CE
100
AcDbEntity
  8
DRAFT
100
AcDbLine
 62
7
  6
CONTINUOUS
 10
-39.0051466838
 20
3.2448533162
 11
-36.9948533162
 21
3.2448533162
  0
LINE
  5
2CF
100
AcDbEntity
  8
DRAFT
100
AcDbLine
 62
7
  6
CONTINUOUS
 10
39.0051466838
 20
3.2448533162
 11
36.9948533162
 21
3.2448533162
  0
LINE
  5
2D0
100
AcDbEntity
  8
DRAFT
100
AcDbLine
 62
7
  6
CONTINUOUS
 10
-38.9964469686
 20
3.2535530314
 11
-37.0035530314
 21
3.2535530314
  0
LINE
  5
2D1
100
AcDbEntity
  8
DRAFT
100
AcDbLine
 62
7
  6
CONTINUOUS
 10
37.0035530314
 20
3.2535530314
 11
38.9964469686
 21
3.2535530314
  0
LINE
  5
2D2
100
AcDbEntity
  8
DRAFT
100
AcDbLine
 62
7
  6
CONTINUOUS
 10
-38.9831231009
 20
4.0168768991
 11
-37.0168768991
 21
4.0168768991
  0
LINE
  5
2D3
100
AcDbEntity
  8
DRAFT
100
AcDbLine
 62
7
  6
CONTINUOUS
 10
37.0168768991
 20
4.0168768991
 11
38.9831231009
 21
4.0168768991
  0
LINE
  5
2D4
100
AcDbEntity
  8
DRAFT
100
AcDbLine
 62
7
  6
CONTINUOUS
 10
-38.9720718961
 20
4.0279281039
 11
-37.0279281039
 21
4.0279281039
  0
LINE
  5
2D5
100
AcDbEntity
  8
DRAFT
100
AcDbLine
 62
7
  6
CONTINUOUS
 10
37.0279281039
 20
4.0279281039
 11
38.9720718961
 21
4.0279281039
  0
LINE
  5
2D6
100
AcDbEntity
  8
DRAFT
100
AcDbLine
 62
250
  6
CONTINUOUS
 10
40.0279281039
 20
5.25
 11
40.0
 21
5.25
  0
LINE
  5
2D7
100
AcDbEntity
  8
DRAFT
100
AcDbLine
 62
250
  6
CONTINUOUS
 10
-40.0279281039
 20
5.25
 11
-40.0
 21
5.25
  0
LINE
  5
2D8
100
AcDbEntity
  8
DRAFT
100
AcDbLine
 62
250
  6
CONTINUOUS
 10
-37.0279281039
 20
5.25
 11
-37.0
 21
5.25
  0
LINE
  5
2D9
100
AcDbEntity
  8
DRAFT
100
AcDbLine
 62
250
  6
CONTINUOUS
 10
37.0279281039
 20
5.25
 11
37.0
 21
5.25
  0
LINE
  5
2DA
100
AcDbEntity
  8
DRAFT
100
AcDbLine
 62
250
  6
CONTINUOUS
 10
-35.9720718961
 20
5.25
 11
-36.0
 21
5.25
  0
LINE
  5
2DB
100
AcDbEntity
  8
DRAFT
100
AcDbLine
 62
250
  6
CONTINUOUS
 10
35.9720718961
 20
5.25
 11
36.0
 21
5.25
  0
LINE
  5
2DC
100
AcDbEntity
  8
DRAFT
100
AcDbLine
 62
250
  6
CONTINUOUS
 10
-38.9720718961
 20
5.25
 11
-39.0
 21
5.25
  0
LINE
  5
2DD
100
AcDbEntity
  8
DRAFT
100
AcDbLine
 62
250
  6
CONTINUOUS
 10
38.9720718961
 20
5.25
 11
39.0
 21
5.25
  0
LINE
  5
2DE
100
AcDbEntity
  8
RACCORDO
100
AcDbLine
 62
250
  6
CONTINUOUS
 10
20.1804521702
 20
6.8459354811
 11
33.992997017
 21
6.85900402
  0
LINE
  5
2DF
100
AcDbEntity
  8
RACCORDO
100
AcDbLine
 62
250
  6
CONTINUOUS
 10
20.160271718
 20
7.3458593287
 11
33.95900402
 21
7.3589278676
  0
LINE
  5
2E0
100
AcDbEntity
  8
RACCORDO
100
AcDbLine
 62
250
  6
CONTINUOUS
 10
6.4208812284
 20
6.8395500512
 11
20.1804521702
 21
6.8459354811
  0
LINE
  5
2E1
100
AcDbEntity
  8
RACCORDO
100
AcDbLine
 62
250
  6
CONTINUOUS
 10
6.4144603471
 20
7.3394738988
 11
20.160271718
 21
7.3458593287
  0
LINE
  5
2E2
100
AcDbEntity
  8
RACCORDO
100
AcDbLine
 62
250
  6
CONTINUOUS
 10
34.4589278676
 20
6.85900402
 11
33.992997017
 21
6.85900402
  0
LINE
  5
2E3
100
AcDbEntity
  8
RACCORDO
100
AcDbLine
 62
7
  6
CONTINUOUS
 10
-34.0000761524
 20
7.4
 11
34.0000761524
 21
7.4
  0
LINE
  5
2E4
100
AcDbEntity
  8
DRAFT
100
AcDbLine
 62
7
  6
CONTINUOUS
 10
42.0050125629
 20
7.4
 11
-42.0050125629
 21
7.4
  0
LINE
  5
2E5
100
AcDbEntity
  8
RACCORDO
100
AcDbLine
 62
250
  6
CONTINUOUS
 10
-7.1323340564
 20
6.8397182084
 11
6.4208812284
 21
6.8395500512
  0
LINE
  5
2E6
100
AcDbEntity
  8
RACCORDO
100
AcDbLine
 62
250
  6
CONTINUOUS
 10
-7.1252017224
 20
7.3396420559
 11
6.4144603471
 21
7.3394738988
  0
LINE
  5
2E7
100
AcDbEntity
  8
RACCORDO
100
AcDbLine
 62
250
  6
CONTINUOUS
 10
-20.4536076175
 20
6.8461291884
 11
-7.1323340564
 21
6.8397182084
  0
LINE
  5
2E8
100
AcDbEntity
  8
RACCORDO
100
AcDbLine
 62
250
  6
CONTINUOUS
 10
-20.4331540099
 20
7.346053036
 11
-7.1252017224
 21
7.3396420559
  0
LINE
  5
2E9
100
AcDbEntity
  8
RACCORDO
100
AcDbLine
 62
250
  6
CONTINUOUS
 10
-34.4589278676
 20
6.85900402
 11
-20.4536076175
 21
6.8461291884
  0
LINE
  5
2EA
100
AcDbEntity
  8
RACCORDO
100
AcDbLine
 62
250
  6
CONTINUOUS
 10
-33.95900402
 20
7.3589278676
 11
-20.4331540099
 21
7.346053036
  0
LWPOLYLINE
  5
2EB
100
AcDbEntity
  8
RACCORDO
100
AcDbPolyline
 62
250
  6
CONTINUOUS
 90
19
 70
0
 10
33.95900402
 20
7.3589278676
 10
34.0025668291
 20
7.357012975
 10
34.0457982274
 20
7.3513094023
 10
34.0883693253
 20
7.3418605404
 10
34.1299562568
 20
7.3287382728
 10
34.1702426426
 20
7.3120424294
 10
34.208921998
 20
7.2919000262
 10
34.2457000637
 20
7.2684642998
 10
34.2802970449
 20
7.2419135411
 10
34.3124497398
 20
7.212449739
 10
34.3419135418
 20
7.1802970441
 10
34.3684643004
 20
7.1457000629
 10
34.3919000266
 20
7.1089219972
 10
34.4120424297
 20
7.0702426419
 10
34.4287382731
 20
7.0299562561
 10
34.4418605405
 20
6.9883693248
 10
34.4513094024
 20
6.945798227
 10
34.457012975
 20
6.9025668289
 10
34.4589278676
 20
6.85900402
  0
LWPOLYLINE
  5
2EC
100
AcDbEntity
  8
0
100
AcDbPolyline
 62
7
  6
CONTINUOUS
 90
13
 70
0
 43
0.3500000006
 10
-1.9285714102
 20
17.8642850189
 10
-2.2142856617
 20
18.0785695038
 10
-2.2142856617
 20
18.7214274902
 10
-1.9285714102
 20
19.1500009918
 10
-1.2857142735
 20
19.1500009918
 10
-1.0000000219
 20
18.7214274902
 10
-1.0000000219
 20
18.0785695038
 10
-1.2857142735
 20
17.8642850189
 10
-0.8571428254
 20
17.4357137833
 10
-0.8571428254
 20
16.578571312
 10
-1.2857142735
 20
16.1500000763
 10
-1.9285714102
 20
16.1500000763
 10
-2.3571427875
 20
16.578571312
  0
LWPOLYLINE
  5
2ED
100
AcDbEntity
  8
0
100
AcDbPolyline
 62
7
  6
CONTINUOUS
 90
3
 70
0
 43
0.3500000006
 10
49.9642860718
 20
0.7142865829
 10
50.1785705566
 20
0.642857666
 10
50.4642862244
 20
0.4999998322
  0
LINE
  5
2EE
100
AcDbEntity
  8
RACCORDO
100
AcDbLine
 62
250
  6
CONTINUOUS
 10
33.95900402
 20
7.3589278676
 11
34.0000761524
 21
7.4
  0
LINE
  5
2EF
100
AcDbEntity
  8
RACCORDO
100
AcDbLine
 62
250
  6
CONTINUOUS
 10
34.4589278676
 20
6.85900402
 11
34.5
 21
6.9000761524
  0
LINE
  5
2F0
100
AcDbEntity
  8
DRAFT
100
AcDbLine
 62
7
  6
CONTINUOUS
 10
39.0139640519
 20
3.6103153465
 11
39.0114931534
 21
3.6084423186
  0
LINE
  5
2F1
100
AcDbEntity
  8
DRAFT
100
AcDbLine
 62
7
  6
CONTINUOUS
 10
40.0
 20
4.3084219849
 11
39.9860359481
 21
4.2994997051
  0
LINE
  5
2F2
100
AcDbEntity
  8
DRAFT
100
AcDbLine
 62
7
  6
CONTINUOUS
 10
39.9860359481
 20
-4.2994997051
 11
40.0
 21
-4.3084219849
  0
LINE
  5
2F3
100
AcDbEntity
  8
DRAFT
100
AcDbLine
 62
7
  6
CONTINUOUS
 10
39.0114931534
 20
-3.6084423186
 11
39.0139640519
 21
-3.6103153465
  0
LINE
  5
2F4
100
AcDbEntity
  8
RACCORDO
100
AcDbLine
 62
250
  6
CONTINUOUS
 10
34.0000761524
 20
-7.4
 11
33.95900402
 21
-7.3589278676
  0
LINE
  5
2F5
100
AcDbEntity
  8
RACCORDO
100
AcDbLine
 62
250
  6
CONTINUOUS
 10
34.5
 20
-6.9000761524
 11
34.4589278676
 21
-6.85900402
  0
LINE
  5
2F6
100
AcDbEntity
  8
DRAFT
100
AcDbLine
 62
7
  6
CONTINUOUS
 10
34.5
 20
2.5157095584
 11
34.4842904416
 21
2.5
  0
LINE
  5
2F7
100
AcDbEntity
  8
DRAFT
100
AcDbLine
 62
7
  6
CONTINUOUS
 10
37.0168768991
 20
4.0168768991
 11
37.0279281039
 21
4.0279281039
  0
LINE
  5
2F8
100
AcDbEntity
  8
DRAFT
100
AcDbLine
 62
7
  6
CONTINUOUS
 10
36.0
 20
-4.3084219849
 11
36.0139640519
 21
-4.2994997051
  0
LWPOLYLINE
  5
2F9
100
AcDbEntity
  8
0
100
AcDbPolyline
 62
7
  6
CONTINUOUS
 90
10
 70
0
 43
0.3500000006
 10
49.7500015869
 20
0.642857666
 10
49.8928548889
 20
0.7142865829
 10
49.9642860718
 20
0.7142865829
 10
50.1071439056
 20
0.5714287491
 10
50.1071439056
 20
0.4999998322
 10
50.0357127228
 20
0.4285709152
 10
49.9642860718
 20
0.4285709152
 10
49.8214282379
 20
0.4999998322
 10
49.7500015869
 20
0.5714287491
 10
49.7500015869
 20
0.642857666
  0
LINE
  5
2FA
100
AcDbEntity
  8
DRAFT
100
AcDbLine
 62
7
  6
CONTINUOUS
 10
36.0139640519
 20
4.2994997051
 11
36.0
 21
4.3084219849
  0
LINE
  5
2FB
100
AcDbEntity
  8
DRAFT
100
AcDbLine
 62
7
  6
CONTINUOUS
 10
34.5
 20
-2.5157095584
 11
34.4842904416
 21
-2.5
  0
LINE
  5
2FC
100
AcDbEntity
  8
DRAFT
100
AcDbLine
 62
7
  6
CONTINUOUS
 10
37.0168768991
 20
-4.0168768991
 11
37.0279281039
 21
-4.0279281039
  0
LINE
  5
2FD
100
AcDbEntity
  8
DRAFT
100
AcDbLine
 62
7
  6
CONTINUOUS
 10
36.9860359481
 20
4.6262202069
 11
37.0
 21
4.6435439053
  0
LINE
  5
2FE
100
AcDbEntity
  8
DRAFT
100
AcDbLine
 62
7
  6
CONTINUOUS
 10
36.9948533162
 20
3.2448533162
 11
37.0035530314
 21
3.2535530314
  0
LINE
  5
2FF
100
AcDbEntity
  8
DRAFT
100
AcDbLine
 62
7
  6
CONTINUOUS
 10
36.9860359481
 20
-3.6103153465
 11
36.9885068466
 21
-3.6084423186
  0
LINE
  5
300
100
AcDbEntity
  8
DRAFT
100
AcDbLine
 62
7
  6
CONTINUOUS
 10
36.9885068466
 20
3.6084423186
 11
36.9860359481
 21
3.6103153465
  0
LINE
  5
301
100
AcDbEntity
  8
DRAFT
100
AcDbLine
 62
7
  6
CONTINUOUS
 10
37.0035530314
 20
-3.2535530314
 11
36.9948533162
 21
-3.2448533162
  0
LINE
  5
302
100
AcDbEntity
  8
DRAFT
100
AcDbLine
 62
7
  6
CONTINUOUS
 10
37.0
 20
-4.6435439053
 11
36.9860359481
 21
-4.6262202069
  0
LWPOLYLINE
  5
303
100
AcDbEntity
  8
RACCORDO
100
AcDbPolyline
 62
250
  6
CONTINUOUS
 90
10
 70
0
 10
33.959004021
 20
-7.3589278676
 10
33.9622559901
 20
-7.3563174188
 10
33.9650499651
 20
-7.3501130074
 10
33.9676208741
 20
-7.3403979137
 10
33.9704139835
 20
-7.327094243
 10
33.9733030732
 20
-7.3101517958
 10
33.9757474478
 20
-7.2898117144
 10
33.978139681
 20
-7.2663199113
 10
33.9807078199
 20
-7.2397057684
 10
33.9827845678
 20
-7.2101924943
  0
LWPOLYLINE
  5
304
100
AcDbEntity
  8
RACCORDO
100
AcDbPolyline
 62
250
  6
CONTINUOUS
 90
11
 70
0
 10
33.959004021
 20
7.3589278676
 10
33.9622559883
 20
7.3563174198
 10
33.9650499623
 20
7.3501130106
 10
33.9676208708
 20
7.3403979202
 10
33.9704139791
 20
7.3270942539
 10
33.9733030676
 20
7.3101518117
 10
33.975747442
 20
7.2898117344
 10
33.9781396758
 20
7.2663199323
 10
33.9807078147
 20
7.2397057874
 10
33.9827845618
 20
7.2101925108
 10
33.9866768695
 20
7.1437624652
  0
LWPOLYLINE
  5
305
100
AcDbEntity
  8
DRAFT
100
AcDbPolyline
 62
7
  6
CONTINUOUS
 90
9
 70
0
 10
35.9755628842
 20
1.9816388479
 10
35.9756465373
 20
1.9818324226
 10
35.9759860141
 20
1.9842316299
 10
35.9763156683
 20
1.9890646076
 10
35.9766325666
 20
1.996332381
 10
35.9769396422
 20
2.0060339247
 10
35.9772334143
 20
2.0179596356
 10
35.9775127225
 20
2.0320396456
 10
35.9857878745
 20
2.6590280662
  0
LINE
  5
306
100
AcDbEntity
  8
DRAFT
100
AcDbLine
 62
7
  6
CONTINUOUS
 10
36.001407745
 20
2.6902718783
 11
35.9857878745
 21
2.6590280662
  0
LINE
  5
307
100
AcDbEntity
  8
DRAFT
100
AcDbLine
 62
7
  6
CONTINUOUS
 10
36.0139640519
 20
2.7151271344
 11
36.001407745
 21
2.6902718783
  0
LWPOLYLINE
  5
308
100
AcDbEntity
  8
DRAFT
100
AcDbPolyline
 62
7
  6
CONTINUOUS
 90
8
 70
0
 10
35.9755628715
 20
-1.9816656345
 10
35.9752978422
 20
-1.9821327891
 10
35.9749633252
 20
-1.9852535969
 10
35.9746322171
 20
-1.9910336148
 10
35.974313876
 20
-1.9991943671
 10
35.9740094868
 20
-2.0097556961
 10
35.9737178646
 20
-2.0226977596
 10
35.9731903089
 20
-2.0546937353
  0
LINE
  5
309
100
AcDbEntity
  8
DRAFT
100
AcDbLine
 62
7
  6
CONTINUOUS
 10
38.9964469686
 20
-3.2535530314
 11
39.0051466838
 21
-3.2448533162
  0
LINE
  5
30A
100
AcDbEntity
  8
DRAFT
100
AcDbLine
 62
7
  6
CONTINUOUS
 10
38.9831231009
 20
-4.0168768991
 11
38.9720718961
 21
-4.0279281039
  0
LINE
  5
30B
100
AcDbEntity
  8
DRAFT
100
AcDbLine
 62
7
  6
CONTINUOUS
 10
39.0051466838
 20
3.2448533162
 11
38.9964469686
 21
3.2535530314
  0
LINE
  5
30C
100
AcDbEntity
  8
DRAFT
100
AcDbLine
 62
7
  6
CONTINUOUS
 10
38.9831231009
 20
4.0168768991
 11
38.9720718961
 21
4.0279281039
  0
LWPOLYLINE
  5
30D
100
AcDbEntity
  8
0
100
AcDbPolyline
 62
7
  6
CONTINUOUS
 90
3
 70
0
 43
0.3500000006
 10
48.1071432953
 20
-4.0714281921
 10
47.250000824
 20
-3.2142857208
 10
50.2500017395
 20
-3.2142857208
  0
LINE
  5
30E
100
AcDbEntity
  8
DRAFT
100
AcDbLine
 62
7
  6
CONTINUOUS
 10
36.0139640519
 20
-2.7151271344
 11
35.9982770573
 21
-2.6840388625
  0
LINE
  5
30F
100
AcDbEntity
  8
DRAFT
100
AcDbLine
 62
7
  6
CONTINUOUS
 10
35.9982770573
 20
-2.6840388625
 11
35.9857878745
 21
-2.6590280662
  0
LWPOLYLINE
  5
310
100
AcDbEntity
  8
RACCORDO
100
AcDbPolyline
 62
250
  6
CONTINUOUS
 90
3
 70
0
 10
33.9866768695
 20
7.1437624652
 10
33.9882206409
 20
7.1071685304
 10
33.9908454354
 20
7.0287001948
  0
LWPOLYLINE
  5
311
100
AcDbEntity
  8
RACCORDO
100
AcDbPolyline
 62
250
  6
CONTINUOUS
 90
3
 70
0
 10
33.9908454354
 20
7.0287001948
 10
33.9917057403
 20
6.9873639742
 10
33.9923988742
 20
6.9020791223
  0
LINE
  5
312
100
AcDbEntity
  8
RACCORDO
100
AcDbLine
 62
250
  6
CONTINUOUS
 10
33.9923988742
 20
6.9020791223
 11
33.992997017
 21
6.85900402
  0
LINE
  5
313
100
AcDbEntity
  8
RACCORDO
100
AcDbLine
 62
250
  6
CONTINUOUS
 10
33.992997017
 20
6.85900402
 11
33.992997017
 21
-6.85900402
  0
LINE
  5
314
100
AcDbEntity
  8
RACCORDO
100
AcDbLine
 62
250
  6
CONTINUOUS
 10
34.4589278676
 20
6.85900402
 11
34.4589278676
 21
-6.85900402
  0
LINE
  5
315
100
AcDbEntity
  8
DRAFT
100
AcDbLine
 62
7
  6
CONTINUOUS
 10
34.4842904416
 20
-2.5
 11
34.4842904416
 21
2.5
  0
LINE
  5
316
100
AcDbEntity
  8
RACCORDO
100
AcDbLine
 62
7
  6
CONTINUOUS
 10
34.5
 20
6.9000761524
 11
34.5
 21
2.5157095584
  0
LINE
  5
317
100
AcDbEntity
  8
RACCORDO
100
AcDbLine
 62
7
  6
CONTINUOUS
 10
34.5
 20
-2.5157095584
 11
34.5
 21
-6.9000761524
  0
LINE
  5
318
100
AcDbEntity
  8
RACCORDO
100
AcDbLine
 62
250
  6
CONTINUOUS
 10
33.9923988774
 20
-6.9020791188
 11
33.992997017
 21
-6.85900402
  0
LWPOLYLINE
  5
319
100
AcDbEntity
  8
RACCORDO
100
AcDbPolyline
 62
250
  6
CONTINUOUS
 90
4
 70
0
 10
33.9882206474
 20
-7.1071685143
 10
33.9908454427
 20
-7.0287001825
 10
33.9917057471
 20
-6.9873639645
 10
33.9923988774
 20
-6.9020791188
  0
LWPOLYLINE
  5
31A
100
AcDbEntity
  8
RACCORDO
100
AcDbPolyline
 62
250
  6
CONTINUOUS
 90
19
 70
0
 10
34.4589278676
 20
-6.85900402
 10
34.457012975
 20
-6.9025668289
 10
34.4513094024
 20
-6.945798227
 10
34.4418605405
 20
-6.9883693248
 10
34.4287382731
 20
-7.0299562561
 10
34.4120424297
 20
-7.0702426419
 10
34.3919000266
 20
-7.1089219972
 10
34.3684643004
 20
-7.1457000629
 10
34.3419135418
 20
-7.1802970441
 10
34.3124497398
 20
-7.212449739
 10
34.2802970449
 20
-7.2419135411
 10
34.2457000637
 20
-7.2684642998
 10
34.208921998
 20
-7.2919000262
 10
34.1702426426
 20
-7.3120424294
 10
34.1299562568
 20
-7.3287382728
 10
34.0883693253
 20
-7.3418605404
 10
34.0457982274
 20
-7.3513094023
 10
34.0025668291
 20
-7.357012975
 10
33.95900402
 20
-7.3589278676
  0
LWPOLYLINE
  5
31B
100
AcDbEntity
  8
RACCORDO
100
AcDbPolyline
 62
250
  6
CONTINUOUS
 90
3
 70
0
 10
33.9827845678
 20
-7.2101924943
 10
33.986676876
 20
-7.1437624488
 10
33.9882206474
 20
-7.1071685143
  0
LWPOLYLINE
  5
31C
100
AcDbEntity
  8
DRAFT
100
AcDbPolyline
 62
7
  6
CONTINUOUS
 90
8
 70
0
 10
40.0244371285
 20
1.9816656345
 10
40.0247021578
 20
1.9821327891
 10
40.0250366748
 20
1.9852535969
 10
40.0253677829
 20
1.9910336148
 10
40.025686124
 20
1.9991943671
 10
40.0259905132
 20
2.0097556961
 10
40.0262821354
 20
2.0226977596
 10
40.0268096911
 20
2.0546937353
  0
LINE
  5
31D
100
AcDbEntity
  8
DRAFT
100
AcDbLine
 62
7
  6
CONTINUOUS
 10
39.0139640519
 20
-4.6262202069
 11
39.0
 21
-4.6435439053
  0
LINE
  5
31E
100
AcDbEntity
  8
DRAFT
100
AcDbLine
 62
7
  6
CONTINUOUS
 10
39.0
 20
4.6435439053
 11
39.0139640519
 21
4.6262202069
  0
LWPOLYLINE
  5
31F
100
AcDbEntity
  8
DRAFT
100
AcDbPolyline
 62
7
  6
CONTINUOUS
 90
7
 70
0
 10
35.977232572
 20
-2.017921569
 10
35.9769383594
 20
-2.0059819533
 10
35.9766306771
 20
-1.996268241
 10
35.9763124879
 20
-1.9890041014
 10
35.975980141
 20
-1.9841942121
 10
35.9756372872
 20
-1.9818338956
 10
35.9755628715
 20
-1.9816656345
  0
LWPOLYLINE
  5
320
100
AcDbEntity
  8
DRAFT
100
AcDbPolyline
 62
7
  6
CONTINUOUS
 90
7
 70
0
 10
35.9737274033
 20
2.0222275989
 10
35.9740202502
 20
2.0093380063
 10
35.9743254909
 20
1.9988450989
 10
35.9746444182
 20
1.9907766809
 10
35.9749757394
 20
1.9851049481
 10
35.9753095186
 20
1.9820735132
 10
35.9755628842
 20
1.9816388479
  0
LINE
  5
321
100
AcDbEntity
  8
DRAFT
100
AcDbLine
 62
7
  6
CONTINUOUS
 10
37.0168768991
 20
-4.0168768991
 11
37.0035530314
 21
-3.2535530314
  0
LINE
  5
322
100
AcDbEntity
  8
DRAFT
100
AcDbLine
 62
7
  6
CONTINUOUS
 10
36.9885068466
 20
3.6084423186
 11
36.9948533162
 21
3.2448533162
  0
LINE
  5
323
100
AcDbEntity
  8
DRAFT
100
AcDbLine
 62
7
  6
CONTINUOUS
 10
35.9777786125
 20
-2.0483293975
 11
35.977232572
 21
-2.017921569
  0
LINE
  5
324
100
AcDbEntity
  8
DRAFT
100
AcDbLine
 62
7
  6
CONTINUOUS
 10
35.9731970259
 20
2.0542073911
 11
35.9737274033
 21
2.0222275989
  0
LINE
  5
325
100
AcDbEntity
  8
DRAFT
100
AcDbLine
 62
7
  6
CONTINUOUS
 10
35.9857878745
 20
-2.6590280662
 11
35.9777786125
 21
-2.0483293975
  0
LINE
  5
326
100
AcDbEntity
  8
DRAFT
100
AcDbLine
 62
7
  6
CONTINUOUS
 10
35.9725576324
 20
2.1167060036
 11
35.9731970259
 21
2.0542073911
  0
LINE
  5
327
100
AcDbEntity
  8
DRAFT
100
AcDbLine
 62
7
  6
CONTINUOUS
 10
35.9721656846
 20
2.19471006
 11
35.9725576324
 21
2.1167060036
  0
LINE
  5
328
100
AcDbEntity
  8
DRAFT
100
AcDbLine
 62
7
  6
CONTINUOUS
 10
35.9721656846
 20
2.19471006
 11
35.9720718961
 21
5.25
  0
LINE
  5
329
100
AcDbEntity
  8
DRAFT
100
AcDbLine
 62
7
  6
CONTINUOUS
 10
36.0
 20
5.25
 11
36.0
 21
4.3084219849
  0
LINE
  5
32A
100
AcDbEntity
  8
DRAFT
100
AcDbLine
 62
7
  6
CONTINUOUS
 10
36.0
 20
-4.3084219849
 11
36.0
 21
-5.25
  0
LINE
  5
32B
100
AcDbEntity
  8
DRAFT
100
AcDbLine
 62
7
  6
CONTINUOUS
 10
36.0139640519
 20
4.2994997051
 11
36.0139640519
 21
2.7151271344
  0
LINE
  5
32C
100
AcDbEntity
  8
DRAFT
100
AcDbLine
 62
7
  6
CONTINUOUS
 10
36.0139640519
 20
-2.7151271344
 11
36.0139640519
 21
-4.2994997051
  0
LINE
  5
32D
100
AcDbEntity
  8
DRAFT
100
AcDbLine
 62
7
  6
CONTINUOUS
 10
36.9860359481
 20
4.6262202069
 11
36.9860359481
 21
3.6103153465
  0
LINE
  5
32E
100
AcDbEntity
  8
DRAFT
100
AcDbLine
 62
7
  6
CONTINUOUS
 10
36.9860359481
 20
-4.6262202069
 11
36.9860359481
 21
-3.6103153465
  0
LINE
  5
32F
100
AcDbEntity
  8
DRAFT
100
AcDbLine
 62
7
  6
CONTINUOUS
 10
37.0
 20
-5.25
 11
37.0
 21
-4.6435439053
  0
LINE
  5
330
100
AcDbEntity
  8
DRAFT
100
AcDbLine
 62
7
  6
CONTINUOUS
 10
37.0
 20
4.6435439053
 11
37.0
 21
5.25
  0
LINE
  5
331
100
AcDbEntity
  8
DRAFT
100
AcDbLine
 62
7
  6
CONTINUOUS
 10
37.0279281039
 20
-5.25
 11
37.0279281039
 21
-4.0279281039
  0
LINE
  5
332
100
AcDbEntity
  8
DRAFT
100
AcDbLine
 62
7
  6
CONTINUOUS
 10
37.0279281039
 20
4.0279281039
 11
37.0279281039
 21
5.25
  0
LINE
  5
333
100
AcDbEntity
  8
DRAFT
100
AcDbLine
 62
7
  6
CONTINUOUS
 10
35.9722609614
 20
-2.1672120702
 11
35.9720718961
 21
-5.25
  0
LINE
  5
334
100
AcDbEntity
  8
DRAFT
100
AcDbLine
 62
7
  6
CONTINUOUS
 10
35.9727428865
 20
-2.094555333
 11
35.9722609614
 21
-2.1672120702
  0
LINE
  5
335
100
AcDbEntity
  8
DRAFT
100
AcDbLine
 62
7
  6
CONTINUOUS
 10
35.9731903089
 20
-2.0546937353
 11
35.9727428865
 21
-2.094555333
  0
LINE
  5
336
100
AcDbEntity
  8
DRAFT
100
AcDbLine
 62
7
  6
CONTINUOUS
 10
37.0035530314
 20
3.2535530314
 11
37.0168768991
 21
4.0168768991
  0
LINE
  5
337
100
AcDbEntity
  8
DRAFT
100
AcDbLine
 62
7
  6
CONTINUOUS
 10
36.9948533162
 20
-3.2448533162
 11
36.9885068466
 21
-3.6084423186
  0
LWPOLYLINE
  5
338
100
AcDbEntity
  8
DRAFT
100
AcDbPolyline
 62
7
  6
CONTINUOUS
 90
9
 70
0
 10
40.0244371158
 20
-1.9816388479
 10
40.0243534627
 20
-1.9818324226
 10
40.0240139859
 20
-1.9842316299
 10
40.0236843317
 20
-1.9890646076
 10
40.0233674334
 20
-1.996332381
 10
40.0230603578
 20
-2.0060339248
 10
40.0227665857
 20
-2.0179596356
 10
40.0224872775
 20
-2.0320396456
 10
40.0142121255
 20
-2.6590280662
  0
LINE
  5
339
100
AcDbEntity
  8
DRAFT
100
AcDbLine
 62
7
  6
CONTINUOUS
 10
39.998592255
 20
-2.6902718783
 11
40.0142121255
 21
-2.6590280662
  0
LINE
  5
33A
100
AcDbEntity
  8
DRAFT
100
AcDbLine
 62
7
  6
CONTINUOUS
 10
39.9860359481
 20
-2.7151271344
 11
39.998592255
 21
-2.6902718783
  0
LWPOLYLINE
  5
33B
100
AcDbEntity
  8
0
100
AcDbPolyline
 62
7
  6
CONTINUOUS
 90
13
 70
0
 43
0.3500000006
 10
48.535712265
 20
2.1428581238
 10
48.3214277802
 20
1.8571424561
 10
47.6785697937
 20
1.8571424561
 10
47.250000824
 20
2.1428581238
 10
47.250000824
 20
2.7857138443
 10
47.6785697937
 20
3.071429512
 10
48.3214277802
 20
3.071429512
 10
48.535712265
 20
2.7857138443
 10
48.9642857666
 20
3.21428508
 10
49.8214282379
 20
3.21428508
 10
50.2500017395
 20
2.7857138443
 10
50.2500017395
 20
2.1428581238
 10
49.8214282379
 20
1.7142846222
  0
LINE
  5
33C
100
AcDbEntity
  8
DRAFT
100
AcDbLine
 62
7
  6
CONTINUOUS
 10
39.9860359481
 20
2.7151271344
 11
40.0017229427
 21
2.6840388625
  0
LINE
  5
33D
100
AcDbEntity
  8
DRAFT
100
AcDbLine
 62
7
  6
CONTINUOUS
 10
40.0017229427
 20
2.6840388625
 11
40.0142121255
 21
2.6590280662
  0
LWPOLYLINE
  5
33E
100
AcDbEntity
  8
DRAFT
100
AcDbPolyline
 62
7
  6
CONTINUOUS
 90
7
 70
0
 10
40.022767428
 20
2.017921569
 10
40.0230616406
 20
2.0059819533
 10
40.0233693229
 20
1.996268241
 10
40.0236875121
 20
1.9890041014
 10
40.024019859
 20
1.9841942121
 10
40.0243627128
 20
1.9818338956
 10
40.0244371285
 20
1.9816656345
  0
LWPOLYLINE
  5
33F
100
AcDbEntity
  8
DRAFT
100
AcDbPolyline
 62
7
  6
CONTINUOUS
 90
7
 70
0
 10
40.0262725967
 20
-2.0222275989
 10
40.0259797498
 20
-2.0093380063
 10
40.0256745091
 20
-1.9988450989
 10
40.0253555818
 20
-1.9907766809
 10
40.0250242606
 20
-1.9851049481
 10
40.0246904814
 20
-1.9820735132
 10
40.0244371158
 20
-1.9816388479
  0
LINE
  5
340
100
AcDbEntity
  8
DRAFT
100
AcDbLine
 62
7
  6
CONTINUOUS
 10
39.0051466838
 20
-3.2448533162
 11
39.0114931534
 21
-3.6084423186
  0
LINE
  5
341
100
AcDbEntity
  8
DRAFT
100
AcDbLine
 62
7
  6
CONTINUOUS
 10
38.9964469686
 20
3.2535530314
 11
38.9831231009
 21
4.0168768991
  0
LINE
  5
342
100
AcDbEntity
  8
DRAFT
100
AcDbLine
 62
7
  6
CONTINUOUS
 10
40.0222213875
 20
2.0483293975
 11
40.022767428
 21
2.017921569
  0
LINE
  5
343
100
AcDbEntity
  8
DRAFT
100
AcDbLine
 62
7
  6
CONTINUOUS
 10
40.0268029741
 20
-2.0542073911
 11
40.0262725967
 21
-2.0222275989
  0
LINE
  5
344
100
AcDbEntity
  8
DRAFT
100
AcDbLine
 62
7
  6
CONTINUOUS
 10
40.0142121255
 20
2.6590280662
 11
40.0222213875
 21
2.0483293975
  0
LINE
  5
345
100
AcDbEntity
  8
DRAFT
100
AcDbLine
 62
7
  6
CONTINUOUS
 10
40.0274423676
 20
-2.1167060036
 11
40.0268029741
 21
-2.0542073911
  0
LINE
  5
346
100
AcDbEntity
  8
DRAFT
100
AcDbLine
 62
7
  6
CONTINUOUS
 10
40.0278343154
 20
-2.19471006
 11
40.0274423676
 21
-2.1167060036
  0
LINE
  5
347
100
AcDbEntity
  8
DRAFT
100
AcDbLine
 62
7
  6
CONTINUOUS
 10
38.9720718961
 20
5.25
 11
38.9720718961
 21
4.0279281039
  0
LINE
  5
348
100
AcDbEntity
  8
DRAFT
100
AcDbLine
 62
7
  6
CONTINUOUS
 10
38.9720718961
 20
-4.0279281039
 11
38.9720718961
 21
-5.25
  0
LINE
  5
349
100
AcDbEntity
  8
DRAFT
100
AcDbLine
 62
7
  6
CONTINUOUS
 10
39.0
 20
5.25
 11
39.0
 21
4.6435439053
  0
LINE
  5
34A
100
AcDbEntity
  8
DRAFT
100
AcDbLine
 62
7
  6
CONTINUOUS
 10
39.0
 20
-4.6435439053
 11
39.0
 21
-5.25
  0
LINE
  5
34B
100
AcDbEntity
  8
DRAFT
100
AcDbLine
 62
7
  6
CONTINUOUS
 10
39.0139640519
 20
4.6262202069
 11
39.0139640519
 21
3.6103153465
  0
LINE
  5
34C
100
AcDbEntity
  8
DRAFT
100
AcDbLine
 62
7
  6
CONTINUOUS
 10
39.0139640519
 20
-4.6262202069
 11
39.0139640519
 21
-3.6103153465
  0
LINE
  5
34D
100
AcDbEntity
  8
DRAFT
100
AcDbLine
 62
7
  6
CONTINUOUS
 10
39.9860359481
 20
-4.2994997051
 11
39.9860359481
 21
-2.7151271344
  0
LINE
  5
34E
100
AcDbEntity
  8
DRAFT
100
AcDbLine
 62
7
  6
CONTINUOUS
 10
39.9860359481
 20
2.7151271344
 11
39.9860359481
 21
4.2994997051
  0
LINE
  5
34F
100
AcDbEntity
  8
DRAFT
100
AcDbLine
 62
7
  6
CONTINUOUS
 10
40.0
 20
-5.25
 11
40.0
 21
-4.3084219849
  0
LINE
  5
350
100
AcDbEntity
  8
DRAFT
100
AcDbLine
 62
7
  6
CONTINUOUS
 10
40.0
 20
4.3084219849
 11
40.0
 21
5.25
  0
LINE
  5
351
100
AcDbEntity
  8
DRAFT
100
AcDbLine
 62
7
  6
CONTINUOUS
 10
40.0278343154
 20
-2.19471006
 11
40.0279281039
 21
-5.25
  0
LINE
  5
352
100
AcDbEntity
  8
DRAFT
100
AcDbLine
 62
7
  6
CONTINUOUS
 10
43.0
 20
-6.5
 11
43.0
 21
6.5
  0
LWPOLYLINE
  5
353
100
AcDbEntity
  8
0
100
AcDbPolyline
 62
7
  6
CONTINUOUS
 90
3
 70
0
 43
0.3500000006
 10
49.6071437531
 20
-0.8571427917
 10
49.6071437531
 20
-2.3571432495
 10
47.250000824
 20
-1.7142852631
  0
LINE
  5
354
100
AcDbEntity
  8
DRAFT
100
AcDbLine
 62
7
  6
CONTINUOUS
 10
40.0277390386
 20
2.1672120702
 11
40.0279281039
 21
5.25
  0
LINE
  5
355
100
AcDbEntity
  8
DRAFT
100
AcDbLine
 62
7
  6
CONTINUOUS
 10
40.0272571135
 20
2.094555333
 11
40.0277390386
 21
2.1672120702
  0
LINE
  5
356
100
AcDbEntity
  8
DRAFT
100
AcDbLine
 62
7
  6
CONTINUOUS
 10
40.0268096911
 20
2.0546937353
 11
40.0272571135
 21
2.094555333
  0
LINE
  5
357
100
AcDbEntity
  8
DRAFT
100
AcDbLine
 62
7
  6
CONTINUOUS
 10
39.0114931534
 20
3.6084423186
 11
39.0051466838
 21
3.2448533162
  0
LINE
  5
358
100
AcDbEntity
  8
DRAFT
100
AcDbLine
 62
7
  6
CONTINUOUS
 10
38.9831231009
 20
-4.0168768991
 11
38.9964469686
 21
-3.2535530314
  0
LWPOLYLINE
  5
359
100
AcDbEntity
  8
0
100
AcDbPolyline
 62
7
  6
CONTINUOUS
 90
3
 70
0
 43
0.3500000006
 10
-75.7667864685
 20
26.4357142639
 10
-75.8382176514
 20
26.2214297791
 10
-75.9810709534
 20
25.9357141113
  0
LWPOLYLINE
  5
35A
100
AcDbEntity
  8
0
100
AcDbPolyline
 62
7
  6
CONTINUOUS
 90
3
 70
0
 43
0.3500000006
 10
-73.3604365997
 20
16.4357134781
 10
-73.4318677826
 20
16.2214289932
 10
-73.5747256165
 20
15.9357133255
  0
LWPOLYLINE
  5
35B
100
AcDbEntity
  8
0
100
AcDbPolyline
 62
7
  6
CONTINUOUS
 90
10
 70
0
 43
0.3500000006
 10
-77.7667870789
 20
29.1499995117
 10
-78.4096405334
 20
28.5071415253
 10
-78.8382185669
 20
27.649999054
 10
-78.8382185669
 20
26.5785720978
 10
-78.4096405334
 20
26.1499985962
 10
-77.7667870789
 20
26.1499985962
 10
-77.3382181091
 20
26.5785720978
 10
-77.3382181091
 20
27.4357145691
 10
-77.7667870789
 20
27.8642835388
 10
-78.6953562012
 20
27.8642835388
  0
LINE
  5
35C
100
AcDbEntity
  8
DRAFT
100
AcDbLine
 62
7
  6
CONTINUOUS
 10
-65.064708009
 20
-7.3720718961
 11
-66.664708009
 21
-7.4
  0
LINE
  5
35D
100
AcDbEntity
  8
RACCORDO
100
AcDbLine
 62
7
  6
CONTINUOUS
 10
-66.664708009
 20
-7.4
 11
-70.1734329699
 21
-7.338754978
  0
LWPOLYLINE
  5
35E
100
AcDbEntity
  8
RACCORDO
100
AcDbPolyline
 62
250
  6
CONTINUOUS
 90
19
 70
0
 10
-69.0177288981
 20
-7.3589278676
 10
-69.0606632025
 20
-7.3563174188
 10
-69.1026798484
 20
-7.3501130074
 10
-69.1438569457
 20
-7.3403979137
 10
-69.1843918504
 20
-7.327094243
 10
-69.2240869144
 20
-7.3101517958
 10
-69.262230632
 20
-7.2898117144
 10
-69.2983598985
 20
-7.2663199113
 10
-69.3324143889
 20
-7.2397057684
 10
-69.3641099197
 20
-7.2101924943
 10
-69.3930526362
 20
-7.1781398328
 10
-69.4190598254
 20
-7.1437624488
 10
-69.4420855651
 20
-7.1071685143
 10
-69.4618833189
 20
-7.0686921101
 10
-69.4782460606
 20
-7.0287001825
 10
-69.4911378645
 20
-6.9873639645
 10
-69.5004418948
 20
-6.9450008254
 10
-69.5060231365
 20
-6.9020791188
 10
-69.5078458328
 20
-6.85900402
  0
LINE
  5
35F
100
AcDbEntity
  8
DRAFT
100
AcDbLine
 62
7
  6
CONTINUOUS
 10
-65.064708009
 20
-6.4724513599
 11
-66.664708009
 21
-6.5
  0
LINE
  5
360
100
AcDbEntity
  8
RACCORDO
100
AcDbLine
 62
250
  6
CONTINUOUS
 10
-69.0177288981
 20
-6.85900402
 11
-69.5078458328
 21
-6.85900402
  0
LINE
  5
361
100
AcDbEntity
  8
RACCORDO
100
AcDbLine
 62
250
  6
CONTINUOUS
 10
-69.5078458328
 20
-6.85900402
 11
-70.664708009
 21
-6.8388310553
  0
LINE
  5
362
100
AcDbEntity
  8
RACCORDO
100
AcDbLine
 62
250
  6
CONTINUOUS
 10
-66.664708009
 20
-6.9000761524
 11
-69.0177288981
 21
-6.85900402
  0
LWPOLYLINE
  5
363
100
AcDbEntity
  8
0
100
AcDbPolyline
 62
7
  6
CONTINUOUS
 90
2
 70
0
 43
0.3500000006
 10
-73.7667858582
 20
26.1499985962
 10
-73.7667858582
 20
27.649999054
  0
LINE
  5
364
100
AcDbEntity
  8
DRAFT
100
AcDbLine
 62
7
  6
CONTINUOUS
 10
-65.064708009
 20
-4.75
 11
-64.264708009
 21
-4.7360359481
  0
LINE
  5
365
100
AcDbEntity
  8
DRAFT
100
AcDbLine
 62
7
  6
CONTINUOUS
 10
-64.264708009
 20
-4.6262202069
 11
-65.064708009
 21
-4.6435439053
  0
LINE
  5
366
100
AcDbEntity
  8
DRAFT
100
AcDbLine
 62
7
  6
CONTINUOUS
 10
-64.264708009
 20
-4.2994997051
 11
-65.064708009
 21
-4.3084219849
  0
LWPOLYLINE
  5
367
100
AcDbEntity
  8
0
100
AcDbPolyline
 62
7
  6
CONTINUOUS
 90
2
 70
0
 43
0.3500000006
 10
-71.3604405212
 20
16.1500000763
 10
-71.3604405212
 20
17.6500005341
  0
LWPOLYLINE
  5
368
100
AcDbEntity
  8
RACCORDO
100
AcDbPolyline
 62
250
  6
CONTINUOUS
 90
9
 70
0
 10
-69.0177288981
 20
7.3589278676
 10
-69.0184558652
 20
7.357012975
 10
-69.0191109159
 20
7.3513094023
 10
-69.0196890666
 20
7.3418605404
 10
-69.0201859192
 20
7.3287382728
 10
-69.0205976937
 20
7.3120424294
 10
-69.0209212574
 20
7.2919000262
 10
-69.0211541488
 20
7.2684642998
 10
-69.0213415309
 20
7.212449739
  0
LINE
  5
369
100
AcDbEntity
  8
ASSI
100
AcDbLine
 62
7
  6
CONTINUOUS
 10
-70.664708009
 20
6.8388311305
 11
-70.664708009
 21
-6.8388311305
  0
LINE
  5
36A
100
AcDbEntity
  8
RACCORDO
100
AcDbLine
 62
250
  6
CONTINUOUS
 10
-64.264708009
 20
-3.0041869364
 11
-65.064708009
 21
-2.9886845861
  0
LINE
  5
36B
100
AcDbEntity
  8
DRAFT
100
AcDbLine
 62
7
  6
CONTINUOUS
 10
-66.664708009
 20
-2.5157095584
 11
-67.564708009
 21
-2.5
  0
LINE
  5
36C
100
AcDbEntity
  8
DRAFT
100
AcDbLine
 62
7
  6
CONTINUOUS
 10
-65.064708009
 20
-2.5
 11
-64.264708009
 21
-2.5139640519
  0
LINE
  5
36D
100
AcDbEntity
  8
RACCORDO
100
AcDbLine
 62
7
  6
CONTINUOUS
 10
-64.264708009
 20
-2.5139640519
 11
-65.064708009
 21
-2.5
  0
LWPOLYLINE
  5
36E
100
AcDbEntity
  8
RACCORDO
100
AcDbPolyline
 62
250
  6
CONTINUOUS
 90
8
 70
0
 10
-69.0211541488
 20
-7.2684642998
 10
-69.0209212574
 20
-7.2919000262
 10
-69.0205976937
 20
-7.3120424294
 10
-69.0201859192
 20
-7.3287382728
 10
-69.0196890666
 20
-7.3418605404
 10
-69.0191109159
 20
-7.3513094023
 10
-69.0184558652
 20
-7.357012975
 10
-69.0177288981
 20
-7.3589278676
  0
LINE
  5
36F
100
AcDbEntity
  8
RACCORDO
100
AcDbLine
 62
250
  6
CONTINUOUS
 10
-69.0213415309
 20
-7.212449739
 11
-69.0211541488
 21
-7.2684642998
  0
LINE
  5
370
100
AcDbEntity
  8
RACCORDO
100
AcDbLine
 62
250
  6
CONTINUOUS
 10
-69.0213415309
 20
7.212449739
 11
-69.0211541487
 21
7.1457000629
  0
LINE
  5
371
100
AcDbEntity
  8
RACCORDO
100
AcDbLine
 62
250
  6
CONTINUOUS
 10
-69.5078458328
 20
6.85900402
 11
-69.5078458328
 21
-6.85900402
  0
LINE
  5
372
100
AcDbEntity
  8
RACCORDO
100
AcDbLine
 62
250
  6
CONTINUOUS
 10
-69.0177288981
 20
6.85900402
 11
-69.0177288981
 21
-6.85900402
  0
LINE
  5
373
100
AcDbEntity
  8
RACCORDO
100
AcDbLine
 62
250
  6
CONTINUOUS
 10
-69.0211541487
 20
-7.1457000629
 11
-69.0213415309
 21
-7.212449739
  0
LINE
  5
374
100
AcDbEntity
  8
DRAFT
100
AcDbLine
 62
7
  6
CONTINUOUS
 10
-65.064708009
 20
-1.5
 11
-64.564708009
 21
-1.4912724675
  0
LINE
  5
375
100
AcDbEntity
  8
RACCORDO
100
AcDbLine
 62
250
  6
CONTINUOUS
 10
-69.0196890666
 20
6.9883693248
 11
-69.0177288981
 21
6.85900402
  0
LWPOLYLINE
  5
376
100
AcDbEntity
  8
RACCORDO
100
AcDbPolyline
 62
250
  6
CONTINUOUS
 90
3
 70
0
 10
-69.0211541487
 20
7.1457000629
 10
-69.0209212573
 20
7.1089219972
 10
-69.0196890666
 20
6.9883693248
  0
LINE
  5
377
100
AcDbEntity
  8
RACCORDO
100
AcDbLine
 62
250
  6
CONTINUOUS
 10
-69.0201859192
 20
-7.0299562561
 11
-69.0211541487
 21
-7.1457000629
  0
LWPOLYLINE
  5
378
100
AcDbEntity
  8
RACCORDO
100
AcDbPolyline
 62
250
  6
CONTINUOUS
 90
3
 70
0
 10
-69.0177288981
 20
-6.85900402
 10
-69.0184558652
 20
-6.9025668289
 10
-69.0201859192
 20
-7.0299562561
  0
LINE
  5
379
100
AcDbEntity
  8
DRAFT
100
AcDbLine
 62
7
  6
CONTINUOUS
 10
-67.564708009
 20
-2.5
 11
-67.564708009
 21
2.5
  0
LINE
  5
37A
100
AcDbEntity
  8
RACCORDO
100
AcDbLine
 62
250
  6
CONTINUOUS
 10
-67.269943731
 20
2.5051451296
 11
-67.269943731
 21
-2.5051451296
  0
LINE
  5
37B
100
AcDbEntity
  8
DRAFT
100
AcDbLine
 62
7
  6
CONTINUOUS
 10
-66.664708009
 20
-7.4
 11
-66.664708009
 21
7.4
  0
LINE
  5
37C
100
AcDbEntity
  8
DRAFT
100
AcDbLine
 62
7
  6
CONTINUOUS
 10
-65.064708009
 20
1.5
 11
-64.564708009
 21
1.4912724675
  0
LWPOLYLINE
  5
37D
100
AcDbEntity
  8
0
100
AcDbPolyline
 62
7
  6
CONTINUOUS
 90
10
 70
0
 43
0.3500000006
 10
-73.4318677826
 20
16.6500002289
 10
-73.3604365997
 20
16.507142395
 10
-73.3604365997
 20
16.4357134781
 10
-73.5032944336
 20
16.2928579102
 10
-73.5747256165
 20
16.2928579102
 10
-73.6461522675
 20
16.3642868271
 10
-73.6461522675
 20
16.4357134781
 10
-73.5747256165
 20
16.578571312
 10
-73.5032944336
 20
16.6500002289
 10
-73.4318677826
 20
16.6500002289
  0
LINE
  5
37E
100
AcDbEntity
  8
DRAFT
100
AcDbLine
 62
7
  6
CONTINUOUS
 10
-65.064708009
 20
-7.3720718961
 11
-65.064708009
 21
-1.5
  0
LINE
  5
37F
100
AcDbEntity
  8
DRAFT
100
AcDbLine
 62
7
  6
CONTINUOUS
 10
-65.064708009
 20
1.5
 11
-65.064708009
 21
7.3720718961
  0
LINE
  5
380
100
AcDbEntity
  8
RACCORDO
100
AcDbLine
 62
7
  6
CONTINUOUS
 10
-65.064708009
 20
2.5
 11
-64.264708009
 21
2.5139640519
  0
LINE
  5
381
100
AcDbEntity
  8
DRAFT
100
AcDbLine
 62
7
  6
CONTINUOUS
 10
-65.064708009
 20
2.5
 11
-64.264708009
 21
2.5139640519
  0
LINE
  5
382
100
AcDbEntity
  8
DRAFT
100
AcDbLine
 62
7
  6
CONTINUOUS
 10
-66.664708009
 20
2.5157095584
 11
-67.564708009
 21
2.5
  0
LINE
  5
383
100
AcDbEntity
  8
DRAFT
100
AcDbLine
 62
7
  6
CONTINUOUS
 10
-64.564708009
 20
1.4912724675
 11
-64.564708009
 21
-1.4912724675
  0
LINE
  5
384
100
AcDbEntity
  8
DRAFT
100
AcDbLine
 62
7
  6
CONTINUOUS
 10
-64.264708009
 20
4.7360359481
 11
-64.264708009
 21
3.0041869364
  0
LINE
  5
385
100
AcDbEntity
  8
RACCORDO
100
AcDbLine
 62
7
  6
CONTINUOUS
 10
-64.264708009
 20
3.0041869364
 11
-64.264708009
 21
2.5139640519
  0
LINE
  5
386
100
AcDbEntity
  8
RACCORDO
100
AcDbLine
 62
7
  6
CONTINUOUS
 10
-64.264708009
 20
-2.5139640519
 11
-64.264708009
 21
-3.0041869364
  0
LINE
  5
387
100
AcDbEntity
  8
DRAFT
100
AcDbLine
 62
7
  6
CONTINUOUS
 10
-64.264708009
 20
-4.7360359481
 11
-64.264708009
 21
-3.0041869364
  0
LINE
  5
388
100
AcDbEntity
  8
RACCORDO
100
AcDbLine
 62
250
  6
CONTINUOUS
 10
-65.064708009
 20
2.9886845861
 11
-64.264708009
 21
3.0041869364
  0
LINE
  5
389
100
AcDbEntity
  8
DRAFT
100
AcDbLine
 62
7
  6
CONTINUOUS
 10
-65.064708009
 20
4.3084219849
 11
-64.264708009
 21
4.2994997051
  0
LINE
  5
38A
100
AcDbEntity
  8
DRAFT
100
AcDbLine
 62
7
  6
CONTINUOUS
 10
-65.064708009
 20
4.75
 11
-64.264708009
 21
4.7360359481
  0
LINE
  5
38B
100
AcDbEntity
  8
DRAFT
100
AcDbLine
 62
7
  6
CONTINUOUS
 10
-65.064708009
 20
4.6435439053
 11
-64.264708009
 21
4.6262202069
  0
LWPOLYLINE
  5
38C
100
AcDbEntity
  8
0
100
AcDbPolyline
 62
7
  6
CONTINUOUS
 90
10
 70
0
 43
0.3500000006
 10
-75.8382176514
 20
26.6499987488
 10
-75.7667864685
 20
26.5071409149
 10
-75.7667864685
 20
26.4357142639
 10
-75.9096443024
 20
26.2928564301
 10
-75.9810709534
 20
26.2928564301
 10
-76.0525021362
 20
26.3642876129
 10
-76.0525021362
 20
26.4357142639
 10
-75.9810709534
 20
26.5785720978
 10
-75.9096443024
 20
26.6499987488
 10
-75.8382176514
 20
26.6499987488
  0
LINE
  5
38D
100
AcDbEntity
  8
DRAFT
100
AcDbLine
 62
7
  6
CONTINUOUS
 10
-65.064708009
 20
6.4724513599
 11
-66.664708009
 21
6.5
  0
LINE
  5
38E
100
AcDbEntity
  8
RACCORDO
100
AcDbLine
 62
250
  6
CONTINUOUS
 10
-69.0177288981
 20
6.85900402
 11
-66.664708009
 21
6.9000761524
  0
LINE
  5
38F
100
AcDbEntity
  8
RACCORDO
100
AcDbLine
 62
250
  6
CONTINUOUS
 10
-70.664708009
 20
6.8388310627
 11
-69.5078458328
 21
6.85900402
  0
LINE
  5
390
100
AcDbEntity
  8
RACCORDO
100
AcDbLine
 62
250
  6
CONTINUOUS
 10
-69.0177288981
 20
6.85900402
 11
-69.5078458328
 21
6.85900402
  0
LWPOLYLINE
  5
391
100
AcDbEntity
  8
RACCORDO
100
AcDbPolyline
 62
250
  6
CONTINUOUS
 90
19
 70
0
 10
-69.0177288981
 20
7.3589278676
 10
-69.0606631936
 20
7.3563174198
 10
-69.1026798317
 20
7.3501130106
 10
-69.1438569226
 20
7.3403979202
 10
-69.1843918217
 20
7.3270942539
 10
-69.2240868815
 20
7.3101518117
 10
-69.2622305983
 20
7.2898117344
 10
-69.2983598692
 20
7.2663199323
 10
-69.332414367
 20
7.2397057874
 10
-69.3641099037
 20
7.2101925108
 10
-69.3930526232
 20
7.1781398489
 10
-69.4190598145
 20
7.1437624652
 10
-69.4420855564
 20
7.1071685304
 10
-69.4618833126
 20
7.0686921246
 10
-69.4782460567
 20
7.0287001948
 10
-69.4911378624
 20
6.9873639742
 10
-69.500441894
 20
6.9450008321
 10
-69.5060231364
 20
6.9020791223
 10
-69.5078458328
 20
6.85900402
  0
LINE
  5
392
100
AcDbEntity
  8
RACCORDO
100
AcDbLine
 62
7
  6
CONTINUOUS
 10
-70.1734329699
 20
7.338754978
 11
-66.664708009
 21
7.4
  0
LWPOLYLINE
  5
393
100
AcDbEntity
  8
0
100
AcDbPolyline
 62
7
  6
CONTINUOUS
 90
7
 70
0
 43
0.3500000006
 10
-74.9318682404
 20
16.1500000763
 10
-76.4318641663
 20
16.1500000763
 10
-74.9318682404
 20
18.2928585205
 10
-74.9318682404
 20
18.7214274902
 10
-75.3604372101
 20
19.1500009918
 10
-76.0032951965
 20
19.1500009918
 10
-76.4318641663
 20
18.5071430054
  0
LWPOLYLINE
  5
394
100
AcDbEntity
  8
0
100
AcDbPolyline
 62
7
  6
CONTINUOUS
 90
3
 70
0
 43
0.3500000006
 10
-70.8604403687
 20
16.7928580627
 10
-72.3604362946
 20
16.7928580627
 10
-71.71758284
 20
19.1500009918
  0
LWPOLYLINE
  5
395
100
AcDbEntity
  8
0
100
AcDbPolyline
 62
7
  6
CONTINUOUS
 90
3
 70
0
 43
0.3500000006
 10
-73.2667857056
 20
26.7928565826
 10
-74.7667861633
 20
26.7928565826
 10
-74.1239281769
 20
29.1499995117
  0
LINE
  5
396
100
AcDbEntity
  8
DRAFT
100
AcDbLine
 62
7
  6
CONTINUOUS
 10
-65.064708009
 20
7.3720718961
 11
-66.664708009
 21
7.4
  0
ARC
  5
397
100
AcDbEntity
  8
DRAFT
100
AcDbCircle
 62
250
  6
CONTINUOUS
 10
-38.0
 20
0.0
 40
3.0328427125
100
AcDbArc
 50
131.9634093271
 51
228.0365906729
  0
ARC
  5
398
100
AcDbEntity
  8
DRAFT
100
AcDbCircle
 62
250
  6
CONTINUOUS
 10
-38.0
 20
0.0
 40
3.0328427125
100
AcDbArc
 50
311.9634093271
 51
48.0365906729
  0
ARC
  5
399
100
AcDbEntity
  8
DRAFT
100
AcDbCircle
 62
250
  6
CONTINUOUS
 10
38.0
 20
0.0
 40
3.0328427125
100
AcDbArc
 50
131.9634093271
 51
228.0365906729
  0
ARC
  5
39A
100
AcDbEntity
  8
DRAFT
100
AcDbCircle
 62
250
  6
CONTINUOUS
 10
38.0
 20
0.0
 40
3.0328427125
100
AcDbArc
 50
311.9634093271
 51
48.0365906729
  0
ARC
  5
39B
100
AcDbEntity
  8
RACCORDO
100
AcDbCircle
 62
7
  6
CONTINUOUS
 10
-38.0
 20
0.0
 40
2.8328427125
100
AcDbArc
 50
315.612962686
 51
44.387037314
  0
ARC
  5
39C
100
AcDbEntity
  8
RACCORDO
100
AcDbCircle
 62
7
  6
CONTINUOUS
 10
-38.0
 20
0.0
 40
2.8328427125
100
AcDbArc
 50
135.612962686
 51
224.387037314
  0
ARC
  5
39D
100
AcDbEntity
  8
RACCORDO
100
AcDbCircle
 62
7
  6
CONTINUOUS
 10
38.0
 20
0.0
 40
2.8328427125
100
AcDbArc
 50
315.612962686
 51
44.387037314
  0
ARC
  5
39E
100
AcDbEntity
  8
RACCORDO
100
AcDbCircle
 62
7
  6
CONTINUOUS
 10
38.0
 20
0.0
 40
2.8328427125
100
AcDbArc
 50
135.612962686
 51
224.387037314
  0
ARC
  5
39F
100
AcDbEntity
  8
DRAFT
100
AcDbCircle
 62
7
  6
CONTINUOUS
 10
-43.0
 20
7.5
 40
1.0
100
AcDbArc
 50
270.0
 51
354.2608295227
  0
ARC
  5
3A0
100
AcDbEntity
  8
DRAFT
100
AcDbCircle
 62
7
  6
CONTINUOUS
 10
43.0
 20
7.5
 40
1.0
100
AcDbArc
 50
185.7391704773
 51
270.0
  0
ARC
  5
3A1
100
AcDbEntity
  8
DRAFT
100
AcDbCircle
 62
7
  6
CONTINUOUS
 10
43.0
 20
-7.5
 40
1.0
100
AcDbArc
 50
90.0
 51
174.2608295227
  0
ARC
  5
3A2
100
AcDbEntity
  8
DRAFT
100
AcDbCircle
 62
7
  6
CONTINUOUS
 10
-43.0
 20
-7.5
 40
1.0
100
AcDbArc
 50
5.7391704773
 51
90.0
  0
ARC
  5
3A3
100
AcDbEntity
  8
DRAFT
100
AcDbCircle
 62
7
  6
CONTINUOUS
 10
-39.5
 20
5.25
 40
0.5279281039
100
AcDbArc
 50
0.0
 51
180.0
  0
ARC
  5
3A4
100
AcDbEntity
  8
DRAFT
100
AcDbCircle
 62
7
  6
CONTINUOUS
 10
-39.5
 20
-5.25
 40
0.5279281039
100
AcDbArc
 50
180.0
 51
360.0
  0
ARC
  5
3A5
100
AcDbEntity
  8
DRAFT
100
AcDbCircle
 62
7
  6
CONTINUOUS
 10
-36.5
 20
-5.25
 40
0.5279281039
100
AcDbArc
 50
180.0
 51
360.0
  0
ARC
  5
3A6
100
AcDbEntity
  8
DRAFT
100
AcDbCircle
 62
7
  6
CONTINUOUS
 10
-36.5
 20
5.25
 40
0.5279281039
100
AcDbArc
 50
0.0
 51
180.0
  0
ARC
  5
3A7
100
AcDbEntity
  8
DRAFT
100
AcDbCircle
 62
7
  6
CONTINUOUS
 10
39.5
 20
5.25
 40
0.5279281039
100
AcDbArc
 50
0.0
 51
180.0
  0
ARC
  5
3A8
100
AcDbEntity
  8
DRAFT
100
AcDbCircle
 62
7
  6
CONTINUOUS
 10
36.5
 20
5.25
 40
0.5279281039
100
AcDbArc
 50
0.0
 51
180.0
  0
ARC
  5
3A9
100
AcDbEntity
  8
DRAFT
100
AcDbCircle
 62
7
  6
CONTINUOUS
 10
36.5
 20
-5.25
 40
0.5279281039
100
AcDbArc
 50
180.0
 51
360.0
  0
ARC
  5
3AA
100
AcDbEntity
  8
DRAFT
100
AcDbCircle
 62
7
  6
CONTINUOUS
 10
39.5
 20
-5.25
 40
0.5279281039
100
AcDbArc
 50
180.0
 51
360.0
  0
ARC
  5
3AB
100
AcDbEntity
  8
DRAFT
100
AcDbCircle
 62
7
  6
CONTINUOUS
 10
36.5
 20
5.25
 40
0.5
100
AcDbArc
 50
0.0
 51
180.0
  0
ARC
  5
3AC
100
AcDbEntity
  8
DRAFT
100
AcDbCircle
 62
7
  6
CONTINUOUS
 10
39.5
 20
5.25
 40
0.5
100
AcDbArc
 50
0.0
 51
180.0
  0
ARC
  5
3AD
100
AcDbEntity
  8
DRAFT
100
AcDbCircle
 62
7
  6
CONTINUOUS
 10
39.5
 20
-5.25
 40
0.5
100
AcDbArc
 50
180.0
 51
360.0
  0
ARC
  5
3AE
100
AcDbEntity
  8
DRAFT
100
AcDbCircle
 62
7
  6
CONTINUOUS
 10
36.5
 20
-5.25
 40
0.5
100
AcDbArc
 50
180.0
 51
360.0
  0
ARC
  5
3AF
100
AcDbEntity
  8
DRAFT
100
AcDbCircle
 62
7
  6
CONTINUOUS
 10
-36.5
 20
-5.25
 40
0.5
100
AcDbArc
 50
180.0
 51
360.0
  0
ARC
  5
3B0
100
AcDbEntity
  8
DRAFT
100
AcDbCircle
 62
7
  6
CONTINUOUS
 10
-39.5
 20
-5.25
 40
0.5
100
AcDbArc
 50
180.0
 51
360.0
  0
ARC
  5
3B1
100
AcDbEntity
  8
DRAFT
100
AcDbCircle
 62
7
  6
CONTINUOUS
 10
-39.5
 20
5.25
 40
0.5
100
AcDbArc
 50
0.0
 51
180.0
  0
ARC
  5
3B2
100
AcDbEntity
  8
DRAFT
100
AcDbCircle
 62
7
  6
CONTINUOUS
 10
-36.5
 20
5.25
 40
0.5
100
AcDbArc
 50
0.0
 51
180.0
  0
ARC
  5
3B3
100
AcDbEntity
  8
RACCORDO
100
AcDbCircle
 62
7
  6
CONTINUOUS
 10
-70.1647067667
 20
-6.8388311304
 40
0.5
100
AcDbArc
 50
180.0000000048
 51
269.0
  0
ARC
  5
3B4
100
AcDbEntity
  8
RACCORDO
100
AcDbCircle
 62
7
  6
CONTINUOUS
 10
-70.1647067667
 20
6.8388311304
 40
0.5
100
AcDbArc
 50
91.0
 51
179.9999999952
  0
ELLIPSE
  5
3B5
100
AcDbEntity
  8
RACCORDO
100
AcDbEllipse
 62
7
  6
CONTINUOUS
 10
33.999923836
 20
-6.899923836
 30
0.0
 11
-0.3536610946
 21
0.3536610946
 31
0.0
 40
0.9996954599
 41
-3.9268385237
 42
-2.3563467834
  0
ELLIPSE
  5
3B6
100
AcDbEntity
  8
RACCORDO
100
AcDbEllipse
 62
7
  6
CONTINUOUS
 10
33.999923836
 20
6.899923836
 30
0.0
 11
0.3536610946
 21
0.3536610946
 31
0.0
 40
0.9996954599
 41
-0.7852458701
 42
0.7852458701
  0
ELLIPSE
  5
3B7
100
AcDbEntity
  8
RACCORDO
100
AcDbEllipse
 62
7
  6
CONTINUOUS
 10
-33.999923836
 20
6.899923836
 30
0.0
 11
-0.3536610946
 21
0.3536610946
 31
0.0
 40
0.9996954599
 41
-0.7852458701
 42
0.7852458701
  0
ELLIPSE
  5
3B8
100
AcDbEntity
  8
RACCORDO
100
AcDbEllipse
 62
7
  6
CONTINUOUS
 10
-33.999923836
 20
-6.899923836
 30
0.0
 11
0.3536610946
 21
0.3536610946
 31
0.0
 40
0.9996954599
 41
2.3563467834
 42
3.9268385237
  0
ENDSEC
  0
SECTION
  2
OBJECTS
  0
DICTIONARY
  5
C
100
AcDbDictionary
280
0
281
1
  3
ACAD_GROUP
350
D
  3
ACAD_MLINESTYLE
350
17
  3
ACAD_LAYOUT
350
1A
  3
ACAD_PLOTSETTINGS
350
19
  3
ACAD_PLOTSTYLENAME
350
E
  0
DICTIONARY
  5
D
102
{ACAD_REACTORS
330
C
102
}
100
AcDbDictionary
280
0
281
1
  0
ACDBDICTIONARYWDFLT
  5
E
102
{ACAD_REACTORS
330
C
102
}
100
AcDbDictionary
281
1
  3
Normal
350
F
100
AcDbDictionaryWithDefault
340
F
  0
DICTIONARY
  5
17
102
{ACAD_REACTORS
330
C
102
}
100
AcDbDictionary
280
0
281
1
  3
Standard
350
18
  0
DICTIONARY
  5
19
102
{ACAD_REACTORS
330
C
102
}
100
AcDbDictionary
281
1
  0
DICTIONARY
  5
1A
102
{ACAD_REACTORS
330
C
102
}
100
AcDbDictionary
281
1
  3
Model
350
3B9
  3
Layout1
350
3BA
  0
ACDBPLACEHOLDER
  5
F
102
{ACAD_REACTORS
330
E
102
}
  0
MLINESTYLE
  5
18
102
{ACAD_REACTORS
330
17
102
}
100
AcDbMlineStyle
  2
STANDARD
 70
0
  3

 62
256
 51
90.0
 52
90.0
 71
2
 49
0.5
 62
256
  6
BYLAYER
 49
-0.5
 62
256
  6
BYLAYER
  0
LAYOUT
  5
3B9
102
{ACAD_REACTORS
330
1A
102
}
100
AcDbPlotSettings
  1

  2
none_device
  4
ISO_A4_(297.00_x_210.00_MM)
  6

 40
0.0
 41
0.0
 42
0.0
 43
0.0
 44
297.0
 45
210.0
 46
0.0
 47
0.0
 48
0.0
 49
0.0
140
0.0
141
0.0
142
1.0
143
1.0
 70
1024
 72
1
 73
0
 74
0
  7

 75
0
147
1.0
148
0.0
149
0.0
100
AcDbLayout
  1
Model
 70
0
 71
0
 10
0.0
 20
0.0
 11
297.0
 21
210.0
 12
0.0
 22
0.0
 32
0.0
 14
0.0
 24
0.0
 34
0.0
 15
0.0
 25
0.0
 35
0.0
146
0.0
 13
0.0
 23
0.0
 33
0.0
 16
1.0
 26
0.0
 36
0.0
 17
0.0
 27
1.0
 37
0.0
 76
0
330
20F
345
0
346
0
  0
LAYOUT
  5
3BA
102
{ACAD_REACTORS
330
1A
102
}
100
AcDbPlotSettings
  1

  2
none_device
  4
ISO_A4_(297.00_x_210.00_MM)
  6

 40
0.0
 41
0.0
 42
0.0
 43
0.0
 44
297.0
 45
210.0
 46
0.0
 47
0.0
 48
0.0
 49
0.0
140
0.0
141
0.0
142
1.0
143
1.0
 70
0
 72
1
 73
0
 74
0
  7

 75
0
147
1.0
148
0.0
149
0.0
100
AcDbLayout
  1
Layout1
 70
0
 71
1
 10
0.0
 20
0.0
 11
297.0
 21
210.0
 12
0.0
 22
0.0
 32
0.0
 14
0.0
 24
0.0
 34
0.0
 15
0.0
 25
0.0
 35
0.0
146
0.0
 13
0.0
 23
0.0
 33
0.0
 16
1.0
 26
0.0
 36
0.0
 17
0.0
 27
1.0
 37
0.0
 76
0
330
210
345
0
346
0
  0
ENDSEC
  0
EOF
