  0
SECTION
  2
HEADER
  9
$ACADVER
  1
AC1024
  9
$DWGCODEPAGE
  3
ANSI_1252
  9
$EXTMAX
 10
297.0
 20
210.0
 30
0.0
  9
$EXTMIN
 10
0.0
 20
0.0
 30
0.0
  9
$LIMMIN
 10
0.0
 20
0.0
  9
$LIMMAX
 10
297.0
 20
210.0
  9
$VIEWCTR
 10
148.5
 20
105.0
  9
$VIEWSIZE
 40
210.0
  9
$CLAYER
  8
0
  9
$LTSCALE
 40
16.335
  9
$CELTYPE
  6
BYLAYER
  9
$DIMSCALE
 40
1.0
  9
$DIMASZ
 40
3.0
  9
$DIMEXO
 40
0.5
  9
$DIMDLI
 40
11.286
  9
$DIMEXE
 40
1.5
  9
$DIMCEN
 40
2.673
  9
$DIMLFAC
 40
1.0
  9
$DIMBLK
  1
_FILLED
  9
$DIMALT
 70
0
  9
$DIMALTF
 40
0.0393700787
  9
$DIMTXT
 40
3.0
  9
$DIMTOL
 70
1
  9
$DIMLIM
 70
0
  9
$DIMTFAC
 40
1.0
  9
$DIMTP
 40
0.01
  9
$DIMTM
 40
0.01
  9
$DIMGAP
 40
0.625
  9
$DIMDSEP
 70
44
  9
$AUNITS
 70
0
  9
$PDMODE
 70
3
  9
$PDSIZE
 40
3.0
  9
$HANDSEED
  5
466
  9
$TILEMODE
 70
1
  9
$MEASUREMENT
 70
1
  9
$INSUNITS
 70
4
  0
ENDSEC
  0
SECTION
  2
CLASSES
  0
CLASS
  1
ACDBDICTIONARYWDFLT
  2
AcDbDictionaryWithDefault
  3
AutoCAD 2000
 90
0
 91
1
280
0
281
0
  0
CLASS
  1
ACDBPLACEHOLDER
  2
AcDbPlaceHolder
  3
AutoCAD 2000
 90
0
 91
1
280
0
281
0
  0
CLASS
  1
LAYOUT
  2
AcDbLayout
  3
AutoCAD 2000
 90
0
 91
0
280
0
281
0
  0
ENDSEC
  0
SECTION
  2
TABLES
  0
TABLE
  2
VPORT
  5
8
100
AcDbSymbolTable
 70
2
  0
VPORT
  5
1F4
100
AcDbSymbolTableRecord
100
AcDbViewportTableRecord
  2
*ACTIVE
 70
0
 10
0.0
 20
0.0
 11
1.0
 21
1.0
 12
148.5
 22
105.0
 13
0.0
 23
0.0
 14
1.0
 24
1.0
 15
0.0
 25
0.0
 16
0.0
 26
0.0
 36
1.0
 17
0.0
 27
0.0
 37
0.0
 40
210.0
 41
1.4142857143
 42
50.0
 43
0.0
 44
0.0
 50
0.0
 51
0.0
 71
0
 72
100
 73
1
 74
1
 75
0
 76
0
 77
0
 78
0
  0
ENDTAB
  0
TABLE
  2
LTYPE
  5
5
100
AcDbSymbolTable
 70
6
  0
LTYPE
  5
14
100
AcDbSymbolTableRecord
100
AcDbLinetypeTableRecord
  2
BYBLOCK
 70
0
  3

 72
65
 73
0
 40
0.0
  0
LTYPE
  5
15
100
AcDbSymbolTableRecord
100
AcDbLinetypeTableRecord
  2
BYLAYER
 70
0
  3

 72
65
 73
0
 40
0.0
  0
LTYPE
  5
16
100
AcDbSymbolTableRecord
100
AcDbLinetypeTableRecord
  2
CONTINUOUS
 70
64
  3
Solid line
 72
65
 73
0
 40
0.0
  0
LTYPE
  5
1F5
100
AcDbSymbolTableRecord
100
AcDbLinetypeTableRecord
  2
CENTER
 70
64
  3
____ _ ____ _ ____ _ ____ _ ____ _ ____ _ ____
 72
65
 73
4
 40
0.6
 49
0.375
 74
0
 49
-0.075
 74
0
 49
0.075
 74
0
 49
-0.075
 74
0
  0
LTYPE
  5
1F6
100
AcDbSymbolTableRecord
100
AcDbLinetypeTableRecord
  2
HIDDEN
 70
64
  3
- - - - - - - - - - - - - - - - - - - -
 72
65
 73
2
 40
0.2
 49
0.1
 74
0
 49
-0.1
 74
0
  0
LTYPE
  5
1F7
100
AcDbSymbolTableRecord
100
AcDbLinetypeTableRecord
  2
PHANTOM
 70
64
  3
_____ _ _ _____ _ _ _____ _ _ _____
 72
65
 73
6
 40
0.8
 49
0.45
 74
0
 49
-0.05
 74
0
 49
0.1
 74
0
 49
-0.05
 74
0
 49
0.1
 74
0
 49
-0.05
 74
0
  0
LTYPE
  5
1F8
100
AcDbSymbolTableRecord
100
AcDbLinetypeTableRecord
  2
DOT
 70
64
  3
. . . . . . . . . . . . . . . . . . . .
 72
65
 73
2
 40
0.2
 49
0.1
 74
0
 49
-0.1
 74
0
  0
LTYPE
  5
1F9
100
AcDbSymbolTableRecord
100
AcDbLinetypeTableRecord
  2
DASHED
 70
64
  3
- - - - - - - - - - - - - - - - - - - -
 72
65
 73
2
 40
0.2
 49
0.1
 74
0
 49
-0.1
 74
0
  0
ENDTAB
  0
TABLE
  2
LAYER
  5
2
100
AcDbSymbolTable
 70
36
  0
LAYER
  5
10
100
AcDbSymbolTableRecord
100
AcDbLayerTableRecord
  2
0
 70
0
 62
7
  6
CONTINUOUS
370
-3
390
F
  0
LAYER
  5
1FA
100
AcDbSymbolTableRecord
100
AcDbLayerTableRecord
  2
DEFAULT_1
 70
0
 62
7
  6
CENTER
370
-3
390
F
  0
LAYER
  5
1FB
100
AcDbSymbolTableRecord
100
AcDbLayerTableRecord
  2
DEFAULT_2
 70
0
 62
7
  6
HIDDEN
370
-3
390
F
  0
LAYER
  5
1FC
100
AcDbSymbolTableRecord
100
AcDbLayerTableRecord
  2
DEFAULT_3
 70
0
 62
7
  6
PHANTOM
370
-3
390
F
  0
LAYER
  5
1FD
100
AcDbSymbolTableRecord
100
AcDbLayerTableRecord
  2
ASSI
 70
0
 62
7
  6
CONTINUOUS
370
-3
390
F
  0
LAYER
  5
1FE
100
AcDbSymbolTableRecord
100
AcDbLayerTableRecord
  2
COORDINATE
 70
0
 62
7
  6
CONTINUOUS
370
-3
390
F
  0
LAYER
  5
1FF
100
AcDbSymbolTableRecord
100
AcDbLayerTableRecord
  2
COPY_PUBLISH
 70
0
 62
7
  6
CONTINUOUS
370
-3
390
F
  0
LAYER
  5
200
100
AcDbSymbolTableRecord
100
AcDbLayerTableRecord
  2
COSMETICI
 70
0
 62
7
  6
CONTINUOUS
370
-3
390
F
  0
LAYER
  5
201
100
AcDbSymbolTableRecord
100
AcDbLayerTableRecord
  2
CURVE
 70
0
 62
7
  6
CONTINUOUS
370
-3
390
F
  0
LAYER
  5
202
100
AcDbSymbolTableRecord
100
AcDbLayerTableRecord
  2
DRAFT
 70
0
 62
7
  6
CONTINUOUS
370
-3
390
F
  0
LAYER
  5
203
100
AcDbSymbolTableRecord
100
AcDbLayerTableRecord
  2
IMPORT_IGES
 70
0
 62
7
  6
CONTINUOUS
370
-3
390
F
  0
LAYER
  5
204
100
AcDbSymbolTableRecord
100
AcDbLayerTableRecord
  2
NOTE
 70
0
 62
7
  6
CONTINUOUS
370
-3
390
F
  0
LAYER
  5
205
100
AcDbSymbolTableRecord
100
AcDbLayerTableRecord
  2
PIANI
 70
0
 62
7
  6
CONTINUOUS
370
-3
390
F
  0
LAYER
  5
206
100
AcDbSymbolTableRecord
100
AcDbLayerTableRecord
  2
PUNTI
 70
0
 62
7
  6
CONTINUOUS
370
-3
390
F
  0
LAYER
  5
207
100
AcDbSymbolTableRecord
100
AcDbLayerTableRecord
  2
RACCORDO
 70
0
 62
7
  6
CONTINUOUS
370
-3
390
F
  0
LAYER
  5
208
100
AcDbSymbolTableRecord
100
AcDbLayerTableRecord
  2
SIMBOLI
 70
0
 62
7
  6
CONTINUOUS
370
-3
390
F
  0
LAYER
  5
209
100
AcDbSymbolTableRecord
100
AcDbLayerTableRecord
  2
SMUSSO
 70
0
 62
7
  6
CONTINUOUS
370
-3
390
F
  0
LAYER
  5
20A
100
AcDbSymbolTableRecord
100
AcDbLayerTableRecord
  2
SNAPLINE
 70
0
 62
7
  6
CONTINUOUS
370
-3
390
F
  0
LAYER
  5
20B
100
AcDbSymbolTableRecord
100
AcDbLayerTableRecord
  2
SUPERFICI
 70
0
 62
7
  6
CONTINUOUS
370
-3
390
F
  0
LAYER
  5
20C
100
AcDbSymbolTableRecord
100
AcDbLayerTableRecord
  2
TRASH
 70
0
 62
7
  6
CONTINUOUS
370
-3
390
F
  0
ENDTAB
  0
TABLE
  2
STYLE
  5
3
100
AcDbSymbolTable
 70
1
  0
STYLE
  5
11
100
AcDbSymbolTableRecord
100
AcDbTextStyleTableRecord
  2
STANDARD
 70
0
 40
0.0
 41
0.8
 50
0.0
 71
0
 42
0.2
  3
txt
  4

  0
STYLE
  5
20D
100
AcDbSymbolTableRecord
100
AcDbTextStyleTableRecord
  2
TEXTSTYLE_1
 70
0
 40
0.0
 41
0.8
 50
0.0
 71
0
 42
0.2
  3
gdt
  4

  0
ENDTAB
  0
TABLE
  2
VIEW
  5
6
100
AcDbSymbolTable
 70
0
  0
ENDTAB
  0
TABLE
  2
UCS
  5
7
100
AcDbSymbolTable
 70
0
  0
ENDTAB
  0
TABLE
  2
APPID
  5
9
100
AcDbSymbolTable
 70
1
  0
APPID
  5
20E
100
AcDbSymbolTableRecord
100
AcDbRegAppTableRecord
  2
ACAD
 70
0
  0
ENDTAB
  0
TABLE
  2
BLOCK_RECORD
  5
1
100
AcDbSymbolTable
 70
0
  0
BLOCK_RECORD
  5
20F
100
AcDbSymbolTableRecord
100
AcDbBlockTableRecord
  2
*Model_Space
  0
BLOCK_RECORD
  5
210
100
AcDbSymbolTableRecord
100
AcDbBlockTableRecord
  2
*Paper_Space
  0
BLOCK_RECORD
  5
211
100
AcDbSymbolTableRecord
100
AcDbBlockTableRecord
  2
_FILLED
  0
BLOCK_RECORD
  5
212
100
AcDbSymbolTableRecord
100
AcDbBlockTableRecord
  2
*D0
  0
BLOCK_RECORD
  5
213
100
AcDbSymbolTableRecord
100
AcDbBlockTableRecord
  2
*D1
  0
BLOCK_RECORD
  5
214
100
AcDbSymbolTableRecord
100
AcDbBlockTableRecord
  2
*D2
  0
BLOCK_RECORD
  5
215
100
AcDbSymbolTableRecord
100
AcDbBlockTableRecord
  2
*D3
  0
ENDTAB
  0
TABLE
  2
DIMSTYLE
  5
A
100
AcDbSymbolTable
 70
1
100
AcDbDimStyleTable
 71
0
  0
DIMSTYLE
105
216
100
AcDbSymbolTableRecord
100
AcDbDimStyleTableRecord
  2
STANDARD
 70
0
  3

  4

 40
1.0
 41
3.0
 42
0.5
 43
0.38
 44
1.5
 45
0.0
 46
0.0
 47
0.01
 48
0.01
140
3.0
141
0.09
142
0.0
143
25.4
144
1.0
145
0.0
146
1.0
147
0.625
 71
1
 72
0
 73
0
 74
0
 75
0
 76
0
 77
1
 78
8
 79
2
170
0
171
1
172
0
173
0
174
0
175
0
176
0
177
0
178
0
270
2
179
2
271
2
272
2
273
2
274
2
275
0
280
0
281
0
282
0
283
1
284
8
285
0
286
0
287
3
288
0
340
11
278
44
341
211
342
211
343
211
344
211
  0
DIMSTYLE
105
217
100
AcDbSymbolTableRecord
100
AcDbDimStyleTableRecord
  2
DIMSTYLE_1
 70
0
  3

  4

 40
1.0
 41
3.0
 42
0.5
 43
0.38
 44
1.5
 45
0.0
 46
0.0
 47
0.0
 48
0.0
140
3.0
141
0.09
142
0.0
143
25.4
144
1.0
145
0.0
146
1.0
147
0.75
 71
0
 72
0
 73
0
 74
0
 75
0
 76
0
 77
1
 78
8
 79
2
170
0
171
1
172
0
173
0
174
0
175
0
176
0
177
0
178
0
270
2
179
2
271
2
272
2
273
2
274
2
275
0
280
0
281
0
282
0
283
1
284
8
285
0
286
0
287
3
288
0
340
11
278
44
341
211
342
211
343
211
344
211
  0
ENDTAB
  0
ENDSEC
  0
SECTION
  2
BLOCKS
  0
BLOCK
  5
20
100
AcDbEntity
  8
0
100
AcDbBlockBegin
  2
*Model_Space
 70
0
 10
0.0
 20
0.0
 30
0.0
  3
*Model_Space
  1

  0
ENDBLK
  5
21
100
AcDbEntity
  8
0
100
AcDbBlockEnd
  0
BLOCK
  5
1C
100
AcDbEntity
  8
0
100
AcDbBlockBegin
  2
*Paper_Space
 70
0
 10
0.0
 20
0.0
 30
0.0
  3
*Paper_Space
  1

  0
ENDBLK
  5
1D
100
AcDbEntity
  8
0
100
AcDbBlockEnd
  0
BLOCK
  5
218
100
AcDbEntity
  8
0
100
AcDbBlockBegin
  2
_FILLED
 70
64
 10
0.0
 20
0.0
  3
_FILLED
  1

  0
SOLID
  5
219
100
AcDbEntity
  8
0
  6
BYBLOCK
 62
0
100
AcDbTrace
 10
0.0
 20
0.0
 11
-1.0
 21
0.3166666667
 12
-1.0
 22
-0.3166666667
 13
-1.0
 23
-0.3166666667
  0
ENDBLK
  5
21A
100
AcDbEntity
  8
0
  6
BYBLOCK
 62
0
100
AcDbBlockEnd
  0
BLOCK
  5
21B
100
AcDbEntity
  8
0
100
AcDbBlockBegin
 62
7
  6
CONTINUOUS
  2
*D0
 70
65
 10
0.0
 20
0.0
  3
*D0
  1

  0
MTEXT
  5
21C
100
AcDbEntity
  8
0
100
AcDbMText
 62
7
  6
CONTINUOUS
  7
STANDARD
 71
2
 72
1
 10
0.0
 20
26.65
 30
0.0
 11
1.0
 21
0.0
 31
0.0
 73
2
 44
0.9
  1
{\ftxt;\W0.0001;\H0.0001;\~}{\ftxt;\W1.5714285714;\H3.0; }{\ftxt;\W0.0001;\H0.0001;\~}
 40
3.0
 41
7.0714285714
  0
LINE
  5
21D
100
AcDbEntity
  8
0
100
AcDbLine
 62
7
  6
CONTINUOUS
 10
-43.0
 20
14.5
 11
-43.0
 21
24.4
  0
LINE
  5
21E
100
AcDbEntity
  8
0
100
AcDbLine
 62
7
  6
CONTINUOUS
 10
43.0
 20
14.5
 11
43.0
 21
24.4
  0
LINE
  5
21F
100
AcDbEntity
  8
0
100
AcDbLine
 62
7
  6
CONTINUOUS
 10
-43.0
 20
22.9
 11
0.0
 21
22.9
  0
LINE
  5
220
100
AcDbEntity
  8
0
100
AcDbLine
 62
7
  6
CONTINUOUS
 10
43.0
 20
22.9
 11
0.0
 21
22.9
  0
INSERT
  5
221
100
AcDbEntity
  8
0
100
AcDbBlockReference
 62
7
  6
CONTINUOUS
  2
_FILLED
 10
-43.0
 20
22.9
 41
3.0
 42
3.0
 43
3.0
 50
180.0
  0
INSERT
  5
222
100
AcDbEntity
  8
0
100
AcDbBlockReference
 62
7
  6
CONTINUOUS
  2
_FILLED
 10
43.0
 20
22.9
 41
3.0
 42
3.0
 43
3.0
  0
ENDBLK
  5
223
100
AcDbEntity
  8
0
  6
BYBLOCK
 62
0
100
AcDbBlockEnd
  0
BLOCK
  5
224
100
AcDbEntity
  8
0
100
AcDbBlockBegin
 62
7
  6
CONTINUOUS
  2
*D1
 70
65
 10
0.0
 20
0.0
  3
*D1
  1

  0
MTEXT
  5
225
100
AcDbEntity
  8
0
100
AcDbMText
 62
7
  6
CONTINUOUS
  7
STANDARD
 71
2
 72
1
 10
47.25
 20
0.0
 30
0.0
 11
0.0
 21
1.0
 31
0.0
 73
2
 44
0.9
  1
{\ftxt;\W0.0001;\H0.0001;\~}{\ftxt;\W2.9285714286;\H3.0; }{\ftxt;\W0.0001;\H0.0001;\~}
 40
3.0
 41
13.1785714286
  0
LINE
  5
226
100
AcDbEntity
  8
0
100
AcDbLine
 62
7
  6
CONTINUOUS
 10
42.5050125629
 20
14.9
 11
52.5
 21
14.9
  0
LINE
  5
227
100
AcDbEntity
  8
0
100
AcDbLine
 62
7
  6
CONTINUOUS
 10
42.5050125629
 20
-14.9
 11
52.5
 21
-14.9
  0
LINE
  5
228
100
AcDbEntity
  8
0
100
AcDbLine
 62
7
  6
CONTINUOUS
 10
51.0
 20
14.9
 11
51.0
 21
0.0
  0
LINE
  5
229
100
AcDbEntity
  8
0
100
AcDbLine
 62
7
  6
CONTINUOUS
 10
51.0
 20
-14.9
 11
51.0
 21
0.0
  0
INSERT
  5
22A
100
AcDbEntity
  8
0
100
AcDbBlockReference
 62
7
  6
CONTINUOUS
  2
_FILLED
 10
51.0
 20
14.9
 41
3.0
 42
3.0
 43
3.0
 50
90.0
  0
INSERT
  5
22B
100
AcDbEntity
  8
0
100
AcDbBlockReference
 62
7
  6
CONTINUOUS
  2
_FILLED
 10
51.0
 20
-14.9
 41
3.0
 42
3.0
 43
3.0
 50
270.0
  0
ENDBLK
  5
22C
100
AcDbEntity
  8
0
  6
BYBLOCK
 62
0
100
AcDbBlockEnd
  0
BLOCK
  5
22D
100
AcDbEntity
  8
0
100
AcDbBlockBegin
 62
7
  6
CONTINUOUS
  2
*D2
 70
65
 10
0.0
 20
0.0
  3
*D2
  1

  0
MTEXT
  5
22E
100
AcDbEntity
  8
0
100
AcDbMText
 62
7
  6
CONTINUOUS
  7
STANDARD
 71
3
 72
1
 10
-74.9276907799
 20
26.65
 30
0.0
 11
1.0
 21
0.0
 31
0.0
 73
2
 44
0.9
  1
{\ftxt;\W0.0001;\H0.0001;\~}{\ftxt;\W2.1428571429;\H3.0; }{\ftxt;\W0.0001;\H0.0001;\~}
 40
3.0
 41
9.6428571429
  0
LINE
  5
22F
100
AcDbEntity
  8
0
100
AcDbLine
 62
7
  6
CONTINUOUS
 10
-68.082555015
 20
14.5
 11
-68.082555015
 21
24.4
  0
LINE
  5
230
100
AcDbEntity
  8
0
100
AcDbLine
 62
7
  6
CONTINUOUS
 10
-65.682555015
 20
12.6262202069
 11
-65.682555015
 21
24.4
  0
LINE
  5
231
100
AcDbEntity
  8
0
100
AcDbLine
 62
7
  6
CONTINUOUS
 10
-68.082555015
 20
22.9
 11
-81.3562622084
 21
22.9
  0
LINE
  5
232
100
AcDbEntity
  8
0
100
AcDbLine
 62
7
  6
CONTINUOUS
 10
-81.3562622084
 20
22.9
 11
-66.882555015
 21
22.9
  0
LINE
  5
233
100
AcDbEntity
  8
0
100
AcDbLine
 62
7
  6
CONTINUOUS
 10
-65.682555015
 20
22.9
 11
-61.682555015
 21
22.9
  0
LINE
  5
234
100
AcDbEntity
  8
0
100
AcDbLine
 62
7
  6
CONTINUOUS
 10
-61.682555015
 20
22.9
 11
-66.882555015
 21
22.9
  0
INSERT
  5
235
100
AcDbEntity
  8
0
100
AcDbBlockReference
 62
7
  6
CONTINUOUS
  2
_FILLED
 10
-68.082555015
 20
22.9
 41
3.0
 42
3.0
 43
3.0
  0
INSERT
  5
236
100
AcDbEntity
  8
0
100
AcDbBlockReference
 62
7
  6
CONTINUOUS
  2
_FILLED
 10
-65.682555015
 20
22.9
 41
3.0
 42
3.0
 43
3.0
 50
180.0
  0
ENDBLK
  5
237
100
AcDbEntity
  8
0
  6
BYBLOCK
 62
0
100
AcDbBlockEnd
  0
BLOCK
  5
238
100
AcDbEntity
  8
0
100
AcDbBlockBegin
 62
7
  6
CONTINUOUS
  2
*D3
 70
65
 10
0.0
 20
0.0
  3
*D3
  1

  0
MTEXT
  5
239
100
AcDbEntity
  8
0
100
AcDbMText
 62
7
  6
CONTINUOUS
  7
STANDARD
 71
3
 72
1
 10
-77.2701296507
 20
35.8958269434
 30
0.0
 11
1.0
 21
0.0
 31
0.0
 73
2
 44
0.9
  1
{\ftxt;\W0.0001;\H0.0001;\~}{\ftxt;\W2.1428571429;\H3.0; }{\ftxt;\W0.0001;\H0.0001;\~}
 40
3.0
 41
9.6428571429
  0
LINE
  5
23A
100
AcDbEntity
  8
0
100
AcDbLine
 62
7
  6
CONTINUOUS
 10
-72.082555015
 20
14.8388311305
 11
-72.082555015
 21
33.6458269434
  0
LINE
  5
23B
100
AcDbEntity
  8
0
100
AcDbLine
 62
7
  6
CONTINUOUS
 10
-65.682555015
 20
12.2994997051
 11
-65.682555015
 21
33.6458269434
  0
LINE
  5
23C
100
AcDbEntity
  8
0
100
AcDbLine
 62
7
  6
CONTINUOUS
 10
-72.082555015
 20
32.1458269434
 11
-83.6987010793
 21
32.1458269434
  0
LINE
  5
23D
100
AcDbEntity
  8
0
100
AcDbLine
 62
7
  6
CONTINUOUS
 10
-83.6987010793
 20
32.1458269434
 11
-68.882555015
 21
32.1458269434
  0
LINE
  5
23E
100
AcDbEntity
  8
0
100
AcDbLine
 62
7
  6
CONTINUOUS
 10
-65.682555015
 20
32.1458269434
 11
-61.682555015
 21
32.1458269434
  0
LINE
  5
23F
100
AcDbEntity
  8
0
100
AcDbLine
 62
7
  6
CONTINUOUS
 10
-61.682555015
 20
32.1458269434
 11
-68.882555015
 21
32.1458269434
  0
INSERT
  5
240
100
AcDbEntity
  8
0
100
AcDbBlockReference
 62
7
  6
CONTINUOUS
  2
_FILLED
 10
-72.082555015
 20
32.1458269434
 41
3.0
 42
3.0
 43
3.0
  0
INSERT
  5
241
100
AcDbEntity
  8
0
100
AcDbBlockReference
 62
7
  6
CONTINUOUS
  2
_FILLED
 10
-65.682555015
 20
32.1458269434
 41
3.0
 42
3.0
 43
3.0
 50
180.0
  0
ENDBLK
  5
242
100
AcDbEntity
  8
0
  6
BYBLOCK
 62
0
100
AcDbBlockEnd
  0
ENDSEC
  0
SECTION
  2
ENTITIES
  0
DIMENSION
  5
243
100
AcDbEntity
  8
0
100
AcDbDimension
 62
7
  6
CONTINUOUS
  2
*D0
 10
43.0
 20
22.9
 11
-0.4285713773
 21
22.9
 70
160
 71
2
 72
2
 41
0.9
 42
86.0
  1
{\ftxt;\W0.0001;\H0.0001;\~}{\ftxt;\W1.5714285714;\H3.0; }{\ftxt;\W0.0001;\H0.0001;\~}
  3
DIMSTYLE_1
100
AcDbAlignedDimension
 13
-43.0
 23
14.0
 14
43.0
 24
14.0
100
AcDbRotatedDimension
  0
DIMENSION
  5
244
100
AcDbEntity
  8
0
100
AcDbDimension
 62
7
  6
CONTINUOUS
  2
*D1
 10
51.0
 20
-14.9
 11
51.0
 21
-0.4285697741
 70
160
 71
2
 72
2
 41
0.9
 42
29.8
  1
{\ftxt;\W0.0001;\H0.0001;\~}{\ftxt;\W2.9285714286;\H3.0; }{\ftxt;\W0.0001;\H0.0001;\~}
  3
DIMSTYLE_1
100
AcDbAlignedDimension
 13
42.0050125629
 23
14.9
 14
42.0050125629
 24
-14.9
 50
270.0
100
AcDbRotatedDimension
  0
DIMENSION
  5
245
100
AcDbEntity
  8
0
100
AcDbDimension
 62
7
  6
CONTINUOUS
  2
*D2
 10
-65.682555015
 20
22.9
 11
-78.5705487671
 21
22.9
 70
160
 71
3
 72
2
 41
0.9
 42
2.4
  1
{\ftxt;\W0.0001;\H0.0001;\~}{\ftxt;\W2.1428571429;\H3.0; }{\ftxt;\W0.0001;\H0.0001;\~}
  3
DIMSTYLE_1
100
AcDbAlignedDimension
 13
-68.082555015
 23
14.0
 14
-65.682555015
 24
12.1262202069
100
AcDbRotatedDimension
  0
DIMENSION
  5
246
100
AcDbEntity
  8
0
100
AcDbDimension
 62
7
  6
CONTINUOUS
  2
*D3
 10
-65.682555015
 20
32.1458269434
 11
-80.9129858093
 21
32.1458269434
 70
160
 71
3
 72
2
 41
0.9
 42
6.4
  1
{\ftxt;\W0.0001;\H0.0001;\~}{\ftxt;\W2.1428571429;\H3.0; }{\ftxt;\W0.0001;\H0.0001;\~}
  3
DIMSTYLE_1
100
AcDbAlignedDimension
 13
-72.082555015
 23
14.3388311305
 14
-65.682555015
 24
11.7994997051
100
AcDbRotatedDimension
  0
LINE
  5
247
100
AcDbEntity
  8
DRAFT
100
AcDbLine
 62
7
  6
CONTINUOUS
 10
-43.0
 20
14.0
 11
-43.0
 21
1.0
  0
LINE
  5
248
100
AcDbEntity
  8
DRAFT
100
AcDbLine
 62
7
  6
CONTINUOUS
 10
-43.0
 20
-1.0
 11
-43.0
 21
-14.0
  0
LWPOLYLINE
  5
249
100
AcDbEntity
  8
DRAFT
100
AcDbPolyline
 62
7
  6
CONTINUOUS
 90
7
 70
0
 10
-40.0227678064
 20
-9.5179044775
 10
-40.023061939
 20
-9.5059699102
 10
-40.0233694404
 20
-9.4962653658
 10
-40.0236873597
 20
-9.4890069951
 10
-40.0240193221
 20
-9.484198307
 10
-40.0243617024
 20
-9.4818357925
 10
-40.024437128
 20
-9.4816646275
  0
LWPOLYLINE
  5
24A
100
AcDbEntity
  8
DRAFT
100
AcDbPolyline
 62
7
  6
CONTINUOUS
 90
7
 70
0
 10
-40.0227678064
 20
5.4820955225
 10
-40.023061939
 20
5.4940300898
 10
-40.0233694404
 20
5.5037346342
 10
-40.0236873597
 20
5.5109930049
 10
-40.0240193221
 20
5.515801693
 10
-40.0243617024
 20
5.5181642075
 10
-40.024437128
 20
5.5183353725
  0
LWPOLYLINE
  5
24B
100
AcDbEntity
  8
DRAFT
100
AcDbPolyline
 62
7
  6
CONTINUOUS
 90
7
 70
0
 10
-40.0262693624
 20
-5.4779325099
 10
-40.0259765651
 20
-5.4907861249
 10
-40.0256714849
 20
-5.5012452122
 10
-40.0253528528
 20
-5.509282825
 10
-40.0250219378
 20
-5.51492591
 10
-40.0246885984
 20
-5.5179357442
 10
-40.024437115
 20
-5.5183627414
  0
LWPOLYLINE
  5
24C
100
AcDbEntity
  8
DRAFT
100
AcDbPolyline
 62
7
  6
CONTINUOUS
 90
7
 70
0
 10
-40.0262687817
 20
9.522036308
 10
-40.0259759793
 20
9.5091883749
 10
-40.0256708222
 20
9.4987350313
 10
-40.0253519404
 20
9.4907009966
 10
-40.025020704
 20
9.4850615514
 10
-40.0246871582
 20
9.4820572318
 10
-40.024437114
 20
9.4816349123
  0
LINE
  5
24D
100
AcDbEntity
  8
DRAFT
100
AcDbLine
 62
7
  6
CONTINUOUS
 10
-40.0168768991
 20
-3.4831231009
 11
-40.0053295471
 21
-4.1446704529
  0
LINE
  5
24E
100
AcDbEntity
  8
DRAFT
100
AcDbLine
 62
7
  6
CONTINUOUS
 10
-38.9964469686
 20
-10.7535530314
 11
-38.9831231009
 21
-11.5168768991
  0
LINE
  5
24F
100
AcDbEntity
  8
DRAFT
100
AcDbLine
 62
7
  6
CONTINUOUS
 10
-40.0222216147
 20
-9.5483195807
 11
-40.0227678064
 21
-9.5179044775
  0
LINE
  5
250
100
AcDbEntity
  8
DRAFT
100
AcDbLine
 62
7
  6
CONTINUOUS
 10
-40.0222216147
 20
5.4516804193
 11
-40.0227678064
 21
5.4820955225
  0
LINE
  5
251
100
AcDbEntity
  8
DRAFT
100
AcDbLine
 62
7
  6
CONTINUOUS
 10
-40.0268000132
 20
-5.4460082838
 11
-40.0262693624
 21
-5.4779325099
  0
LINE
  5
252
100
AcDbEntity
  8
DRAFT
100
AcDbLine
 62
7
  6
CONTINUOUS
 10
-40.0267996495
 20
9.55396826
 11
-40.0262687817
 21
9.522036308
  0
LINE
  5
253
100
AcDbEntity
  8
DRAFT
100
AcDbLine
 62
7
  6
CONTINUOUS
 10
-40.0142121255
 20
-10.1590280662
 11
-40.0222216147
 21
-9.5483195807
  0
LINE
  5
254
100
AcDbEntity
  8
DRAFT
100
AcDbLine
 62
7
  6
CONTINUOUS
 10
-40.0142121255
 20
4.8409719338
 11
-40.0222216147
 21
5.4516804193
  0
LINE
  5
255
100
AcDbEntity
  8
DRAFT
100
AcDbLine
 62
7
  6
CONTINUOUS
 10
-40.0274405595
 20
-5.3835339835
 11
-40.0268000132
 21
-5.4460082838
  0
LINE
  5
256
100
AcDbEntity
  8
DRAFT
100
AcDbLine
 62
7
  6
CONTINUOUS
 10
-40.0274406078
 20
9.6164701714
 11
-40.0267996495
 21
9.55396826
  0
LINE
  5
257
100
AcDbEntity
  8
DRAFT
100
AcDbLine
 62
7
  6
CONTINUOUS
 10
-40.0278338057
 20
-5.3054354757
 11
-40.0274405595
 21
-5.3835339835
  0
LINE
  5
258
100
AcDbEntity
  8
DRAFT
100
AcDbLine
 62
7
  6
CONTINUOUS
 10
-40.027833824
 20
9.6945686949
 11
-40.0274406078
 21
9.6164701714
  0
LINE
  5
259
100
AcDbEntity
  8
DRAFT
100
AcDbLine
 62
7
  6
CONTINUOUS
 10
-40.0279281039
 20
-3.4720718961
 11
-40.0278338057
 21
-5.3054354757
  0
LINE
  5
25A
100
AcDbEntity
  8
DRAFT
100
AcDbLine
 62
7
  6
CONTINUOUS
 10
-40.027833824
 20
9.6945686949
 11
-40.0279281039
 21
12.75
  0
LINE
  5
25B
100
AcDbEntity
  8
DRAFT
100
AcDbLine
 62
7
  6
CONTINUOUS
 10
-40.0
 20
12.75
 11
-40.0
 21
11.8084219849
  0
LINE
  5
25C
100
AcDbEntity
  8
DRAFT
100
AcDbLine
 62
7
  6
CONTINUOUS
 10
-40.0
 20
-11.8084219849
 11
-40.0
 21
-12.75
  0
LINE
  5
25D
100
AcDbEntity
  8
DRAFT
100
AcDbLine
 62
7
  6
CONTINUOUS
 10
-39.9860359481
 20
11.7994997051
 11
-39.9860359481
 21
10.2151271344
  0
LINE
  5
25E
100
AcDbEntity
  8
DRAFT
100
AcDbLine
 62
7
  6
CONTINUOUS
 10
-39.9860359481
 20
4.7848728656
 11
-39.9860359481
 21
4.1639640519
  0
LINE
  5
25F
100
AcDbEntity
  8
DRAFT
100
AcDbLine
 62
7
  6
CONTINUOUS
 10
-39.9860359481
 20
-4.1639640519
 11
-39.9860359481
 21
-4.7848728656
  0
LINE
  5
260
100
AcDbEntity
  8
DRAFT
100
AcDbLine
 62
7
  6
CONTINUOUS
 10
-39.9860359481
 20
-10.2151271344
 11
-39.9860359481
 21
-11.7994997051
  0
LINE
  5
261
100
AcDbEntity
  8
DRAFT
100
AcDbLine
 62
7
  6
CONTINUOUS
 10
-40.027738186
 20
5.3329817893
 11
-40.0279281039
 21
3.4720718961
  0
LINE
  5
262
100
AcDbEntity
  8
DRAFT
100
AcDbLine
 62
7
  6
CONTINUOUS
 10
-40.027738186
 20
-9.6670182107
 11
-40.0279281039
 21
-12.75
  0
LINE
  5
263
100
AcDbEntity
  8
DRAFT
100
AcDbLine
 62
7
  6
CONTINUOUS
 10
-40.027254902
 20
5.4056838918
 11
-40.027738186
 21
5.3329817893
  0
LINE
  5
264
100
AcDbEntity
  8
DRAFT
100
AcDbLine
 62
7
  6
CONTINUOUS
 10
-40.027254902
 20
-9.5943161082
 11
-40.027738186
 21
-9.6670182107
  0
LINE
  5
265
100
AcDbEntity
  8
DRAFT
100
AcDbLine
 62
7
  6
CONTINUOUS
 10
-40.0268068653
 20
5.4455136718
 11
-40.027254902
 21
5.4056838918
  0
LINE
  5
266
100
AcDbEntity
  8
DRAFT
100
AcDbLine
 62
7
  6
CONTINUOUS
 10
-40.0268068653
 20
-9.5544863282
 11
-40.027254902
 21
-9.5943161082
  0
LINE
  5
267
100
AcDbEntity
  8
DRAFT
100
AcDbLine
 62
7
  6
CONTINUOUS
 10
-40.0053295471
 20
4.1446704529
 11
-40.0168768991
 21
3.4831231009
  0
LINE
  5
268
100
AcDbEntity
  8
DRAFT
100
AcDbLine
 62
7
  6
CONTINUOUS
 10
-38.9831231009
 20
11.5168768991
 11
-38.9964469686
 21
10.7535530314
  0
LWPOLYLINE
  5
269
100
AcDbEntity
  8
DRAFT
100
AcDbPolyline
 62
7
  6
CONTINUOUS
 90
9
 70
0
 10
-40.024437114
 20
9.4816349123
 10
-40.0243506299
 20
9.4818373476
 10
-40.0240117923
 20
9.4842525889
 10
-40.0236827098
 20
9.4890955623
 10
-40.0233662423
 20
9.4963656114
 10
-40.0230595301
 20
9.5060633927
 10
-40.0227660583
 20
9.5179834813
 10
-40.022486989
 20
9.5320574024
 10
-40.0142121255
 20
10.1590280662
  0
LINE
  5
26A
100
AcDbEntity
  8
DRAFT
100
AcDbLine
 62
7
  6
CONTINUOUS
 10
-39.998592255
 20
10.1902718783
 11
-40.0142121255
 21
10.1590280662
  0
LINE
  5
26B
100
AcDbEntity
  8
DRAFT
100
AcDbLine
 62
7
  6
CONTINUOUS
 10
-39.9860359481
 20
10.2151271344
 11
-39.998592255
 21
10.1902718783
  0
LINE
  5
26C
100
AcDbEntity
  8
DRAFT
100
AcDbLine
 62
7
  6
CONTINUOUS
 10
-39.9860359481
 20
-10.2151271344
 11
-40.0017229427
 21
-10.1840388625
  0
LINE
  5
26D
100
AcDbEntity
  8
DRAFT
100
AcDbLine
 62
7
  6
CONTINUOUS
 10
-40.0017229427
 20
-10.1840388625
 11
-40.0142121255
 21
-10.1590280662
  0
LWPOLYLINE
  5
26E
100
AcDbEntity
  8
DRAFT
100
AcDbPolyline
 62
7
  6
CONTINUOUS
 90
7
 70
0
 10
-35.9772321936
 20
-5.4820955225
 10
-35.976938061
 20
-5.4940300898
 10
-35.9766305596
 20
-5.5037346342
 10
-35.9763126403
 20
-5.5109930049
 10
-35.9759806779
 20
-5.515801693
 10
-35.9756382976
 20
-5.5181642075
 10
-35.975562872
 20
-5.5183353725
  0
LWPOLYLINE
  5
26F
100
AcDbEntity
  8
DRAFT
100
AcDbPolyline
 62
7
  6
CONTINUOUS
 90
7
 70
0
 10
-35.9737312183
 20
-9.522036308
 10
-35.9740240207
 20
-9.5091883749
 10
-35.9743291778
 20
-9.4987350313
 10
-35.9746480596
 20
-9.4907009966
 10
-35.974979296
 20
-9.4850615514
 10
-35.9753128418
 20
-9.4820572318
 10
-35.975562886
 20
-9.4816349123
  0
LINE
  5
270
100
AcDbEntity
  8
DRAFT
100
AcDbLine
 62
7
  6
CONTINUOUS
 10
-39.0051466838
 20
10.7448533162
 11
-39.0114931534
 21
11.1084423186
  0
LINE
  5
271
100
AcDbEntity
  8
DRAFT
100
AcDbLine
 62
7
  6
CONTINUOUS
 10
-36.9885068466
 20
-11.1084423186
 11
-36.9948533162
 21
-10.7448533162
  0
LINE
  5
272
100
AcDbEntity
  8
DRAFT
100
AcDbLine
 62
7
  6
CONTINUOUS
 10
-37.0168768991
 20
11.5168768991
 11
-37.0035530314
 21
10.7535530314
  0
LINE
  5
273
100
AcDbEntity
  8
DRAFT
100
AcDbLine
 62
7
  6
CONTINUOUS
 10
-35.9777783853
 20
-5.4516804193
 11
-35.9772321936
 21
-5.4820955225
  0
LINE
  5
274
100
AcDbEntity
  8
DRAFT
100
AcDbLine
 62
7
  6
CONTINUOUS
 10
-35.9732003505
 20
-9.55396826
 11
-35.9737312183
 21
-9.522036308
  0
LINE
  5
275
100
AcDbEntity
  8
DRAFT
100
AcDbLine
 62
7
  6
CONTINUOUS
 10
-35.9857878745
 20
-4.8409719338
 11
-35.9777783853
 21
-5.4516804193
  0
LINE
  5
276
100
AcDbEntity
  8
DRAFT
100
AcDbLine
 62
7
  6
CONTINUOUS
 10
-35.9725593922
 20
-9.6164701714
 11
-35.9732003505
 21
-9.55396826
  0
LINE
  5
277
100
AcDbEntity
  8
DRAFT
100
AcDbLine
 62
7
  6
CONTINUOUS
 10
-35.972166176
 20
-9.6945686949
 11
-35.9725593922
 21
-9.6164701714
  0
LINE
  5
278
100
AcDbEntity
  8
DRAFT
100
AcDbLine
 62
7
  6
CONTINUOUS
 10
-39.0139640519
 20
12.1262202069
 11
-39.0139640519
 21
11.1103153465
  0
LINE
  5
279
100
AcDbEntity
  8
DRAFT
100
AcDbLine
 62
7
  6
CONTINUOUS
 10
-39.0139640519
 20
-12.1262202069
 11
-39.0139640519
 21
-11.1103153465
  0
LINE
  5
27A
100
AcDbEntity
  8
DRAFT
100
AcDbLine
 62
7
  6
CONTINUOUS
 10
-39.0
 20
-12.75
 11
-39.0
 21
-12.1435439053
  0
LINE
  5
27B
100
AcDbEntity
  8
DRAFT
100
AcDbLine
 62
7
  6
CONTINUOUS
 10
-39.0
 20
12.1435439053
 11
-39.0
 21
12.75
  0
LINE
  5
27C
100
AcDbEntity
  8
DRAFT
100
AcDbLine
 62
7
  6
CONTINUOUS
 10
-38.9720718961
 20
-12.75
 11
-38.9720718961
 21
-11.5279281039
  0
LINE
  5
27D
100
AcDbEntity
  8
DRAFT
100
AcDbLine
 62
7
  6
CONTINUOUS
 10
-38.9720718961
 20
11.5279281039
 11
-38.9720718961
 21
12.75
  0
LINE
  5
27E
100
AcDbEntity
  8
DRAFT
100
AcDbLine
 62
7
  6
CONTINUOUS
 10
-37.0279281039
 20
12.75
 11
-37.0279281039
 21
11.5279281039
  0
LINE
  5
27F
100
AcDbEntity
  8
DRAFT
100
AcDbLine
 62
7
  6
CONTINUOUS
 10
-37.0279281039
 20
-11.5279281039
 11
-37.0279281039
 21
-12.75
  0
LINE
  5
280
100
AcDbEntity
  8
DRAFT
100
AcDbLine
 62
7
  6
CONTINUOUS
 10
-37.0
 20
12.75
 11
-37.0
 21
12.1435439053
  0
LINE
  5
281
100
AcDbEntity
  8
DRAFT
100
AcDbLine
 62
7
  6
CONTINUOUS
 10
-37.0
 20
-12.1435439053
 11
-37.0
 21
-12.75
  0
LINE
  5
282
100
AcDbEntity
  8
DRAFT
100
AcDbLine
 62
7
  6
CONTINUOUS
 10
-36.9860359481
 20
12.1262202069
 11
-36.9860359481
 21
11.1103153465
  0
LINE
  5
283
100
AcDbEntity
  8
DRAFT
100
AcDbLine
 62
7
  6
CONTINUOUS
 10
-36.9860359481
 20
-12.1262202069
 11
-36.9860359481
 21
-11.1103153465
  0
LINE
  5
284
100
AcDbEntity
  8
DRAFT
100
AcDbLine
 62
7
  6
CONTINUOUS
 10
-36.0139640519
 20
-11.7994997051
 11
-36.0139640519
 21
-10.2151271344
  0
LINE
  5
285
100
AcDbEntity
  8
DRAFT
100
AcDbLine
 62
7
  6
CONTINUOUS
 10
-36.0139640519
 20
-4.7848728656
 11
-36.0139640519
 21
-4.1639640519
  0
LINE
  5
286
100
AcDbEntity
  8
DRAFT
100
AcDbLine
 62
7
  6
CONTINUOUS
 10
-36.0139640519
 20
4.1639640519
 11
-36.0139640519
 21
4.7848728656
  0
LINE
  5
287
100
AcDbEntity
  8
DRAFT
100
AcDbLine
 62
7
  6
CONTINUOUS
 10
-36.0139640519
 20
10.2151271344
 11
-36.0139640519
 21
11.7994997051
  0
LINE
  5
288
100
AcDbEntity
  8
DRAFT
100
AcDbLine
 62
7
  6
CONTINUOUS
 10
-36.0
 20
-12.75
 11
-36.0
 21
-11.8084219849
  0
LINE
  5
289
100
AcDbEntity
  8
DRAFT
100
AcDbLine
 62
7
  6
CONTINUOUS
 10
-36.0
 20
11.8084219849
 11
-36.0
 21
12.75
  0
LINE
  5
28A
100
AcDbEntity
  8
DRAFT
100
AcDbLine
 62
7
  6
CONTINUOUS
 10
-35.9725568842
 20
9.6168023363
 11
-35.9721659118
 21
9.6946781573
  0
LINE
  5
28B
100
AcDbEntity
  8
DRAFT
100
AcDbLine
 62
7
  6
CONTINUOUS
 10
-35.9731931347
 20
9.5544863282
 11
-35.9725568842
 21
9.6168023363
  0
LINE
  5
28C
100
AcDbEntity
  8
DRAFT
100
AcDbLine
 62
7
  6
CONTINUOUS
 10
-39.0114931534
 20
-11.1084423186
 11
-39.0051466838
 21
-10.7448533162
  0
LINE
  5
28D
100
AcDbEntity
  8
DRAFT
100
AcDbLine
 62
7
  6
CONTINUOUS
 10
-36.9948533162
 20
10.7448533162
 11
-36.9885068466
 21
11.1084423186
  0
LINE
  5
28E
100
AcDbEntity
  8
DRAFT
100
AcDbLine
 62
7
  6
CONTINUOUS
 10
-37.0035530314
 20
-10.7535530314
 11
-37.0168768991
 21
-11.5168768991
  0
LWPOLYLINE
  5
28F
100
AcDbEntity
  8
DRAFT
100
AcDbPolyline
 62
7
  6
CONTINUOUS
 90
8
 70
0
 10
-40.024437128
 20
5.5183353725
 10
-40.0247006738
 20
5.5178749234
 10
-40.0250347042
 20
5.5147742358
 10
-40.0253653257
 20
5.5090217496
 10
-40.0256833083
 20
5.5008906555
 10
-40.025987517
 20
5.4903614911
 10
-40.0262790869
 20
5.4774537187
 10
-40.0268068653
 20
5.4455136718
  0
LINE
  5
290
100
AcDbEntity
  8
DRAFT
100
AcDbLine
 62
7
  6
CONTINUOUS
 10
-39.0
 20
12.1435439053
 11
-39.0139640519
 21
12.1262202069
  0
LINE
  5
291
100
AcDbEntity
  8
DRAFT
100
AcDbLine
 62
7
  6
CONTINUOUS
 10
-39.0
 20
-12.1435439053
 11
-39.0139640519
 21
-12.1262202069
  0
LWPOLYLINE
  5
292
100
AcDbEntity
  8
RACCORDO
100
AcDbPolyline
 62
250
  6
CONTINUOUS
 90
3
 70
0
 10
-33.9866768695
 20
-14.6437624652
 10
-33.9882206409
 20
-14.6071685304
 10
-33.9908454354
 20
-14.5287001948
  0
LWPOLYLINE
  5
293
100
AcDbEntity
  8
DRAFT
100
AcDbPolyline
 62
7
  6
CONTINUOUS
 90
7
 70
0
 10
-35.9772321936
 20
9.5179044775
 10
-35.976938061
 20
9.5059699102
 10
-35.9766305596
 20
9.4962653658
 10
-35.9763126403
 20
9.4890069951
 10
-35.9759806779
 20
9.484198307
 10
-35.9756382976
 20
9.4818357925
 10
-35.975562872
 20
9.4816646275
  0
LWPOLYLINE
  5
294
100
AcDbEntity
  8
DRAFT
100
AcDbPolyline
 62
7
  6
CONTINUOUS
 90
7
 70
0
 10
-35.9737306376
 20
5.4779325099
 10
-35.9740234349
 20
5.4907861249
 10
-35.9743285151
 20
5.5012452122
 10
-35.9746471472
 20
5.509282825
 10
-35.9749780622
 20
5.51492591
 10
-35.9753114016
 20
5.5179357442
 10
-35.975562885
 20
5.5183627414
  0
LINE
  5
295
100
AcDbEntity
  8
RACCORDO
100
AcDbLine
 62
250
  6
CONTINUOUS
 10
-33.9908454354
 20
-14.5287001948
 11
-33.9917057403
 21
-14.4873639742
  0
LINE
  5
296
100
AcDbEntity
  8
DRAFT
100
AcDbLine
 62
7
  6
CONTINUOUS
 10
-35.9831231009
 20
3.4831231009
 11
-35.9946704529
 21
4.1446704529
  0
LINE
  5
297
100
AcDbEntity
  8
DRAFT
100
AcDbLine
 62
7
  6
CONTINUOUS
 10
-35.9777783853
 20
9.5483195807
 11
-35.9772321936
 21
9.5179044775
  0
LINE
  5
298
100
AcDbEntity
  8
DRAFT
100
AcDbLine
 62
7
  6
CONTINUOUS
 10
-35.9731999868
 20
5.4460082838
 11
-35.9737306376
 21
5.4779325099
  0
LINE
  5
299
100
AcDbEntity
  8
DRAFT
100
AcDbLine
 62
7
  6
CONTINUOUS
 10
-35.9857878745
 20
10.1590280662
 11
-35.9777783853
 21
9.5483195807
  0
LINE
  5
29A
100
AcDbEntity
  8
DRAFT
100
AcDbLine
 62
7
  6
CONTINUOUS
 10
-35.9725594405
 20
5.3835339835
 11
-35.9731999868
 21
5.4460082838
  0
LWPOLYLINE
  5
29B
100
AcDbEntity
  8
RACCORDO
100
AcDbPolyline
 62
250
  6
CONTINUOUS
 90
3
 70
0
 10
-33.9917057403
 20
-14.4873639742
 10
-33.9923988742
 20
-14.4020791223
 10
-33.992997017
 20
-14.35900402
  0
LINE
  5
29C
100
AcDbEntity
  8
DRAFT
100
AcDbLine
 62
7
  6
CONTINUOUS
 10
-35.9721661943
 20
5.3054354757
 11
-35.9725594405
 21
5.3835339835
  0
LINE
  5
29D
100
AcDbEntity
  8
DRAFT
100
AcDbLine
 62
7
  6
CONTINUOUS
 10
-35.972166176
 20
-9.6945686949
 11
-35.9720718961
 21
-12.75
  0
LINE
  5
29E
100
AcDbEntity
  8
DRAFT
100
AcDbLine
 62
7
  6
CONTINUOUS
 10
-35.9720718961
 20
3.4720718961
 11
-35.9721661943
 21
5.3054354757
  0
LINE
  5
29F
100
AcDbEntity
  8
RACCORDO
100
AcDbLine
 62
7
  6
CONTINUOUS
 10
-34.5
 20
14.4000761524
 11
-34.5
 21
12.5157095584
  0
LINE
  5
2A0
100
AcDbEntity
  8
DRAFT
100
AcDbLine
 62
7
  6
CONTINUOUS
 10
-34.5
 20
7.4842904416
 11
-34.5
 21
-7.4842904416
  0
LINE
  5
2A1
100
AcDbEntity
  8
RACCORDO
100
AcDbLine
 62
7
  6
CONTINUOUS
 10
-34.5
 20
-12.5157095584
 11
-34.5
 21
-14.4000761524
  0
LINE
  5
2A2
100
AcDbEntity
  8
DRAFT
100
AcDbLine
 62
7
  6
CONTINUOUS
 10
-34.4842904416
 20
-12.5
 11
-34.4842904416
 21
-7.5
  0
LINE
  5
2A3
100
AcDbEntity
  8
DRAFT
100
AcDbLine
 62
7
  6
CONTINUOUS
 10
-34.4842904416
 20
7.5
 11
-34.4842904416
 21
12.5
  0
LINE
  5
2A4
100
AcDbEntity
  8
RACCORDO
100
AcDbLine
 62
250
  6
CONTINUOUS
 10
-34.4589278676
 20
-14.35900402
 11
-34.4589278676
 21
14.35900402
  0
LINE
  5
2A5
100
AcDbEntity
  8
RACCORDO
100
AcDbLine
 62
250
  6
CONTINUOUS
 10
-33.992997017
 20
-14.35900402
 11
-33.992997017
 21
14.35900402
  0
LINE
  5
2A6
100
AcDbEntity
  8
DRAFT
100
AcDbLine
 62
7
  6
CONTINUOUS
 10
-35.9721659118
 20
9.6946781573
 11
-35.9720718961
 21
12.75
  0
LINE
  5
2A7
100
AcDbEntity
  8
DRAFT
100
AcDbLine
 62
7
  6
CONTINUOUS
 10
-35.972261814
 20
-5.3329817893
 11
-35.9720718961
 21
-3.4720718961
  0
LWPOLYLINE
  5
2A8
100
AcDbEntity
  8
RACCORDO
100
AcDbPolyline
 62
250
  6
CONTINUOUS
 90
3
 70
0
 10
-33.9917057471
 20
14.4873639646
 10
-33.9923988774
 20
14.4020791188
 10
-33.992997017
 20
14.35900402
  0
LINE
  5
2A9
100
AcDbEntity
  8
DRAFT
100
AcDbLine
 62
7
  6
CONTINUOUS
 10
-35.972745098
 20
-5.4056838918
 11
-35.972261814
 21
-5.3329817893
  0
LINE
  5
2AA
100
AcDbEntity
  8
DRAFT
100
AcDbLine
 62
7
  6
CONTINUOUS
 10
-35.9731931347
 20
-5.4455136718
 11
-35.972745098
 21
-5.4056838918
  0
LINE
  5
2AB
100
AcDbEntity
  8
DRAFT
100
AcDbLine
 62
7
  6
CONTINUOUS
 10
-35.9946704529
 20
-4.1446704529
 11
-35.9831231009
 21
-3.4831231009
  0
LWPOLYLINE
  5
2AC
100
AcDbEntity
  8
RACCORDO
100
AcDbPolyline
 62
250
  6
CONTINUOUS
 90
3
 70
0
 10
-33.9882206474
 20
14.6071685144
 10
-33.9908454427
 20
14.5287001825
 10
-33.9917057471
 20
14.4873639646
  0
LWPOLYLINE
  5
2AD
100
AcDbEntity
  8
RACCORDO
100
AcDbPolyline
 62
250
  6
CONTINUOUS
 90
19
 70
0
 10
-34.4589278676
 20
14.35900402
 10
-34.457012975
 20
14.4025668289
 10
-34.4513094024
 20
14.445798227
 10
-34.4418605405
 20
14.4883693248
 10
-34.4287382731
 20
14.5299562561
 10
-34.4120424297
 20
14.5702426419
 10
-34.3919000266
 20
14.6089219972
 10
-34.3684643004
 20
14.6457000629
 10
-34.3419135418
 20
14.6802970441
 10
-34.3124497398
 20
14.712449739
 10
-34.2802970449
 20
14.7419135411
 10
-34.2457000637
 20
14.7684642998
 10
-34.208921998
 20
14.7919000262
 10
-34.1702426426
 20
14.8120424294
 10
-34.1299562568
 20
14.8287382728
 10
-34.0883693253
 20
14.8418605404
 10
-34.0457982274
 20
14.8513094023
 10
-34.0025668291
 20
14.857012975
 10
-33.95900402
 20
14.8589278676
  0
LWPOLYLINE
  5
2AE
100
AcDbEntity
  8
RACCORDO
100
AcDbPolyline
 62
250
  6
CONTINUOUS
 90
3
 70
0
 10
-33.9827845678
 20
14.7101924944
 10
-33.986676876
 20
14.6437624489
 10
-33.9882206474
 20
14.6071685144
  0
LWPOLYLINE
  5
2AF
100
AcDbEntity
  8
DRAFT
100
AcDbPolyline
 62
7
  6
CONTINUOUS
 90
9
 70
0
 10
-35.975562885
 20
5.5183627414
 10
-35.9756479321
 20
5.5181649409
 10
-35.975986887
 20
5.5157608868
 10
-35.9763161074
 20
5.5109270185
 10
-35.9766326978
 20
5.5036636206
 10
-35.9769395536
 20
5.4939704084
 10
-35.9772332019
 20
5.4820499653
 10
-35.9775124849
 20
5.4679698189
 10
-35.9857878745
 20
4.8409719338
  0
LWPOLYLINE
  5
2B0
100
AcDbEntity
  8
DRAFT
100
AcDbPolyline
 62
7
  6
CONTINUOUS
 90
9
 70
0
 10
-40.024437115
 20
-5.5183627414
 10
-40.0243520679
 20
-5.5181649409
 10
-40.024013113
 20
-5.5157608868
 10
-40.0236838926
 20
-5.5109270185
 10
-40.0233673022
 20
-5.5036636206
 10
-40.0230604464
 20
-5.4939704084
 10
-40.0227667981
 20
-5.4820499653
 10
-40.0224875151
 20
-5.4679698189
 10
-40.0142121255
 20
-4.8409719338
  0
LINE
  5
2B1
100
AcDbEntity
  8
DRAFT
100
AcDbLine
 62
7
  6
CONTINUOUS
 10
-36.001407745
 20
4.8097281217
 11
-35.9857878745
 21
4.8409719338
  0
LINE
  5
2B2
100
AcDbEntity
  8
DRAFT
100
AcDbLine
 62
7
  6
CONTINUOUS
 10
-39.998592255
 20
-4.8097281217
 11
-40.0142121255
 21
-4.8409719338
  0
LINE
  5
2B3
100
AcDbEntity
  8
DRAFT
100
AcDbLine
 62
7
  6
CONTINUOUS
 10
-36.0139640519
 20
4.7848728656
 11
-36.001407745
 21
4.8097281217
  0
LINE
  5
2B4
100
AcDbEntity
  8
DRAFT
100
AcDbLine
 62
7
  6
CONTINUOUS
 10
-39.9860359481
 20
-4.7848728656
 11
-39.998592255
 21
-4.8097281217
  0
LWPOLYLINE
  5
2B5
100
AcDbEntity
  8
DRAFT
100
AcDbPolyline
 62
7
  6
CONTINUOUS
 90
8
 70
0
 10
-35.975562872
 20
9.4816646275
 10
-35.9752993262
 20
9.4821250766
 10
-35.9749652958
 20
9.4852257642
 10
-35.9746346743
 20
9.4909782504
 10
-35.9743166917
 20
9.4991093445
 10
-35.974012483
 20
9.5096385089
 10
-35.9737209131
 20
9.5225462813
 10
-35.9731931347
 20
9.5544863282
  0
LINE
  5
2B6
100
AcDbEntity
  8
DRAFT
100
AcDbLine
 62
7
  6
CONTINUOUS
 10
-38.9831231009
 20
11.5168768991
 11
-38.9720718961
 21
11.5279281039
  0
LINE
  5
2B7
100
AcDbEntity
  8
DRAFT
100
AcDbLine
 62
7
  6
CONTINUOUS
 10
-38.9964469686
 20
10.7535530314
 11
-39.0051466838
 21
10.7448533162
  0
LINE
  5
2B8
100
AcDbEntity
  8
DRAFT
100
AcDbLine
 62
7
  6
CONTINUOUS
 10
-38.9831231009
 20
-11.5168768991
 11
-38.9720718961
 21
-11.5279281039
  0
LINE
  5
2B9
100
AcDbEntity
  8
DRAFT
100
AcDbLine
 62
7
  6
CONTINUOUS
 10
-39.0051466838
 20
-10.7448533162
 11
-38.9964469686
 21
-10.7535530314
  0
LINE
  5
2BA
100
AcDbEntity
  8
DRAFT
100
AcDbLine
 62
7
  6
CONTINUOUS
 10
-36.0139640519
 20
-4.7848728656
 11
-35.9982770573
 21
-4.8159611375
  0
LINE
  5
2BB
100
AcDbEntity
  8
DRAFT
100
AcDbLine
 62
7
  6
CONTINUOUS
 10
-39.9860359481
 20
4.7848728656
 11
-40.0017229427
 21
4.8159611375
  0
LINE
  5
2BC
100
AcDbEntity
  8
DRAFT
100
AcDbLine
 62
7
  6
CONTINUOUS
 10
-35.9982770573
 20
-4.8159611375
 11
-35.9857878745
 21
-4.8409719338
  0
LINE
  5
2BD
100
AcDbEntity
  8
DRAFT
100
AcDbLine
 62
7
  6
CONTINUOUS
 10
-40.0017229427
 20
4.8159611375
 11
-40.0142121255
 21
4.8409719338
  0
LWPOLYLINE
  5
2BE
100
AcDbEntity
  8
DRAFT
100
AcDbPolyline
 62
7
  6
CONTINUOUS
 90
8
 70
0
 10
-40.024437128
 20
-9.4816646275
 10
-40.0247006738
 20
-9.4821250766
 10
-40.0250347042
 20
-9.4852257642
 10
-40.0253653257
 20
-9.4909782504
 10
-40.0256833083
 20
-9.4991093445
 10
-40.025987517
 20
-9.5096385089
 10
-40.0262790869
 20
-9.5225462813
 10
-40.0268068653
 20
-9.5544863282
  0
LINE
  5
2BF
100
AcDbEntity
  8
DRAFT
100
AcDbLine
 62
7
  6
CONTINUOUS
 10
-39.9860359481
 20
4.1639640519
 11
-40.0053295471
 21
4.1446704529
  0
LINE
  5
2C0
100
AcDbEntity
  8
DRAFT
100
AcDbLine
 62
7
  6
CONTINUOUS
 10
-40.0279281039
 20
3.4720718961
 11
-40.0168768991
 21
3.4831231009
  0
LWPOLYLINE
  5
2C1
100
AcDbEntity
  8
RACCORDO
100
AcDbPolyline
 62
250
  6
CONTINUOUS
 90
10
 70
0
 10
-33.959004021
 20
14.8589278676
 10
-33.9622559901
 20
14.8563174188
 10
-33.9650499651
 20
14.8501130074
 10
-33.9676208741
 20
14.8403979137
 10
-33.9704139835
 20
14.8270942431
 10
-33.9733030732
 20
14.8101517959
 10
-33.9757474478
 20
14.7898117144
 10
-33.978139681
 20
14.7663199113
 10
-33.9807078199
 20
14.7397057685
 10
-33.9827845678
 20
14.7101924944
  0
LINE
  5
2C2
100
AcDbEntity
  8
DRAFT
100
AcDbLine
 62
7
  6
CONTINUOUS
 10
-36.9860359481
 20
11.1103153465
 11
-36.9885068466
 21
11.1084423186
  0
LINE
  5
2C3
100
AcDbEntity
  8
DRAFT
100
AcDbLine
 62
7
  6
CONTINUOUS
 10
-36.9860359481
 20
-11.1103153465
 11
-36.9885068466
 21
-11.1084423186
  0
LWPOLYLINE
  5
2C4
100
AcDbEntity
  8
RACCORDO
100
AcDbPolyline
 62
250
  6
CONTINUOUS
 90
11
 70
0
 10
-33.959004021
 20
-14.8589278676
 10
-33.9622559883
 20
-14.8563174198
 10
-33.9650499623
 20
-14.8501130106
 10
-33.9676208708
 20
-14.8403979203
 10
-33.9704139791
 20
-14.8270942539
 10
-33.9733030676
 20
-14.8101518117
 10
-33.975747442
 20
-14.7898117345
 10
-33.9781396758
 20
-14.7663199323
 10
-33.9807078146
 20
-14.7397057874
 10
-33.9827845618
 20
-14.7101925109
 10
-33.9866768695
 20
-14.6437624652
  0
LINE
  5
2C5
100
AcDbEntity
  8
DRAFT
100
AcDbLine
 62
7
  6
CONTINUOUS
 10
-39.9860359481
 20
-4.1639640519
 11
-40.0053295471
 21
-4.1446704529
  0
LINE
  5
2C6
100
AcDbEntity
  8
DRAFT
100
AcDbLine
 62
7
  6
CONTINUOUS
 10
-40.0279281039
 20
-3.4720718961
 11
-40.0168768991
 21
-3.4831231009
  0
LWPOLYLINE
  5
2C7
100
AcDbEntity
  8
DRAFT
100
AcDbPolyline
 62
7
  6
CONTINUOUS
 90
9
 70
0
 10
-35.975562886
 20
-9.4816349123
 10
-35.9756493701
 20
-9.4818373476
 10
-35.9759882077
 20
-9.4842525889
 10
-35.9763172902
 20
-9.4890955623
 10
-35.9766337577
 20
-9.4963656114
 10
-35.9769404699
 20
-9.5060633927
 10
-35.9772339417
 20
-9.5179834813
 10
-35.977513011
 20
-9.5320574024
 10
-35.9857878745
 20
-10.1590280662
  0
LINE
  5
2C8
100
AcDbEntity
  8
DRAFT
100
AcDbLine
 62
7
  6
CONTINUOUS
 10
-36.001407745
 20
-10.1902718783
 11
-35.9857878745
 21
-10.1590280662
  0
LINE
  5
2C9
100
AcDbEntity
  8
DRAFT
100
AcDbLine
 62
7
  6
CONTINUOUS
 10
-36.0139640519
 20
-10.2151271344
 11
-36.001407745
 21
-10.1902718783
  0
LWPOLYLINE
  5
2CA
100
AcDbEntity
  8
DRAFT
100
AcDbPolyline
 62
7
  6
CONTINUOUS
 90
8
 70
0
 10
-35.975562872
 20
-5.5183353725
 10
-35.9752993262
 20
-5.5178749234
 10
-35.9749652958
 20
-5.5147742358
 10
-35.9746346743
 20
-5.5090217496
 10
-35.9743166917
 20
-5.5008906555
 10
-35.974012483
 20
-5.4903614911
 10
-35.9737209131
 20
-5.4774537187
 10
-35.9731931347
 20
-5.4455136718
  0
LINE
  5
2CB
100
AcDbEntity
  8
DRAFT
100
AcDbLine
 62
7
  6
CONTINUOUS
 10
-34.5
 20
7.4842904416
 11
-34.4842904416
 21
7.5
  0
LINE
  5
2CC
100
AcDbEntity
  8
DRAFT
100
AcDbLine
 62
7
  6
CONTINUOUS
 10
-36.0
 20
11.8084219849
 11
-36.0139640519
 21
11.7994997051
  0
LINE
  5
2CD
100
AcDbEntity
  8
DRAFT
100
AcDbLine
 62
7
  6
CONTINUOUS
 10
-36.0
 20
-11.8084219849
 11
-36.0139640519
 21
-11.7994997051
  0
LINE
  5
2CE
100
AcDbEntity
  8
DRAFT
100
AcDbLine
 62
7
  6
CONTINUOUS
 10
-34.5
 20
-7.4842904416
 11
-34.4842904416
 21
-7.5
  0
LINE
  5
2CF
100
AcDbEntity
  8
DRAFT
100
AcDbLine
 62
7
  6
CONTINUOUS
 10
-36.0139640519
 20
10.2151271344
 11
-35.9982770573
 21
10.1840388625
  0
LINE
  5
2D0
100
AcDbEntity
  8
DRAFT
100
AcDbLine
 62
7
  6
CONTINUOUS
 10
-35.9982770573
 20
10.1840388625
 11
-35.9857878745
 21
10.1590280662
  0
LINE
  5
2D1
100
AcDbEntity
  8
DRAFT
100
AcDbLine
 62
7
  6
CONTINUOUS
 10
-37.0
 20
-12.1435439053
 11
-36.9860359481
 21
-12.1262202069
  0
LINE
  5
2D2
100
AcDbEntity
  8
DRAFT
100
AcDbLine
 62
7
  6
CONTINUOUS
 10
-35.9720718961
 20
-3.4720718961
 11
-35.9831231009
 21
-3.4831231009
  0
LINE
  5
2D3
100
AcDbEntity
  8
DRAFT
100
AcDbLine
 62
7
  6
CONTINUOUS
 10
-36.0139640519
 20
-4.1639640519
 11
-35.9946704529
 21
-4.1446704529
  0
LINE
  5
2D4
100
AcDbEntity
  8
DRAFT
100
AcDbLine
 62
7
  6
CONTINUOUS
 10
-35.9720718961
 20
3.4720718961
 11
-35.9831231009
 21
3.4831231009
  0
LINE
  5
2D5
100
AcDbEntity
  8
DRAFT
100
AcDbLine
 62
7
  6
CONTINUOUS
 10
-36.0139640519
 20
4.1639640519
 11
-35.9946704529
 21
4.1446704529
  0
LINE
  5
2D6
100
AcDbEntity
  8
DRAFT
100
AcDbLine
 62
7
  6
CONTINUOUS
 10
-37.0
 20
12.1435439053
 11
-36.9860359481
 21
12.1262202069
  0
LINE
  5
2D7
100
AcDbEntity
  8
DRAFT
100
AcDbLine
 62
7
  6
CONTINUOUS
 10
-36.9948533162
 20
-10.7448533162
 11
-37.0035530314
 21
-10.7535530314
  0
LWPOLYLINE
  5
2D8
100
AcDbEntity
  8
0
100
AcDbPolyline
 62
7
  6
CONTINUOUS
 90
10
 70
0
 43
0.3500000006
 10
1.0714285848
 20
26.6499987488
 10
0.4285714127
 20
26.0071407623
 10
0.0
 20
25.149998291
 10
0.0
 20
24.0785713348
 10
0.4285714127
 20
23.6499978333
 10
1.0714285848
 20
23.6499978333
 10
1.5000000329
 20
24.0785713348
 10
1.5000000329
 20
24.9357138062
 10
1.0714285848
 20
25.3642873077
 10
0.1428571435
 20
25.3642873077
  0
LINE
  5
2D9
100
AcDbEntity
  8
DRAFT
100
AcDbLine
 62
7
  6
CONTINUOUS
 10
-37.0168768991
 20
-11.5168768991
 11
-37.0279281039
 21
-11.5279281039
  0
LINE
  5
2DA
100
AcDbEntity
  8
DRAFT
100
AcDbLine
 62
7
  6
CONTINUOUS
 10
-37.0035530314
 20
10.7535530314
 11
-36.9948533162
 21
10.7448533162
  0
LINE
  5
2DB
100
AcDbEntity
  8
DRAFT
100
AcDbLine
 62
7
  6
CONTINUOUS
 10
-37.0168768991
 20
11.5168768991
 11
-37.0279281039
 21
11.5279281039
  0
LINE
  5
2DC
100
AcDbEntity
  8
DRAFT
100
AcDbLine
 62
7
  6
CONTINUOUS
 10
-34.5
 20
-12.5157095584
 11
-34.4842904416
 21
-12.5
  0
LINE
  5
2DD
100
AcDbEntity
  8
RACCORDO
100
AcDbLine
 62
250
  6
CONTINUOUS
 10
-20.1602304425
 20
-14.8458592996
 11
-33.95900402
 21
-14.8589278676
  0
LINE
  5
2DE
100
AcDbEntity
  8
RACCORDO
100
AcDbLine
 62
7
  6
CONTINUOUS
 10
-34.0000761524
 20
-14.9
 11
34.0000761524
 21
-14.9
  0
LINE
  5
2DF
100
AcDbEntity
  8
DRAFT
100
AcDbLine
 62
7
  6
CONTINUOUS
 10
-42.0050125629
 20
-14.9
 11
42.0050125629
 21
-14.9
  0
LINE
  5
2E0
100
AcDbEntity
  8
RACCORDO
100
AcDbLine
 62
250
  6
CONTINUOUS
 10
2.6366910262
 20
-14.8388808317
 11
-20.1602304425
 21
-14.8458592996
  0
LINE
  5
2E1
100
AcDbEntity
  8
RACCORDO
100
AcDbLine
 62
250
  6
CONTINUOUS
 10
15.9894736668
 20
-14.8432059433
 11
2.6366910262
 21
-14.8388808317
  0
LWPOLYLINE
  5
2E2
100
AcDbEntity
  8
RACCORDO
100
AcDbPolyline
 62
250
  6
CONTINUOUS
 90
3
 70
0
 10
33.95900402
 20
-14.8589278676
 10
29.4261202627
 20
-14.8539180049
 10
15.9894736668
 20
-14.8432059433
  0
LWPOLYLINE
  5
2E3
100
AcDbEntity
  8
RACCORDO
100
AcDbPolyline
 62
250
  6
CONTINUOUS
 90
19
 70
0
 10
-33.95900402
 20
-14.8589278676
 10
-34.0025668291
 20
-14.857012975
 10
-34.0457982274
 20
-14.8513094023
 10
-34.0883693253
 20
-14.8418605404
 10
-34.1299562568
 20
-14.8287382728
 10
-34.1702426426
 20
-14.8120424294
 10
-34.208921998
 20
-14.7919000262
 10
-34.2457000637
 20
-14.7684642998
 10
-34.2802970449
 20
-14.7419135411
 10
-34.3124497398
 20
-14.712449739
 10
-34.3419135418
 20
-14.6802970441
 10
-34.3684643004
 20
-14.6457000629
 10
-34.3919000266
 20
-14.6089219972
 10
-34.4120424297
 20
-14.5702426419
 10
-34.4287382731
 20
-14.5299562561
 10
-34.4418605405
 20
-14.4883693248
 10
-34.4513094024
 20
-14.445798227
 10
-34.457012975
 20
-14.4025668289
 10
-34.4589278676
 20
-14.35900402
  0
LINE
  5
2E4
100
AcDbEntity
  8
DRAFT
100
AcDbLine
 62
7
  6
CONTINUOUS
 10
-34.5
 20
12.5157095584
 11
-34.4842904416
 21
12.5
  0
LINE
  5
2E5
100
AcDbEntity
  8
RACCORDO
100
AcDbLine
 62
250
  6
CONTINUOUS
 10
-34.4589278676
 20
-14.35900402
 11
-34.5
 21
-14.4000761524
  0
LINE
  5
2E6
100
AcDbEntity
  8
RACCORDO
100
AcDbLine
 62
250
  6
CONTINUOUS
 10
-33.95900402
 20
-14.8589278676
 11
-34.0000761524
 21
-14.9
  0
LINE
  5
2E7
100
AcDbEntity
  8
DRAFT
100
AcDbLine
 62
7
  6
CONTINUOUS
 10
-39.0139640519
 20
-11.1103153465
 11
-39.0114931534
 21
-11.1084423186
  0
LINE
  5
2E8
100
AcDbEntity
  8
DRAFT
100
AcDbLine
 62
7
  6
CONTINUOUS
 10
36.2872933254
 20
-4.1639640519
 11
36.3169323141
 21
-4.156862245
  0
LINE
  5
2E9
100
AcDbEntity
  8
RACCORDO
100
AcDbLine
 62
250
  6
CONTINUOUS
 10
-20.1804108534
 20
-14.345935452
 11
-33.992997017
 21
-14.35900402
  0
LINE
  5
2EA
100
AcDbEntity
  8
RACCORDO
100
AcDbLine
 62
250
  6
CONTINUOUS
 10
-34.4589278676
 20
-14.35900402
 11
-33.992997017
 21
-14.35900402
  0
LINE
  5
2EB
100
AcDbEntity
  8
RACCORDO
100
AcDbLine
 62
250
  6
CONTINUOUS
 10
2.6392276145
 20
-14.3389569841
 11
-20.1804108534
 21
-14.345935452
  0
LINE
  5
2EC
100
AcDbEntity
  8
DRAFT
100
AcDbLine
 62
250
  6
CONTINUOUS
 10
-40.0279281039
 20
-12.75
 11
-40.0
 21
-12.75
  0
LINE
  5
2ED
100
AcDbEntity
  8
DRAFT
100
AcDbLine
 62
250
  6
CONTINUOUS
 10
40.0279281039
 20
-12.75
 11
40.0
 21
-12.75
  0
LINE
  5
2EE
100
AcDbEntity
  8
DRAFT
100
AcDbLine
 62
250
  6
CONTINUOUS
 10
37.0279281039
 20
-12.75
 11
37.0
 21
-12.75
  0
LINE
  5
2EF
100
AcDbEntity
  8
DRAFT
100
AcDbLine
 62
250
  6
CONTINUOUS
 10
-37.0279281039
 20
-12.75
 11
-37.0
 21
-12.75
  0
LINE
  5
2F0
100
AcDbEntity
  8
DRAFT
100
AcDbLine
 62
250
  6
CONTINUOUS
 10
-35.9720718961
 20
-12.75
 11
-36.0
 21
-12.75
  0
LINE
  5
2F1
100
AcDbEntity
  8
DRAFT
100
AcDbLine
 62
250
  6
CONTINUOUS
 10
35.9720718961
 20
-12.75
 11
36.0
 21
-12.75
  0
LINE
  5
2F2
100
AcDbEntity
  8
DRAFT
100
AcDbLine
 62
250
  6
CONTINUOUS
 10
38.9720718961
 20
-12.75
 11
39.0
 21
-12.75
  0
LINE
  5
2F3
100
AcDbEntity
  8
DRAFT
100
AcDbLine
 62
250
  6
CONTINUOUS
 10
-38.9720718961
 20
-12.75
 11
-39.0
 21
-12.75
  0
LINE
  5
2F4
100
AcDbEntity
  8
RACCORDO
100
AcDbLine
 62
250
  6
CONTINUOUS
 10
16.0053279772
 20
-14.3432820958
 11
2.6392276145
 21
-14.3389569841
  0
LWPOLYLINE
  5
2F5
100
AcDbEntity
  8
RACCORDO
100
AcDbPolyline
 62
250
  6
CONTINUOUS
 90
3
 70
0
 10
34.4589278676
 20
-14.35900402
 10
29.4562333318
 20
-14.3539941573
 10
16.0053279772
 20
-14.3432820958
  0
LINE
  5
2F6
100
AcDbEntity
  8
DRAFT
100
AcDbLine
 62
7
  6
CONTINUOUS
 10
-36.2872933254
 20
-4.1639640519
 11
-36.3169323141
 21
-4.156862245
  0
LINE
  5
2F7
100
AcDbEntity
  8
DRAFT
100
AcDbLine
 62
7
  6
CONTINUOUS
 10
-39.0139640519
 20
11.1103153465
 11
-39.0114931534
 21
11.1084423186
  0
LINE
  5
2F8
100
AcDbEntity
  8
RACCORDO
100
AcDbLine
 62
250
  6
CONTINUOUS
 10
-34.5
 20
14.4000761524
 11
-34.4589278676
 21
14.35900402
  0
LINE
  5
2F9
100
AcDbEntity
  8
RACCORDO
100
AcDbLine
 62
250
  6
CONTINUOUS
 10
-34.0000761524
 20
14.9
 11
-33.95900402
 21
14.8589278676
  0
LINE
  5
2FA
100
AcDbEntity
  8
DRAFT
100
AcDbLine
 62
7
  6
CONTINUOUS
 10
-40.0
 20
-11.8084219849
 11
-39.9860359481
 21
-11.7994997051
  0
LINE
  5
2FB
100
AcDbEntity
  8
DRAFT
100
AcDbLine
 62
7
  6
CONTINUOUS
 10
-38.9720718961
 20
-11.5279281039
 11
-37.0279281039
 21
-11.5279281039
  0
LINE
  5
2FC
100
AcDbEntity
  8
DRAFT
100
AcDbLine
 62
7
  6
CONTINUOUS
 10
38.9720718961
 20
-11.5279281039
 11
37.0279281039
 21
-11.5279281039
  0
LINE
  5
2FD
100
AcDbEntity
  8
DRAFT
100
AcDbLine
 62
7
  6
CONTINUOUS
 10
-38.9831231009
 20
-11.5168768991
 11
-37.0168768991
 21
-11.5168768991
  0
LINE
  5
2FE
100
AcDbEntity
  8
DRAFT
100
AcDbLine
 62
7
  6
CONTINUOUS
 10
37.0168768991
 20
-11.5168768991
 11
38.9831231009
 21
-11.5168768991
  0
LINE
  5
2FF
100
AcDbEntity
  8
DRAFT
100
AcDbLine
 62
7
  6
CONTINUOUS
 10
38.9964469686
 20
-10.7535530314
 11
37.0035530314
 21
-10.7535530314
  0
LINE
  5
300
100
AcDbEntity
  8
DRAFT
100
AcDbLine
 62
7
  6
CONTINUOUS
 10
-37.0035530314
 20
-10.7535530314
 11
-38.9964469686
 21
-10.7535530314
  0
LINE
  5
301
100
AcDbEntity
  8
DRAFT
100
AcDbLine
 62
7
  6
CONTINUOUS
 10
-39.0051466838
 20
-10.7448533162
 11
-36.9948533162
 21
-10.7448533162
  0
LINE
  5
302
100
AcDbEntity
  8
DRAFT
100
AcDbLine
 62
7
  6
CONTINUOUS
 10
36.9948533162
 20
-10.7448533162
 11
39.0051466838
 21
-10.7448533162
  0
LINE
  5
303
100
AcDbEntity
  8
DRAFT
100
AcDbLine
 62
7
  6
CONTINUOUS
 10
-40.0
 20
11.8084219849
 11
-39.9860359481
 21
11.7994997051
  0
LINE
  5
304
100
AcDbEntity
  8
DRAFT
100
AcDbLine
 62
7
  6
CONTINUOUS
 10
39.7127066746
 20
4.1639640519
 11
39.6830676859
 21
4.156862245
  0
LINE
  5
305
100
AcDbEntity
  8
DRAFT
100
AcDbLine
 62
7
  6
CONTINUOUS
 10
39.9860359481
 20
-4.1639640519
 11
39.7127066746
 21
-4.1639640519
  0
LINE
  5
306
100
AcDbEntity
  8
DRAFT
100
AcDbLine
 62
7
  6
CONTINUOUS
 10
36.2872933254
 20
-4.1639640519
 11
36.0139640519
 21
-4.1639640519
  0
LINE
  5
307
100
AcDbEntity
  8
DRAFT
100
AcDbLine
 62
7
  6
CONTINUOUS
 10
-36.0139640519
 20
-4.1639640519
 11
-36.2872933254
 21
-4.1639640519
  0
LINE
  5
308
100
AcDbEntity
  8
DRAFT
100
AcDbLine
 62
7
  6
CONTINUOUS
 10
-39.7127066746
 20
-4.1639640519
 11
-39.9860359481
 21
-4.1639640519
  0
LINE
  5
309
100
AcDbEntity
  8
DRAFT
100
AcDbLine
 62
7
  6
CONTINUOUS
 10
-39.6830676859
 20
-4.156862245
 11
-36.3169323141
 21
-4.156862245
  0
LINE
  5
30A
100
AcDbEntity
  8
DRAFT
100
AcDbLine
 62
7
  6
CONTINUOUS
 10
36.3169323141
 20
-4.156862245
 11
39.6830676859
 21
-4.156862245
  0
LINE
  5
30B
100
AcDbEntity
  8
DRAFT
100
AcDbLine
 62
7
  6
CONTINUOUS
 10
-40.0053295471
 20
-4.1446704529
 11
-35.9946704529
 21
-4.1446704529
  0
LINE
  5
30C
100
AcDbEntity
  8
DRAFT
100
AcDbLine
 62
7
  6
CONTINUOUS
 10
35.9946704529
 20
-4.1446704529
 11
40.0053295471
 21
-4.1446704529
  0
LINE
  5
30D
100
AcDbEntity
  8
DRAFT
100
AcDbLine
 62
7
  6
CONTINUOUS
 10
40.0168768991
 20
-3.4831231009
 11
35.9831231009
 21
-3.4831231009
  0
LINE
  5
30E
100
AcDbEntity
  8
DRAFT
100
AcDbLine
 62
7
  6
CONTINUOUS
 10
-35.9831231009
 20
-3.4831231009
 11
-40.0168768991
 21
-3.4831231009
  0
LINE
  5
30F
100
AcDbEntity
  8
DRAFT
100
AcDbLine
 62
7
  6
CONTINUOUS
 10
35.9720718961
 20
-3.4720718961
 11
40.0279281039
 21
-3.4720718961
  0
LINE
  5
310
100
AcDbEntity
  8
DRAFT
100
AcDbLine
 62
7
  6
CONTINUOUS
 10
-35.9720718961
 20
-3.4720718961
 11
-40.0279281039
 21
-3.4720718961
  0
LINE
  5
311
100
AcDbEntity
  8
DRAFT
100
AcDbLine
 62
7
  6
CONTINUOUS
 10
-39.7127066746
 20
4.1639640519
 11
-39.6830676859
 21
4.156862245
  0
LWPOLYLINE
  5
312
100
AcDbEntity
  8
0
100
AcDbPolyline
 62
7
  6
CONTINUOUS
 90
4
 70
0
 43
0.3500000006
 10
-2.3571427875
 20
24.0785713348
 10
-2.3571427875
 20
24.9357138062
 10
-1.9285714102
 20
25.3642873077
 10
-1.2857142735
 20
25.3642873077
  0
LWPOLYLINE
  5
313
100
AcDbEntity
  8
0
100
AcDbPolyline
 62
7
  6
CONTINUOUS
 90
4
 70
0
 43
0.3500000006
 10
49.8214282379
 20
2.0357136154
 10
48.9642857666
 20
2.0357136154
 10
48.535712265
 20
2.4642848511
 10
48.535712265
 20
3.1071428375
  0
LINE
  5
314
100
AcDbEntity
  8
DRAFT
100
AcDbLine
 62
7
  6
CONTINUOUS
 10
-39.7127066746
 20
-4.1639640519
 11
-39.6830676859
 21
-4.156862245
  0
LINE
  5
315
100
AcDbEntity
  8
DRAFT
100
AcDbLine
 62
7
  6
CONTINUOUS
 10
-40.0279281039
 20
3.4720718961
 11
-35.9720718961
 21
3.4720718961
  0
LINE
  5
316
100
AcDbEntity
  8
DRAFT
100
AcDbLine
 62
7
  6
CONTINUOUS
 10
35.9720718961
 20
3.4720718961
 11
40.0279281039
 21
3.4720718961
  0
LINE
  5
317
100
AcDbEntity
  8
DRAFT
100
AcDbLine
 62
7
  6
CONTINUOUS
 10
-40.0168768991
 20
3.4831231009
 11
-35.9831231009
 21
3.4831231009
  0
LINE
  5
318
100
AcDbEntity
  8
DRAFT
100
AcDbLine
 62
7
  6
CONTINUOUS
 10
35.9831231009
 20
3.4831231009
 11
40.0168768991
 21
3.4831231009
  0
LINE
  5
319
100
AcDbEntity
  8
DRAFT
100
AcDbLine
 62
7
  6
CONTINUOUS
 10
-40.0053295471
 20
4.1446704529
 11
-35.9946704529
 21
4.1446704529
  0
LINE
  5
31A
100
AcDbEntity
  8
DRAFT
100
AcDbLine
 62
7
  6
CONTINUOUS
 10
35.9946704529
 20
4.1446704529
 11
40.0053295471
 21
4.1446704529
  0
LINE
  5
31B
100
AcDbEntity
  8
DRAFT
100
AcDbLine
 62
7
  6
CONTINUOUS
 10
-39.6830676859
 20
4.156862245
 11
-36.3169323141
 21
4.156862245
  0
LINE
  5
31C
100
AcDbEntity
  8
DRAFT
100
AcDbLine
 62
7
  6
CONTINUOUS
 10
36.3169323141
 20
4.156862245
 11
39.6830676859
 21
4.156862245
  0
LINE
  5
31D
100
AcDbEntity
  8
DRAFT
100
AcDbLine
 62
7
  6
CONTINUOUS
 10
-39.9860359481
 20
4.1639640519
 11
-39.7127066746
 21
4.1639640519
  0
LINE
  5
31E
100
AcDbEntity
  8
DRAFT
100
AcDbLine
 62
7
  6
CONTINUOUS
 10
-36.2872933254
 20
4.1639640519
 11
-36.0139640519
 21
4.1639640519
  0
LINE
  5
31F
100
AcDbEntity
  8
DRAFT
100
AcDbLine
 62
7
  6
CONTINUOUS
 10
36.0139640519
 20
4.1639640519
 11
36.2872933254
 21
4.1639640519
  0
LINE
  5
320
100
AcDbEntity
  8
DRAFT
100
AcDbLine
 62
7
  6
CONTINUOUS
 10
39.7127066746
 20
4.1639640519
 11
39.9860359481
 21
4.1639640519
  0
LINE
  5
321
100
AcDbEntity
  8
DRAFT
100
AcDbLine
 62
7
  6
CONTINUOUS
 10
39.7127066746
 20
-4.1639640519
 11
39.6830676859
 21
-4.156862245
  0
LINE
  5
322
100
AcDbEntity
  8
DRAFT
100
AcDbLine
 62
7
  6
CONTINUOUS
 10
40.0
 20
11.8084219849
 11
39.9860359481
 21
11.7994997051
  0
LINE
  5
323
100
AcDbEntity
  8
DRAFT
100
AcDbLine
 62
7
  6
CONTINUOUS
 10
-36.2872933254
 20
4.1639640519
 11
-36.3169323141
 21
4.156862245
  0
LINE
  5
324
100
AcDbEntity
  8
DRAFT
100
AcDbLine
 62
7
  6
CONTINUOUS
 10
-39.0051466838
 20
10.7448533162
 11
-36.9948533162
 21
10.7448533162
  0
LINE
  5
325
100
AcDbEntity
  8
DRAFT
100
AcDbLine
 62
7
  6
CONTINUOUS
 10
36.9948533162
 20
10.7448533162
 11
39.0051466838
 21
10.7448533162
  0
LINE
  5
326
100
AcDbEntity
  8
DRAFT
100
AcDbLine
 62
7
  6
CONTINUOUS
 10
-38.9964469686
 20
10.7535530314
 11
-37.0035530314
 21
10.7535530314
  0
LINE
  5
327
100
AcDbEntity
  8
DRAFT
100
AcDbLine
 62
7
  6
CONTINUOUS
 10
37.0035530314
 20
10.7535530314
 11
38.9964469686
 21
10.7535530314
  0
LINE
  5
328
100
AcDbEntity
  8
DRAFT
100
AcDbLine
 62
7
  6
CONTINUOUS
 10
38.9831231009
 20
11.5168768991
 11
37.0168768991
 21
11.5168768991
  0
LINE
  5
329
100
AcDbEntity
  8
DRAFT
100
AcDbLine
 62
7
  6
CONTINUOUS
 10
-37.0168768991
 20
11.5168768991
 11
-38.9831231009
 21
11.5168768991
  0
LINE
  5
32A
100
AcDbEntity
  8
DRAFT
100
AcDbLine
 62
7
  6
CONTINUOUS
 10
-38.9720718961
 20
11.5279281039
 11
-37.0279281039
 21
11.5279281039
  0
LINE
  5
32B
100
AcDbEntity
  8
DRAFT
100
AcDbLine
 62
7
  6
CONTINUOUS
 10
38.9720718961
 20
11.5279281039
 11
37.0279281039
 21
11.5279281039
  0
LINE
  5
32C
100
AcDbEntity
  8
DRAFT
100
AcDbLine
 62
7
  6
CONTINUOUS
 10
36.2872933254
 20
4.1639640519
 11
36.3169323141
 21
4.156862245
  0
LINE
  5
32D
100
AcDbEntity
  8
DRAFT
100
AcDbLine
 62
7
  6
CONTINUOUS
 10
40.0
 20
-11.8084219849
 11
39.9860359481
 21
-11.7994997051
  0
LINE
  5
32E
100
AcDbEntity
  8
RACCORDO
100
AcDbLine
 62
250
  6
CONTINUOUS
 10
33.95900402
 20
14.8589278676
 11
34.0000761524
 21
14.9
  0
LINE
  5
32F
100
AcDbEntity
  8
RACCORDO
100
AcDbLine
 62
250
  6
CONTINUOUS
 10
34.4589278676
 20
14.35900402
 11
34.5
 21
14.4000761524
  0
LINE
  5
330
100
AcDbEntity
  8
DRAFT
100
AcDbLine
 62
7
  6
CONTINUOUS
 10
34.5
 20
12.5157095584
 11
34.4842904416
 21
12.5
  0
LINE
  5
331
100
AcDbEntity
  8
DRAFT
100
AcDbLine
 62
7
  6
CONTINUOUS
 10
39.0139640519
 20
11.1103153465
 11
39.0114931534
 21
11.1084423186
  0
LINE
  5
332
100
AcDbEntity
  8
RACCORDO
100
AcDbLine
 62
250
  6
CONTINUOUS
 10
20.1804521702
 20
14.3459354811
 11
33.992997017
 21
14.35900402
  0
LINE
  5
333
100
AcDbEntity
  8
RACCORDO
100
AcDbLine
 62
250
  6
CONTINUOUS
 10
20.160271718
 20
14.8458593287
 11
33.95900402
 21
14.8589278676
  0
LINE
  5
334
100
AcDbEntity
  8
RACCORDO
100
AcDbLine
 62
250
  6
CONTINUOUS
 10
6.4208812284
 20
14.3395500512
 11
20.1804521702
 21
14.3459354811
  0
LINE
  5
335
100
AcDbEntity
  8
RACCORDO
100
AcDbLine
 62
250
  6
CONTINUOUS
 10
6.4144603471
 20
14.8394738988
 11
20.160271718
 21
14.8458593287
  0
LINE
  5
336
100
AcDbEntity
  8
DRAFT
100
AcDbLine
 62
250
  6
CONTINUOUS
 10
-40.0279281039
 20
12.75
 11
-40.0
 21
12.75
  0
LINE
  5
337
100
AcDbEntity
  8
DRAFT
100
AcDbLine
 62
250
  6
CONTINUOUS
 10
40.0279281039
 20
12.75
 11
40.0
 21
12.75
  0
LINE
  5
338
100
AcDbEntity
  8
DRAFT
100
AcDbLine
 62
250
  6
CONTINUOUS
 10
37.0279281039
 20
12.75
 11
37.0
 21
12.75
  0
LINE
  5
339
100
AcDbEntity
  8
DRAFT
100
AcDbLine
 62
250
  6
CONTINUOUS
 10
-37.0279281039
 20
12.75
 11
-37.0
 21
12.75
  0
LINE
  5
33A
100
AcDbEntity
  8
DRAFT
100
AcDbLine
 62
250
  6
CONTINUOUS
 10
-35.9720718961
 20
12.75
 11
-36.0
 21
12.75
  0
LINE
  5
33B
100
AcDbEntity
  8
DRAFT
100
AcDbLine
 62
250
  6
CONTINUOUS
 10
35.9720718961
 20
12.75
 11
36.0
 21
12.75
  0
LINE
  5
33C
100
AcDbEntity
  8
DRAFT
100
AcDbLine
 62
250
  6
CONTINUOUS
 10
-38.9720718961
 20
12.75
 11
-39.0
 21
12.75
  0
LINE
  5
33D
100
AcDbEntity
  8
DRAFT
100
AcDbLine
 62
250
  6
CONTINUOUS
 10
38.9720718961
 20
12.75
 11
39.0
 21
12.75
  0
LINE
  5
33E
100
AcDbEntity
  8
RACCORDO
100
AcDbLine
 62
250
  6
CONTINUOUS
 10
34.4589278676
 20
14.35900402
 11
33.992997017
 21
14.35900402
  0
LINE
  5
33F
100
AcDbEntity
  8
RACCORDO
100
AcDbLine
 62
7
  6
CONTINUOUS
 10
-34.0000761524
 20
14.9
 11
34.0000761524
 21
14.9
  0
LINE
  5
340
100
AcDbEntity
  8
DRAFT
100
AcDbLine
 62
7
  6
CONTINUOUS
 10
42.0050125629
 20
14.9
 11
-42.0050125629
 21
14.9
  0
LINE
  5
341
100
AcDbEntity
  8
RACCORDO
100
AcDbLine
 62
250
  6
CONTINUOUS
 10
-7.1323340564
 20
14.3397182084
 11
6.4208812284
 21
14.3395500512
  0
LINE
  5
342
100
AcDbEntity
  8
RACCORDO
100
AcDbLine
 62
250
  6
CONTINUOUS
 10
-7.1252017224
 20
14.8396420559
 11
6.4144603471
 21
14.8394738988
  0
LINE
  5
343
100
AcDbEntity
  8
RACCORDO
100
AcDbLine
 62
250
  6
CONTINUOUS
 10
-20.4536076175
 20
14.3461291884
 11
-7.1323340564
 21
14.3397182084
  0
LINE
  5
344
100
AcDbEntity
  8
RACCORDO
100
AcDbLine
 62
250
  6
CONTINUOUS
 10
-20.4331540099
 20
14.846053036
 11
-7.1252017224
 21
14.8396420559
  0
LINE
  5
345
100
AcDbEntity
  8
RACCORDO
100
AcDbLine
 62
250
  6
CONTINUOUS
 10
-34.4589278676
 20
14.35900402
 11
-20.4536076175
 21
14.3461291884
  0
LINE
  5
346
100
AcDbEntity
  8
RACCORDO
100
AcDbLine
 62
250
  6
CONTINUOUS
 10
-33.95900402
 20
14.8589278676
 11
-20.4331540099
 21
14.846053036
  0
LINE
  5
347
100
AcDbEntity
  8
DRAFT
100
AcDbLine
 62
7
  6
CONTINUOUS
 10
39.0139640519
 20
-11.1103153465
 11
39.0114931534
 21
-11.1084423186
  0
LINE
  5
348
100
AcDbEntity
  8
RACCORDO
100
AcDbLine
 62
250
  6
CONTINUOUS
 10
34.0000761524
 20
-14.9
 11
33.95900402
 21
-14.8589278676
  0
LINE
  5
349
100
AcDbEntity
  8
RACCORDO
100
AcDbLine
 62
250
  6
CONTINUOUS
 10
34.5
 20
-14.4000761524
 11
34.4589278676
 21
-14.35900402
  0
LINE
  5
34A
100
AcDbEntity
  8
DRAFT
100
AcDbLine
 62
7
  6
CONTINUOUS
 10
34.5
 20
-12.5157095584
 11
34.4842904416
 21
-12.5
  0
LINE
  5
34B
100
AcDbEntity
  8
DRAFT
100
AcDbLine
 62
7
  6
CONTINUOUS
 10
37.0168768991
 20
11.5168768991
 11
37.0279281039
 21
11.5279281039
  0
LINE
  5
34C
100
AcDbEntity
  8
DRAFT
100
AcDbLine
 62
7
  6
CONTINUOUS
 10
37.0035530314
 20
10.7535530314
 11
36.9948533162
 21
10.7448533162
  0
LWPOLYLINE
  5
34D
100
AcDbEntity
  8
RACCORDO
100
AcDbPolyline
 62
250
  6
CONTINUOUS
 90
19
 70
0
 10
33.95900402
 20
14.8589278676
 10
34.0025668291
 20
14.857012975
 10
34.0457982274
 20
14.8513094023
 10
34.0883693253
 20
14.8418605404
 10
34.1299562568
 20
14.8287382728
 10
34.1702426426
 20
14.8120424294
 10
34.208921998
 20
14.7919000262
 10
34.2457000637
 20
14.7684642998
 10
34.2802970449
 20
14.7419135411
 10
34.3124497398
 20
14.712449739
 10
34.3419135418
 20
14.6802970441
 10
34.3684643004
 20
14.6457000629
 10
34.3919000266
 20
14.6089219972
 10
34.4120424297
 20
14.5702426419
 10
34.4287382731
 20
14.5299562561
 10
34.4418605405
 20
14.4883693248
 10
34.4513094024
 20
14.445798227
 10
34.457012975
 20
14.4025668289
 10
34.4589278676
 20
14.35900402
  0
LWPOLYLINE
  5
34E
100
AcDbEntity
  8
0
100
AcDbPolyline
 62
7
  6
CONTINUOUS
 90
3
 70
0
 43
0.3500000006
 10
49.9642860718
 20
1.0357133102
 10
50.1785705566
 20
0.9642866592
 10
50.4642862244
 20
0.8214288254
  0
LINE
  5
34F
100
AcDbEntity
  8
DRAFT
100
AcDbLine
 62
7
  6
CONTINUOUS
 10
37.0168768991
 20
-11.5168768991
 11
37.0279281039
 21
-11.5279281039
  0
LINE
  5
350
100
AcDbEntity
  8
DRAFT
100
AcDbLine
 62
7
  6
CONTINUOUS
 10
36.9948533162
 20
-10.7448533162
 11
37.0035530314
 21
-10.7535530314
  0
LINE
  5
351
100
AcDbEntity
  8
DRAFT
100
AcDbLine
 62
7
  6
CONTINUOUS
 10
37.0
 20
12.1435439053
 11
36.9860359481
 21
12.1262202069
  0
LWPOLYLINE
  5
352
100
AcDbEntity
  8
0
100
AcDbPolyline
 62
7
  6
CONTINUOUS
 90
10
 70
0
 43
0.3500000006
 10
49.7500015869
 20
0.9642866592
 10
49.8928548889
 20
1.0357133102
 10
49.9642860718
 20
1.0357133102
 10
50.1071439056
 20
0.8928577423
 10
50.1071439056
 20
0.8214288254
 10
50.0357127228
 20
0.7499999084
 10
49.9642860718
 20
0.7499999084
 10
49.8214282379
 20
0.8214288254
 10
49.7500015869
 20
0.8928577423
 10
49.7500015869
 20
0.9642866592
  0
LWPOLYLINE
  5
353
100
AcDbEntity
  8
0
100
AcDbPolyline
 62
7
  6
CONTINUOUS
 90
13
 70
0
 43
0.3500000006
 10
-1.9285714102
 20
25.3642873077
 10
-2.2142856617
 20
25.5785717926
 10
-2.2142856617
 20
26.2214297791
 10
-1.9285714102
 20
26.6499987488
 10
-1.2857142735
 20
26.6499987488
 10
-1.0000000219
 20
26.2214297791
 10
-1.0000000219
 20
25.5785717926
 10
-1.2857142735
 20
25.3642873077
 10
-0.8571428254
 20
24.9357138062
 10
-0.8571428254
 20
24.0785713348
 10
-1.2857142735
 20
23.6499978333
 10
-1.9285714102
 20
23.6499978333
 10
-2.3571427875
 20
24.0785713348
  0
LINE
  5
354
100
AcDbEntity
  8
DRAFT
100
AcDbLine
 62
7
  6
CONTINUOUS
 10
37.0
 20
-12.1435439053
 11
36.9860359481
 21
-12.1262202069
  0
LINE
  5
355
100
AcDbEntity
  8
DRAFT
100
AcDbLine
 62
7
  6
CONTINUOUS
 10
36.0139640519
 20
4.1639640519
 11
35.9946704529
 21
4.1446704529
  0
LINE
  5
356
100
AcDbEntity
  8
DRAFT
100
AcDbLine
 62
7
  6
CONTINUOUS
 10
35.9720718961
 20
3.4720718961
 11
35.9831231009
 21
3.4831231009
  0
LINE
  5
357
100
AcDbEntity
  8
DRAFT
100
AcDbLine
 62
7
  6
CONTINUOUS
 10
36.0139640519
 20
-4.1639640519
 11
35.9946704529
 21
-4.1446704529
  0
LINE
  5
358
100
AcDbEntity
  8
DRAFT
100
AcDbLine
 62
7
  6
CONTINUOUS
 10
35.9720718961
 20
-3.4720718961
 11
35.9831231009
 21
-3.4831231009
  0
LINE
  5
359
100
AcDbEntity
  8
DRAFT
100
AcDbLine
 62
7
  6
CONTINUOUS
 10
36.001407745
 20
10.1902718783
 11
35.9857878745
 21
10.1590280662
  0
LINE
  5
35A
100
AcDbEntity
  8
DRAFT
100
AcDbLine
 62
7
  6
CONTINUOUS
 10
36.0139640519
 20
10.2151271344
 11
36.001407745
 21
10.1902718783
  0
LINE
  5
35B
100
AcDbEntity
  8
DRAFT
100
AcDbLine
 62
7
  6
CONTINUOUS
 10
36.0139640519
 20
-10.2151271344
 11
35.9982770573
 21
-10.1840388625
  0
LINE
  5
35C
100
AcDbEntity
  8
DRAFT
100
AcDbLine
 62
7
  6
CONTINUOUS
 10
35.9982770573
 20
-10.1840388625
 11
35.9857878745
 21
-10.1590280662
  0
LWPOLYLINE
  5
35D
100
AcDbEntity
  8
DRAFT
100
AcDbPolyline
 62
7
  6
CONTINUOUS
 90
9
 70
0
 10
35.975562886
 20
9.4816349123
 10
35.9756493701
 20
9.4818373476
 10
35.9759882077
 20
9.4842525889
 10
35.9763172902
 20
9.4890955623
 10
35.9766337577
 20
9.4963656114
 10
35.9769404699
 20
9.5060633927
 10
35.9772339417
 20
9.5179834813
 10
35.977513011
 20
9.5320574024
 10
35.9857878745
 20
10.1590280662
  0
LWPOLYLINE
  5
35E
100
AcDbEntity
  8
DRAFT
100
AcDbPolyline
 62
7
  6
CONTINUOUS
 90
8
 70
0
 10
35.975562872
 20
5.5183353725
 10
35.9752993262
 20
5.5178749234
 10
35.9749652958
 20
5.5147742358
 10
35.9746346743
 20
5.5090217496
 10
35.9743166917
 20
5.5008906555
 10
35.974012483
 20
5.4903614911
 10
35.9737209131
 20
5.4774537187
 10
35.9731931347
 20
5.4455136718
  0
LWPOLYLINE
  5
35F
100
AcDbEntity
  8
DRAFT
100
AcDbPolyline
 62
7
  6
CONTINUOUS
 90
7
 70
0
 10
40.024437128
 20
9.4816646275
 10
40.0247006738
 20
9.4821250766
 10
40.0250347042
 20
9.4852257642
 10
40.0253653257
 20
9.4909782504
 10
40.0256833083
 20
9.4991093445
 10
40.025987517
 20
9.5096385089
 10
40.0265521928
 20
9.537501085
  0
LINE
  5
360
100
AcDbEntity
  8
DRAFT
100
AcDbLine
 62
7
  6
CONTINUOUS
 10
34.5
 20
-7.4842904416
 11
34.4842904416
 21
-7.5
  0
LINE
  5
361
100
AcDbEntity
  8
DRAFT
100
AcDbLine
 62
7
  6
CONTINUOUS
 10
36.0
 20
-11.8084219849
 11
36.0139640519
 21
-11.7994997051
  0
LINE
  5
362
100
AcDbEntity
  8
DRAFT
100
AcDbLine
 62
7
  6
CONTINUOUS
 10
36.0
 20
11.8084219849
 11
36.0139640519
 21
11.7994997051
  0
LINE
  5
363
100
AcDbEntity
  8
DRAFT
100
AcDbLine
 62
7
  6
CONTINUOUS
 10
34.5
 20
7.4842904416
 11
34.4842904416
 21
7.5
  0
LINE
  5
364
100
AcDbEntity
  8
DRAFT
100
AcDbLine
 62
7
  6
CONTINUOUS
 10
39.998592255
 20
4.8097281217
 11
40.0142121255
 21
4.8409719338
  0
LINE
  5
365
100
AcDbEntity
  8
DRAFT
100
AcDbLine
 62
7
  6
CONTINUOUS
 10
39.9860359481
 20
4.7848728656
 11
39.998592255
 21
4.8097281217
  0
LINE
  5
366
100
AcDbEntity
  8
DRAFT
100
AcDbLine
 62
7
  6
CONTINUOUS
 10
40.0279281039
 20
-3.4720718961
 11
40.0168768991
 21
-3.4831231009
  0
LINE
  5
367
100
AcDbEntity
  8
DRAFT
100
AcDbLine
 62
7
  6
CONTINUOUS
 10
39.9860359481
 20
-4.1639640519
 11
40.0053295471
 21
-4.1446704529
  0
LWPOLYLINE
  5
368
100
AcDbEntity
  8
RACCORDO
100
AcDbPolyline
 62
250
  6
CONTINUOUS
 90
10
 70
0
 10
33.959004021
 20
-14.8589278676
 10
33.9622559901
 20
-14.8563174188
 10
33.9650499651
 20
-14.8501130074
 10
33.9676208741
 20
-14.8403979137
 10
33.9704139835
 20
-14.827094243
 10
33.9733030732
 20
-14.8101517958
 10
33.9757474478
 20
-14.7898117144
 10
33.978139681
 20
-14.7663199113
 10
33.9807078199
 20
-14.7397057684
 10
33.9827845678
 20
-14.7101924943
  0
LINE
  5
369
100
AcDbEntity
  8
DRAFT
100
AcDbLine
 62
7
  6
CONTINUOUS
 10
36.9860359481
 20
-11.1103153465
 11
36.9885068466
 21
-11.1084423186
  0
LINE
  5
36A
100
AcDbEntity
  8
DRAFT
100
AcDbLine
 62
7
  6
CONTINUOUS
 10
36.9860359481
 20
11.1103153465
 11
36.9885068466
 21
11.1084423186
  0
LWPOLYLINE
  5
36B
100
AcDbEntity
  8
RACCORDO
100
AcDbPolyline
 62
250
  6
CONTINUOUS
 90
11
 70
0
 10
33.959004021
 20
14.8589278676
 10
33.9622559883
 20
14.8563174198
 10
33.9650499623
 20
14.8501130106
 10
33.9676208708
 20
14.8403979202
 10
33.9704139791
 20
14.8270942539
 10
33.9733030676
 20
14.8101518117
 10
33.975747442
 20
14.7898117344
 10
33.9781396758
 20
14.7663199323
 10
33.9807078147
 20
14.7397057874
 10
33.9827845618
 20
14.7101925108
 10
33.9866768695
 20
14.6437624652
  0
LINE
  5
36C
100
AcDbEntity
  8
DRAFT
100
AcDbLine
 62
7
  6
CONTINUOUS
 10
40.0279281039
 20
3.4720718961
 11
40.0168768991
 21
3.4831231009
  0
LINE
  5
36D
100
AcDbEntity
  8
DRAFT
100
AcDbLine
 62
7
  6
CONTINUOUS
 10
39.9860359481
 20
4.1639640519
 11
40.0053295471
 21
4.1446704529
  0
LINE
  5
36E
100
AcDbEntity
  8
DRAFT
100
AcDbLine
 62
7
  6
CONTINUOUS
 10
39.9860359481
 20
-4.7848728656
 11
40.0017229427
 21
-4.8159611375
  0
LINE
  5
36F
100
AcDbEntity
  8
DRAFT
100
AcDbLine
 62
7
  6
CONTINUOUS
 10
40.0017229427
 20
-4.8159611375
 11
40.0142121255
 21
-4.8409719338
  0
LWPOLYLINE
  5
370
100
AcDbEntity
  8
RACCORDO
100
AcDbPolyline
 62
250
  6
CONTINUOUS
 90
3
 70
0
 10
33.9866768695
 20
14.6437624652
 10
33.9882206409
 20
14.6071685304
 10
33.9908454354
 20
14.5287001948
  0
LWPOLYLINE
  5
371
100
AcDbEntity
  8
DRAFT
100
AcDbPolyline
 62
7
  6
CONTINUOUS
 90
7
 70
0
 10
35.9772321936
 20
-9.5179044775
 10
35.976938061
 20
-9.5059699102
 10
35.9766305596
 20
-9.4962653658
 10
35.9763126403
 20
-9.4890069951
 10
35.9759806779
 20
-9.484198307
 10
35.9756382976
 20
-9.4818357925
 10
35.975562872
 20
-9.4816646275
  0
LWPOLYLINE
  5
372
100
AcDbEntity
  8
DRAFT
100
AcDbPolyline
 62
7
  6
CONTINUOUS
 90
7
 70
0
 10
35.9772321936
 20
5.4820955225
 10
35.976938061
 20
5.4940300898
 10
35.9766305596
 20
5.5037346342
 10
35.9763126403
 20
5.5109930049
 10
35.9759806779
 20
5.515801693
 10
35.9756382976
 20
5.5181642075
 10
35.975562872
 20
5.5183353725
  0
LWPOLYLINE
  5
373
100
AcDbEntity
  8
DRAFT
100
AcDbPolyline
 62
7
  6
CONTINUOUS
 90
7
 70
0
 10
35.9737306376
 20
-5.4779325099
 10
35.9740234349
 20
-5.4907861249
 10
35.9743285151
 20
-5.5012452122
 10
35.9746471472
 20
-5.509282825
 10
35.9749780622
 20
-5.51492591
 10
35.9753114016
 20
-5.5179357442
 10
35.975562885
 20
-5.5183627414
  0
LWPOLYLINE
  5
374
100
AcDbEntity
  8
DRAFT
100
AcDbPolyline
 62
7
  6
CONTINUOUS
 90
7
 70
0
 10
35.9737312183
 20
9.522036308
 10
35.9740240207
 20
9.5091883749
 10
35.9743291778
 20
9.4987350313
 10
35.9746480596
 20
9.4907009966
 10
35.974979296
 20
9.4850615514
 10
35.9753128418
 20
9.4820572318
 10
35.975562886
 20
9.4816349123
  0
LWPOLYLINE
  5
375
100
AcDbEntity
  8
RACCORDO
100
AcDbPolyline
 62
250
  6
CONTINUOUS
 90
3
 70
0
 10
33.9908454354
 20
14.5287001948
 10
33.9917057403
 20
14.4873639742
 10
33.9923988742
 20
14.4020791223
  0
LINE
  5
376
100
AcDbEntity
  8
DRAFT
100
AcDbLine
 62
7
  6
CONTINUOUS
 10
35.9831231009
 20
-3.4831231009
 11
35.9946704529
 21
-4.1446704529
  0
LINE
  5
377
100
AcDbEntity
  8
DRAFT
100
AcDbLine
 62
7
  6
CONTINUOUS
 10
37.0035530314
 20
-10.7535530314
 11
37.0168768991
 21
-11.5168768991
  0
LINE
  5
378
100
AcDbEntity
  8
DRAFT
100
AcDbLine
 62
7
  6
CONTINUOUS
 10
35.9777783853
 20
-9.5483195807
 11
35.9772321936
 21
-9.5179044775
  0
LINE
  5
379
100
AcDbEntity
  8
DRAFT
100
AcDbLine
 62
7
  6
CONTINUOUS
 10
35.9777783853
 20
5.4516804193
 11
35.9772321936
 21
5.4820955225
  0
LINE
  5
37A
100
AcDbEntity
  8
DRAFT
100
AcDbLine
 62
7
  6
CONTINUOUS
 10
35.9731999868
 20
-5.4460082838
 11
35.9737306376
 21
-5.4779325099
  0
LINE
  5
37B
100
AcDbEntity
  8
DRAFT
100
AcDbLine
 62
7
  6
CONTINUOUS
 10
35.9732003505
 20
9.55396826
 11
35.9737312183
 21
9.522036308
  0
LINE
  5
37C
100
AcDbEntity
  8
RACCORDO
100
AcDbLine
 62
250
  6
CONTINUOUS
 10
33.9923988742
 20
14.4020791223
 11
33.992997017
 21
14.35900402
  0
LINE
  5
37D
100
AcDbEntity
  8
DRAFT
100
AcDbLine
 62
7
  6
CONTINUOUS
 10
35.9857878745
 20
-10.1590280662
 11
35.9777783853
 21
-9.5483195807
  0
LINE
  5
37E
100
AcDbEntity
  8
DRAFT
100
AcDbLine
 62
7
  6
CONTINUOUS
 10
35.9857878745
 20
4.8409719338
 11
35.9777783853
 21
5.4516804193
  0
LINE
  5
37F
100
AcDbEntity
  8
DRAFT
100
AcDbLine
 62
7
  6
CONTINUOUS
 10
35.9725594405
 20
-5.3835339835
 11
35.9731999868
 21
-5.4460082838
  0
LINE
  5
380
100
AcDbEntity
  8
DRAFT
100
AcDbLine
 62
7
  6
CONTINUOUS
 10
35.9725593922
 20
9.6164701714
 11
35.9732003505
 21
9.55396826
  0
LINE
  5
381
100
AcDbEntity
  8
DRAFT
100
AcDbLine
 62
7
  6
CONTINUOUS
 10
35.9721661943
 20
-5.3054354757
 11
35.9725594405
 21
-5.3835339835
  0
LINE
  5
382
100
AcDbEntity
  8
DRAFT
100
AcDbLine
 62
7
  6
CONTINUOUS
 10
35.972166176
 20
9.6945686949
 11
35.9725593922
 21
9.6164701714
  0
LINE
  5
383
100
AcDbEntity
  8
RACCORDO
100
AcDbLine
 62
250
  6
CONTINUOUS
 10
33.992997017
 20
14.35900402
 11
33.992997017
 21
-14.35900402
  0
LINE
  5
384
100
AcDbEntity
  8
RACCORDO
100
AcDbLine
 62
250
  6
CONTINUOUS
 10
34.4589278676
 20
14.35900402
 11
34.4589278676
 21
-14.35900402
  0
LINE
  5
385
100
AcDbEntity
  8
DRAFT
100
AcDbLine
 62
7
  6
CONTINUOUS
 10
34.4842904416
 20
12.5
 11
34.4842904416
 21
7.5
  0
LINE
  5
386
100
AcDbEntity
  8
DRAFT
100
AcDbLine
 62
7
  6
CONTINUOUS
 10
34.4842904416
 20
-12.5
 11
34.4842904416
 21
-7.5
  0
LINE
  5
387
100
AcDbEntity
  8
RACCORDO
100
AcDbLine
 62
7
  6
CONTINUOUS
 10
34.5
 20
14.4000761524
 11
34.5
 21
12.5157095584
  0
LINE
  5
388
100
AcDbEntity
  8
DRAFT
100
AcDbLine
 62
7
  6
CONTINUOUS
 10
34.5
 20
7.4842904416
 11
34.5
 21
-7.4842904416
  0
LINE
  5
389
100
AcDbEntity
  8
RACCORDO
100
AcDbLine
 62
7
  6
CONTINUOUS
 10
34.5
 20
-12.5157095584
 11
34.5
 21
-14.4000761524
  0
LINE
  5
38A
100
AcDbEntity
  8
DRAFT
100
AcDbLine
 62
7
  6
CONTINUOUS
 10
35.9720718961
 20
-3.4720718961
 11
35.9721661943
 21
-5.3054354757
  0
LINE
  5
38B
100
AcDbEntity
  8
DRAFT
100
AcDbLine
 62
7
  6
CONTINUOUS
 10
35.972166176
 20
9.6945686949
 11
35.9720718961
 21
12.75
  0
LINE
  5
38C
100
AcDbEntity
  8
DRAFT
100
AcDbLine
 62
7
  6
CONTINUOUS
 10
36.0
 20
12.75
 11
36.0
 21
11.8084219849
  0
LINE
  5
38D
100
AcDbEntity
  8
DRAFT
100
AcDbLine
 62
7
  6
CONTINUOUS
 10
36.0
 20
-11.8084219849
 11
36.0
 21
-12.75
  0
LINE
  5
38E
100
AcDbEntity
  8
DRAFT
100
AcDbLine
 62
7
  6
CONTINUOUS
 10
36.0139640519
 20
11.7994997051
 11
36.0139640519
 21
10.2151271344
  0
LINE
  5
38F
100
AcDbEntity
  8
DRAFT
100
AcDbLine
 62
7
  6
CONTINUOUS
 10
36.0139640519
 20
4.7848728656
 11
36.0139640519
 21
4.1639640519
  0
LINE
  5
390
100
AcDbEntity
  8
DRAFT
100
AcDbLine
 62
7
  6
CONTINUOUS
 10
36.0139640519
 20
-4.1639640519
 11
36.0139640519
 21
-4.7848728656
  0
LINE
  5
391
100
AcDbEntity
  8
DRAFT
100
AcDbLine
 62
7
  6
CONTINUOUS
 10
36.0139640519
 20
-10.2151271344
 11
36.0139640519
 21
-11.7994997051
  0
LINE
  5
392
100
AcDbEntity
  8
DRAFT
100
AcDbLine
 62
7
  6
CONTINUOUS
 10
35.972261814
 20
5.3329817893
 11
35.9720718961
 21
3.4720718961
  0
LINE
  5
393
100
AcDbEntity
  8
DRAFT
100
AcDbLine
 62
7
  6
CONTINUOUS
 10
35.972261814
 20
-9.6670182107
 11
35.9720718961
 21
-12.75
  0
LINE
  5
394
100
AcDbEntity
  8
DRAFT
100
AcDbLine
 62
7
  6
CONTINUOUS
 10
35.972745098
 20
5.4056838918
 11
35.972261814
 21
5.3329817893
  0
LINE
  5
395
100
AcDbEntity
  8
DRAFT
100
AcDbLine
 62
7
  6
CONTINUOUS
 10
35.972745098
 20
-9.5943161082
 11
35.972261814
 21
-9.6670182107
  0
LINE
  5
396
100
AcDbEntity
  8
DRAFT
100
AcDbLine
 62
7
  6
CONTINUOUS
 10
35.9731931347
 20
5.4455136718
 11
35.972745098
 21
5.4056838918
  0
LINE
  5
397
100
AcDbEntity
  8
DRAFT
100
AcDbLine
 62
7
  6
CONTINUOUS
 10
35.9731931347
 20
-9.5544863282
 11
35.972745098
 21
-9.5943161082
  0
LINE
  5
398
100
AcDbEntity
  8
RACCORDO
100
AcDbLine
 62
250
  6
CONTINUOUS
 10
33.9923988774
 20
-14.4020791188
 11
33.992997017
 21
-14.35900402
  0
LINE
  5
399
100
AcDbEntity
  8
DRAFT
100
AcDbLine
 62
7
  6
CONTINUOUS
 10
35.9946704529
 20
4.1446704529
 11
35.9831231009
 21
3.4831231009
  0
LINE
  5
39A
100
AcDbEntity
  8
DRAFT
100
AcDbLine
 62
7
  6
CONTINUOUS
 10
37.0168768991
 20
11.5168768991
 11
37.0035530314
 21
10.7535530314
  0
LWPOLYLINE
  5
39B
100
AcDbEntity
  8
RACCORDO
100
AcDbPolyline
 62
250
  6
CONTINUOUS
 90
4
 70
0
 10
33.9882206474
 20
-14.6071685143
 10
33.9908454427
 20
-14.5287001825
 10
33.9917057471
 20
-14.4873639645
 10
33.9923988774
 20
-14.4020791188
  0
LWPOLYLINE
  5
39C
100
AcDbEntity
  8
RACCORDO
100
AcDbPolyline
 62
250
  6
CONTINUOUS
 90
19
 70
0
 10
34.4589278676
 20
-14.35900402
 10
34.457012975
 20
-14.4025668289
 10
34.4513094024
 20
-14.445798227
 10
34.4418605405
 20
-14.4883693248
 10
34.4287382731
 20
-14.5299562561
 10
34.4120424297
 20
-14.5702426419
 10
34.3919000266
 20
-14.6089219972
 10
34.3684643004
 20
-14.6457000629
 10
34.3419135418
 20
-14.6802970441
 10
34.3124497398
 20
-14.712449739
 10
34.2802970449
 20
-14.7419135411
 10
34.2457000637
 20
-14.7684642998
 10
34.208921998
 20
-14.7919000262
 10
34.1702426426
 20
-14.8120424294
 10
34.1299562568
 20
-14.8287382728
 10
34.0883693253
 20
-14.8418605404
 10
34.0457982274
 20
-14.8513094023
 10
34.0025668291
 20
-14.857012975
 10
33.95900402
 20
-14.8589278676
  0
LWPOLYLINE
  5
39D
100
AcDbEntity
  8
RACCORDO
100
AcDbPolyline
 62
250
  6
CONTINUOUS
 90
3
 70
0
 10
33.9827845678
 20
-14.7101924943
 10
33.986676876
 20
-14.6437624488
 10
33.9882206474
 20
-14.6071685143
  0
LWPOLYLINE
  5
39E
100
AcDbEntity
  8
DRAFT
100
AcDbPolyline
 62
7
  6
CONTINUOUS
 90
9
 70
0
 10
40.024437115
 20
5.5183627414
 10
40.0243520679
 20
5.5181649409
 10
40.024013113
 20
5.5157608868
 10
40.0236838926
 20
5.5109270185
 10
40.0233673022
 20
5.5036636206
 10
40.0230604464
 20
5.4939704084
 10
40.0227667981
 20
5.4820499653
 10
40.0224875151
 20
5.4679698189
 10
40.0142121255
 20
4.8409719338
  0
LWPOLYLINE
  5
39F
100
AcDbEntity
  8
DRAFT
100
AcDbPolyline
 62
7
  6
CONTINUOUS
 90
9
 70
0
 10
35.975562885
 20
-5.5183627414
 10
35.9756479321
 20
-5.5181649409
 10
35.975986887
 20
-5.5157608868
 10
35.9763161074
 20
-5.5109270185
 10
35.9766326978
 20
-5.5036636206
 10
35.9769395536
 20
-5.4939704084
 10
35.9772332019
 20
-5.4820499653
 10
35.9775124849
 20
-5.4679698189
 10
35.9857878745
 20
-4.8409719338
  0
LINE
  5
3A0
100
AcDbEntity
  8
DRAFT
100
AcDbLine
 62
7
  6
CONTINUOUS
 10
36.001407745
 20
-4.8097281217
 11
35.9857878745
 21
-4.8409719338
  0
LINE
  5
3A1
100
AcDbEntity
  8
DRAFT
100
AcDbLine
 62
7
  6
CONTINUOUS
 10
36.0139640519
 20
-4.7848728656
 11
36.001407745
 21
-4.8097281217
  0
LWPOLYLINE
  5
3A2
100
AcDbEntity
  8
DRAFT
100
AcDbPolyline
 62
7
  6
CONTINUOUS
 90
8
 70
0
 10
35.975562872
 20
-9.4816646275
 10
35.9752993262
 20
-9.4821250766
 10
35.9749652958
 20
-9.4852257642
 10
35.9746346743
 20
-9.4909782504
 10
35.9743166917
 20
-9.4991093445
 10
35.974012483
 20
-9.5096385089
 10
35.9737209131
 20
-9.5225462813
 10
35.9731931347
 20
-9.5544863282
  0
LINE
  5
3A3
100
AcDbEntity
  8
DRAFT
100
AcDbLine
 62
7
  6
CONTINUOUS
 10
39.0051466838
 20
-10.7448533162
 11
38.9964469686
 21
-10.7535530314
  0
LINE
  5
3A4
100
AcDbEntity
  8
DRAFT
100
AcDbLine
 62
7
  6
CONTINUOUS
 10
38.9831231009
 20
-11.5168768991
 11
38.9720718961
 21
-11.5279281039
  0
LWPOLYLINE
  5
3A5
100
AcDbEntity
  8
0
100
AcDbPolyline
 62
7
  6
CONTINUOUS
 90
10
 70
0
 43
0.3500000006
 10
50.2500017395
 20
-1.6071430206
 10
49.3928592682
 20
-0.7500005493
 10
48.535712265
 20
-0.5357137985
 10
47.6785697937
 20
-0.5357137985
 10
47.250000824
 20
-0.9642850342
 10
47.250000824
 20
-1.6071430206
 10
47.6785697937
 20
-2.0357142563
 10
48.535712265
 20
-2.0357142563
 10
48.9642857666
 20
-1.6071430206
 10
48.9642857666
 20
-0.6785716324
  0
LINE
  5
3A6
100
AcDbEntity
  8
DRAFT
100
AcDbLine
 62
7
  6
CONTINUOUS
 10
38.9964469686
 20
10.7535530314
 11
39.0051466838
 21
10.7448533162
  0
LINE
  5
3A7
100
AcDbEntity
  8
DRAFT
100
AcDbLine
 62
7
  6
CONTINUOUS
 10
38.9831231009
 20
11.5168768991
 11
38.9720718961
 21
11.5279281039
  0
LINE
  5
3A8
100
AcDbEntity
  8
DRAFT
100
AcDbLine
 62
7
  6
CONTINUOUS
 10
36.0139640519
 20
4.7848728656
 11
35.9982770573
 21
4.8159611375
  0
LINE
  5
3A9
100
AcDbEntity
  8
DRAFT
100
AcDbLine
 62
7
  6
CONTINUOUS
 10
35.9982770573
 20
4.8159611375
 11
35.9857878745
 21
4.8409719338
  0
LWPOLYLINE
  5
3AA
100
AcDbEntity
  8
DRAFT
100
AcDbPolyline
 62
7
  6
CONTINUOUS
 90
8
 70
0
 10
40.0265432943
 20
-9.5369641374
 10
40.0262687817
 20
-9.522036308
 10
40.0259759793
 20
-9.5091883749
 10
40.0256708222
 20
-9.4987350313
 10
40.0253519404
 20
-9.4907009966
 10
40.025020704
 20
-9.4850615514
 10
40.0246871582
 20
-9.4820572318
 10
40.024437114
 20
-9.4816349123
  0
LINE
  5
3AB
100
AcDbEntity
  8
DRAFT
100
AcDbLine
 62
7
  6
CONTINUOUS
 10
36.9948533162
 20
10.7448533162
 11
36.9885068466
 21
11.1084423186
  0
LINE
  5
3AC
100
AcDbEntity
  8
DRAFT
100
AcDbLine
 62
7
  6
CONTINUOUS
 10
39.0114931534
 20
-11.1084423186
 11
39.0051466838
 21
-10.7448533162
  0
LINE
  5
3AD
100
AcDbEntity
  8
DRAFT
100
AcDbLine
 62
7
  6
CONTINUOUS
 10
38.9831231009
 20
11.5168768991
 11
38.9964469686
 21
10.7535530314
  0
LINE
  5
3AE
100
AcDbEntity
  8
DRAFT
100
AcDbLine
 62
7
  6
CONTINUOUS
 10
36.9860359481
 20
12.1262202069
 11
36.9860359481
 21
11.1103153465
  0
LINE
  5
3AF
100
AcDbEntity
  8
DRAFT
100
AcDbLine
 62
7
  6
CONTINUOUS
 10
36.9860359481
 20
-12.1262202069
 11
36.9860359481
 21
-11.1103153465
  0
LINE
  5
3B0
100
AcDbEntity
  8
DRAFT
100
AcDbLine
 62
7
  6
CONTINUOUS
 10
37.0
 20
-12.75
 11
37.0
 21
-12.1435439053
  0
LINE
  5
3B1
100
AcDbEntity
  8
DRAFT
100
AcDbLine
 62
7
  6
CONTINUOUS
 10
37.0
 20
12.1435439053
 11
37.0
 21
12.75
  0
LINE
  5
3B2
100
AcDbEntity
  8
DRAFT
100
AcDbLine
 62
7
  6
CONTINUOUS
 10
37.0279281039
 20
-12.75
 11
37.0279281039
 21
-11.5279281039
  0
LINE
  5
3B3
100
AcDbEntity
  8
DRAFT
100
AcDbLine
 62
7
  6
CONTINUOUS
 10
37.0279281039
 20
11.5279281039
 11
37.0279281039
 21
12.75
  0
LINE
  5
3B4
100
AcDbEntity
  8
DRAFT
100
AcDbLine
 62
7
  6
CONTINUOUS
 10
38.9720718961
 20
12.75
 11
38.9720718961
 21
11.5279281039
  0
LINE
  5
3B5
100
AcDbEntity
  8
DRAFT
100
AcDbLine
 62
7
  6
CONTINUOUS
 10
38.9720718961
 20
-11.5279281039
 11
38.9720718961
 21
-12.75
  0
LINE
  5
3B6
100
AcDbEntity
  8
DRAFT
100
AcDbLine
 62
7
  6
CONTINUOUS
 10
39.0
 20
12.75
 11
39.0
 21
12.1435439053
  0
LINE
  5
3B7
100
AcDbEntity
  8
DRAFT
100
AcDbLine
 62
7
  6
CONTINUOUS
 10
39.0
 20
-12.1435439053
 11
39.0
 21
-12.75
  0
LINE
  5
3B8
100
AcDbEntity
  8
DRAFT
100
AcDbLine
 62
7
  6
CONTINUOUS
 10
39.0139640519
 20
12.1262202069
 11
39.0139640519
 21
11.1103153465
  0
LINE
  5
3B9
100
AcDbEntity
  8
DRAFT
100
AcDbLine
 62
7
  6
CONTINUOUS
 10
39.0139640519
 20
-12.1262202069
 11
39.0139640519
 21
-11.1103153465
  0
LINE
  5
3BA
100
AcDbEntity
  8
DRAFT
100
AcDbLine
 62
7
  6
CONTINUOUS
 10
36.9885068466
 20
-11.1084423186
 11
36.9948533162
 21
-10.7448533162
  0
LINE
  5
3BB
100
AcDbEntity
  8
DRAFT
100
AcDbLine
 62
7
  6
CONTINUOUS
 10
39.0051466838
 20
10.7448533162
 11
39.0114931534
 21
11.1084423186
  0
LINE
  5
3BC
100
AcDbEntity
  8
DRAFT
100
AcDbLine
 62
7
  6
CONTINUOUS
 10
38.9964469686
 20
-10.7535530314
 11
38.9831231009
 21
-11.5168768991
  0
LWPOLYLINE
  5
3BD
100
AcDbEntity
  8
DRAFT
100
AcDbPolyline
 62
7
  6
CONTINUOUS
 90
8
 70
0
 10
40.024437128
 20
-5.5183353725
 10
40.0247006738
 20
-5.5178749234
 10
40.0250347042
 20
-5.5147742358
 10
40.0253653257
 20
-5.5090217496
 10
40.0256833083
 20
-5.5008906555
 10
40.025987517
 20
-5.4903614911
 10
40.0262790869
 20
-5.4774537187
 10
40.0268068653
 20
-5.4455136718
  0
LWPOLYLINE
  5
3BE
100
AcDbEntity
  8
0
100
AcDbPolyline
 62
7
  6
CONTINUOUS
 90
13
 70
0
 43
0.3500000006
 10
48.535712265
 20
2.4642848511
 10
48.3214277802
 20
2.1785714493
 10
47.6785697937
 20
2.1785714493
 10
47.250000824
 20
2.4642848511
 10
47.250000824
 20
3.1071428375
 10
47.6785697937
 20
3.3928562393
 10
48.3214277802
 20
3.3928562393
 10
48.535712265
 20
3.1071428375
 10
48.9642857666
 20
3.5357140732
 10
49.8214282379
 20
3.5357140732
 10
50.2500017395
 20
3.1071428375
 10
50.2500017395
 20
2.4642848511
 10
49.8214282379
 20
2.0357136154
  0
LINE
  5
3BF
100
AcDbEntity
  8
DRAFT
100
AcDbLine
 62
7
  6
CONTINUOUS
 10
39.0
 20
-12.1435439053
 11
39.0139640519
 21
-12.1262202069
  0
LINE
  5
3C0
100
AcDbEntity
  8
DRAFT
100
AcDbLine
 62
7
  6
CONTINUOUS
 10
39.0
 20
12.1435439053
 11
39.0139640519
 21
12.1262202069
  0
LWPOLYLINE
  5
3C1
100
AcDbEntity
  8
DRAFT
100
AcDbPolyline
 62
7
  6
CONTINUOUS
 90
7
 70
0
 10
40.0227678064
 20
-5.4820955225
 10
40.023061939
 20
-5.4940300898
 10
40.0233694404
 20
-5.5037346342
 10
40.0236873597
 20
-5.5109930049
 10
40.0240193221
 20
-5.515801693
 10
40.0243617024
 20
-5.5181642075
 10
40.024437128
 20
-5.5183353725
  0
LWPOLYLINE
  5
3C2
100
AcDbEntity
  8
DRAFT
100
AcDbPolyline
 62
7
  6
CONTINUOUS
 90
7
 70
0
 10
40.0227678064
 20
9.5179044775
 10
40.023061939
 20
9.5059699102
 10
40.0233694404
 20
9.4962653658
 10
40.0236873597
 20
9.4890069951
 10
40.0240193221
 20
9.484198307
 10
40.0243617024
 20
9.4818357925
 10
40.024437128
 20
9.4816646275
  0
LWPOLYLINE
  5
3C3
100
AcDbEntity
  8
DRAFT
100
AcDbPolyline
 62
7
  6
CONTINUOUS
 90
7
 70
0
 10
40.0262693624
 20
5.4779325099
 10
40.0259765651
 20
5.4907861249
 10
40.0256714849
 20
5.5012452122
 10
40.0253528528
 20
5.509282825
 10
40.0250219378
 20
5.51492591
 10
40.0246885984
 20
5.5179357442
 10
40.024437115
 20
5.5183627414
  0
LINE
  5
3C4
100
AcDbEntity
  8
DRAFT
100
AcDbLine
 62
7
  6
CONTINUOUS
 10
40.0168768991
 20
3.4831231009
 11
40.0053295471
 21
4.1446704529
  0
LINE
  5
3C5
100
AcDbEntity
  8
DRAFT
100
AcDbLine
 62
7
  6
CONTINUOUS
 10
40.0222216147
 20
-5.4516804193
 11
40.0227678064
 21
-5.4820955225
  0
LINE
  5
3C6
100
AcDbEntity
  8
DRAFT
100
AcDbLine
 62
7
  6
CONTINUOUS
 10
40.0222216147
 20
9.5483195807
 11
40.0227678064
 21
9.5179044775
  0
LINE
  5
3C7
100
AcDbEntity
  8
DRAFT
100
AcDbLine
 62
7
  6
CONTINUOUS
 10
40.0268000132
 20
5.4460082838
 11
40.0262693624
 21
5.4779325099
  0
LINE
  5
3C8
100
AcDbEntity
  8
DRAFT
100
AcDbLine
 62
7
  6
CONTINUOUS
 10
40.0270377149
 20
-9.5730522788
 11
40.0265432943
 21
-9.5369641374
  0
LINE
  5
3C9
100
AcDbEntity
  8
DRAFT
100
AcDbLine
 62
7
  6
CONTINUOUS
 10
40.0142121255
 20
-4.8409719338
 11
40.0222216147
 21
-5.4516804193
  0
LINE
  5
3CA
100
AcDbEntity
  8
DRAFT
100
AcDbLine
 62
7
  6
CONTINUOUS
 10
40.0142121255
 20
10.1590280662
 11
40.0222216147
 21
9.5483195807
  0
LINE
  5
3CB
100
AcDbEntity
  8
DRAFT
100
AcDbLine
 62
7
  6
CONTINUOUS
 10
40.0274405595
 20
5.3835339835
 11
40.0268000132
 21
5.4460082838
  0
LINE
  5
3CC
100
AcDbEntity
  8
DRAFT
100
AcDbLine
 62
7
  6
CONTINUOUS
 10
40.0276054354
 20
-9.6408040451
 11
40.0270377149
 21
-9.5730522788
  0
LINE
  5
3CD
100
AcDbEntity
  8
DRAFT
100
AcDbLine
 62
7
  6
CONTINUOUS
 10
40.0278338057
 20
5.3054354757
 11
40.0274405595
 21
5.3835339835
  0
LINE
  5
3CE
100
AcDbEntity
  8
DRAFT
100
AcDbLine
 62
7
  6
CONTINUOUS
 10
40.0279281039
 20
-9.7551369191
 11
40.0276054354
 21
-9.6408040451
  0
LINE
  5
3CF
100
AcDbEntity
  8
DRAFT
100
AcDbLine
 62
7
  6
CONTINUOUS
 10
39.9860359481
 20
-11.7994997051
 11
39.9860359481
 21
-10.2151271344
  0
LINE
  5
3D0
100
AcDbEntity
  8
DRAFT
100
AcDbLine
 62
7
  6
CONTINUOUS
 10
39.9860359481
 20
-4.7848728656
 11
39.9860359481
 21
-4.1639640519
  0
LINE
  5
3D1
100
AcDbEntity
  8
DRAFT
100
AcDbLine
 62
7
  6
CONTINUOUS
 10
39.9860359481
 20
4.1639640519
 11
39.9860359481
 21
4.7848728656
  0
LINE
  5
3D2
100
AcDbEntity
  8
DRAFT
100
AcDbLine
 62
7
  6
CONTINUOUS
 10
39.9860359481
 20
10.2151271344
 11
39.9860359481
 21
11.7994997051
  0
LINE
  5
3D3
100
AcDbEntity
  8
DRAFT
100
AcDbLine
 62
7
  6
CONTINUOUS
 10
40.0
 20
-12.75
 11
40.0
 21
-11.8084219849
  0
LINE
  5
3D4
100
AcDbEntity
  8
DRAFT
100
AcDbLine
 62
7
  6
CONTINUOUS
 10
40.0
 20
11.8084219849
 11
40.0
 21
12.75
  0
LINE
  5
3D5
100
AcDbEntity
  8
DRAFT
100
AcDbLine
 62
7
  6
CONTINUOUS
 10
40.0279281039
 20
-9.7551369191
 11
40.0279281039
 21
-12.75
  0
LINE
  5
3D6
100
AcDbEntity
  8
DRAFT
100
AcDbLine
 62
7
  6
CONTINUOUS
 10
40.0279281039
 20
3.4720718961
 11
40.0278338057
 21
5.3054354757
  0
LINE
  5
3D7
100
AcDbEntity
  8
DRAFT
100
AcDbLine
 62
7
  6
CONTINUOUS
 10
43.0
 20
-14.0
 11
43.0
 21
-1.0
  0
LINE
  5
3D8
100
AcDbEntity
  8
DRAFT
100
AcDbLine
 62
7
  6
CONTINUOUS
 10
43.0
 20
1.0
 11
43.0
 21
14.0
  0
LWPOLYLINE
  5
3D9
100
AcDbEntity
  8
0
100
AcDbPolyline
 62
7
  6
CONTINUOUS
 90
7
 70
0
 43
0.3500000006
 10
50.2500017395
 20
-2.8928567276
 10
50.2500017395
 20
-4.3928571854
 10
48.1071432953
 20
-2.8928567276
 10
47.6785697937
 20
-2.8928567276
 10
47.250000824
 20
-3.3214290962
 10
47.250000824
 20
-3.9642859497
 10
47.8928588104
 20
-4.3928571854
  0
LINE
  5
3DA
100
AcDbEntity
  8
DRAFT
100
AcDbLine
 62
7
  6
CONTINUOUS
 10
40.027738186
 20
9.6670182107
 11
40.0279281039
 21
12.75
  0
LINE
  5
3DB
100
AcDbEntity
  8
DRAFT
100
AcDbLine
 62
7
  6
CONTINUOUS
 10
40.027738186
 20
-5.3329817893
 11
40.0279281039
 21
-3.4720718961
  0
LINE
  5
3DC
100
AcDbEntity
  8
DRAFT
100
AcDbLine
 62
7
  6
CONTINUOUS
 10
40.027254902
 20
9.5943161082
 11
40.027738186
 21
9.6670182107
  0
LINE
  5
3DD
100
AcDbEntity
  8
DRAFT
100
AcDbLine
 62
7
  6
CONTINUOUS
 10
40.027254902
 20
-5.4056838918
 11
40.027738186
 21
-5.3329817893
  0
LINE
  5
3DE
100
AcDbEntity
  8
DRAFT
100
AcDbLine
 62
7
  6
CONTINUOUS
 10
40.0268068653
 20
-5.4455136718
 11
40.027254902
 21
-5.4056838918
  0
LWPOLYLINE
  5
3DF
100
AcDbEntity
  8
DRAFT
100
AcDbPolyline
 62
7
  6
CONTINUOUS
 90
3
 70
0
 10
40.0265521928
 20
9.537501085
 10
40.0268068653
 20
9.5544863282
 10
40.027254902
 20
9.5943161082
  0
LINE
  5
3E0
100
AcDbEntity
  8
DRAFT
100
AcDbLine
 62
7
  6
CONTINUOUS
 10
40.0053295471
 20
-4.1446704529
 11
40.0168768991
 21
-3.4831231009
  0
LWPOLYLINE
  5
3E1
100
AcDbEntity
  8
DRAFT
100
AcDbPolyline
 62
7
  6
CONTINUOUS
 90
9
 70
0
 10
40.024437114
 20
-9.4816349123
 10
40.0243506299
 20
-9.4818373476
 10
40.0240117923
 20
-9.4842525889
 10
40.0236827098
 20
-9.4890955623
 10
40.0233662423
 20
-9.4963656114
 10
40.0230595301
 20
-9.5060633927
 10
40.0227660583
 20
-9.5179834813
 10
40.022486989
 20
-9.5320574024
 10
40.0142121255
 20
-10.1590280662
  0
LINE
  5
3E2
100
AcDbEntity
  8
DRAFT
100
AcDbLine
 62
7
  6
CONTINUOUS
 10
39.998592255
 20
-10.1902718783
 11
40.0142121255
 21
-10.1590280662
  0
LINE
  5
3E3
100
AcDbEntity
  8
DRAFT
100
AcDbLine
 62
7
  6
CONTINUOUS
 10
39.9860359481
 20
-10.2151271344
 11
39.998592255
 21
-10.1902718783
  0
LINE
  5
3E4
100
AcDbEntity
  8
DRAFT
100
AcDbLine
 62
7
  6
CONTINUOUS
 10
39.9860359481
 20
10.2151271344
 11
40.0017229427
 21
10.1840388625
  0
LINE
  5
3E5
100
AcDbEntity
  8
DRAFT
100
AcDbLine
 62
7
  6
CONTINUOUS
 10
40.0017229427
 20
10.1840388625
 11
40.0142121255
 21
10.1590280662
  0
LWPOLYLINE
  5
3E6
100
AcDbEntity
  8
0
100
AcDbPolyline
 62
7
  6
CONTINUOUS
 90
3
 70
0
 43
0.3500000006
 10
-80.6272701416
 20
33.1815424805
 10
-80.6987013245
 20
32.9672534637
 10
-80.8415546265
 20
32.6815423279
  0
LWPOLYLINE
  5
3E7
100
AcDbEntity
  8
0
100
AcDbPolyline
 62
7
  6
CONTINUOUS
 90
3
 70
0
 43
0.3500000006
 10
-78.2848330994
 20
23.935713501
 10
-78.3562642822
 20
23.7214290161
 10
-78.4991175842
 20
23.4357133484
  0
LWPOLYLINE
  5
3E8
100
AcDbEntity
  8
0
100
AcDbPolyline
 62
7
  6
CONTINUOUS
 90
10
 70
0
 43
0.3500000006
 10
-82.627270752
 20
35.8958277283
 10
-83.2701332703
 20
35.2529697418
 10
-83.69870224
 20
34.3958272705
 10
-83.69870224
 20
33.3244003143
 10
-83.2701332703
 20
32.8958268127
 10
-82.627270752
 20
32.8958268127
 10
-82.1987017822
 20
33.3244003143
 10
-82.1987017822
 20
34.1815427856
 10
-82.627270752
 20
34.6101117554
 10
-83.5558398743
 20
34.6101117554
  0
LINE
  5
3E9
100
AcDbEntity
  8
DRAFT
100
AcDbLine
 62
7
  6
CONTINUOUS
 10
-66.482555015
 20
-14.8720718961
 11
-68.082555015
 21
-14.9
  0
LINE
  5
3EA
100
AcDbEntity
  8
RACCORDO
100
AcDbLine
 62
250
  6
CONTINUOUS
 10
-70.4355759041
 20
-14.35900402
 11
-70.9256928387
 21
-14.35900402
  0
LINE
  5
3EB
100
AcDbEntity
  8
RACCORDO
100
AcDbLine
 62
7
  6
CONTINUOUS
 10
-68.082555015
 20
-14.9
 11
-71.5912799759
 21
-14.838754978
  0
LINE
  5
3EC
100
AcDbEntity
  8
RACCORDO
100
AcDbLine
 62
250
  6
CONTINUOUS
 10
-70.9256928387
 20
-14.35900402
 11
-72.082555015
 21
-14.3388310553
  0
LINE
  5
3ED
100
AcDbEntity
  8
RACCORDO
100
AcDbLine
 62
250
  6
CONTINUOUS
 10
-68.082555015
 20
-14.4000761524
 11
-70.4355759041
 21
-14.35900402
  0
LWPOLYLINE
  5
3EE
100
AcDbEntity
  8
RACCORDO
100
AcDbPolyline
 62
250
  6
CONTINUOUS
 90
19
 70
0
 10
-70.435575904
 20
-14.8589278676
 10
-70.4785102084
 20
-14.8563174188
 10
-70.5205268543
 20
-14.8501130074
 10
-70.5617039516
 20
-14.8403979137
 10
-70.6022388563
 20
-14.827094243
 10
-70.6419339204
 20
-14.8101517958
 10
-70.680077638
 20
-14.7898117144
 10
-70.7162069044
 20
-14.7663199113
 10
-70.7502613949
 20
-14.7397057684
 10
-70.7819569257
 20
-14.7101924943
 10
-70.8108996421
 20
-14.6781398328
 10
-70.8369068314
 20
-14.6437624488
 10
-70.8599325711
 20
-14.6071685143
 10
-70.8797303248
 20
-14.5686921101
 10
-70.8960930666
 20
-14.5287001825
 10
-70.9089848704
 20
-14.4873639645
 10
-70.9182889008
 20
-14.4450008254
 10
-70.9238701425
 20
-14.4020791188
 10
-70.9256928387
 20
-14.35900402
  0
LINE
  5
3EF
100
AcDbEntity
  8
DRAFT
100
AcDbLine
 62
7
  6
CONTINUOUS
 10
-66.482555015
 20
-13.9724513599
 11
-68.082555015
 21
-14.0
  0
LINE
  5
3F0
100
AcDbEntity
  8
DRAFT
100
AcDbLine
 62
7
  6
CONTINUOUS
 10
-66.482555015
 20
-12.1435439053
 11
-65.682555015
 21
-12.1262202069
  0
LINE
  5
3F1
100
AcDbEntity
  8
DRAFT
100
AcDbLine
 62
7
  6
CONTINUOUS
 10
-66.482555015
 20
-12.25
 11
-65.682555015
 21
-12.2360359481
  0
LINE
  5
3F2
100
AcDbEntity
  8
DRAFT
100
AcDbLine
 62
7
  6
CONTINUOUS
 10
-68.082555015
 20
-12.5157095584
 11
-68.982555015
 21
-12.5
  0
LINE
  5
3F3
100
AcDbEntity
  8
DRAFT
100
AcDbLine
 62
7
  6
CONTINUOUS
 10
-66.482555015
 20
-11.8084219849
 11
-65.682555015
 21
-11.7994997051
  0
LINE
  5
3F4
100
AcDbEntity
  8
RACCORDO
100
AcDbLine
 62
250
  6
CONTINUOUS
 10
-65.682555015
 20
-10.5041869364
 11
-66.482555015
 21
-10.4886845861
  0
LWPOLYLINE
  5
3F5
100
AcDbEntity
  8
0
100
AcDbPolyline
 62
7
  6
CONTINUOUS
 90
2
 70
0
 43
0.3500000006
 10
-78.6272695313
 20
32.8958268127
 10
-78.6272695313
 20
34.3958272705
  0
LINE
  5
3F6
100
AcDbEntity
  8
DRAFT
100
AcDbLine
 62
7
  6
CONTINUOUS
 10
-66.482555015
 20
-9.0
 11
-65.982555015
 21
-8.9912724675
  0
LINE
  5
3F7
100
AcDbEntity
  8
DRAFT
100
AcDbLine
 62
7
  6
CONTINUOUS
 10
-66.482555015
 20
-10.0
 11
-65.682555015
 21
-10.0139640519
  0
LINE
  5
3F8
100
AcDbEntity
  8
RACCORDO
100
AcDbLine
 62
7
  6
CONTINUOUS
 10
-65.682555015
 20
-10.0139640519
 11
-66.482555015
 21
-10.0
  0
LWPOLYLINE
  5
3F9
100
AcDbEntity
  8
0
100
AcDbPolyline
 62
7
  6
CONTINUOUS
 90
2
 70
0
 43
0.3500000006
 10
-76.284832489
 20
23.6499978333
 10
-76.284832489
 20
25.149998291
  0
LINE
  5
3FA
100
AcDbEntity
  8
DRAFT
100
AcDbLine
 62
7
  6
CONTINUOUS
 10
-68.082555015
 20
-7.4842904416
 11
-68.982555015
 21
-7.5
  0
LWPOLYLINE
  5
3FB
100
AcDbEntity
  8
RACCORDO
100
AcDbPolyline
 62
250
  6
CONTINUOUS
 90
10
 70
0
 10
-70.4355759041
 20
14.8589278676
 10
-70.4363028712
 20
14.857012975
 10
-70.4369579218
 20
14.8513094023
 10
-70.4375360726
 20
14.8418605404
 10
-70.4380329252
 20
14.8287382728
 10
-70.4384446996
 20
14.8120424294
 10
-70.4387682633
 20
14.7919000262
 10
-70.4390011547
 20
14.7684642998
 10
-70.439141602
 20
14.7419135411
 10
-70.439141602
 20
14.6802970441
  0
LINE
  5
3FC
100
AcDbEntity
  8
RACCORDO
100
AcDbLine
 62
7
  6
CONTINUOUS
 10
-66.482555015
 20
-5.0
 11
-65.682555015
 21
-4.9860359481
  0
LINE
  5
3FD
100
AcDbEntity
  8
DRAFT
100
AcDbLine
 62
7
  6
CONTINUOUS
 10
-66.482555015
 20
-5.0
 11
-65.682555015
 21
-4.9860359481
  0
LINE
  5
3FE
100
AcDbEntity
  8
DRAFT
100
AcDbLine
 62
7
  6
CONTINUOUS
 10
-66.482555015
 20
-6.0
 11
-65.982555015
 21
-6.0087275325
  0
LINE
  5
3FF
100
AcDbEntity
  8
RACCORDO
100
AcDbLine
 62
250
  6
CONTINUOUS
 10
-66.482555015
 20
-4.5113154139
 11
-65.682555015
 21
-4.4958130636
  0
LINE
  5
400
100
AcDbEntity
  8
ASSI
100
AcDbLine
 62
7
  6
CONTINUOUS
 10
-72.082555015
 20
14.3388311305
 11
-72.082555015
 21
-14.3388311305
  0
LINE
  5
401
100
AcDbEntity
  8
RACCORDO
100
AcDbLine
 62
250
  6
CONTINUOUS
 10
-70.9256928387
 20
14.35900402
 11
-70.9256928387
 21
-14.35900402
  0
LINE
  5
402
100
AcDbEntity
  8
DRAFT
100
AcDbLine
 62
7
  6
CONTINUOUS
 10
-66.482555015
 20
-2.75
 11
-65.682555015
 21
-2.7639640519
  0
LINE
  5
403
100
AcDbEntity
  8
RACCORDO
100
AcDbLine
 62
250
  6
CONTINUOUS
 10
-70.4375360726
 20
14.4883693248
 11
-70.4355759041
 21
14.35900402
  0
LWPOLYLINE
  5
404
100
AcDbEntity
  8
RACCORDO
100
AcDbPolyline
 62
250
  6
CONTINUOUS
 90
8
 70
0
 10
-70.4390011547
 20
-14.7684642998
 10
-70.4387682633
 20
-14.7919000262
 10
-70.4384446996
 20
-14.8120424294
 10
-70.4380329252
 20
-14.8287382728
 10
-70.4375360726
 20
-14.8418605404
 10
-70.4369579218
 20
-14.8513094023
 10
-70.4363028712
 20
-14.857012975
 10
-70.4355759041
 20
-14.8589278676
  0
LINE
  5
405
100
AcDbEntity
  8
RACCORDO
100
AcDbLine
 62
250
  6
CONTINUOUS
 10
-70.4387682633
 20
14.6089219972
 11
-70.4375360726
 21
14.4883693248
  0
LINE
  5
406
100
AcDbEntity
  8
RACCORDO
100
AcDbLine
 62
250
  6
CONTINUOUS
 10
-70.439141602
 20
14.6802970441
 11
-70.4387682633
 21
14.6089219972
  0
LINE
  5
407
100
AcDbEntity
  8
RACCORDO
100
AcDbLine
 62
250
  6
CONTINUOUS
 10
-70.4391885368
 20
-14.712449739
 11
-70.4390011547
 21
-14.7684642998
  0
LINE
  5
408
100
AcDbEntity
  8
RACCORDO
100
AcDbLine
 62
250
  6
CONTINUOUS
 10
-70.4355759041
 20
14.35900402
 11
-70.4355759041
 21
-14.35900402
  0
LINE
  5
409
100
AcDbEntity
  8
RACCORDO
100
AcDbLine
 62
250
  6
CONTINUOUS
 10
-70.4390011547
 20
-14.6457000629
 11
-70.4391885368
 21
-14.712449739
  0
LINE
  5
40A
100
AcDbEntity
  8
RACCORDO
100
AcDbLine
 62
250
  6
CONTINUOUS
 10
-70.4380329251
 20
-14.5299562561
 11
-70.4390011547
 21
-14.6457000629
  0
LWPOLYLINE
  5
40B
100
AcDbEntity
  8
RACCORDO
100
AcDbPolyline
 62
250
  6
CONTINUOUS
 90
3
 70
0
 10
-70.4355759041
 20
-14.35900402
 10
-70.4363028712
 20
-14.4025668289
 10
-70.4380329251
 20
-14.5299562561
  0
LINE
  5
40C
100
AcDbEntity
  8
DRAFT
100
AcDbLine
 62
7
  6
CONTINUOUS
 10
-66.482555015
 20
-1.0275486401
 11
-68.082555015
 21
-1.0
  0
LINE
  5
40D
100
AcDbEntity
  8
DRAFT
100
AcDbLine
 62
7
  6
CONTINUOUS
 10
-68.982555015
 20
12.5
 11
-68.982555015
 21
7.5
  0
LINE
  5
40E
100
AcDbEntity
  8
DRAFT
100
AcDbLine
 62
7
  6
CONTINUOUS
 10
-68.982555015
 20
-12.5
 11
-68.982555015
 21
-7.5
  0
LINE
  5
40F
100
AcDbEntity
  8
RACCORDO
100
AcDbLine
 62
250
  6
CONTINUOUS
 10
-68.6877907369
 20
-12.5051451296
 11
-68.6877907369
 21
-7.4948548704
  0
LINE
  5
410
100
AcDbEntity
  8
RACCORDO
100
AcDbLine
 62
250
  6
CONTINUOUS
 10
-68.6877907369
 20
7.4948548704
 11
-68.6877907369
 21
12.5051451296
  0
LINE
  5
411
100
AcDbEntity
  8
DRAFT
100
AcDbLine
 62
7
  6
CONTINUOUS
 10
-68.082555015
 20
-14.9
 11
-68.082555015
 21
14.9
  0
LINE
  5
412
100
AcDbEntity
  8
DRAFT
100
AcDbLine
 62
7
  6
CONTINUOUS
 10
-66.482555015
 20
1.0275486401
 11
-68.082555015
 21
1.0
  0
LINE
  5
413
100
AcDbEntity
  8
DRAFT
100
AcDbLine
 62
7
  6
CONTINUOUS
 10
-66.482555015
 20
-14.8720718961
 11
-66.482555015
 21
-9.0
  0
LINE
  5
414
100
AcDbEntity
  8
DRAFT
100
AcDbLine
 62
7
  6
CONTINUOUS
 10
-66.482555015
 20
-6.0
 11
-66.482555015
 21
6.0
  0
LINE
  5
415
100
AcDbEntity
  8
DRAFT
100
AcDbLine
 62
7
  6
CONTINUOUS
 10
-66.482555015
 20
9.0
 11
-66.482555015
 21
14.8720718961
  0
LINE
  5
416
100
AcDbEntity
  8
DRAFT
100
AcDbLine
 62
7
  6
CONTINUOUS
 10
-65.982555015
 20
8.9912724675
 11
-65.982555015
 21
6.0087275325
  0
LINE
  5
417
100
AcDbEntity
  8
DRAFT
100
AcDbLine
 62
7
  6
CONTINUOUS
 10
-65.982555015
 20
-6.0087275325
 11
-65.982555015
 21
-8.9912724675
  0
LINE
  5
418
100
AcDbEntity
  8
DRAFT
100
AcDbLine
 62
7
  6
CONTINUOUS
 10
-65.682555015
 20
12.2360359481
 11
-65.682555015
 21
10.5041869364
  0
LINE
  5
419
100
AcDbEntity
  8
RACCORDO
100
AcDbLine
 62
7
  6
CONTINUOUS
 10
-65.682555015
 20
10.5041869364
 11
-65.682555015
 21
10.0139640519
  0
LINE
  5
41A
100
AcDbEntity
  8
RACCORDO
100
AcDbLine
 62
7
  6
CONTINUOUS
 10
-65.682555015
 20
4.9860359481
 11
-65.682555015
 21
2.7639640519
  0
LINE
  5
41B
100
AcDbEntity
  8
RACCORDO
100
AcDbLine
 62
7
  6
CONTINUOUS
 10
-65.682555015
 20
-2.7639640519
 11
-65.682555015
 21
-4.9860359481
  0
LINE
  5
41C
100
AcDbEntity
  8
RACCORDO
100
AcDbLine
 62
7
  6
CONTINUOUS
 10
-65.682555015
 20
-10.0139640519
 11
-65.682555015
 21
-10.5041869364
  0
LINE
  5
41D
100
AcDbEntity
  8
DRAFT
100
AcDbLine
 62
7
  6
CONTINUOUS
 10
-65.682555015
 20
-12.2360359481
 11
-65.682555015
 21
-10.5041869364
  0
LINE
  5
41E
100
AcDbEntity
  8
DRAFT
100
AcDbLine
 62
7
  6
CONTINUOUS
 10
-66.482555015
 20
2.75
 11
-65.682555015
 21
2.7639640519
  0
LWPOLYLINE
  5
41F
100
AcDbEntity
  8
0
100
AcDbPolyline
 62
7
  6
CONTINUOUS
 90
10
 70
0
 43
0.3500000006
 10
-78.3562642822
 20
24.1499979858
 10
-78.2848330994
 20
24.0071446838
 10
-78.2848330994
 20
23.935713501
 10
-78.4276864014
 20
23.7928556671
 10
-78.4991175842
 20
23.7928556671
 10
-78.5705487671
 20
23.86428685
 10
-78.5705487671
 20
23.935713501
 10
-78.4991175842
 20
24.0785713348
 10
-78.4276864014
 20
24.1499979858
 10
-78.3562642822
 20
24.1499979858
  0
LINE
  5
420
100
AcDbEntity
  8
DRAFT
100
AcDbLine
 62
7
  6
CONTINUOUS
 10
-66.482555015
 20
5.0
 11
-65.682555015
 21
4.9860359481
  0
LINE
  5
421
100
AcDbEntity
  8
RACCORDO
100
AcDbLine
 62
7
  6
CONTINUOUS
 10
-65.682555015
 20
4.9860359481
 11
-66.482555015
 21
5.0
  0
LINE
  5
422
100
AcDbEntity
  8
RACCORDO
100
AcDbLine
 62
250
  6
CONTINUOUS
 10
-65.682555015
 20
4.4958130636
 11
-66.482555015
 21
4.5113154139
  0
LWPOLYLINE
  5
423
100
AcDbEntity
  8
0
100
AcDbPolyline
 62
7
  6
CONTINUOUS
 90
10
 70
0
 43
0.3500000006
 10
-80.6987013245
 20
33.3958269653
 10
-80.6272701416
 20
33.2529691315
 10
-80.6272701416
 20
33.1815424805
 10
-80.7701325073
 20
33.0386846466
 10
-80.8415546265
 20
33.0386846466
 10
-80.9129858093
 20
33.1101112976
 10
-80.9129858093
 20
33.1815424805
 10
-80.8415546265
 20
33.3244003143
 10
-80.7701325073
 20
33.3958269653
 10
-80.6987013245
 20
33.3958269653
  0
LINE
  5
424
100
AcDbEntity
  8
DRAFT
100
AcDbLine
 62
7
  6
CONTINUOUS
 10
-66.482555015
 20
6.0
 11
-65.982555015
 21
6.0087275325
  0
LINE
  5
425
100
AcDbEntity
  8
DRAFT
100
AcDbLine
 62
7
  6
CONTINUOUS
 10
-68.082555015
 20
7.4842904416
 11
-68.982555015
 21
7.5
  0
LINE
  5
426
100
AcDbEntity
  8
DRAFT
100
AcDbLine
 62
7
  6
CONTINUOUS
 10
-66.482555015
 20
9.0
 11
-65.982555015
 21
8.9912724675
  0
LINE
  5
427
100
AcDbEntity
  8
RACCORDO
100
AcDbLine
 62
7
  6
CONTINUOUS
 10
-66.482555015
 20
10.0
 11
-65.682555015
 21
10.0139640519
  0
LINE
  5
428
100
AcDbEntity
  8
DRAFT
100
AcDbLine
 62
7
  6
CONTINUOUS
 10
-66.482555015
 20
10.0
 11
-65.682555015
 21
10.0139640519
  0
LINE
  5
429
100
AcDbEntity
  8
RACCORDO
100
AcDbLine
 62
250
  6
CONTINUOUS
 10
-66.482555015
 20
10.4886845861
 11
-65.682555015
 21
10.5041869364
  0
LINE
  5
42A
100
AcDbEntity
  8
DRAFT
100
AcDbLine
 62
7
  6
CONTINUOUS
 10
-66.482555015
 20
11.8084219849
 11
-65.682555015
 21
11.7994997051
  0
LINE
  5
42B
100
AcDbEntity
  8
DRAFT
100
AcDbLine
 62
7
  6
CONTINUOUS
 10
-66.482555015
 20
12.25
 11
-65.682555015
 21
12.2360359481
  0
LINE
  5
42C
100
AcDbEntity
  8
DRAFT
100
AcDbLine
 62
7
  6
CONTINUOUS
 10
-66.482555015
 20
12.1435439053
 11
-65.682555015
 21
12.1262202069
  0
LINE
  5
42D
100
AcDbEntity
  8
DRAFT
100
AcDbLine
 62
7
  6
CONTINUOUS
 10
-68.082555015
 20
12.5157095584
 11
-68.982555015
 21
12.5
  0
LWPOLYLINE
  5
42E
100
AcDbEntity
  8
RACCORDO
100
AcDbPolyline
 62
250
  6
CONTINUOUS
 90
19
 70
0
 10
-70.435575904
 20
14.8589278676
 10
-70.4785101995
 20
14.8563174198
 10
-70.5205268377
 20
14.8501130106
 10
-70.5617039285
 20
14.8403979202
 10
-70.6022388276
 20
14.8270942539
 10
-70.6419338875
 20
14.8101518117
 10
-70.6800776042
 20
14.7898117344
 10
-70.7162068751
 20
14.7663199323
 10
-70.750261373
 20
14.7397057874
 10
-70.7819569097
 20
14.7101925108
 10
-70.8108996292
 20
14.6781398489
 10
-70.8369068205
 20
14.6437624652
 10
-70.8599325623
 20
14.6071685304
 10
-70.8797303186
 20
14.5686921246
 10
-70.8960930626
 20
14.5287001948
 10
-70.9089848683
 20
14.4873639742
 10
-70.9182889
 20
14.4450008321
 10
-70.9238701424
 20
14.4020791223
 10
-70.9256928387
 20
14.35900402
  0
LINE
  5
42F
100
AcDbEntity
  8
RACCORDO
100
AcDbLine
 62
250
  6
CONTINUOUS
 10
-70.4355759041
 20
14.35900402
 11
-68.082555015
 21
14.4000761524
  0
LINE
  5
430
100
AcDbEntity
  8
RACCORDO
100
AcDbLine
 62
250
  6
CONTINUOUS
 10
-72.082555015
 20
14.3388310627
 11
-70.9256928387
 21
14.35900402
  0
LINE
  5
431
100
AcDbEntity
  8
RACCORDO
100
AcDbLine
 62
7
  6
CONTINUOUS
 10
-71.5912799758
 20
14.838754978
 11
-68.082555015
 21
14.9
  0
LINE
  5
432
100
AcDbEntity
  8
RACCORDO
100
AcDbLine
 62
250
  6
CONTINUOUS
 10
-70.4355759041
 20
14.35900402
 11
-70.9256928387
 21
14.35900402
  0
LWPOLYLINE
  5
433
100
AcDbEntity
  8
0
100
AcDbPolyline
 62
7
  6
CONTINUOUS
 90
7
 70
0
 43
0.3500000006
 10
-79.85626474
 20
23.6499978333
 10
-81.3562651978
 20
23.6499978333
 10
-79.85626474
 20
25.7928562775
 10
-79.85626474
 20
26.2214297791
 10
-80.2848337097
 20
26.6499987488
 10
-80.9276871643
 20
26.6499987488
 10
-81.3562651978
 20
26.0071407623
  0
LWPOLYLINE
  5
434
100
AcDbEntity
  8
0
100
AcDbPolyline
 62
7
  6
CONTINUOUS
 90
3
 70
0
 43
0.3500000006
 10
-75.7848323364
 20
24.2928558197
 10
-77.2848327942
 20
24.2928558197
 10
-76.6419793396
 20
26.6499987488
  0
LWPOLYLINE
  5
435
100
AcDbEntity
  8
0
100
AcDbPolyline
 62
7
  6
CONTINUOUS
 90
3
 70
0
 43
0.3500000006
 10
-78.1272693787
 20
33.5386847992
 10
-79.6272698364
 20
33.5386847992
 10
-78.9844163818
 20
35.8958277283
  0
LINE
  5
436
100
AcDbEntity
  8
DRAFT
100
AcDbLine
 62
7
  6
CONTINUOUS
 10
-66.482555015
 20
13.9724513599
 11
-68.082555015
 21
14.0
  0
LINE
  5
437
100
AcDbEntity
  8
DRAFT
100
AcDbLine
 62
7
  6
CONTINUOUS
 10
-66.482555015
 20
14.8720718961
 11
-68.082555015
 21
14.9
  0
ARC
  5
438
100
AcDbEntity
  8
DRAFT
100
AcDbCircle
 62
250
  6
CONTINUOUS
 10
38.0
 20
-7.5
 40
3.0328427125
100
AcDbArc
 50
311.9634093271
 51
48.0365906729
  0
ARC
  5
439
100
AcDbEntity
  8
DRAFT
100
AcDbCircle
 62
250
  6
CONTINUOUS
 10
38.0
 20
-7.5
 40
3.0328427125
100
AcDbArc
 50
131.9634093271
 51
228.0365906729
  0
ARC
  5
43A
100
AcDbEntity
  8
DRAFT
100
AcDbCircle
 62
250
  6
CONTINUOUS
 10
38.0
 20
7.5
 40
3.0328427125
100
AcDbArc
 50
311.9634093271
 51
48.0365906729
  0
ARC
  5
43B
100
AcDbEntity
  8
DRAFT
100
AcDbCircle
 62
250
  6
CONTINUOUS
 10
38.0
 20
7.5
 40
3.0328427125
100
AcDbArc
 50
131.9634093271
 51
228.0365906729
  0
ARC
  5
43C
100
AcDbEntity
  8
DRAFT
100
AcDbCircle
 62
250
  6
CONTINUOUS
 10
-38.0
 20
7.5
 40
3.0328427125
100
AcDbArc
 50
311.9634093271
 51
48.0365906729
  0
ARC
  5
43D
100
AcDbEntity
  8
DRAFT
100
AcDbCircle
 62
250
  6
CONTINUOUS
 10
-38.0
 20
7.5
 40
3.0328427125
100
AcDbArc
 50
131.9634093271
 51
228.0365906729
  0
ARC
  5
43E
100
AcDbEntity
  8
DRAFT
100
AcDbCircle
 62
250
  6
CONTINUOUS
 10
-38.0
 20
-7.5
 40
3.0328427125
100
AcDbArc
 50
311.9634093271
 51
48.0365906729
  0
ARC
  5
43F
100
AcDbEntity
  8
DRAFT
100
AcDbCircle
 62
250
  6
CONTINUOUS
 10
-38.0
 20
-7.5
 40
3.0328427125
100
AcDbArc
 50
131.9634093271
 51
228.0365906729
  0
ARC
  5
440
100
AcDbEntity
  8
RACCORDO
100
AcDbCircle
 62
7
  6
CONTINUOUS
 10
-38.0
 20
-7.5
 40
2.8328427125
100
AcDbArc
 50
135.612962686
 51
224.387037314
  0
ARC
  5
441
100
AcDbEntity
  8
RACCORDO
100
AcDbCircle
 62
7
  6
CONTINUOUS
 10
-38.0
 20
-7.5
 40
2.8328427125
100
AcDbArc
 50
315.612962686
 51
44.387037314
  0
ARC
  5
442
100
AcDbEntity
  8
RACCORDO
100
AcDbCircle
 62
7
  6
CONTINUOUS
 10
-38.0
 20
7.5
 40
2.8328427125
100
AcDbArc
 50
135.612962686
 51
224.387037314
  0
ARC
  5
443
100
AcDbEntity
  8
RACCORDO
100
AcDbCircle
 62
7
  6
CONTINUOUS
 10
-38.0
 20
7.5
 40
2.8328427125
100
AcDbArc
 50
315.612962686
 51
44.387037314
  0
ARC
  5
444
100
AcDbEntity
  8
RACCORDO
100
AcDbCircle
 62
7
  6
CONTINUOUS
 10
38.0
 20
7.5
 40
2.8328427125
100
AcDbArc
 50
135.612962686
 51
224.387037314
  0
ARC
  5
445
100
AcDbEntity
  8
RACCORDO
100
AcDbCircle
 62
7
  6
CONTINUOUS
 10
38.0
 20
7.5
 40
2.8328427125
100
AcDbArc
 50
315.612962686
 51
44.387037314
  0
ARC
  5
446
100
AcDbEntity
  8
RACCORDO
100
AcDbCircle
 62
7
  6
CONTINUOUS
 10
38.0
 20
-7.5
 40
2.8328427125
100
AcDbArc
 50
135.612962686
 51
224.387037314
  0
ARC
  5
447
100
AcDbEntity
  8
RACCORDO
100
AcDbCircle
 62
7
  6
CONTINUOUS
 10
38.0
 20
-7.5
 40
2.8328427125
100
AcDbArc
 50
315.612962686
 51
44.387037314
  0
ARC
  5
448
100
AcDbEntity
  8
DRAFT
100
AcDbCircle
 62
7
  6
CONTINUOUS
 10
-43.0
 20
-15.0
 40
1.0
100
AcDbArc
 50
5.7391704773
 51
90.0
  0
ARC
  5
449
100
AcDbEntity
  8
DRAFT
100
AcDbCircle
 62
7
  6
CONTINUOUS
 10
-43.0
 20
15.0
 40
1.0
100
AcDbArc
 50
270.0
 51
354.2608295227
  0
ARC
  5
44A
100
AcDbEntity
  8
DRAFT
100
AcDbCircle
 62
7
  6
CONTINUOUS
 10
43.0
 20
15.0
 40
1.0
100
AcDbArc
 50
185.7391704773
 51
270.0
  0
ARC
  5
44B
100
AcDbEntity
  8
DRAFT
100
AcDbCircle
 62
7
  6
CONTINUOUS
 10
43.0
 20
-15.0
 40
1.0
100
AcDbArc
 50
90.0
 51
174.2608295227
  0
ARC
  5
44C
100
AcDbEntity
  8
DRAFT
100
AcDbCircle
 62
7
  6
CONTINUOUS
 10
43.0
 20
0.0
 40
1.0
100
AcDbArc
 50
90.0
 51
270.0
  0
ARC
  5
44D
100
AcDbEntity
  8
DRAFT
100
AcDbCircle
 62
7
  6
CONTINUOUS
 10
-43.0
 20
-0.0
 40
1.0
100
AcDbArc
 50
270.0
 51
90.0
  0
ARC
  5
44E
100
AcDbEntity
  8
DRAFT
100
AcDbCircle
 62
7
  6
CONTINUOUS
 10
36.5
 20
-12.75
 40
0.5279281039
100
AcDbArc
 50
180.0
 51
360.0
  0
ARC
  5
44F
100
AcDbEntity
  8
DRAFT
100
AcDbCircle
 62
7
  6
CONTINUOUS
 10
39.5
 20
-12.75
 40
0.5279281039
100
AcDbArc
 50
180.0
 51
360.0
  0
ARC
  5
450
100
AcDbEntity
  8
DRAFT
100
AcDbCircle
 62
7
  6
CONTINUOUS
 10
39.5
 20
12.75
 40
0.5279281039
100
AcDbArc
 50
0.0
 51
180.0
  0
ARC
  5
451
100
AcDbEntity
  8
DRAFT
100
AcDbCircle
 62
7
  6
CONTINUOUS
 10
36.5
 20
12.75
 40
0.5279281039
100
AcDbArc
 50
0.0
 51
180.0
  0
ARC
  5
452
100
AcDbEntity
  8
DRAFT
100
AcDbCircle
 62
7
  6
CONTINUOUS
 10
-36.5
 20
12.75
 40
0.5279281039
100
AcDbArc
 50
0.0
 51
180.0
  0
ARC
  5
453
100
AcDbEntity
  8
DRAFT
100
AcDbCircle
 62
7
  6
CONTINUOUS
 10
-39.5
 20
12.75
 40
0.5279281039
100
AcDbArc
 50
0.0
 51
180.0
  0
ARC
  5
454
100
AcDbEntity
  8
DRAFT
100
AcDbCircle
 62
7
  6
CONTINUOUS
 10
-39.5
 20
-12.75
 40
0.5279281039
100
AcDbArc
 50
180.0
 51
360.0
  0
ARC
  5
455
100
AcDbEntity
  8
DRAFT
100
AcDbCircle
 62
7
  6
CONTINUOUS
 10
-36.5
 20
-12.75
 40
0.5279281039
100
AcDbArc
 50
180.0
 51
360.0
  0
ARC
  5
456
100
AcDbEntity
  8
DRAFT
100
AcDbCircle
 62
7
  6
CONTINUOUS
 10
-36.5
 20
-12.75
 40
0.5
100
AcDbArc
 50
180.0
 51
360.0
  0
ARC
  5
457
100
AcDbEntity
  8
DRAFT
100
AcDbCircle
 62
7
  6
CONTINUOUS
 10
-39.5
 20
-12.75
 40
0.5
100
AcDbArc
 50
180.0
 51
360.0
  0
ARC
  5
458
100
AcDbEntity
  8
DRAFT
100
AcDbCircle
 62
7
  6
CONTINUOUS
 10
-39.5
 20
12.75
 40
0.5
100
AcDbArc
 50
0.0
 51
180.0
  0
ARC
  5
459
100
AcDbEntity
  8
DRAFT
100
AcDbCircle
 62
7
  6
CONTINUOUS
 10
-36.5
 20
12.75
 40
0.5
100
AcDbArc
 50
0.0
 51
180.0
  0
ARC
  5
45A
100
AcDbEntity
  8
DRAFT
100
AcDbCircle
 62
7
  6
CONTINUOUS
 10
39.5
 20
-12.75
 40
0.5
100
AcDbArc
 50
180.0
 51
360.0
  0
ARC
  5
45B
100
AcDbEntity
  8
DRAFT
100
AcDbCircle
 62
7
  6
CONTINUOUS
 10
36.5
 20
-12.75
 40
0.5
100
AcDbArc
 50
180.0
 51
360.0
  0
ARC
  5
45C
100
AcDbEntity
  8
DRAFT
100
AcDbCircle
 62
7
  6
CONTINUOUS
 10
36.5
 20
12.75
 40
0.5
100
AcDbArc
 50
0.0
 51
180.0
  0
ARC
  5
45D
100
AcDbEntity
  8
DRAFT
100
AcDbCircle
 62
7
  6
CONTINUOUS
 10
39.5
 20
12.75
 40
0.5
100
AcDbArc
 50
0.0
 51
180.0
  0
ARC
  5
45E
100
AcDbEntity
  8
RACCORDO
100
AcDbCircle
 62
7
  6
CONTINUOUS
 10
-71.5825537727
 20
-14.3388311304
 40
0.5
100
AcDbArc
 50
180.0000000048
 51
269.0
  0
ARC
  5
45F
100
AcDbEntity
  8
RACCORDO
100
AcDbCircle
 62
7
  6
CONTINUOUS
 10
-71.5825537726
 20
14.3388311304
 40
0.5
100
AcDbArc
 50
91.0
 51
179.9999999952
  0
ELLIPSE
  5
460
100
AcDbEntity
  8
RACCORDO
100
AcDbEllipse
 62
7
  6
CONTINUOUS
 10
33.999923836
 20
-14.399923836
 30
0.0
 11
-0.3536610946
 21
0.3536610946
 31
0.0
 40
0.9996954599
 41
-3.9268385237
 42
-2.3563467834
  0
ELLIPSE
  5
461
100
AcDbEntity
  8
RACCORDO
100
AcDbEllipse
 62
7
  6
CONTINUOUS
 10
33.999923836
 20
14.399923836
 30
0.0
 11
0.3536610946
 21
0.3536610946
 31
0.0
 40
0.9996954599
 41
-0.7852458701
 42
0.7852458701
  0
ELLIPSE
  5
462
100
AcDbEntity
  8
RACCORDO
100
AcDbEllipse
 62
7
  6
CONTINUOUS
 10
-33.999923836
 20
14.399923836
 30
0.0
 11
0.3536610946
 21
-0.3536610946
 31
0.0
 40
0.9996954599
 41
2.3563467834
 42
3.9268385237
  0
ELLIPSE
  5
463
100
AcDbEntity
  8
RACCORDO
100
AcDbEllipse
 62
7
  6
CONTINUOUS
 10
-33.999923836
 20
-14.399923836
 30
0.0
 11
0.3536610946
 21
0.3536610946
 31
0.0
 40
0.9996954599
 41
2.3563467834
 42
3.9268385237
  0
ENDSEC
  0
SECTION
  2
OBJECTS
  0
DICTIONARY
  5
C
100
AcDbDictionary
280
0
281
1
  3
ACAD_GROUP
350
D
  3
ACAD_MLINESTYLE
350
17
  3
ACAD_LAYOUT
350
1A
  3
ACAD_PLOTSETTINGS
350
19
  3
ACAD_PLOTSTYLENAME
350
E
  0
DICTIONARY
  5
D
102
{ACAD_REACTORS
330
C
102
}
100
AcDbDictionary
280
0
281
1
  0
ACDBDICTIONARYWDFLT
  5
E
102
{ACAD_REACTORS
330
C
102
}
100
AcDbDictionary
281
1
  3
Normal
350
F
100
AcDbDictionaryWithDefault
340
F
  0
DICTIONARY
  5
17
102
{ACAD_REACTORS
330
C
102
}
100
AcDbDictionary
280
0
281
1
  3
Standard
350
18
  0
DICTIONARY
  5
19
102
{ACAD_REACTORS
330
C
102
}
100
AcDbDictionary
281
1
  0
DICTIONARY
  5
1A
102
{ACAD_REACTORS
330
C
102
}
100
AcDbDictionary
281
1
  3
Model
350
464
  3
Layout1
350
465
  0
ACDBPLACEHOLDER
  5
F
102
{ACAD_REACTORS
330
E
102
}
  0
MLINESTYLE
  5
18
102
{ACAD_REACTORS
330
17
102
}
100
AcDbMlineStyle
  2
STANDARD
 70
0
  3

 62
256
 51
90.0
 52
90.0
 71
2
 49
0.5
 62
256
  6
BYLAYER
 49
-0.5
 62
256
  6
BYLAYER
  0
LAYOUT
  5
464
102
{ACAD_REACTORS
330
1A
102
}
100
AcDbPlotSettings
  1

  2
none_device
  4
ISO_A4_(297.00_x_210.00_MM)
  6

 40
0.0
 41
0.0
 42
0.0
 43
0.0
 44
297.0
 45
210.0
 46
0.0
 47
0.0
 48
0.0
 49
0.0
140
0.0
141
0.0
142
1.0
143
1.0
 70
1024
 72
1
 73
0
 74
0
  7

 75
0
147
1.0
148
0.0
149
0.0
100
AcDbLayout
  1
Model
 70
0
 71
0
 10
0.0
 20
0.0
 11
297.0
 21
210.0
 12
0.0
 22
0.0
 32
0.0
 14
0.0
 24
0.0
 34
0.0
 15
0.0
 25
0.0
 35
0.0
146
0.0
 13
0.0
 23
0.0
 33
0.0
 16
1.0
 26
0.0
 36
0.0
 17
0.0
 27
1.0
 37
0.0
 76
0
330
20F
345
0
346
0
  0
LAYOUT
  5
465
102
{ACAD_REACTORS
330
1A
102
}
100
AcDbPlotSettings
  1

  2
none_device
  4
ISO_A4_(297.00_x_210.00_MM)
  6

 40
0.0
 41
0.0
 42
0.0
 43
0.0
 44
297.0
 45
210.0
 46
0.0
 47
0.0
 48
0.0
 49
0.0
140
0.0
141
0.0
142
1.0
143
1.0
 70
0
 72
1
 73
0
 74
0
  7

 75
0
147
1.0
148
0.0
149
0.0
100
AcDbLayout
  1
Layout1
 70
0
 71
1
 10
0.0
 20
0.0
 11
297.0
 21
210.0
 12
0.0
 22
0.0
 32
0.0
 14
0.0
 24
0.0
 34
0.0
 15
0.0
 25
0.0
 35
0.0
146
0.0
 13
0.0
 23
0.0
 33
0.0
 16
1.0
 26
0.0
 36
0.0
 17
0.0
 27
1.0
 37
0.0
 76
0
330
210
345
0
346
0
  0
ENDSEC
  0
EOF
