  0
SECTION
  2
HEADER
  9
$ACADVER
  1
AC1024
  9
$DWGCODEPAGE
  3
ANSI_1252
  9
$EXTMAX
 10
297.0
 20
210.0
 30
0.0
  9
$EXTMIN
 10
0.0
 20
0.0
 30
0.0
  9
$LIMMIN
 10
0.0
 20
0.0
  9
$LIMMAX
 10
297.0
 20
210.0
  9
$VIEWCTR
 10
148.5
 20
105.0
  9
$VIEWSIZE
 40
210.0
  9
$CLAYER
  8
0
  9
$LTSCALE
 40
16.335
  9
$CELTYPE
  6
BYLAYER
  9
$DIMSCALE
 40
1.0
  9
$DIMASZ
 40
3.0
  9
$DIMEXO
 40
0.5
  9
$DIMDLI
 40
11.286
  9
$DIMEXE
 40
1.5
  9
$DIMCEN
 40
2.673
  9
$DIMLFAC
 40
1.0
  9
$DIMBLK
  1
_FILLED
  9
$DIMALT
 70
0
  9
$DIMALTF
 40
0.0393700787
  9
$DIMTXT
 40
3.0
  9
$DIMTOL
 70
1
  9
$DIMLIM
 70
0
  9
$DIMTFAC
 40
1.0
  9
$DIMTP
 40
0.01
  9
$DIMTM
 40
0.01
  9
$DIMGAP
 40
0.625
  9
$DIMDSEP
 70
44
  9
$AUNITS
 70
0
  9
$PDMODE
 70
3
  9
$PDSIZE
 40
3.0
  9
$HANDSEED
  5
47B
  9
$TILEMODE
 70
1
  9
$MEASUREMENT
 70
1
  9
$INSUNITS
 70
4
  0
ENDSEC
  0
SECTION
  2
CLASSES
  0
CLASS
  1
ACDBDICTIONARYWDFLT
  2
AcDbDictionaryWithDefault
  3
AutoCAD 2000
 90
0
 91
1
280
0
281
0
  0
CLASS
  1
ACDBPLACEHOLDER
  2
AcDbPlaceHolder
  3
AutoCAD 2000
 90
0
 91
1
280
0
281
0
  0
CLASS
  1
LAYOUT
  2
AcDbLayout
  3
AutoCAD 2000
 90
0
 91
0
280
0
281
0
  0
ENDSEC
  0
SECTION
  2
TABLES
  0
TABLE
  2
VPORT
  5
8
100
AcDbSymbolTable
 70
2
  0
VPORT
  5
1F4
100
AcDbSymbolTableRecord
100
AcDbViewportTableRecord
  2
*ACTIVE
 70
0
 10
0.0
 20
0.0
 11
1.0
 21
1.0
 12
148.5
 22
105.0
 13
0.0
 23
0.0
 14
1.0
 24
1.0
 15
0.0
 25
0.0
 16
0.0
 26
0.0
 36
1.0
 17
0.0
 27
0.0
 37
0.0
 40
210.0
 41
1.4142857143
 42
50.0
 43
0.0
 44
0.0
 50
0.0
 51
0.0
 71
0
 72
100
 73
1
 74
1
 75
0
 76
0
 77
0
 78
0
  0
ENDTAB
  0
TABLE
  2
LTYPE
  5
5
100
AcDbSymbolTable
 70
6
  0
LTYPE
  5
14
100
AcDbSymbolTableRecord
100
AcDbLinetypeTableRecord
  2
BYBLOCK
 70
0
  3

 72
65
 73
0
 40
0.0
  0
LTYPE
  5
15
100
AcDbSymbolTableRecord
100
AcDbLinetypeTableRecord
  2
BYLAYER
 70
0
  3

 72
65
 73
0
 40
0.0
  0
LTYPE
  5
16
100
AcDbSymbolTableRecord
100
AcDbLinetypeTableRecord
  2
CONTINUOUS
 70
64
  3
Solid line
 72
65
 73
0
 40
0.0
  0
LTYPE
  5
1F5
100
AcDbSymbolTableRecord
100
AcDbLinetypeTableRecord
  2
CENTER
 70
64
  3
____ _ ____ _ ____ _ ____ _ ____ _ ____ _ ____
 72
65
 73
4
 40
0.6
 49
0.375
 74
0
 49
-0.075
 74
0
 49
0.075
 74
0
 49
-0.075
 74
0
  0
LTYPE
  5
1F6
100
AcDbSymbolTableRecord
100
AcDbLinetypeTableRecord
  2
HIDDEN
 70
64
  3
- - - - - - - - - - - - - - - - - - - -
 72
65
 73
2
 40
0.2
 49
0.1
 74
0
 49
-0.1
 74
0
  0
LTYPE
  5
1F7
100
AcDbSymbolTableRecord
100
AcDbLinetypeTableRecord
  2
PHANTOM
 70
64
  3
_____ _ _ _____ _ _ _____ _ _ _____
 72
65
 73
6
 40
0.8
 49
0.45
 74
0
 49
-0.05
 74
0
 49
0.1
 74
0
 49
-0.05
 74
0
 49
0.1
 74
0
 49
-0.05
 74
0
  0
LTYPE
  5
1F8
100
AcDbSymbolTableRecord
100
AcDbLinetypeTableRecord
  2
DOT
 70
64
  3
. . . . . . . . . . . . . . . . . . . .
 72
65
 73
2
 40
0.2
 49
0.1
 74
0
 49
-0.1
 74
0
  0
LTYPE
  5
1F9
100
AcDbSymbolTableRecord
100
AcDbLinetypeTableRecord
  2
DASHED
 70
64
  3
- - - - - - - - - - - - - - - - - - - -
 72
65
 73
2
 40
0.2
 49
0.1
 74
0
 49
-0.1
 74
0
  0
ENDTAB
  0
TABLE
  2
LAYER
  5
2
100
AcDbSymbolTable
 70
36
  0
LAYER
  5
10
100
AcDbSymbolTableRecord
100
AcDbLayerTableRecord
  2
0
 70
0
 62
7
  6
CONTINUOUS
370
-3
390
F
  0
LAYER
  5
1FA
100
AcDbSymbolTableRecord
100
AcDbLayerTableRecord
  2
DEFAULT_1
 70
0
 62
7
  6
CENTER
370
-3
390
F
  0
LAYER
  5
1FB
100
AcDbSymbolTableRecord
100
AcDbLayerTableRecord
  2
DEFAULT_2
 70
0
 62
7
  6
HIDDEN
370
-3
390
F
  0
LAYER
  5
1FC
100
AcDbSymbolTableRecord
100
AcDbLayerTableRecord
  2
DEFAULT_3
 70
0
 62
7
  6
PHANTOM
370
-3
390
F
  0
LAYER
  5
1FD
100
AcDbSymbolTableRecord
100
AcDbLayerTableRecord
  2
ASSI
 70
0
 62
7
  6
CONTINUOUS
370
-3
390
F
  0
LAYER
  5
1FE
100
AcDbSymbolTableRecord
100
AcDbLayerTableRecord
  2
COORDINATE
 70
0
 62
7
  6
CONTINUOUS
370
-3
390
F
  0
LAYER
  5
1FF
100
AcDbSymbolTableRecord
100
AcDbLayerTableRecord
  2
COPY_PUBLISH
 70
0
 62
7
  6
CONTINUOUS
370
-3
390
F
  0
LAYER
  5
200
100
AcDbSymbolTableRecord
100
AcDbLayerTableRecord
  2
COSMETICI
 70
0
 62
7
  6
CONTINUOUS
370
-3
390
F
  0
LAYER
  5
201
100
AcDbSymbolTableRecord
100
AcDbLayerTableRecord
  2
CURVE
 70
0
 62
7
  6
CONTINUOUS
370
-3
390
F
  0
LAYER
  5
202
100
AcDbSymbolTableRecord
100
AcDbLayerTableRecord
  2
DRAFT
 70
0
 62
7
  6
CONTINUOUS
370
-3
390
F
  0
LAYER
  5
203
100
AcDbSymbolTableRecord
100
AcDbLayerTableRecord
  2
IMPORT_IGES
 70
0
 62
7
  6
CONTINUOUS
370
-3
390
F
  0
LAYER
  5
204
100
AcDbSymbolTableRecord
100
AcDbLayerTableRecord
  2
NOTE
 70
0
 62
7
  6
CONTINUOUS
370
-3
390
F
  0
LAYER
  5
205
100
AcDbSymbolTableRecord
100
AcDbLayerTableRecord
  2
PIANI
 70
0
 62
7
  6
CONTINUOUS
370
-3
390
F
  0
LAYER
  5
206
100
AcDbSymbolTableRecord
100
AcDbLayerTableRecord
  2
PUNTI
 70
0
 62
7
  6
CONTINUOUS
370
-3
390
F
  0
LAYER
  5
207
100
AcDbSymbolTableRecord
100
AcDbLayerTableRecord
  2
RACCORDO
 70
0
 62
7
  6
CONTINUOUS
370
-3
390
F
  0
LAYER
  5
208
100
AcDbSymbolTableRecord
100
AcDbLayerTableRecord
  2
SIMBOLI
 70
0
 62
7
  6
CONTINUOUS
370
-3
390
F
  0
LAYER
  5
209
100
AcDbSymbolTableRecord
100
AcDbLayerTableRecord
  2
SMUSSO
 70
0
 62
7
  6
CONTINUOUS
370
-3
390
F
  0
LAYER
  5
20A
100
AcDbSymbolTableRecord
100
AcDbLayerTableRecord
  2
SNAPLINE
 70
0
 62
7
  6
CONTINUOUS
370
-3
390
F
  0
LAYER
  5
20B
100
AcDbSymbolTableRecord
100
AcDbLayerTableRecord
  2
SUPERFICI
 70
0
 62
7
  6
CONTINUOUS
370
-3
390
F
  0
LAYER
  5
20C
100
AcDbSymbolTableRecord
100
AcDbLayerTableRecord
  2
TRASH
 70
0
 62
7
  6
CONTINUOUS
370
-3
390
F
  0
ENDTAB
  0
TABLE
  2
STYLE
  5
3
100
AcDbSymbolTable
 70
1
  0
STYLE
  5
11
100
AcDbSymbolTableRecord
100
AcDbTextStyleTableRecord
  2
STANDARD
 70
0
 40
0.0
 41
0.8
 50
0.0
 71
0
 42
0.2
  3
txt
  4

  0
STYLE
  5
20D
100
AcDbSymbolTableRecord
100
AcDbTextStyleTableRecord
  2
TEXTSTYLE_1
 70
0
 40
0.0
 41
0.8
 50
0.0
 71
0
 42
0.2
  3
gdt
  4

  0
ENDTAB
  0
TABLE
  2
VIEW
  5
6
100
AcDbSymbolTable
 70
0
  0
ENDTAB
  0
TABLE
  2
UCS
  5
7
100
AcDbSymbolTable
 70
0
  0
ENDTAB
  0
TABLE
  2
APPID
  5
9
100
AcDbSymbolTable
 70
1
  0
APPID
  5
20E
100
AcDbSymbolTableRecord
100
AcDbRegAppTableRecord
  2
ACAD
 70
0
  0
ENDTAB
  0
TABLE
  2
BLOCK_RECORD
  5
1
100
AcDbSymbolTable
 70
0
  0
BLOCK_RECORD
  5
20F
100
AcDbSymbolTableRecord
100
AcDbBlockTableRecord
  2
*Model_Space
  0
BLOCK_RECORD
  5
210
100
AcDbSymbolTableRecord
100
AcDbBlockTableRecord
  2
*Paper_Space
  0
BLOCK_RECORD
  5
211
100
AcDbSymbolTableRecord
100
AcDbBlockTableRecord
  2
_FILLED
  0
BLOCK_RECORD
  5
212
100
AcDbSymbolTableRecord
100
AcDbBlockTableRecord
  2
*D0
  0
BLOCK_RECORD
  5
213
100
AcDbSymbolTableRecord
100
AcDbBlockTableRecord
  2
*D1
  0
BLOCK_RECORD
  5
214
100
AcDbSymbolTableRecord
100
AcDbBlockTableRecord
  2
*D2
  0
BLOCK_RECORD
  5
215
100
AcDbSymbolTableRecord
100
AcDbBlockTableRecord
  2
*D3
  0
ENDTAB
  0
TABLE
  2
DIMSTYLE
  5
A
100
AcDbSymbolTable
 70
1
100
AcDbDimStyleTable
 71
0
  0
DIMSTYLE
105
216
100
AcDbSymbolTableRecord
100
AcDbDimStyleTableRecord
  2
STANDARD
 70
0
  3

  4

 40
1.0
 41
3.0
 42
0.5
 43
0.38
 44
1.5
 45
0.0
 46
0.0
 47
0.01
 48
0.01
140
3.0
141
0.09
142
0.0
143
25.4
144
1.0
145
0.0
146
1.0
147
0.625
 71
1
 72
0
 73
0
 74
0
 75
0
 76
0
 77
1
 78
8
 79
2
170
0
171
1
172
0
173
0
174
0
175
0
176
0
177
0
178
0
270
2
179
2
271
2
272
2
273
2
274
2
275
0
280
0
281
0
282
0
283
1
284
8
285
0
286
0
287
3
288
0
340
11
278
44
341
211
342
211
343
211
344
211
  0
DIMSTYLE
105
217
100
AcDbSymbolTableRecord
100
AcDbDimStyleTableRecord
  2
DIMSTYLE_1
 70
0
  3

  4

 40
1.0
 41
3.0
 42
0.5
 43
0.38
 44
1.5
 45
0.0
 46
0.0
 47
0.0
 48
0.0
140
3.0
141
0.09
142
0.0
143
25.4
144
1.0
145
0.0
146
1.0
147
0.75
 71
0
 72
0
 73
0
 74
0
 75
0
 76
0
 77
1
 78
8
 79
2
170
0
171
1
172
0
173
0
174
0
175
0
176
0
177
0
178
0
270
2
179
2
271
2
272
2
273
2
274
2
275
0
280
0
281
0
282
0
283
1
284
8
285
0
286
0
287
3
288
0
340
11
278
44
341
211
342
211
343
211
344
211
  0
ENDTAB
  0
ENDSEC
  0
SECTION
  2
BLOCKS
  0
BLOCK
  5
20
100
AcDbEntity
  8
0
100
AcDbBlockBegin
  2
*Model_Space
 70
0
 10
0.0
 20
0.0
 30
0.0
  3
*Model_Space
  1

  0
ENDBLK
  5
21
100
AcDbEntity
  8
0
100
AcDbBlockEnd
  0
BLOCK
  5
1C
100
AcDbEntity
  8
0
100
AcDbBlockBegin
  2
*Paper_Space
 70
0
 10
0.0
 20
0.0
 30
0.0
  3
*Paper_Space
  1

  0
ENDBLK
  5
1D
100
AcDbEntity
  8
0
100
AcDbBlockEnd
  0
BLOCK
  5
218
100
AcDbEntity
  8
0
100
AcDbBlockBegin
  2
_FILLED
 70
64
 10
0.0
 20
0.0
  3
_FILLED
  1

  0
SOLID
  5
219
100
AcDbEntity
  8
0
  6
BYBLOCK
 62
0
100
AcDbTrace
 10
0.0
 20
0.0
 11
-1.0
 21
0.3166666667
 12
-1.0
 22
-0.3166666667
 13
-1.0
 23
-0.3166666667
  0
ENDBLK
  5
21A
100
AcDbEntity
  8
0
  6
BYBLOCK
 62
0
100
AcDbBlockEnd
  0
BLOCK
  5
21B
100
AcDbEntity
  8
0
100
AcDbBlockBegin
 62
7
  6
CONTINUOUS
  2
*D0
 70
65
 10
0.0
 20
0.0
  3
*D0
  1

  0
MTEXT
  5
21C
100
AcDbEntity
  8
0
100
AcDbMText
 62
7
  6
CONTINUOUS
  7
STANDARD
 71
2
 72
1
 10
-0.0
 20
41.65
 30
0.0
 11
1.0
 21
0.0
 31
0.0
 73
2
 44
0.9
  1
{\ftxt;\W0.0001;\H0.0001;\~}{\ftxt;\W1.5714285714;\H3.0; }{\ftxt;\W0.0001;\H0.0001;\~}
 40
3.0
 41
7.0714285714
  0
LINE
  5
21D
100
AcDbEntity
  8
0
100
AcDbLine
 62
7
  6
CONTINUOUS
 10
-43.0
 20
29.5
 11
-43.0
 21
39.4
  0
LINE
  5
21E
100
AcDbEntity
  8
0
100
AcDbLine
 62
7
  6
CONTINUOUS
 10
43.0
 20
29.5
 11
43.0
 21
39.4
  0
LINE
  5
21F
100
AcDbEntity
  8
0
100
AcDbLine
 62
7
  6
CONTINUOUS
 10
-43.0
 20
37.9
 11
-0.0
 21
37.9
  0
LINE
  5
220
100
AcDbEntity
  8
0
100
AcDbLine
 62
7
  6
CONTINUOUS
 10
43.0
 20
37.9
 11
-0.0
 21
37.9
  0
INSERT
  5
221
100
AcDbEntity
  8
0
100
AcDbBlockReference
 62
7
  6
CONTINUOUS
  2
_FILLED
 10
-43.0
 20
37.9
 41
3.0
 42
3.0
 43
3.0
 50
180.0
  0
INSERT
  5
222
100
AcDbEntity
  8
0
100
AcDbBlockReference
 62
7
  6
CONTINUOUS
  2
_FILLED
 10
43.0
 20
37.9
 41
3.0
 42
3.0
 43
3.0
 50
0.0
  0
ENDBLK
  5
223
100
AcDbEntity
  8
0
  6
BYBLOCK
 62
0
100
AcDbBlockEnd
  0
BLOCK
  5
224
100
AcDbEntity
  8
0
100
AcDbBlockBegin
 62
7
  6
CONTINUOUS
  2
*D1
 70
65
 10
0.0
 20
0.0
  3
*D1
  1

  0
MTEXT
  5
225
100
AcDbEntity
  8
0
100
AcDbMText
 62
7
  6
CONTINUOUS
  7
STANDARD
 71
2
 72
1
 10
47.25
 20
0.0
 30
0.0
 11
0.0
 21
1.0
 31
0.0
 73
2
 44
0.9
  1
{\ftxt;\W0.0001;\H0.0001;\~}{\ftxt;\W2.8571428571;\H3.0; }{\ftxt;\W0.0001;\H0.0001;\~}
 40
3.0
 41
12.8571428571
  0
LINE
  5
226
100
AcDbEntity
  8
0
100
AcDbLine
 62
7
  6
CONTINUOUS
 10
42.5050125629
 20
29.9
 11
52.5
 21
29.9
  0
LINE
  5
227
100
AcDbEntity
  8
0
100
AcDbLine
 62
7
  6
CONTINUOUS
 10
42.5050125629
 20
-29.9
 11
52.5
 21
-29.9
  0
LINE
  5
228
100
AcDbEntity
  8
0
100
AcDbLine
 62
7
  6
CONTINUOUS
 10
51.0
 20
29.9
 11
51.0
 21
0.0
  0
LINE
  5
229
100
AcDbEntity
  8
0
100
AcDbLine
 62
7
  6
CONTINUOUS
 10
51.0
 20
-29.9
 11
51.0
 21
0.0
  0
INSERT
  5
22A
100
AcDbEntity
  8
0
100
AcDbBlockReference
 62
7
  6
CONTINUOUS
  2
_FILLED
 10
51.0
 20
29.9
 41
3.0
 42
3.0
 43
3.0
 50
90.0
  0
INSERT
  5
22B
100
AcDbEntity
  8
0
100
AcDbBlockReference
 62
7
  6
CONTINUOUS
  2
_FILLED
 10
51.0
 20
-29.9
 41
3.0
 42
3.0
 43
3.0
 50
270.0
  0
ENDBLK
  5
22C
100
AcDbEntity
  8
0
  6
BYBLOCK
 62
0
100
AcDbBlockEnd
  0
BLOCK
  5
22D
100
AcDbEntity
  8
0
100
AcDbBlockBegin
 62
7
  6
CONTINUOUS
  2
*D2
 70
65
 10
0.0
 20
0.0
  3
*D2
  1

  0
MTEXT
  5
22E
100
AcDbEntity
  8
0
100
AcDbMText
 62
7
  6
CONTINUOUS
  7
STANDARD
 71
3
 72
1
 10
-86.596420241
 20
41.65
 30
0.0
 11
1.0
 21
0.0
 31
0.0
 73
2
 44
0.9
  1
{\ftxt;\W0.0001;\H0.0001;\~}{\ftxt;\W2.1428571429;\H3.0; }{\ftxt;\W0.0001;\H0.0001;\~}
 40
3.0
 41
9.6428571429
  0
LINE
  5
22F
100
AcDbEntity
  8
0
100
AcDbLine
 62
7
  6
CONTINUOUS
 10
-79.5387165559
 20
29.5
 11
-79.5387165559
 21
39.4
  0
LINE
  5
230
100
AcDbEntity
  8
0
100
AcDbLine
 62
7
  6
CONTINUOUS
 10
-77.1387165559
 20
27.6262202069
 11
-77.1387165559
 21
39.4
  0
LINE
  5
231
100
AcDbEntity
  8
0
100
AcDbLine
 62
7
  6
CONTINUOUS
 10
-79.5387165559
 20
37.9
 11
-93.0249916696
 21
37.9
  0
LINE
  5
232
100
AcDbEntity
  8
0
100
AcDbLine
 62
7
  6
CONTINUOUS
 10
-93.0249916696
 20
37.9
 11
-78.3387165559
 21
37.9
  0
LINE
  5
233
100
AcDbEntity
  8
0
100
AcDbLine
 62
7
  6
CONTINUOUS
 10
-77.1387165559
 20
37.9
 11
-73.1387165559
 21
37.9
  0
LINE
  5
234
100
AcDbEntity
  8
0
100
AcDbLine
 62
7
  6
CONTINUOUS
 10
-73.1387165559
 20
37.9
 11
-78.3387165559
 21
37.9
  0
INSERT
  5
235
100
AcDbEntity
  8
0
100
AcDbBlockReference
 62
7
  6
CONTINUOUS
  2
_FILLED
 10
-79.5387165559
 20
37.9
 41
3.0
 42
3.0
 43
3.0
  0
INSERT
  5
236
100
AcDbEntity
  8
0
100
AcDbBlockReference
 62
7
  6
CONTINUOUS
  2
_FILLED
 10
-77.1387165559
 20
37.9
 41
3.0
 42
3.0
 43
3.0
 50
180.0
  0
ENDBLK
  5
237
100
AcDbEntity
  8
0
  6
BYBLOCK
 62
0
100
AcDbBlockEnd
  0
BLOCK
  5
238
100
AcDbEntity
  8
0
100
AcDbBlockBegin
 62
7
  6
CONTINUOUS
  2
*D3
 70
65
 10
0.0
 20
0.0
  3
*D3
  1

  0
MTEXT
  5
239
100
AcDbEntity
  8
0
100
AcDbMText
 62
7
  6
CONTINUOUS
  7
STANDARD
 71
3
 72
1
 10
-87.423007632
 20
51.65
 30
0.0
 11
1.0
 21
0.0
 31
0.0
 73
2
 44
0.9
  1
{\ftxt;\W0.0001;\H0.0001;\~}{\ftxt;\W2.1428571429;\H3.0; }{\ftxt;\W0.0001;\H0.0001;\~}
 40
3.0
 41
9.6428571429
  0
LINE
  5
23A
100
AcDbEntity
  8
0
100
AcDbLine
 62
7
  6
CONTINUOUS
 10
-83.5387165559
 20
29.8388311305
 11
-83.5387165559
 21
49.4
  0
LINE
  5
23B
100
AcDbEntity
  8
0
100
AcDbLine
 62
7
  6
CONTINUOUS
 10
-77.1387165559
 20
27.2994997051
 11
-77.1387165559
 21
49.4
  0
LINE
  5
23C
100
AcDbEntity
  8
0
100
AcDbLine
 62
7
  6
CONTINUOUS
 10
-83.5387165559
 20
47.9
 11
-93.8515790605
 21
47.9
  0
LINE
  5
23D
100
AcDbEntity
  8
0
100
AcDbLine
 62
7
  6
CONTINUOUS
 10
-93.8515790605
 20
47.9
 11
-80.3387165559
 21
47.9
  0
LINE
  5
23E
100
AcDbEntity
  8
0
100
AcDbLine
 62
7
  6
CONTINUOUS
 10
-77.1387165559
 20
47.9
 11
-73.1387165559
 21
47.9
  0
LINE
  5
23F
100
AcDbEntity
  8
0
100
AcDbLine
 62
7
  6
CONTINUOUS
 10
-73.1387165559
 20
47.9
 11
-80.3387165559
 21
47.9
  0
INSERT
  5
240
100
AcDbEntity
  8
0
100
AcDbBlockReference
 62
7
  6
CONTINUOUS
  2
_FILLED
 10
-83.5387165559
 20
47.9
 41
3.0
 42
3.0
 43
3.0
  0
INSERT
  5
241
100
AcDbEntity
  8
0
100
AcDbBlockReference
 62
7
  6
CONTINUOUS
  2
_FILLED
 10
-77.1387165559
 20
47.9
 41
3.0
 42
3.0
 43
3.0
 50
180.0
  0
ENDBLK
  5
242
100
AcDbEntity
  8
0
  6
BYBLOCK
 62
0
100
AcDbBlockEnd
  0
ENDSEC
  0
SECTION
  2
ENTITIES
  0
DIMENSION
  5
243
100
AcDbEntity
  8
0
100
AcDbDimension
 62
7
  6
CONTINUOUS
  2
*D0
 10
43.0
 20
37.9
 11
-0.4285713773
 21
37.9
 70
160
 71
2
 72
2
 41
0.9
 42
86.0
  1
{\ftxt;\W0.0001;\H0.0001;\~}{\ftxt;\W1.5714285714;\H3.0; }{\ftxt;\W0.0001;\H0.0001;\~}
  3
DIMSTYLE_1
100
AcDbAlignedDimension
 13
-43.0
 23
29.0
 14
43.0
 24
29.0
100
AcDbRotatedDimension
  0
DIMENSION
  5
244
100
AcDbEntity
  8
0
100
AcDbDimension
 62
7
  6
CONTINUOUS
  2
*D1
 10
51.0
 20
-29.9
 11
51.0
 21
-0.4285714253
 70
160
 71
2
 72
2
 41
0.9
 42
59.8
  1
{\ftxt;\W0.0001;\H0.0001;\~}{\ftxt;\W2.8571428571;\H3.0; }{\ftxt;\W0.0001;\H0.0001;\~}
  3
DIMSTYLE_1
100
AcDbAlignedDimension
 13
42.0050125629
 23
29.9
 14
42.0050125629
 24
-29.9
 50
270.0
100
AcDbRotatedDimension
  0
DIMENSION
  5
245
100
AcDbEntity
  8
0
100
AcDbDimension
 62
7
  6
CONTINUOUS
  2
*D2
 10
-77.1387165559
 20
37.9
 11
-90.2392779694
 21
37.9
 70
160
 71
3
 72
2
 41
0.9
 42
2.4
  1
{\ftxt;\W0.0001;\H0.0001;\~}{\ftxt;\W2.1428571429;\H3.0; }{\ftxt;\W0.0001;\H0.0001;\~}
  3
DIMSTYLE_1
100
AcDbAlignedDimension
 13
-79.5387165559
 23
29.0
 14
-77.1387165559
 24
27.1262202069
100
AcDbRotatedDimension
  0
DIMENSION
  5
246
100
AcDbEntity
  8
0
100
AcDbDimension
 62
7
  6
CONTINUOUS
  2
*D3
 10
-77.1387165559
 20
47.9
 11
-91.0658666382
 21
47.9
 70
160
 71
3
 72
2
 41
0.9
 42
6.4
  1
{\ftxt;\W0.0001;\H0.0001;\~}{\ftxt;\W2.1428571429;\H3.0; }{\ftxt;\W0.0001;\H0.0001;\~}
  3
DIMSTYLE_1
100
AcDbAlignedDimension
 13
-83.5387165559
 23
29.3388311305
 14
-77.1387165559
 24
26.7994997051
100
AcDbRotatedDimension
  0
LWPOLYLINE
  5
247
100
AcDbEntity
  8
DRAFT
100
AcDbPolyline
 62
7
  6
CONTINUOUS
 90
9
 70
0
 10
-40.0244371116
 20
24.4816297121
 10
-40.024345904
 20
24.4818468203
 10
-40.0240088265
 20
24.4842783206
 10
-40.023681207
 20
24.4891243027
 10
-40.0233657761
 20
24.4963797962
 10
-40.0230598033
 20
24.5060497714
 10
-40.0227667502
 20
24.517952199
 10
-40.022487771
 20
24.5320264025
 10
-40.0142121255
 20
25.1590280662
  0
LINE
  5
248
100
AcDbEntity
  8
DRAFT
100
AcDbLine
 62
7
  6
CONTINUOUS
 10
-39.998592255
 20
25.1902718783
 11
-40.0142121255
 21
25.1590280662
  0
LINE
  5
249
100
AcDbEntity
  8
DRAFT
100
AcDbLine
 62
7
  6
CONTINUOUS
 10
-39.9860359481
 20
25.2151271344
 11
-39.998592255
 21
25.1902718783
  0
LINE
  5
24A
100
AcDbEntity
  8
DRAFT
100
AcDbLine
 62
7
  6
CONTINUOUS
 10
-39.0139640519
 20
27.1262202069
 11
-39.0
 21
27.1435439053
  0
LINE
  5
24B
100
AcDbEntity
  8
DRAFT
100
AcDbLine
 62
7
  6
CONTINUOUS
 10
-38.9831231009
 20
26.5168768991
 11
-38.9720718961
 21
26.5279281039
  0
LINE
  5
24C
100
AcDbEntity
  8
DRAFT
100
AcDbLine
 62
7
  6
CONTINUOUS
 10
-38.9964469686
 20
25.7535530314
 11
-39.0051466838
 21
25.7448533162
  0
LINE
  5
24D
100
AcDbEntity
  8
DRAFT
100
AcDbLine
 62
7
  6
CONTINUOUS
 10
-38.9831231009
 20
-26.5168768991
 11
-38.9720718961
 21
-26.5279281039
  0
LINE
  5
24E
100
AcDbEntity
  8
DRAFT
100
AcDbLine
 62
7
  6
CONTINUOUS
 10
-39.0051466838
 20
-25.7448533162
 11
-38.9964469686
 21
-25.7535530314
  0
LINE
  5
24F
100
AcDbEntity
  8
DRAFT
100
AcDbLine
 62
7
  6
CONTINUOUS
 10
-39.0
 20
-27.1435439053
 11
-39.0139640519
 21
-27.1262202069
  0
LINE
  5
250
100
AcDbEntity
  8
DRAFT
100
AcDbLine
 62
7
  6
CONTINUOUS
 10
-39.9860359481
 20
-25.2151271344
 11
-40.0017229427
 21
-25.1840388625
  0
LINE
  5
251
100
AcDbEntity
  8
DRAFT
100
AcDbLine
 62
7
  6
CONTINUOUS
 10
-40.0017229427
 20
-25.1840388625
 11
-40.0142121255
 21
-25.1590280662
  0
LINE
  5
252
100
AcDbEntity
  8
DRAFT
100
AcDbLine
 62
7
  6
CONTINUOUS
 10
-43.0
 20
29.0
 11
-43.0
 21
16.0
  0
LINE
  5
253
100
AcDbEntity
  8
DRAFT
100
AcDbLine
 62
7
  6
CONTINUOUS
 10
-43.0
 20
-16.0
 11
-43.0
 21
-29.0
  0
LWPOLYLINE
  5
254
100
AcDbEntity
  8
DRAFT
100
AcDbPolyline
 62
7
  6
CONTINUOUS
 90
8
 70
0
 10
-40.0244371262
 20
20.5183388882
 10
-40.0246954791
 20
20.5179015103
 10
-40.0250278575
 20
20.5148698927
 10
-40.0253568332
 20
20.5092116016
 10
-40.0256736052
 20
20.5011819211
 10
-40.0259772046
 20
20.4907627468
 10
-40.0262686002
 20
20.4779721831
 10
-40.0267971529
 20
20.4462230691
  0
LWPOLYLINE
  5
255
100
AcDbEntity
  8
DRAFT
100
AcDbPolyline
 62
7
  6
CONTINUOUS
 90
8
 70
0
 10
-35.9755628738
 20
24.4816611118
 10
-35.9753045209
 20
24.4820984897
 10
-35.9749721425
 20
24.4851301073
 10
-35.9746431668
 20
24.4907883984
 10
-35.9743263948
 20
24.4988180789
 10
-35.9740227954
 20
24.5092372532
 10
-35.9737313998
 20
24.5220278169
 10
-35.9732028471
 20
24.5537769309
  0
LINE
  5
256
100
AcDbEntity
  8
DRAFT
100
AcDbLine
 62
7
  6
CONTINUOUS
 10
-39.9860359481
 20
19.1639640519
 11
-40.0053295471
 21
19.1446704529
  0
LWPOLYLINE
  5
257
100
AcDbEntity
  8
RACCORDO
100
AcDbPolyline
 62
250
  6
CONTINUOUS
 90
10
 70
0
 10
-33.959004021
 20
29.8589278676
 10
-33.9622559901
 20
29.8563174188
 10
-33.9650499651
 20
29.8501130074
 10
-33.9676208741
 20
29.8403979137
 10
-33.9704139835
 20
29.8270942431
 10
-33.9733030732
 20
29.8101517959
 10
-33.9757474478
 20
29.7898117144
 10
-33.978139681
 20
29.7663199113
 10
-33.9807078199
 20
29.7397057685
 10
-33.9827845678
 20
29.7101924944
  0
LINE
  5
258
100
AcDbEntity
  8
DRAFT
100
AcDbLine
 62
7
  6
CONTINUOUS
 10
-36.9885068466
 20
26.1084423186
 11
-36.9860359481
 21
26.1103153465
  0
LINE
  5
259
100
AcDbEntity
  8
DRAFT
100
AcDbLine
 62
7
  6
CONTINUOUS
 10
-36.0
 20
26.8084219849
 11
-36.0139640519
 21
26.7994997051
  0
LINE
  5
25A
100
AcDbEntity
  8
DRAFT
100
AcDbLine
 62
7
  6
CONTINUOUS
 10
-36.0139640519
 20
-26.7994997051
 11
-36.0
 21
-26.8084219849
  0
LINE
  5
25B
100
AcDbEntity
  8
DRAFT
100
AcDbLine
 62
7
  6
CONTINUOUS
 10
-36.9885068466
 20
-26.1084423186
 11
-36.9860359481
 21
-26.1103153465
  0
LWPOLYLINE
  5
25C
100
AcDbEntity
  8
RACCORDO
100
AcDbPolyline
 62
250
  6
CONTINUOUS
 90
11
 70
0
 10
-33.959004021
 20
-29.8589278676
 10
-33.9622559883
 20
-29.8563174198
 10
-33.9650499623
 20
-29.8501130106
 10
-33.9676208708
 20
-29.8403979203
 10
-33.9704139791
 20
-29.8270942539
 10
-33.9733030676
 20
-29.8101518117
 10
-33.975747442
 20
-29.7898117345
 10
-33.9781396758
 20
-29.7663199323
 10
-33.9807078146
 20
-29.7397057874
 10
-33.9827845618
 20
-29.7101925109
 10
-33.9866768695
 20
-29.6437624652
  0
LINE
  5
25D
100
AcDbEntity
  8
DRAFT
100
AcDbLine
 62
7
  6
CONTINUOUS
 10
-39.9860359481
 20
-19.1639640519
 11
-40.0053295471
 21
-19.1446704529
  0
LWPOLYLINE
  5
25E
100
AcDbEntity
  8
DRAFT
100
AcDbPolyline
 62
7
  6
CONTINUOUS
 90
7
 70
0
 10
-40.0227690305
 20
-24.5178492132
 10
-40.0230628735
 20
-24.5059319007
 10
-40.0233697433
 20
-24.4962582218
 10
-40.0236867297
 20
-24.4890189626
 10
-40.0240173692
 20
-24.484213634
 10
-40.0243581255
 20
-24.4818427251
 10
-40.0244371262
 20
-24.4816611118
  0
LWPOLYLINE
  5
25F
100
AcDbEntity
  8
DRAFT
100
AcDbPolyline
 62
7
  6
CONTINUOUS
 90
7
 70
0
 10
-40.0227690305
 20
20.4821507868
 10
-40.0230628735
 20
20.4940680993
 10
-40.0233697433
 20
20.5037417782
 10
-40.0236867297
 20
20.5109810374
 10
-40.0240173692
 20
20.515786366
 10
-40.0243581255
 20
20.5181572749
 10
-40.0244371262
 20
20.5183388882
  0
LWPOLYLINE
  5
260
100
AcDbEntity
  8
DRAFT
100
AcDbPolyline
 62
7
  6
CONTINUOUS
 90
7
 70
0
 10
-40.0262583574
 20
-20.4784744178
 10
-40.0259657402
 20
-20.491205715
 10
-40.0256612141
 20
-20.5015499948
 10
-40.0253435893
 20
-20.5094833244
 10
-40.0250140556
 20
-20.5150296366
 10
-40.0246822091
 20
-20.5179665311
 10
-40.0244371126
 20
-20.5183679552
  0
LWPOLYLINE
  5
261
100
AcDbEntity
  8
DRAFT
100
AcDbPolyline
 62
7
  6
CONTINUOUS
 90
7
 70
0
 10
-40.0262578153
 20
24.5214963882
 10
-40.025965203
 20
24.5087707081
 10
-40.0256606036
 20
24.4984319826
 10
-40.0253427209
 20
24.490501792
 10
-40.0250128512
 20
24.484958556
 10
-40.0246807858
 20
24.4820267422
 10
-40.0244371116
 20
24.4816297121
  0
LINE
  5
262
100
AcDbEntity
  8
DRAFT
100
AcDbLine
 62
7
  6
CONTINUOUS
 10
-40.0168768991
 20
-18.4831231009
 11
-40.0053295471
 21
-19.1446704529
  0
LINE
  5
263
100
AcDbEntity
  8
DRAFT
100
AcDbLine
 62
7
  6
CONTINUOUS
 10
-38.9964469686
 20
-25.7535530314
 11
-38.9831231009
 21
-26.5168768991
  0
LINE
  5
264
100
AcDbEntity
  8
DRAFT
100
AcDbLine
 62
7
  6
CONTINUOUS
 10
-39.0051466838
 20
25.7448533162
 11
-39.0114931534
 21
26.1084423186
  0
LINE
  5
265
100
AcDbEntity
  8
DRAFT
100
AcDbLine
 62
7
  6
CONTINUOUS
 10
-40.0222223647
 20
-24.5482875486
 11
-40.0227690305
 21
-24.5178492132
  0
LINE
  5
266
100
AcDbEntity
  8
DRAFT
100
AcDbLine
 62
7
  6
CONTINUOUS
 10
-40.0222223647
 20
20.4517124514
 11
-40.0227690305
 21
20.4821507868
  0
LINE
  5
267
100
AcDbEntity
  8
DRAFT
100
AcDbLine
 62
7
  6
CONTINUOUS
 10
-40.0267899215
 20
-20.4467397239
 11
-40.0262583574
 21
-20.4784744178
  0
LINE
  5
268
100
AcDbEntity
  8
DRAFT
100
AcDbLine
 62
7
  6
CONTINUOUS
 10
-40.0267895843
 20
24.5532390091
 11
-40.0262578153
 21
24.5214963882
  0
LINE
  5
269
100
AcDbEntity
  8
DRAFT
100
AcDbLine
 62
7
  6
CONTINUOUS
 10
-40.0142121255
 20
-25.1590280662
 11
-40.0222223647
 21
-24.5482875486
  0
LINE
  5
26A
100
AcDbEntity
  8
DRAFT
100
AcDbLine
 62
7
  6
CONTINUOUS
 10
-40.0142121255
 20
19.8409719338
 11
-40.0222223647
 21
20.4517124514
  0
LINE
  5
26B
100
AcDbEntity
  8
DRAFT
100
AcDbLine
 62
7
  6
CONTINUOUS
 10
-40.027434382
 20
-20.3843498472
 11
-40.0267899215
 21
-20.4467397239
  0
LINE
  5
26C
100
AcDbEntity
  8
DRAFT
100
AcDbLine
 62
7
  6
CONTINUOUS
 10
-40.0274344471
 20
24.6156564292
 11
-40.0267895843
 21
24.5532390091
  0
LINE
  5
26D
100
AcDbEntity
  8
DRAFT
100
AcDbLine
 62
7
  6
CONTINUOUS
 10
-40.0278320598
 20
-20.3059310271
 11
-40.027434382
 21
-20.3843498472
  0
LINE
  5
26E
100
AcDbEntity
  8
DRAFT
100
AcDbLine
 62
7
  6
CONTINUOUS
 10
-40.0278320813
 20
24.6940741207
 11
-40.0274344471
 21
24.6156564292
  0
LINE
  5
26F
100
AcDbEntity
  8
DRAFT
100
AcDbLine
 62
7
  6
CONTINUOUS
 10
-40.0279281039
 20
-18.4720718961
 11
-40.0278320598
 21
-20.3059310271
  0
LINE
  5
270
100
AcDbEntity
  8
DRAFT
100
AcDbLine
 62
7
  6
CONTINUOUS
 10
-40.0278320813
 20
24.6940741207
 11
-40.0279281039
 21
27.75
  0
LINE
  5
271
100
AcDbEntity
  8
DRAFT
100
AcDbLine
 62
7
  6
CONTINUOUS
 10
-40.0
 20
27.75
 11
-40.0
 21
26.8084219849
  0
LINE
  5
272
100
AcDbEntity
  8
DRAFT
100
AcDbLine
 62
7
  6
CONTINUOUS
 10
-40.0
 20
-26.8084219849
 11
-40.0
 21
-27.75
  0
LINE
  5
273
100
AcDbEntity
  8
DRAFT
100
AcDbLine
 62
7
  6
CONTINUOUS
 10
-39.9860359481
 20
26.7994997051
 11
-39.9860359481
 21
25.2151271344
  0
LINE
  5
274
100
AcDbEntity
  8
DRAFT
100
AcDbLine
 62
7
  6
CONTINUOUS
 10
-39.9860359481
 20
19.7848728656
 11
-39.9860359481
 21
19.1639640519
  0
LINE
  5
275
100
AcDbEntity
  8
DRAFT
100
AcDbLine
 62
7
  6
CONTINUOUS
 10
-39.9860359481
 20
-19.1639640519
 11
-39.9860359481
 21
-19.7848728656
  0
LINE
  5
276
100
AcDbEntity
  8
DRAFT
100
AcDbLine
 62
7
  6
CONTINUOUS
 10
-39.9860359481
 20
-25.2151271344
 11
-39.9860359481
 21
-26.7994997051
  0
LINE
  5
277
100
AcDbEntity
  8
DRAFT
100
AcDbLine
 62
7
  6
CONTINUOUS
 10
-39.0139640519
 20
27.1262202069
 11
-39.0139640519
 21
26.1103153465
  0
LINE
  5
278
100
AcDbEntity
  8
DRAFT
100
AcDbLine
 62
7
  6
CONTINUOUS
 10
-39.0139640519
 20
-27.1262202069
 11
-39.0139640519
 21
-26.1103153465
  0
LINE
  5
279
100
AcDbEntity
  8
DRAFT
100
AcDbLine
 62
7
  6
CONTINUOUS
 10
-39.0
 20
-27.75
 11
-39.0
 21
-27.1435439053
  0
LINE
  5
27A
100
AcDbEntity
  8
DRAFT
100
AcDbLine
 62
7
  6
CONTINUOUS
 10
-39.0
 20
27.1435439053
 11
-39.0
 21
27.75
  0
LINE
  5
27B
100
AcDbEntity
  8
DRAFT
100
AcDbLine
 62
7
  6
CONTINUOUS
 10
-38.9720718961
 20
-27.75
 11
-38.9720718961
 21
-26.5279281039
  0
LINE
  5
27C
100
AcDbEntity
  8
DRAFT
100
AcDbLine
 62
7
  6
CONTINUOUS
 10
-38.9720718961
 20
26.5279281039
 11
-38.9720718961
 21
27.75
  0
LINE
  5
27D
100
AcDbEntity
  8
DRAFT
100
AcDbLine
 62
7
  6
CONTINUOUS
 10
-40.027735258
 20
20.3336440549
 11
-40.0279281039
 21
18.4720718961
  0
LINE
  5
27E
100
AcDbEntity
  8
DRAFT
100
AcDbLine
 62
7
  6
CONTINUOUS
 10
-40.027735258
 20
-24.6663559451
 11
-40.0279281039
 21
-27.75
  0
LINE
  5
27F
100
AcDbEntity
  8
DRAFT
100
AcDbLine
 62
7
  6
CONTINUOUS
 10
-40.0272473055
 20
20.4065016
 11
-40.027735258
 21
20.3336440549
  0
LINE
  5
280
100
AcDbEntity
  8
DRAFT
100
AcDbLine
 62
7
  6
CONTINUOUS
 10
-40.0272473055
 20
-24.5934984
 11
-40.027735258
 21
-24.6663559451
  0
LINE
  5
281
100
AcDbEntity
  8
DRAFT
100
AcDbLine
 62
7
  6
CONTINUOUS
 10
-40.0267971529
 20
20.4462230691
 11
-40.0272473055
 21
20.4065016
  0
LINE
  5
282
100
AcDbEntity
  8
DRAFT
100
AcDbLine
 62
7
  6
CONTINUOUS
 10
-40.0267971529
 20
-24.5537769309
 11
-40.0272473055
 21
-24.5934984
  0
LINE
  5
283
100
AcDbEntity
  8
DRAFT
100
AcDbLine
 62
7
  6
CONTINUOUS
 10
-40.0053295471
 20
19.1446704529
 11
-40.0168768991
 21
18.4831231009
  0
LINE
  5
284
100
AcDbEntity
  8
DRAFT
100
AcDbLine
 62
7
  6
CONTINUOUS
 10
-38.9831231009
 20
26.5168768991
 11
-38.9964469686
 21
25.7535530314
  0
LINE
  5
285
100
AcDbEntity
  8
DRAFT
100
AcDbLine
 62
7
  6
CONTINUOUS
 10
-39.0114931534
 20
-26.1084423186
 11
-39.0051466838
 21
-25.7448533162
  0
LWPOLYLINE
  5
286
100
AcDbEntity
  8
DRAFT
100
AcDbPolyline
 62
7
  6
CONTINUOUS
 90
9
 70
0
 10
-35.9755628874
 20
20.5183679552
 10
-35.9756526681
 20
20.5181555604
 10
-35.9759898581
 20
20.515735172
 10
-35.976317611
 20
20.5108983079
 10
-35.9766331591
 20
20.5036496224
 10
-35.9769392702
 20
20.4939844612
 10
-35.9772324973
 20
20.4820818038
 10
-35.9775116915
 20
20.4680013099
 10
-35.9857878745
 20
19.8409719338
  0
LINE
  5
287
100
AcDbEntity
  8
DRAFT
100
AcDbLine
 62
7
  6
CONTINUOUS
 10
-36.001407745
 20
19.8097281217
 11
-35.9857878745
 21
19.8409719338
  0
LINE
  5
288
100
AcDbEntity
  8
DRAFT
100
AcDbLine
 62
7
  6
CONTINUOUS
 10
-36.0139640519
 20
19.7848728656
 11
-36.001407745
 21
19.8097281217
  0
LINE
  5
289
100
AcDbEntity
  8
DRAFT
100
AcDbLine
 62
7
  6
CONTINUOUS
 10
-40.0279281039
 20
18.4720718961
 11
-40.0168768991
 21
18.4831231009
  0
LINE
  5
28A
100
AcDbEntity
  8
DRAFT
100
AcDbLine
 62
7
  6
CONTINUOUS
 10
-34.5
 20
19.4842904416
 11
-34.4842904416
 21
19.5
  0
LINE
  5
28B
100
AcDbEntity
  8
DRAFT
100
AcDbLine
 62
7
  6
CONTINUOUS
 10
-40.0279281039
 20
-18.4720718961
 11
-40.0168768991
 21
-18.4831231009
  0
LINE
  5
28C
100
AcDbEntity
  8
DRAFT
100
AcDbLine
 62
7
  6
CONTINUOUS
 10
-34.5
 20
-19.4842904416
 11
-34.4842904416
 21
-19.5
  0
LINE
  5
28D
100
AcDbEntity
  8
DRAFT
100
AcDbLine
 62
7
  6
CONTINUOUS
 10
-36.0139640519
 20
-19.7848728656
 11
-35.9982770573
 21
-19.8159611375
  0
LINE
  5
28E
100
AcDbEntity
  8
DRAFT
100
AcDbLine
 62
7
  6
CONTINUOUS
 10
-35.9982770573
 20
-19.8159611375
 11
-35.9857878745
 21
-19.8409719338
  0
LWPOLYLINE
  5
28F
100
AcDbEntity
  8
RACCORDO
100
AcDbPolyline
 62
250
  6
CONTINUOUS
 90
3
 70
0
 10
-33.9866768695
 20
-29.6437624652
 10
-33.9882206409
 20
-29.6071685304
 10
-33.9908454354
 20
-29.5287001948
  0
LWPOLYLINE
  5
290
100
AcDbEntity
  8
DRAFT
100
AcDbPolyline
 62
7
  6
CONTINUOUS
 90
7
 70
0
 10
-35.9772309695
 20
-20.4821507868
 10
-35.9769371265
 20
-20.4940680993
 10
-35.9766302567
 20
-20.5037417782
 10
-35.9763132703
 20
-20.5109810374
 10
-35.9759826308
 20
-20.515786366
 10
-35.9756418745
 20
-20.5181572749
 10
-35.9755628738
 20
-20.5183388882
  0
LWPOLYLINE
  5
291
100
AcDbEntity
  8
DRAFT
100
AcDbPolyline
 62
7
  6
CONTINUOUS
 90
7
 70
0
 10
-35.9772309695
 20
24.5178492132
 10
-35.9769371265
 20
24.5059319007
 10
-35.9766302567
 20
24.4962582218
 10
-35.9763132703
 20
24.4890189626
 10
-35.9759826308
 20
24.484213634
 10
-35.9756418745
 20
24.4818427251
 10
-35.9755628738
 20
24.4816611118
  0
LWPOLYLINE
  5
292
100
AcDbEntity
  8
DRAFT
100
AcDbPolyline
 62
7
  6
CONTINUOUS
 90
7
 70
0
 10
-35.9737421847
 20
-24.5214963882
 10
-35.974034797
 20
-24.5087707081
 10
-35.9743393964
 20
-24.4984319826
 10
-35.9746572791
 20
-24.490501792
 10
-35.9749871488
 20
-24.484958556
 10
-35.9753192142
 20
-24.4820267422
 10
-35.9755628884
 20
-24.4816297121
  0
LWPOLYLINE
  5
293
100
AcDbEntity
  8
DRAFT
100
AcDbPolyline
 62
7
  6
CONTINUOUS
 90
7
 70
0
 10
-35.9737416426
 20
20.4784744178
 10
-35.9740342598
 20
20.491205715
 10
-35.9743387859
 20
20.5015499948
 10
-35.9746564107
 20
20.5094833244
 10
-35.9749859444
 20
20.5150296366
 10
-35.9753177909
 20
20.5179665311
 10
-35.9755628874
 20
20.5183679552
  0
LINE
  5
294
100
AcDbEntity
  8
RACCORDO
100
AcDbLine
 62
250
  6
CONTINUOUS
 10
-33.9908454354
 20
-29.5287001948
 11
-33.9917057403
 21
-29.4873639742
  0
LINE
  5
295
100
AcDbEntity
  8
DRAFT
100
AcDbLine
 62
7
  6
CONTINUOUS
 10
-36.9885068466
 20
-26.1084423186
 11
-36.9948533162
 21
-25.7448533162
  0
LINE
  5
296
100
AcDbEntity
  8
DRAFT
100
AcDbLine
 62
7
  6
CONTINUOUS
 10
-37.0168768991
 20
26.5168768991
 11
-37.0035530314
 21
25.7535530314
  0
LINE
  5
297
100
AcDbEntity
  8
DRAFT
100
AcDbLine
 62
7
  6
CONTINUOUS
 10
-35.9831231009
 20
18.4831231009
 11
-35.9946704529
 21
19.1446704529
  0
LINE
  5
298
100
AcDbEntity
  8
DRAFT
100
AcDbLine
 62
7
  6
CONTINUOUS
 10
-35.9777776353
 20
-20.4517124514
 11
-35.9772309695
 21
-20.4821507868
  0
LINE
  5
299
100
AcDbEntity
  8
DRAFT
100
AcDbLine
 62
7
  6
CONTINUOUS
 10
-35.9777776353
 20
24.5482875486
 11
-35.9772309695
 21
24.5178492132
  0
LINE
  5
29A
100
AcDbEntity
  8
DRAFT
100
AcDbLine
 62
7
  6
CONTINUOUS
 10
-35.9732104157
 20
-24.5532390091
 11
-35.9737421847
 21
-24.5214963882
  0
LINE
  5
29B
100
AcDbEntity
  8
DRAFT
100
AcDbLine
 62
7
  6
CONTINUOUS
 10
-35.9732100785
 20
20.4467397239
 11
-35.9737416426
 21
20.4784744178
  0
LINE
  5
29C
100
AcDbEntity
  8
DRAFT
100
AcDbLine
 62
7
  6
CONTINUOUS
 10
-35.9857878745
 20
-19.8409719338
 11
-35.9777776353
 21
-20.4517124514
  0
LINE
  5
29D
100
AcDbEntity
  8
DRAFT
100
AcDbLine
 62
7
  6
CONTINUOUS
 10
-35.9857878745
 20
25.1590280662
 11
-35.9777776353
 21
24.5482875486
  0
LINE
  5
29E
100
AcDbEntity
  8
DRAFT
100
AcDbLine
 62
7
  6
CONTINUOUS
 10
-35.9725655529
 20
-24.6156564292
 11
-35.9732104157
 21
-24.5532390091
  0
LINE
  5
29F
100
AcDbEntity
  8
DRAFT
100
AcDbLine
 62
7
  6
CONTINUOUS
 10
-35.972565618
 20
20.3843498472
 11
-35.9732100785
 21
20.4467397239
  0
LINE
  5
2A0
100
AcDbEntity
  8
DRAFT
100
AcDbLine
 62
7
  6
CONTINUOUS
 10
-35.9721679187
 20
-24.6940741207
 11
-35.9725655529
 21
-24.6156564292
  0
LINE
  5
2A1
100
AcDbEntity
  8
DRAFT
100
AcDbLine
 62
7
  6
CONTINUOUS
 10
-35.9721679402
 20
20.3059310271
 11
-35.972565618
 21
20.3843498472
  0
LINE
  5
2A2
100
AcDbEntity
  8
DRAFT
100
AcDbLine
 62
7
  6
CONTINUOUS
 10
-37.0279281039
 20
27.75
 11
-37.0279281039
 21
26.5279281039
  0
LINE
  5
2A3
100
AcDbEntity
  8
DRAFT
100
AcDbLine
 62
7
  6
CONTINUOUS
 10
-37.0279281039
 20
-26.5279281039
 11
-37.0279281039
 21
-27.75
  0
LINE
  5
2A4
100
AcDbEntity
  8
DRAFT
100
AcDbLine
 62
7
  6
CONTINUOUS
 10
-37.0
 20
27.75
 11
-37.0
 21
27.1435439053
  0
LINE
  5
2A5
100
AcDbEntity
  8
DRAFT
100
AcDbLine
 62
7
  6
CONTINUOUS
 10
-37.0
 20
-27.1435439053
 11
-37.0
 21
-27.75
  0
LINE
  5
2A6
100
AcDbEntity
  8
DRAFT
100
AcDbLine
 62
7
  6
CONTINUOUS
 10
-36.9860359481
 20
27.1262202069
 11
-36.9860359481
 21
26.1103153465
  0
LINE
  5
2A7
100
AcDbEntity
  8
DRAFT
100
AcDbLine
 62
7
  6
CONTINUOUS
 10
-36.9860359481
 20
-27.1262202069
 11
-36.9860359481
 21
-26.1103153465
  0
LINE
  5
2A8
100
AcDbEntity
  8
DRAFT
100
AcDbLine
 62
7
  6
CONTINUOUS
 10
-36.0139640519
 20
-26.7994997051
 11
-36.0139640519
 21
-25.2151271344
  0
LINE
  5
2A9
100
AcDbEntity
  8
DRAFT
100
AcDbLine
 62
7
  6
CONTINUOUS
 10
-36.0139640519
 20
-19.7848728656
 11
-36.0139640519
 21
-19.1639640519
  0
LINE
  5
2AA
100
AcDbEntity
  8
DRAFT
100
AcDbLine
 62
7
  6
CONTINUOUS
 10
-36.0139640519
 20
19.1639640519
 11
-36.0139640519
 21
19.7848728656
  0
LINE
  5
2AB
100
AcDbEntity
  8
DRAFT
100
AcDbLine
 62
7
  6
CONTINUOUS
 10
-36.0139640519
 20
25.2151271344
 11
-36.0139640519
 21
26.7994997051
  0
LINE
  5
2AC
100
AcDbEntity
  8
DRAFT
100
AcDbLine
 62
7
  6
CONTINUOUS
 10
-36.0
 20
-27.75
 11
-36.0
 21
-26.8084219849
  0
LINE
  5
2AD
100
AcDbEntity
  8
DRAFT
100
AcDbLine
 62
7
  6
CONTINUOUS
 10
-36.0
 20
26.8084219849
 11
-36.0
 21
27.75
  0
LINE
  5
2AE
100
AcDbEntity
  8
DRAFT
100
AcDbLine
 62
7
  6
CONTINUOUS
 10
-35.9721679187
 20
-24.6940741207
 11
-35.9720718961
 21
-27.75
  0
LINE
  5
2AF
100
AcDbEntity
  8
DRAFT
100
AcDbLine
 62
7
  6
CONTINUOUS
 10
-35.9720718961
 20
18.4720718961
 11
-35.9721679402
 21
20.3059310271
  0
LINE
  5
2B0
100
AcDbEntity
  8
RACCORDO
100
AcDbLine
 62
7
  6
CONTINUOUS
 10
-34.5
 20
29.4000761524
 11
-34.5
 21
24.5157095584
  0
LINE
  5
2B1
100
AcDbEntity
  8
DRAFT
100
AcDbLine
 62
7
  6
CONTINUOUS
 10
-34.5
 20
19.4842904416
 11
-34.5
 21
-19.4842904416
  0
LINE
  5
2B2
100
AcDbEntity
  8
RACCORDO
100
AcDbLine
 62
7
  6
CONTINUOUS
 10
-34.5
 20
-24.5157095584
 11
-34.5
 21
-29.4000761524
  0
LINE
  5
2B3
100
AcDbEntity
  8
RACCORDO
100
AcDbLine
 62
7
  6
CONTINUOUS
 10
-34.5
 20
-10.0007615242
 11
-34.5
 21
10.0007615242
  0
LINE
  5
2B4
100
AcDbEntity
  8
DRAFT
100
AcDbLine
 62
7
  6
CONTINUOUS
 10
-34.4842904416
 20
-24.5
 11
-34.4842904416
 21
-19.5
  0
LINE
  5
2B5
100
AcDbEntity
  8
DRAFT
100
AcDbLine
 62
7
  6
CONTINUOUS
 10
-34.4842904416
 20
19.5
 11
-34.4842904416
 21
24.5
  0
LINE
  5
2B6
100
AcDbEntity
  8
RACCORDO
100
AcDbLine
 62
250
  6
CONTINUOUS
 10
-34.4589278676
 20
-29.35900402
 11
-34.4589278676
 21
29.35900402
  0
LINE
  5
2B7
100
AcDbEntity
  8
DRAFT
100
AcDbLine
 62
7
  6
CONTINUOUS
 10
-35.972264742
 20
24.6663559451
 11
-35.9720718961
 21
27.75
  0
LINE
  5
2B8
100
AcDbEntity
  8
DRAFT
100
AcDbLine
 62
7
  6
CONTINUOUS
 10
-35.972264742
 20
-20.3336440549
 11
-35.9720718961
 21
-18.4720718961
  0
LINE
  5
2B9
100
AcDbEntity
  8
DRAFT
100
AcDbLine
 62
7
  6
CONTINUOUS
 10
-35.9727526945
 20
24.5934984
 11
-35.972264742
 21
24.6663559451
  0
LINE
  5
2BA
100
AcDbEntity
  8
DRAFT
100
AcDbLine
 62
7
  6
CONTINUOUS
 10
-35.9727526945
 20
-20.4065016
 11
-35.972264742
 21
-20.3336440549
  0
LINE
  5
2BB
100
AcDbEntity
  8
DRAFT
100
AcDbLine
 62
7
  6
CONTINUOUS
 10
-35.9732028471
 20
24.5537769309
 11
-35.9727526945
 21
24.5934984
  0
LINE
  5
2BC
100
AcDbEntity
  8
DRAFT
100
AcDbLine
 62
7
  6
CONTINUOUS
 10
-35.9732028471
 20
-20.4462230691
 11
-35.9727526945
 21
-20.4065016
  0
LINE
  5
2BD
100
AcDbEntity
  8
DRAFT
100
AcDbLine
 62
7
  6
CONTINUOUS
 10
-36.9948533162
 20
25.7448533162
 11
-36.9885068466
 21
26.1084423186
  0
LINE
  5
2BE
100
AcDbEntity
  8
DRAFT
100
AcDbLine
 62
7
  6
CONTINUOUS
 10
-37.0035530314
 20
-25.7535530314
 11
-37.0168768991
 21
-26.5168768991
  0
LINE
  5
2BF
100
AcDbEntity
  8
DRAFT
100
AcDbLine
 62
7
  6
CONTINUOUS
 10
-35.9946704529
 20
-19.1446704529
 11
-35.9831231009
 21
-18.4831231009
  0
LWPOLYLINE
  5
2C0
100
AcDbEntity
  8
RACCORDO
100
AcDbPolyline
 62
250
  6
CONTINUOUS
 90
3
 70
0
 10
-33.9882206474
 20
29.6071685144
 10
-33.9908454427
 20
29.5287001825
 10
-33.9917057471
 20
29.4873639646
  0
LWPOLYLINE
  5
2C1
100
AcDbEntity
  8
RACCORDO
100
AcDbPolyline
 62
250
  6
CONTINUOUS
 90
19
 70
0
 10
-34.4589278676
 20
29.35900402
 10
-34.457012975
 20
29.4025668289
 10
-34.4513094024
 20
29.445798227
 10
-34.4418605405
 20
29.4883693248
 10
-34.4287382731
 20
29.5299562561
 10
-34.4120424297
 20
29.5702426419
 10
-34.3919000266
 20
29.6089219972
 10
-34.3684643004
 20
29.6457000629
 10
-34.3419135418
 20
29.6802970441
 10
-34.3124497398
 20
29.712449739
 10
-34.2802970449
 20
29.7419135411
 10
-34.2457000637
 20
29.7684642998
 10
-34.208921998
 20
29.7919000262
 10
-34.1702426426
 20
29.8120424294
 10
-34.1299562568
 20
29.8287382728
 10
-34.0883693253
 20
29.8418605404
 10
-34.0457982274
 20
29.8513094023
 10
-34.0025668291
 20
29.857012975
 10
-33.95900402
 20
29.8589278676
  0
LWPOLYLINE
  5
2C2
100
AcDbEntity
  8
RACCORDO
100
AcDbPolyline
 62
250
  6
CONTINUOUS
 90
3
 70
0
 10
-33.9827845678
 20
29.7101924944
 10
-33.986676876
 20
29.6437624489
 10
-33.9882206474
 20
29.6071685144
  0
LWPOLYLINE
  5
2C3
100
AcDbEntity
  8
RACCORDO
100
AcDbPolyline
 62
250
  6
CONTINUOUS
 90
3
 70
0
 10
-33.9917057403
 20
-29.4873639742
 10
-33.9923988742
 20
-29.4020791223
 10
-33.992997017
 20
-29.35900402
  0
LINE
  5
2C4
100
AcDbEntity
  8
RACCORDO
100
AcDbLine
 62
250
  6
CONTINUOUS
 10
-33.992997017
 20
-29.35900402
 11
-33.992997017
 21
29.35900402
  0
LWPOLYLINE
  5
2C5
100
AcDbEntity
  8
RACCORDO
100
AcDbPolyline
 62
250
  6
CONTINUOUS
 90
3
 70
0
 10
-33.9917057471
 20
29.4873639646
 10
-33.9923988774
 20
29.4020791188
 10
-33.992997017
 20
29.35900402
  0
LWPOLYLINE
  5
2C6
100
AcDbEntity
  8
RACCORDO
100
AcDbPolyline
 62
250
  6
CONTINUOUS
 90
19
 70
0
 10
-33.95900402
 20
-29.8589278676
 10
-34.0025668291
 20
-29.857012975
 10
-34.0457982274
 20
-29.8513094023
 10
-34.0883693253
 20
-29.8418605404
 10
-34.1299562568
 20
-29.8287382728
 10
-34.1702426426
 20
-29.8120424294
 10
-34.208921998
 20
-29.7919000262
 10
-34.2457000637
 20
-29.7684642998
 10
-34.2802970449
 20
-29.7419135411
 10
-34.3124497398
 20
-29.712449739
 10
-34.3419135418
 20
-29.6802970441
 10
-34.3684643004
 20
-29.6457000629
 10
-34.3919000266
 20
-29.6089219972
 10
-34.4120424297
 20
-29.5702426419
 10
-34.4287382731
 20
-29.5299562561
 10
-34.4418605405
 20
-29.4883693248
 10
-34.4513094024
 20
-29.445798227
 10
-34.457012975
 20
-29.4025668289
 10
-34.4589278676
 20
-29.35900402
  0
LWPOLYLINE
  5
2C7
100
AcDbEntity
  8
DRAFT
100
AcDbPolyline
 62
7
  6
CONTINUOUS
 90
9
 70
0
 10
-40.0244371126
 20
-20.5183679552
 10
-40.0243473319
 20
-20.5181555604
 10
-40.0240101419
 20
-20.515735172
 10
-40.023682389
 20
-20.5108983079
 10
-40.0233668409
 20
-20.5036496224
 10
-40.0230607298
 20
-20.4939844612
 10
-40.0227675027
 20
-20.4820818038
 10
-40.0224883085
 20
-20.4680013099
 10
-40.0142121255
 20
-19.8409719338
  0
LWPOLYLINE
  5
2C8
100
AcDbEntity
  8
0
100
AcDbPolyline
 62
7
  6
CONTINUOUS
 90
10
 70
0
 43
0.3500000006
 10
1.0714285848
 20
41.6499987946
 10
0.4285714127
 20
41.0071408081
 10
-0.0
 20
40.1499983368
 10
-0.0
 20
39.0785713806
 10
0.4285714127
 20
38.649997879
 10
1.0714285848
 20
38.649997879
 10
1.5000000329
 20
39.0785713806
 10
1.5000000329
 20
39.9357138519
 10
1.0714285848
 20
40.3642873535
 10
0.1428571435
 20
40.3642873535
  0
LINE
  5
2C9
100
AcDbEntity
  8
RACCORDO
100
AcDbLine
 62
250
  6
CONTINUOUS
 10
-20.1602304425
 20
-29.8458592996
 11
-33.95900402
 21
-29.8589278676
  0
LINE
  5
2CA
100
AcDbEntity
  8
RACCORDO
100
AcDbLine
 62
250
  6
CONTINUOUS
 10
-20.1804108534
 20
-29.345935452
 11
-33.992997017
 21
-29.35900402
  0
LINE
  5
2CB
100
AcDbEntity
  8
RACCORDO
100
AcDbLine
 62
7
  6
CONTINUOUS
 10
-34.0000761524
 20
-29.9
 11
34.0000761524
 21
-29.9
  0
LINE
  5
2CC
100
AcDbEntity
  8
DRAFT
100
AcDbLine
 62
7
  6
CONTINUOUS
 10
-42.0050125629
 20
-29.9
 11
42.0050125629
 21
-29.9
  0
LINE
  5
2CD
100
AcDbEntity
  8
RACCORDO
100
AcDbLine
 62
250
  6
CONTINUOUS
 10
2.6366910262
 20
-29.8388808317
 11
-20.1602304425
 21
-29.8458592996
  0
LINE
  5
2CE
100
AcDbEntity
  8
RACCORDO
100
AcDbLine
 62
250
  6
CONTINUOUS
 10
-34.4589278676
 20
-29.35900402
 11
-33.992997017
 21
-29.35900402
  0
LINE
  5
2CF
100
AcDbEntity
  8
RACCORDO
100
AcDbLine
 62
250
  6
CONTINUOUS
 10
2.6392276145
 20
-29.3389569841
 11
-20.1804108534
 21
-29.345935452
  0
LINE
  5
2D0
100
AcDbEntity
  8
DRAFT
100
AcDbLine
 62
250
  6
CONTINUOUS
 10
-40.0279281039
 20
-27.75
 11
-40.0
 21
-27.75
  0
LINE
  5
2D1
100
AcDbEntity
  8
DRAFT
100
AcDbLine
 62
250
  6
CONTINUOUS
 10
40.0279281039
 20
-27.75
 11
40.0
 21
-27.75
  0
LINE
  5
2D2
100
AcDbEntity
  8
DRAFT
100
AcDbLine
 62
250
  6
CONTINUOUS
 10
-37.0279281039
 20
-27.75
 11
-37.0
 21
-27.75
  0
LINE
  5
2D3
100
AcDbEntity
  8
DRAFT
100
AcDbLine
 62
250
  6
CONTINUOUS
 10
37.0279281039
 20
-27.75
 11
37.0
 21
-27.75
  0
LINE
  5
2D4
100
AcDbEntity
  8
DRAFT
100
AcDbLine
 62
250
  6
CONTINUOUS
 10
35.9720718961
 20
-27.75
 11
36.0
 21
-27.75
  0
LINE
  5
2D5
100
AcDbEntity
  8
DRAFT
100
AcDbLine
 62
250
  6
CONTINUOUS
 10
-35.9720718961
 20
-27.75
 11
-36.0
 21
-27.75
  0
LINE
  5
2D6
100
AcDbEntity
  8
DRAFT
100
AcDbLine
 62
250
  6
CONTINUOUS
 10
-38.9720718961
 20
-27.75
 11
-39.0
 21
-27.75
  0
LINE
  5
2D7
100
AcDbEntity
  8
DRAFT
100
AcDbLine
 62
250
  6
CONTINUOUS
 10
38.9720718961
 20
-27.75
 11
39.0
 21
-27.75
  0
LINE
  5
2D8
100
AcDbEntity
  8
RACCORDO
100
AcDbLine
 62
250
  6
CONTINUOUS
 10
15.9894736668
 20
-29.8432059433
 11
2.6366910262
 21
-29.8388808317
  0
LINE
  5
2D9
100
AcDbEntity
  8
RACCORDO
100
AcDbLine
 62
250
  6
CONTINUOUS
 10
16.0053279772
 20
-29.3432820958
 11
2.6392276145
 21
-29.3389569841
  0
LWPOLYLINE
  5
2DA
100
AcDbEntity
  8
RACCORDO
100
AcDbPolyline
 62
250
  6
CONTINUOUS
 90
3
 70
0
 10
33.95900402
 20
-29.8589278676
 10
29.4261202627
 20
-29.8539180049
 10
15.9894736668
 20
-29.8432059433
  0
LWPOLYLINE
  5
2DB
100
AcDbEntity
  8
RACCORDO
100
AcDbPolyline
 62
250
  6
CONTINUOUS
 90
3
 70
0
 10
34.4589278676
 20
-29.35900402
 10
29.4562333318
 20
-29.3539941573
 10
16.0053279772
 20
-29.3432820958
  0
LINE
  5
2DC
100
AcDbEntity
  8
DRAFT
100
AcDbLine
 62
7
  6
CONTINUOUS
 10
-39.998592255
 20
-19.8097281217
 11
-40.0142121255
 21
-19.8409719338
  0
LINE
  5
2DD
100
AcDbEntity
  8
DRAFT
100
AcDbLine
 62
7
  6
CONTINUOUS
 10
-39.9860359481
 20
-19.7848728656
 11
-39.998592255
 21
-19.8097281217
  0
LINE
  5
2DE
100
AcDbEntity
  8
DRAFT
100
AcDbLine
 62
7
  6
CONTINUOUS
 10
36.3169323141
 20
-19.156862245
 11
36.2872933254
 21
-19.1639640519
  0
LINE
  5
2DF
100
AcDbEntity
  8
DRAFT
100
AcDbLine
 62
7
  6
CONTINUOUS
 10
-38.9720718961
 20
-26.5279281039
 11
-37.0279281039
 21
-26.5279281039
  0
LINE
  5
2E0
100
AcDbEntity
  8
DRAFT
100
AcDbLine
 62
7
  6
CONTINUOUS
 10
38.9720718961
 20
-26.5279281039
 11
37.0279281039
 21
-26.5279281039
  0
LINE
  5
2E1
100
AcDbEntity
  8
DRAFT
100
AcDbLine
 62
7
  6
CONTINUOUS
 10
-38.9831231009
 20
-26.5168768991
 11
-37.0168768991
 21
-26.5168768991
  0
LINE
  5
2E2
100
AcDbEntity
  8
DRAFT
100
AcDbLine
 62
7
  6
CONTINUOUS
 10
37.0168768991
 20
-26.5168768991
 11
38.9831231009
 21
-26.5168768991
  0
LINE
  5
2E3
100
AcDbEntity
  8
DRAFT
100
AcDbLine
 62
7
  6
CONTINUOUS
 10
38.9964469686
 20
-25.7535530314
 11
37.0035530314
 21
-25.7535530314
  0
LINE
  5
2E4
100
AcDbEntity
  8
DRAFT
100
AcDbLine
 62
7
  6
CONTINUOUS
 10
-37.0035530314
 20
-25.7535530314
 11
-38.9964469686
 21
-25.7535530314
  0
LINE
  5
2E5
100
AcDbEntity
  8
DRAFT
100
AcDbLine
 62
7
  6
CONTINUOUS
 10
-39.0051466838
 20
-25.7448533162
 11
-36.9948533162
 21
-25.7448533162
  0
LINE
  5
2E6
100
AcDbEntity
  8
DRAFT
100
AcDbLine
 62
7
  6
CONTINUOUS
 10
39.0051466838
 20
-25.7448533162
 11
36.9948533162
 21
-25.7448533162
  0
LINE
  5
2E7
100
AcDbEntity
  8
DRAFT
100
AcDbLine
 62
7
  6
CONTINUOUS
 10
-36.3169323141
 20
-19.156862245
 11
-36.2872933254
 21
-19.1639640519
  0
LINE
  5
2E8
100
AcDbEntity
  8
DRAFT
100
AcDbLine
 62
7
  6
CONTINUOUS
 10
-39.9860359481
 20
19.7848728656
 11
-40.0017229427
 21
19.8159611375
  0
LINE
  5
2E9
100
AcDbEntity
  8
DRAFT
100
AcDbLine
 62
7
  6
CONTINUOUS
 10
-40.0017229427
 20
19.8159611375
 11
-40.0142121255
 21
19.8409719338
  0
LWPOLYLINE
  5
2EA
100
AcDbEntity
  8
DRAFT
100
AcDbPolyline
 62
7
  6
CONTINUOUS
 90
9
 70
0
 10
-35.9755628884
 20
-24.4816297121
 10
-35.975654096
 20
-24.4818468203
 10
-35.9759911735
 20
-24.4842783206
 10
-35.976318793
 20
-24.4891243027
 10
-35.9766342239
 20
-24.4963797962
 10
-35.9769401967
 20
-24.5060497714
 10
-35.9772332498
 20
-24.517952199
 10
-35.977512229
 20
-24.5320264025
 10
-35.9857878745
 20
-25.1590280662
  0
LINE
  5
2EB
100
AcDbEntity
  8
DRAFT
100
AcDbLine
 62
7
  6
CONTINUOUS
 10
-36.001407745
 20
-25.1902718783
 11
-35.9857878745
 21
-25.1590280662
  0
LINE
  5
2EC
100
AcDbEntity
  8
DRAFT
100
AcDbLine
 62
7
  6
CONTINUOUS
 10
-36.0139640519
 20
-25.2151271344
 11
-36.001407745
 21
-25.1902718783
  0
LWPOLYLINE
  5
2ED
100
AcDbEntity
  8
DRAFT
100
AcDbPolyline
 62
7
  6
CONTINUOUS
 90
8
 70
0
 10
-40.0244371262
 20
-24.4816611118
 10
-40.0246954791
 20
-24.4820984897
 10
-40.0250278575
 20
-24.4851301073
 10
-40.0253568332
 20
-24.4907883984
 10
-40.0256736052
 20
-24.4988180789
 10
-40.0259772046
 20
-24.5092372532
 10
-40.0262686002
 20
-24.5220278169
 10
-40.0267971529
 20
-24.5537769309
  0
LWPOLYLINE
  5
2EE
100
AcDbEntity
  8
DRAFT
100
AcDbPolyline
 62
7
  6
CONTINUOUS
 90
8
 70
0
 10
-35.9755628738
 20
-20.5183388882
 10
-35.9753045209
 20
-20.5179015103
 10
-35.9749721425
 20
-20.5148698927
 10
-35.9746431668
 20
-20.5092116016
 10
-35.9743263948
 20
-20.5011819211
 10
-35.9740227954
 20
-20.4907627468
 10
-35.9737313998
 20
-20.4779721831
 10
-35.9732028471
 20
-20.4462230691
  0
LINE
  5
2EF
100
AcDbEntity
  8
DRAFT
100
AcDbLine
 62
7
  6
CONTINUOUS
 10
-36.0139640519
 20
25.2151271344
 11
-35.9982770573
 21
25.1840388625
  0
LINE
  5
2F0
100
AcDbEntity
  8
DRAFT
100
AcDbLine
 62
7
  6
CONTINUOUS
 10
-35.9982770573
 20
25.1840388625
 11
-35.9857878745
 21
25.1590280662
  0
LINE
  5
2F1
100
AcDbEntity
  8
DRAFT
100
AcDbLine
 62
7
  6
CONTINUOUS
 10
39.9860359481
 20
-19.1639640519
 11
39.7127066746
 21
-19.1639640519
  0
LINE
  5
2F2
100
AcDbEntity
  8
DRAFT
100
AcDbLine
 62
7
  6
CONTINUOUS
 10
36.2872933254
 20
-19.1639640519
 11
36.0139640519
 21
-19.1639640519
  0
LINE
  5
2F3
100
AcDbEntity
  8
DRAFT
100
AcDbLine
 62
7
  6
CONTINUOUS
 10
-36.0139640519
 20
-19.1639640519
 11
-36.2872933254
 21
-19.1639640519
  0
LINE
  5
2F4
100
AcDbEntity
  8
DRAFT
100
AcDbLine
 62
7
  6
CONTINUOUS
 10
-39.7127066746
 20
-19.1639640519
 11
-39.9860359481
 21
-19.1639640519
  0
LINE
  5
2F5
100
AcDbEntity
  8
DRAFT
100
AcDbLine
 62
7
  6
CONTINUOUS
 10
-39.6830676859
 20
-19.156862245
 11
-36.3169323141
 21
-19.156862245
  0
LINE
  5
2F6
100
AcDbEntity
  8
DRAFT
100
AcDbLine
 62
7
  6
CONTINUOUS
 10
39.6830676859
 20
-19.156862245
 11
36.3169323141
 21
-19.156862245
  0
LINE
  5
2F7
100
AcDbEntity
  8
DRAFT
100
AcDbLine
 62
7
  6
CONTINUOUS
 10
-40.0053295471
 20
-19.1446704529
 11
-35.9946704529
 21
-19.1446704529
  0
LINE
  5
2F8
100
AcDbEntity
  8
DRAFT
100
AcDbLine
 62
7
  6
CONTINUOUS
 10
40.0053295471
 20
-19.1446704529
 11
35.9946704529
 21
-19.1446704529
  0
LINE
  5
2F9
100
AcDbEntity
  8
DRAFT
100
AcDbLine
 62
7
  6
CONTINUOUS
 10
40.0168768991
 20
-18.4831231009
 11
35.9831231009
 21
-18.4831231009
  0
LINE
  5
2FA
100
AcDbEntity
  8
DRAFT
100
AcDbLine
 62
7
  6
CONTINUOUS
 10
-35.9831231009
 20
-18.4831231009
 11
-40.0168768991
 21
-18.4831231009
  0
LINE
  5
2FB
100
AcDbEntity
  8
DRAFT
100
AcDbLine
 62
7
  6
CONTINUOUS
 10
40.0279281039
 20
-18.4720718961
 11
35.9720718961
 21
-18.4720718961
  0
LINE
  5
2FC
100
AcDbEntity
  8
DRAFT
100
AcDbLine
 62
7
  6
CONTINUOUS
 10
-35.9720718961
 20
-18.4720718961
 11
-40.0279281039
 21
-18.4720718961
  0
LINE
  5
2FD
100
AcDbEntity
  8
RACCORDO
100
AcDbLine
 62
7
  6
CONTINUOUS
 10
-42.0
 20
-15.0
 11
-39.4992384758
 21
-15.0
  0
LINE
  5
2FE
100
AcDbEntity
  8
RACCORDO
100
AcDbLine
 62
7
  6
CONTINUOUS
 10
39.4992384758
 20
-15.0
 11
42.0
 21
-15.0
  0
LINE
  5
2FF
100
AcDbEntity
  8
DRAFT
100
AcDbLine
 62
7
  6
CONTINUOUS
 10
-36.9860359481
 20
-27.1262202069
 11
-37.0
 21
-27.1435439053
  0
LINE
  5
300
100
AcDbEntity
  8
DRAFT
100
AcDbLine
 62
7
  6
CONTINUOUS
 10
-35.9720718961
 20
-18.4720718961
 11
-35.9831231009
 21
-18.4831231009
  0
LINE
  5
301
100
AcDbEntity
  8
DRAFT
100
AcDbLine
 62
7
  6
CONTINUOUS
 10
-36.0139640519
 20
-19.1639640519
 11
-35.9946704529
 21
-19.1446704529
  0
LINE
  5
302
100
AcDbEntity
  8
DRAFT
100
AcDbLine
 62
7
  6
CONTINUOUS
 10
-35.9720718961
 20
18.4720718961
 11
-35.9831231009
 21
18.4831231009
  0
LINE
  5
303
100
AcDbEntity
  8
DRAFT
100
AcDbLine
 62
7
  6
CONTINUOUS
 10
-36.0139640519
 20
19.1639640519
 11
-35.9946704529
 21
19.1446704529
  0
LINE
  5
304
100
AcDbEntity
  8
DRAFT
100
AcDbLine
 62
7
  6
CONTINUOUS
 10
-37.0
 20
27.1435439053
 11
-36.9860359481
 21
27.1262202069
  0
LINE
  5
305
100
AcDbEntity
  8
DRAFT
100
AcDbLine
 62
7
  6
CONTINUOUS
 10
-36.9948533162
 20
-25.7448533162
 11
-37.0035530314
 21
-25.7535530314
  0
LINE
  5
306
100
AcDbEntity
  8
DRAFT
100
AcDbLine
 62
7
  6
CONTINUOUS
 10
-37.0168768991
 20
-26.5168768991
 11
-37.0279281039
 21
-26.5279281039
  0
LINE
  5
307
100
AcDbEntity
  8
DRAFT
100
AcDbLine
 62
7
  6
CONTINUOUS
 10
-34.5
 20
-24.5157095584
 11
-34.4842904416
 21
-24.5
  0
LINE
  5
308
100
AcDbEntity
  8
DRAFT
100
AcDbLine
 62
7
  6
CONTINUOUS
 10
-39.6830676859
 20
-19.156862245
 11
-39.7127066746
 21
-19.1639640519
  0
LINE
  5
309
100
AcDbEntity
  8
DRAFT
100
AcDbLine
 62
7
  6
CONTINUOUS
 10
39.6830676859
 20
-19.156862245
 11
39.7127066746
 21
-19.1639640519
  0
LINE
  5
30A
100
AcDbEntity
  8
DRAFT
100
AcDbLine
 62
7
  6
CONTINUOUS
 10
-37.0035530314
 20
25.7535530314
 11
-36.9948533162
 21
25.7448533162
  0
LINE
  5
30B
100
AcDbEntity
  8
DRAFT
100
AcDbLine
 62
7
  6
CONTINUOUS
 10
-37.0168768991
 20
26.5168768991
 11
-37.0279281039
 21
26.5279281039
  0
LINE
  5
30C
100
AcDbEntity
  8
DRAFT
100
AcDbLine
 62
7
  6
CONTINUOUS
 10
-34.5
 20
24.5157095584
 11
-34.4842904416
 21
24.5
  0
LINE
  5
30D
100
AcDbEntity
  8
RACCORDO
100
AcDbLine
 62
250
  6
CONTINUOUS
 10
-34.4589278676
 20
-29.35900402
 11
-34.5
 21
-29.4000761524
  0
LINE
  5
30E
100
AcDbEntity
  8
RACCORDO
100
AcDbLine
 62
250
  6
CONTINUOUS
 10
-34.5
 20
29.4000761524
 11
-34.4589278676
 21
29.35900402
  0
LWPOLYLINE
  5
30F
100
AcDbEntity
  8
0
100
AcDbPolyline
 62
7
  6
CONTINUOUS
 90
4
 70
0
 43
0.3500000006
 10
-2.3571427875
 20
39.0785713806
 10
-2.3571427875
 20
39.9357138519
 10
-1.9285714102
 20
40.3642873535
 10
-1.2857142735
 20
40.3642873535
  0
LINE
  5
310
100
AcDbEntity
  8
RACCORDO
100
AcDbLine
 62
250
  6
CONTINUOUS
 10
-33.95900402
 20
-29.8589278676
 11
-34.0000761524
 21
-29.9
  0
LINE
  5
311
100
AcDbEntity
  8
DRAFT
100
AcDbLine
 62
7
  6
CONTINUOUS
 10
-39.0114931534
 20
-26.1084423186
 11
-39.0139640519
 21
-26.1103153465
  0
LINE
  5
312
100
AcDbEntity
  8
DRAFT
100
AcDbLine
 62
7
  6
CONTINUOUS
 10
40.0
 20
26.8084219849
 11
39.9860359481
 21
26.7994997051
  0
LINE
  5
313
100
AcDbEntity
  8
DRAFT
100
AcDbLine
 62
7
  6
CONTINUOUS
 10
39.9860359481
 20
-26.7994997051
 11
40.0
 21
-26.8084219849
  0
LINE
  5
314
100
AcDbEntity
  8
DRAFT
100
AcDbLine
 62
7
  6
CONTINUOUS
 10
-39.0114931534
 20
26.1084423186
 11
-39.0139640519
 21
26.1103153465
  0
LINE
  5
315
100
AcDbEntity
  8
RACCORDO
100
AcDbLine
 62
250
  6
CONTINUOUS
 10
-34.0000761524
 20
29.9
 11
-33.95900402
 21
29.8589278676
  0
LINE
  5
316
100
AcDbEntity
  8
RACCORDO
100
AcDbLine
 62
250
  6
CONTINUOUS
 10
33.95900402
 20
29.8589278676
 11
34.0000761524
 21
29.9
  0
LINE
  5
317
100
AcDbEntity
  8
RACCORDO
100
AcDbLine
 62
250
  6
CONTINUOUS
 10
34.4589278676
 20
29.35900402
 11
34.5
 21
29.4000761524
  0
LINE
  5
318
100
AcDbEntity
  8
DRAFT
100
AcDbLine
 62
7
  6
CONTINUOUS
 10
39.0114931534
 20
26.1084423186
 11
39.0139640519
 21
26.1103153465
  0
LINE
  5
319
100
AcDbEntity
  8
DRAFT
100
AcDbLine
 62
7
  6
CONTINUOUS
 10
-40.0
 20
-26.8084219849
 11
-39.9860359481
 21
-26.7994997051
  0
LWPOLYLINE
  5
31A
100
AcDbEntity
  8
0
100
AcDbPolyline
 62
7
  6
CONTINUOUS
 90
4
 70
0
 43
0.3500000006
 10
49.8214282379
 20
1.928571373
 10
48.9642857666
 20
1.928571373
 10
48.535712265
 20
2.3571426086
 10
48.535712265
 20
3.0000005951
  0
LINE
  5
31B
100
AcDbEntity
  8
DRAFT
100
AcDbLine
 62
7
  6
CONTINUOUS
 10
-39.9860359481
 20
26.7994997051
 11
-40.0
 21
26.8084219849
  0
LINE
  5
31C
100
AcDbEntity
  8
DRAFT
100
AcDbLine
 62
7
  6
CONTINUOUS
 10
39.0114931534
 20
-26.1084423186
 11
39.0139640519
 21
-26.1103153465
  0
LINE
  5
31D
100
AcDbEntity
  8
RACCORDO
100
AcDbLine
 62
250
  6
CONTINUOUS
 10
34.0000761524
 20
-29.9
 11
33.95900402
 21
-29.8589278676
  0
LINE
  5
31E
100
AcDbEntity
  8
RACCORDO
100
AcDbLine
 62
250
  6
CONTINUOUS
 10
34.5
 20
-29.4000761524
 11
34.4589278676
 21
-29.35900402
  0
LINE
  5
31F
100
AcDbEntity
  8
DRAFT
100
AcDbLine
 62
7
  6
CONTINUOUS
 10
34.5
 20
24.5157095584
 11
34.4842904416
 21
24.5
  0
LINE
  5
320
100
AcDbEntity
  8
DRAFT
100
AcDbLine
 62
7
  6
CONTINUOUS
 10
37.0168768991
 20
26.5168768991
 11
37.0279281039
 21
26.5279281039
  0
LINE
  5
321
100
AcDbEntity
  8
DRAFT
100
AcDbLine
 62
7
  6
CONTINUOUS
 10
34.5
 20
-24.5157095584
 11
34.4842904416
 21
-24.5
  0
LINE
  5
322
100
AcDbEntity
  8
DRAFT
100
AcDbLine
 62
7
  6
CONTINUOUS
 10
37.0168768991
 20
-26.5168768991
 11
37.0279281039
 21
-26.5279281039
  0
LINE
  5
323
100
AcDbEntity
  8
DRAFT
100
AcDbLine
 62
7
  6
CONTINUOUS
 10
36.9948533162
 20
25.7448533162
 11
37.0035530314
 21
25.7535530314
  0
LINE
  5
324
100
AcDbEntity
  8
DRAFT
100
AcDbLine
 62
7
  6
CONTINUOUS
 10
39.6830676859
 20
19.156862245
 11
39.7127066746
 21
19.1639640519
  0
LINE
  5
325
100
AcDbEntity
  8
DRAFT
100
AcDbLine
 62
7
  6
CONTINUOUS
 10
-39.6830676859
 20
19.156862245
 11
-39.7127066746
 21
19.1639640519
  0
LINE
  5
326
100
AcDbEntity
  8
DRAFT
100
AcDbLine
 62
7
  6
CONTINUOUS
 10
37.0035530314
 20
-25.7535530314
 11
36.9948533162
 21
-25.7448533162
  0
LINE
  5
327
100
AcDbEntity
  8
DRAFT
100
AcDbLine
 62
7
  6
CONTINUOUS
 10
36.9860359481
 20
27.1262202069
 11
37.0
 21
27.1435439053
  0
LINE
  5
328
100
AcDbEntity
  8
DRAFT
100
AcDbLine
 62
7
  6
CONTINUOUS
 10
36.0139640519
 20
19.1639640519
 11
35.9946704529
 21
19.1446704529
  0
LINE
  5
329
100
AcDbEntity
  8
DRAFT
100
AcDbLine
 62
7
  6
CONTINUOUS
 10
35.9720718961
 20
18.4720718961
 11
35.9831231009
 21
18.4831231009
  0
LINE
  5
32A
100
AcDbEntity
  8
DRAFT
100
AcDbLine
 62
7
  6
CONTINUOUS
 10
36.0139640519
 20
-19.1639640519
 11
35.9946704529
 21
-19.1446704529
  0
LINE
  5
32B
100
AcDbEntity
  8
DRAFT
100
AcDbLine
 62
7
  6
CONTINUOUS
 10
35.9720718961
 20
-18.4720718961
 11
35.9831231009
 21
-18.4831231009
  0
LINE
  5
32C
100
AcDbEntity
  8
DRAFT
100
AcDbLine
 62
7
  6
CONTINUOUS
 10
37.0
 20
-27.1435439053
 11
36.9860359481
 21
-27.1262202069
  0
LINE
  5
32D
100
AcDbEntity
  8
RACCORDO
100
AcDbLine
 62
7
  6
CONTINUOUS
 10
42.0
 20
15.0
 11
39.4992384758
 21
15.0
  0
LINE
  5
32E
100
AcDbEntity
  8
RACCORDO
100
AcDbLine
 62
7
  6
CONTINUOUS
 10
-39.4992384758
 20
15.0
 11
-42.0
 21
15.0
  0
LWPOLYLINE
  5
32F
100
AcDbEntity
  8
0
100
AcDbPolyline
 62
7
  6
CONTINUOUS
 90
3
 70
0
 43
0.3500000006
 10
49.9642860718
 20
0.9285710678
 10
50.1785705566
 20
0.8571421509
 10
50.4642862244
 20
0.7142865829
  0
LINE
  5
330
100
AcDbEntity
  8
DRAFT
100
AcDbLine
 62
7
  6
CONTINUOUS
 10
36.001407745
 20
25.1902718783
 11
35.9857878745
 21
25.1590280662
  0
LINE
  5
331
100
AcDbEntity
  8
DRAFT
100
AcDbLine
 62
7
  6
CONTINUOUS
 10
36.0139640519
 20
25.2151271344
 11
36.001407745
 21
25.1902718783
  0
LWPOLYLINE
  5
332
100
AcDbEntity
  8
DRAFT
100
AcDbPolyline
 62
7
  6
CONTINUOUS
 90
8
 70
0
 10
35.9755628738
 20
20.5183388882
 10
35.9753045209
 20
20.5179015103
 10
35.9749721425
 20
20.5148698927
 10
35.9746431668
 20
20.5092116016
 10
35.9743263948
 20
20.5011819211
 10
35.9740227954
 20
20.4907627468
 10
35.9737313998
 20
20.4779721831
 10
35.9732028471
 20
20.4462230691
  0
LINE
  5
333
100
AcDbEntity
  8
DRAFT
100
AcDbLine
 62
7
  6
CONTINUOUS
 10
-40.0279281039
 20
18.4720718961
 11
-35.9720718961
 21
18.4720718961
  0
LINE
  5
334
100
AcDbEntity
  8
DRAFT
100
AcDbLine
 62
7
  6
CONTINUOUS
 10
35.9720718961
 20
18.4720718961
 11
40.0279281039
 21
18.4720718961
  0
LINE
  5
335
100
AcDbEntity
  8
DRAFT
100
AcDbLine
 62
7
  6
CONTINUOUS
 10
-40.0168768991
 20
18.4831231009
 11
-35.9831231009
 21
18.4831231009
  0
LINE
  5
336
100
AcDbEntity
  8
DRAFT
100
AcDbLine
 62
7
  6
CONTINUOUS
 10
35.9831231009
 20
18.4831231009
 11
40.0168768991
 21
18.4831231009
  0
LINE
  5
337
100
AcDbEntity
  8
DRAFT
100
AcDbLine
 62
7
  6
CONTINUOUS
 10
-40.0053295471
 20
19.1446704529
 11
-35.9946704529
 21
19.1446704529
  0
LINE
  5
338
100
AcDbEntity
  8
DRAFT
100
AcDbLine
 62
7
  6
CONTINUOUS
 10
40.0053295471
 20
19.1446704529
 11
35.9946704529
 21
19.1446704529
  0
LINE
  5
339
100
AcDbEntity
  8
DRAFT
100
AcDbLine
 62
7
  6
CONTINUOUS
 10
-39.6830676859
 20
19.156862245
 11
-36.3169323141
 21
19.156862245
  0
LINE
  5
33A
100
AcDbEntity
  8
DRAFT
100
AcDbLine
 62
7
  6
CONTINUOUS
 10
39.6830676859
 20
19.156862245
 11
36.3169323141
 21
19.156862245
  0
LINE
  5
33B
100
AcDbEntity
  8
DRAFT
100
AcDbLine
 62
7
  6
CONTINUOUS
 10
-39.9860359481
 20
19.1639640519
 11
-39.7127066746
 21
19.1639640519
  0
LINE
  5
33C
100
AcDbEntity
  8
DRAFT
100
AcDbLine
 62
7
  6
CONTINUOUS
 10
-36.2872933254
 20
19.1639640519
 11
-36.0139640519
 21
19.1639640519
  0
LINE
  5
33D
100
AcDbEntity
  8
DRAFT
100
AcDbLine
 62
7
  6
CONTINUOUS
 10
36.0139640519
 20
19.1639640519
 11
36.2872933254
 21
19.1639640519
  0
LINE
  5
33E
100
AcDbEntity
  8
DRAFT
100
AcDbLine
 62
7
  6
CONTINUOUS
 10
39.7127066746
 20
19.1639640519
 11
39.9860359481
 21
19.1639640519
  0
LINE
  5
33F
100
AcDbEntity
  8
DRAFT
100
AcDbLine
 62
7
  6
CONTINUOUS
 10
36.0139640519
 20
-25.2151271344
 11
35.9982770573
 21
-25.1840388625
  0
LINE
  5
340
100
AcDbEntity
  8
DRAFT
100
AcDbLine
 62
7
  6
CONTINUOUS
 10
35.9982770573
 20
-25.1840388625
 11
35.9857878745
 21
-25.1590280662
  0
LWPOLYLINE
  5
341
100
AcDbEntity
  8
DRAFT
100
AcDbPolyline
 62
7
  6
CONTINUOUS
 90
9
 70
0
 10
35.9755628884
 20
24.4816297121
 10
35.975654096
 20
24.4818468203
 10
35.9759911735
 20
24.4842783206
 10
35.976318793
 20
24.4891243027
 10
35.9766342239
 20
24.4963797962
 10
35.9769401967
 20
24.5060497714
 10
35.9772332498
 20
24.517952199
 10
35.977512229
 20
24.5320264025
 10
35.9857878745
 20
25.1590280662
  0
LWPOLYLINE
  5
342
100
AcDbEntity
  8
DRAFT
100
AcDbPolyline
 62
7
  6
CONTINUOUS
 90
8
 70
0
 10
40.0244371262
 20
24.4816611118
 10
40.0246954791
 20
24.4820984897
 10
40.0250278575
 20
24.4851301073
 10
40.0253568332
 20
24.4907883984
 10
40.0256736052
 20
24.4988180789
 10
40.0259772046
 20
24.5092372532
 10
40.0262686002
 20
24.5220278169
 10
40.0267971529
 20
24.5537769309
  0
LWPOLYLINE
  5
343
100
AcDbEntity
  8
0
100
AcDbPolyline
 62
7
  6
CONTINUOUS
 90
10
 70
0
 43
0.3500000006
 10
49.7500015869
 20
0.8571421509
 10
49.8928548889
 20
0.9285710678
 10
49.9642860718
 20
0.9285710678
 10
50.1071439056
 20
0.7857132339
 10
50.1071439056
 20
0.7142865829
 10
50.0357127228
 20
0.642857666
 10
49.9642860718
 20
0.642857666
 10
49.8214282379
 20
0.7142865829
 10
49.7500015869
 20
0.7857132339
 10
49.7500015869
 20
0.8571421509
  0
LINE
  5
344
100
AcDbEntity
  8
DRAFT
100
AcDbLine
 62
7
  6
CONTINUOUS
 10
39.998592255
 20
19.8097281217
 11
40.0142121255
 21
19.8409719338
  0
LINE
  5
345
100
AcDbEntity
  8
DRAFT
100
AcDbLine
 62
7
  6
CONTINUOUS
 10
39.9860359481
 20
19.7848728656
 11
39.998592255
 21
19.8097281217
  0
LINE
  5
346
100
AcDbEntity
  8
DRAFT
100
AcDbLine
 62
7
  6
CONTINUOUS
 10
-36.3169323141
 20
19.156862245
 11
-36.2872933254
 21
19.1639640519
  0
LINE
  5
347
100
AcDbEntity
  8
DRAFT
100
AcDbLine
 62
7
  6
CONTINUOUS
 10
-39.0051466838
 20
25.7448533162
 11
-36.9948533162
 21
25.7448533162
  0
LINE
  5
348
100
AcDbEntity
  8
DRAFT
100
AcDbLine
 62
7
  6
CONTINUOUS
 10
39.0051466838
 20
25.7448533162
 11
36.9948533162
 21
25.7448533162
  0
LINE
  5
349
100
AcDbEntity
  8
DRAFT
100
AcDbLine
 62
7
  6
CONTINUOUS
 10
-38.9964469686
 20
25.7535530314
 11
-37.0035530314
 21
25.7535530314
  0
LINE
  5
34A
100
AcDbEntity
  8
DRAFT
100
AcDbLine
 62
7
  6
CONTINUOUS
 10
37.0035530314
 20
25.7535530314
 11
38.9964469686
 21
25.7535530314
  0
LINE
  5
34B
100
AcDbEntity
  8
DRAFT
100
AcDbLine
 62
7
  6
CONTINUOUS
 10
38.9831231009
 20
26.5168768991
 11
37.0168768991
 21
26.5168768991
  0
LINE
  5
34C
100
AcDbEntity
  8
DRAFT
100
AcDbLine
 62
7
  6
CONTINUOUS
 10
-37.0168768991
 20
26.5168768991
 11
-38.9831231009
 21
26.5168768991
  0
LINE
  5
34D
100
AcDbEntity
  8
DRAFT
100
AcDbLine
 62
7
  6
CONTINUOUS
 10
38.9720718961
 20
26.5279281039
 11
37.0279281039
 21
26.5279281039
  0
LINE
  5
34E
100
AcDbEntity
  8
DRAFT
100
AcDbLine
 62
7
  6
CONTINUOUS
 10
-37.0279281039
 20
26.5279281039
 11
-38.9720718961
 21
26.5279281039
  0
LINE
  5
34F
100
AcDbEntity
  8
DRAFT
100
AcDbLine
 62
250
  6
CONTINUOUS
 10
40.0279281039
 20
27.75
 11
40.0
 21
27.75
  0
LINE
  5
350
100
AcDbEntity
  8
DRAFT
100
AcDbLine
 62
250
  6
CONTINUOUS
 10
-40.0279281039
 20
27.75
 11
-40.0
 21
27.75
  0
LINE
  5
351
100
AcDbEntity
  8
DRAFT
100
AcDbLine
 62
250
  6
CONTINUOUS
 10
-37.0279281039
 20
27.75
 11
-37.0
 21
27.75
  0
LINE
  5
352
100
AcDbEntity
  8
DRAFT
100
AcDbLine
 62
250
  6
CONTINUOUS
 10
37.0279281039
 20
27.75
 11
37.0
 21
27.75
  0
LINE
  5
353
100
AcDbEntity
  8
DRAFT
100
AcDbLine
 62
250
  6
CONTINUOUS
 10
-35.9720718961
 20
27.75
 11
-36.0
 21
27.75
  0
LINE
  5
354
100
AcDbEntity
  8
DRAFT
100
AcDbLine
 62
250
  6
CONTINUOUS
 10
35.9720718961
 20
27.75
 11
36.0
 21
27.75
  0
LINE
  5
355
100
AcDbEntity
  8
DRAFT
100
AcDbLine
 62
250
  6
CONTINUOUS
 10
-38.9720718961
 20
27.75
 11
-39.0
 21
27.75
  0
LINE
  5
356
100
AcDbEntity
  8
DRAFT
100
AcDbLine
 62
250
  6
CONTINUOUS
 10
38.9720718961
 20
27.75
 11
39.0
 21
27.75
  0
LINE
  5
357
100
AcDbEntity
  8
DRAFT
100
AcDbLine
 62
7
  6
CONTINUOUS
 10
36.3169323141
 20
19.156862245
 11
36.2872933254
 21
19.1639640519
  0
LINE
  5
358
100
AcDbEntity
  8
DRAFT
100
AcDbLine
 62
7
  6
CONTINUOUS
 10
39.9860359481
 20
-19.7848728656
 11
40.0017229427
 21
-19.8159611375
  0
LINE
  5
359
100
AcDbEntity
  8
DRAFT
100
AcDbLine
 62
7
  6
CONTINUOUS
 10
40.0017229427
 20
-19.8159611375
 11
40.0142121255
 21
-19.8409719338
  0
LWPOLYLINE
  5
35A
100
AcDbEntity
  8
DRAFT
100
AcDbPolyline
 62
7
  6
CONTINUOUS
 90
9
 70
0
 10
40.0244371126
 20
20.5183679552
 10
40.0243473319
 20
20.5181555604
 10
40.0240101419
 20
20.515735172
 10
40.023682389
 20
20.5108983079
 10
40.0233668409
 20
20.5036496224
 10
40.0230607298
 20
20.4939844612
 10
40.0227675027
 20
20.4820818038
 10
40.0224883085
 20
20.4680013099
 10
40.0142121255
 20
19.8409719338
  0
LINE
  5
35B
100
AcDbEntity
  8
RACCORDO
100
AcDbLine
 62
250
  6
CONTINUOUS
 10
20.1804521702
 20
29.3459354811
 11
33.992997017
 21
29.35900402
  0
LINE
  5
35C
100
AcDbEntity
  8
RACCORDO
100
AcDbLine
 62
250
  6
CONTINUOUS
 10
20.160271718
 20
29.8458593287
 11
33.95900402
 21
29.8589278676
  0
LINE
  5
35D
100
AcDbEntity
  8
RACCORDO
100
AcDbLine
 62
250
  6
CONTINUOUS
 10
6.4208812284
 20
29.3395500512
 11
20.1804521702
 21
29.3459354811
  0
LINE
  5
35E
100
AcDbEntity
  8
RACCORDO
100
AcDbLine
 62
250
  6
CONTINUOUS
 10
6.4144603471
 20
29.8394738988
 11
20.160271718
 21
29.8458593287
  0
LINE
  5
35F
100
AcDbEntity
  8
RACCORDO
100
AcDbLine
 62
250
  6
CONTINUOUS
 10
34.4589278676
 20
29.35900402
 11
33.992997017
 21
29.35900402
  0
LINE
  5
360
100
AcDbEntity
  8
RACCORDO
100
AcDbLine
 62
7
  6
CONTINUOUS
 10
-34.0000761524
 20
29.9
 11
34.0000761524
 21
29.9
  0
LINE
  5
361
100
AcDbEntity
  8
DRAFT
100
AcDbLine
 62
7
  6
CONTINUOUS
 10
42.0050125629
 20
29.9
 11
-42.0050125629
 21
29.9
  0
LINE
  5
362
100
AcDbEntity
  8
RACCORDO
100
AcDbLine
 62
250
  6
CONTINUOUS
 10
-7.1323340564
 20
29.3397182084
 11
6.4208812284
 21
29.3395500512
  0
LINE
  5
363
100
AcDbEntity
  8
RACCORDO
100
AcDbLine
 62
250
  6
CONTINUOUS
 10
-7.1252017224
 20
29.8396420559
 11
6.4144603471
 21
29.8394738988
  0
LINE
  5
364
100
AcDbEntity
  8
RACCORDO
100
AcDbLine
 62
250
  6
CONTINUOUS
 10
-20.4536076175
 20
29.3461291884
 11
-7.1323340564
 21
29.3397182084
  0
LINE
  5
365
100
AcDbEntity
  8
RACCORDO
100
AcDbLine
 62
250
  6
CONTINUOUS
 10
-20.4331540099
 20
29.846053036
 11
-7.1252017224
 21
29.8396420559
  0
LINE
  5
366
100
AcDbEntity
  8
RACCORDO
100
AcDbLine
 62
250
  6
CONTINUOUS
 10
-34.4589278676
 20
29.35900402
 11
-20.4536076175
 21
29.3461291884
  0
LINE
  5
367
100
AcDbEntity
  8
RACCORDO
100
AcDbLine
 62
250
  6
CONTINUOUS
 10
-33.95900402
 20
29.8589278676
 11
-20.4331540099
 21
29.846053036
  0
LWPOLYLINE
  5
368
100
AcDbEntity
  8
RACCORDO
100
AcDbPolyline
 62
250
  6
CONTINUOUS
 90
19
 70
0
 10
33.95900402
 20
29.8589278676
 10
34.0025668291
 20
29.857012975
 10
34.0457982274
 20
29.8513094023
 10
34.0883693253
 20
29.8418605404
 10
34.1299562568
 20
29.8287382728
 10
34.1702426426
 20
29.8120424294
 10
34.208921998
 20
29.7919000262
 10
34.2457000637
 20
29.7684642998
 10
34.2802970449
 20
29.7419135411
 10
34.3124497398
 20
29.712449739
 10
34.3419135418
 20
29.6802970441
 10
34.3684643004
 20
29.6457000629
 10
34.3919000266
 20
29.6089219972
 10
34.4120424297
 20
29.5702426419
 10
34.4287382731
 20
29.5299562561
 10
34.4418605405
 20
29.4883693248
 10
34.4513094024
 20
29.445798227
 10
34.457012975
 20
29.4025668289
 10
34.4589278676
 20
29.35900402
  0
LWPOLYLINE
  5
369
100
AcDbEntity
  8
0
100
AcDbPolyline
 62
7
  6
CONTINUOUS
 90
13
 70
0
 43
0.3500000006
 10
-1.9285714102
 20
40.3642873535
 10
-2.2142856617
 20
40.5785718384
 10
-2.2142856617
 20
41.2214298248
 10
-1.9285714102
 20
41.6499987946
 10
-1.2857142735
 20
41.6499987946
 10
-1.0000000219
 20
41.2214298248
 10
-1.0000000219
 20
40.5785718384
 10
-1.2857142735
 20
40.3642873535
 10
-0.8571428254
 20
39.9357138519
 10
-0.8571428254
 20
39.0785713806
 10
-1.2857142735
 20
38.649997879
 10
-1.9285714102
 20
38.649997879
 10
-2.3571427875
 20
39.0785713806
  0
LWPOLYLINE
  5
36A
100
AcDbEntity
  8
RACCORDO
100
AcDbPolyline
 62
250
  6
CONTINUOUS
 90
3
 70
0
 10
33.9866768695
 20
29.6437624652
 10
33.9882206409
 20
29.6071685304
 10
33.9908454354
 20
29.5287001948
  0
LWPOLYLINE
  5
36B
100
AcDbEntity
  8
DRAFT
100
AcDbPolyline
 62
7
  6
CONTINUOUS
 90
7
 70
0
 10
35.9772309695
 20
-24.5178492132
 10
35.9769371265
 20
-24.5059319007
 10
35.9766302567
 20
-24.4962582218
 10
35.9763132703
 20
-24.4890189626
 10
35.9759826308
 20
-24.484213634
 10
35.9756418745
 20
-24.4818427251
 10
35.9755628738
 20
-24.4816611118
  0
LWPOLYLINE
  5
36C
100
AcDbEntity
  8
RACCORDO
100
AcDbPolyline
 62
250
  6
CONTINUOUS
 90
3
 70
0
 10
33.9908454354
 20
29.5287001948
 10
33.9917057403
 20
29.4873639742
 10
33.9923988742
 20
29.4020791223
  0
LINE
  5
36D
100
AcDbEntity
  8
RACCORDO
100
AcDbLine
 62
250
  6
CONTINUOUS
 10
33.9923988742
 20
29.4020791223
 11
33.992997017
 21
29.35900402
  0
LINE
  5
36E
100
AcDbEntity
  8
RACCORDO
100
AcDbLine
 62
250
  6
CONTINUOUS
 10
33.992997017
 20
29.35900402
 11
33.992997017
 21
-29.35900402
  0
LINE
  5
36F
100
AcDbEntity
  8
RACCORDO
100
AcDbLine
 62
250
  6
CONTINUOUS
 10
34.4589278676
 20
29.35900402
 11
34.4589278676
 21
-29.35900402
  0
LINE
  5
370
100
AcDbEntity
  8
DRAFT
100
AcDbLine
 62
7
  6
CONTINUOUS
 10
34.4842904416
 20
-24.5
 11
34.4842904416
 21
-19.5
  0
LINE
  5
371
100
AcDbEntity
  8
DRAFT
100
AcDbLine
 62
7
  6
CONTINUOUS
 10
34.4842904416
 20
19.5
 11
34.4842904416
 21
24.5
  0
LINE
  5
372
100
AcDbEntity
  8
RACCORDO
100
AcDbLine
 62
7
  6
CONTINUOUS
 10
34.5
 20
29.4000761524
 11
34.5
 21
24.5157095584
  0
LINE
  5
373
100
AcDbEntity
  8
RACCORDO
100
AcDbLine
 62
7
  6
CONTINUOUS
 10
34.5
 20
10.0007615242
 11
34.5
 21
-10.0007615242
  0
LINE
  5
374
100
AcDbEntity
  8
DRAFT
100
AcDbLine
 62
7
  6
CONTINUOUS
 10
34.5
 20
19.4842904416
 11
34.5
 21
-19.4842904416
  0
LINE
  5
375
100
AcDbEntity
  8
RACCORDO
100
AcDbLine
 62
7
  6
CONTINUOUS
 10
34.5
 20
-24.5157095584
 11
34.5
 21
-29.4000761524
  0
LINE
  5
376
100
AcDbEntity
  8
RACCORDO
100
AcDbLine
 62
250
  6
CONTINUOUS
 10
33.9923988774
 20
-29.4020791188
 11
33.992997017
 21
-29.35900402
  0
LWPOLYLINE
  5
377
100
AcDbEntity
  8
RACCORDO
100
AcDbPolyline
 62
250
  6
CONTINUOUS
 90
4
 70
0
 10
33.9882206474
 20
-29.6071685143
 10
33.9908454427
 20
-29.5287001825
 10
33.9917057471
 20
-29.4873639645
 10
33.9923988774
 20
-29.4020791188
  0
LWPOLYLINE
  5
378
100
AcDbEntity
  8
0
100
AcDbPolyline
 62
7
  6
CONTINUOUS
 90
10
 70
0
 43
0.3500000006
 10
50.2500017395
 20
-1.7142852631
 10
49.3928592682
 20
-0.8571427917
 10
48.535712265
 20
-0.642856041
 10
47.6785697937
 20
-0.642856041
 10
47.250000824
 20
-1.0714295425
 10
47.250000824
 20
-1.7142852631
 10
47.6785697937
 20
-2.1428576317
 10
48.535712265
 20
-2.1428576317
 10
48.9642857666
 20
-1.7142852631
 10
48.9642857666
 20
-0.7857138748
  0
LWPOLYLINE
  5
379
100
AcDbEntity
  8
DRAFT
100
AcDbPolyline
 62
7
  6
CONTINUOUS
 90
7
 70
0
 10
35.9772309695
 20
20.4821507868
 10
35.9769371265
 20
20.4940680993
 10
35.9766302567
 20
20.5037417782
 10
35.9763132703
 20
20.5109810374
 10
35.9759826308
 20
20.515786366
 10
35.9756418745
 20
20.5181572749
 10
35.9755628738
 20
20.5183388882
  0
LWPOLYLINE
  5
37A
100
AcDbEntity
  8
DRAFT
100
AcDbPolyline
 62
7
  6
CONTINUOUS
 90
7
 70
0
 10
35.9737416426
 20
-20.4784744178
 10
35.9740342598
 20
-20.491205715
 10
35.9743387859
 20
-20.5015499948
 10
35.9746564107
 20
-20.5094833244
 10
35.9749859444
 20
-20.5150296366
 10
35.9753177909
 20
-20.5179665311
 10
35.9755628874
 20
-20.5183679552
  0
LWPOLYLINE
  5
37B
100
AcDbEntity
  8
DRAFT
100
AcDbPolyline
 62
7
  6
CONTINUOUS
 90
7
 70
0
 10
35.9737421847
 20
24.5214963882
 10
35.974034797
 20
24.5087707081
 10
35.9743393964
 20
24.4984319826
 10
35.9746572791
 20
24.490501792
 10
35.9749871488
 20
24.484958556
 10
35.9753192142
 20
24.4820267422
 10
35.9755628884
 20
24.4816297121
  0
LINE
  5
37C
100
AcDbEntity
  8
DRAFT
100
AcDbLine
 62
7
  6
CONTINUOUS
 10
35.9831231009
 20
-18.4831231009
 11
35.9946704529
 21
-19.1446704529
  0
LINE
  5
37D
100
AcDbEntity
  8
DRAFT
100
AcDbLine
 62
7
  6
CONTINUOUS
 10
37.0168768991
 20
-26.5168768991
 11
37.0035530314
 21
-25.7535530314
  0
LINE
  5
37E
100
AcDbEntity
  8
DRAFT
100
AcDbLine
 62
7
  6
CONTINUOUS
 10
36.9885068466
 20
26.1084423186
 11
36.9948533162
 21
25.7448533162
  0
LINE
  5
37F
100
AcDbEntity
  8
DRAFT
100
AcDbLine
 62
7
  6
CONTINUOUS
 10
39.0051466838
 20
-25.7448533162
 11
39.0114931534
 21
-26.1084423186
  0
LINE
  5
380
100
AcDbEntity
  8
DRAFT
100
AcDbLine
 62
7
  6
CONTINUOUS
 10
35.9777776353
 20
-24.5482875486
 11
35.9772309695
 21
-24.5178492132
  0
LINE
  5
381
100
AcDbEntity
  8
DRAFT
100
AcDbLine
 62
7
  6
CONTINUOUS
 10
35.9777776353
 20
20.4517124514
 11
35.9772309695
 21
20.4821507868
  0
LINE
  5
382
100
AcDbEntity
  8
DRAFT
100
AcDbLine
 62
7
  6
CONTINUOUS
 10
35.9732100785
 20
-20.4467397239
 11
35.9737416426
 21
-20.4784744178
  0
LINE
  5
383
100
AcDbEntity
  8
DRAFT
100
AcDbLine
 62
7
  6
CONTINUOUS
 10
35.9732104157
 20
24.5532390091
 11
35.9737421847
 21
24.5214963882
  0
LINE
  5
384
100
AcDbEntity
  8
DRAFT
100
AcDbLine
 62
7
  6
CONTINUOUS
 10
35.9857878745
 20
-25.1590280662
 11
35.9777776353
 21
-24.5482875486
  0
LINE
  5
385
100
AcDbEntity
  8
DRAFT
100
AcDbLine
 62
7
  6
CONTINUOUS
 10
35.9857878745
 20
19.8409719338
 11
35.9777776353
 21
20.4517124514
  0
LINE
  5
386
100
AcDbEntity
  8
DRAFT
100
AcDbLine
 62
7
  6
CONTINUOUS
 10
35.972565618
 20
-20.3843498472
 11
35.9732100785
 21
-20.4467397239
  0
LINE
  5
387
100
AcDbEntity
  8
DRAFT
100
AcDbLine
 62
7
  6
CONTINUOUS
 10
35.9725655529
 20
24.6156564292
 11
35.9732104157
 21
24.5532390091
  0
LINE
  5
388
100
AcDbEntity
  8
DRAFT
100
AcDbLine
 62
7
  6
CONTINUOUS
 10
35.9721679402
 20
-20.3059310271
 11
35.972565618
 21
-20.3843498472
  0
LINE
  5
389
100
AcDbEntity
  8
DRAFT
100
AcDbLine
 62
7
  6
CONTINUOUS
 10
35.9721679187
 20
24.6940741207
 11
35.9725655529
 21
24.6156564292
  0
LINE
  5
38A
100
AcDbEntity
  8
DRAFT
100
AcDbLine
 62
7
  6
CONTINUOUS
 10
35.9720718961
 20
-18.4720718961
 11
35.9721679402
 21
-20.3059310271
  0
LINE
  5
38B
100
AcDbEntity
  8
DRAFT
100
AcDbLine
 62
7
  6
CONTINUOUS
 10
35.9721679187
 20
24.6940741207
 11
35.9720718961
 21
27.75
  0
LINE
  5
38C
100
AcDbEntity
  8
DRAFT
100
AcDbLine
 62
7
  6
CONTINUOUS
 10
36.0
 20
27.75
 11
36.0
 21
26.8084219849
  0
LINE
  5
38D
100
AcDbEntity
  8
DRAFT
100
AcDbLine
 62
7
  6
CONTINUOUS
 10
36.0
 20
-26.8084219849
 11
36.0
 21
-27.75
  0
LINE
  5
38E
100
AcDbEntity
  8
DRAFT
100
AcDbLine
 62
7
  6
CONTINUOUS
 10
36.0139640519
 20
26.7994997051
 11
36.0139640519
 21
25.2151271344
  0
LINE
  5
38F
100
AcDbEntity
  8
DRAFT
100
AcDbLine
 62
7
  6
CONTINUOUS
 10
36.0139640519
 20
19.7848728656
 11
36.0139640519
 21
19.1639640519
  0
LINE
  5
390
100
AcDbEntity
  8
DRAFT
100
AcDbLine
 62
7
  6
CONTINUOUS
 10
36.0139640519
 20
-19.1639640519
 11
36.0139640519
 21
-19.7848728656
  0
LINE
  5
391
100
AcDbEntity
  8
DRAFT
100
AcDbLine
 62
7
  6
CONTINUOUS
 10
36.0139640519
 20
-25.2151271344
 11
36.0139640519
 21
-26.7994997051
  0
LINE
  5
392
100
AcDbEntity
  8
DRAFT
100
AcDbLine
 62
7
  6
CONTINUOUS
 10
36.9860359481
 20
27.1262202069
 11
36.9860359481
 21
26.1103153465
  0
LINE
  5
393
100
AcDbEntity
  8
DRAFT
100
AcDbLine
 62
7
  6
CONTINUOUS
 10
36.9860359481
 20
-27.1262202069
 11
36.9860359481
 21
-26.1103153465
  0
LINE
  5
394
100
AcDbEntity
  8
DRAFT
100
AcDbLine
 62
7
  6
CONTINUOUS
 10
37.0
 20
-27.75
 11
37.0
 21
-27.1435439053
  0
LINE
  5
395
100
AcDbEntity
  8
DRAFT
100
AcDbLine
 62
7
  6
CONTINUOUS
 10
37.0
 20
27.1435439053
 11
37.0
 21
27.75
  0
LINE
  5
396
100
AcDbEntity
  8
DRAFT
100
AcDbLine
 62
7
  6
CONTINUOUS
 10
37.0279281039
 20
-27.75
 11
37.0279281039
 21
-26.5279281039
  0
LINE
  5
397
100
AcDbEntity
  8
DRAFT
100
AcDbLine
 62
7
  6
CONTINUOUS
 10
37.0279281039
 20
26.5279281039
 11
37.0279281039
 21
27.75
  0
LINE
  5
398
100
AcDbEntity
  8
DRAFT
100
AcDbLine
 62
7
  6
CONTINUOUS
 10
35.972264742
 20
20.3336440549
 11
35.9720718961
 21
18.4720718961
  0
LINE
  5
399
100
AcDbEntity
  8
DRAFT
100
AcDbLine
 62
7
  6
CONTINUOUS
 10
35.972264742
 20
-24.6663559451
 11
35.9720718961
 21
-27.75
  0
LINE
  5
39A
100
AcDbEntity
  8
DRAFT
100
AcDbLine
 62
7
  6
CONTINUOUS
 10
35.9727526945
 20
20.4065016
 11
35.972264742
 21
20.3336440549
  0
LINE
  5
39B
100
AcDbEntity
  8
DRAFT
100
AcDbLine
 62
7
  6
CONTINUOUS
 10
35.9727526945
 20
-24.5934984
 11
35.972264742
 21
-24.6663559451
  0
LINE
  5
39C
100
AcDbEntity
  8
DRAFT
100
AcDbLine
 62
7
  6
CONTINUOUS
 10
35.9732028471
 20
20.4462230691
 11
35.9727526945
 21
20.4065016
  0
LINE
  5
39D
100
AcDbEntity
  8
DRAFT
100
AcDbLine
 62
7
  6
CONTINUOUS
 10
35.9732028471
 20
-24.5537769309
 11
35.9727526945
 21
-24.5934984
  0
LINE
  5
39E
100
AcDbEntity
  8
DRAFT
100
AcDbLine
 62
7
  6
CONTINUOUS
 10
35.9946704529
 20
19.1446704529
 11
35.9831231009
 21
18.4831231009
  0
LINE
  5
39F
100
AcDbEntity
  8
DRAFT
100
AcDbLine
 62
7
  6
CONTINUOUS
 10
37.0035530314
 20
25.7535530314
 11
37.0168768991
 21
26.5168768991
  0
LINE
  5
3A0
100
AcDbEntity
  8
DRAFT
100
AcDbLine
 62
7
  6
CONTINUOUS
 10
36.9948533162
 20
-25.7448533162
 11
36.9885068466
 21
-26.1084423186
  0
LINE
  5
3A1
100
AcDbEntity
  8
DRAFT
100
AcDbLine
 62
7
  6
CONTINUOUS
 10
39.0114931534
 20
26.1084423186
 11
39.0051466838
 21
25.7448533162
  0
LWPOLYLINE
  5
3A2
100
AcDbEntity
  8
RACCORDO
100
AcDbPolyline
 62
250
  6
CONTINUOUS
 90
19
 70
0
 10
34.4589278676
 20
-29.35900402
 10
34.457012975
 20
-29.4025668289
 10
34.4513094024
 20
-29.445798227
 10
34.4418605405
 20
-29.4883693248
 10
34.4287382731
 20
-29.5299562561
 10
34.4120424297
 20
-29.5702426419
 10
34.3919000266
 20
-29.6089219972
 10
34.3684643004
 20
-29.6457000629
 10
34.3419135418
 20
-29.6802970441
 10
34.3124497398
 20
-29.712449739
 10
34.2802970449
 20
-29.7419135411
 10
34.2457000637
 20
-29.7684642998
 10
34.208921998
 20
-29.7919000262
 10
34.1702426426
 20
-29.8120424294
 10
34.1299562568
 20
-29.8287382728
 10
34.0883693253
 20
-29.8418605404
 10
34.0457982274
 20
-29.8513094023
 10
34.0025668291
 20
-29.857012975
 10
33.95900402
 20
-29.8589278676
  0
LWPOLYLINE
  5
3A3
100
AcDbEntity
  8
RACCORDO
100
AcDbPolyline
 62
250
  6
CONTINUOUS
 90
3
 70
0
 10
33.9827845678
 20
-29.7101924943
 10
33.986676876
 20
-29.6437624488
 10
33.9882206474
 20
-29.6071685143
  0
LWPOLYLINE
  5
3A4
100
AcDbEntity
  8
0
100
AcDbPolyline
 62
7
  6
CONTINUOUS
 90
13
 70
0
 43
0.3500000006
 10
48.535712265
 20
2.3571426086
 10
48.3214277802
 20
2.0714292068
 10
47.6785697937
 20
2.0714292068
 10
47.250000824
 20
2.3571426086
 10
47.250000824
 20
3.0000005951
 10
47.6785697937
 20
3.2857139969
 10
48.3214277802
 20
3.2857139969
 10
48.535712265
 20
3.0000005951
 10
48.9642857666
 20
3.4285718307
 10
49.8214282379
 20
3.4285718307
 10
50.2500017395
 20
3.0000005951
 10
50.2500017395
 20
2.3571426086
 10
49.8214282379
 20
1.928571373
  0
LINE
  5
3A5
100
AcDbEntity
  8
DRAFT
100
AcDbLine
 62
7
  6
CONTINUOUS
 10
34.5
 20
-19.4842904416
 11
34.4842904416
 21
-19.5
  0
LINE
  5
3A6
100
AcDbEntity
  8
DRAFT
100
AcDbLine
 62
7
  6
CONTINUOUS
 10
34.5
 20
19.4842904416
 11
34.4842904416
 21
19.5
  0
LWPOLYLINE
  5
3A7
100
AcDbEntity
  8
DRAFT
100
AcDbPolyline
 62
7
  6
CONTINUOUS
 90
7
 70
0
 10
40.0227690305
 20
-20.4821507868
 10
40.0230628735
 20
-20.4940680993
 10
40.0233697433
 20
-20.5037417782
 10
40.0236867297
 20
-20.5109810374
 10
40.0240173692
 20
-20.515786366
 10
40.0243581255
 20
-20.5181572749
 10
40.0244371262
 20
-20.5183388882
  0
LWPOLYLINE
  5
3A8
100
AcDbEntity
  8
DRAFT
100
AcDbPolyline
 62
7
  6
CONTINUOUS
 90
7
 70
0
 10
40.0227690305
 20
24.5178492132
 10
40.0230628735
 20
24.5059319007
 10
40.0233697433
 20
24.4962582218
 10
40.0236867297
 20
24.4890189626
 10
40.0240173692
 20
24.484213634
 10
40.0243581255
 20
24.4818427251
 10
40.0244371262
 20
24.4816611118
  0
LWPOLYLINE
  5
3A9
100
AcDbEntity
  8
DRAFT
100
AcDbPolyline
 62
7
  6
CONTINUOUS
 90
7
 70
0
 10
40.0262578153
 20
-24.5214963882
 10
40.025965203
 20
-24.5087707081
 10
40.0256606036
 20
-24.4984319826
 10
40.0253427209
 20
-24.490501792
 10
40.0250128512
 20
-24.484958556
 10
40.0246807858
 20
-24.4820267422
 10
40.0244371116
 20
-24.4816297121
  0
LWPOLYLINE
  5
3AA
100
AcDbEntity
  8
DRAFT
100
AcDbPolyline
 62
7
  6
CONTINUOUS
 90
7
 70
0
 10
40.0262583574
 20
20.4784744178
 10
40.0259657402
 20
20.491205715
 10
40.0256612141
 20
20.5015499948
 10
40.0253435893
 20
20.5094833244
 10
40.0250140556
 20
20.5150296366
 10
40.0246822091
 20
20.5179665311
 10
40.0244371126
 20
20.5183679552
  0
LINE
  5
3AB
100
AcDbEntity
  8
DRAFT
100
AcDbLine
 62
7
  6
CONTINUOUS
 10
38.9964469686
 20
25.7535530314
 11
38.9831231009
 21
26.5168768991
  0
LINE
  5
3AC
100
AcDbEntity
  8
DRAFT
100
AcDbLine
 62
7
  6
CONTINUOUS
 10
40.0168768991
 20
18.4831231009
 11
40.0053295471
 21
19.1446704529
  0
LINE
  5
3AD
100
AcDbEntity
  8
DRAFT
100
AcDbLine
 62
7
  6
CONTINUOUS
 10
40.0222223647
 20
-20.4517124514
 11
40.0227690305
 21
-20.4821507868
  0
LINE
  5
3AE
100
AcDbEntity
  8
DRAFT
100
AcDbLine
 62
7
  6
CONTINUOUS
 10
40.0222223647
 20
24.5482875486
 11
40.0227690305
 21
24.5178492132
  0
LINE
  5
3AF
100
AcDbEntity
  8
DRAFT
100
AcDbLine
 62
7
  6
CONTINUOUS
 10
40.0267895843
 20
-24.5532390091
 11
40.0262578153
 21
-24.5214963882
  0
LINE
  5
3B0
100
AcDbEntity
  8
DRAFT
100
AcDbLine
 62
7
  6
CONTINUOUS
 10
40.0267899215
 20
20.4467397239
 11
40.0262583574
 21
20.4784744178
  0
LINE
  5
3B1
100
AcDbEntity
  8
DRAFT
100
AcDbLine
 62
7
  6
CONTINUOUS
 10
40.0142121255
 20
-19.8409719338
 11
40.0222223647
 21
-20.4517124514
  0
LINE
  5
3B2
100
AcDbEntity
  8
DRAFT
100
AcDbLine
 62
7
  6
CONTINUOUS
 10
40.0142121255
 20
25.1590280662
 11
40.0222223647
 21
24.5482875486
  0
LINE
  5
3B3
100
AcDbEntity
  8
DRAFT
100
AcDbLine
 62
7
  6
CONTINUOUS
 10
40.0274344471
 20
-24.6156564292
 11
40.0267895843
 21
-24.5532390091
  0
LINE
  5
3B4
100
AcDbEntity
  8
DRAFT
100
AcDbLine
 62
7
  6
CONTINUOUS
 10
40.027434382
 20
20.3843498472
 11
40.0267899215
 21
20.4467397239
  0
LINE
  5
3B5
100
AcDbEntity
  8
DRAFT
100
AcDbLine
 62
7
  6
CONTINUOUS
 10
40.0278320813
 20
-24.6940741207
 11
40.0274344471
 21
-24.6156564292
  0
LINE
  5
3B6
100
AcDbEntity
  8
DRAFT
100
AcDbLine
 62
7
  6
CONTINUOUS
 10
40.0278320598
 20
20.3059310271
 11
40.027434382
 21
20.3843498472
  0
LINE
  5
3B7
100
AcDbEntity
  8
DRAFT
100
AcDbLine
 62
7
  6
CONTINUOUS
 10
38.9720718961
 20
27.75
 11
38.9720718961
 21
26.5279281039
  0
LINE
  5
3B8
100
AcDbEntity
  8
DRAFT
100
AcDbLine
 62
7
  6
CONTINUOUS
 10
38.9720718961
 20
-26.5279281039
 11
38.9720718961
 21
-27.75
  0
LINE
  5
3B9
100
AcDbEntity
  8
DRAFT
100
AcDbLine
 62
7
  6
CONTINUOUS
 10
39.0
 20
27.75
 11
39.0
 21
27.1435439053
  0
LINE
  5
3BA
100
AcDbEntity
  8
DRAFT
100
AcDbLine
 62
7
  6
CONTINUOUS
 10
39.0
 20
-27.1435439053
 11
39.0
 21
-27.75
  0
LINE
  5
3BB
100
AcDbEntity
  8
DRAFT
100
AcDbLine
 62
7
  6
CONTINUOUS
 10
39.0139640519
 20
27.1262202069
 11
39.0139640519
 21
26.1103153465
  0
LINE
  5
3BC
100
AcDbEntity
  8
DRAFT
100
AcDbLine
 62
7
  6
CONTINUOUS
 10
39.0139640519
 20
-27.1262202069
 11
39.0139640519
 21
-26.1103153465
  0
LINE
  5
3BD
100
AcDbEntity
  8
DRAFT
100
AcDbLine
 62
7
  6
CONTINUOUS
 10
39.9860359481
 20
-26.7994997051
 11
39.9860359481
 21
-25.2151271344
  0
LINE
  5
3BE
100
AcDbEntity
  8
DRAFT
100
AcDbLine
 62
7
  6
CONTINUOUS
 10
39.9860359481
 20
-19.7848728656
 11
39.9860359481
 21
-19.1639640519
  0
LINE
  5
3BF
100
AcDbEntity
  8
DRAFT
100
AcDbLine
 62
7
  6
CONTINUOUS
 10
39.9860359481
 20
19.1639640519
 11
39.9860359481
 21
19.7848728656
  0
LINE
  5
3C0
100
AcDbEntity
  8
DRAFT
100
AcDbLine
 62
7
  6
CONTINUOUS
 10
39.9860359481
 20
25.2151271344
 11
39.9860359481
 21
26.7994997051
  0
LINE
  5
3C1
100
AcDbEntity
  8
DRAFT
100
AcDbLine
 62
7
  6
CONTINUOUS
 10
40.0
 20
-27.75
 11
40.0
 21
-26.8084219849
  0
LINE
  5
3C2
100
AcDbEntity
  8
DRAFT
100
AcDbLine
 62
7
  6
CONTINUOUS
 10
40.0
 20
26.8084219849
 11
40.0
 21
27.75
  0
LINE
  5
3C3
100
AcDbEntity
  8
DRAFT
100
AcDbLine
 62
7
  6
CONTINUOUS
 10
40.0278320813
 20
-24.6940741207
 11
40.0279281039
 21
-27.75
  0
LINE
  5
3C4
100
AcDbEntity
  8
DRAFT
100
AcDbLine
 62
7
  6
CONTINUOUS
 10
40.0279281039
 20
18.4720718961
 11
40.0278320598
 21
20.3059310271
  0
LINE
  5
3C5
100
AcDbEntity
  8
DRAFT
100
AcDbLine
 62
7
  6
CONTINUOUS
 10
40.027735258
 20
24.6663559451
 11
40.0279281039
 21
27.75
  0
LINE
  5
3C6
100
AcDbEntity
  8
DRAFT
100
AcDbLine
 62
7
  6
CONTINUOUS
 10
40.027735258
 20
-20.3336440549
 11
40.0279281039
 21
-18.4720718961
  0
LINE
  5
3C7
100
AcDbEntity
  8
DRAFT
100
AcDbLine
 62
7
  6
CONTINUOUS
 10
40.0272473055
 20
24.5934984
 11
40.027735258
 21
24.6663559451
  0
LINE
  5
3C8
100
AcDbEntity
  8
DRAFT
100
AcDbLine
 62
7
  6
CONTINUOUS
 10
40.0272473055
 20
-20.4065016
 11
40.027735258
 21
-20.3336440549
  0
LINE
  5
3C9
100
AcDbEntity
  8
DRAFT
100
AcDbLine
 62
7
  6
CONTINUOUS
 10
40.0267971529
 20
24.5537769309
 11
40.0272473055
 21
24.5934984
  0
LINE
  5
3CA
100
AcDbEntity
  8
DRAFT
100
AcDbLine
 62
7
  6
CONTINUOUS
 10
40.0267971529
 20
-20.4462230691
 11
40.0272473055
 21
-20.4065016
  0
LINE
  5
3CB
100
AcDbEntity
  8
DRAFT
100
AcDbLine
 62
7
  6
CONTINUOUS
 10
38.9831231009
 20
-26.5168768991
 11
38.9964469686
 21
-25.7535530314
  0
LINE
  5
3CC
100
AcDbEntity
  8
DRAFT
100
AcDbLine
 62
7
  6
CONTINUOUS
 10
40.0053295471
 20
-19.1446704529
 11
40.0168768991
 21
-18.4831231009
  0
LWPOLYLINE
  5
3CD
100
AcDbEntity
  8
DRAFT
100
AcDbPolyline
 62
7
  6
CONTINUOUS
 90
9
 70
0
 10
35.9755628874
 20
-20.5183679552
 10
35.9756526681
 20
-20.5181555604
 10
35.9759898581
 20
-20.515735172
 10
35.976317611
 20
-20.5108983079
 10
35.9766331591
 20
-20.5036496224
 10
35.9769392702
 20
-20.4939844612
 10
35.9772324973
 20
-20.4820818038
 10
35.9775116915
 20
-20.4680013099
 10
35.9857878745
 20
-19.8409719338
  0
LINE
  5
3CE
100
AcDbEntity
  8
DRAFT
100
AcDbLine
 62
7
  6
CONTINUOUS
 10
36.001407745
 20
-19.8097281217
 11
35.9857878745
 21
-19.8409719338
  0
LINE
  5
3CF
100
AcDbEntity
  8
DRAFT
100
AcDbLine
 62
7
  6
CONTINUOUS
 10
36.0139640519
 20
-19.7848728656
 11
36.001407745
 21
-19.8097281217
  0
LINE
  5
3D0
100
AcDbEntity
  8
DRAFT
100
AcDbLine
 62
7
  6
CONTINUOUS
 10
40.0279281039
 20
-18.4720718961
 11
40.0168768991
 21
-18.4831231009
  0
LINE
  5
3D1
100
AcDbEntity
  8
DRAFT
100
AcDbLine
 62
7
  6
CONTINUOUS
 10
39.9860359481
 20
-19.1639640519
 11
40.0053295471
 21
-19.1446704529
  0
LINE
  5
3D2
100
AcDbEntity
  8
DRAFT
100
AcDbLine
 62
7
  6
CONTINUOUS
 10
36.0
 20
-26.8084219849
 11
36.0139640519
 21
-26.7994997051
  0
LINE
  5
3D3
100
AcDbEntity
  8
DRAFT
100
AcDbLine
 62
7
  6
CONTINUOUS
 10
36.0139640519
 20
26.7994997051
 11
36.0
 21
26.8084219849
  0
LINE
  5
3D4
100
AcDbEntity
  8
DRAFT
100
AcDbLine
 62
7
  6
CONTINUOUS
 10
40.0279281039
 20
18.4720718961
 11
40.0168768991
 21
18.4831231009
  0
LINE
  5
3D5
100
AcDbEntity
  8
DRAFT
100
AcDbLine
 62
7
  6
CONTINUOUS
 10
39.9860359481
 20
19.1639640519
 11
40.0053295471
 21
19.1446704529
  0
LINE
  5
3D6
100
AcDbEntity
  8
DRAFT
100
AcDbLine
 62
7
  6
CONTINUOUS
 10
36.0139640519
 20
19.7848728656
 11
35.9982770573
 21
19.8159611375
  0
LINE
  5
3D7
100
AcDbEntity
  8
DRAFT
100
AcDbLine
 62
7
  6
CONTINUOUS
 10
35.9982770573
 20
19.8159611375
 11
35.9857878745
 21
19.8409719338
  0
LINE
  5
3D8
100
AcDbEntity
  8
DRAFT
100
AcDbLine
 62
7
  6
CONTINUOUS
 10
43.0
 20
-29.0
 11
43.0
 21
-16.0
  0
LINE
  5
3D9
100
AcDbEntity
  8
DRAFT
100
AcDbLine
 62
7
  6
CONTINUOUS
 10
43.0
 20
16.0
 11
43.0
 21
29.0
  0
LWPOLYLINE
  5
3DA
100
AcDbEntity
  8
DRAFT
100
AcDbPolyline
 62
7
  6
CONTINUOUS
 90
8
 70
0
 10
35.9755628738
 20
-24.4816611118
 10
35.9753045209
 20
-24.4820984897
 10
35.9749721425
 20
-24.4851301073
 10
35.9746431668
 20
-24.4907883984
 10
35.9743263948
 20
-24.4988180789
 10
35.9740227954
 20
-24.5092372532
 10
35.9737313998
 20
-24.5220278169
 10
35.9732028471
 20
-24.5537769309
  0
LWPOLYLINE
  5
3DB
100
AcDbEntity
  8
DRAFT
100
AcDbPolyline
 62
7
  6
CONTINUOUS
 90
8
 70
0
 10
40.0244371262
 20
-20.5183388882
 10
40.0246954791
 20
-20.5179015103
 10
40.0250278575
 20
-20.5148698927
 10
40.0253568332
 20
-20.5092116016
 10
40.0256736052
 20
-20.5011819211
 10
40.0259772046
 20
-20.4907627468
 10
40.0262686002
 20
-20.4779721831
 10
40.0267971529
 20
-20.4462230691
  0
LINE
  5
3DC
100
AcDbEntity
  8
DRAFT
100
AcDbLine
 62
7
  6
CONTINUOUS
 10
38.9964469686
 20
-25.7535530314
 11
39.0051466838
 21
-25.7448533162
  0
LWPOLYLINE
  5
3DD
100
AcDbEntity
  8
RACCORDO
100
AcDbPolyline
 62
250
  6
CONTINUOUS
 90
10
 70
0
 10
33.959004021
 20
-29.8589278676
 10
33.9622559901
 20
-29.8563174188
 10
33.9650499651
 20
-29.8501130074
 10
33.9676208741
 20
-29.8403979137
 10
33.9704139835
 20
-29.827094243
 10
33.9733030732
 20
-29.8101517958
 10
33.9757474478
 20
-29.7898117144
 10
33.978139681
 20
-29.7663199113
 10
33.9807078199
 20
-29.7397057684
 10
33.9827845678
 20
-29.7101924943
  0
LINE
  5
3DE
100
AcDbEntity
  8
DRAFT
100
AcDbLine
 62
7
  6
CONTINUOUS
 10
36.9885068466
 20
-26.1084423186
 11
36.9860359481
 21
-26.1103153465
  0
LINE
  5
3DF
100
AcDbEntity
  8
DRAFT
100
AcDbLine
 62
7
  6
CONTINUOUS
 10
36.9885068466
 20
26.1084423186
 11
36.9860359481
 21
26.1103153465
  0
LWPOLYLINE
  5
3E0
100
AcDbEntity
  8
RACCORDO
100
AcDbPolyline
 62
250
  6
CONTINUOUS
 90
11
 70
0
 10
33.959004021
 20
29.8589278676
 10
33.9622559883
 20
29.8563174198
 10
33.9650499623
 20
29.8501130106
 10
33.9676208708
 20
29.8403979202
 10
33.9704139791
 20
29.8270942539
 10
33.9733030676
 20
29.8101518117
 10
33.975747442
 20
29.7898117344
 10
33.9781396758
 20
29.7663199323
 10
33.9807078147
 20
29.7397057874
 10
33.9827845618
 20
29.7101925108
 10
33.9866768695
 20
29.6437624652
  0
LINE
  5
3E1
100
AcDbEntity
  8
DRAFT
100
AcDbLine
 62
7
  6
CONTINUOUS
 10
39.0051466838
 20
25.7448533162
 11
38.9964469686
 21
25.7535530314
  0
LWPOLYLINE
  5
3E2
100
AcDbEntity
  8
0
100
AcDbPolyline
 62
7
  6
CONTINUOUS
 90
8
 70
0
 43
0.3500000006
 10
50.2500017395
 20
-4.28571381
 10
50.2500017395
 20
-3.4285713387
 10
49.8214282379
 20
-3.000000103
 10
48.9642857666
 20
-3.000000103
 10
48.535712265
 20
-3.4285713387
 10
48.535712265
 20
-4.28571381
 10
47.250000824
 20
-4.28571381
 10
47.250000824
 20
-3.000000103
  0
LWPOLYLINE
  5
3E3
100
AcDbEntity
  8
DRAFT
100
AcDbPolyline
 62
7
  6
CONTINUOUS
 90
9
 70
0
 10
40.0244371116
 20
-24.4816297121
 10
40.024345904
 20
-24.4818468203
 10
40.0240088265
 20
-24.4842783206
 10
40.023681207
 20
-24.4891243027
 10
40.0233657761
 20
-24.4963797962
 10
40.0230598033
 20
-24.5060497714
 10
40.0227667502
 20
-24.517952199
 10
40.022487771
 20
-24.5320264025
 10
40.0142121255
 20
-25.1590280662
  0
LINE
  5
3E4
100
AcDbEntity
  8
DRAFT
100
AcDbLine
 62
7
  6
CONTINUOUS
 10
39.998592255
 20
-25.1902718783
 11
40.0142121255
 21
-25.1590280662
  0
LINE
  5
3E5
100
AcDbEntity
  8
DRAFT
100
AcDbLine
 62
7
  6
CONTINUOUS
 10
39.9860359481
 20
-25.2151271344
 11
39.998592255
 21
-25.1902718783
  0
LINE
  5
3E6
100
AcDbEntity
  8
DRAFT
100
AcDbLine
 62
7
  6
CONTINUOUS
 10
39.0139640519
 20
-27.1262202069
 11
39.0
 21
-27.1435439053
  0
LINE
  5
3E7
100
AcDbEntity
  8
DRAFT
100
AcDbLine
 62
7
  6
CONTINUOUS
 10
38.9831231009
 20
-26.5168768991
 11
38.9720718961
 21
-26.5279281039
  0
LINE
  5
3E8
100
AcDbEntity
  8
DRAFT
100
AcDbLine
 62
7
  6
CONTINUOUS
 10
38.9831231009
 20
26.5168768991
 11
38.9720718961
 21
26.5279281039
  0
LINE
  5
3E9
100
AcDbEntity
  8
DRAFT
100
AcDbLine
 62
7
  6
CONTINUOUS
 10
39.0
 20
27.1435439053
 11
39.0139640519
 21
27.1262202069
  0
LINE
  5
3EA
100
AcDbEntity
  8
DRAFT
100
AcDbLine
 62
7
  6
CONTINUOUS
 10
39.9860359481
 20
25.2151271344
 11
40.0017229427
 21
25.1840388625
  0
LINE
  5
3EB
100
AcDbEntity
  8
DRAFT
100
AcDbLine
 62
7
  6
CONTINUOUS
 10
40.0017229427
 20
25.1840388625
 11
40.0142121255
 21
25.1590280662
  0
LWPOLYLINE
  5
3EC
100
AcDbEntity
  8
0
100
AcDbPolyline
 62
7
  6
CONTINUOUS
 90
10
 70
0
 43
0.3500000006
 10
-92.7801515808
 20
51.6500018463
 10
-93.4230050354
 20
51.0071438599
 10
-93.8515830688
 20
50.1500013885
 10
-93.8515830688
 20
49.0785699005
 10
-93.4230050354
 20
48.6500009308
 10
-92.7801515808
 20
48.6500009308
 10
-92.3515826111
 20
49.0785699005
 10
-92.3515826111
 20
49.9357123718
 10
-92.7801515808
 20
50.3642858734
 10
-93.7087207031
 20
50.3642858734
  0
LINE
  5
3ED
100
AcDbEntity
  8
DRAFT
100
AcDbLine
 62
7
  6
CONTINUOUS
 10
-77.9387165559
 20
-29.8720718961
 11
-79.5387165559
 21
-29.9
  0
LINE
  5
3EE
100
AcDbEntity
  8
RACCORDO
100
AcDbLine
 62
7
  6
CONTINUOUS
 10
-79.5387165559
 20
-29.9
 11
-83.0474415168
 21
-29.838754978
  0
LWPOLYLINE
  5
3EF
100
AcDbEntity
  8
RACCORDO
100
AcDbPolyline
 62
250
  6
CONTINUOUS
 90
19
 70
0
 10
-81.8917374449
 20
-29.8589278676
 10
-81.9346717493
 20
-29.8563174188
 10
-81.9766883952
 20
-29.8501130074
 10
-82.0178654925
 20
-29.8403979137
 10
-82.0584003972
 20
-29.827094243
 10
-82.0980954612
 20
-29.8101517958
 10
-82.1362391788
 20
-29.7898117144
 10
-82.1723684453
 20
-29.7663199113
 10
-82.2064229358
 20
-29.7397057684
 10
-82.2381184665
 20
-29.7101924943
 10
-82.267061183
 20
-29.6781398328
 10
-82.2930683723
 20
-29.6437624488
 10
-82.3160941119
 20
-29.6071685143
 10
-82.3358918657
 20
-29.5686921101
 10
-82.3522546075
 20
-29.5287001825
 10
-82.3651464113
 20
-29.4873639645
 10
-82.3744504417
 20
-29.4450008254
 10
-82.3800316834
 20
-29.4020791188
 10
-82.3818543796
 20
-29.35900402
  0
LINE
  5
3F0
100
AcDbEntity
  8
DRAFT
100
AcDbLine
 62
7
  6
CONTINUOUS
 10
-77.9387165559
 20
-28.9724513599
 11
-79.5387165559
 21
-29.0
  0
LINE
  5
3F1
100
AcDbEntity
  8
RACCORDO
100
AcDbLine
 62
250
  6
CONTINUOUS
 10
-81.891737445
 20
-29.35900402
 11
-82.3818543796
 21
-29.35900402
  0
LINE
  5
3F2
100
AcDbEntity
  8
RACCORDO
100
AcDbLine
 62
250
  6
CONTINUOUS
 10
-82.3818543796
 20
-29.35900402
 11
-83.5387165559
 21
-29.3388310553
  0
LINE
  5
3F3
100
AcDbEntity
  8
RACCORDO
100
AcDbLine
 62
250
  6
CONTINUOUS
 10
-79.5387165559
 20
-29.4000761524
 11
-81.891737445
 21
-29.35900402
  0
LINE
  5
3F4
100
AcDbEntity
  8
DRAFT
100
AcDbLine
 62
7
  6
CONTINUOUS
 10
-77.1387165559
 20
-27.1262202069
 11
-77.9387165559
 21
-27.1435439053
  0
LINE
  5
3F5
100
AcDbEntity
  8
DRAFT
100
AcDbLine
 62
7
  6
CONTINUOUS
 10
-77.9387165559
 20
-27.25
 11
-77.1387165559
 21
-27.2360359481
  0
LINE
  5
3F6
100
AcDbEntity
  8
DRAFT
100
AcDbLine
 62
7
  6
CONTINUOUS
 10
-77.1387165559
 20
-26.7994997051
 11
-77.9387165559
 21
-26.8084219849
  0
LWPOLYLINE
  5
3F7
100
AcDbEntity
  8
0
100
AcDbPolyline
 62
7
  6
CONTINUOUS
 90
3
 70
0
 43
0.3500000006
 10
-90.7801509705
 20
48.9357120667
 10
-90.8515821533
 20
48.7214275818
 10
-90.9944354553
 20
48.4357164459
  0
LINE
  5
3F8
100
AcDbEntity
  8
DRAFT
100
AcDbLine
 62
7
  6
CONTINUOUS
 10
-77.9387165559
 20
-24.0
 11
-77.4387165559
 21
-23.9912724675
  0
LINE
  5
3F9
100
AcDbEntity
  8
DRAFT
100
AcDbLine
 62
7
  6
CONTINUOUS
 10
-77.9387165559
 20
-25.0
 11
-77.1387165559
 21
-25.0139640519
  0
LINE
  5
3FA
100
AcDbEntity
  8
RACCORDO
100
AcDbLine
 62
7
  6
CONTINUOUS
 10
-77.1387165559
 20
-25.0139640519
 11
-77.9387165559
 21
-25.0
  0
LINE
  5
3FB
100
AcDbEntity
  8
DRAFT
100
AcDbLine
 62
7
  6
CONTINUOUS
 10
-79.5387165559
 20
-24.5157095584
 11
-80.4387165559
 21
-24.5
  0
LINE
  5
3FC
100
AcDbEntity
  8
RACCORDO
100
AcDbLine
 62
250
  6
CONTINUOUS
 10
-77.1387165559
 20
-25.5041869364
 11
-77.9387165559
 21
-25.4886845861
  0
LWPOLYLINE
  5
3FD
100
AcDbEntity
  8
0
100
AcDbPolyline
 62
7
  6
CONTINUOUS
 90
3
 70
0
 43
0.3500000006
 10
-89.9535668335
 20
38.9357135468
 10
-90.0249889526
 20
38.7214290619
 10
-90.1678513184
 20
38.4357133942
  0
LINE
  5
3FE
100
AcDbEntity
  8
RACCORDO
100
AcDbLine
 62
7
  6
CONTINUOUS
 10
-77.9387165559
 20
-20.0
 11
-77.1387165559
 21
-19.9860359481
  0
LINE
  5
3FF
100
AcDbEntity
  8
DRAFT
100
AcDbLine
 62
7
  6
CONTINUOUS
 10
-77.9387165559
 20
-20.0
 11
-77.1387165559
 21
-19.9860359481
  0
LINE
  5
400
100
AcDbEntity
  8
DRAFT
100
AcDbLine
 62
7
  6
CONTINUOUS
 10
-77.9387165559
 20
-21.0
 11
-77.4387165559
 21
-21.0087275325
  0
LINE
  5
401
100
AcDbEntity
  8
RACCORDO
100
AcDbLine
 62
250
  6
CONTINUOUS
 10
-77.9387165559
 20
-19.5113154139
 11
-77.1387165559
 21
-19.4958130636
  0
LINE
  5
402
100
AcDbEntity
  8
DRAFT
100
AcDbLine
 62
7
  6
CONTINUOUS
 10
-79.5387165559
 20
-19.4842904416
 11
-80.4387165559
 21
-19.5
  0
LINE
  5
403
100
AcDbEntity
  8
DRAFT
100
AcDbLine
 62
7
  6
CONTINUOUS
 10
-77.9387165559
 20
-17.75
 11
-77.1387165559
 21
-17.7639640519
  0
LINE
  5
404
100
AcDbEntity
  8
DRAFT
100
AcDbLine
 62
7
  6
CONTINUOUS
 10
-77.9387165559
 20
-16.0275486401
 11
-79.5387165559
 21
-16.0
  0
LINE
  5
405
100
AcDbEntity
  8
DRAFT
100
AcDbLine
 62
7
  6
CONTINUOUS
 10
-77.9387165559
 20
-15.0279281039
 11
-79.5387165559
 21
-15.0
  0
LWPOLYLINE
  5
406
100
AcDbEntity
  8
RACCORDO
100
AcDbPolyline
 62
250
  6
CONTINUOUS
 90
10
 70
0
 10
-81.891737445
 20
29.8589278676
 10
-81.8924644121
 20
29.857012975
 10
-81.8931194627
 20
29.8513094023
 10
-81.8936976135
 20
29.8418605404
 10
-81.894194466
 20
29.8287382728
 10
-81.8946062405
 20
29.8120424294
 10
-81.8949298042
 20
29.7919000262
 10
-81.8951626956
 20
29.7684642998
 10
-81.8953031429
 20
29.7419135411
 10
-81.8953031429
 20
29.6802970441
  0
LINE
  5
407
100
AcDbEntity
  8
RACCORDO
100
AcDbLine
 62
250
  6
CONTINUOUS
 10
-79.5387165559
 20
-10.0007615242
 11
-77.9387165559
 21
-10.0286896281
  0
LWPOLYLINE
  5
408
100
AcDbEntity
  8
0
100
AcDbPolyline
 62
7
  6
CONTINUOUS
 90
2
 70
0
 43
0.3500000006
 10
-88.7801503601
 20
48.6500009308
 10
-88.7801503601
 20
50.1500013885
  0
LWPOLYLINE
  5
409
100
AcDbEntity
  8
0
100
AcDbPolyline
 62
7
  6
CONTINUOUS
 90
2
 70
0
 43
0.3500000006
 10
-87.9535662231
 20
38.649997879
 10
-87.9535662231
 20
40.1499983368
  0
LWPOLYLINE
  5
40A
100
AcDbEntity
  8
RACCORDO
100
AcDbPolyline
 62
250
  6
CONTINUOUS
 90
8
 70
0
 10
-81.8951626956
 20
-29.7684642998
 10
-81.8949298042
 20
-29.7919000262
 10
-81.8946062405
 20
-29.8120424294
 10
-81.894194466
 20
-29.8287382728
 10
-81.8936976135
 20
-29.8418605404
 10
-81.8931194627
 20
-29.8513094023
 10
-81.8924644121
 20
-29.857012975
 10
-81.891737445
 20
-29.8589278676
  0
LINE
  5
40B
100
AcDbEntity
  8
ASSI
100
AcDbLine
 62
7
  6
CONTINUOUS
 10
-83.5387165559
 20
29.3388311305
 11
-83.5387165559
 21
-29.3388311305
  0
LINE
  5
40C
100
AcDbEntity
  8
RACCORDO
100
AcDbLine
 62
250
  6
CONTINUOUS
 10
-82.3818543796
 20
29.35900402
 11
-82.3818543796
 21
-29.35900402
  0
LINE
  5
40D
100
AcDbEntity
  8
RACCORDO
100
AcDbLine
 62
250
  6
CONTINUOUS
 10
-81.8936976135
 20
29.4883693248
 11
-81.891737445
 21
29.35900402
  0
LINE
  5
40E
100
AcDbEntity
  8
RACCORDO
100
AcDbLine
 62
250
  6
CONTINUOUS
 10
-81.8949298042
 20
29.6089219972
 11
-81.8936976135
 21
29.4883693248
  0
LINE
  5
40F
100
AcDbEntity
  8
RACCORDO
100
AcDbLine
 62
250
  6
CONTINUOUS
 10
-81.8953031429
 20
29.6802970441
 11
-81.8949298042
 21
29.6089219972
  0
LINE
  5
410
100
AcDbEntity
  8
RACCORDO
100
AcDbLine
 62
250
  6
CONTINUOUS
 10
-81.8953500777
 20
-29.712449739
 11
-81.8951626956
 21
-29.7684642998
  0
LINE
  5
411
100
AcDbEntity
  8
RACCORDO
100
AcDbLine
 62
250
  6
CONTINUOUS
 10
-81.891737445
 20
29.35900402
 11
-81.891737445
 21
-29.35900402
  0
LINE
  5
412
100
AcDbEntity
  8
DRAFT
100
AcDbLine
 62
7
  6
CONTINUOUS
 10
-80.4387165559
 20
-24.5
 11
-80.4387165559
 21
-19.5
  0
LINE
  5
413
100
AcDbEntity
  8
DRAFT
100
AcDbLine
 62
7
  6
CONTINUOUS
 10
-80.4387165559
 20
19.5
 11
-80.4387165559
 21
24.5
  0
LINE
  5
414
100
AcDbEntity
  8
RACCORDO
100
AcDbLine
 62
250
  6
CONTINUOUS
 10
-80.1439522778
 20
24.5051451296
 11
-80.1439522778
 21
19.4948548704
  0
LINE
  5
415
100
AcDbEntity
  8
RACCORDO
100
AcDbLine
 62
250
  6
CONTINUOUS
 10
-80.1439522778
 20
-19.4948548704
 11
-80.1439522778
 21
-24.5051451296
  0
LINE
  5
416
100
AcDbEntity
  8
RACCORDO
100
AcDbLine
 62
250
  6
CONTINUOUS
 10
-81.8951626956
 20
-29.6457000629
 11
-81.8953500777
 21
-29.712449739
  0
LINE
  5
417
100
AcDbEntity
  8
RACCORDO
100
AcDbLine
 62
250
  6
CONTINUOUS
 10
-81.894194466
 20
-29.5299562561
 11
-81.8951626956
 21
-29.6457000629
  0
LWPOLYLINE
  5
418
100
AcDbEntity
  8
RACCORDO
100
AcDbPolyline
 62
250
  6
CONTINUOUS
 90
3
 70
0
 10
-81.891737445
 20
-29.35900402
 10
-81.8924644121
 20
-29.4025668289
 10
-81.894194466
 20
-29.5299562561
  0
LINE
  5
419
100
AcDbEntity
  8
DRAFT
100
AcDbLine
 62
7
  6
CONTINUOUS
 10
-79.5387165559
 20
10.0007615242
 11
-79.5387165559
 21
-10.0007615242
  0
LINE
  5
41A
100
AcDbEntity
  8
DRAFT
100
AcDbLine
 62
7
  6
CONTINUOUS
 10
-79.5387165559
 20
-15.0
 11
-79.5387165559
 21
-29.9
  0
LINE
  5
41B
100
AcDbEntity
  8
RACCORDO
100
AcDbLine
 62
7
  6
CONTINUOUS
 10
-79.5387165559
 20
-15.0
 11
-79.5387165559
 21
15.0
  0
LINE
  5
41C
100
AcDbEntity
  8
DRAFT
100
AcDbLine
 62
7
  6
CONTINUOUS
 10
-79.5387165559
 20
15.0
 11
-79.5387165559
 21
29.9
  0
LINE
  5
41D
100
AcDbEntity
  8
RACCORDO
100
AcDbLine
 62
7
  6
CONTINUOUS
 10
-77.9387165559
 20
15.0279281039
 11
-77.9387165559
 21
-15.0279281039
  0
LINE
  5
41E
100
AcDbEntity
  8
DRAFT
100
AcDbLine
 62
7
  6
CONTINUOUS
 10
-77.9387165559
 20
-21.0
 11
-77.9387165559
 21
-15.0279281039
  0
LINE
  5
41F
100
AcDbEntity
  8
DRAFT
100
AcDbLine
 62
7
  6
CONTINUOUS
 10
-77.9387165559
 20
-24.0
 11
-77.9387165559
 21
-29.8720718961
  0
LINE
  5
420
100
AcDbEntity
  8
DRAFT
100
AcDbLine
 62
7
  6
CONTINUOUS
 10
-77.9387165559
 20
15.0279281039
 11
-77.9387165559
 21
21.0
  0
LINE
  5
421
100
AcDbEntity
  8
DRAFT
100
AcDbLine
 62
7
  6
CONTINUOUS
 10
-77.9387165559
 20
24.0
 11
-77.9387165559
 21
29.8720718961
  0
LINE
  5
422
100
AcDbEntity
  8
DRAFT
100
AcDbLine
 62
7
  6
CONTINUOUS
 10
-77.4387165559
 20
23.9912724675
 11
-77.4387165559
 21
21.0087275325
  0
LINE
  5
423
100
AcDbEntity
  8
DRAFT
100
AcDbLine
 62
7
  6
CONTINUOUS
 10
-77.4387165559
 20
-21.0087275325
 11
-77.4387165559
 21
-23.9912724675
  0
LINE
  5
424
100
AcDbEntity
  8
DRAFT
100
AcDbLine
 62
7
  6
CONTINUOUS
 10
-77.1387165559
 20
27.2360359481
 11
-77.1387165559
 21
25.5041869364
  0
LINE
  5
425
100
AcDbEntity
  8
RACCORDO
100
AcDbLine
 62
7
  6
CONTINUOUS
 10
-77.1387165559
 20
25.5041869364
 11
-77.1387165559
 21
25.0139640519
  0
LINE
  5
426
100
AcDbEntity
  8
RACCORDO
100
AcDbLine
 62
7
  6
CONTINUOUS
 10
-77.1387165559
 20
19.9860359481
 11
-77.1387165559
 21
17.7639640519
  0
LINE
  5
427
100
AcDbEntity
  8
RACCORDO
100
AcDbLine
 62
7
  6
CONTINUOUS
 10
-77.1387165559
 20
-17.7639640519
 11
-77.1387165559
 21
-19.9860359481
  0
LINE
  5
428
100
AcDbEntity
  8
RACCORDO
100
AcDbLine
 62
7
  6
CONTINUOUS
 10
-77.1387165559
 20
-25.0139640519
 11
-77.1387165559
 21
-25.5041869364
  0
LINE
  5
429
100
AcDbEntity
  8
DRAFT
100
AcDbLine
 62
7
  6
CONTINUOUS
 10
-77.1387165559
 20
-25.5041869364
 11
-77.1387165559
 21
-27.2360359481
  0
LINE
  5
42A
100
AcDbEntity
  8
RACCORDO
100
AcDbLine
 62
250
  6
CONTINUOUS
 10
-79.5387165559
 20
10.0007615242
 11
-77.9387165559
 21
10.0286896281
  0
LWPOLYLINE
  5
42B
100
AcDbEntity
  8
0
100
AcDbPolyline
 62
7
  6
CONTINUOUS
 90
10
 70
0
 43
0.3500000006
 10
-90.0249889526
 20
39.1499980316
 10
-89.9535668335
 20
39.0071447296
 10
-89.9535668335
 20
38.9357135468
 10
-90.0964201355
 20
38.7928557129
 10
-90.1678513184
 20
38.7928557129
 10
-90.2392734375
 20
38.8642868958
 10
-90.2392734375
 20
38.9357135468
 10
-90.1678513184
 20
39.0785713806
 10
-90.0964201355
 20
39.1499980316
 10
-90.0249889526
 20
39.1499980316
  0
LWPOLYLINE
  5
42C
100
AcDbEntity
  8
0
100
AcDbPolyline
 62
7
  6
CONTINUOUS
 90
10
 70
0
 43
0.3500000006
 10
-90.8515821533
 20
49.1500010834
 10
-90.7801509705
 20
49.0071432495
 10
-90.7801509705
 20
48.9357120667
 10
-90.9230042725
 20
48.7928587646
 10
-90.9944354553
 20
48.7928587646
 10
-91.0658666382
 20
48.8642854156
 10
-91.0658666382
 20
48.9357120667
 10
-90.9944354553
 20
49.0785699005
 10
-90.9230042725
 20
49.1500010834
 10
-90.8515821533
 20
49.1500010834
  0
LINE
  5
42D
100
AcDbEntity
  8
DRAFT
100
AcDbLine
 62
7
  6
CONTINUOUS
 10
-77.9387165559
 20
15.0279281039
 11
-79.5387165559
 21
15.0
  0
LINE
  5
42E
100
AcDbEntity
  8
DRAFT
100
AcDbLine
 62
7
  6
CONTINUOUS
 10
-77.9387165559
 20
16.0275486401
 11
-79.5387165559
 21
16.0
  0
LINE
  5
42F
100
AcDbEntity
  8
DRAFT
100
AcDbLine
 62
7
  6
CONTINUOUS
 10
-77.9387165559
 20
17.75
 11
-77.1387165559
 21
17.7639640519
  0
LINE
  5
430
100
AcDbEntity
  8
DRAFT
100
AcDbLine
 62
7
  6
CONTINUOUS
 10
-79.5387165559
 20
19.4842904416
 11
-80.4387165559
 21
19.5
  0
LINE
  5
431
100
AcDbEntity
  8
DRAFT
100
AcDbLine
 62
7
  6
CONTINUOUS
 10
-77.9387165559
 20
20.0
 11
-77.1387165559
 21
19.9860359481
  0
LINE
  5
432
100
AcDbEntity
  8
RACCORDO
100
AcDbLine
 62
7
  6
CONTINUOUS
 10
-77.1387165559
 20
19.9860359481
 11
-77.9387165559
 21
20.0
  0
LINE
  5
433
100
AcDbEntity
  8
RACCORDO
100
AcDbLine
 62
250
  6
CONTINUOUS
 10
-77.1387165559
 20
19.4958130636
 11
-77.9387165559
 21
19.5113154139
  0
LINE
  5
434
100
AcDbEntity
  8
DRAFT
100
AcDbLine
 62
7
  6
CONTINUOUS
 10
-77.9387165559
 20
21.0
 11
-77.4387165559
 21
21.0087275325
  0
LINE
  5
435
100
AcDbEntity
  8
DRAFT
100
AcDbLine
 62
7
  6
CONTINUOUS
 10
-77.9387165559
 20
24.0
 11
-77.4387165559
 21
23.9912724675
  0
LINE
  5
436
100
AcDbEntity
  8
RACCORDO
100
AcDbLine
 62
250
  6
CONTINUOUS
 10
-77.9387165559
 20
25.4886845861
 11
-77.1387165559
 21
25.5041869364
  0
LINE
  5
437
100
AcDbEntity
  8
DRAFT
100
AcDbLine
 62
7
  6
CONTINUOUS
 10
-79.5387165559
 20
24.5157095584
 11
-80.4387165559
 21
24.5
  0
LINE
  5
438
100
AcDbEntity
  8
RACCORDO
100
AcDbLine
 62
7
  6
CONTINUOUS
 10
-77.9387165559
 20
25.0
 11
-77.1387165559
 21
25.0139640519
  0
LINE
  5
439
100
AcDbEntity
  8
DRAFT
100
AcDbLine
 62
7
  6
CONTINUOUS
 10
-77.9387165559
 20
25.0
 11
-77.1387165559
 21
25.0139640519
  0
LWPOLYLINE
  5
43A
100
AcDbEntity
  8
RACCORDO
100
AcDbPolyline
 62
250
  6
CONTINUOUS
 90
19
 70
0
 10
-81.8917374449
 20
29.8589278676
 10
-81.9346717404
 20
29.8563174198
 10
-81.9766883785
 20
29.8501130106
 10
-82.0178654694
 20
29.8403979202
 10
-82.0584003685
 20
29.8270942539
 10
-82.0980954284
 20
29.8101518117
 10
-82.1362391451
 20
29.7898117344
 10
-82.172368416
 20
29.7663199323
 10
-82.2064229139
 20
29.7397057874
 10
-82.2381184506
 20
29.7101925108
 10
-82.2670611701
 20
29.6781398489
 10
-82.2930683614
 20
29.6437624652
 10
-82.3160941032
 20
29.6071685304
 10
-82.3358918594
 20
29.5686921246
 10
-82.3522546035
 20
29.5287001948
 10
-82.3651464092
 20
29.4873639742
 10
-82.3744504408
 20
29.4450008321
 10
-82.3800316833
 20
29.4020791223
 10
-82.3818543796
 20
29.35900402
  0
LINE
  5
43B
100
AcDbEntity
  8
RACCORDO
100
AcDbLine
 62
250
  6
CONTINUOUS
 10
-81.891737445
 20
29.35900402
 11
-79.5387165559
 21
29.4000761524
  0
LINE
  5
43C
100
AcDbEntity
  8
RACCORDO
100
AcDbLine
 62
250
  6
CONTINUOUS
 10
-83.5387165559
 20
29.3388310627
 11
-82.3818543796
 21
29.35900402
  0
LINE
  5
43D
100
AcDbEntity
  8
RACCORDO
100
AcDbLine
 62
7
  6
CONTINUOUS
 10
-83.0474415167
 20
29.838754978
 11
-79.5387165559
 21
29.9
  0
LINE
  5
43E
100
AcDbEntity
  8
RACCORDO
100
AcDbLine
 62
250
  6
CONTINUOUS
 10
-81.891737445
 20
29.35900402
 11
-82.3818543796
 21
29.35900402
  0
LWPOLYLINE
  5
43F
100
AcDbEntity
  8
0
100
AcDbPolyline
 62
7
  6
CONTINUOUS
 90
7
 70
0
 43
0.3500000006
 10
-91.5249894104
 20
38.649997879
 10
-93.0249898682
 20
38.649997879
 10
-91.5249894104
 20
40.7928563232
 10
-91.5249894104
 20
41.2214298248
 10
-91.9535674438
 20
41.6499987946
 10
-92.5964208984
 20
41.6499987946
 10
-93.0249898682
 20
41.0071408081
  0
LWPOLYLINE
  5
440
100
AcDbEntity
  8
0
100
AcDbPolyline
 62
7
  6
CONTINUOUS
 90
3
 70
0
 43
0.3500000006
 10
-87.4535660706
 20
39.2928558655
 10
-88.9535665283
 20
39.2928558655
 10
-88.31070401
 20
41.6499987946
  0
LWPOLYLINE
  5
441
100
AcDbEntity
  8
0
100
AcDbPolyline
 62
7
  6
CONTINUOUS
 90
3
 70
0
 43
0.3500000006
 10
-88.2801502075
 20
49.2928589172
 10
-89.7801506653
 20
49.2928589172
 10
-89.1372972107
 20
51.6500018463
  0
LINE
  5
442
100
AcDbEntity
  8
DRAFT
100
AcDbLine
 62
7
  6
CONTINUOUS
 10
-77.9387165559
 20
26.8084219849
 11
-77.1387165559
 21
26.7994997051
  0
LINE
  5
443
100
AcDbEntity
  8
DRAFT
100
AcDbLine
 62
7
  6
CONTINUOUS
 10
-77.9387165559
 20
27.25
 11
-77.1387165559
 21
27.2360359481
  0
LINE
  5
444
100
AcDbEntity
  8
DRAFT
100
AcDbLine
 62
7
  6
CONTINUOUS
 10
-77.9387165559
 20
28.9724513599
 11
-79.5387165559
 21
29.0
  0
LINE
  5
445
100
AcDbEntity
  8
DRAFT
100
AcDbLine
 62
7
  6
CONTINUOUS
 10
-77.9387165559
 20
29.8720718961
 11
-79.5387165559
 21
29.9
  0
LINE
  5
446
100
AcDbEntity
  8
DRAFT
100
AcDbLine
 62
7
  6
CONTINUOUS
 10
-77.9387165559
 20
27.1435439053
 11
-77.1387165559
 21
27.1262202069
  0
ARC
  5
447
100
AcDbEntity
  8
DRAFT
100
AcDbCircle
 62
250
  6
CONTINUOUS
 10
-38.0
 20
-22.5
 40
3.0328427125
100
AcDbArc
 50
311.9634093271
 51
48.0365906729
  0
ARC
  5
448
100
AcDbEntity
  8
DRAFT
100
AcDbCircle
 62
250
  6
CONTINUOUS
 10
-38.0
 20
-22.5
 40
3.0328427125
100
AcDbArc
 50
131.9634093271
 51
228.0365906729
  0
ARC
  5
449
100
AcDbEntity
  8
RACCORDO
100
AcDbCircle
 62
7
  6
CONTINUOUS
 10
-38.0
 20
-22.5
 40
2.8328427125
100
AcDbArc
 50
135.612962686
 51
224.387037314
  0
ARC
  5
44A
100
AcDbEntity
  8
RACCORDO
100
AcDbCircle
 62
7
  6
CONTINUOUS
 10
-38.0
 20
-22.5
 40
2.8328427125
100
AcDbArc
 50
315.612962686
 51
44.387037314
  0
ARC
  5
44B
100
AcDbEntity
  8
DRAFT
100
AcDbCircle
 62
7
  6
CONTINUOUS
 10
-43.0
 20
-30.0
 40
1.0
100
AcDbArc
 50
5.7391704773
 51
90.0
  0
ARC
  5
44C
100
AcDbEntity
  8
DRAFT
100
AcDbCircle
 62
7
  6
CONTINUOUS
 10
-43.0
 20
-15.0
 40
1.0
100
AcDbArc
 50
270.0
 51
360.0
  0
ARC
  5
44D
100
AcDbEntity
  8
DRAFT
100
AcDbCircle
 62
7
  6
CONTINUOUS
 10
-39.5
 20
-27.75
 40
0.5279281039
100
AcDbArc
 50
180.0
 51
360.0
  0
ARC
  5
44E
100
AcDbEntity
  8
DRAFT
100
AcDbCircle
 62
7
  6
CONTINUOUS
 10
-36.5
 20
-27.75
 40
0.5279281039
100
AcDbArc
 50
180.0
 51
360.0
  0
ARC
  5
44F
100
AcDbEntity
  8
DRAFT
100
AcDbCircle
 62
7
  6
CONTINUOUS
 10
-36.5
 20
-27.75
 40
0.5
100
AcDbArc
 50
180.0
 51
360.0
  0
ARC
  5
450
100
AcDbEntity
  8
DRAFT
100
AcDbCircle
 62
7
  6
CONTINUOUS
 10
-39.5
 20
-27.75
 40
0.5
100
AcDbArc
 50
180.0
 51
360.0
  0
ARC
  5
451
100
AcDbEntity
  8
DRAFT
100
AcDbCircle
 62
250
  6
CONTINUOUS
 10
-38.0
 20
22.5
 40
3.0328427125
100
AcDbArc
 50
311.9634093271
 51
48.0365906729
  0
ARC
  5
452
100
AcDbEntity
  8
DRAFT
100
AcDbCircle
 62
250
  6
CONTINUOUS
 10
-38.0
 20
22.5
 40
3.0328427125
100
AcDbArc
 50
131.9634093271
 51
228.0365906729
  0
ARC
  5
453
100
AcDbEntity
  8
RACCORDO
100
AcDbCircle
 62
7
  6
CONTINUOUS
 10
-38.0
 20
22.5
 40
2.8328427125
100
AcDbArc
 50
135.612962686
 51
224.387037314
  0
ARC
  5
454
100
AcDbEntity
  8
RACCORDO
100
AcDbCircle
 62
7
  6
CONTINUOUS
 10
-38.0
 20
22.5
 40
2.8328427125
100
AcDbArc
 50
315.612962686
 51
44.387037314
  0
ARC
  5
455
100
AcDbEntity
  8
DRAFT
100
AcDbCircle
 62
7
  6
CONTINUOUS
 10
-43.0
 20
30.0
 40
1.0
100
AcDbArc
 50
270.0
 51
354.2608295227
  0
ARC
  5
456
100
AcDbEntity
  8
DRAFT
100
AcDbCircle
 62
7
  6
CONTINUOUS
 10
-43.0
 20
15.0
 40
1.0
100
AcDbArc
 50
0.0
 51
90.0
  0
ARC
  5
457
100
AcDbEntity
  8
DRAFT
100
AcDbCircle
 62
7
  6
CONTINUOUS
 10
-36.5
 20
27.75
 40
0.5279281039
100
AcDbArc
 50
0.0
 51
180.0
  0
ARC
  5
458
100
AcDbEntity
  8
DRAFT
100
AcDbCircle
 62
7
  6
CONTINUOUS
 10
-39.5
 20
27.75
 40
0.5279281039
100
AcDbArc
 50
0.0
 51
180.0
  0
ARC
  5
459
100
AcDbEntity
  8
DRAFT
100
AcDbCircle
 62
7
  6
CONTINUOUS
 10
-39.5
 20
27.75
 40
0.5
100
AcDbArc
 50
0.0
 51
180.0
  0
ARC
  5
45A
100
AcDbEntity
  8
DRAFT
100
AcDbCircle
 62
7
  6
CONTINUOUS
 10
-36.5
 20
27.75
 40
0.5
100
AcDbArc
 50
0.0
 51
180.0
  0
ARC
  5
45B
100
AcDbEntity
  8
DRAFT
100
AcDbCircle
 62
250
  6
CONTINUOUS
 10
38.0
 20
-22.5
 40
3.0328427125
100
AcDbArc
 50
311.9634093271
 51
48.0365906729
  0
ARC
  5
45C
100
AcDbEntity
  8
DRAFT
100
AcDbCircle
 62
250
  6
CONTINUOUS
 10
38.0
 20
-22.5
 40
3.0328427125
100
AcDbArc
 50
131.9634093271
 51
228.0365906729
  0
ARC
  5
45D
100
AcDbEntity
  8
RACCORDO
100
AcDbCircle
 62
7
  6
CONTINUOUS
 10
38.0
 20
-22.5
 40
2.8328427125
100
AcDbArc
 50
135.612962686
 51
224.387037314
  0
ARC
  5
45E
100
AcDbEntity
  8
RACCORDO
100
AcDbCircle
 62
7
  6
CONTINUOUS
 10
38.0
 20
-22.5
 40
2.8328427125
100
AcDbArc
 50
315.612962686
 51
44.387037314
  0
ARC
  5
45F
100
AcDbEntity
  8
DRAFT
100
AcDbCircle
 62
7
  6
CONTINUOUS
 10
43.0
 20
-30.0
 40
1.0
100
AcDbArc
 50
90.0
 51
174.2608295227
  0
ARC
  5
460
100
AcDbEntity
  8
DRAFT
100
AcDbCircle
 62
7
  6
CONTINUOUS
 10
43.0
 20
-15.0
 40
1.0
100
AcDbArc
 50
180.0
 51
270.0
  0
ARC
  5
461
100
AcDbEntity
  8
DRAFT
100
AcDbCircle
 62
7
  6
CONTINUOUS
 10
36.5
 20
-27.75
 40
0.5279281039
100
AcDbArc
 50
180.0
 51
360.0
  0
ARC
  5
462
100
AcDbEntity
  8
DRAFT
100
AcDbCircle
 62
7
  6
CONTINUOUS
 10
39.5
 20
-27.75
 40
0.5279281039
100
AcDbArc
 50
180.0
 51
360.0
  0
ARC
  5
463
100
AcDbEntity
  8
DRAFT
100
AcDbCircle
 62
7
  6
CONTINUOUS
 10
39.5
 20
-27.75
 40
0.5
100
AcDbArc
 50
180.0
 51
360.0
  0
ARC
  5
464
100
AcDbEntity
  8
DRAFT
100
AcDbCircle
 62
7
  6
CONTINUOUS
 10
36.5
 20
-27.75
 40
0.5
100
AcDbArc
 50
180.0
 51
360.0
  0
ARC
  5
465
100
AcDbEntity
  8
DRAFT
100
AcDbCircle
 62
250
  6
CONTINUOUS
 10
38.0
 20
22.5
 40
3.0328427125
100
AcDbArc
 50
311.9634093271
 51
48.0365906729
  0
ARC
  5
466
100
AcDbEntity
  8
DRAFT
100
AcDbCircle
 62
250
  6
CONTINUOUS
 10
38.0
 20
22.5
 40
3.0328427125
100
AcDbArc
 50
131.9634093271
 51
228.0365906729
  0
ARC
  5
467
100
AcDbEntity
  8
RACCORDO
100
AcDbCircle
 62
7
  6
CONTINUOUS
 10
38.0
 20
22.5
 40
2.8328427125
100
AcDbArc
 50
135.612962686
 51
224.387037314
  0
ARC
  5
468
100
AcDbEntity
  8
RACCORDO
100
AcDbCircle
 62
7
  6
CONTINUOUS
 10
38.0
 20
22.5
 40
2.8328427125
100
AcDbArc
 50
315.612962686
 51
44.387037314
  0
ARC
  5
469
100
AcDbEntity
  8
DRAFT
100
AcDbCircle
 62
7
  6
CONTINUOUS
 10
43.0
 20
30.0
 40
1.0
100
AcDbArc
 50
185.7391704773
 51
270.0
  0
ARC
  5
46A
100
AcDbEntity
  8
DRAFT
100
AcDbCircle
 62
7
  6
CONTINUOUS
 10
43.0
 20
15.0
 40
1.0
100
AcDbArc
 50
90.0
 51
180.0
  0
ARC
  5
46B
100
AcDbEntity
  8
DRAFT
100
AcDbCircle
 62
7
  6
CONTINUOUS
 10
39.5
 20
27.75
 40
0.5279281039
100
AcDbArc
 50
0.0
 51
180.0
  0
ARC
  5
46C
100
AcDbEntity
  8
DRAFT
100
AcDbCircle
 62
7
  6
CONTINUOUS
 10
36.5
 20
27.75
 40
0.5279281039
100
AcDbArc
 50
0.0
 51
180.0
  0
ARC
  5
46D
100
AcDbEntity
  8
DRAFT
100
AcDbCircle
 62
7
  6
CONTINUOUS
 10
36.5
 20
27.75
 40
0.5
100
AcDbArc
 50
0.0
 51
180.0
  0
ARC
  5
46E
100
AcDbEntity
  8
DRAFT
100
AcDbCircle
 62
7
  6
CONTINUOUS
 10
39.5
 20
27.75
 40
0.5
100
AcDbArc
 50
0.0
 51
180.0
  0
ARC
  5
46F
100
AcDbEntity
  8
RACCORDO
100
AcDbCircle
 62
7
  6
CONTINUOUS
 10
-83.0387153135
 20
-29.3388311304
 40
0.5
100
AcDbArc
 50
180.0000000048
 51
269.0
  0
ARC
  5
470
100
AcDbEntity
  8
RACCORDO
100
AcDbCircle
 62
7
  6
CONTINUOUS
 10
-83.0387153135
 20
29.3388311304
 40
0.5
100
AcDbArc
 50
91.0
 51
179.9999999952
  0
ELLIPSE
  5
471
100
AcDbEntity
  8
RACCORDO
100
AcDbEllipse
 62
7
  6
CONTINUOUS
 10
33.999923836
 20
-29.399923836
 30
0.0
 11
-0.3536610946
 21
0.3536610946
 31
0.0
 40
0.9996954599
 41
-3.9268385237
 42
-2.3563467834
  0
ELLIPSE
  5
472
100
AcDbEntity
  8
RACCORDO
100
AcDbEllipse
 62
7
  6
CONTINUOUS
 10
33.999923836
 20
29.399923836
 30
0.0
 11
0.3536610946
 21
0.3536610946
 31
0.0
 40
0.9996954599
 41
-0.7852458701
 42
0.7852458701
  0
ELLIPSE
  5
473
100
AcDbEntity
  8
RACCORDO
100
AcDbEllipse
 62
7
  6
CONTINUOUS
 10
-33.999923836
 20
29.399923836
 30
0.0
 11
0.3536610946
 21
-0.3536610946
 31
0.0
 40
0.9996954599
 41
2.3563467834
 42
3.9268385237
  0
ELLIPSE
  5
474
100
AcDbEntity
  8
RACCORDO
100
AcDbEllipse
 62
7
  6
CONTINUOUS
 10
-33.999923836
 20
-29.399923836
 30
0.0
 11
0.3536610946
 21
0.3536610946
 31
0.0
 40
0.9996954599
 41
2.3563467834
 42
3.9268385237
  0
ELLIPSE
  5
475
100
AcDbEntity
  8
RACCORDO
100
AcDbEllipse
 62
7
  6
CONTINUOUS
 10
39.5007616402
 20
-9.9992383598
 30
0.0
 11
3.5366109458
 21
3.5366109458
 31
0.0
 40
0.9996954599
 41
-3.9268385237
 42
-2.3563467834
  0
ELLIPSE
  5
476
100
AcDbEntity
  8
RACCORDO
100
AcDbEllipse
 62
7
  6
CONTINUOUS
 10
39.5007616402
 20
9.9992383598
 30
0.0
 11
-3.5366109458
 21
3.5366109458
 31
0.0
 40
0.9996954599
 41
-0.7852458701
 42
0.7852458701
  0
ELLIPSE
  5
477
100
AcDbEntity
  8
RACCORDO
100
AcDbEllipse
 62
7
  6
CONTINUOUS
 10
-39.5007616402
 20
9.9992383598
 30
0.0
 11
3.5366109458
 21
3.5366109458
 31
0.0
 40
0.9996954599
 41
-0.7852458701
 42
0.7852458701
  0
ELLIPSE
  5
478
100
AcDbEntity
  8
RACCORDO
100
AcDbEllipse
 62
7
  6
CONTINUOUS
 10
-39.5007616402
 20
-9.9992383598
 30
0.0
 11
3.5366109458
 21
-3.5366109458
 31
0.0
 40
0.9996954599
 41
-0.7852458701
 42
0.7852458701
  0
ENDSEC
  0
SECTION
  2
OBJECTS
  0
DICTIONARY
  5
C
100
AcDbDictionary
280
0
281
1
  3
ACAD_GROUP
350
D
  3
ACAD_MLINESTYLE
350
17
  3
ACAD_LAYOUT
350
1A
  3
ACAD_PLOTSETTINGS
350
19
  3
ACAD_PLOTSTYLENAME
350
E
  0
DICTIONARY
  5
D
102
{ACAD_REACTORS
330
C
102
}
100
AcDbDictionary
280
0
281
1
  0
ACDBDICTIONARYWDFLT
  5
E
102
{ACAD_REACTORS
330
C
102
}
100
AcDbDictionary
281
1
  3
Normal
350
F
100
AcDbDictionaryWithDefault
340
F
  0
DICTIONARY
  5
17
102
{ACAD_REACTORS
330
C
102
}
100
AcDbDictionary
280
0
281
1
  3
Standard
350
18
  0
DICTIONARY
  5
19
102
{ACAD_REACTORS
330
C
102
}
100
AcDbDictionary
281
1
  0
DICTIONARY
  5
1A
102
{ACAD_REACTORS
330
C
102
}
100
AcDbDictionary
281
1
  3
Model
350
479
  3
Layout1
350
47A
  0
ACDBPLACEHOLDER
  5
F
102
{ACAD_REACTORS
330
E
102
}
  0
MLINESTYLE
  5
18
102
{ACAD_REACTORS
330
17
102
}
100
AcDbMlineStyle
  2
STANDARD
 70
0
  3

 62
256
 51
90.0
 52
90.0
 71
2
 49
0.5
 62
256
  6
BYLAYER
 49
-0.5
 62
256
  6
BYLAYER
  0
LAYOUT
  5
479
102
{ACAD_REACTORS
330
1A
102
}
100
AcDbPlotSettings
  1

  2
none_device
  4
ISO_A4_(297.00_x_210.00_MM)
  6

 40
0.0
 41
0.0
 42
0.0
 43
0.0
 44
297.0
 45
210.0
 46
0.0
 47
0.0
 48
0.0
 49
0.0
140
0.0
141
0.0
142
1.0
143
1.0
 70
1024
 72
1
 73
0
 74
0
  7

 75
0
147
1.0
148
0.0
149
0.0
100
AcDbLayout
  1
Model
 70
0
 71
0
 10
0.0
 20
0.0
 11
297.0
 21
210.0
 12
0.0
 22
0.0
 32
0.0
 14
0.0
 24
0.0
 34
0.0
 15
0.0
 25
0.0
 35
0.0
146
0.0
 13
0.0
 23
0.0
 33
0.0
 16
1.0
 26
0.0
 36
0.0
 17
0.0
 27
1.0
 37
0.0
 76
0
330
20F
345
0
346
0
  0
LAYOUT
  5
47A
102
{ACAD_REACTORS
330
1A
102
}
100
AcDbPlotSettings
  1

  2
none_device
  4
ISO_A4_(297.00_x_210.00_MM)
  6

 40
0.0
 41
0.0
 42
0.0
 43
0.0
 44
297.0
 45
210.0
 46
0.0
 47
0.0
 48
0.0
 49
0.0
140
0.0
141
0.0
142
1.0
143
1.0
 70
0
 72
1
 73
0
 74
0
  7

 75
0
147
1.0
148
0.0
149
0.0
100
AcDbLayout
  1
Layout1
 70
0
 71
1
 10
0.0
 20
0.0
 11
297.0
 21
210.0
 12
0.0
 22
0.0
 32
0.0
 14
0.0
 24
0.0
 34
0.0
 15
0.0
 25
0.0
 35
0.0
146
0.0
 13
0.0
 23
0.0
 33
0.0
 16
1.0
 26
0.0
 36
0.0
 17
0.0
 27
1.0
 37
0.0
 76
0
330
210
345
0
346
0
  0
ENDSEC
  0
EOF
