  0
SECTION
  2
HEADER
  9
$ACADVER
  1
AC1024
  9
$DWGCODEPAGE
  3
ANSI_1252
  9
$EXTMAX
 10
210.0
 20
297.0
 30
0.0
  9
$EXTMIN
 10
0.0
 20
0.0
 30
0.0
  9
$LIMMIN
 10
0.0
 20
0.0
  9
$LIMMAX
 10
210.0
 20
297.0
  9
$VIEWCTR
 10
105.0
 20
148.5
  9
$VIEWSIZE
 40
297.0
  9
$CLAYER
  8
0
  9
$LTSCALE
 40
19.36
  9
$CELTYPE
  6
BYLAYER
  9
$DIMSCALE
 40
1.0
  9
$DIMASZ
 40
3.0
  9
$DIMEXO
 40
0.5
  9
$DIMDLI
 40
13.376
  9
$DIMEXE
 40
1.5
  9
$DIMCEN
 40
3.168
  9
$DIMLFAC
 40
1.0
  9
$DIMBLK
  1
_FILLED
  9
$DIMALT
 70
0
  9
$DIMALTF
 40
0.0393700787
  9
$DIMTXT
 40
3.0
  9
$DIMTOL
 70
1
  9
$DIMLIM
 70
0
  9
$DIMTFAC
 40
1.0
  9
$DIMTP
 40
0.01
  9
$DIMTM
 40
0.01
  9
$DIMGAP
 40
0.625
  9
$DIMDSEP
 70
44
  9
$AUNITS
 70
0
  9
$PDMODE
 70
3
  9
$PDSIZE
 40
3.0
  9
$HANDSEED
  5
512
  9
$TILEMODE
 70
1
  9
$MEASUREMENT
 70
1
  9
$INSUNITS
 70
4
  0
ENDSEC
  0
SECTION
  2
CLASSES
  0
CLASS
  1
ACDBDICTIONARYWDFLT
  2
AcDbDictionaryWithDefault
  3
AutoCAD 2000
 90
0
 91
1
280
0
281
0
  0
CLASS
  1
ACDBPLACEHOLDER
  2
AcDbPlaceHolder
  3
AutoCAD 2000
 90
0
 91
1
280
0
281
0
  0
CLASS
  1
LAYOUT
  2
AcDbLayout
  3
AutoCAD 2000
 90
0
 91
0
280
0
281
0
  0
ENDSEC
  0
SECTION
  2
TABLES
  0
TABLE
  2
VPORT
  5
8
100
AcDbSymbolTable
 70
2
  0
VPORT
  5
1F4
100
AcDbSymbolTableRecord
100
AcDbViewportTableRecord
  2
*ACTIVE
 70
0
 10
0.0
 20
0.0
 11
1.0
 21
1.0
 12
105.0
 22
148.5
 13
0.0
 23
0.0
 14
1.0
 24
1.0
 15
0.0
 25
0.0
 16
0.0
 26
0.0
 36
1.0
 17
0.0
 27
0.0
 37
0.0
 40
297.0
 41
0.7070707071
 42
50.0
 43
0.0
 44
0.0
 50
0.0
 51
0.0
 71
0
 72
100
 73
1
 74
1
 75
0
 76
0
 77
0
 78
0
  0
ENDTAB
  0
TABLE
  2
LTYPE
  5
5
100
AcDbSymbolTable
 70
6
  0
LTYPE
  5
14
100
AcDbSymbolTableRecord
100
AcDbLinetypeTableRecord
  2
BYBLOCK
 70
0
  3

 72
65
 73
0
 40
0.0
  0
LTYPE
  5
15
100
AcDbSymbolTableRecord
100
AcDbLinetypeTableRecord
  2
BYLAYER
 70
0
  3

 72
65
 73
0
 40
0.0
  0
LTYPE
  5
16
100
AcDbSymbolTableRecord
100
AcDbLinetypeTableRecord
  2
CONTINUOUS
 70
64
  3
Solid line
 72
65
 73
0
 40
0.0
  0
LTYPE
  5
1F5
100
AcDbSymbolTableRecord
100
AcDbLinetypeTableRecord
  2
CENTER
 70
64
  3
____ _ ____ _ ____ _ ____ _ ____ _ ____ _ ____
 72
65
 73
4
 40
0.6
 49
0.375
 74
0
 49
-0.075
 74
0
 49
0.075
 74
0
 49
-0.075
 74
0
  0
LTYPE
  5
1F6
100
AcDbSymbolTableRecord
100
AcDbLinetypeTableRecord
  2
HIDDEN
 70
64
  3
- - - - - - - - - - - - - - - - - - - -
 72
65
 73
2
 40
0.2
 49
0.1
 74
0
 49
-0.1
 74
0
  0
LTYPE
  5
1F7
100
AcDbSymbolTableRecord
100
AcDbLinetypeTableRecord
  2
PHANTOM
 70
64
  3
_____ _ _ _____ _ _ _____ _ _ _____
 72
65
 73
6
 40
0.8
 49
0.45
 74
0
 49
-0.05
 74
0
 49
0.1
 74
0
 49
-0.05
 74
0
 49
0.1
 74
0
 49
-0.05
 74
0
  0
LTYPE
  5
1F8
100
AcDbSymbolTableRecord
100
AcDbLinetypeTableRecord
  2
DOT
 70
64
  3
. . . . . . . . . . . . . . . . . . . .
 72
65
 73
2
 40
0.2
 49
0.1
 74
0
 49
-0.1
 74
0
  0
LTYPE
  5
1F9
100
AcDbSymbolTableRecord
100
AcDbLinetypeTableRecord
  2
DASHED
 70
64
  3
- - - - - - - - - - - - - - - - - - - -
 72
65
 73
2
 40
0.2
 49
0.1
 74
0
 49
-0.1
 74
0
  0
ENDTAB
  0
TABLE
  2
LAYER
  5
2
100
AcDbSymbolTable
 70
36
  0
LAYER
  5
10
100
AcDbSymbolTableRecord
100
AcDbLayerTableRecord
  2
0
 70
0
 62
7
  6
CONTINUOUS
370
-3
390
F
  0
LAYER
  5
1FA
100
AcDbSymbolTableRecord
100
AcDbLayerTableRecord
  2
DEFAULT_1
 70
0
 62
7
  6
CENTER
370
-3
390
F
  0
LAYER
  5
1FB
100
AcDbSymbolTableRecord
100
AcDbLayerTableRecord
  2
DEFAULT_2
 70
0
 62
7
  6
HIDDEN
370
-3
390
F
  0
LAYER
  5
1FC
100
AcDbSymbolTableRecord
100
AcDbLayerTableRecord
  2
DEFAULT_3
 70
0
 62
7
  6
PHANTOM
370
-3
390
F
  0
LAYER
  5
1FD
100
AcDbSymbolTableRecord
100
AcDbLayerTableRecord
  2
0402_C_REF_70000
 70
0
 62
7
  6
CONTINUOUS
370
-3
390
F
  0
LAYER
  5
1FE
100
AcDbSymbolTableRecord
100
AcDbLayerTableRecord
  2
0402_C_REF_70000_1
 70
0
 62
7
  6
CONTINUOUS
370
-3
390
F
  0
LAYER
  5
1FF
100
AcDbSymbolTableRecord
100
AcDbLayerTableRecord
  2
0402_C_REF_70000_10
 70
0
 62
7
  6
CONTINUOUS
370
-3
390
F
  0
LAYER
  5
200
100
AcDbSymbolTableRecord
100
AcDbLayerTableRecord
  2
0402_C_REF_70000_11
 70
0
 62
7
  6
CONTINUOUS
370
-3
390
F
  0
LAYER
  5
201
100
AcDbSymbolTableRecord
100
AcDbLayerTableRecord
  2
0402_C_REF_70000_12
 70
0
 62
7
  6
CONTINUOUS
370
-3
390
F
  0
LAYER
  5
202
100
AcDbSymbolTableRecord
100
AcDbLayerTableRecord
  2
0402_C_REF_70000_13
 70
0
 62
7
  6
CONTINUOUS
370
-3
390
F
  0
LAYER
  5
203
100
AcDbSymbolTableRecord
100
AcDbLayerTableRecord
  2
0402_C_REF_70000_14
 70
0
 62
7
  6
CONTINUOUS
370
-3
390
F
  0
LAYER
  5
204
100
AcDbSymbolTableRecord
100
AcDbLayerTableRecord
  2
0402_C_REF_70000_15
 70
0
 62
7
  6
CONTINUOUS
370
-3
390
F
  0
LAYER
  5
205
100
AcDbSymbolTableRecord
100
AcDbLayerTableRecord
  2
0402_C_REF_70000_16
 70
0
 62
7
  6
CONTINUOUS
370
-3
390
F
  0
LAYER
  5
206
100
AcDbSymbolTableRecord
100
AcDbLayerTableRecord
  2
0402_C_REF_70000_17
 70
0
 62
7
  6
CONTINUOUS
370
-3
390
F
  0
LAYER
  5
207
100
AcDbSymbolTableRecord
100
AcDbLayerTableRecord
  2
0402_C_REF_70000_18
 70
0
 62
7
  6
CONTINUOUS
370
-3
390
F
  0
LAYER
  5
208
100
AcDbSymbolTableRecord
100
AcDbLayerTableRecord
  2
0402_C_REF_70000_19
 70
0
 62
7
  6
CONTINUOUS
370
-3
390
F
  0
LAYER
  5
209
100
AcDbSymbolTableRecord
100
AcDbLayerTableRecord
  2
0402_C_REF_70000_2
 70
0
 62
7
  6
CONTINUOUS
370
-3
390
F
  0
LAYER
  5
20A
100
AcDbSymbolTableRecord
100
AcDbLayerTableRecord
  2
0402_C_REF_70000_20
 70
0
 62
7
  6
CONTINUOUS
370
-3
390
F
  0
LAYER
  5
20B
100
AcDbSymbolTableRecord
100
AcDbLayerTableRecord
  2
0402_C_REF_70000_21
 70
0
 62
7
  6
CONTINUOUS
370
-3
390
F
  0
LAYER
  5
20C
100
AcDbSymbolTableRecord
100
AcDbLayerTableRecord
  2
0402_C_REF_70000_22
 70
0
 62
7
  6
CONTINUOUS
370
-3
390
F
  0
LAYER
  5
20D
100
AcDbSymbolTableRecord
100
AcDbLayerTableRecord
  2
0402_C_REF_70000_23
 70
0
 62
7
  6
CONTINUOUS
370
-3
390
F
  0
LAYER
  5
20E
100
AcDbSymbolTableRecord
100
AcDbLayerTableRecord
  2
0402_C_REF_70000_24
 70
0
 62
7
  6
CONTINUOUS
370
-3
390
F
  0
LAYER
  5
20F
100
AcDbSymbolTableRecord
100
AcDbLayerTableRecord
  2
0402_C_REF_70000_25
 70
0
 62
7
  6
CONTINUOUS
370
-3
390
F
  0
LAYER
  5
210
100
AcDbSymbolTableRecord
100
AcDbLayerTableRecord
  2
0402_C_REF_70000_26
 70
0
 62
7
  6
CONTINUOUS
370
-3
390
F
  0
LAYER
  5
211
100
AcDbSymbolTableRecord
100
AcDbLayerTableRecord
  2
0402_C_REF_70000_27
 70
0
 62
7
  6
CONTINUOUS
370
-3
390
F
  0
LAYER
  5
212
100
AcDbSymbolTableRecord
100
AcDbLayerTableRecord
  2
0402_C_REF_70000_28
 70
0
 62
7
  6
CONTINUOUS
370
-3
390
F
  0
LAYER
  5
213
100
AcDbSymbolTableRecord
100
AcDbLayerTableRecord
  2
0402_C_REF_70000_29
 70
0
 62
7
  6
CONTINUOUS
370
-3
390
F
  0
LAYER
  5
214
100
AcDbSymbolTableRecord
100
AcDbLayerTableRecord
  2
0402_C_REF_70000_3
 70
0
 62
7
  6
CONTINUOUS
370
-3
390
F
  0
LAYER
  5
215
100
AcDbSymbolTableRecord
100
AcDbLayerTableRecord
  2
0402_C_REF_70000_30
 70
0
 62
7
  6
CONTINUOUS
370
-3
390
F
  0
LAYER
  5
216
100
AcDbSymbolTableRecord
100
AcDbLayerTableRecord
  2
0402_C_REF_70000_31
 70
0
 62
7
  6
CONTINUOUS
370
-3
390
F
  0
LAYER
  5
217
100
AcDbSymbolTableRecord
100
AcDbLayerTableRecord
  2
0402_C_REF_70000_32
 70
0
 62
7
  6
CONTINUOUS
370
-3
390
F
  0
LAYER
  5
218
100
AcDbSymbolTableRecord
100
AcDbLayerTableRecord
  2
0402_C_REF_70000_33
 70
0
 62
7
  6
CONTINUOUS
370
-3
390
F
  0
LAYER
  5
219
100
AcDbSymbolTableRecord
100
AcDbLayerTableRecord
  2
0402_C_REF_70000_34
 70
0
 62
7
  6
CONTINUOUS
370
-3
390
F
  0
LAYER
  5
21A
100
AcDbSymbolTableRecord
100
AcDbLayerTableRecord
  2
0402_C_REF_70000_35
 70
0
 62
7
  6
CONTINUOUS
370
-3
390
F
  0
LAYER
  5
21B
100
AcDbSymbolTableRecord
100
AcDbLayerTableRecord
  2
0402_C_REF_70000_36
 70
0
 62
7
  6
CONTINUOUS
370
-3
390
F
  0
LAYER
  5
21C
100
AcDbSymbolTableRecord
100
AcDbLayerTableRecord
  2
0402_C_REF_70000_37
 70
0
 62
7
  6
CONTINUOUS
370
-3
390
F
  0
LAYER
  5
21D
100
AcDbSymbolTableRecord
100
AcDbLayerTableRecord
  2
0402_C_REF_70000_38
 70
0
 62
7
  6
CONTINUOUS
370
-3
390
F
  0
LAYER
  5
21E
100
AcDbSymbolTableRecord
100
AcDbLayerTableRecord
  2
0402_C_REF_70000_39
 70
0
 62
7
  6
CONTINUOUS
370
-3
390
F
  0
LAYER
  5
21F
100
AcDbSymbolTableRecord
100
AcDbLayerTableRecord
  2
0402_C_REF_70000_4
 70
0
 62
7
  6
CONTINUOUS
370
-3
390
F
  0
LAYER
  5
220
100
AcDbSymbolTableRecord
100
AcDbLayerTableRecord
  2
0402_C_REF_70000_40
 70
0
 62
7
  6
CONTINUOUS
370
-3
390
F
  0
LAYER
  5
221
100
AcDbSymbolTableRecord
100
AcDbLayerTableRecord
  2
0402_C_REF_70000_5
 70
0
 62
7
  6
CONTINUOUS
370
-3
390
F
  0
LAYER
  5
222
100
AcDbSymbolTableRecord
100
AcDbLayerTableRecord
  2
0402_C_REF_70000_6
 70
0
 62
7
  6
CONTINUOUS
370
-3
390
F
  0
LAYER
  5
223
100
AcDbSymbolTableRecord
100
AcDbLayerTableRecord
  2
0402_C_REF_70000_7
 70
0
 62
7
  6
CONTINUOUS
370
-3
390
F
  0
LAYER
  5
224
100
AcDbSymbolTableRecord
100
AcDbLayerTableRecord
  2
0402_C_REF_70000_8
 70
0
 62
7
  6
CONTINUOUS
370
-3
390
F
  0
LAYER
  5
225
100
AcDbSymbolTableRecord
100
AcDbLayerTableRecord
  2
0402_C_REF_70000_9
 70
0
 62
7
  6
CONTINUOUS
370
-3
390
F
  0
LAYER
  5
226
100
AcDbSymbolTableRecord
100
AcDbLayerTableRecord
  2
0402_R_REF_30000
 70
0
 62
7
  6
CONTINUOUS
370
-3
390
F
  0
LAYER
  5
227
100
AcDbSymbolTableRecord
100
AcDbLayerTableRecord
  2
0402_R_REF_30000_1
 70
0
 62
7
  6
CONTINUOUS
370
-3
390
F
  0
LAYER
  5
228
100
AcDbSymbolTableRecord
100
AcDbLayerTableRecord
  2
0402_R_REF_30000_10
 70
0
 62
7
  6
CONTINUOUS
370
-3
390
F
  0
LAYER
  5
229
100
AcDbSymbolTableRecord
100
AcDbLayerTableRecord
  2
0402_R_REF_30000_11
 70
0
 62
7
  6
CONTINUOUS
370
-3
390
F
  0
LAYER
  5
22A
100
AcDbSymbolTableRecord
100
AcDbLayerTableRecord
  2
0402_R_REF_30000_12
 70
0
 62
7
  6
CONTINUOUS
370
-3
390
F
  0
LAYER
  5
22B
100
AcDbSymbolTableRecord
100
AcDbLayerTableRecord
  2
0402_R_REF_30000_13
 70
0
 62
7
  6
CONTINUOUS
370
-3
390
F
  0
LAYER
  5
22C
100
AcDbSymbolTableRecord
100
AcDbLayerTableRecord
  2
0402_R_REF_30000_14
 70
0
 62
7
  6
CONTINUOUS
370
-3
390
F
  0
LAYER
  5
22D
100
AcDbSymbolTableRecord
100
AcDbLayerTableRecord
  2
0402_R_REF_30000_15
 70
0
 62
7
  6
CONTINUOUS
370
-3
390
F
  0
LAYER
  5
22E
100
AcDbSymbolTableRecord
100
AcDbLayerTableRecord
  2
0402_R_REF_30000_16
 70
0
 62
7
  6
CONTINUOUS
370
-3
390
F
  0
LAYER
  5
22F
100
AcDbSymbolTableRecord
100
AcDbLayerTableRecord
  2
0402_R_REF_30000_17
 70
0
 62
7
  6
CONTINUOUS
370
-3
390
F
  0
LAYER
  5
230
100
AcDbSymbolTableRecord
100
AcDbLayerTableRecord
  2
0402_R_REF_30000_18
 70
0
 62
7
  6
CONTINUOUS
370
-3
390
F
  0
LAYER
  5
231
100
AcDbSymbolTableRecord
100
AcDbLayerTableRecord
  2
0402_R_REF_30000_19
 70
0
 62
7
  6
CONTINUOUS
370
-3
390
F
  0
LAYER
  5
232
100
AcDbSymbolTableRecord
100
AcDbLayerTableRecord
  2
0402_R_REF_30000_2
 70
0
 62
7
  6
CONTINUOUS
370
-3
390
F
  0
LAYER
  5
233
100
AcDbSymbolTableRecord
100
AcDbLayerTableRecord
  2
0402_R_REF_30000_20
 70
0
 62
7
  6
CONTINUOUS
370
-3
390
F
  0
LAYER
  5
234
100
AcDbSymbolTableRecord
100
AcDbLayerTableRecord
  2
0402_R_REF_30000_21
 70
0
 62
7
  6
CONTINUOUS
370
-3
390
F
  0
LAYER
  5
235
100
AcDbSymbolTableRecord
100
AcDbLayerTableRecord
  2
0402_R_REF_30000_22
 70
0
 62
7
  6
CONTINUOUS
370
-3
390
F
  0
LAYER
  5
236
100
AcDbSymbolTableRecord
100
AcDbLayerTableRecord
  2
0402_R_REF_30000_23
 70
0
 62
7
  6
CONTINUOUS
370
-3
390
F
  0
LAYER
  5
237
100
AcDbSymbolTableRecord
100
AcDbLayerTableRecord
  2
0402_R_REF_30000_24
 70
0
 62
7
  6
CONTINUOUS
370
-3
390
F
  0
LAYER
  5
238
100
AcDbSymbolTableRecord
100
AcDbLayerTableRecord
  2
0402_R_REF_30000_25
 70
0
 62
7
  6
CONTINUOUS
370
-3
390
F
  0
LAYER
  5
239
100
AcDbSymbolTableRecord
100
AcDbLayerTableRecord
  2
0402_R_REF_30000_26
 70
0
 62
7
  6
CONTINUOUS
370
-3
390
F
  0
LAYER
  5
23A
100
AcDbSymbolTableRecord
100
AcDbLayerTableRecord
  2
0402_R_REF_30000_27
 70
0
 62
7
  6
CONTINUOUS
370
-3
390
F
  0
LAYER
  5
23B
100
AcDbSymbolTableRecord
100
AcDbLayerTableRecord
  2
0402_R_REF_30000_28
 70
0
 62
7
  6
CONTINUOUS
370
-3
390
F
  0
LAYER
  5
23C
100
AcDbSymbolTableRecord
100
AcDbLayerTableRecord
  2
0402_R_REF_30000_29
 70
0
 62
7
  6
CONTINUOUS
370
-3
390
F
  0
LAYER
  5
23D
100
AcDbSymbolTableRecord
100
AcDbLayerTableRecord
  2
0402_R_REF_30000_3
 70
0
 62
7
  6
CONTINUOUS
370
-3
390
F
  0
LAYER
  5
23E
100
AcDbSymbolTableRecord
100
AcDbLayerTableRecord
  2
0402_R_REF_30000_30
 70
0
 62
7
  6
CONTINUOUS
370
-3
390
F
  0
LAYER
  5
23F
100
AcDbSymbolTableRecord
100
AcDbLayerTableRecord
  2
0402_R_REF_30000_31
 70
0
 62
7
  6
CONTINUOUS
370
-3
390
F
  0
LAYER
  5
240
100
AcDbSymbolTableRecord
100
AcDbLayerTableRecord
  2
0402_R_REF_30000_32
 70
0
 62
7
  6
CONTINUOUS
370
-3
390
F
  0
LAYER
  5
241
100
AcDbSymbolTableRecord
100
AcDbLayerTableRecord
  2
0402_R_REF_30000_33
 70
0
 62
7
  6
CONTINUOUS
370
-3
390
F
  0
LAYER
  5
242
100
AcDbSymbolTableRecord
100
AcDbLayerTableRecord
  2
0402_R_REF_30000_34
 70
0
 62
7
  6
CONTINUOUS
370
-3
390
F
  0
LAYER
  5
243
100
AcDbSymbolTableRecord
100
AcDbLayerTableRecord
  2
0402_R_REF_30000_35
 70
0
 62
7
  6
CONTINUOUS
370
-3
390
F
  0
LAYER
  5
244
100
AcDbSymbolTableRecord
100
AcDbLayerTableRecord
  2
0402_R_REF_30000_36
 70
0
 62
7
  6
CONTINUOUS
370
-3
390
F
  0
LAYER
  5
245
100
AcDbSymbolTableRecord
100
AcDbLayerTableRecord
  2
0402_R_REF_30000_37
 70
0
 62
7
  6
CONTINUOUS
370
-3
390
F
  0
LAYER
  5
246
100
AcDbSymbolTableRecord
100
AcDbLayerTableRecord
  2
0402_R_REF_30000_38
 70
0
 62
7
  6
CONTINUOUS
370
-3
390
F
  0
LAYER
  5
247
100
AcDbSymbolTableRecord
100
AcDbLayerTableRecord
  2
0402_R_REF_30000_39
 70
0
 62
7
  6
CONTINUOUS
370
-3
390
F
  0
LAYER
  5
248
100
AcDbSymbolTableRecord
100
AcDbLayerTableRecord
  2
0402_R_REF_30000_4
 70
0
 62
7
  6
CONTINUOUS
370
-3
390
F
  0
LAYER
  5
249
100
AcDbSymbolTableRecord
100
AcDbLayerTableRecord
  2
0402_R_REF_30000_40
 70
0
 62
7
  6
CONTINUOUS
370
-3
390
F
  0
LAYER
  5
24A
100
AcDbSymbolTableRecord
100
AcDbLayerTableRecord
  2
0402_R_REF_30000_41
 70
0
 62
7
  6
CONTINUOUS
370
-3
390
F
  0
LAYER
  5
24B
100
AcDbSymbolTableRecord
100
AcDbLayerTableRecord
  2
0402_R_REF_30000_42
 70
0
 62
7
  6
CONTINUOUS
370
-3
390
F
  0
LAYER
  5
24C
100
AcDbSymbolTableRecord
100
AcDbLayerTableRecord
  2
0402_R_REF_30000_5
 70
0
 62
7
  6
CONTINUOUS
370
-3
390
F
  0
LAYER
  5
24D
100
AcDbSymbolTableRecord
100
AcDbLayerTableRecord
  2
0402_R_REF_30000_6
 70
0
 62
7
  6
CONTINUOUS
370
-3
390
F
  0
LAYER
  5
24E
100
AcDbSymbolTableRecord
100
AcDbLayerTableRecord
  2
0402_R_REF_30000_7
 70
0
 62
7
  6
CONTINUOUS
370
-3
390
F
  0
LAYER
  5
24F
100
AcDbSymbolTableRecord
100
AcDbLayerTableRecord
  2
0402_R_REF_30000_8
 70
0
 62
7
  6
CONTINUOUS
370
-3
390
F
  0
LAYER
  5
250
100
AcDbSymbolTableRecord
100
AcDbLayerTableRecord
  2
0402_R_REF_30000_9
 70
0
 62
7
  6
CONTINUOUS
370
-3
390
F
  0
LAYER
  5
251
100
AcDbSymbolTableRecord
100
AcDbLayerTableRecord
  2
0603_C_REF_90000
 70
0
 62
7
  6
CONTINUOUS
370
-3
390
F
  0
LAYER
  5
252
100
AcDbSymbolTableRecord
100
AcDbLayerTableRecord
  2
0603_C_REF_90000_1
 70
0
 62
7
  6
CONTINUOUS
370
-3
390
F
  0
LAYER
  5
253
100
AcDbSymbolTableRecord
100
AcDbLayerTableRecord
  2
0603_C_REF_90000_2
 70
0
 62
7
  6
CONTINUOUS
370
-3
390
F
  0
LAYER
  5
254
100
AcDbSymbolTableRecord
100
AcDbLayerTableRecord
  2
0603_C_REF_90000_3
 70
0
 62
7
  6
CONTINUOUS
370
-3
390
F
  0
LAYER
  5
255
100
AcDbSymbolTableRecord
100
AcDbLayerTableRecord
  2
0603_R_REF_55000
 70
0
 62
7
  6
CONTINUOUS
370
-3
390
F
  0
LAYER
  5
256
100
AcDbSymbolTableRecord
100
AcDbLayerTableRecord
  2
0603_R_REF_55000_1
 70
0
 62
7
  6
CONTINUOUS
370
-3
390
F
  0
LAYER
  5
257
100
AcDbSymbolTableRecord
100
AcDbLayerTableRecord
  2
0603_R_REF_55000_2
 70
0
 62
7
  6
CONTINUOUS
370
-3
390
F
  0
LAYER
  5
258
100
AcDbSymbolTableRecord
100
AcDbLayerTableRecord
  2
06___PRT_ALL_SURFS
 70
0
 62
7
  6
CONTINUOUS
370
-3
390
F
  0
LAYER
  5
259
100
AcDbSymbolTableRecord
100
AcDbLayerTableRecord
  2
06___PRT_ALL_SURFS_1
 70
0
 62
7
  6
CONTINUOUS
370
-3
390
F
  0
LAYER
  5
25A
100
AcDbSymbolTableRecord
100
AcDbLayerTableRecord
  2
06___PRT_ALL_SURFS_11
 70
0
 62
7
  6
CONTINUOUS
370
-3
390
F
  0
LAYER
  5
25B
100
AcDbSymbolTableRecord
100
AcDbLayerTableRecord
  2
06___PRT_ALL_SURFS_13
 70
0
 62
7
  6
CONTINUOUS
370
-3
390
F
  0
LAYER
  5
25C
100
AcDbSymbolTableRecord
100
AcDbLayerTableRecord
  2
06___PRT_ALL_SURFS_15
 70
0
 62
7
  6
CONTINUOUS
370
-3
390
F
  0
LAYER
  5
25D
100
AcDbSymbolTableRecord
100
AcDbLayerTableRecord
  2
06___PRT_ALL_SURFS_18
 70
0
 62
7
  6
CONTINUOUS
370
-3
390
F
  0
LAYER
  5
25E
100
AcDbSymbolTableRecord
100
AcDbLayerTableRecord
  2
06___PRT_ALL_SURFS_2
 70
0
 62
7
  6
CONTINUOUS
370
-3
390
F
  0
LAYER
  5
25F
100
AcDbSymbolTableRecord
100
AcDbLayerTableRecord
  2
06___PRT_ALL_SURFS_21
 70
0
 62
7
  6
CONTINUOUS
370
-3
390
F
  0
LAYER
  5
260
100
AcDbSymbolTableRecord
100
AcDbLayerTableRecord
  2
06___PRT_ALL_SURFS_3
 70
0
 62
7
  6
CONTINUOUS
370
-3
390
F
  0
LAYER
  5
261
100
AcDbSymbolTableRecord
100
AcDbLayerTableRecord
  2
06___PRT_ALL_SURFS_4
 70
0
 62
7
  6
CONTINUOUS
370
-3
390
F
  0
LAYER
  5
262
100
AcDbSymbolTableRecord
100
AcDbLayerTableRecord
  2
06___PRT_ALL_SURFS_5
 70
0
 62
7
  6
CONTINUOUS
370
-3
390
F
  0
LAYER
  5
263
100
AcDbSymbolTableRecord
100
AcDbLayerTableRecord
  2
06___PRT_ALL_SURFS_8
 70
0
 62
7
  6
CONTINUOUS
370
-3
390
F
  0
LAYER
  5
264
100
AcDbSymbolTableRecord
100
AcDbLayerTableRecord
  2
0805_C_REF_145000
 70
0
 62
7
  6
CONTINUOUS
370
-3
390
F
  0
LAYER
  5
265
100
AcDbSymbolTableRecord
100
AcDbLayerTableRecord
  2
0805_C_REF_145000_1
 70
0
 62
7
  6
CONTINUOUS
370
-3
390
F
  0
LAYER
  5
266
100
AcDbSymbolTableRecord
100
AcDbLayerTableRecord
  2
0805_C_REF_145000_2
 70
0
 62
7
  6
CONTINUOUS
370
-3
390
F
  0
LAYER
  5
267
100
AcDbSymbolTableRecord
100
AcDbLayerTableRecord
  2
0805_C_REF_145000_3
 70
0
 62
7
  6
CONTINUOUS
370
-3
390
F
  0
LAYER
  5
268
100
AcDbSymbolTableRecord
100
AcDbLayerTableRecord
  2
1206_C_REF_180000
 70
0
 62
7
  6
CONTINUOUS
370
-3
390
F
  0
LAYER
  5
269
100
AcDbSymbolTableRecord
100
AcDbLayerTableRecord
  2
1206_C_REF_180000_1
 70
0
 62
7
  6
CONTINUOUS
370
-3
390
F
  0
LAYER
  5
26A
100
AcDbSymbolTableRecord
100
AcDbLayerTableRecord
  2
43001033A0
 70
0
 62
7
  6
CONTINUOUS
370
-3
390
F
  0
LAYER
  5
26B
100
AcDbSymbolTableRecord
100
AcDbLayerTableRecord
  2
43001033B0
 70
0
 62
7
  6
CONTINUOUS
370
-3
390
F
  0
LAYER
  5
26C
100
AcDbSymbolTableRecord
100
AcDbLayerTableRecord
  2
ASSI
 70
0
 62
7
  6
CONTINUOUS
370
-3
390
F
  0
LAYER
  5
26D
100
AcDbSymbolTableRecord
100
AcDbLayerTableRecord
  2
CAP-T-SMD-CASE-A_160000
 70
0
 62
7
  6
CONTINUOUS
370
-3
390
F
  0
LAYER
  5
26E
100
AcDbSymbolTableRecord
100
AcDbLayerTableRecord
  2
CAP-T-SMD-CASE-A_160000_1
 70
0
 62
7
  6
CONTINUOUS
370
-3
390
F
  0
LAYER
  5
26F
100
AcDbSymbolTableRecord
100
AcDbLayerTableRecord
  2
COLOR1
 70
0
 62
7
  6
CONTINUOUS
370
-3
390
F
  0
LAYER
  5
270
100
AcDbSymbolTableRecord
100
AcDbLayerTableRecord
  2
COLOR16
 70
0
 62
7
  6
CONTINUOUS
370
-3
390
F
  0
LAYER
  5
271
100
AcDbSymbolTableRecord
100
AcDbLayerTableRecord
  2
COLOR191
 70
0
 62
7
  6
CONTINUOUS
370
-3
390
F
  0
LAYER
  5
272
100
AcDbSymbolTableRecord
100
AcDbLayerTableRecord
  2
COLOR194
 70
0
 62
7
  6
CONTINUOUS
370
-3
390
F
  0
LAYER
  5
273
100
AcDbSymbolTableRecord
100
AcDbLayerTableRecord
  2
COLOR196
 70
0
 62
7
  6
CONTINUOUS
370
-3
390
F
  0
LAYER
  5
274
100
AcDbSymbolTableRecord
100
AcDbLayerTableRecord
  2
COLOR198
 70
0
 62
7
  6
CONTINUOUS
370
-3
390
F
  0
LAYER
  5
275
100
AcDbSymbolTableRecord
100
AcDbLayerTableRecord
  2
COLOR2
 70
0
 62
7
  6
CONTINUOUS
370
-3
390
F
  0
LAYER
  5
276
100
AcDbSymbolTableRecord
100
AcDbLayerTableRecord
  2
COLOR200
 70
0
 62
7
  6
CONTINUOUS
370
-3
390
F
  0
LAYER
  5
277
100
AcDbSymbolTableRecord
100
AcDbLayerTableRecord
  2
COLOR201
 70
0
 62
7
  6
CONTINUOUS
370
-3
390
F
  0
LAYER
  5
278
100
AcDbSymbolTableRecord
100
AcDbLayerTableRecord
  2
COLOR202
 70
0
 62
7
  6
CONTINUOUS
370
-3
390
F
  0
LAYER
  5
279
100
AcDbSymbolTableRecord
100
AcDbLayerTableRecord
  2
COLOR203
 70
0
 62
7
  6
CONTINUOUS
370
-3
390
F
  0
LAYER
  5
27A
100
AcDbSymbolTableRecord
100
AcDbLayerTableRecord
  2
COLOR205
 70
0
 62
7
  6
CONTINUOUS
370
-3
390
F
  0
LAYER
  5
27B
100
AcDbSymbolTableRecord
100
AcDbLayerTableRecord
  2
COLOR207
 70
0
 62
7
  6
CONTINUOUS
370
-3
390
F
  0
LAYER
  5
27C
100
AcDbSymbolTableRecord
100
AcDbLayerTableRecord
  2
COLOR208
 70
0
 62
7
  6
CONTINUOUS
370
-3
390
F
  0
LAYER
  5
27D
100
AcDbSymbolTableRecord
100
AcDbLayerTableRecord
  2
COLOR209
 70
0
 62
7
  6
CONTINUOUS
370
-3
390
F
  0
LAYER
  5
27E
100
AcDbSymbolTableRecord
100
AcDbLayerTableRecord
  2
COLOR210
 70
0
 62
7
  6
CONTINUOUS
370
-3
390
F
  0
LAYER
  5
27F
100
AcDbSymbolTableRecord
100
AcDbLayerTableRecord
  2
COLOR212
 70
0
 62
7
  6
CONTINUOUS
370
-3
390
F
  0
LAYER
  5
280
100
AcDbSymbolTableRecord
100
AcDbLayerTableRecord
  2
COLOR214
 70
0
 62
7
  6
CONTINUOUS
370
-3
390
F
  0
LAYER
  5
281
100
AcDbSymbolTableRecord
100
AcDbLayerTableRecord
  2
COLOR221
 70
0
 62
7
  6
CONTINUOUS
370
-3
390
F
  0
LAYER
  5
282
100
AcDbSymbolTableRecord
100
AcDbLayerTableRecord
  2
COLOR6
 70
0
 62
7
  6
CONTINUOUS
370
-3
390
F
  0
LAYER
  5
283
100
AcDbSymbolTableRecord
100
AcDbLayerTableRecord
  2
COORDINATE
 70
0
 62
7
  6
CONTINUOUS
370
-3
390
F
  0
LAYER
  5
284
100
AcDbSymbolTableRecord
100
AcDbLayerTableRecord
  2
COPY_PUBLISH
 70
0
 62
7
  6
CONTINUOUS
370
-3
390
F
  0
LAYER
  5
285
100
AcDbSymbolTableRecord
100
AcDbLayerTableRecord
  2
COSMETICI
 70
0
 62
7
  6
CONTINUOUS
370
-3
390
F
  0
LAYER
  5
286
100
AcDbSymbolTableRecord
100
AcDbLayerTableRecord
  2
CR_SWITCH_KMS231GPLFS__142000
 70
0
 62
7
  6
CONTINUOUS
370
-3
390
F
  0
LAYER
  5
287
100
AcDbSymbolTableRecord
100
AcDbLayerTableRecord
  2
CURVE
 70
0
 62
7
  6
CONTINUOUS
370
-3
390
F
  0
LAYER
  5
288
100
AcDbSymbolTableRecord
100
AcDbLayerTableRecord
  2
DATAMATRIX_RESIST_1000
 70
0
 62
7
  6
CONTINUOUS
370
-3
390
F
  0
LAYER
  5
289
100
AcDbSymbolTableRecord
100
AcDbLayerTableRecord
  2
DRAFT
 70
0
 62
7
  6
CONTINUOUS
370
-3
390
F
  0
LAYER
  5
28A
100
AcDbSymbolTableRecord
100
AcDbLayerTableRecord
  2
FIDUCIAL_1_2_MM_RUOTATO_45_1000
 70
0
 62
7
  6
CONTINUOUS
370
-3
390
F
  0
LAYER
  5
28B
100
AcDbSymbolTableRecord
100
AcDbLayerTableRecord
  2
FIDUCIAL_1_2_MM_RUOTATO_45_10_1
 70
0
 62
7
  6
CONTINUOUS
370
-3
390
F
  0
LAYER
  5
28C
100
AcDbSymbolTableRecord
100
AcDbLayerTableRecord
  2
FIDUCIAL_1_2_MM_RUOTATO_45_10_2
 70
0
 62
7
  6
CONTINUOUS
370
-3
390
F
  0
LAYER
  5
28D
100
AcDbSymbolTableRecord
100
AcDbLayerTableRecord
  2
FIDUCIAL_1_2_MM_RUOTATO_45_10_3
 70
0
 62
7
  6
CONTINUOUS
370
-3
390
F
  0
LAYER
  5
28E
100
AcDbSymbolTableRecord
100
AcDbLayerTableRecord
  2
GEOMETRIA_SOLIDA
 70
0
 62
7
  6
CONTINUOUS
370
-3
390
F
  0
LAYER
  5
28F
100
AcDbSymbolTableRecord
100
AcDbLayerTableRecord
  2
GEOMETRIA_SOLIDA_1
 70
0
 62
7
  6
CONTINUOUS
370
-3
390
F
  0
LAYER
  5
290
100
AcDbSymbolTableRecord
100
AcDbLayerTableRecord
  2
GEOMETRIA_SOLIDA_2
 70
0
 62
7
  6
CONTINUOUS
370
-3
390
F
  0
LAYER
  5
291
100
AcDbSymbolTableRecord
100
AcDbLayerTableRecord
  2
GEOMETRIA_SOLIDA_3
 70
0
 62
7
  6
CONTINUOUS
370
-3
390
F
  0
LAYER
  5
292
100
AcDbSymbolTableRecord
100
AcDbLayerTableRecord
  2
GEOMETRIA_SOLIDA_4
 70
0
 62
7
  6
CONTINUOUS
370
-3
390
F
  0
LAYER
  5
293
100
AcDbSymbolTableRecord
100
AcDbLayerTableRecord
  2
GEOMETRIA_SOLIDA_5
 70
0
 62
7
  6
CONTINUOUS
370
-3
390
F
  0
LAYER
  5
294
100
AcDbSymbolTableRecord
100
AcDbLayerTableRecord
  2
GEOMETRIA_SOLIDA_6
 70
0
 62
7
  6
CONTINUOUS
370
-3
390
F
  0
LAYER
  5
295
100
AcDbSymbolTableRecord
100
AcDbLayerTableRecord
  2
GEOMETRIA_SOLIDA_7
 70
0
 62
7
  6
CONTINUOUS
370
-3
390
F
  0
LAYER
  5
296
100
AcDbSymbolTableRecord
100
AcDbLayerTableRecord
  2
GEOMETRIA_SOLIDA_8
 70
0
 62
7
  6
CONTINUOUS
370
-3
390
F
  0
LAYER
  5
297
100
AcDbSymbolTableRecord
100
AcDbLayerTableRecord
  2
IMPORT_IGES
 70
0
 62
7
  6
CONTINUOUS
370
-3
390
F
  0
LAYER
  5
298
100
AcDbSymbolTableRecord
100
AcDbLayerTableRecord
  2
INTF_1
 70
0
 62
7
  6
CONTINUOUS
370
-3
390
F
  0
LAYER
  5
299
100
AcDbSymbolTableRecord
100
AcDbLayerTableRecord
  2
INTF_11
 70
0
 62
7
  6
CONTINUOUS
370
-3
390
F
  0
LAYER
  5
29A
100
AcDbSymbolTableRecord
100
AcDbLayerTableRecord
  2
INTF_6
 70
0
 62
7
  6
CONTINUOUS
370
-3
390
F
  0
LAYER
  5
29B
100
AcDbSymbolTableRecord
100
AcDbLayerTableRecord
  2
LED-SMD-1_0-0_5-0_6_60000
 70
0
 62
7
  6
CONTINUOUS
370
-3
390
F
  0
LAYER
  5
29C
100
AcDbSymbolTableRecord
100
AcDbLayerTableRecord
  2
LQFP48-7_0-7_0-9_0-9_0-1_6-0_5-
 70
0
 62
7
  6
CONTINUOUS
370
-3
390
F
  0
LAYER
  5
29D
100
AcDbSymbolTableRecord
100
AcDbLayerTableRecord
  2
NOTE
 70
0
 62
7
  6
CONTINUOUS
370
-3
390
F
  0
LAYER
  5
29E
100
AcDbSymbolTableRecord
100
AcDbLayerTableRecord
  2
PIANI
 70
0
 62
7
  6
CONTINUOUS
370
-3
390
F
  0
LAYER
  5
29F
100
AcDbSymbolTableRecord
100
AcDbLayerTableRecord
  2
PUNTI
 70
0
 62
7
  6
CONTINUOUS
370
-3
390
F
  0
LAYER
  5
2A0
100
AcDbSymbolTableRecord
100
AcDbLayerTableRecord
  2
RACCORDO
 70
0
 62
7
  6
CONTINUOUS
370
-3
390
F
  0
LAYER
  5
2A1
100
AcDbSymbolTableRecord
100
AcDbLayerTableRecord
  2
RES-A-SMD-CONV-8-0402-0_55-A_55
 70
0
 62
7
  6
CONTINUOUS
370
-3
390
F
  0
LAYER
  5
2A2
100
AcDbSymbolTableRecord
100
AcDbLayerTableRecord
  2
RES-A-SMD-CONV-8-0402-0_55-A__1
 70
0
 62
7
  6
CONTINUOUS
370
-3
390
F
  0
LAYER
  5
2A3
100
AcDbSymbolTableRecord
100
AcDbLayerTableRecord
  2
SC70-5_H1_1_REF_110000
 70
0
 62
7
  6
CONTINUOUS
370
-3
390
F
  0
LAYER
  5
2A4
100
AcDbSymbolTableRecord
100
AcDbLayerTableRecord
  2
SC70-6_REF_H1_1_110000
 70
0
 62
7
  6
CONTINUOUS
370
-3
390
F
  0
LAYER
  5
2A5
100
AcDbSymbolTableRecord
100
AcDbLayerTableRecord
  2
SIMBOLI
 70
0
 62
7
  6
CONTINUOUS
370
-3
390
F
  0
LAYER
  5
2A6
100
AcDbSymbolTableRecord
100
AcDbLayerTableRecord
  2
SMUSSO
 70
0
 62
7
  6
CONTINUOUS
370
-3
390
F
  0
LAYER
  5
2A7
100
AcDbSymbolTableRecord
100
AcDbLayerTableRecord
  2
SNAPLINE
 70
0
 62
7
  6
CONTINUOUS
370
-3
390
F
  0
LAYER
  5
2A8
100
AcDbSymbolTableRecord
100
AcDbLayerTableRecord
  2
SO8-5_0-6_2-1_75-REF_175000
 70
0
 62
7
  6
CONTINUOUS
370
-3
390
F
  0
LAYER
  5
2A9
100
AcDbSymbolTableRecord
100
AcDbLayerTableRecord
  2
SO8-5_0-6_2-1_75-REF_175000_1
 70
0
 62
7
  6
CONTINUOUS
370
-3
390
F
  0
LAYER
  5
2AA
100
AcDbSymbolTableRecord
100
AcDbLayerTableRecord
  2
SOD323-REF_110000
 70
0
 62
7
  6
CONTINUOUS
370
-3
390
F
  0
LAYER
  5
2AB
100
AcDbSymbolTableRecord
100
AcDbLayerTableRecord
  2
SOD323-REF_110000_1
 70
0
 62
7
  6
CONTINUOUS
370
-3
390
F
  0
LAYER
  5
2AC
100
AcDbSymbolTableRecord
100
AcDbLayerTableRecord
  2
SOT23-5_REF_H1_5_150000
 70
0
 62
7
  6
CONTINUOUS
370
-3
390
F
  0
LAYER
  5
2AD
100
AcDbSymbolTableRecord
100
AcDbLayerTableRecord
  2
SOT23-5_REF_H1_5_150000_1
 70
0
 62
7
  6
CONTINUOUS
370
-3
390
F
  0
LAYER
  5
2AE
100
AcDbSymbolTableRecord
100
AcDbLayerTableRecord
  2
SOT23-5_REF_H1_5_150000_2
 70
0
 62
7
  6
CONTINUOUS
370
-3
390
F
  0
LAYER
  5
2AF
100
AcDbSymbolTableRecord
100
AcDbLayerTableRecord
  2
SUPERFICI
 70
0
 62
7
  6
CONTINUOUS
370
-3
390
F
  0
LAYER
  5
2B0
100
AcDbSymbolTableRecord
100
AcDbLayerTableRecord
  2
SYMBOL_DATA_10000
 70
0
 62
7
  6
CONTINUOUS
370
-3
390
F
  0
LAYER
  5
2B1
100
AcDbSymbolTableRecord
100
AcDbLayerTableRecord
  2
SYMBOL_NO-PB_10000
 70
0
 62
7
  6
CONTINUOUS
370
-3
390
F
  0
LAYER
  5
2B2
100
AcDbSymbolTableRecord
100
AcDbLayerTableRecord
  2
TP-RND-1_0_3500
 70
0
 62
7
  6
CONTINUOUS
370
-3
390
F
  0
LAYER
  5
2B3
100
AcDbSymbolTableRecord
100
AcDbLayerTableRecord
  2
TP-RND-1_0_3500_1
 70
0
 62
7
  6
CONTINUOUS
370
-3
390
F
  0
LAYER
  5
2B4
100
AcDbSymbolTableRecord
100
AcDbLayerTableRecord
  2
TP-RND-1_0_3500_2
 70
0
 62
7
  6
CONTINUOUS
370
-3
390
F
  0
LAYER
  5
2B5
100
AcDbSymbolTableRecord
100
AcDbLayerTableRecord
  2
TP-RND-1_0_3500_3
 70
0
 62
7
  6
CONTINUOUS
370
-3
390
F
  0
LAYER
  5
2B6
100
AcDbSymbolTableRecord
100
AcDbLayerTableRecord
  2
TP-RND-1_0_3500_4
 70
0
 62
7
  6
CONTINUOUS
370
-3
390
F
  0
LAYER
  5
2B7
100
AcDbSymbolTableRecord
100
AcDbLayerTableRecord
  2
TP-RND-1_0_3500_5
 70
0
 62
7
  6
CONTINUOUS
370
-3
390
F
  0
LAYER
  5
2B8
100
AcDbSymbolTableRecord
100
AcDbLayerTableRecord
  2
TP-RND-1_0_3500_6
 70
0
 62
7
  6
CONTINUOUS
370
-3
390
F
  0
LAYER
  5
2B9
100
AcDbSymbolTableRecord
100
AcDbLayerTableRecord
  2
TP_PROGRAMMAZIONE_SWD_1000
 70
0
 62
7
  6
CONTINUOUS
370
-3
390
F
  0
LAYER
  5
2BA
100
AcDbSymbolTableRecord
100
AcDbLayerTableRecord
  2
TRASH
 70
0
 62
7
  6
CONTINUOUS
370
-3
390
F
  0
LAYER
  5
2BB
100
AcDbSymbolTableRecord
100
AcDbLayerTableRecord
  2
VG_CN-SPRING-SMT-P2_5-R1-P3-TET
 70
0
 62
7
  6
CONTINUOUS
370
-3
390
F
  0
LAYER
  5
2BC
100
AcDbSymbolTableRecord
100
AcDbLayerTableRecord
  2
VG_CN-SPRING-SMT-P2_5-R1-P3-T_1
 70
0
 62
7
  6
CONTINUOUS
370
-3
390
F
  0
LAYER
  5
2BD
100
AcDbSymbolTableRecord
100
AcDbLayerTableRecord
  2
VG_CN-SPRING-SMT-P2_5-R1-P5-TET
 70
0
 62
7
  6
CONTINUOUS
370
-3
390
F
  0
LAYER
  5
2BE
100
AcDbSymbolTableRecord
100
AcDbLayerTableRecord
  2
VG_LED-SMT-1_6-0_75-1_0-1_10000
 70
0
 62
7
  6
CONTINUOUS
370
-3
390
F
  0
LAYER
  5
2BF
100
AcDbSymbolTableRecord
100
AcDbLayerTableRecord
  2
VG_LED-SMT-1_6-0_75-1_0-1_100_1
 70
0
 62
7
  6
CONTINUOUS
370
-3
390
F
  0
LAYER
  5
2C0
100
AcDbSymbolTableRecord
100
AcDbLayerTableRecord
  2
VG_LED-SMT-1_6-0_75-1_0-1_100_2
 70
0
 62
7
  6
CONTINUOUS
370
-3
390
F
  0
LAYER
  5
2C1
100
AcDbSymbolTableRecord
100
AcDbLayerTableRecord
  2
VG_LED-SMT-1_6-0_75-1_0-1_100_3
 70
0
 62
7
  6
CONTINUOUS
370
-3
390
F
  0
LAYER
  5
2C2
100
AcDbSymbolTableRecord
100
AcDbLayerTableRecord
  2
VG_LED-SMT-1_6-0_75-1_0-1_100_4
 70
0
 62
7
  6
CONTINUOUS
370
-3
390
F
  0
LAYER
  5
2C3
100
AcDbSymbolTableRecord
100
AcDbLayerTableRecord
  2
VG_LED-SMT-1_6-0_75-1_0-1_100_5
 70
0
 62
7
  6
CONTINUOUS
370
-3
390
F
  0
LAYER
  5
2C4
100
AcDbSymbolTableRecord
100
AcDbLayerTableRecord
  2
VG_LED-SMT-1_6-0_75-1_0-1_100_6
 70
0
 62
7
  6
CONTINUOUS
370
-3
390
F
  0
LAYER
  5
2C5
100
AcDbSymbolTableRecord
100
AcDbLayerTableRecord
  2
VG_LED-SMT-1_6-0_75-1_0-1_100_7
 70
0
 62
7
  6
CONTINUOUS
370
-3
390
F
  0
LAYER
  5
2C6
100
AcDbSymbolTableRecord
100
AcDbLayerTableRecord
  2
VG_LED-SMT-1_6-0_75-1_0-1_100_8
 70
0
 62
7
  6
CONTINUOUS
370
-3
390
F
  0
LAYER
  5
2C7
100
AcDbSymbolTableRecord
100
AcDbLayerTableRecord
  2
VG_LED-SMT-1_6-0_75-1_0-1_100_9
 70
0
 62
7
  6
CONTINUOUS
370
-3
390
F
  0
LAYER
  5
2C8
100
AcDbSymbolTableRecord
100
AcDbLayerTableRecord
  2
VG_LED-SMT-1_6-0_75-1_0-1_10_10
 70
0
 62
7
  6
CONTINUOUS
370
-3
390
F
  0
LAYER
  5
2C9
100
AcDbSymbolTableRecord
100
AcDbLayerTableRecord
  2
VG_LED-SMT-1_6-0_75-1_0-1_10_11
 70
0
 62
7
  6
CONTINUOUS
370
-3
390
F
  0
LAYER
  5
2CA
100
AcDbSymbolTableRecord
100
AcDbLayerTableRecord
  2
VG_LED-SMT-1_6-0_75-1_0-1_10_12
 70
0
 62
7
  6
CONTINUOUS
370
-3
390
F
  0
LAYER
  5
2CB
100
AcDbSymbolTableRecord
100
AcDbLayerTableRecord
  2
VG_LED-SMT-1_6-0_75-1_0-1_10_13
 70
0
 62
7
  6
CONTINUOUS
370
-3
390
F
  0
LAYER
  5
2CC
100
AcDbSymbolTableRecord
100
AcDbLayerTableRecord
  2
VG_LED-SMT-1_6-0_75-1_0-1_10_14
 70
0
 62
7
  6
CONTINUOUS
370
-3
390
F
  0
LAYER
  5
2CD
100
AcDbSymbolTableRecord
100
AcDbLayerTableRecord
  2
VG_LED-SMT-1_6-0_75-1_0-1_10_15
 70
0
 62
7
  6
CONTINUOUS
370
-3
390
F
  0
LAYER
  5
2CE
100
AcDbSymbolTableRecord
100
AcDbLayerTableRecord
  2
VG_LED-SMT-1_6-0_75-1_0-1_10_16
 70
0
 62
7
  6
CONTINUOUS
370
-3
390
F
  0
LAYER
  5
2CF
100
AcDbSymbolTableRecord
100
AcDbLayerTableRecord
  2
VG_LED-SMT-1_6-0_75-1_0-1_10_17
 70
0
 62
7
  6
CONTINUOUS
370
-3
390
F
  0
LAYER
  5
2D0
100
AcDbSymbolTableRecord
100
AcDbLayerTableRecord
  2
VG_LED-SMT-1_6-0_75-1_0-1_10_18
 70
0
 62
7
  6
CONTINUOUS
370
-3
390
F
  0
LAYER
  5
2D1
100
AcDbSymbolTableRecord
100
AcDbLayerTableRecord
  2
VG_LED-SMT-1_6-0_75-1_0-1_10_19
 70
0
 62
7
  6
CONTINUOUS
370
-3
390
F
  0
LAYER
  5
2D2
100
AcDbSymbolTableRecord
100
AcDbLayerTableRecord
  2
VG_LED-SMT-1_6-0_75-1_0-1_10_20
 70
0
 62
7
  6
CONTINUOUS
370
-3
390
F
  0
LAYER
  5
2D3
100
AcDbSymbolTableRecord
100
AcDbLayerTableRecord
  2
VG_LED-SMT-1_6-0_75-1_0-1_10_21
 70
0
 62
7
  6
CONTINUOUS
370
-3
390
F
  0
LAYER
  5
2D4
100
AcDbSymbolTableRecord
100
AcDbLayerTableRecord
  2
VG_LED-SMT-1_6-0_75-1_0-1_10_22
 70
0
 62
7
  6
CONTINUOUS
370
-3
390
F
  0
LAYER
  5
2D5
100
AcDbSymbolTableRecord
100
AcDbLayerTableRecord
  2
VG_LED-SMT-1_6-0_75-1_0-1_10_23
 70
0
 62
7
  6
CONTINUOUS
370
-3
390
F
  0
LAYER
  5
2D6
100
AcDbSymbolTableRecord
100
AcDbLayerTableRecord
  2
VG_LED-SMT-1_6-0_75-1_0-1_10_24
 70
0
 62
7
  6
CONTINUOUS
370
-3
390
F
  0
LAYER
  5
2D7
100
AcDbSymbolTableRecord
100
AcDbLayerTableRecord
  2
VG_LED-SMT-1_6-0_75-1_0-1_10_25
 70
0
 62
7
  6
CONTINUOUS
370
-3
390
F
  0
LAYER
  5
2D8
100
AcDbSymbolTableRecord
100
AcDbLayerTableRecord
  2
VG_LED-SMT-1_6-0_75-1_0-1_10_26
 70
0
 62
7
  6
CONTINUOUS
370
-3
390
F
  0
LAYER
  5
2D9
100
AcDbSymbolTableRecord
100
AcDbLayerTableRecord
  2
VG_LED-SMT-1_6-0_75-1_0-1_10_27
 70
0
 62
7
  6
CONTINUOUS
370
-3
390
F
  0
LAYER
  5
2DA
100
AcDbSymbolTableRecord
100
AcDbLayerTableRecord
  2
VG_LED-SMT-1_6-0_75-1_0-1_10_28
 70
0
 62
7
  6
CONTINUOUS
370
-3
390
F
  0
LAYER
  5
2DB
100
AcDbSymbolTableRecord
100
AcDbLayerTableRecord
  2
VG_LED-SMT-1_6-0_75-1_0-1_10_29
 70
0
 62
7
  6
CONTINUOUS
370
-3
390
F
  0
LAYER
  5
2DC
100
AcDbSymbolTableRecord
100
AcDbLayerTableRecord
  2
VG_LED-SMT-1_6-0_75-1_0-1_10_30
 70
0
 62
7
  6
CONTINUOUS
370
-3
390
F
  0
LAYER
  5
2DD
100
AcDbSymbolTableRecord
100
AcDbLayerTableRecord
  2
VG_LED-SMT-1_6-0_75-1_0-1_10_31
 70
0
 62
7
  6
CONTINUOUS
370
-3
390
F
  0
LAYER
  5
2DE
100
AcDbSymbolTableRecord
100
AcDbLayerTableRecord
  2
VG_LED-SMT-1_6-0_75-1_0-1_10_32
 70
0
 62
7
  6
CONTINUOUS
370
-3
390
F
  0
LAYER
  5
2DF
100
AcDbSymbolTableRecord
100
AcDbLayerTableRecord
  2
VG_LED-SMT-1_6-0_75-1_0-1_10_33
 70
0
 62
7
  6
CONTINUOUS
370
-3
390
F
  0
LAYER
  5
2E0
100
AcDbSymbolTableRecord
100
AcDbLayerTableRecord
  2
VG_LED-SMT-1_6-0_75-1_0-1_10_34
 70
0
 62
7
  6
CONTINUOUS
370
-3
390
F
  0
LAYER
  5
2E1
100
AcDbSymbolTableRecord
100
AcDbLayerTableRecord
  2
VG_LED-SMT-1_6-0_75-1_0-1_10_35
 70
0
 62
7
  6
CONTINUOUS
370
-3
390
F
  0
LAYER
  5
2E2
100
AcDbSymbolTableRecord
100
AcDbLayerTableRecord
  2
VG_LED-SMT-1_6-0_75-1_0-1_10_36
 70
0
 62
7
  6
CONTINUOUS
370
-3
390
F
  0
LAYER
  5
2E3
100
AcDbSymbolTableRecord
100
AcDbLayerTableRecord
  2
VG_LED-SMT-1_6-0_75-1_0-1_10_37
 70
0
 62
7
  6
CONTINUOUS
370
-3
390
F
  0
LAYER
  5
2E4
100
AcDbSymbolTableRecord
100
AcDbLayerTableRecord
  2
VG_LED-SMT-1_6-0_75-1_0-1_10_38
 70
0
 62
7
  6
CONTINUOUS
370
-3
390
F
  0
LAYER
  5
2E5
100
AcDbSymbolTableRecord
100
AcDbLayerTableRecord
  2
VG_LED-SMT-1_6-0_75-1_0-1_10_39
 70
0
 62
7
  6
CONTINUOUS
370
-3
390
F
  0
LAYER
  5
2E6
100
AcDbSymbolTableRecord
100
AcDbLayerTableRecord
  2
VG_LED-SMT-1_6-0_75-1_0-1_10_40
 70
0
 62
7
  6
CONTINUOUS
370
-3
390
F
  0
LAYER
  5
2E7
100
AcDbSymbolTableRecord
100
AcDbLayerTableRecord
  2
VG_LED-SMT-1_6-0_75-1_0-1_10_41
 70
0
 62
7
  6
CONTINUOUS
370
-3
390
F
  0
LAYER
  5
2E8
100
AcDbSymbolTableRecord
100
AcDbLayerTableRecord
  2
VG_LED-SMT-1_6-0_75-1_0-1_10_42
 70
0
 62
7
  6
CONTINUOUS
370
-3
390
F
  0
LAYER
  5
2E9
100
AcDbSymbolTableRecord
100
AcDbLayerTableRecord
  2
VG_LED-SMT-1_6-0_75-1_0-1_10_43
 70
0
 62
7
  6
CONTINUOUS
370
-3
390
F
  0
LAYER
  5
2EA
100
AcDbSymbolTableRecord
100
AcDbLayerTableRecord
  2
VG_LED-SMT-1_6-0_75-1_0-1_10_44
 70
0
 62
7
  6
CONTINUOUS
370
-3
390
F
  0
LAYER
  5
2EB
100
AcDbSymbolTableRecord
100
AcDbLayerTableRecord
  2
VG_LED-SMT-1_6-0_75-1_0-1_10_45
 70
0
 62
7
  6
CONTINUOUS
370
-3
390
F
  0
LAYER
  5
2EC
100
AcDbSymbolTableRecord
100
AcDbLayerTableRecord
  2
VG_LED-SMT-1_6-0_75-1_0-1_10_46
 70
0
 62
7
  6
CONTINUOUS
370
-3
390
F
  0
LAYER
  5
2ED
100
AcDbSymbolTableRecord
100
AcDbLayerTableRecord
  2
VG_LED-SMT-1_6-0_75-1_0-1_10_47
 70
0
 62
7
  6
CONTINUOUS
370
-3
390
F
  0
LAYER
  5
2EE
100
AcDbSymbolTableRecord
100
AcDbLayerTableRecord
  2
VG_LED-SMT-1_6-0_75-1_0-1_10_48
 70
0
 62
7
  6
CONTINUOUS
370
-3
390
F
  0
LAYER
  5
2EF
100
AcDbSymbolTableRecord
100
AcDbLayerTableRecord
  2
VG_LED-SMT-1_6-0_75-1_0-1_10_49
 70
0
 62
7
  6
CONTINUOUS
370
-3
390
F
  0
LAYER
  5
2F0
100
AcDbSymbolTableRecord
100
AcDbLayerTableRecord
  2
VG_LED-SMT-1_6-0_75-1_0-1_10_50
 70
0
 62
7
  6
CONTINUOUS
370
-3
390
F
  0
LAYER
  5
2F1
100
AcDbSymbolTableRecord
100
AcDbLayerTableRecord
  2
VG_LED-SMT-1_6-0_75-1_0-1_10_51
 70
0
 62
7
  6
CONTINUOUS
370
-3
390
F
  0
LAYER
  5
2F2
100
AcDbSymbolTableRecord
100
AcDbLayerTableRecord
  2
VG_LED-SMT-1_6-0_75-1_0-1_10_52
 70
0
 62
7
  6
CONTINUOUS
370
-3
390
F
  0
LAYER
  5
2F3
100
AcDbSymbolTableRecord
100
AcDbLayerTableRecord
  2
VG_LED-SMT-1_6-0_75-1_0-1_10_53
 70
0
 62
7
  6
CONTINUOUS
370
-3
390
F
  0
LAYER
  5
2F4
100
AcDbSymbolTableRecord
100
AcDbLayerTableRecord
  2
VG_LED-SMT-1_6-0_75-1_0-1_10_54
 70
0
 62
7
  6
CONTINUOUS
370
-3
390
F
  0
LAYER
  5
2F5
100
AcDbSymbolTableRecord
100
AcDbLayerTableRecord
  2
VG_LED-SMT-1_6-0_75-1_0-1_10_55
 70
0
 62
7
  6
CONTINUOUS
370
-3
390
F
  0
LAYER
  5
2F6
100
AcDbSymbolTableRecord
100
AcDbLayerTableRecord
  2
VG_LED-SMT-1_6-0_75-1_0-1_10_56
 70
0
 62
7
  6
CONTINUOUS
370
-3
390
F
  0
LAYER
  5
2F7
100
AcDbSymbolTableRecord
100
AcDbLayerTableRecord
  2
VG_LED-SMT-1_6-0_75-1_0-1_10_57
 70
0
 62
7
  6
CONTINUOUS
370
-3
390
F
  0
LAYER
  5
2F8
100
AcDbSymbolTableRecord
100
AcDbLayerTableRecord
  2
VG_LED-SMT-1_6-0_75-1_0-1_10_58
 70
0
 62
7
  6
CONTINUOUS
370
-3
390
F
  0
LAYER
  5
2F9
100
AcDbSymbolTableRecord
100
AcDbLayerTableRecord
  2
VG_LED-SMT-1_6-0_75-1_0-1_10_59
 70
0
 62
7
  6
CONTINUOUS
370
-3
390
F
  0
LAYER
  5
2FA
100
AcDbSymbolTableRecord
100
AcDbLayerTableRecord
  2
VG_LED-SMT-1_6-0_75-1_0-1_10_60
 70
0
 62
7
  6
CONTINUOUS
370
-3
390
F
  0
LAYER
  5
2FB
100
AcDbSymbolTableRecord
100
AcDbLayerTableRecord
  2
VG_LED-SMT-1_6-0_75-1_0-1_10_61
 70
0
 62
7
  6
CONTINUOUS
370
-3
390
F
  0
LAYER
  5
2FC
100
AcDbSymbolTableRecord
100
AcDbLayerTableRecord
  2
VG_LED-SMT-1_6-0_75-1_0-1_10_62
 70
0
 62
7
  6
CONTINUOUS
370
-3
390
F
  0
LAYER
  5
2FD
100
AcDbSymbolTableRecord
100
AcDbLayerTableRecord
  2
VG_LED-SMT-1_6-0_75-1_0-1_10_63
 70
0
 62
7
  6
CONTINUOUS
370
-3
390
F
  0
LAYER
  5
2FE
100
AcDbSymbolTableRecord
100
AcDbLayerTableRecord
  2
VG_LED-SMT-1_6-0_75-1_0-1_10_64
 70
0
 62
7
  6
CONTINUOUS
370
-3
390
F
  0
LAYER
  5
2FF
100
AcDbSymbolTableRecord
100
AcDbLayerTableRecord
  2
VG_LED-SMT-1_6-0_75-1_0-1_10_65
 70
0
 62
7
  6
CONTINUOUS
370
-3
390
F
  0
LAYER
  5
300
100
AcDbSymbolTableRecord
100
AcDbLayerTableRecord
  2
VG_LED-SMT-1_6-0_75-1_0-1_10_66
 70
0
 62
7
  6
CONTINUOUS
370
-3
390
F
  0
LAYER
  5
301
100
AcDbSymbolTableRecord
100
AcDbLayerTableRecord
  2
VG_LED-SMT-1_6-0_75-1_0-1_10_67
 70
0
 62
7
  6
CONTINUOUS
370
-3
390
F
  0
LAYER
  5
302
100
AcDbSymbolTableRecord
100
AcDbLayerTableRecord
  2
VG_LED-SMT-1_6-0_75-1_0-1_10_68
 70
0
 62
7
  6
CONTINUOUS
370
-3
390
F
  0
LAYER
  5
303
100
AcDbSymbolTableRecord
100
AcDbLayerTableRecord
  2
VG_LED-SMT-1_6-0_75-1_0-1_10_69
 70
0
 62
7
  6
CONTINUOUS
370
-3
390
F
  0
LAYER
  5
304
100
AcDbSymbolTableRecord
100
AcDbLayerTableRecord
  2
VG_LED-SMT-1_6-0_75-1_0-1_10_70
 70
0
 62
7
  6
CONTINUOUS
370
-3
390
F
  0
LAYER
  5
305
100
AcDbSymbolTableRecord
100
AcDbLayerTableRecord
  2
VG_LED-SMT-1_6-0_75-1_0-1_10_71
 70
0
 62
7
  6
CONTINUOUS
370
-3
390
F
  0
LAYER
  5
306
100
AcDbSymbolTableRecord
100
AcDbLayerTableRecord
  2
VG_LED-SMT-1_6-0_75-1_0-1_10_72
 70
0
 62
7
  6
CONTINUOUS
370
-3
390
F
  0
LAYER
  5
307
100
AcDbSymbolTableRecord
100
AcDbLayerTableRecord
  2
VG_LED-SMT-1_6-0_75-1_0-1_10_73
 70
0
 62
7
  6
CONTINUOUS
370
-3
390
F
  0
LAYER
  5
308
100
AcDbSymbolTableRecord
100
AcDbLayerTableRecord
  2
VG_LED-SMT-1_6-0_75-1_0-1_10_74
 70
0
 62
7
  6
CONTINUOUS
370
-3
390
F
  0
LAYER
  5
309
100
AcDbSymbolTableRecord
100
AcDbLayerTableRecord
  2
VG_LED-SMT-1_6-0_75-1_0-1_10_75
 70
0
 62
7
  6
CONTINUOUS
370
-3
390
F
  0
LAYER
  5
30A
100
AcDbSymbolTableRecord
100
AcDbLayerTableRecord
  2
VG_LED-SMT-1_6-0_75-1_0-1_10_76
 70
0
 62
7
  6
CONTINUOUS
370
-3
390
F
  0
LAYER
  5
30B
100
AcDbSymbolTableRecord
100
AcDbLayerTableRecord
  2
VG_LED-SMT-1_6-0_75-1_0-1_10_77
 70
0
 62
7
  6
CONTINUOUS
370
-3
390
F
  0
LAYER
  5
30C
100
AcDbSymbolTableRecord
100
AcDbLayerTableRecord
  2
VG_LED-SMT-1_6-0_75-1_0-1_10_78
 70
0
 62
7
  6
CONTINUOUS
370
-3
390
F
  0
LAYER
  5
30D
100
AcDbSymbolTableRecord
100
AcDbLayerTableRecord
  2
VG_LED-SMT-1_6-0_75-1_0-1_10_79
 70
0
 62
7
  6
CONTINUOUS
370
-3
390
F
  0
LAYER
  5
30E
100
AcDbSymbolTableRecord
100
AcDbLayerTableRecord
  2
VG_LED-SMT-1_6-0_75-1_0-1_10_80
 70
0
 62
7
  6
CONTINUOUS
370
-3
390
F
  0
LAYER
  5
30F
100
AcDbSymbolTableRecord
100
AcDbLayerTableRecord
  2
VG_LED-SMT-1_6-0_75-1_0-1_10_81
 70
0
 62
7
  6
CONTINUOUS
370
-3
390
F
  0
LAYER
  5
310
100
AcDbSymbolTableRecord
100
AcDbLayerTableRecord
  2
VG_LED-SMT-1_6-0_75-1_0-1_10_82
 70
0
 62
7
  6
CONTINUOUS
370
-3
390
F
  0
LAYER
  5
311
100
AcDbSymbolTableRecord
100
AcDbLayerTableRecord
  2
VG_LED-SMT-1_6-0_75-1_0-1_10_83
 70
0
 62
7
  6
CONTINUOUS
370
-3
390
F
  0
LAYER
  5
312
100
AcDbSymbolTableRecord
100
AcDbLayerTableRecord
  2
VG_LED-SMT-1_6-0_75-1_0-1_10_84
 70
0
 62
7
  6
CONTINUOUS
370
-3
390
F
  0
LAYER
  5
313
100
AcDbSymbolTableRecord
100
AcDbLayerTableRecord
  2
VG_LED-SMT-1_6-0_75-1_0-1_10_85
 70
0
 62
7
  6
CONTINUOUS
370
-3
390
F
  0
LAYER
  5
314
100
AcDbSymbolTableRecord
100
AcDbLayerTableRecord
  2
VG_LED-SMT-1_6-0_75-1_0-1_10_86
 70
0
 62
7
  6
CONTINUOUS
370
-3
390
F
  0
LAYER
  5
315
100
AcDbSymbolTableRecord
100
AcDbLayerTableRecord
  2
VG_LED-SMT-1_6-0_75-1_0-1_10_87
 70
0
 62
7
  6
CONTINUOUS
370
-3
390
F
  0
LAYER
  5
316
100
AcDbSymbolTableRecord
100
AcDbLayerTableRecord
  2
VG_LED-SMT-1_6-0_75-1_0-1_10_88
 70
0
 62
7
  6
CONTINUOUS
370
-3
390
F
  0
LAYER
  5
317
100
AcDbSymbolTableRecord
100
AcDbLayerTableRecord
  2
VG_LED-SMT-1_6-0_75-1_0-1_10_89
 70
0
 62
7
  6
CONTINUOUS
370
-3
390
F
  0
LAYER
  5
318
100
AcDbSymbolTableRecord
100
AcDbLayerTableRecord
  2
VG_LED-SMT-1_6-0_75-1_0-1_10_90
 70
0
 62
7
  6
CONTINUOUS
370
-3
390
F
  0
LAYER
  5
319
100
AcDbSymbolTableRecord
100
AcDbLayerTableRecord
  2
VG_LED-SMT-1_6-0_75-1_0-1_10_91
 70
0
 62
7
  6
CONTINUOUS
370
-3
390
F
  0
LAYER
  5
31A
100
AcDbSymbolTableRecord
100
AcDbLayerTableRecord
  2
VG_LED-SMT-1_6-0_75-1_0-1_10_92
 70
0
 62
7
  6
CONTINUOUS
370
-3
390
F
  0
LAYER
  5
31B
100
AcDbSymbolTableRecord
100
AcDbLayerTableRecord
  2
VG_LED-SMT-1_6-0_75-1_0-1_10_93
 70
0
 62
7
  6
CONTINUOUS
370
-3
390
F
  0
LAYER
  5
31C
100
AcDbSymbolTableRecord
100
AcDbLayerTableRecord
  2
VG_PB-6-3_0-2_7-1_4-SMT_140000
 70
0
 62
7
  6
CONTINUOUS
370
-3
390
F
  0
LAYER
  5
31D
100
AcDbSymbolTableRecord
100
AcDbLayerTableRecord
  2
VG_PB-6-3_0-2_7-1_4-SMT_14000_1
 70
0
 62
7
  6
CONTINUOUS
370
-3
390
F
  0
LAYER
  5
31E
100
AcDbSymbolTableRecord
100
AcDbLayerTableRecord
  2
VG_PB-6-3_0-2_7-1_4-SMT_14000_2
 70
0
 62
7
  6
CONTINUOUS
370
-3
390
F
  0
LAYER
  5
31F
100
AcDbSymbolTableRecord
100
AcDbLayerTableRecord
  2
VG_PB-6-3_0-2_7-1_4-SMT_14000_3
 70
0
 62
7
  6
CONTINUOUS
370
-3
390
F
  0
LAYER
  5
320
100
AcDbSymbolTableRecord
100
AcDbLayerTableRecord
  2
VG_QFN40-5_0-5_0-5_0-5_0-0_75-0
 70
0
 62
7
  6
CONTINUOUS
370
-3
390
F
  0
LAYER
  5
321
100
AcDbSymbolTableRecord
100
AcDbLayerTableRecord
  2
VG_SENSOR_VL53L0X_REF_110000
 70
0
 62
7
  6
CONTINUOUS
370
-3
390
F
  0
LAYER
  5
322
100
AcDbSymbolTableRecord
100
AcDbLayerTableRecord
  2
VG_SOD882_50000
 70
0
 62
7
  6
CONTINUOUS
370
-3
390
F
  0
LAYER
  5
323
100
AcDbSymbolTableRecord
100
AcDbLayerTableRecord
  2
VG_SOD882_50000_1
 70
0
 62
7
  6
CONTINUOUS
370
-3
390
F
  0
LAYER
  5
324
100
AcDbSymbolTableRecord
100
AcDbLayerTableRecord
  2
VG_SOD882_50000_2
 70
0
 62
7
  6
CONTINUOUS
370
-3
390
F
  0
LAYER
  5
325
100
AcDbSymbolTableRecord
100
AcDbLayerTableRecord
  2
VG_SOD882_50000_3
 70
0
 62
7
  6
CONTINUOUS
370
-3
390
F
  0
LAYER
  5
326
100
AcDbSymbolTableRecord
100
AcDbLayerTableRecord
  2
VG_SOD882_50000_4
 70
0
 62
7
  6
CONTINUOUS
370
-3
390
F
  0
LAYER
  5
327
100
AcDbSymbolTableRecord
100
AcDbLayerTableRecord
  2
VG_SOD882_50000_5
 70
0
 62
7
  6
CONTINUOUS
370
-3
390
F
  0
LAYER
  5
328
100
AcDbSymbolTableRecord
100
AcDbLayerTableRecord
  2
VG_SOD882_50000_6
 70
0
 62
7
  6
CONTINUOUS
370
-3
390
F
  0
LAYER
  5
329
100
AcDbSymbolTableRecord
100
AcDbLayerTableRecord
  2
VG_SOD882_50000_7
 70
0
 62
7
  6
CONTINUOUS
370
-3
390
F
  0
LAYER
  5
32A
100
AcDbSymbolTableRecord
100
AcDbLayerTableRecord
  2
VG_SOT23_H1_1_REF_110000
 70
0
 62
7
  6
CONTINUOUS
370
-3
390
F
  0
LAYER
  5
32B
100
AcDbSymbolTableRecord
100
AcDbLayerTableRecord
  2
X-SMD-3PIN-3_2-2_5_70000
 70
0
 62
7
  6
CONTINUOUS
370
-3
390
F
  0
LAYER
  5
32C
100
AcDbSymbolTableRecord
100
AcDbLayerTableRecord
  2
___SHELL
 70
0
 62
7
  6
CONTINUOUS
370
-3
390
F
  0
ENDTAB
  0
TABLE
  2
STYLE
  5
3
100
AcDbSymbolTable
 70
1
  0
STYLE
  5
11
100
AcDbSymbolTableRecord
100
AcDbTextStyleTableRecord
  2
STANDARD
 70
0
 40
0.0
 41
0.8
 50
0.0
 71
0
 42
0.2
  3
txt
  4

  0
STYLE
  5
32D
100
AcDbSymbolTableRecord
100
AcDbTextStyleTableRecord
  2
TEXTSTYLE_1
 70
0
 40
0.0
 41
0.8
 50
0.0
 71
0
 42
0.2
  3
gdt
  4

  0
ENDTAB
  0
TABLE
  2
VIEW
  5
6
100
AcDbSymbolTable
 70
0
  0
ENDTAB
  0
TABLE
  2
UCS
  5
7
100
AcDbSymbolTable
 70
0
  0
ENDTAB
  0
TABLE
  2
APPID
  5
9
100
AcDbSymbolTable
 70
1
  0
APPID
  5
32E
100
AcDbSymbolTableRecord
100
AcDbRegAppTableRecord
  2
ACAD
 70
0
  0
ENDTAB
  0
TABLE
  2
BLOCK_RECORD
  5
1
100
AcDbSymbolTable
 70
0
  0
BLOCK_RECORD
  5
32F
100
AcDbSymbolTableRecord
100
AcDbBlockTableRecord
  2
*Model_Space
  0
BLOCK_RECORD
  5
330
100
AcDbSymbolTableRecord
100
AcDbBlockTableRecord
  2
*Paper_Space
  0
BLOCK_RECORD
  5
331
100
AcDbSymbolTableRecord
100
AcDbBlockTableRecord
  2
_FILLED
  0
BLOCK_RECORD
  5
332
100
AcDbSymbolTableRecord
100
AcDbBlockTableRecord
  2
*D0
  0
BLOCK_RECORD
  5
333
100
AcDbSymbolTableRecord
100
AcDbBlockTableRecord
  2
*D1
  0
BLOCK_RECORD
  5
334
100
AcDbSymbolTableRecord
100
AcDbBlockTableRecord
  2
*D2
  0
BLOCK_RECORD
  5
335
100
AcDbSymbolTableRecord
100
AcDbBlockTableRecord
  2
*D3
  0
ENDTAB
  0
TABLE
  2
DIMSTYLE
  5
A
100
AcDbSymbolTable
 70
1
100
AcDbDimStyleTable
 71
0
  0
DIMSTYLE
105
336
100
AcDbSymbolTableRecord
100
AcDbDimStyleTableRecord
  2
STANDARD
 70
0
  3

  4

 40
1.0
 41
3.0
 42
0.5
 43
0.38
 44
1.5
 45
0.0
 46
0.0
 47
0.01
 48
0.01
140
3.0
141
0.09
142
0.0
143
25.4
144
1.0
145
0.0
146
1.0
147
0.625
 71
1
 72
0
 73
0
 74
0
 75
0
 76
0
 77
1
 78
8
 79
2
170
0
171
1
172
0
173
0
174
0
175
0
176
0
177
0
178
0
270
2
179
2
271
2
272
2
273
2
274
2
275
0
280
0
281
0
282
0
283
1
284
8
285
0
286
0
287
3
288
0
340
11
278
44
341
331
342
331
343
331
344
331
  0
DIMSTYLE
105
337
100
AcDbSymbolTableRecord
100
AcDbDimStyleTableRecord
  2
DIMSTYLE_1
 70
0
  3

  4

 40
1.0
 41
3.0
 42
0.5
 43
0.38
 44
1.5
 45
0.0
 46
0.0
 47
0.0
 48
0.0
140
3.0
141
0.09
142
0.0
143
25.4
144
1.0
145
0.0
146
1.0
147
0.75
 71
0
 72
0
 73
0
 74
0
 75
0
 76
0
 77
1
 78
8
 79
2
170
0
171
1
172
0
173
0
174
0
175
0
176
0
177
0
178
0
270
2
179
2
271
2
272
2
273
2
274
2
275
0
280
0
281
0
282
0
283
1
284
8
285
0
286
0
287
3
288
0
340
11
278
44
341
331
342
331
343
331
344
331
  0
DIMSTYLE
105
338
100
AcDbSymbolTableRecord
100
AcDbDimStyleTableRecord
  2
DIMSTYLE_2
 70
0
  3

  4

 40
1.0
 41
3.0
 42
0.5
 43
0.38
 44
1.5
 45
0.0
 46
0.0
 47
0.0
 48
0.0
140
3.0
141
0.09
142
0.0
143
25.4
144
1.0
145
0.0
146
1.0
147
0.75
 71
0
 72
0
 73
0
 74
0
 75
0
 76
0
 77
1
 78
8
 79
2
170
0
171
1
172
0
173
0
174
0
175
0
176
0
177
0
178
0
270
2
179
2
271
1
272
1
273
2
274
2
275
0
280
0
281
0
282
0
283
1
284
8
285
0
286
0
287
3
288
0
340
11
278
44
341
331
342
331
343
331
344
331
  0
ENDTAB
  0
ENDSEC
  0
SECTION
  2
BLOCKS
  0
BLOCK
  5
20
100
AcDbEntity
  8
0
100
AcDbBlockBegin
  2
*Model_Space
 70
0
 10
0.0
 20
0.0
 30
0.0
  3
*Model_Space
  1

  0
ENDBLK
  5
21
100
AcDbEntity
  8
0
100
AcDbBlockEnd
  0
BLOCK
  5
1C
100
AcDbEntity
  8
0
100
AcDbBlockBegin
  2
*Paper_Space
 70
0
 10
0.0
 20
0.0
 30
0.0
  3
*Paper_Space
  1

  0
ENDBLK
  5
1D
100
AcDbEntity
  8
0
100
AcDbBlockEnd
  0
BLOCK
  5
339
100
AcDbEntity
  8
0
100
AcDbBlockBegin
  2
_FILLED
 70
64
 10
0.0
 20
0.0
  3
_FILLED
  1

  0
SOLID
  5
33A
100
AcDbEntity
  8
0
  6
BYBLOCK
 62
0
100
AcDbTrace
 10
0.0
 20
0.0
 11
-1.0
 21
0.3166666667
 12
-1.0
 22
-0.3166666667
 13
-1.0
 23
-0.3166666667
  0
ENDBLK
  5
33B
100
AcDbEntity
  8
0
  6
BYBLOCK
 62
0
100
AcDbBlockEnd
  0
BLOCK
  5
33C
100
AcDbEntity
  8
0
100
AcDbBlockBegin
 62
7
  6
CONTINUOUS
  2
*D0
 70
65
 10
0.0
 20
0.0
  3
*D0
  1

  0
LINE
  5
33D
100
AcDbEntity
  8
0
100
AcDbLine
 62
7
  6
CONTINUOUS
 10
-35.793591808
 20
44.0151806193
 11
-35.793591808
 21
55.7893332524
  0
LINE
  5
33E
100
AcDbEntity
  8
0
100
AcDbLine
 62
7
  6
CONTINUOUS
 10
-43.593591808
 20
46.1635604922
 11
-43.593591808
 21
55.7893332524
  0
LINE
  5
33F
100
AcDbEntity
  8
0
100
AcDbLine
 62
7
  6
CONTINUOUS
 10
-35.793591808
 20
54.2893332524
 11
-39.693591808
 21
54.2893332524
  0
LINE
  5
340
100
AcDbEntity
  8
0
100
AcDbLine
 62
7
  6
CONTINUOUS
 10
-43.593591808
 20
54.2893332524
 11
-39.693591808
 21
54.2893332524
  0
LINE
  5
341
100
AcDbEntity
  8
0
100
AcDbLine
 62
7
  6
CONTINUOUS
 10
-39.693591808
 20
54.2893332524
 11
-51.5221984366
 21
54.2893332524
  0
INSERT
  5
342
100
AcDbEntity
  8
0
100
AcDbBlockReference
 62
7
  6
CONTINUOUS
  2
_FILLED
 10
-35.793591808
 20
54.2893332524
 41
3.0
 42
3.0
 43
3.0
  0
INSERT
  5
343
100
AcDbEntity
  8
0
100
AcDbBlockReference
 62
7
  6
CONTINUOUS
  2
_FILLED
 10
-43.593591808
 20
54.2893332524
 41
3.0
 42
3.0
 43
3.0
 50
180.0
  0
ENDBLK
  5
344
100
AcDbEntity
  8
0
  6
BYBLOCK
 62
0
100
AcDbBlockEnd
  0
BLOCK
  5
345
100
AcDbEntity
  8
0
100
AcDbBlockBegin
 62
7
  6
CONTINUOUS
  2
*D1
 70
65
 10
0.0
 20
0.0
  3
*D1
  1

  0
LINE
  5
346
100
AcDbEntity
  8
0
100
AcDbLine
 62
7
  6
CONTINUOUS
 10
-43.593591808
 20
46.1635604922
 11
-43.593591808
 21
65.8130060284
  0
LINE
  5
347
100
AcDbEntity
  8
0
100
AcDbLine
 62
7
  6
CONTINUOUS
 10
-32.793591808
 20
41.1169759694
 11
-32.793591808
 21
65.8130060284
  0
LINE
  5
348
100
AcDbEntity
  8
0
100
AcDbLine
 62
7
  6
CONTINUOUS
 10
-43.593591808
 20
64.3130060284
 11
-47.593591808
 21
64.3130060284
  0
LINE
  5
349
100
AcDbEntity
  8
0
100
AcDbLine
 62
7
  6
CONTINUOUS
 10
-47.593591808
 20
64.3130060284
 11
-38.193591808
 21
64.3130060284
  0
LINE
  5
34A
100
AcDbEntity
  8
0
100
AcDbLine
 62
7
  6
CONTINUOUS
 10
-32.793591808
 20
64.3130060284
 11
-28.793591808
 21
64.3130060284
  0
LINE
  5
34B
100
AcDbEntity
  8
0
100
AcDbLine
 62
7
  6
CONTINUOUS
 10
-28.793591808
 20
64.3130060284
 11
-38.193591808
 21
64.3130060284
  0
INSERT
  5
34C
100
AcDbEntity
  8
0
100
AcDbBlockReference
 62
7
  6
CONTINUOUS
  2
_FILLED
 10
-43.593591808
 20
64.3130060284
 41
3.0
 42
3.0
 43
3.0
  0
INSERT
  5
34D
100
AcDbEntity
  8
0
100
AcDbBlockReference
 62
7
  6
CONTINUOUS
  2
_FILLED
 10
-32.793591808
 20
64.3130060284
 41
3.0
 42
3.0
 43
3.0
 50
180.0
  0
ENDBLK
  5
34E
100
AcDbEntity
  8
0
  6
BYBLOCK
 62
0
100
AcDbBlockEnd
  0
BLOCK
  5
34F
100
AcDbEntity
  8
0
100
AcDbBlockBegin
 62
7
  6
CONTINUOUS
  2
*D2
 70
65
 10
0.0
 20
0.0
  3
*D2
  1

  0
LINE
  5
350
100
AcDbEntity
  8
0
100
AcDbLine
 62
7
  6
CONTINUOUS
 10
-15.6365775765
 20
46.2614611722
 11
-15.6365775765
 21
55.7868836392
  0
LINE
  5
351
100
AcDbEntity
  8
0
100
AcDbLine
 62
7
  6
CONTINUOUS
 10
14.8564403975
 20
46.2614611722
 11
14.8564403975
 21
55.7868836392
  0
LINE
  5
352
100
AcDbEntity
  8
0
100
AcDbLine
 62
7
  6
CONTINUOUS
 10
-15.6365775765
 20
54.2868836392
 11
-0.3900685895
 21
54.2868836392
  0
LINE
  5
353
100
AcDbEntity
  8
0
100
AcDbLine
 62
7
  6
CONTINUOUS
 10
14.8564403975
 20
54.2868836392
 11
-0.3900685895
 21
54.2868836392
  0
INSERT
  5
354
100
AcDbEntity
  8
0
100
AcDbBlockReference
 62
7
  6
CONTINUOUS
  2
_FILLED
 10
-15.6365775765
 20
54.2868836392
 41
3.0
 42
3.0
 43
3.0
 50
180.0
  0
INSERT
  5
355
100
AcDbEntity
  8
0
100
AcDbBlockReference
 62
7
  6
CONTINUOUS
  2
_FILLED
 10
14.8564403975
 20
54.2868836392
 41
3.0
 42
3.0
 43
3.0
  0
ENDBLK
  5
356
100
AcDbEntity
  8
0
  6
BYBLOCK
 62
0
100
AcDbBlockEnd
  0
BLOCK
  5
357
100
AcDbEntity
  8
0
100
AcDbBlockBegin
 62
7
  6
CONTINUOUS
  2
*D3
 70
65
 10
0.0
 20
0.0
  3
*D3
  1

  0
LINE
  5
358
100
AcDbEntity
  8
0
100
AcDbLine
 62
7
  6
CONTINUOUS
 10
14.85651655
 20
46.2613850198
 11
24.3910221933
 21
46.2613850198
  0
LINE
  5
359
100
AcDbEntity
  8
0
100
AcDbLine
 62
7
  6
CONTINUOUS
 10
14.85651655
 20
-41.7316329542
 11
24.3910221933
 21
-41.7316329542
  0
LINE
  5
35A
100
AcDbEntity
  8
0
100
AcDbLine
 62
7
  6
CONTINUOUS
 10
22.8910221933
 20
46.2613850198
 11
22.8910221933
 21
2.2648760328
  0
LINE
  5
35B
100
AcDbEntity
  8
0
100
AcDbLine
 62
7
  6
CONTINUOUS
 10
22.8910221933
 20
-41.7316329542
 11
22.8910221933
 21
2.2648760328
  0
INSERT
  5
35C
100
AcDbEntity
  8
0
100
AcDbBlockReference
 62
7
  6
CONTINUOUS
  2
_FILLED
 10
22.8910221933
 20
46.2613850198
 41
3.0
 42
3.0
 43
3.0
 50
90.0
  0
INSERT
  5
35D
100
AcDbEntity
  8
0
100
AcDbBlockReference
 62
7
  6
CONTINUOUS
  2
_FILLED
 10
22.8910221933
 20
-41.7316329542
 41
3.0
 42
3.0
 43
3.0
 50
270.0
  0
ENDBLK
  5
35E
100
AcDbEntity
  8
0
  6
BYBLOCK
 62
0
100
AcDbBlockEnd
  0
ENDSEC
  0
SECTION
  2
ENTITIES
  0
DIMENSION
  5
35F
100
AcDbEntity
  8
0
100
AcDbDimension
 62
7
  6
CONTINUOUS
  2
*D0
 10
-43.593591808
 20
54.2893332524
 11
-51.5221984366
 21
54.2893332524
 70
160
 71
3
 72
2
 41
0.9
 42
7.8
  3
DIMSTYLE_1
100
AcDbAlignedDimension
 13
-35.793591808
 23
43.5151806193
 14
-43.593591808
 24
45.6635604922
 50
180.0
100
AcDbRotatedDimension
  0
DIMENSION
  5
360
100
AcDbEntity
  8
0
100
AcDbDimension
 62
7
  6
CONTINUOUS
  2
*D1
 10
-32.793591808
 20
64.3130060284
 11
-42.2650203794
 21
64.3130060284
 70
160
 71
2
 72
2
 41
0.9
 42
10.8
  3
DIMSTYLE_1
100
AcDbAlignedDimension
 13
-43.593591808
 23
45.6635604922
 14
-32.793591808
 24
40.6169759694
100
AcDbRotatedDimension
  0
DIMENSION
  5
361
100
AcDbEntity
  8
0
100
AcDbDimension
 62
7
  6
CONTINUOUS
  2
*D2
 10
14.8564403975
 20
54.2868836392
 11
-4.568640018
 21
54.2868836392
 70
160
 71
2
 72
2
 41
0.9
 42
30.493017974
  3
DIMSTYLE_2
100
AcDbAlignedDimension
 13
-15.6365775765
 23
45.7614611722
 14
14.8564403975
 24
45.7614611722
100
AcDbRotatedDimension
  0
DIMENSION
  5
362
100
AcDbEntity
  8
0
100
AcDbDimension
 62
7
  6
CONTINUOUS
  2
*D3
 10
22.8910221933
 20
-41.7316329542
 11
22.8910221933
 21
-0.0922668243
 70
160
 71
2
 72
2
 41
0.9
 42
87.993017974
  3
DIMSTYLE_2
100
AcDbAlignedDimension
 13
14.35651655
 23
46.2613850198
 14
14.35651655
 24
-41.7316329542
 50
270.0
100
AcDbRotatedDimension
  0
LWPOLYLINE
  5
363
100
AcDbEntity
  8
0
100
AcDbPolyline
 62
7
  6
CONTINUOUS
 90
5
 70
0
 43
0.3500000019
 10
-3.7114960938
 20
56.7511699219
 10
-3.354355957
 20
56.9654550781
 10
-3.354355957
 20
57.6083105469
 10
-3.7114960938
 20
58.0368862305
 10
-4.5686420898
 20
58.0368862305
  0
LWPOLYLINE
  5
364
100
AcDbEntity
  8
RACCORDO
100
AcDbPolyline
 62
250
  6
CONTINUOUS
 90
19
 70
0
 10
14.2586158699
 20
-41.6337322742
 10
14.3021786788
 20
-41.6318173816
 10
14.345410077
 20
-41.6261138089
 10
14.3879811749
 20
-41.616664947
 10
14.4295681063
 20
-41.6035426795
 10
14.4698544922
 20
-41.5868468361
 10
14.5085338475
 20
-41.566704433
 10
14.5453119132
 20
-41.5432687067
 10
14.5799088943
 20
-41.5167179481
 10
14.6120615892
 20
-41.4872541461
 10
14.6415253912
 20
-41.4551014512
 10
14.6680761499
 20
-41.4205044699
 10
14.6915118763
 20
-41.3837264042
 10
14.7116542794
 20
-41.3450470489
 10
14.7283501228
 20
-41.3047606632
 10
14.7414723903
 20
-41.2631737318
 10
14.7509212522
 20
-41.2206026339
 10
14.7566248249
 20
-41.1773712357
 10
14.7585397175
 20
-41.1338084266
  0
LINE
  5
365
100
AcDbEntity
  8
RACCORDO
100
AcDbLine
 62
250
  6
CONTINUOUS
 10
-6.6091250759
 20
-41.9660370198
 11
-6.6056345759
 21
-41.9660054907
  0
LINE
  5
366
100
AcDbEntity
  8
RACCORDO
100
AcDbLine
 62
7
  6
CONTINUOUS
 10
-10.1900990504
 20
-41.9851239672
 11
-6.5900381285
 21
-41.9851239672
  0
LINE
  5
367
100
AcDbEntity
  8
RACCORDO
100
AcDbLine
 62
250
  6
CONTINUOUS
 10
-10.1710121031
 20
-41.9660370198
 11
-6.6091250759
 21
-41.9660370198
  0
LINE
  5
368
100
AcDbEntity
  8
RACCORDO
100
AcDbLine
 62
250
  6
CONTINUOUS
 10
-10.3709816421
 20
-41.7660674808
 11
-6.4091555368
 21
-41.7660674808
  0
LWPOLYLINE
  5
369
100
AcDbEntity
  8
RACCORDO
100
AcDbPolyline
 62
7
  6
CONTINUOUS
 90
4
 70
0
 10
-10.1900990504
 20
-41.9851239672
 10
-10.2241683428
 20
-41.9822015478
 10
-10.2575544588
 20
-41.9734060467
 10
-10.2892190954
 20
-41.9588341574
  0
LWPOLYLINE
  5
36A
100
AcDbEntity
  8
RACCORDO
100
AcDbPolyline
 62
250
  6
CONTINUOUS
 90
3
 70
0
 10
-10.2079924649
 20
-41.9625766219
 10
-10.2045632358
 20
-41.9631920838
 10
-10.1710121031
 20
-41.9660370198
  0
LWPOLYLINE
  5
36B
100
AcDbEntity
  8
RACCORDO
100
AcDbPolyline
 62
7
  6
CONTINUOUS
 90
3
 70
0
 10
-6.5225827202
 20
-41.9734060467
 10
-6.5559688362
 20
-41.9822015478
 10
-6.5900381285
 20
-41.9851239672
  0
LWPOLYLINE
  5
36C
100
AcDbEntity
  8
RACCORDO
100
AcDbPolyline
 62
7
  6
CONTINUOUS
 90
9
 70
0
 10
-6.6056345759
 20
-41.9660054907
 10
-6.5739945672
 20
-41.9629162838
 10
-6.5399654615
 20
-41.9536757437
 10
-6.5080944197
 20
-41.9386073431
 10
-6.4792727506
 20
-41.9181009111
 10
-6.4545187952
 20
-41.8928459265
 10
-6.4347899718
 20
-41.8639689153
 10
-6.4205641902
 20
-41.8325879136
 10
-6.4126159348
 20
-41.8030478426
  0
LINE
  5
36D
100
AcDbEntity
  8
0
100
AcDbLine
 62
7
  6
CONTINUOUS
 10
-15.1366537289
 20
-41.7316329542
 11
-10.4900685895
 21
-41.7316329542
  0
LINE
  5
36E
100
AcDbEntity
  8
0
100
AcDbLine
 62
7
  6
CONTINUOUS
 10
-6.2900685895
 20
-41.7316329542
 11
14.35651655
 21
-41.7316329542
  0
LINE
  5
36F
100
AcDbEntity
  8
RACCORDO
100
AcDbLine
 62
7
  6
CONTINUOUS
 10
-6.5900685895
 20
-41.7002138373
 11
-10.1900685895
 21
-41.7002138373
  0
LINE
  5
370
100
AcDbEntity
  8
RACCORDO
100
AcDbLine
 62
250
  6
CONTINUOUS
 10
-15.0387530489
 20
-41.6337322742
 11
14.2586158699
 21
-41.6337322742
  0
LINE
  5
371
100
AcDbEntity
  8
RACCORDO
100
AcDbLine
 62
250
  6
CONTINUOUS
 10
-15.5386768964
 20
-41.1338084266
 11
14.7585397175
 21
-41.1338084266
  0
LINE
  5
372
100
AcDbEntity
  8
RACCORDO
100
AcDbLine
 62
7
  6
CONTINUOUS
 10
-3.0400685895
 20
-39.5851239672
 11
2.2599314105
 21
-39.5851239672
  0
LWPOLYLINE
  5
373
100
AcDbEntity
  8
RACCORDO
100
AcDbPolyline
 62
7
  6
CONTINUOUS
 90
5
 70
0
 10
-10.2892190954
 20
-41.9588341574
 10
-10.3182992951
 20
-41.9386288958
 10
-10.343573518
 20
-41.9133546728
 10
-10.3637787797
 20
-41.8842744731
 10
-10.378350669
 20
-41.8526098365
  0
LINE
  5
374
100
AcDbEntity
  8
RACCORDO
100
AcDbLine
 62
7
  6
CONTINUOUS
 10
2.2599314105
 20
-36.8851239672
 11
-3.0400685895
 21
-36.8851239672
  0
LINE
  5
375
100
AcDbEntity
  8
CURVE
100
AcDbLine
 62
7
  6
CONTINUOUS
 10
-7.8900685895
 20
-32.7351239672
 11
7.1099314105
 21
-32.7351239672
  0
LINE
  5
376
100
AcDbEntity
  8
RACCORDO
100
AcDbLine
 62
250
  6
CONTINUOUS
 10
-6.6091250759
 20
-41.9660370198
 11
-6.5900381285
 21
-41.9851239672
  0
LINE
  5
377
100
AcDbEntity
  8
RACCORDO
100
AcDbLine
 62
250
  6
CONTINUOUS
 10
-6.4091555368
 20
-41.7660674808
 11
-6.3900685895
 21
-41.7851544282
  0
LINE
  5
378
100
AcDbEntity
  8
CURVE
100
AcDbLine
 62
7
  6
CONTINUOUS
 10
-7.8900685895
 20
32.2868442933
 11
-2.9120368499
 21
37.2648760328
  0
LINE
  5
379
100
AcDbEntity
  8
CURVE
100
AcDbLine
 62
7
  6
CONTINUOUS
 10
-7.8900685895
 20
27.3088125537
 11
2.0659948896
 21
37.2648760328
  0
LINE
  5
37A
100
AcDbEntity
  8
CURVE
100
AcDbLine
 62
7
  6
CONTINUOUS
 10
7.1099314105
 20
-22.7351239672
 11
-7.8900685895
 21
-22.7351239672
  0
LINE
  5
37B
100
AcDbEntity
  8
0
100
AcDbLine
 62
250
  6
CONTINUOUS
 10
14.2586158699
 20
46.1634843398
 11
14.35651655
 21
46.2613850198
  0
LINE
  5
37C
100
AcDbEntity
  8
0
100
AcDbLine
 62
250
  6
CONTINUOUS
 10
14.7585397175
 20
45.6635604922
 11
14.8564403975
 21
45.7614611722
  0
LINE
  5
37D
100
AcDbEntity
  8
CURVE
100
AcDbLine
 62
7
  6
CONTINUOUS
 10
-2.9559733708
 20
27.2648760328
 11
7.0440266292
 21
37.2648760328
  0
LINE
  5
37E
100
AcDbEntity
  8
0
100
AcDbLine
 62
250
  6
CONTINUOUS
 10
14.2586158699
 20
-41.6337322742
 11
14.35651655
 21
-41.7316329542
  0
LWPOLYLINE
  5
37F
100
AcDbEntity
  8
RACCORDO
100
AcDbPolyline
 62
7
  6
CONTINUOUS
 90
3
 70
0
 10
-10.378350669
 20
-41.8526098365
 10
-10.3871461701
 20
-41.8192237205
 10
-10.3900685895
 20
-41.7851544282
  0
LWPOLYLINE
  5
380
100
AcDbEntity
  8
RACCORDO
100
AcDbPolyline
 62
250
  6
CONTINUOUS
 90
19
 70
0
 10
-15.5386768964
 20
-41.1338084266
 10
-15.5367620039
 20
-41.1773712355
 10
-15.5310584312
 20
-41.2206026337
 10
-15.5216095693
 20
-41.2631737315
 10
-15.5084873018
 20
-41.3047606629
 10
-15.4917914584
 20
-41.3450470488
 10
-15.4716490553
 20
-41.3837264042
 10
-15.448213329
 20
-41.4205044698
 10
-15.4216625704
 20
-41.455101451
 10
-15.3921987684
 20
-41.4872541458
 10
-15.3600460735
 20
-41.5167179479
 10
-15.3254490922
 20
-41.5432687066
 10
-15.2886710265
 20
-41.5667044329
 10
-15.2499916712
 20
-41.586846836
 10
-15.2097052854
 20
-41.6035426794
 10
-15.1681183541
 20
-41.6166649469
 10
-15.1255472562
 20
-41.6261138089
 10
-15.082315858
 20
-41.6318173816
 10
-15.0387530489
 20
-41.6337322742
  0
LWPOLYLINE
  5
381
100
AcDbEntity
  8
0
100
AcDbPolyline
 62
7
  6
CONTINUOUS
 90
3
 70
0
 43
0.3500000019
 10
0.6456479492
 20
55.3225986328
 10
0.5742177734
 20
55.1083134766
 10
0.4313574219
 20
54.8225981445
  0
LINE
  5
382
100
AcDbEntity
  8
CURVE
100
AcDbLine
 62
7
  6
CONTINUOUS
 10
2.0220583687
 20
27.2648760328
 11
7.1099314105
 21
32.3527490746
  0
LINE
  5
383
100
AcDbEntity
  8
0
100
AcDbLine
 62
250
  6
CONTINUOUS
 10
14.7585397175
 20
-41.1338084266
 11
14.8564403975
 21
-41.2317091066
  0
LWPOLYLINE
  5
384
100
AcDbEntity
  8
RACCORDO
100
AcDbPolyline
 62
7
  6
CONTINUOUS
 90
9
 70
0
 10
-10.370950113
 20
-41.7695579808
 10
-10.3678609061
 20
-41.8011979894
 10
-10.358620366
 20
-41.8352270951
 10
-10.3435519654
 20
-41.8670981369
 10
-10.3230455334
 20
-41.8959198061
 10
-10.2977905487
 20
-41.9206737615
 10
-10.2689135376
 20
-41.9404025849
 10
-10.2375325359
 20
-41.9546283665
 10
-10.2079924649
 20
-41.9625766219
  0
LINE
  5
385
100
AcDbEntity
  8
0
100
AcDbLine
 62
7
  6
CONTINUOUS
 10
-15.6365775765
 20
45.7614611722
 11
-15.6365775765
 21
-41.2317091066
  0
LINE
  5
386
100
AcDbEntity
  8
RACCORDO
100
AcDbLine
 62
250
  6
CONTINUOUS
 10
-15.5386768964
 20
45.6635604922
 11
-15.5386768964
 21
-41.1338084266
  0
LINE
  5
387
100
AcDbEntity
  8
RACCORDO
100
AcDbLine
 62
250
  6
CONTINUOUS
 10
-15.0387530489
 20
-41.6337322742
 11
-15.0387530489
 21
46.1634843398
  0
LINE
  5
388
100
AcDbEntity
  8
CURVE
100
AcDbLine
 62
7
  6
CONTINUOUS
 10
7.0000901083
 20
27.2648760328
 11
7.1099314105
 21
27.374717335
  0
LINE
  5
389
100
AcDbEntity
  8
RACCORDO
100
AcDbLine
 62
250
  6
CONTINUOUS
 10
-10.3709816421
 20
-41.7660674808
 11
-10.370950113
 21
-41.7695579808
  0
LINE
  5
38A
100
AcDbEntity
  8
0
100
AcDbLine
 62
7
  6
CONTINUOUS
 10
-10.4900685895
 20
-41.7316329542
 11
-10.4900685895
 21
-41.7054503568
  0
LINE
  5
38B
100
AcDbEntity
  8
RACCORDO
100
AcDbLine
 62
7
  6
CONTINUOUS
 10
-10.3900685895
 20
-41.7015494433
 11
-10.3900685895
 21
-41.7851544282
  0
LINE
  5
38C
100
AcDbEntity
  8
RACCORDO
100
AcDbLine
 62
250
  6
CONTINUOUS
 10
-10.3709816421
 20
-41.7012788365
 11
-10.3709816421
 21
-41.7660674808
  0
LINE
  5
38D
100
AcDbEntity
  8
RACCORDO
100
AcDbLine
 62
250
  6
CONTINUOUS
 10
-10.1710121031
 20
-41.7002138373
 11
-10.1710121031
 21
-41.9660370198
  0
LINE
  5
38E
100
AcDbEntity
  8
CURVE
100
AcDbLine
 62
7
  6
CONTINUOUS
 10
-7.8900685895
 20
-2.7351239672
 11
-7.8900685895
 21
7.2648760328
  0
LINE
  5
38F
100
AcDbEntity
  8
CURVE
100
AcDbLine
 62
7
  6
CONTINUOUS
 10
-7.8900685895
 20
-22.7351239672
 11
-7.8900685895
 21
-32.7351239672
  0
LINE
  5
390
100
AcDbEntity
  8
CURVE
100
AcDbLine
 62
7
  6
CONTINUOUS
 10
-7.8900685895
 20
27.2648760328
 11
-7.8900685895
 21
37.2648760328
  0
LINE
  5
391
100
AcDbEntity
  8
RACCORDO
100
AcDbLine
 62
250
  6
CONTINUOUS
 10
-6.6091250759
 20
-41.7002138373
 11
-6.6091250759
 21
-41.9660370198
  0
LINE
  5
392
100
AcDbEntity
  8
CURVE
100
AcDbLine
 62
7
  6
CONTINUOUS
 10
-7.8900685895
 20
2.4186538559
 11
-3.0438464126
 21
7.2648760328
  0
LINE
  5
393
100
AcDbEntity
  8
RACCORDO
100
AcDbLine
 62
250
  6
CONTINUOUS
 10
-6.4091555368
 20
-41.7660674808
 11
-6.4091555368
 21
-41.7012788365
  0
LINE
  5
394
100
AcDbEntity
  8
RACCORDO
100
AcDbLine
 62
7
  6
CONTINUOUS
 10
-6.3900685895
 20
-41.7851544282
 11
-6.3900685895
 21
-41.7015494433
  0
LINE
  5
395
100
AcDbEntity
  8
0
100
AcDbLine
 62
7
  6
CONTINUOUS
 10
-6.2900685895
 20
-41.7316329542
 11
-6.2900685895
 21
-41.7054503568
  0
LINE
  5
396
100
AcDbEntity
  8
RACCORDO
100
AcDbLine
 62
7
  6
CONTINUOUS
 10
-3.2400685895
 20
-37.0851239672
 11
-3.2400685895
 21
-39.3851239672
  0
LINE
  5
397
100
AcDbEntity
  8
CURVE
100
AcDbLine
 62
7
  6
CONTINUOUS
 10
-7.8900685895
 20
-2.5593778836
 11
1.934185327
 21
7.2648760328
  0
LWPOLYLINE
  5
398
100
AcDbEntity
  8
0
100
AcDbPolyline
 62
7
  6
CONTINUOUS
 90
13
 70
0
 43
0.3500000019
 10
-2.4257851562
 20
55.8940239258
 10
-2.4257851562
 20
57.1797402344
 10
-2.2114946289
 20
57.6083105469
 10
-1.7829243164
 20
58.0368862305
 10
-1.5686391602
 20
58.0368862305
 10
-1.1400688477
 20
57.6083105469
 10
-0.9257836914
 20
57.1797402344
 10
-0.9257836914
 20
55.8940239258
 10
-1.1400688477
 20
55.4654536133
 10
-1.5686391602
 20
55.0368833008
 10
-1.7829243164
 20
55.0368833008
 10
-2.2114946289
 20
55.4654536133
 10
-2.4257851562
 20
55.8940239258
  0
LWPOLYLINE
  5
399
100
AcDbEntity
  8
RACCORDO
100
AcDbPolyline
 62
7
  6
CONTINUOUS
 90
4
 70
0
 10
-6.3900685895
 20
-41.7851544282
 10
-6.3929910089
 20
-41.8192237205
 10
-6.4017865099
 20
-41.8526098365
 10
-6.4163583993
 20
-41.8842744731
  0
LINE
  5
39A
100
AcDbEntity
  8
CURVE
100
AcDbLine
 62
7
  6
CONTINUOUS
 10
-3.0877829335
 20
-2.7351239672
 11
6.9122170665
 21
7.2648760328
  0
LINE
  5
39B
100
AcDbEntity
  8
CURVE
100
AcDbLine
 62
7
  6
CONTINUOUS
 10
7.1099314105
 20
-2.7351239672
 11
-7.8900685895
 21
-2.7351239672
  0
LWPOLYLINE
  5
39C
100
AcDbEntity
  8
0
100
AcDbPolyline
 62
7
  6
CONTINUOUS
 90
4
 70
0
 43
0.3500000019
 10
21.7124472656
 20
-0.09226682
 10
20.8553066406
 20
-0.09226682
 10
20.4267363281
 20
0.336304594
 10
20.4267363281
 20
0.9791617203
  0
LINE
  5
39D
100
AcDbEntity
  8
RACCORDO
100
AcDbLine
 62
7
  6
CONTINUOUS
 10
2.4599314105
 20
-39.3851239672
 11
2.4599314105
 21
-37.0851239672
  0
LWPOLYLINE
  5
39E
100
AcDbEntity
  8
RACCORDO
100
AcDbPolyline
 62
250
  6
CONTINUOUS
 90
3
 70
0
 10
-6.4126159348
 20
-41.8030478426
 10
-6.4120004728
 20
-41.7996186135
 10
-6.4091555368
 20
-41.7660674808
  0
LINE
  5
39F
100
AcDbEntity
  8
CURVE
100
AcDbLine
 62
7
  6
CONTINUOUS
 10
1.8902488061
 20
-2.7351239672
 11
7.1099314105
 21
2.4845586373
  0
LWPOLYLINE
  5
3A0
100
AcDbEntity
  8
0
100
AcDbPolyline
 62
7
  6
CONTINUOUS
 90
4
 70
0
 43
0.3500000019
 10
21.7124472656
 20
2.2648760986
 10
20.8553066406
 20
2.2648760986
 10
20.4267363281
 20
2.6934474182
 10
20.4267363281
 20
3.3363045654
  0
LINE
  5
3A1
100
AcDbEntity
  8
CURVE
100
AcDbLine
 62
7
  6
CONTINUOUS
 10
7.1099314105
 20
37.2648760328
 11
7.1099314105
 21
27.2648760328
  0
LINE
  5
3A2
100
AcDbEntity
  8
CURVE
100
AcDbLine
 62
7
  6
CONTINUOUS
 10
7.1099314105
 20
-32.7351239672
 11
7.1099314105
 21
-22.7351239672
  0
LINE
  5
3A3
100
AcDbEntity
  8
CURVE
100
AcDbLine
 62
7
  6
CONTINUOUS
 10
7.1099314105
 20
7.2648760328
 11
7.1099314105
 21
-2.7351239672
  0
LINE
  5
3A4
100
AcDbEntity
  8
CURVE
100
AcDbLine
 62
7
  6
CONTINUOUS
 10
6.8682805456
 20
-2.7351239672
 11
7.1099314105
 21
-2.4934731023
  0
LINE
  5
3A5
100
AcDbEntity
  8
CURVE
100
AcDbLine
 62
7
  6
CONTINUOUS
 10
-7.8900685895
 20
7.2648760328
 11
7.1099314105
 21
7.2648760328
  0
LINE
  5
3A6
100
AcDbEntity
  8
RACCORDO
100
AcDbLine
 62
250
  6
CONTINUOUS
 10
14.2586158699
 20
-41.6337322742
 11
14.2586158699
 21
46.1634843398
  0
LINE
  5
3A7
100
AcDbEntity
  8
RACCORDO
100
AcDbLine
 62
250
  6
CONTINUOUS
 10
14.7585397175
 20
-41.1338084266
 11
14.7585397175
 21
45.6635604922
  0
LINE
  5
3A8
100
AcDbEntity
  8
0
100
AcDbLine
 62
7
  6
CONTINUOUS
 10
14.8564403975
 20
-41.2317091066
 11
14.8564403975
 21
45.7614611722
  0
LWPOLYLINE
  5
3A9
100
AcDbEntity
  8
0
100
AcDbPolyline
 62
7
  6
CONTINUOUS
 90
13
 70
0
 43
0.3500000019
 10
20.4267363281
 20
2.6934474182
 10
20.2124511719
 20
2.4077330933
 10
19.5695957031
 20
2.4077330933
 10
19.1410253906
 20
2.6934474182
 10
19.1410253906
 20
3.3363045654
 10
19.5695957031
 20
3.6220188904
 10
20.2124511719
 20
3.6220188904
 10
20.4267363281
 20
3.3363045654
 10
20.8553066406
 20
3.764875885
 10
21.7124472656
 20
3.764875885
 10
22.1410175781
 20
3.3363045654
 10
22.1410175781
 20
2.6934474182
 10
21.7124472656
 20
2.2648760986
  0
LWPOLYLINE
  5
3AA
100
AcDbEntity
  8
0
100
AcDbPolyline
 62
7
  6
CONTINUOUS
 90
13
 70
0
 43
0.3500000019
 10
20.4267363281
 20
0.336304594
 10
20.2124511719
 20
0.0505903163
 10
19.5695957031
 20
0.0505903163
 10
19.1410253906
 20
0.336304594
 10
19.1410253906
 20
0.9791617203
 10
19.5695957031
 20
1.2648760452
 10
20.2124511719
 20
1.2648760452
 10
20.4267363281
 20
0.9791617203
 10
20.8553066406
 20
1.4077332077
 10
21.7124472656
 20
1.4077332077
 10
22.1410175781
 20
0.9791617203
 10
22.1410175781
 20
0.336304594
 10
21.7124472656
 20
-0.09226682
  0
LINE
  5
3AB
100
AcDbEntity
  8
CURVE
100
AcDbLine
 62
7
  6
CONTINUOUS
 10
-7.8900685895
 20
-27.4495365814
 11
-3.1756559753
 21
-22.7351239672
  0
LWPOLYLINE
  5
3AC
100
AcDbEntity
  8
RACCORDO
100
AcDbPolyline
 62
250
  6
CONTINUOUS
 90
19
 70
0
 10
14.7585397175
 20
45.6635604922
 10
14.7566248249
 20
45.7071233011
 10
14.7509212523
 20
45.7503546993
 10
14.7414723904
 20
45.7929257972
 10
14.7283501229
 20
45.8345127286
 10
14.7116542794
 20
45.8747991144
 10
14.6915118763
 20
45.9134784698
 10
14.66807615
 20
45.9502565354
 10
14.6415253914
 20
45.9848535166
 10
14.6120615895
 20
46.0170062115
 10
14.5799088945
 20
46.0464700135
 10
14.5453119133
 20
46.0730207722
 10
14.5085338476
 20
46.0964564986
 10
14.4698544922
 20
46.1165989017
 10
14.4295681065
 20
46.1332947451
 10
14.3879811752
 20
46.1464170126
 10
14.3454100773
 20
46.1558658745
 10
14.302178679
 20
46.1615694472
 10
14.2586158699
 20
46.1634843398
  0
LWPOLYLINE
  5
3AD
100
AcDbEntity
  8
RACCORDO
100
AcDbPolyline
 62
7
  6
CONTINUOUS
 90
5
 70
0
 10
-6.4163583993
 20
-41.8842744731
 10
-6.4365636609
 20
-41.9133546728
 10
-6.4618378838
 20
-41.9386288958
 10
-6.4909180836
 20
-41.9588341574
 10
-6.5225827202
 20
-41.9734060467
  0
LINE
  5
3AE
100
AcDbEntity
  8
CURVE
100
AcDbLine
 62
7
  6
CONTINUOUS
 10
-7.8900685895
 20
-32.4275683209
 11
1.8023757643
 21
-22.7351239672
  0
LINE
  5
3AF
100
AcDbEntity
  8
0
100
AcDbLine
 62
250
  6
CONTINUOUS
 10
-15.5386768964
 20
-41.1338084266
 11
-15.6365775765
 21
-41.2317091066
  0
LINE
  5
3B0
100
AcDbEntity
  8
0
100
AcDbLine
 62
250
  6
CONTINUOUS
 10
-15.0387530489
 20
-41.6337322742
 11
-15.1366537289
 21
-41.7316329542
  0
LINE
  5
3B1
100
AcDbEntity
  8
CURVE
100
AcDbLine
 62
7
  6
CONTINUOUS
 10
-3.2195924962
 20
-32.7351239672
 11
6.7804075038
 21
-22.7351239672
  0
LINE
  5
3B2
100
AcDbEntity
  8
RACCORDO
100
AcDbLine
 62
250
  6
CONTINUOUS
 10
-10.3709816421
 20
-41.7660674808
 11
-10.3900685895
 21
-41.7851544282
  0
LINE
  5
3B3
100
AcDbEntity
  8
RACCORDO
100
AcDbLine
 62
250
  6
CONTINUOUS
 10
-10.1710121031
 20
-41.9660370198
 11
-10.1900990504
 21
-41.9851239672
  0
LINE
  5
3B4
100
AcDbEntity
  8
0
100
AcDbLine
 62
250
  6
CONTINUOUS
 10
-15.5386768964
 20
45.6635604922
 11
-15.6365775765
 21
45.7614611722
  0
LINE
  5
3B5
100
AcDbEntity
  8
0
100
AcDbLine
 62
250
  6
CONTINUOUS
 10
-15.0387530489
 20
46.1634843398
 11
-15.1366537289
 21
46.2613850198
  0
LINE
  5
3B6
100
AcDbEntity
  8
CURVE
100
AcDbLine
 62
7
  6
CONTINUOUS
 10
1.7584392434
 20
-32.7351239672
 11
7.1099314105
 21
-27.3836318
  0
LWPOLYLINE
  5
3B7
100
AcDbEntity
  8
0
100
AcDbPolyline
 62
7
  6
CONTINUOUS
 90
10
 70
0
 43
0.3500000019
 10
0.5742177734
 20
55.5368837891
 10
0.6456479492
 20
55.3940288086
 10
0.6456479492
 20
55.3225986328
 10
0.5027875977
 20
55.1797382813
 10
0.4313574219
 20
55.1797382813
 10
0.3599326172
 20
55.251168457
 10
0.3599326172
 20
55.3225986328
 10
0.4313574219
 20
55.4654536133
 10
0.5027875977
 20
55.5368837891
 10
0.5742177734
 20
55.5368837891
  0
LINE
  5
3B8
100
AcDbEntity
  8
CURVE
100
AcDbLine
 62
7
  6
CONTINUOUS
 10
6.7364709829
 20
-32.7351239672
 11
7.1099314105
 21
-32.3616635396
  0
LINE
  5
3B9
100
AcDbEntity
  8
CURVE
100
AcDbLine
 62
7
  6
CONTINUOUS
 10
7.1099314105
 20
27.2648760328
 11
-7.8900685895
 21
27.2648760328
  0
LINE
  5
3BA
100
AcDbEntity
  8
CURVE
100
AcDbLine
 62
7
  6
CONTINUOUS
 10
-7.8900685895
 20
37.2648760328
 11
7.1099314105
 21
37.2648760328
  0
LWPOLYLINE
  5
3BB
100
AcDbEntity
  8
RACCORDO
100
AcDbPolyline
 62
250
  6
CONTINUOUS
 90
19
 70
0
 10
-15.0387530489
 20
46.1634843398
 10
-15.0823158578
 20
46.1615694472
 10
-15.125547256
 20
46.1558658745
 10
-15.1681183538
 20
46.1464170126
 10
-15.2097052852
 20
46.1332947451
 10
-15.2499916711
 20
46.1165989017
 10
-15.2886710265
 20
46.0964564986
 10
-15.3254490921
 20
46.0730207723
 10
-15.3600460733
 20
46.0464700137
 10
-15.3921987681
 20
46.0170062117
 10
-15.4216625702
 20
45.9848535168
 10
-15.4482133289
 20
45.9502565356
 10
-15.4716490552
 20
45.9134784698
 10
-15.4917914583
 20
45.8747991145
 10
-15.5084873017
 20
45.8345127288
 10
-15.5216095692
 20
45.7929257975
 10
-15.5310584312
 20
45.7503546996
 10
-15.5367620038
 20
45.7071233013
 10
-15.5386768964
 20
45.6635604922
  0
LINE
  5
3BC
100
AcDbEntity
  8
RACCORDO
100
AcDbLine
 62
250
  6
CONTINUOUS
 10
-15.5386768964
 20
45.6635604922
 11
14.7585397175
 21
45.6635604922
  0
LINE
  5
3BD
100
AcDbEntity
  8
RACCORDO
100
AcDbLine
 62
250
  6
CONTINUOUS
 10
14.2586158699
 20
46.1634843398
 11
-15.0387530489
 21
46.1634843398
  0
LINE
  5
3BE
100
AcDbEntity
  8
0
100
AcDbLine
 62
7
  6
CONTINUOUS
 10
14.35651655
 20
46.2613850198
 11
-15.1366537289
 21
46.2613850198
  0
LWPOLYLINE
  5
3BF
100
AcDbEntity
  8
0
100
AcDbPolyline
 62
7
  6
CONTINUOUS
 90
6
 70
0
 43
0.3500000019
 10
-4.5686420898
 20
55.0368833008
 10
-3.4972109375
 20
55.0368833008
 10
-3.2829257813
 20
55.251168457
 10
-3.2829257813
 20
56.3225996094
 10
-3.7114960938
 20
56.7511699219
 10
-4.1400664062
 20
56.7511699219
  0
LWPOLYLINE
  5
3C0
100
AcDbEntity
  8
0
100
AcDbPolyline
 62
7
  6
CONTINUOUS
 90
8
 70
0
 43
0.3500000019
 10
1.6456435547
 20
55.0368833008
 10
2.5027895508
 20
55.0368833008
 10
2.9313598633
 20
55.4654536133
 10
2.9313598633
 20
56.3225996094
 10
2.5027895508
 20
56.7511699219
 10
1.6456435547
 20
56.7511699219
 10
1.6456435547
 20
58.0368862305
 10
2.9313598633
 20
58.0368862305
  0
LWPOLYLINE
  5
3C1
100
AcDbEntity
  8
0
100
AcDbPolyline
 62
7
  6
CONTINUOUS
 90
3
 70
0
 43
0.3500000019
 10
-42.265019043
 20
67.2058642578
 10
-41.407878418
 20
68.0630048828
 10
-41.407878418
 20
65.0630073242
  0
LINE
  5
3C2
100
AcDbEntity
  8
RACCORDO
100
AcDbLine
 62
7
  6
CONTINUOUS
 10
-37.353591808
 20
-41.9851239672
 11
-37.3401013267
 21
-41.98488849
  0
LINE
  5
3C3
100
AcDbEntity
  8
RACCORDO
100
AcDbLine
 62
250
  6
CONTINUOUS
 10
-37.353591808
 20
-41.7851544282
 11
-37.3401013267
 21
-41.7849189509
  0
LINE
  5
3C4
100
AcDbEntity
  8
RACCORDO
100
AcDbLine
 62
250
  6
CONTINUOUS
 10
-37.143591808
 20
-41.7849189509
 11
-37.3401013267
 21
-41.7849189509
  0
LINE
  5
3C5
100
AcDbEntity
  8
RACCORDO
100
AcDbLine
 62
250
  6
CONTINUOUS
 10
-38.4470822893
 20
-41.7660674808
 11
-38.643591808
 21
-41.7660674808
  0
LINE
  5
3C6
100
AcDbEntity
  8
RACCORDO
100
AcDbLine
 62
250
  6
CONTINUOUS
 10
-43.593591808
 20
-41.1338084266
 11
-43.1023180112
 21
-41.1338084266
  0
LINE
  5
3C7
100
AcDbEntity
  8
RACCORDO
100
AcDbLine
 62
7
  6
CONTINUOUS
 10
-38.4470822893
 20
-41.9660370198
 11
-37.353591808
 21
-41.9851239672
  0
LINE
  5
3C8
100
AcDbEntity
  8
RACCORDO
100
AcDbLine
 62
250
  6
CONTINUOUS
 10
-38.4470822893
 20
-41.7660674808
 11
-37.353591808
 21
-41.7851544282
  0
LINE
  5
3C9
100
AcDbEntity
  8
0
100
AcDbLine
 62
7
  6
CONTINUOUS
 10
-43.1023180112
 20
-41.6337322742
 11
-37.493591808
 21
-41.7316329542
  0
LINE
  5
3CA
100
AcDbEntity
  8
RACCORDO
100
AcDbLine
 62
7
  6
CONTINUOUS
 10
-37.493591808
 20
-41.4816329542
 11
-37.293591808
 21
-41.4851239672
  0
LINE
  5
3CB
100
AcDbEntity
  8
0
100
AcDbLine
 62
250
  6
CONTINUOUS
 10
-43.1023180112
 20
-41.1338084266
 11
-37.493591808
 21
-41.2317091066
  0
LINE
  5
3CC
100
AcDbEntity
  8
RACCORDO
100
AcDbLine
 62
250
  6
CONTINUOUS
 10
-37.4935911436
 20
-41.231671042
 11
-37.293591808
 21
-41.2351620434
  0
LINE
  5
3CD
100
AcDbEntity
  8
RACCORDO
100
AcDbLine
 62
7
  6
CONTINUOUS
 10
-37.293591808
 20
-39.9861712711
 11
-37.143591808
 21
-39.9887895308
  0
LINE
  5
3CE
100
AcDbEntity
  8
DRAFT
100
AcDbLine
 62
7
  6
CONTINUOUS
 10
-35.793591808
 20
-37.8049442269
 11
-37.293591808
 21
-37.7787617019
  0
LINE
  5
3CF
100
AcDbEntity
  8
RACCORDO
100
AcDbLine
 62
7
  6
CONTINUOUS
 10
-37.293591808
 20
-39.432742813
 11
-35.793591808
 21
-39.4851239672
  0
LINE
  5
3D0
100
AcDbEntity
  8
RACCORDO
100
AcDbLine
 62
250
  6
CONTINUOUS
 10
-37.293591808
 20
-38.9330473994
 11
-35.793591808
 21
-38.9854285537
  0
LWPOLYLINE
  5
3D1
100
AcDbEntity
  8
RACCORDO
100
AcDbPolyline
 62
250
  6
CONTINUOUS
 90
19
 70
0
 10
-35.4040621886
 20
-35.5262836202
 10
-35.4208422137
 20
-35.5276236617
 10
-35.4371915183
 20
-35.5302524216
 10
-35.4531101023
 20
-35.5341698999
 10
-35.4686842156
 20
-35.5394221071
 10
-35.4838276083
 20
-35.5459630328
 10
-35.4982815315
 20
-35.5536546455
 10
-35.5120266407
 20
-35.5624901361
 10
-35.5250822803
 20
-35.5724763138
 10
-35.5372477351
 20
-35.5834955745
 10
-35.5485219541
 20
-35.5955058659
 10
-35.5589059882
 20
-35.6085492404
 10
-35.5682022753
 20
-35.6226342511
 10
-35.5764805128
 20
-35.6378701931
 10
-35.5836710032
 20
-35.6541477712
 10
-35.5893670916
 20
-35.6711476528
 10
-35.5934332262
 20
-35.6887633936
 10
-35.5960049588
 20
-35.7071014378
 10
-35.5970822893
 20
-35.7261617856
  0
LINE
  5
3D2
100
AcDbEntity
  8
RACCORDO
100
AcDbLine
 62
7
  6
CONTINUOUS
 10
-34.7969621105
 20
-35.6003208913
 11
-32.9866119087
 21
-35.5371020692
  0
LINE
  5
3D3
100
AcDbEntity
  8
RACCORDO
100
AcDbLine
 62
250
  6
CONTINUOUS
 10
-34.5075294168
 20
-35.4949760059
 11
-35.4040621886
 21
-35.5262836202
  0
LINE
  5
3D4
100
AcDbEntity
  8
RACCORDO
100
AcDbLine
 62
250
  6
CONTINUOUS
 10
-34.189521021
 20
-35.3792304156
 11
-32.9866119087
 21
-35.3372239038
  0
LINE
  5
3D5
100
AcDbEntity
  8
RACCORDO
100
AcDbLine
 62
7
  6
CONTINUOUS
 10
-35.4075516067
 20
-35.3264054548
 11
-33.083121959
 21
-35.2452345829
  0
LINE
  5
3D6
100
AcDbEntity
  8
RACCORDO
100
AcDbLine
 62
250
  6
CONTINUOUS
 10
-35.4075516067
 20
-34.8267100413
 11
-33.083121959
 21
-34.7455391693
  0
LINE
  5
3D7
100
AcDbEntity
  8
RACCORDO
100
AcDbLine
 62
7
  6
CONTINUOUS
 10
-35.793591808
 20
-34.4851239672
 11
-33.7524390752
 21
-34.4138453431
  0
LINE
  5
3D8
100
AcDbEntity
  8
RACCORDO
100
AcDbLine
 62
250
  6
CONTINUOUS
 10
-35.793591808
 20
-35.7261617856
 11
-35.5970822893
 21
-35.7261617856
  0
LINE
  5
3D9
100
AcDbEntity
  8
RACCORDO
100
AcDbLine
 62
250
  6
CONTINUOUS
 10
-32.793591808
 20
-35.3372239038
 11
-32.9866119087
 21
-35.3372239038
  0
LINE
  5
3DA
100
AcDbEntity
  8
RACCORDO
100
AcDbLine
 62
250
  6
CONTINUOUS
 10
-35.793591808
 20
-34.8267100413
 11
-35.4075516067
 21
-34.8267100413
  0
LINE
  5
3DB
100
AcDbEntity
  8
RACCORDO
100
AcDbLine
 62
250
  6
CONTINUOUS
 10
-33.083121959
 20
-34.7455391693
 11
-32.793591808
 21
-34.7455391693
  0
LINE
  5
3DC
100
AcDbEntity
  8
RACCORDO
100
AcDbLine
 62
250
  6
CONTINUOUS
 10
-32.793591808
 20
-34.1330240306
 11
-32.9866119087
 21
-34.1330240306
  0
LINE
  5
3DD
100
AcDbEntity
  8
RACCORDO
100
AcDbLine
 62
250
  6
CONTINUOUS
 10
-35.793591808
 20
-34.041742543
 11
-35.6005717073
 21
-34.041742543
  0
LINE
  5
3DE
100
AcDbEntity
  8
DRAFT
100
AcDbLine
 62
7
  6
CONTINUOUS
 10
-33.122049087
 20
-34.1566666882
 11
-33.5944329352
 21
-34.1401706807
  0
LINE
  5
3DF
100
AcDbEntity
  8
RACCORDO
100
AcDbLine
 62
250
  6
CONTINUOUS
 10
-35.6005717073
 20
-34.041742543
 11
-32.9866119087
 21
-34.1330240306
  0
LINE
  5
3E0
100
AcDbEntity
  8
RACCORDO
100
AcDbLine
 62
7
  6
CONTINUOUS
 10
-35.6005717073
 20
-33.8418643776
 11
-32.9866119087
 21
-33.9331458652
  0
LINE
  5
3E1
100
AcDbEntity
  8
DRAFT
100
AcDbLine
 62
7
  6
CONTINUOUS
 10
-33.5944329352
 20
-33.3300772537
 11
-33.122049087
 21
-33.3135812462
  0
LINE
  5
3E2
100
AcDbEntity
  8
DRAFT
100
AcDbLine
 62
7
  6
CONTINUOUS
 10
-35.793591808
 20
-33.6653037075
 11
-37.293591808
 21
-33.6914862325
  0
LINE
  5
3E3
100
AcDbEntity
  8
RACCORDO
100
AcDbLine
 62
7
  6
CONTINUOUS
 10
-36.6348656048
 20
-33.1520600923
 11
-37.293591808
 21
-33.163558201
  0
LINE
  5
3E4
100
AcDbEntity
  8
RACCORDO
100
AcDbLine
 62
250
  6
CONTINUOUS
 10
-33.083121959
 20
-32.724708765
 11
-32.793591808
 21
-32.724708765
  0
LINE
  5
3E5
100
AcDbEntity
  8
RACCORDO
100
AcDbLine
 62
250
  6
CONTINUOUS
 10
-35.793591808
 20
-32.6435378931
 11
-35.4075516067
 21
-32.6435378918
  0
LINE
  5
3E6
100
AcDbEntity
  8
DRAFT
100
AcDbLine
 62
7
  6
CONTINUOUS
 10
-35.793591808
 20
-33.2647975776
 11
-37.293591808
 21
-33.2386149802
  0
LINE
  5
3E7
100
AcDbEntity
  8
RACCORDO
100
AcDbLine
 62
7
  6
CONTINUOUS
 10
-35.793591808
 20
-32.9851239672
 11
-33.7524390752
 21
-33.0564025913
  0
LINE
  5
3E8
100
AcDbEntity
  8
RACCORDO
100
AcDbLine
 62
250
  6
CONTINUOUS
 10
-33.083121959
 20
-32.724708765
 11
-35.4075516067
 21
-32.6435378931
  0
LINE
  5
3E9
100
AcDbEntity
  8
RACCORDO
100
AcDbLine
 62
7
  6
CONTINUOUS
 10
-33.083121959
 20
-32.2250133515
 11
-35.4075516067
 21
-32.1438424796
  0
LINE
  5
3EA
100
AcDbEntity
  8
DRAFT
100
AcDbLine
 62
7
  6
CONTINUOUS
 10
-35.793591808
 20
-28.2054503568
 11
-37.293591808
 21
-28.2316329542
  0
LINE
  5
3EB
100
AcDbEntity
  8
RACCORDO
100
AcDbLine
 62
7
  6
CONTINUOUS
 10
-36.6348656048
 20
-28.318187842
 11
-37.293591808
 21
-28.3066897334
  0
LWPOLYLINE
  5
3EC
100
AcDbEntity
  8
0
100
AcDbPolyline
 62
7
  6
CONTINUOUS
 90
3
 70
0
 43
0.3500000019
 10
-48.450770752
 20
55.3250478516
 10
-48.5221982422
 20
55.1107626953
 10
-48.6650559082
 20
54.8250473633
  0
LWPOLYLINE
  5
3ED
100
AcDbEntity
  8
RACCORDO
100
AcDbPolyline
 62
250
  6
CONTINUOUS
 90
12
 70
0
 10
-35.4075508231
 20
39.856157493
 10
-35.4085656347
 20
39.8548088543
 10
-35.4094768277
 20
39.8507010105
 10
-35.4102904299
 20
39.8438643604
 10
-35.4110191048
 20
39.8343486815
 10
-35.4116602155
 20
39.8222113061
 10
-35.4121962799
 20
39.8075065607
 10
-35.4126279837
 20
39.7902986902
 10
-35.412961746
 20
39.7706912804
 10
-35.4131875995
 20
39.7488174651
 10
-35.4133039684
 20
39.7248569465
 10
-35.4132128922
 20
39.6709502484
  0
LWPOLYLINE
  5
3EE
100
AcDbEntity
  8
RACCORDO
100
AcDbPolyline
 62
250
  6
CONTINUOUS
 90
14
 70
0
 10
-35.6005709254
 20
40.9081355951
 10
-35.6011622805
 20
40.9073831476
 10
-35.6016833352
 20
40.9051178164
 10
-35.6021363045
 20
40.9014010665
 10
-35.6025244714
 20
40.8963243526
 10
-35.6028465791
 20
40.8899553251
 10
-35.6030991891
 20
40.8822893031
 10
-35.6032853752
 20
40.8733457332
 10
-35.6034059597
 20
40.8632103193
 10
-35.6034556163
 20
40.8519470096
 10
-35.603436106
 20
40.8397018027
 10
-35.603345608
 20
40.8265005226
 10
-35.6031762992
 20
40.812192175
 10
-35.6026082709
 20
40.7802741758
  0
LWPOLYLINE
  5
3EF
100
AcDbEntity
  8
RACCORDO
100
AcDbPolyline
 62
250
  6
CONTINUOUS
 90
13
 70
0
 10
-35.6005666797
 20
38.6081354097
 10
-35.6011586572
 20
38.6073931541
 10
-35.6016802837
 20
38.6051366963
 10
-35.6021337867
 20
38.6014273411
 10
-35.6025224783
 20
38.5963563188
 10
-35.6028450975
 20
38.5899912443
 10
-35.6030981609
 20
38.5823277068
 10
-35.603284733
 20
38.5733853563
 10
-35.6034056506
 20
38.5632498418
 10
-35.6034555729
 20
38.5519850955
 10
-35.6034362538
 20
38.5397370013
 10
-35.6033458864
 20
38.5265316404
 10
-35.6029292852
 20
38.4967419032
  0
LINE
  5
3F0
100
AcDbEntity
  8
RACCORDO
100
AcDbLine
 62
7
  6
CONTINUOUS
 10
-33.122049087
 20
38.6864187538
 11
-32.8814597736
 21
38.9270080672
  0
LINE
  5
3F1
100
AcDbEntity
  8
DRAFT
100
AcDbLine
 62
7
  6
CONTINUOUS
 10
-35.793591808
 20
-21.8049442269
 11
-37.293591808
 21
-21.7787617019
  0
LWPOLYLINE
  5
3F2
100
AcDbEntity
  8
0
100
AcDbPolyline
 62
7
  6
CONTINUOUS
 90
3
 70
0
 43
0.3500000019
 10
-37.479307373
 20
65.3487226563
 10
-37.5507348633
 20
65.1344321289
 10
-37.6935925293
 20
64.848722168
  0
LINE
  5
3F3
100
AcDbEntity
  8
IMPORT_IGES
100
AcDbLine
 62
250
  6
CONTINUOUS
 10
-34.4601800136
 20
23.5475564613
 11
-34.6319990275
 21
23.4451932536
  0
LINE
  5
3F4
100
AcDbEntity
  8
RACCORDO
100
AcDbLine
 62
7
  6
CONTINUOUS
 10
-33.122049087
 20
-34.1566666882
 11
-32.8814597736
 21
-34.3972560015
  0
LWPOLYLINE
  5
3F5
100
AcDbEntity
  8
RACCORDO
100
AcDbPolyline
 62
250
  6
CONTINUOUS
 90
8
 70
0
 10
-43.1023180112
 20
-41.6337322742
 10
-43.1030449783
 20
-41.6318173816
 10
-43.1037000289
 20
-41.6261138089
 10
-43.1042781797
 20
-41.616664947
 10
-43.1047750323
 20
-41.6035426795
 10
-43.1051868067
 20
-41.5868468361
 10
-43.1055103704
 20
-41.566704433
 10
-43.1057432618
 20
-41.5432687067
  0
LINE
  5
3F6
100
AcDbEntity
  8
DRAFT
100
AcDbLine
 62
7
  6
CONTINUOUS
 10
-35.793591808
 20
-17.6653037075
 11
-37.293591808
 21
-17.6914862325
  0
LWPOLYLINE
  5
3F7
100
AcDbEntity
  8
0
100
AcDbPolyline
 62
7
  6
CONTINUOUS
 90
4
 70
0
 43
0.3500000019
 10
-51.5221984863
 20
57.3964746094
 10
-51.5221984863
 20
58.0393354492
 10
-50.0221983643
 20
58.0393354492
 10
-50.8793416748
 20
55.0393325195
  0
LINE
  5
3F8
100
AcDbEntity
  8
DRAFT
100
AcDbLine
 62
7
  6
CONTINUOUS
 10
-33.5944329352
 20
37.8598293193
 11
-33.7524390752
 21
37.5861546569
  0
LWPOLYLINE
  5
3F9
100
AcDbEntity
  8
RACCORDO
100
AcDbPolyline
 62
250
  6
CONTINUOUS
 90
12
 70
0
 10
-32.9866119087
 20
-33.9331458652
 10
-32.9859219416
 20
-33.9342645415
 10
-32.9853158763
 20
-33.9375574784
 10
-32.9848003427
 20
-33.9429886541
 10
-32.9843809804
 20
-33.9504986549
 10
-32.9840623767
 20
-33.9600053286
 10
-32.9838480168
 20
-33.9714046857
 10
-32.9837402458
 20
-33.9845720206
 10
-32.9837402427
 20
-33.9993633025
 10
-32.9838480079
 20
-34.0156167679
 10
-32.9840623639
 20
-34.0331546593
 10
-32.9843809667
 20
-34.0517851065
  0
LINE
  5
3FA
100
AcDbEntity
  8
DRAFT
100
AcDbLine
 62
7
  6
CONTINUOUS
 10
-33.7524390752
 20
-33.0564025913
 11
-33.5944329352
 21
-33.3300772537
  0
LWPOLYLINE
  5
3FB
100
AcDbEntity
  8
0
100
AcDbPolyline
 62
7
  6
CONTINUOUS
 90
4
 70
0
 43
0.3500000019
 10
-47.4507697754
 20
55.467902832
 10
-47.4507697754
 20
56.3250488281
 10
-47.0221994629
 20
56.7536191406
 10
-46.3793413086
 20
56.7536191406
  0
LWPOLYLINE
  5
3FC
100
AcDbEntity
  8
RACCORDO
100
AcDbPolyline
 62
250
  6
CONTINUOUS
 90
11
 70
0
 10
-33.083121959
 20
36.7547654171
 10
-33.0822608778
 20
36.7566704012
 10
-33.0814842044
 20
36.7622645414
 10
-33.0807989643
 20
36.7714415358
 10
-33.0802136268
 20
36.7840417307
 10
-33.0797289363
 20
36.7999276283
 10
-33.0793412225
 20
36.8190530007
 10
-33.0790551141
 20
36.8412942925
 10
-33.0788742201
 20
36.8664848771
 10
-33.078796888
 20
36.8945802668
 10
-33.0789648139
 20
36.9586669042
  0
LINE
  5
3FD
100
AcDbEntity
  8
RACCORDO
100
AcDbLine
 62
7
  6
CONTINUOUS
 10
-36.6348656048
 20
-10.1520600923
 11
-37.293591808
 21
-10.163558201
  0
LINE
  5
3FE
100
AcDbEntity
  8
DRAFT
100
AcDbLine
 62
7
  6
CONTINUOUS
 10
-35.793591808
 20
-10.2647975776
 11
-37.293591808
 21
-10.2386149802
  0
LWPOLYLINE
  5
3FF
100
AcDbEntity
  8
IMPORT_IGES
100
AcDbPolyline
 62
7
  6
CONTINUOUS
 90
10
 70
0
 10
-35.2721239014
 20
22.4677338263
 10
-35.244635192
 20
22.5164419996
 10
-35.2131713828
 20
22.5620363375
 10
-35.1777324737
 20
22.60451684
 10
-35.1377792755
 20
22.6443340151
 10
-35.0938509775
 20
22.6810373548
 10
-35.0475651472
 20
22.7132753353
 10
-34.999460974
 20
22.7405974489
 10
-34.9489992685
 20
22.7634542034
 10
-34.8961800309
 20
22.7818455988
  0
LWPOLYLINE
  5
400
100
AcDbEntity
  8
RACCORDO
100
AcDbPolyline
 62
250
  6
CONTINUOUS
 90
6
 70
0
 10
-38.4470822893
 20
-41.9660370198
 10
-38.447641022
 20
-41.9629162838
 10
-38.448073708
 20
-41.9536757437
 10
-38.4483669992
 20
-41.9386073431
 10
-38.4485121422
 20
-41.9181009111
 10
-38.4485033967
 20
-41.8928459265
  0
LINE
  5
401
100
AcDbEntity
  8
RACCORDO
100
AcDbLine
 62
250
  6
CONTINUOUS
 10
-43.1023180112
 20
45.6635604922
 11
-43.1042781797
 21
45.7929257972
  0
LINE
  5
402
100
AcDbEntity
  8
RACCORDO
100
AcDbLine
 62
250
  6
CONTINUOUS
 10
-43.1042781797
 20
45.7929257972
 11
-43.1055103704
 21
45.9134784698
  0
LINE
  5
403
100
AcDbEntity
  8
RACCORDO
100
AcDbLine
 62
250
  6
CONTINUOUS
 10
-43.1055103704
 20
45.9134784698
 11
-43.1058837092
 21
45.9848535166
  0
LINE
  5
404
100
AcDbEntity
  8
RACCORDO
100
AcDbLine
 62
250
  6
CONTINUOUS
 10
-43.1057432618
 20
-41.5432687067
 11
-43.105930644
 21
-41.4872541461
  0
LINE
  5
405
100
AcDbEntity
  8
RACCORDO
100
AcDbLine
 62
7
  6
CONTINUOUS
 10
-43.593591808
 20
-41.1338084266
 11
-43.593591808
 21
45.6635604922
  0
LINE
  5
406
100
AcDbEntity
  8
RACCORDO
100
AcDbLine
 62
250
  6
CONTINUOUS
 10
-43.1023180112
 20
-41.1338084266
 11
-43.1023180112
 21
45.6635604922
  0
LWPOLYLINE
  5
407
100
AcDbEntity
  8
RACCORDO
100
AcDbPolyline
 62
250
  6
CONTINUOUS
 90
10
 70
0
 10
-43.1058837092
 20
45.9848535166
 10
-43.1058837092
 20
46.0464700135
 10
-43.1057432618
 20
46.0730207722
 10
-43.1055103704
 20
46.0964564986
 10
-43.1051868067
 20
46.1165989017
 10
-43.1047750323
 20
46.1332947451
 10
-43.1042781797
 20
46.1464170126
 10
-43.1037000289
 20
46.1558658745
 10
-43.1030449783
 20
46.1615694472
 10
-43.1023180112
 20
46.1634843398
  0
LINE
  5
408
100
AcDbEntity
  8
RACCORDO
100
AcDbLine
 62
250
  6
CONTINUOUS
 10
-43.105930644
 20
-41.4872541461
 11
-43.1057432618
 21
-41.4205044699
  0
LINE
  5
409
100
AcDbEntity
  8
RACCORDO
100
AcDbLine
 62
250
  6
CONTINUOUS
 10
-43.1057432618
 20
-41.4205044699
 11
-43.1047750323
 21
-41.3047606632
  0
LWPOLYLINE
  5
40A
100
AcDbEntity
  8
RACCORDO
100
AcDbPolyline
 62
250
  6
CONTINUOUS
 90
3
 70
0
 10
-43.1047750323
 20
-41.3047606632
 10
-43.1030449783
 20
-41.1773712357
 10
-43.1023180112
 20
-41.1338084266
  0
LINE
  5
40B
100
AcDbEntity
  8
DRAFT
100
AcDbLine
 62
7
  6
CONTINUOUS
 10
-35.793591808
 20
-5.2054503568
 11
-37.293591808
 21
-5.2316329542
  0
LINE
  5
40C
100
AcDbEntity
  8
RACCORDO
100
AcDbLine
 62
7
  6
CONTINUOUS
 10
-36.6348656048
 20
-5.318187842
 11
-37.293591808
 21
-5.3066897334
  0
LINE
  5
40D
100
AcDbEntity
  8
DRAFT
100
AcDbLine
 62
7
  6
CONTINUOUS
 10
-35.793591808
 20
-4.8049442269
 11
-37.293591808
 21
-4.7787617019
  0
LINE
  5
40E
100
AcDbEntity
  8
RACCORDO
100
AcDbLine
 62
250
  6
CONTINUOUS
 10
-37.3401013267
 20
-41.7849189509
 11
-37.3391185183
 21
-41.8532998455
  0
LWPOLYLINE
  5
40F
100
AcDbEntity
  8
0
100
AcDbPolyline
 62
7
  6
CONTINUOUS
 90
13
 70
0
 43
0.3500000019
 10
-40.5507351074
 20
65.9201479492
 10
-40.5507351074
 20
67.2058642578
 10
-40.3364499512
 20
67.6344345703
 10
-39.9078769531
 20
68.0630048828
 10
-39.6935917969
 20
68.0630048828
 10
-39.2650214844
 20
67.6344345703
 10
-39.0507336426
 20
67.2058642578
 10
-39.0507336426
 20
65.9201479492
 10
-39.2650214844
 20
65.4915776367
 10
-39.6935917969
 20
65.0630073242
 10
-39.9078769531
 20
65.0630073242
 10
-40.3364499512
 20
65.4915776367
 10
-40.5507351074
 20
65.9201479492
  0
LINE
  5
410
100
AcDbEntity
  8
RACCORDO
100
AcDbLine
 62
7
  6
CONTINUOUS
 10
-38.643591808
 20
-41.7660674808
 11
-38.643591808
 21
-41.7115596295
  0
LINE
  5
411
100
AcDbEntity
  8
RACCORDO
100
AcDbLine
 62
250
  6
CONTINUOUS
 10
-38.4470822893
 20
-41.7660674808
 11
-38.4470822893
 21
-41.7149897159
  0
LWPOLYLINE
  5
412
100
AcDbEntity
  8
RACCORDO
100
AcDbPolyline
 62
250
  6
CONTINUOUS
 90
4
 70
0
 10
-38.4485033967
 20
-41.8928459265
 10
-38.448044269
 20
-41.8325879136
 10
-38.447618268
 20
-41.7996186135
 10
-38.4470822893
 20
-41.7660674808
  0
LWPOLYLINE
  5
413
100
AcDbEntity
  8
IMPORT_IGES
100
AcDbPolyline
 62
7
  6
CONTINUOUS
 90
10
 70
0
 10
-34.6890711082
 20
23.931755457
 10
-34.7025939145
 20
23.8774853135
 10
-34.7110892931
 20
23.82274371
 10
-34.714557244
 20
23.7675306465
 10
-34.7129159131
 20
23.711148284
 10
-34.7062471544
 20
23.6542944614
 10
-34.6947965303
 20
23.5990626954
 10
-34.6786458948
 20
23.5461508249
 10
-34.6577133939
 20
23.494861011
 10
-34.6319990275
 20
23.4451932537
  0
LINE
  5
414
100
AcDbEntity
  8
DRAFT
100
AcDbLine
 62
7
  6
CONTINUOUS
 10
-35.793591808
 20
-0.6653037075
 11
-37.293591808
 21
-0.6914862325
  0
LINE
  5
415
100
AcDbEntity
  8
RACCORDO
100
AcDbLine
 62
250
  6
CONTINUOUS
 10
-35.4057485907
 20
-35.4745721607
 11
-35.4040621886
 21
-35.5262836202
  0
LINE
  5
416
100
AcDbEntity
  8
RACCORDO
100
AcDbLine
 62
250
  6
CONTINUOUS
 10
-35.6017438803
 20
-34.0047535078
 11
-35.6005707
 21
-34.0417425782
  0
LINE
  5
417
100
AcDbEntity
  8
RACCORDO
100
AcDbLine
 62
250
  6
CONTINUOUS
 10
-35.4070825025
 20
-35.4263813758
 11
-35.4057485907
 21
-35.4745721607
  0
LINE
  5
418
100
AcDbEntity
  8
RACCORDO
100
AcDbLine
 62
250
  6
CONTINUOUS
 10
-35.409503927
 20
-32.5683524258
 11
-35.4075507314
 21
-32.6435379237
  0
LINE
  5
419
100
AcDbEntity
  8
RACCORDO
100
AcDbLine
 62
250
  6
CONTINUOUS
 10
-35.6026082709
 20
-33.9697258242
 11
-35.6017438803
 21
-34.0047535078
  0
LINE
  5
41A
100
AcDbEntity
  8
RACCORDO
100
AcDbLine
 62
250
  6
CONTINUOUS
 10
-35.6029292852
 20
38.4967419032
 11
-35.6022141067
 21
38.4630730708
  0
LINE
  5
41B
100
AcDbEntity
  8
RACCORDO
100
AcDbLine
 62
250
  6
CONTINUOUS
 10
-35.4117145732
 20
-32.4584140099
 11
-35.409503927
 21
-32.5683524258
  0
LINE
  5
41C
100
AcDbEntity
  8
RACCORDO
100
AcDbLine
 62
250
  6
CONTINUOUS
 10
-35.4126827851
 20
-32.39050097
 11
-35.4117145732
 21
-32.4584140099
  0
LINE
  5
41D
100
AcDbEntity
  8
RACCORDO
100
AcDbLine
 62
250
  6
CONTINUOUS
 10
-35.4126827851
 20
39.60949903
 11
-35.4117145732
 21
39.5415859901
  0
LINE
  5
41E
100
AcDbEntity
  8
RACCORDO
100
AcDbLine
 62
250
  6
CONTINUOUS
 10
-35.4132128922
 20
-32.3290497516
 11
-35.4126827851
 21
-32.39050097
  0
LINE
  5
41F
100
AcDbEntity
  8
RACCORDO
100
AcDbLine
 62
250
  6
CONTINUOUS
 10
-35.4132128922
 20
39.6709502484
 11
-35.4126827851
 21
39.60949903
  0
LWPOLYLINE
  5
420
100
AcDbEntity
  8
RACCORDO
100
AcDbPolyline
 62
250
  6
CONTINUOUS
 90
7
 70
0
 10
-37.3391185183
 20
-41.8532998455
 10
-37.3386750475
 20
-41.9134361607
 10
-37.3386750475
 20
-41.9380827595
 10
-37.338824383
 20
-41.9580773535
 10
-37.3391185183
 20
-41.9728126521
 10
-37.3395485196
 20
-41.9818411039
 10
-37.3401013267
 20
-41.98488849
  0
LWPOLYLINE
  5
421
100
AcDbEntity
  8
RACCORDO
100
AcDbPolyline
 62
250
  6
CONTINUOUS
 90
11
 70
0
 10
-35.4133112459
 20
-35.1914284797
 10
-35.4132108884
 20
-35.2157542872
 10
-35.4130019088
 20
-35.2379667106
 10
-35.4126842892
 20
-35.2579448354
 10
-35.4122594119
 20
-35.2756362056
 10
-35.4117203574
 20
-35.2909462509
 10
-35.4110731881
 20
-35.3036681802
 10
-35.4103366505
 20
-35.3136207999
 10
-35.4095119327
 20
-35.3207375326
 10
-35.4085855675
 20
-35.3250060696
 10
-35.4075507249
 20
-35.326405424
  0
LWPOLYLINE
  5
422
100
AcDbEntity
  8
RACCORDO
100
AcDbPolyline
 62
250
  6
CONTINUOUS
 90
11
 70
0
 10
-35.4133112459
 20
36.8085715203
 10
-35.4132108884
 20
36.7842457128
 10
-35.4130019088
 20
36.7620332894
 10
-35.4126842892
 20
36.7420551646
 10
-35.4122594119
 20
36.7243637944
 10
-35.4117203574
 20
36.7090537491
 10
-35.4110731881
 20
36.6963318198
 10
-35.4103366505
 20
36.6863792001
 10
-35.4095119327
 20
36.6792624674
 10
-35.4085855675
 20
36.6749939304
 10
-35.4075507249
 20
36.673594576
  0
LINE
  5
423
100
AcDbEntity
  8
0
100
AcDbLine
 62
7
  6
CONTINUOUS
 10
-37.493591808
 20
-41.7316329542
 11
-37.493591808
 21
46.2613850198
  0
LINE
  5
424
100
AcDbEntity
  8
RACCORDO
100
AcDbLine
 62
250
  6
CONTINUOUS
 10
-37.3401013267
 20
-41.4851239672
 11
-37.3401013267
 21
-41.7849189509
  0
LINE
  5
425
100
AcDbEntity
  8
RACCORDO
100
AcDbLine
 62
7
  6
CONTINUOUS
 10
-37.293591808
 20
-41.4851239672
 11
-37.293591808
 21
46.0148760328
  0
LINE
  5
426
100
AcDbEntity
  8
DRAFT
100
AcDbLine
 62
7
  6
CONTINUOUS
 10
-37.143591808
 20
-39.9887895308
 11
-37.143591808
 21
-39.4379809284
  0
LINE
  5
427
100
AcDbEntity
  8
RACCORDO
100
AcDbLine
 62
7
  6
CONTINUOUS
 10
-37.143591808
 20
-39.9887895308
 11
-37.143591808
 21
-41.7849189509
  0
LWPOLYLINE
  5
428
100
AcDbEntity
  8
0
100
AcDbPolyline
 62
7
  6
CONTINUOUS
 90
4
 70
0
 43
0.3500000019
 10
-36.4793063965
 20
65.4915776367
 10
-36.4793063965
 20
66.3487182617
 10
-36.0507333984
 20
66.7772939453
 10
-35.4078779297
 20
66.7772939453
  0
LINE
  5
429
100
AcDbEntity
  8
RACCORDO
100
AcDbLine
 62
7
  6
CONTINUOUS
 10
-36.143591808
 20
-32.6521362448
 11
-36.143591808
 21
-28.8181116896
  0
LINE
  5
42A
100
AcDbEntity
  8
RACCORDO
100
AcDbLine
 62
7
  6
CONTINUOUS
 10
-36.143591808
 20
-9.6521362448
 11
-36.143591808
 21
-5.8181116896
  0
LINE
  5
42B
100
AcDbEntity
  8
RACCORDO
100
AcDbLine
 62
7
  6
CONTINUOUS
 10
-36.143591808
 20
10.3478637552
 11
-36.143591808
 21
14.1818883104
  0
LINE
  5
42C
100
AcDbEntity
  8
RACCORDO
100
AcDbLine
 62
7
  6
CONTINUOUS
 10
-36.143591808
 20
33.3478637552
 11
-36.143591808
 21
37.1818883104
  0
LINE
  5
42D
100
AcDbEntity
  8
DRAFT
100
AcDbLine
 62
7
  6
CONTINUOUS
 10
-35.793591808
 20
-37.8049442269
 11
-35.793591808
 21
42.3346962925
  0
LINE
  5
42E
100
AcDbEntity
  8
RACCORDO
100
AcDbLine
 62
7
  6
CONTINUOUS
 10
-35.793591808
 20
-37.8049442269
 11
-35.793591808
 21
-39.4851239672
  0
LINE
  5
42F
100
AcDbEntity
  8
RACCORDO
100
AcDbLine
 62
7
  6
CONTINUOUS
 10
-35.793591808
 20
42.3346962925
 11
-35.793591808
 21
44.0148760328
  0
LINE
  5
430
100
AcDbEntity
  8
IMPORT_IGES
100
AcDbLine
 62
7
  6
CONTINUOUS
 10
-35.718591808
 20
18.2148760328
 11
-35.718591808
 21
26.2648760328
  0
LINE
  5
431
100
AcDbEntity
  8
RACCORDO
100
AcDbLine
 62
250
  6
CONTINUOUS
 10
-35.6005717073
 20
40.708257457
 11
-35.6005717073
 21
40.4212928858
  0
LINE
  5
432
100
AcDbEntity
  8
RACCORDO
100
AcDbLine
 62
250
  6
CONTINUOUS
 10
-35.6005717073
 20
39.0081356224
 11
-35.6005717073
 21
38.8080137878
  0
LINE
  5
433
100
AcDbEntity
  8
RACCORDO
100
AcDbLine
 62
250
  6
CONTINUOUS
 10
-35.6005717073
 20
38.408257457
 11
-35.6005717073
 21
37.8214946087
  0
LINE
  5
434
100
AcDbEntity
  8
RACCORDO
100
AcDbLine
 62
250
  6
CONTINUOUS
 10
-35.6005717073
 20
-34.041742543
 11
-35.6005717073
 21
-34.4783835567
  0
LINE
  5
435
100
AcDbEntity
  8
RACCORDO
100
AcDbLine
 62
250
  6
CONTINUOUS
 10
-35.5970822893
 20
40.4212928858
 11
-35.5970822893
 21
40.2559138512
  0
LINE
  5
436
100
AcDbEntity
  8
RACCORDO
100
AcDbLine
 62
250
  6
CONTINUOUS
 10
-35.5970822893
 20
-35.7261617856
 11
-35.5970822893
 21
-35.8915408202
  0
LINE
  5
437
100
AcDbEntity
  8
RACCORDO
100
AcDbLine
 62
250
  6
CONTINUOUS
 10
-35.4075516067
 20
39.3564621069
 11
-35.4075516067
 21
39.0013952119
  0
LINE
  5
438
100
AcDbEntity
  8
RACCORDO
100
AcDbLine
 62
250
  6
CONTINUOUS
 10
-35.4075516067
 20
37.5283568537
 11
-35.4075516067
 21
37.1732899587
  0
LINE
  5
439
100
AcDbEntity
  8
RACCORDO
100
AcDbLine
 62
250
  6
CONTINUOUS
 10
-35.4075516067
 20
-32.6435378931
 11
-35.4075516067
 21
-32.9986047881
  0
LINE
  5
43A
100
AcDbEntity
  8
RACCORDO
100
AcDbLine
 62
250
  6
CONTINUOUS
 10
-35.4075516067
 20
-34.4716431463
 11
-35.4075516067
 21
-34.8267100413
  0
LINE
  5
43B
100
AcDbEntity
  8
RACCORDO
100
AcDbLine
 62
7
  6
CONTINUOUS
 10
-37.353591808
 20
-41.4840766633
 11
-37.353591808
 21
-41.9851239672
  0
LWPOLYLINE
  5
43C
100
AcDbEntity
  8
RACCORDO
100
AcDbPolyline
 62
250
  6
CONTINUOUS
 90
11
 70
0
 10
-35.6034059597
 20
37.6949851441
 10
-35.6034556163
 20
37.6823188774
 10
-35.603436106
 20
37.6707023049
 10
-35.603345608
 20
37.6601511976
 10
-35.6031762992
 20
37.6505980489
 10
-35.6029289121
 20
37.6421200416
 10
-35.6026082709
 20
37.6349314444
 10
-35.6022138332
 20
37.6291959689
 10
-35.6017438803
 20
37.625016702
 10
-35.6011970395
 20
37.6224655748
 10
-35.6005707
 20
37.6216164784
  0
LINE
  5
43D
100
AcDbEntity
  8
RACCORDO
100
AcDbLine
 62
250
  6
CONTINUOUS
 10
-35.4131894197
 20
36.8630117342
 11
-35.4133112459
 21
36.8085715203
  0
LINE
  5
43E
100
AcDbEntity
  8
RACCORDO
100
AcDbLine
 62
250
  6
CONTINUOUS
 10
-35.4131894197
 20
-35.1369882658
 11
-35.4133112459
 21
-35.1914284797
  0
LINE
  5
43F
100
AcDbEntity
  8
RACCORDO
100
AcDbLine
 62
250
  6
CONTINUOUS
 10
-35.4126319297
 20
36.9244341136
 11
-35.4131894197
 21
36.8630117342
  0
LINE
  5
440
100
AcDbEntity
  8
RACCORDO
100
AcDbLine
 62
250
  6
CONTINUOUS
 10
-35.4126319297
 20
-35.0755658864
 11
-35.4131894197
 21
-35.1369882658
  0
LINE
  5
441
100
AcDbEntity
  8
RACCORDO
100
AcDbLine
 62
250
  6
CONTINUOUS
 10
-35.6030991891
 20
37.7229110917
 11
-35.6034059597
 21
37.6949851441
  0
LINE
  5
442
100
AcDbEntity
  8
RACCORDO
100
AcDbLine
 62
250
  6
CONTINUOUS
 10
-35.4116673505
 20
36.9912852299
 11
-35.4126319297
 21
36.9244341136
  0
LWPOLYLINE
  5
443
100
AcDbEntity
  8
RACCORDO
100
AcDbPolyline
 62
250
  6
CONTINUOUS
 90
12
 70
0
 10
-35.602803209
 20
38.7267459236
 10
-35.6031217569
 20
38.7081101471
 10
-35.6033359745
 20
38.690568071
 10
-35.6034435164
 20
38.6743117511
 10
-35.6034432053
 20
38.6595191462
 10
-35.6033350442
 20
38.6463521748
 10
-35.6031202158
 20
38.6349549805
 10
-35.6028010713
 20
38.6254523771
 10
-35.602381105
 20
38.6179484331
 10
-35.6018649151
 20
38.6125253035
 10
-35.6012581527
 20
38.6092423496
 10
-35.6005674606
 20
38.6081355112
  0
LWPOLYLINE
  5
444
100
AcDbEntity
  8
RACCORDO
100
AcDbPolyline
 62
250
  6
CONTINUOUS
 90
3
 70
0
 10
-35.411028208
 20
-34.9737332571
 10
-35.4116673505
 20
-35.0087147701
 10
-35.4126319297
 20
-35.0755658864
  0
LINE
  5
445
100
AcDbEntity
  8
RACCORDO
100
AcDbLine
 62
250
  6
CONTINUOUS
 10
-35.6025244714
 20
37.7535177474
 11
-35.6030991891
 21
37.7229110917
  0
LINE
  5
446
100
AcDbEntity
  8
RACCORDO
100
AcDbLine
 62
250
  6
CONTINUOUS
 10
-35.4094836956
 20
37.0987553432
 11
-35.4116673505
 21
36.9912852299
  0
LINE
  5
447
100
AcDbEntity
  8
RACCORDO
100
AcDbLine
 62
250
  6
CONTINUOUS
 10
-35.4079731318
 20
39.9147435024
 11
-35.4070825679
 21
39.9561317306
  0
LINE
  5
448
100
AcDbEntity
  8
RACCORDO
100
AcDbLine
 62
250
  6
CONTINUOUS
 10
-35.6018681755
 20
38.7664727931
 11
-35.602803209
 21
38.7267459236
  0
LINE
  5
449
100
AcDbEntity
  8
RACCORDO
100
AcDbLine
 62
250
  6
CONTINUOUS
 10
-35.6016833352
 20
37.7866162857
 11
-35.6025244714
 21
37.7535177474
  0
LINE
  5
44A
100
AcDbEntity
  8
RACCORDO
100
AcDbLine
 62
250
  6
CONTINUOUS
 10
-35.4075508177
 20
37.1732899863
 11
-35.4094836956
 21
37.0987553432
  0
LINE
  5
44B
100
AcDbEntity
  8
RACCORDO
100
AcDbLine
 62
250
  6
CONTINUOUS
 10
-35.4070825679
 20
39.9561317306
 11
-35.4057486419
 21
40.0043229996
  0
LINE
  5
44C
100
AcDbEntity
  8
RACCORDO
100
AcDbLine
 62
250
  6
CONTINUOUS
 10
-35.6005717073
 20
38.8080137878
 11
-35.6018681755
 21
38.7664727931
  0
LINE
  5
44D
100
AcDbEntity
  8
RACCORDO
100
AcDbLine
 62
250
  6
CONTINUOUS
 10
-35.6005709254
 20
37.821494636
 11
-35.6016833352
 21
37.7866162857
  0
LINE
  5
44E
100
AcDbEntity
  8
RACCORDO
100
AcDbLine
 62
250
  6
CONTINUOUS
 10
-35.4057486419
 20
40.0043229996
 11
-35.4040621886
 21
40.0560356858
  0
LWPOLYLINE
  5
44F
100
AcDbEntity
  8
RACCORDO
100
AcDbPolyline
 62
250
  6
CONTINUOUS
 90
19
 70
0
 10
-35.5970822893
 20
40.2559138512
 10
-35.5963441387
 20
40.2391797431
 10
-35.5943030307
 20
40.222809599
 10
-35.5909589652
 20
40.206803419
 10
-35.5862675074
 20
40.1910649536
 10
-35.5802730923
 20
40.1756904523
 10
-35.5731090239
 20
40.1609686633
 10
-35.5647898718
 20
40.146934179
 10
-35.5553010665
 20
40.133552407
 10
-35.5447322039
 20
40.1210083186
 10
-35.5331143552
 20
40.1092908083
 10
-35.5204164492
 20
40.0984109816
 10
-35.5066348671
 20
40.0885871268
 10
-35.4916616896
 20
40.0797520177
 10
-35.475604836
 20
40.0719728804
 10
-35.4587844452
 20
40.0656696819
 10
-35.4413072302
 20
40.0609824111
 10
-35.423066478
 20
40.0577710791
 10
-35.4040621886
 20
40.0560356858
  0
LINE
  5
450
100
AcDbEntity
  8
RACCORDO
100
AcDbLine
 62
250
  6
CONTINUOUS
 10
-32.9866126917
 20
38.7167323275
 11
-32.9854999056
 21
38.6818416404
  0
LINE
  5
451
100
AcDbEntity
  8
RACCORDO
100
AcDbLine
 62
250
  6
CONTINUOUS
 10
-35.6017438803
 20
40.7452464922
 11
-35.6005707
 21
40.7082574218
  0
LINE
  5
452
100
AcDbEntity
  8
RACCORDO
100
AcDbLine
 62
250
  6
CONTINUOUS
 10
-32.9866119087
 20
-35.3372239038
 11
-32.9853158763
 21
-35.3787490279
  0
LINE
  5
453
100
AcDbEntity
  8
RACCORDO
100
AcDbLine
 62
250
  6
CONTINUOUS
 10
-32.9866119087
 20
37.9127760962
 11
-32.9853158763
 21
37.8712509721
  0
LINE
  5
454
100
AcDbEntity
  8
RACCORDO
100
AcDbLine
 62
250
  6
CONTINUOUS
 10
-32.9866119087
 20
40.2127760962
 11
-32.9853154405
 21
40.1712351016
  0
LWPOLYLINE
  5
455
100
AcDbEntity
  8
RACCORDO
100
AcDbPolyline
 62
250
  6
CONTINUOUS
 90
3
 70
0
 10
-35.6022141067
 20
38.4630730708
 10
-35.6017440997
 20
38.4452530918
 10
-35.6005706991
 20
38.4082574218
  0
LINE
  5
456
100
AcDbEntity
  8
RACCORDO
100
AcDbLine
 62
250
  6
CONTINUOUS
 10
-35.409503927
 20
39.4316475742
 11
-35.4075507314
 21
39.3564620763
  0
LINE
  5
457
100
AcDbEntity
  8
RACCORDO
100
AcDbLine
 62
250
  6
CONTINUOUS
 10
-32.9854999056
 20
38.6818416404
 11
-32.9846585874
 21
38.6487298099
  0
LINE
  5
458
100
AcDbEntity
  8
RACCORDO
100
AcDbLine
 62
250
  6
CONTINUOUS
 10
-35.6026082709
 20
40.7802741758
 11
-35.6017438803
 21
40.7452464922
  0
LWPOLYLINE
  5
459
100
AcDbEntity
  8
RACCORDO
100
AcDbPolyline
 62
250
  6
CONTINUOUS
 90
13
 70
0
 10
-32.9853158763
 20
-35.3787490279
 10
-32.9843809804
 20
-35.4184621206
 10
-32.9840623767
 20
-35.4370924108
 10
-32.9838480168
 20
-35.4546302318
 10
-32.9837402458
 20
-35.4708837236
 10
-32.9837402427
 20
-35.4856750958
 10
-32.9838480079
 20
-35.4988425692
 10
-32.9840623639
 20
-35.5102421062
 10
-32.9843809667
 20
-35.519748964
 10
-32.9848003303
 20
-35.5272591082
 10
-32.9853158665
 20
-35.5326903796
 10
-32.985921936
 20
-35.5359833738
 10
-32.9866119087
 20
-35.5371020692
  0
LWPOLYLINE
  5
45A
100
AcDbEntity
  8
RACCORDO
100
AcDbPolyline
 62
250
  6
CONTINUOUS
 90
13
 70
0
 10
-32.9853158763
 20
37.8712509721
 10
-32.9843809804
 20
37.8315378794
 10
-32.9840623767
 20
37.8129075892
 10
-32.9838480168
 20
37.7953697682
 10
-32.9837402458
 20
37.7791162764
 10
-32.9837402427
 20
37.7643249042
 10
-32.9838480079
 20
37.7511574308
 10
-32.9840623639
 20
37.7397578938
 10
-32.9843809667
 20
37.730251036
 10
-32.9848003303
 20
37.7227408918
 10
-32.9853158665
 20
37.7173096204
 10
-32.985921936
 20
37.7140166262
 10
-32.9866119087
 20
37.7128979308
  0
LWPOLYLINE
  5
45B
100
AcDbEntity
  8
RACCORDO
100
AcDbPolyline
 62
250
  6
CONTINUOUS
 90
13
 70
0
 10
-32.9853154405
 20
40.1712351016
 10
-32.984380407
 20
40.1315082321
 10
-32.9840618591
 20
40.1128724555
 10
-32.9838476416
 20
40.0953303795
 10
-32.9837400996
 20
40.0790740595
 10
-32.9837404107
 20
40.0642814547
 10
-32.9838485718
 20
40.0511144833
 10
-32.9840634002
 20
40.0397172889
 10
-32.9843825447
 20
40.0302146855
 10
-32.984802511
 20
40.0227107416
 10
-32.9853187009
 20
40.0172876119
 10
-32.9859254633
 20
40.0140046581
 10
-32.9866161555
 20
40.0128978196
  0
LINE
  5
45C
100
AcDbEntity
  8
RACCORDO
100
AcDbLine
 62
250
  6
CONTINUOUS
 10
-35.4117145732
 20
39.5415859901
 11
-35.409503927
 21
39.4316475742
  0
LINE
  5
45D
100
AcDbEntity
  8
RACCORDO
100
AcDbLine
 62
250
  6
CONTINUOUS
 10
-32.9846585874
 20
38.6487298099
 11
-32.9840838541
 21
38.6181108616
  0
LINE
  5
45E
100
AcDbEntity
  8
RACCORDO
100
AcDbLine
 62
250
  6
CONTINUOUS
 10
-33.0806579974
 20
-34.8825266
 11
-33.083121959
 21
-34.7455391693
  0
LINE
  5
45F
100
AcDbEntity
  8
RACCORDO
100
AcDbLine
 62
250
  6
CONTINUOUS
 10
-33.0806579974
 20
37.1174734
 11
-33.083121959
 21
37.2544608307
  0
LINE
  5
460
100
AcDbEntity
  8
RACCORDO
100
AcDbLine
 62
250
  6
CONTINUOUS
 10
-33.0795755839
 20
-34.9665719792
 11
-33.0806579974
 21
-34.8825266
  0
LINE
  5
461
100
AcDbEntity
  8
RACCORDO
100
AcDbLine
 62
250
  6
CONTINUOUS
 10
-33.0795755839
 20
37.0334280208
 11
-33.0806579974
 21
37.1174734
  0
LWPOLYLINE
  5
462
100
AcDbEntity
  8
RACCORDO
100
AcDbPolyline
 62
250
  6
CONTINUOUS
 90
8
 70
0
 10
-33.0789632829
 20
-32.3223472238
 10
-33.0792107144
 20
-32.2981323731
 10
-33.0795740713
 20
-32.2767713858
 10
-33.0800570921
 20
-32.2586957734
 10
-33.0806576159
 20
-32.2442572684
 10
-33.0813715573
 20
-32.2337049605
 10
-33.0821952365
 20
-32.227229559
 10
-33.083121959
 20
-32.2250133515
  0
LWPOLYLINE
  5
463
100
AcDbEntity
  8
RACCORDO
100
AcDbPolyline
 62
250
  6
CONTINUOUS
 90
8
 70
0
 10
-33.0789632829
 20
39.6776527762
 10
-33.0792107144
 20
39.7018676269
 10
-33.0795740713
 20
39.7232286142
 10
-33.0800570921
 20
39.7413042266
 10
-33.0806576159
 20
39.7557427316
 10
-33.0813715573
 20
39.7662950395
 10
-33.0821952365
 20
39.772770441
 10
-33.083121959
 20
39.7749866485
  0
LWPOLYLINE
  5
464
100
AcDbEntity
  8
RACCORDO
100
AcDbPolyline
 62
250
  6
CONTINUOUS
 90
12
 70
0
 10
-32.9840838541
 20
38.6181108616
 10
-32.9837773646
 20
38.5901770727
 10
-32.9837279477
 20
38.5775085613
 10
-32.9837477714
 20
38.5658907991
 10
-32.9838386483
 20
38.5553398524
 10
-32.9840083772
 20
38.5457886906
 10
-32.9842562571
 20
38.5373145671
 10
-32.9845774516
 20
38.530131641
 10
-32.9849724266
 20
38.5244035983
 10
-32.9854428886
 20
38.5202332926
 10
-32.9859902579
 20
38.5176923502
 10
-32.9866171618
 20
38.5168543553
  0
LINE
  5
465
100
AcDbEntity
  8
RACCORDO
100
AcDbLine
 62
250
  6
CONTINUOUS
 10
-33.0789648139
 20
-35.0413330958
 11
-33.0795755839
 21
-34.9665719792
  0
LINE
  5
466
100
AcDbEntity
  8
RACCORDO
100
AcDbLine
 62
250
  6
CONTINUOUS
 10
-33.0789648139
 20
36.9586669042
 11
-33.0795755839
 21
37.0334280208
  0
LINE
  5
467
100
AcDbEntity
  8
RACCORDO
100
AcDbLine
 62
250
  6
CONTINUOUS
 10
-33.0787971556
 20
-32.3786047202
 11
-33.0789632829
 21
-32.3223472238
  0
LINE
  5
468
100
AcDbEntity
  8
RACCORDO
100
AcDbLine
 62
250
  6
CONTINUOUS
 10
-33.0787971556
 20
39.6213952798
 11
-33.0789632829
 21
39.6776527762
  0
LINE
  5
469
100
AcDbEntity
  8
RACCORDO
100
AcDbLine
 62
250
  6
CONTINUOUS
 10
-33.083121959
 20
-34.7455391693
 11
-33.083121959
 21
-34.1955938162
  0
LINE
  5
46A
100
AcDbEntity
  8
RACCORDO
100
AcDbLine
 62
250
  6
CONTINUOUS
 10
-33.083121959
 20
-33.2746541182
 11
-33.083121959
 21
-32.724708765
  0
LINE
  5
46B
100
AcDbEntity
  8
RACCORDO
100
AcDbLine
 62
250
  6
CONTINUOUS
 10
-33.083121959
 20
37.2544608307
 11
-33.083121959
 21
37.8044061838
  0
LINE
  5
46C
100
AcDbEntity
  8
RACCORDO
100
AcDbLine
 62
250
  6
CONTINUOUS
 10
-33.083121959
 20
38.7253458818
 11
-33.083121959
 21
39.275291235
  0
LINE
  5
46D
100
AcDbEntity
  8
RACCORDO
100
AcDbLine
 62
250
  6
CONTINUOUS
 10
-32.9866119087
 20
40.6169759694
 11
-32.9866119087
 21
40.2127760962
  0
LINE
  5
46E
100
AcDbEntity
  8
RACCORDO
100
AcDbLine
 62
250
  6
CONTINUOUS
 10
-32.9866119087
 20
39.8130197654
 11
-32.9866119087
 21
39.7551543625
  0
LINE
  5
46F
100
AcDbEntity
  8
RACCORDO
100
AcDbLine
 62
250
  6
CONTINUOUS
 10
-32.9866119087
 20
38.8218559321
 11
-32.9866119087
 21
38.7167323002
  0
LINE
  5
470
100
AcDbEntity
  8
RACCORDO
100
AcDbLine
 62
250
  6
CONTINUOUS
 10
-32.9866119087
 20
38.3169759694
 11
-32.9866119087
 21
37.9127760962
  0
LINE
  5
471
100
AcDbEntity
  8
RACCORDO
100
AcDbLine
 62
250
  6
CONTINUOUS
 10
-32.9866119087
 20
-34.1330240306
 11
-32.9866119087
 21
-34.2921038665
  0
LINE
  5
472
100
AcDbEntity
  8
RACCORDO
100
AcDbLine
 62
250
  6
CONTINUOUS
 10
-32.9866119087
 20
-35.2254023412
 11
-32.9866119087
 21
-35.3372239038
  0
LINE
  5
473
100
AcDbEntity
  8
RACCORDO
100
AcDbLine
 62
7
  6
CONTINUOUS
 10
-32.793591808
 20
-32.8608598985
 11
-32.793591808
 21
-32.5248305996
  0
LINE
  5
474
100
AcDbEntity
  8
RACCORDO
100
AcDbLine
 62
7
  6
CONTINUOUS
 10
-32.793591808
 20
-34.1330240306
 11
-32.793591808
 21
-35.3372239038
  0
LINE
  5
475
100
AcDbEntity
  8
RACCORDO
100
AcDbLine
 62
7
  6
CONTINUOUS
 10
-32.793591808
 20
37.0545826653
 11
-32.793591808
 21
37.3906119641
  0
LINE
  5
476
100
AcDbEntity
  8
RACCORDO
100
AcDbLine
 62
7
  6
CONTINUOUS
 10
-32.793591808
 20
37.9127760962
 11
-32.793591808
 21
40.6169759694
  0
LINE
  5
477
100
AcDbEntity
  8
RACCORDO
100
AcDbLine
 62
250
  6
CONTINUOUS
 10
-33.079057611
 20
39.5557220689
 11
-33.0787971556
 21
39.6213952798
  0
LINE
  5
478
100
AcDbEntity
  8
RACCORDO
100
AcDbLine
 62
250
  6
CONTINUOUS
 10
-33.079057611
 20
-32.4442779311
 11
-33.0787971556
 21
-32.3786047202
  0
LINE
  5
479
100
AcDbEntity
  8
RACCORDO
100
AcDbLine
 62
250
  6
CONTINUOUS
 10
-33.0797330885
 20
39.4822044998
 11
-33.079057611
 21
39.5557220689
  0
LINE
  5
47A
100
AcDbEntity
  8
RACCORDO
100
AcDbLine
 62
250
  6
CONTINUOUS
 10
-33.0797330885
 20
-32.5177955002
 11
-33.079057611
 21
-32.4442779311
  0
LINE
  5
47B
100
AcDbEntity
  8
RACCORDO
100
AcDbLine
 62
250
  6
CONTINUOUS
 10
-32.9838377296
 20
39.9312939488
 11
-32.9842543308
 21
39.9015042116
  0
LINE
  5
47C
100
AcDbEntity
  8
RACCORDO
100
AcDbLine
 62
250
  6
CONTINUOUS
 10
-33.0814902109
 20
39.3608636329
 11
-33.0797330885
 21
39.4822044998
  0
LINE
  5
47D
100
AcDbEntity
  8
RACCORDO
100
AcDbLine
 62
250
  6
CONTINUOUS
 10
-33.0814902109
 20
-32.6391363671
 11
-33.0797330885
 21
-32.5177955002
  0
LINE
  5
47E
100
AcDbEntity
  8
RACCORDO
100
AcDbLine
 62
250
  6
CONTINUOUS
 10
-33.083121959
 20
39.275291235
 11
-33.0814902109
 21
39.3608636329
  0
LINE
  5
47F
100
AcDbEntity
  8
RACCORDO
100
AcDbLine
 62
250
  6
CONTINUOUS
 10
-33.083121959
 20
-32.724708765
 11
-33.0814902109
 21
-32.6391363671
  0
LINE
  5
480
100
AcDbEntity
  8
RACCORDO
100
AcDbLine
 62
250
  6
CONTINUOUS
 10
-32.9842543308
 20
39.9015042116
 11
-32.9849695093
 21
39.8678353792
  0
LINE
  5
481
100
AcDbEntity
  8
RACCORDO
100
AcDbLine
 62
250
  6
CONTINUOUS
 10
-32.9843809667
 20
40.6982148935
 11
-32.9853158665
 21
40.6585014507
  0
LINE
  5
482
100
AcDbEntity
  8
RACCORDO
100
AcDbLine
 62
250
  6
CONTINUOUS
 10
-32.9843803933
 20
38.3982445412
 11
-32.9853154307
 21
38.3585173215
  0
LINE
  5
483
100
AcDbEntity
  8
RACCORDO
100
AcDbLine
 62
250
  6
CONTINUOUS
 10
-32.9843809667
 20
-34.0517851065
 11
-32.9853158665
 21
-34.0914985493
  0
LWPOLYLINE
  5
484
100
AcDbEntity
  8
RACCORDO
100
AcDbPolyline
 62
250
  6
CONTINUOUS
 90
3
 70
0
 10
-35.4075508177
 20
-34.8267100137
 10
-35.4085693598
 20
-34.8641276709
 10
-35.411028208
 20
-34.9737332571
  0
LWPOLYLINE
  5
485
100
AcDbEntity
  8
RACCORDO
100
AcDbPolyline
 62
250
  6
CONTINUOUS
 90
3
 70
0
 10
-32.9849695093
 20
39.8678353792
 10
-32.9859864446
 20
39.8316939255
 10
-32.9866129169
 20
39.8130197302
  0
LINE
  5
486
100
AcDbEntity
  8
RACCORDO
100
AcDbLine
 62
250
  6
CONTINUOUS
 10
-32.9853158665
 20
40.6585014507
 11
-32.9866119087
 21
40.6169759694
  0
LINE
  5
487
100
AcDbEntity
  8
RACCORDO
100
AcDbLine
 62
250
  6
CONTINUOUS
 10
-32.9853154307
 20
38.3585173215
 11
-32.9866119087
 21
38.3169759694
  0
LINE
  5
488
100
AcDbEntity
  8
RACCORDO
100
AcDbLine
 62
250
  6
CONTINUOUS
 10
-32.9853158665
 20
-34.0914985493
 11
-32.9866119087
 21
-34.1330240306
  0
LINE
  5
489
100
AcDbEntity
  8
DRAFT
100
AcDbLine
 62
7
  6
CONTINUOUS
 10
-35.793591808
 20
5.1950557731
 11
-37.293591808
 21
5.2212382981
  0
LINE
  5
48A
100
AcDbEntity
  8
DRAFT
100
AcDbLine
 62
7
  6
CONTINUOUS
 10
-35.793591808
 20
9.3346962925
 11
-37.293591808
 21
9.3085137675
  0
LINE
  5
48B
100
AcDbEntity
  8
IMPORT_IGES
100
AcDbLine
 62
250
  6
CONTINUOUS
 10
-34.8417747963
 20
22.589387628
 11
-34.8961800307
 21
22.7818455989
  0
LWPOLYLINE
  5
48C
100
AcDbEntity
  8
RACCORDO
100
AcDbPolyline
 62
250
  6
CONTINUOUS
 90
8
 70
0
 10
-35.4075516067
 20
-35.3264054548
 10
-35.4079468082
 20
-35.3281300758
 10
-35.4082159122
 20
-35.3332426599
 10
-35.4083543188
 20
-35.3416557602
 10
-35.4083596627
 20
-35.3532255068
 10
-35.4082318538
 20
-35.3677540527
 10
-35.4079730794
 20
-35.3849929449
 10
-35.4070825025
 20
-35.4263813758
  0
LINE
  5
48D
100
AcDbEntity
  8
RACCORDO
100
AcDbLine
 62
7
  6
CONTINUOUS
 10
-36.6348656048
 20
9.8479399077
 11
-37.293591808
 21
9.836441799
  0
LINE
  5
48E
100
AcDbEntity
  8
DRAFT
100
AcDbLine
 62
7
  6
CONTINUOUS
 10
-35.793591808
 20
9.7352024224
 11
-37.293591808
 21
9.7613850198
  0
LWPOLYLINE
  5
48F
100
AcDbEntity
  8
RACCORDO
100
AcDbPolyline
 62
250
  6
CONTINUOUS
 90
7
 70
0
 10
-35.4075516067
 20
39.8561575204
 10
-35.4079468088
 20
39.8578820663
 10
-35.4082159183
 20
39.8629944505
 10
-35.4083543343
 20
39.8714072664
 10
-35.40835969
 20
39.8829766799
 10
-35.4082318941
 20
39.8975048883
 10
-35.4079731318
 20
39.9147435024
  0
LINE
  5
490
100
AcDbEntity
  8
DRAFT
100
AcDbLine
 62
7
  6
CONTINUOUS
 10
-35.793591808
 20
14.7945496432
 11
-37.293591808
 21
14.7683670458
  0
LINE
  5
491
100
AcDbEntity
  8
RACCORDO
100
AcDbLine
 62
7
  6
CONTINUOUS
 10
-36.6348656048
 20
14.681812158
 11
-37.293591808
 21
14.6933102666
  0
LINE
  5
492
100
AcDbEntity
  8
IMPORT_IGES
100
AcDbLine
 62
7
  6
CONTINUOUS
 10
-34.6319990275
 20
23.4451932537
 11
-35.718591808
 21
25.2690643631
  0
LINE
  5
493
100
AcDbEntity
  8
IMPORT_IGES
100
AcDbLine
 62
7
  6
CONTINUOUS
 10
-35.718591808
 20
25.6598297588
 11
-34.4601800139
 21
23.5475564626
  0
LWPOLYLINE
  5
494
100
AcDbEntity
  8
0
100
AcDbPolyline
 62
7
  6
CONTINUOUS
 90
10
 70
0
 43
0.3500000019
 10
-48.5221982422
 20
55.5393330078
 10
-48.450770752
 20
55.3964780273
 10
-48.450770752
 20
55.3250478516
 10
-48.5936270752
 20
55.1821928711
 10
-48.6650559082
 20
55.1821928711
 10
-48.7364847412
 20
55.2536176758
 10
-48.7364847412
 20
55.3250478516
 10
-48.6650559082
 20
55.467902832
 10
-48.5936270752
 20
55.5393330078
 10
-48.5221982422
 20
55.5393330078
  0
LINE
  5
495
100
AcDbEntity
  8
IMPORT_IGES
100
AcDbLine
 62
7
  6
CONTINUOUS
 10
-35.718591808
 20
18.2148760328
 11
-35.793591808
 21
18.2148760328
  0
LWPOLYLINE
  5
496
100
AcDbEntity
  8
RACCORDO
100
AcDbPolyline
 62
250
  6
CONTINUOUS
 90
11
 70
0
 10
-33.083121959
 20
-35.2452345829
 10
-33.0822608778
 20
-35.2433295988
 10
-33.0814842044
 20
-35.2377354586
 10
-33.0807989643
 20
-35.2285584642
 10
-33.0802136268
 20
-35.2159582693
 10
-33.0797289363
 20
-35.2000723717
 10
-33.0793412225
 20
-35.1809469993
 10
-33.0790551141
 20
-35.1587057075
 10
-33.0788742201
 20
-35.1335151229
 10
-33.078796888
 20
-35.1054197332
 10
-33.0789648139
 20
-35.0413330958
  0
LINE
  5
497
100
AcDbEntity
  8
DRAFT
100
AcDbLine
 62
7
  6
CONTINUOUS
 10
-33.5944329352
 20
-34.1401706807
 11
-33.7524390752
 21
-34.4138453431
  0
LWPOLYLINE
  5
498
100
AcDbEntity
  8
RACCORDO
100
AcDbPolyline
 62
250
  6
CONTINUOUS
 90
12
 70
0
 10
-35.4075508231
 20
-32.143842507
 10
-35.4085656347
 20
-32.1451911457
 10
-35.4094768277
 20
-32.1492989895
 10
-35.4102904299
 20
-32.1561356396
 10
-35.4110191048
 20
-32.1656513185
 10
-35.4116602155
 20
-32.1777886939
 10
-35.4121962799
 20
-32.1924934393
 10
-35.4126279837
 20
-32.2097013098
 10
-35.412961746
 20
-32.2293087196
 10
-35.4131875995
 20
-32.2511825349
 10
-35.4133039684
 20
-32.2751430535
 10
-35.4132128922
 20
-32.3290497516
  0
LINE
  5
499
100
AcDbEntity
  8
IMPORT_IGES
100
AcDbLine
 62
7
  6
CONTINUOUS
 10
-34.8417747967
 20
22.5893876279
 11
-35.718591808
 21
22.3415234579
  0
LINE
  5
49A
100
AcDbEntity
  8
IMPORT_IGES
100
AcDbLine
 62
7
  6
CONTINUOUS
 10
-35.718591808
 20
22.5493610447
 11
-34.8961800309
 21
22.7818455988
  0
LWPOLYLINE
  5
49B
100
AcDbEntity
  8
RACCORDO
100
AcDbPolyline
 62
250
  6
CONTINUOUS
 90
14
 70
0
 10
-35.6005709254
 20
-33.8418644049
 10
-35.6011622805
 20
-33.8426168524
 10
-35.6016833352
 20
-33.8448821836
 10
-35.6021363045
 20
-33.8485989335
 10
-35.6025244714
 20
-33.8536756474
 10
-35.6028465791
 20
-33.8600446749
 10
-35.6030991891
 20
-33.8677106969
 10
-35.6032853752
 20
-33.8766542668
 10
-35.6034059597
 20
-33.8867896807
 10
-35.6034556163
 20
-33.8980529904
 10
-35.603436106
 20
-33.9102981973
 10
-35.603345608
 20
-33.9234994774
 10
-35.6031762992
 20
-33.937807825
 10
-35.6026082709
 20
-33.9697258242
  0
LINE
  5
49C
100
AcDbEntity
  8
DRAFT
100
AcDbLine
 62
7
  6
CONTINUOUS
 10
-35.793591808
 20
22.1950557731
 11
-37.293591808
 21
22.2212382981
  0
LWPOLYLINE
  5
49D
100
AcDbEntity
  8
RACCORDO
100
AcDbPolyline
 62
250
  6
CONTINUOUS
 90
12
 70
0
 10
-32.9866161555
 20
38.516854246
 10
-32.9859254689
 20
38.5157474265
 10
-32.9853187107
 20
38.5124645299
 10
-32.9848025235
 20
38.507041496
 10
-32.9843825584
 20
38.4995376955
 10
-32.9840634129
 20
38.4900352763
 10
-32.9838485807
 20
38.4786382621
 10
-32.9837404139
 20
38.4654714293
 10
-32.9837400965
 20
38.4506789149
 10
-32.9838476327
 20
38.4344226214
 10
-32.9840618464
 20
38.416880475
 10
-32.9843803933
 20
38.3982445412
  0
LINE
  5
49E
100
AcDbEntity
  8
DRAFT
100
AcDbLine
 62
7
  6
CONTINUOUS
 10
-33.7524390752
 20
38.9435974087
 11
-33.5944329352
 21
38.6699227463
  0
LINE
  5
49F
100
AcDbEntity
  8
RACCORDO
100
AcDbLine
 62
7
  6
CONTINUOUS
 10
-33.122049087
 20
-33.3135812462
 11
-32.8814597736
 21
-33.0729919328
  0
LINE
  5
4A0
100
AcDbEntity
  8
DRAFT
100
AcDbLine
 62
7
  6
CONTINUOUS
 10
-35.793591808
 20
26.3346962925
 11
-37.293591808
 21
26.3085137675
  0
LINE
  5
4A1
100
AcDbEntity
  8
IMPORT_IGES
100
AcDbLine
 62
7
  6
CONTINUOUS
 10
-35.793591808
 20
26.2648760328
 11
-35.718591808
 21
26.2648760328
  0
LWPOLYLINE
  5
4A2
100
AcDbEntity
  8
RACCORDO
100
AcDbPolyline
 62
250
  6
CONTINUOUS
 90
12
 70
0
 10
-32.9866119087
 20
40.8168541348
 10
-32.9859219416
 20
40.8157354585
 10
-32.9853158763
 20
40.8124425216
 10
-32.9848003427
 20
40.8070113459
 10
-32.9843809804
 20
40.7995013451
 10
-32.9840623767
 20
40.7899946714
 10
-32.9838480168
 20
40.7785953143
 10
-32.9837402458
 20
40.7654279794
 10
-32.9837402427
 20
40.7506366975
 10
-32.9838480079
 20
40.7343832321
 10
-32.9840623639
 20
40.7168453407
 10
-32.9843809667
 20
40.6982148935
  0
LINE
  5
4A3
100
AcDbEntity
  8
RACCORDO
100
AcDbLine
 62
7
  6
CONTINUOUS
 10
-33.122049087
 20
37.8433333118
 11
-32.8814597736
 21
37.6027439985
  0
LWPOLYLINE
  5
4A4
100
AcDbEntity
  8
RACCORDO
100
AcDbPolyline
 62
250
  6
CONTINUOUS
 90
12
 70
0
 10
-32.9866169363
 20
40.0128977182
 10
-32.9860249588
 20
40.0121554626
 10
-32.9855033323
 20
40.0098990048
 10
-32.9850498293
 20
40.0061896495
 10
-32.9846611377
 20
40.0011186273
 10
-32.9843385185
 20
39.9947535527
 10
-32.9840854551
 20
39.9870900153
 10
-32.9838988831
 20
39.9781476648
 10
-32.9837779655
 20
39.9680121502
 10
-32.9837280431
 20
39.956747404
 10
-32.9837473622
 20
39.9444993097
 10
-32.9838377296
 20
39.9312939488
  0
LWPOLYLINE
  5
4A5
100
AcDbEntity
  8
0
100
AcDbPolyline
 62
7
  6
CONTINUOUS
 90
10
 70
0
 43
0.3500000019
 10
-37.5507348633
 20
65.5630078125
 10
-37.479307373
 20
65.4201474609
 10
-37.479307373
 20
65.3487226563
 10
-37.6221623535
 20
65.2058623047
 10
-37.6935925293
 20
65.2058623047
 10
-37.7650200195
 20
65.2772924805
 10
-37.7650200195
 20
65.3487226563
 10
-37.6935925293
 20
65.4915776367
 10
-37.6221623535
 20
65.5630078125
 10
-37.5507348633
 20
65.5630078125
  0
LINE
  5
4A6
100
AcDbEntity
  8
RACCORDO
100
AcDbLine
 62
7
  6
CONTINUOUS
 10
-36.6348656048
 20
32.8479399077
 11
-37.293591808
 21
32.836441799
  0
LINE
  5
4A7
100
AcDbEntity
  8
DRAFT
100
AcDbLine
 62
7
  6
CONTINUOUS
 10
-35.793591808
 20
32.7352024224
 11
-37.293591808
 21
32.7613850198
  0
LINE
  5
4A8
100
AcDbEntity
  8
RACCORDO
100
AcDbLine
 62
7
  6
CONTINUOUS
 10
-35.793591808
 20
-35.9630644357
 11
-33.8997180086
 21
-35.2737507453
  0
LINE
  5
4A9
100
AcDbEntity
  8
RACCORDO
100
AcDbLine
 62
7
  6
CONTINUOUS
 10
-35.4075516067
 20
36.6735945452
 11
-33.083121959
 21
36.7547654171
  0
LINE
  5
4AA
100
AcDbEntity
  8
RACCORDO
100
AcDbLine
 62
250
  6
CONTINUOUS
 10
-35.4075516067
 20
37.1732899587
 11
-33.083121959
 21
37.2544608307
  0
LINE
  5
4AB
100
AcDbEntity
  8
RACCORDO
100
AcDbLine
 62
7
  6
CONTINUOUS
 10
-35.793591808
 20
37.5148760328
 11
-33.7524390752
 21
37.5861546569
  0
LINE
  5
4AC
100
AcDbEntity
  8
RACCORDO
100
AcDbLine
 62
7
  6
CONTINUOUS
 10
-35.6005717073
 20
37.6216164433
 11
-33.6935160712
 21
37.6882122935
  0
LINE
  5
4AD
100
AcDbEntity
  8
RACCORDO
100
AcDbLine
 62
250
  6
CONTINUOUS
 10
-35.793591808
 20
37.1732899587
 11
-35.4075516067
 21
37.1732899587
  0
LINE
  5
4AE
100
AcDbEntity
  8
RACCORDO
100
AcDbLine
 62
250
  6
CONTINUOUS
 10
-33.083121959
 20
37.2544608307
 11
-32.793591808
 21
37.2544608307
  0
LINE
  5
4AF
100
AcDbEntity
  8
RACCORDO
100
AcDbLine
 62
250
  6
CONTINUOUS
 10
-35.6005717073
 20
37.8214946087
 11
-32.9866119087
 21
37.9127760962
  0
LINE
  5
4B0
100
AcDbEntity
  8
DRAFT
100
AcDbLine
 62
7
  6
CONTINUOUS
 10
-33.5944329352
 20
38.6699227463
 11
-33.122049087
 21
38.6864187538
  0
LINE
  5
4B1
100
AcDbEntity
  8
RACCORDO
100
AcDbLine
 62
250
  6
CONTINUOUS
 10
-32.9866119087
 20
39.8130197654
 11
-33.5794299191
 21
39.7923181043
  0
LINE
  5
4B2
100
AcDbEntity
  8
RACCORDO
100
AcDbLine
 62
7
  6
CONTINUOUS
 10
-34.3447235704
 20
39.9654715895
 11
-32.9866169363
 21
40.0128977182
  0
LINE
  5
4B3
100
AcDbEntity
  8
RACCORDO
100
AcDbLine
 62
250
  6
CONTINUOUS
 10
-34.8458083294
 20
40.1478515266
 11
-32.9866119087
 21
40.2127760962
  0
LINE
  5
4B4
100
AcDbEntity
  8
DRAFT
100
AcDbLine
 62
7
  6
CONTINUOUS
 10
-35.793591808
 20
37.7945496432
 11
-37.293591808
 21
37.7683670458
  0
LINE
  5
4B5
100
AcDbEntity
  8
RACCORDO
100
AcDbLine
 62
250
  6
CONTINUOUS
 10
-35.793591808
 20
37.8214946087
 11
-35.6005717073
 21
37.8214946087
  0
LINE
  5
4B6
100
AcDbEntity
  8
RACCORDO
100
AcDbLine
 62
250
  6
CONTINUOUS
 10
-32.793591808
 20
37.9127760962
 11
-32.9866119087
 21
37.9127760962
  0
LINE
  5
4B7
100
AcDbEntity
  8
RACCORDO
100
AcDbLine
 62
250
  6
CONTINUOUS
 10
-32.793591808
 20
38.3169759694
 11
-32.9866119087
 21
38.3169759694
  0
LINE
  5
4B8
100
AcDbEntity
  8
RACCORDO
100
AcDbLine
 62
250
  6
CONTINUOUS
 10
-35.793591808
 20
38.408257457
 11
-35.6005717073
 21
38.408257457
  0
LINE
  5
4B9
100
AcDbEntity
  8
RACCORDO
100
AcDbLine
 62
250
  6
CONTINUOUS
 10
-32.793591808
 20
38.7167323002
 11
-32.9866119087
 21
38.7167323002
  0
LINE
  5
4BA
100
AcDbEntity
  8
RACCORDO
100
AcDbLine
 62
250
  6
CONTINUOUS
 10
-35.793591808
 20
38.8080137878
 11
-35.6005717073
 21
38.8080137878
  0
LINE
  5
4BB
100
AcDbEntity
  8
RACCORDO
100
AcDbLine
 62
250
  6
CONTINUOUS
 10
-33.083121959
 20
39.275291235
 11
-32.793591808
 21
39.275291235
  0
LINE
  5
4BC
100
AcDbEntity
  8
RACCORDO
100
AcDbLine
 62
250
  6
CONTINUOUS
 10
-35.793591808
 20
39.3564621069
 11
-35.4075516067
 21
39.3564621082
  0
LINE
  5
4BD
100
AcDbEntity
  8
RACCORDO
100
AcDbLine
 62
250
  6
CONTINUOUS
 10
-32.793591808
 20
39.8130197654
 11
-32.9866119087
 21
39.8130197654
  0
LINE
  5
4BE
100
AcDbEntity
  8
RACCORDO
100
AcDbLine
 62
250
  6
CONTINUOUS
 10
-32.793591808
 20
40.2127760962
 11
-32.9866119087
 21
40.2127760962
  0
LINE
  5
4BF
100
AcDbEntity
  8
RACCORDO
100
AcDbLine
 62
250
  6
CONTINUOUS
 10
-35.793591808
 20
40.2559138512
 11
-35.5970822893
 21
40.2559138512
  0
LINE
  5
4C0
100
AcDbEntity
  8
RACCORDO
100
AcDbLine
 62
250
  6
CONTINUOUS
 10
-32.793591808
 20
40.6169759694
 11
-32.9866119087
 21
40.6169759694
  0
LINE
  5
4C1
100
AcDbEntity
  8
RACCORDO
100
AcDbLine
 62
250
  6
CONTINUOUS
 10
-35.793591808
 20
40.708257457
 11
-35.6005717073
 21
40.708257457
  0
LINE
  5
4C2
100
AcDbEntity
  8
RACCORDO
100
AcDbLine
 62
7
  6
CONTINUOUS
 10
-36.6348656048
 20
37.681812158
 11
-37.293591808
 21
37.6933102666
  0
LINE
  5
4C3
100
AcDbEntity
  8
DRAFT
100
AcDbLine
 62
7
  6
CONTINUOUS
 10
-35.793591808
 20
38.1950557731
 11
-37.293591808
 21
38.2212382981
  0
LINE
  5
4C4
100
AcDbEntity
  8
DRAFT
100
AcDbLine
 62
7
  6
CONTINUOUS
 10
-33.122049087
 20
37.8433333118
 11
-33.5944329352
 21
37.8598293193
  0
LINE
  5
4C5
100
AcDbEntity
  8
RACCORDO
100
AcDbLine
 62
250
  6
CONTINUOUS
 10
-35.6005717073
 20
38.408257457
 11
-32.9866119087
 21
38.3169759694
  0
LINE
  5
4C6
100
AcDbEntity
  8
RACCORDO
100
AcDbLine
 62
7
  6
CONTINUOUS
 10
-35.6005674606
 20
38.6081355112
 11
-32.9866171618
 21
38.5168543553
  0
LINE
  5
4C7
100
AcDbEntity
  8
RACCORDO
100
AcDbLine
 62
250
  6
CONTINUOUS
 10
-32.9866119087
 20
38.7167323002
 11
-33.0833048387
 21
38.7201088917
  0
LINE
  5
4C8
100
AcDbEntity
  8
RACCORDO
100
AcDbLine
 62
250
  6
CONTINUOUS
 10
-33.6345212786
 20
38.7393577939
 11
-35.6005717073
 21
38.8080137878
  0
LINE
  5
4C9
100
AcDbEntity
  8
RACCORDO
100
AcDbLine
 62
7
  6
CONTINUOUS
 10
-35.793591808
 20
39.0148760328
 11
-33.7524390752
 21
38.9435974087
  0
LINE
  5
4CA
100
AcDbEntity
  8
RACCORDO
100
AcDbLine
 62
250
  6
CONTINUOUS
 10
-33.083121959
 20
39.275291235
 11
-35.4075516067
 21
39.3564621069
  0
LINE
  5
4CB
100
AcDbEntity
  8
RACCORDO
100
AcDbLine
 62
7
  6
CONTINUOUS
 10
-33.083121959
 20
39.7749866485
 11
-35.4075516067
 21
39.8561575204
  0
LINE
  5
4CC
100
AcDbEntity
  8
RACCORDO
100
AcDbLine
 62
250
  6
CONTINUOUS
 10
-35.4040621886
 20
40.0560356858
 11
-34.5075294168
 21
40.0247280715
  0
LINE
  5
4CD
100
AcDbEntity
  8
RACCORDO
100
AcDbLine
 62
250
  6
CONTINUOUS
 10
-35.6005717073
 20
40.708257457
 11
-32.9866119087
 21
40.6169759694
  0
LINE
  5
4CE
100
AcDbEntity
  8
RACCORDO
100
AcDbLine
 62
7
  6
CONTINUOUS
 10
-35.793591808
 20
40.4928165013
 11
-33.8997180086
 21
39.8035028109
  0
LWPOLYLINE
  5
4CF
100
AcDbEntity
  8
0
100
AcDbPolyline
 62
7
  6
CONTINUOUS
 90
13
 70
0
 43
0.3500000019
 10
-47.0221994629
 20
56.7536191406
 10
-47.3079121094
 20
56.9679042969
 10
-47.3079121094
 20
57.6107597656
 10
-47.0221994629
 20
58.0393354492
 10
-46.3793413086
 20
58.0393354492
 10
-46.0936259766
 20
57.6107597656
 10
-46.0936259766
 20
56.9679042969
 10
-46.3793413086
 20
56.7536191406
 10
-45.9507709961
 20
56.3250488281
 10
-45.9507709961
 20
55.467902832
 10
-46.3793413086
 20
55.0393325195
 10
-47.0221994629
 20
55.0393325195
 10
-47.4507697754
 20
55.467902832
  0
LINE
  5
4D0
100
AcDbEntity
  8
RACCORDO
100
AcDbLine
 62
250
  6
CONTINUOUS
 10
-37.293591808
 20
43.4627994651
 11
-35.793591808
 21
43.5151806193
  0
LINE
  5
4D1
100
AcDbEntity
  8
RACCORDO
100
AcDbLine
 62
7
  6
CONTINUOUS
 10
-37.293591808
 20
43.9624948786
 11
-35.793591808
 21
44.0148760328
  0
LINE
  5
4D2
100
AcDbEntity
  8
DRAFT
100
AcDbLine
 62
7
  6
CONTINUOUS
 10
-35.793591808
 20
42.3346962925
 11
-37.293591808
 21
42.3085137675
  0
LINE
  5
4D3
100
AcDbEntity
  8
RACCORDO
100
AcDbLine
 62
250
  6
CONTINUOUS
 10
-37.4935911436
 20
45.7614231076
 11
-37.293591808
 21
45.764914109
  0
LINE
  5
4D4
100
AcDbEntity
  8
0
100
AcDbLine
 62
250
  6
CONTINUOUS
 10
-43.1023180112
 20
45.6635604922
 11
-37.493591808
 21
45.7614611722
  0
LINE
  5
4D5
100
AcDbEntity
  8
RACCORDO
100
AcDbLine
 62
7
  6
CONTINUOUS
 10
-37.493591808
 20
46.0113850198
 11
-37.293591808
 21
46.0148760328
  0
LINE
  5
4D6
100
AcDbEntity
  8
0
100
AcDbLine
 62
7
  6
CONTINUOUS
 10
-43.1023180112
 20
46.1634843398
 11
-37.493591808
 21
46.2613850198
  0
LINE
  5
4D7
100
AcDbEntity
  8
RACCORDO
100
AcDbLine
 62
250
  6
CONTINUOUS
 10
-43.593591808
 20
45.6635604922
 11
-43.1023180112
 21
45.6635604922
  0
LINE
  5
4D8
100
AcDbEntity
  8
RACCORDO
100
AcDbLine
 62
7
  6
CONTINUOUS
 10
-35.6005717073
 20
40.9081356224
 11
-32.9866119087
 21
40.8168541348
  0
LWPOLYLINE
  5
4D9
100
AcDbEntity
  8
0
100
AcDbPolyline
 62
7
  6
CONTINUOUS
 90
13
 70
0
 43
0.3500000019
 10
-36.0507333984
 20
66.7772939453
 10
-36.3364487305
 20
66.9915791016
 10
-36.3364487305
 20
67.6344345703
 10
-36.0507333984
 20
68.0630048828
 10
-35.4078779297
 20
68.0630048828
 10
-35.1221625977
 20
67.6344345703
 10
-35.1221625977
 20
66.9915791016
 10
-35.4078779297
 20
66.7772939453
 10
-34.9793049316
 20
66.3487182617
 10
-34.9793049316
 20
65.4915776367
 10
-35.4078779297
 20
65.0630073242
 10
-36.0507333984
 20
65.0630073242
 10
-36.4793063965
 20
65.4915776367
  0
ARC
  5
4DA
100
AcDbEntity
  8
RACCORDO
100
AcDbCircle
 62
7
  6
CONTINUOUS
 10
-3.0400685895
 20
-39.3851239672
 40
0.2
100
AcDbArc
 50
180.0
 51
270.0
  0
ARC
  5
4DB
100
AcDbEntity
  8
RACCORDO
100
AcDbCircle
 62
7
  6
CONTINUOUS
 10
-3.0400685895
 20
-37.0851239672
 40
0.2
100
AcDbArc
 50
90.0
 51
180.0
  0
ARC
  5
4DC
100
AcDbEntity
  8
RACCORDO
100
AcDbCircle
 62
7
  6
CONTINUOUS
 10
2.2599314105
 20
-37.0851239672
 40
0.2
100
AcDbArc
 50
0.0
 51
90.0
  0
ARC
  5
4DD
100
AcDbEntity
  8
RACCORDO
100
AcDbCircle
 62
7
  6
CONTINUOUS
 10
2.2599314105
 20
-39.3851239672
 40
0.2
100
AcDbArc
 50
270.0
 51
360.0
  0
ARC
  5
4DE
100
AcDbEntity
  8
RACCORDO
100
AcDbCircle
 62
7
  6
CONTINUOUS
 10
-43.093591808
 20
-41.1338084266
 40
0.5
100
AcDbArc
 50
180.0
 51
269.0
  0
ARC
  5
4DF
100
AcDbEntity
  8
RACCORDO
100
AcDbCircle
 62
7
  6
CONTINUOUS
 10
-38.443591808
 20
-41.7660674808
 40
0.2
100
AcDbArc
 50
180.0
 51
269.0
  0
ARC
  5
4E0
100
AcDbEntity
  8
RACCORDO
100
AcDbCircle
 62
7
  6
CONTINUOUS
 10
-43.093591808
 20
45.6635604922
 40
0.5
100
AcDbArc
 50
91.0
 51
180.0
  0
ARC
  5
4E1
100
AcDbEntity
  8
RACCORDO
100
AcDbCircle
 62
7
  6
CONTINUOUS
 10
-36.643591808
 20
-28.8181116896
 40
0.5
100
AcDbArc
 50
0.0
 51
89.0
  0
ARC
  5
4E2
100
AcDbEntity
  8
RACCORDO
100
AcDbCircle
 62
7
  6
CONTINUOUS
 10
-36.643591808
 20
-32.6521362448
 40
0.5
100
AcDbArc
 50
271.0
 51
360.0
  0
ARC
  5
4E3
100
AcDbEntity
  8
RACCORDO
100
AcDbCircle
 62
7
  6
CONTINUOUS
 10
-35.393591808
 20
-31.7440861488
 40
0.4
100
AcDbArc
 50
180.0
 51
268.0
  0
ARC
  5
4E4
100
AcDbEntity
  8
RACCORDO
100
AcDbCircle
 62
7
  6
CONTINUOUS
 10
-35.393591808
 20
-35.7261617856
 40
0.4
100
AcDbArc
 50
92.0000000001
 51
180.0
  0
ARC
  5
4E5
100
AcDbEntity
  8
RACCORDO
100
AcDbCircle
 62
7
  6
CONTINUOUS
 10
-37.343591808
 20
-41.7849189509
 40
0.2
100
AcDbArc
 50
271.0
 51
360.0
  0
ARC
  5
4E6
100
AcDbEntity
  8
RACCORDO
100
AcDbCircle
 62
7
  6
CONTINUOUS
 10
-35.593591808
 20
-33.6419862122
 40
0.2
100
AcDbArc
 50
194.6666666667
 51
268.0
  0
ARC
  5
4E7
100
AcDbEntity
  8
RACCORDO
100
AcDbCircle
 62
7
  6
CONTINUOUS
 10
-36.643591808
 20
-9.6521362448
 40
0.5
100
AcDbArc
 50
271.0
 51
360.0
  0
ARC
  5
4E8
100
AcDbEntity
  8
RACCORDO
100
AcDbCircle
 62
7
  6
CONTINUOUS
 10
-36.643591808
 20
-5.8181116896
 40
0.5
100
AcDbArc
 50
0.0
 51
89.0
  0
ARC
  5
4E9
100
AcDbEntity
  8
RACCORDO
100
AcDbCircle
 62
7
  6
CONTINUOUS
 10
-33.093591808
 20
-34.6093880359
 40
0.3
100
AcDbArc
 50
0.0
 51
45.0
  0
ARC
  5
4EA
100
AcDbEntity
  8
RACCORDO
100
AcDbCircle
 62
7
  6
CONTINUOUS
 10
-33.093591808
 20
-34.9454173347
 40
0.3
100
AcDbArc
 50
272.0
 51
360.0
  0
ARC
  5
4EB
100
AcDbEntity
  8
RACCORDO
100
AcDbCircle
 62
7
  6
CONTINUOUS
 10
-33.093591808
 20
-32.8608598985
 40
0.3
100
AcDbArc
 50
315.0
 51
360.0
  0
ARC
  5
4EC
100
AcDbEntity
  8
RACCORDO
100
AcDbCircle
 62
7
  6
CONTINUOUS
 10
-33.093591808
 20
-32.5248305996
 40
0.3
100
AcDbArc
 50
0.0000000001
 51
88.0
  0
ARC
  5
4ED
100
AcDbEntity
  8
RACCORDO
100
AcDbCircle
 62
7
  6
CONTINUOUS
 10
-32.993591808
 20
-35.3372239038
 40
0.2
100
AcDbArc
 50
272.0
 51
360.0
  0
ARC
  5
4EE
100
AcDbEntity
  8
RACCORDO
100
AcDbCircle
 62
7
  6
CONTINUOUS
 10
-32.993591808
 20
-34.1330240306
 40
0.2
100
AcDbArc
 50
0.0
 51
88.0
  0
ARC
  5
4EF
100
AcDbEntity
  8
IMPORT_IGES
100
AcDbCircle
 62
7
  6
CONTINUOUS
 10
-35.018591808
 20
23.2148760328
 40
0.65
100
AcDbArc
 50
285.7848715181
 51
30.7848714835
  0
ARC
  5
4F0
100
AcDbEntity
  8
RACCORDO
100
AcDbCircle
 62
7
  6
CONTINUOUS
 10
-36.643591808
 20
10.3478637552
 40
0.5
100
AcDbArc
 50
271.0
 51
360.0
  0
ARC
  5
4F1
100
AcDbEntity
  8
RACCORDO
100
AcDbCircle
 62
7
  6
CONTINUOUS
 10
-36.643591808
 20
14.1818883104
 40
0.5
100
AcDbArc
 50
0.0
 51
89.0
  0
ARC
  5
4F2
100
AcDbEntity
  8
IMPORT_IGES
100
AcDbCircle
 62
7
  6
CONTINUOUS
 10
-35.018591808
 20
23.2148760328
 40
0.45
100
AcDbArc
 50
285.7848715193
 51
30.7848714622
  0
ARC
  5
4F3
100
AcDbEntity
  8
RACCORDO
100
AcDbCircle
 62
7
  6
CONTINUOUS
 10
-36.643591808
 20
33.3478637552
 40
0.5
100
AcDbArc
 50
271.0
 51
360.0
  0
ARC
  5
4F4
100
AcDbEntity
  8
RACCORDO
100
AcDbCircle
 62
7
  6
CONTINUOUS
 10
-36.643591808
 20
37.1818883104
 40
0.5
100
AcDbArc
 50
0.0
 51
89.0
  0
ARC
  5
4F5
100
AcDbEntity
  8
RACCORDO
100
AcDbCircle
 62
7
  6
CONTINUOUS
 10
-35.393591808
 20
36.2738382144
 40
0.4
100
AcDbArc
 50
92.0
 51
180.0
  0
ARC
  5
4F6
100
AcDbEntity
  8
RACCORDO
100
AcDbCircle
 62
7
  6
CONTINUOUS
 10
-35.393591808
 20
40.2559138512
 40
0.4
100
AcDbArc
 50
180.0
 51
268.0
  0
ARC
  5
4F7
100
AcDbEntity
  8
RACCORDO
100
AcDbCircle
 62
7
  6
CONTINUOUS
 10
-35.593591808
 20
38.8080137458
 40
0.2000000376
100
AcDbArc
 50
180.0006053855
 51
268.0012169978
  0
ARC
  5
4F8
100
AcDbEntity
  8
RACCORDO
100
AcDbCircle
 62
7
  6
CONTINUOUS
 10
-35.593591808
 20
41.1080137878
 40
0.2
100
AcDbArc
 50
179.9999999999
 51
268.0
  0
ARC
  5
4F9
100
AcDbEntity
  8
RACCORDO
100
AcDbCircle
 62
7
  6
CONTINUOUS
 10
-35.593591808
 20
37.4217382778
 40
0.2
100
AcDbArc
 50
92.0
 51
143.3332199797
  0
ARC
  5
4FA
100
AcDbEntity
  8
RACCORDO
100
AcDbCircle
 62
7
  6
CONTINUOUS
 10
-33.093591808
 20
37.3906119641
 40
0.3
100
AcDbArc
 50
0.0
 51
45.0
  0
ARC
  5
4FB
100
AcDbEntity
  8
RACCORDO
100
AcDbCircle
 62
7
  6
CONTINUOUS
 10
-33.093591808
 20
37.0545826653
 40
0.3
100
AcDbArc
 50
272.0
 51
360.0
  0
ARC
  5
4FC
100
AcDbEntity
  8
RACCORDO
100
AcDbCircle
 62
7
  6
CONTINUOUS
 10
-33.093591808
 20
39.1391401015
 40
0.3
100
AcDbArc
 50
315.0
 51
360.0
  0
ARC
  5
4FD
100
AcDbEntity
  8
RACCORDO
100
AcDbCircle
 62
7
  6
CONTINUOUS
 10
-33.093591808
 20
39.4751694004
 40
0.3
100
AcDbArc
 50
0.0000000001
 51
88.0
  0
ARC
  5
4FE
100
AcDbEntity
  8
RACCORDO
100
AcDbCircle
 62
7
  6
CONTINUOUS
 10
-32.993591808
 20
38.3169760119
 40
0.2000000379
100
AcDbArc
 50
0.00060554
 51
88.001217004
  0
ARC
  5
4FF
100
AcDbEntity
  8
RACCORDO
100
AcDbCircle
 62
7
  6
CONTINUOUS
 10
-32.993591808
 20
40.2127760543
 40
0.2000000376
100
AcDbArc
 50
271.9987830021
 51
0.0000172806
  0
ARC
  5
500
100
AcDbEntity
  8
RACCORDO
100
AcDbCircle
 62
7
  6
CONTINUOUS
 10
-32.993591808
 20
37.9127760962
 40
0.2
100
AcDbArc
 50
272.0
 51
360.0
  0
ARC
  5
501
100
AcDbEntity
  8
RACCORDO
100
AcDbCircle
 62
7
  6
CONTINUOUS
 10
-32.993591808
 20
40.6169759694
 40
0.2
100
AcDbArc
 50
0.0
 51
88.0
  0
ELLIPSE
  5
502
100
AcDbEntity
  8
RACCORDO
100
AcDbEllipse
 62
7
  6
CONTINUOUS
 10
-6.5900685895
 20
-41.7054503568
 30
0.0
 11
0.3
 21
0.0
 31
0.0
 40
0.0174550649
 41
-0.0
 42
1.5707963268
  0
ELLIPSE
  5
503
100
AcDbEntity
  8
0
100
AcDbEllipse
 62
7
  6
CONTINUOUS
 10
-15.1365014125
 20
-41.2315567902
 30
0.0
 11
0.3536610946
 21
0.3536610946
 31
0.0
 40
0.9996954599
 41
2.3563467834
 42
3.9268385237
  0
ELLIPSE
  5
504
100
AcDbEntity
  8
0
100
AcDbEllipse
 62
7
  6
CONTINUOUS
 10
14.3563642335
 20
-41.2315567902
 30
0.0
 11
0.3536610946
 21
-0.3536610946
 31
0.0
 40
0.9996954599
 41
-0.7852458701
 42
0.7852458701
  0
ELLIPSE
  5
505
100
AcDbEntity
  8
0
100
AcDbEllipse
 62
7
  6
CONTINUOUS
 10
14.3563642335
 20
45.7613088558
 30
0.0
 11
0.3536610946
 21
0.3536610946
 31
0.0
 40
0.9996954599
 41
-0.7852458701
 42
0.7852458701
  0
ELLIPSE
  5
506
100
AcDbEntity
  8
0
100
AcDbEllipse
 62
7
  6
CONTINUOUS
 10
-15.1365014125
 20
45.7613088558
 30
0.0
 11
0.3536610946
 21
-0.3536610946
 31
0.0
 40
0.9996954599
 41
2.3563467834
 42
3.9268385237
  0
ELLIPSE
  5
507
100
AcDbEntity
  8
RACCORDO
100
AcDbEllipse
 62
7
  6
CONTINUOUS
 10
-10.1900685895
 20
-41.7054503568
 30
0.0
 11
0.3
 21
0.0
 31
0.0
 40
0.0174550649
 41
1.5707963268
 42
3.1415926536
  0
ELLIPSE
  5
508
100
AcDbEntity
  8
DRAFT
100
AcDbEllipse
 62
7
  6
CONTINUOUS
 10
-71.5889084117
 20
31.2648760328
 30
0.0
 11
42.9543799244
 21
0.0
 31
0.0
 40
0.0349207695
 41
0.5856855435
 42
0.6461420562
  0
ELLIPSE
  5
509
100
AcDbEntity
  8
DRAFT
100
AcDbEllipse
 62
7
  6
CONTINUOUS
 10
-71.5889084117
 20
-11.7351239672
 30
0.0
 11
42.9543799244
 21
0.0
 31
0.0
 40
0.0349207695
 41
-0.6461420562
 42
-0.5856855435
  0
ELLIPSE
  5
50A
100
AcDbEntity
  8
DRAFT
100
AcDbEllipse
 62
7
  6
CONTINUOUS
 10
-71.5889084117
 20
16.2648760328
 30
0.0
 11
42.9543799244
 21
0.0
 31
0.0
 40
0.0349207695
 41
0.5856855435
 42
0.6461420562
  0
ELLIPSE
  5
50B
100
AcDbEntity
  8
DRAFT
100
AcDbEllipse
 62
7
  6
CONTINUOUS
 10
-71.5889084117
 20
-26.7351239672
 30
0.0
 11
42.9543799244
 21
0.0
 31
0.0
 40
0.0349207695
 41
0.5856855435
 42
0.6461420562
  0
ELLIPSE
  5
50C
100
AcDbEntity
  8
DRAFT
100
AcDbEllipse
 62
7
  6
CONTINUOUS
 10
-71.5889084117
 20
31.2648760328
 30
0.0
 11
42.9543799244
 21
-0.0
 31
0.0
 40
0.0349207695
 41
-0.6461420562
 42
-0.5856855435
  0
ELLIPSE
  5
50D
100
AcDbEntity
  8
DRAFT
100
AcDbEllipse
 62
7
  6
CONTINUOUS
 10
-71.5889084117
 20
-11.7351239672
 30
0.0
 11
42.9543799244
 21
-0.0
 31
0.0
 40
0.0349207695
 41
0.5856855435
 42
0.6461420562
  0
ELLIPSE
  5
50E
100
AcDbEntity
  8
DRAFT
100
AcDbEllipse
 62
7
  6
CONTINUOUS
 10
-71.5889084117
 20
-26.7351239672
 30
0.0
 11
42.9543799244
 21
-0.0
 31
0.0
 40
0.0349207695
 41
-0.6461420562
 42
-0.5856855435
  0
ELLIPSE
  5
50F
100
AcDbEntity
  8
DRAFT
100
AcDbEllipse
 62
7
  6
CONTINUOUS
 10
-71.5889084117
 20
16.2648760328
 30
0.0
 11
42.9543799244
 21
-0.0
 31
0.0
 40
0.0349207695
 41
-0.6461420562
 42
-0.5856855435
  0
ENDSEC
  0
SECTION
  2
OBJECTS
  0
DICTIONARY
  5
C
100
AcDbDictionary
280
0
281
1
  3
ACAD_GROUP
350
D
  3
ACAD_MLINESTYLE
350
17
  3
ACAD_LAYOUT
350
1A
  3
ACAD_PLOTSETTINGS
350
19
  3
ACAD_PLOTSTYLENAME
350
E
  0
DICTIONARY
  5
D
102
{ACAD_REACTORS
330
C
102
}
100
AcDbDictionary
280
0
281
1
  0
ACDBDICTIONARYWDFLT
  5
E
102
{ACAD_REACTORS
330
C
102
}
100
AcDbDictionary
281
1
  3
Normal
350
F
100
AcDbDictionaryWithDefault
340
F
  0
DICTIONARY
  5
17
102
{ACAD_REACTORS
330
C
102
}
100
AcDbDictionary
280
0
281
1
  3
Standard
350
18
  0
DICTIONARY
  5
19
102
{ACAD_REACTORS
330
C
102
}
100
AcDbDictionary
281
1
  0
DICTIONARY
  5
1A
102
{ACAD_REACTORS
330
C
102
}
100
AcDbDictionary
281
1
  3
Model
350
510
  3
Layout1
350
511
  0
ACDBPLACEHOLDER
  5
F
102
{ACAD_REACTORS
330
E
102
}
  0
MLINESTYLE
  5
18
102
{ACAD_REACTORS
330
17
102
}
100
AcDbMlineStyle
  2
STANDARD
 70
0
  3

 62
256
 51
90.0
 52
90.0
 71
2
 49
0.5
 62
256
  6
BYLAYER
 49
-0.5
 62
256
  6
BYLAYER
  0
LAYOUT
  5
510
102
{ACAD_REACTORS
330
1A
102
}
100
AcDbPlotSettings
  1

  2
none_device
  4

  6

 40
0.0
 41
0.0
 42
0.0
 43
0.0
 44
210.0
 45
297.0
 46
0.0
 47
0.0
 48
0.0
 49
0.0
140
0.0
141
0.0
142
1.0
143
1.0
 70
1024
 72
1
 73
0
 74
0
  7

 75
0
147
1.0
148
0.0
149
0.0
100
AcDbLayout
  1
Model
 70
0
 71
0
 10
0.0
 20
0.0
 11
210.0
 21
297.0
 12
0.0
 22
0.0
 32
0.0
 14
0.0
 24
0.0
 34
0.0
 15
0.0
 25
0.0
 35
0.0
146
0.0
 13
0.0
 23
0.0
 33
0.0
 16
1.0
 26
0.0
 36
0.0
 17
0.0
 27
1.0
 37
0.0
 76
0
330
32F
345
0
346
0
  0
LAYOUT
  5
511
102
{ACAD_REACTORS
330
1A
102
}
100
AcDbPlotSettings
  1

  2
none_device
  4

  6

 40
0.0
 41
0.0
 42
0.0
 43
0.0
 44
210.0
 45
297.0
 46
0.0
 47
0.0
 48
0.0
 49
0.0
140
0.0
141
0.0
142
1.0
143
1.0
 70
0
 72
1
 73
0
 74
0
  7

 75
0
147
1.0
148
0.0
149
0.0
100
AcDbLayout
  1
Layout1
 70
0
 71
1
 10
0.0
 20
0.0
 11
210.0
 21
297.0
 12
0.0
 22
0.0
 32
0.0
 14
0.0
 24
0.0
 34
0.0
 15
0.0
 25
0.0
 35
0.0
146
0.0
 13
0.0
 23
0.0
 33
0.0
 16
1.0
 26
0.0
 36
0.0
 17
0.0
 27
1.0
 37
0.0
 76
0
330
330
345
0
346
0
  0
ENDSEC
  0
EOF
