  0
SECTION
  2
HEADER
  9
$ACADVER
  1
AC1024
  9
$DWGCODEPAGE
  3
ANSI_1252
  9
$EXTMAX
 10
210.0
 20
297.0
 30
0.0
  9
$EXTMIN
 10
0.0
 20
0.0
 30
0.0
  9
$LIMMIN
 10
0.0
 20
0.0
  9
$LIMMAX
 10
210.0
 20
297.0
  9
$VIEWCTR
 10
105.0
 20
148.5
  9
$VIEWSIZE
 40
297.0
  9
$CLAYER
  8
0
  9
$LTSCALE
 40
19.36
  9
$CELTYPE
  6
BYLAYER
  9
$DIMSCALE
 40
1.0
  9
$DIMASZ
 40
3.0
  9
$DIMEXO
 40
0.5
  9
$DIMDLI
 40
13.376
  9
$DIMEXE
 40
1.5
  9
$DIMCEN
 40
3.168
  9
$DIMLFAC
 40
1.0
  9
$DIMBLK
  1
_FILLED
  9
$DIMALT
 70
0
  9
$DIMALTF
 40
0.0393700787
  9
$DIMTXT
 40
3.0
  9
$DIMTOL
 70
1
  9
$DIMLIM
 70
0
  9
$DIMTFAC
 40
1.0
  9
$DIMTP
 40
0.01
  9
$DIMTM
 40
0.01
  9
$DIMGAP
 40
0.625
  9
$DIMDSEP
 70
44
  9
$AUNITS
 70
0
  9
$PDMODE
 70
3
  9
$PDSIZE
 40
3.0
  9
$HANDSEED
  5
393
  9
$TILEMODE
 70
1
  9
$MEASUREMENT
 70
1
  9
$INSUNITS
 70
4
  0
ENDSEC
  0
SECTION
  2
CLASSES
  0
CLASS
  1
ACDBDICTIONARYWDFLT
  2
AcDbDictionaryWithDefault
  3
AutoCAD 2000
 90
0
 91
1
280
0
281
0
  0
CLASS
  1
ACDBPLACEHOLDER
  2
AcDbPlaceHolder
  3
AutoCAD 2000
 90
0
 91
1
280
0
281
0
  0
CLASS
  1
LAYOUT
  2
AcDbLayout
  3
AutoCAD 2000
 90
0
 91
0
280
0
281
0
  0
ENDSEC
  0
SECTION
  2
TABLES
  0
TABLE
  2
VPORT
  5
8
100
AcDbSymbolTable
 70
2
  0
VPORT
  5
1F4
100
AcDbSymbolTableRecord
100
AcDbViewportTableRecord
  2
*ACTIVE
 70
0
 10
0.0
 20
0.0
 11
1.0
 21
1.0
 12
105.0
 22
148.5
 13
0.0
 23
0.0
 14
1.0
 24
1.0
 15
0.0
 25
0.0
 16
0.0
 26
0.0
 36
1.0
 17
0.0
 27
0.0
 37
0.0
 40
297.0
 41
0.7070707071
 42
50.0
 43
0.0
 44
0.0
 50
0.0
 51
0.0
 71
0
 72
100
 73
1
 74
1
 75
0
 76
0
 77
0
 78
0
  0
ENDTAB
  0
TABLE
  2
LTYPE
  5
5
100
AcDbSymbolTable
 70
6
  0
LTYPE
  5
14
100
AcDbSymbolTableRecord
100
AcDbLinetypeTableRecord
  2
BYBLOCK
 70
0
  3

 72
65
 73
0
 40
0.0
  0
LTYPE
  5
15
100
AcDbSymbolTableRecord
100
AcDbLinetypeTableRecord
  2
BYLAYER
 70
0
  3

 72
65
 73
0
 40
0.0
  0
LTYPE
  5
16
100
AcDbSymbolTableRecord
100
AcDbLinetypeTableRecord
  2
CONTINUOUS
 70
64
  3
Solid line
 72
65
 73
0
 40
0.0
  0
LTYPE
  5
1F5
100
AcDbSymbolTableRecord
100
AcDbLinetypeTableRecord
  2
CENTER
 70
64
  3
____ _ ____ _ ____ _ ____ _ ____ _ ____ _ ____
 72
65
 73
4
 40
0.6
 49
0.375
 74
0
 49
-0.075
 74
0
 49
0.075
 74
0
 49
-0.075
 74
0
  0
LTYPE
  5
1F6
100
AcDbSymbolTableRecord
100
AcDbLinetypeTableRecord
  2
HIDDEN
 70
64
  3
- - - - - - - - - - - - - - - - - - - -
 72
65
 73
2
 40
0.2
 49
0.1
 74
0
 49
-0.1
 74
0
  0
LTYPE
  5
1F7
100
AcDbSymbolTableRecord
100
AcDbLinetypeTableRecord
  2
PHANTOM
 70
64
  3
_____ _ _ _____ _ _ _____ _ _ _____
 72
65
 73
6
 40
0.8
 49
0.45
 74
0
 49
-0.05
 74
0
 49
0.1
 74
0
 49
-0.05
 74
0
 49
0.1
 74
0
 49
-0.05
 74
0
  0
LTYPE
  5
1F8
100
AcDbSymbolTableRecord
100
AcDbLinetypeTableRecord
  2
DOT
 70
64
  3
. . . . . . . . . . . . . . . . . . . .
 72
65
 73
2
 40
0.2
 49
0.1
 74
0
 49
-0.1
 74
0
  0
LTYPE
  5
1F9
100
AcDbSymbolTableRecord
100
AcDbLinetypeTableRecord
  2
DASHED
 70
64
  3
- - - - - - - - - - - - - - - - - - - -
 72
65
 73
2
 40
0.2
 49
0.1
 74
0
 49
-0.1
 74
0
  0
ENDTAB
  0
TABLE
  2
LAYER
  5
2
100
AcDbSymbolTable
 70
36
  0
LAYER
  5
10
100
AcDbSymbolTableRecord
100
AcDbLayerTableRecord
  2
0
 70
0
 62
7
  6
CONTINUOUS
370
-3
390
F
  0
LAYER
  5
1FA
100
AcDbSymbolTableRecord
100
AcDbLayerTableRecord
  2
DEFAULT_1
 70
0
 62
7
  6
CENTER
370
-3
390
F
  0
LAYER
  5
1FB
100
AcDbSymbolTableRecord
100
AcDbLayerTableRecord
  2
DEFAULT_2
 70
0
 62
7
  6
HIDDEN
370
-3
390
F
  0
LAYER
  5
1FC
100
AcDbSymbolTableRecord
100
AcDbLayerTableRecord
  2
DEFAULT_3
 70
0
 62
7
  6
PHANTOM
370
-3
390
F
  0
LAYER
  5
1FD
100
AcDbSymbolTableRecord
100
AcDbLayerTableRecord
  2
ASSI
 70
0
 62
7
  6
CONTINUOUS
370
-3
390
F
  0
LAYER
  5
1FE
100
AcDbSymbolTableRecord
100
AcDbLayerTableRecord
  2
COORDINATE
 70
0
 62
7
  6
CONTINUOUS
370
-3
390
F
  0
LAYER
  5
1FF
100
AcDbSymbolTableRecord
100
AcDbLayerTableRecord
  2
COPY_PUBLISH
 70
0
 62
7
  6
CONTINUOUS
370
-3
390
F
  0
LAYER
  5
200
100
AcDbSymbolTableRecord
100
AcDbLayerTableRecord
  2
COSMETICI
 70
0
 62
7
  6
CONTINUOUS
370
-3
390
F
  0
LAYER
  5
201
100
AcDbSymbolTableRecord
100
AcDbLayerTableRecord
  2
CURVE
 70
0
 62
7
  6
CONTINUOUS
370
-3
390
F
  0
LAYER
  5
202
100
AcDbSymbolTableRecord
100
AcDbLayerTableRecord
  2
DRAFT
 70
0
 62
7
  6
CONTINUOUS
370
-3
390
F
  0
LAYER
  5
203
100
AcDbSymbolTableRecord
100
AcDbLayerTableRecord
  2
IMPORT_IGES
 70
0
 62
7
  6
CONTINUOUS
370
-3
390
F
  0
LAYER
  5
204
100
AcDbSymbolTableRecord
100
AcDbLayerTableRecord
  2
INTF_1
 70
0
 62
7
  6
CONTINUOUS
370
-3
390
F
  0
LAYER
  5
205
100
AcDbSymbolTableRecord
100
AcDbLayerTableRecord
  2
INTF_11
 70
0
 62
7
  6
CONTINUOUS
370
-3
390
F
  0
LAYER
  5
206
100
AcDbSymbolTableRecord
100
AcDbLayerTableRecord
  2
INTF_6
 70
0
 62
7
  6
CONTINUOUS
370
-3
390
F
  0
LAYER
  5
207
100
AcDbSymbolTableRecord
100
AcDbLayerTableRecord
  2
NOTE
 70
0
 62
7
  6
CONTINUOUS
370
-3
390
F
  0
LAYER
  5
208
100
AcDbSymbolTableRecord
100
AcDbLayerTableRecord
  2
PIANI
 70
0
 62
7
  6
CONTINUOUS
370
-3
390
F
  0
LAYER
  5
209
100
AcDbSymbolTableRecord
100
AcDbLayerTableRecord
  2
PUNTI
 70
0
 62
7
  6
CONTINUOUS
370
-3
390
F
  0
LAYER
  5
20A
100
AcDbSymbolTableRecord
100
AcDbLayerTableRecord
  2
RACCORDO
 70
0
 62
7
  6
CONTINUOUS
370
-3
390
F
  0
LAYER
  5
20B
100
AcDbSymbolTableRecord
100
AcDbLayerTableRecord
  2
SIMBOLI
 70
0
 62
7
  6
CONTINUOUS
370
-3
390
F
  0
LAYER
  5
20C
100
AcDbSymbolTableRecord
100
AcDbLayerTableRecord
  2
SMUSSO
 70
0
 62
7
  6
CONTINUOUS
370
-3
390
F
  0
LAYER
  5
20D
100
AcDbSymbolTableRecord
100
AcDbLayerTableRecord
  2
SNAPLINE
 70
0
 62
7
  6
CONTINUOUS
370
-3
390
F
  0
LAYER
  5
20E
100
AcDbSymbolTableRecord
100
AcDbLayerTableRecord
  2
SUPERFICI
 70
0
 62
7
  6
CONTINUOUS
370
-3
390
F
  0
LAYER
  5
20F
100
AcDbSymbolTableRecord
100
AcDbLayerTableRecord
  2
TRASH
 70
0
 62
7
  6
CONTINUOUS
370
-3
390
F
  0
ENDTAB
  0
TABLE
  2
STYLE
  5
3
100
AcDbSymbolTable
 70
1
  0
STYLE
  5
11
100
AcDbSymbolTableRecord
100
AcDbTextStyleTableRecord
  2
STANDARD
 70
0
 40
0.0
 41
0.8
 50
0.0
 71
0
 42
0.2
  3
txt
  4

  0
STYLE
  5
210
100
AcDbSymbolTableRecord
100
AcDbTextStyleTableRecord
  2
TEXTSTYLE_1
 70
0
 40
0.0
 41
0.8
 50
0.0
 71
0
 42
0.2
  3
gdt
  4

  0
ENDTAB
  0
TABLE
  2
VIEW
  5
6
100
AcDbSymbolTable
 70
0
  0
ENDTAB
  0
TABLE
  2
UCS
  5
7
100
AcDbSymbolTable
 70
0
  0
ENDTAB
  0
TABLE
  2
APPID
  5
9
100
AcDbSymbolTable
 70
1
  0
APPID
  5
211
100
AcDbSymbolTableRecord
100
AcDbRegAppTableRecord
  2
ACAD
 70
0
  0
ENDTAB
  0
TABLE
  2
BLOCK_RECORD
  5
1
100
AcDbSymbolTable
 70
0
  0
BLOCK_RECORD
  5
212
100
AcDbSymbolTableRecord
100
AcDbBlockTableRecord
  2
*Model_Space
  0
BLOCK_RECORD
  5
213
100
AcDbSymbolTableRecord
100
AcDbBlockTableRecord
  2
*Paper_Space
  0
BLOCK_RECORD
  5
214
100
AcDbSymbolTableRecord
100
AcDbBlockTableRecord
  2
_FILLED
  0
BLOCK_RECORD
  5
215
100
AcDbSymbolTableRecord
100
AcDbBlockTableRecord
  2
*D0
  0
BLOCK_RECORD
  5
216
100
AcDbSymbolTableRecord
100
AcDbBlockTableRecord
  2
*D1
  0
BLOCK_RECORD
  5
217
100
AcDbSymbolTableRecord
100
AcDbBlockTableRecord
  2
*D2
  0
BLOCK_RECORD
  5
218
100
AcDbSymbolTableRecord
100
AcDbBlockTableRecord
  2
*D3
  0
ENDTAB
  0
TABLE
  2
DIMSTYLE
  5
A
100
AcDbSymbolTable
 70
1
100
AcDbDimStyleTable
 71
0
  0
DIMSTYLE
105
219
100
AcDbSymbolTableRecord
100
AcDbDimStyleTableRecord
  2
STANDARD
 70
0
  3

  4

 40
1.0
 41
3.0
 42
0.5
 43
0.38
 44
1.5
 45
0.0
 46
0.0
 47
0.01
 48
0.01
140
3.0
141
0.09
142
0.0
143
25.4
144
1.0
145
0.0
146
1.0
147
0.625
 71
1
 72
0
 73
0
 74
0
 75
0
 76
0
 77
1
 78
8
 79
2
170
0
171
1
172
0
173
0
174
0
175
0
176
0
177
0
178
0
270
2
179
2
271
2
272
2
273
2
274
2
275
0
280
0
281
0
282
0
283
1
284
8
285
0
286
0
287
3
288
0
340
11
278
44
341
214
342
214
343
214
344
214
  0
DIMSTYLE
105
21A
100
AcDbSymbolTableRecord
100
AcDbDimStyleTableRecord
  2
DIMSTYLE_1
 70
0
  3

  4

 40
1.0
 41
3.0
 42
0.5
 43
0.38
 44
1.5
 45
0.0
 46
0.0
 47
0.0
 48
0.0
140
3.0
141
0.09
142
0.0
143
25.4
144
1.0
145
0.0
146
1.0
147
0.75
 71
0
 72
0
 73
0
 74
0
 75
0
 76
0
 77
1
 78
8
 79
2
170
0
171
1
172
0
173
0
174
0
175
0
176
0
177
0
178
0
270
2
179
2
271
2
272
2
273
2
274
2
275
0
280
0
281
0
282
0
283
1
284
8
285
0
286
0
287
3
288
0
340
11
278
44
341
214
342
214
343
214
344
214
  0
DIMSTYLE
105
21B
100
AcDbSymbolTableRecord
100
AcDbDimStyleTableRecord
  2
DIMSTYLE_2
 70
0
  3

  4

 40
1.0
 41
3.0
 42
0.5
 43
0.38
 44
1.5
 45
0.0
 46
0.0
 47
0.0
 48
0.0
140
3.0
141
0.09
142
0.0
143
25.4
144
1.0
145
0.0
146
1.0
147
0.75
 71
0
 72
0
 73
0
 74
0
 75
0
 76
0
 77
1
 78
8
 79
2
170
0
171
1
172
0
173
0
174
0
175
0
176
0
177
0
178
0
270
2
179
2
271
1
272
1
273
2
274
2
275
0
280
0
281
0
282
0
283
1
284
8
285
0
286
0
287
3
288
0
340
11
278
44
341
214
342
214
343
214
344
214
  0
ENDTAB
  0
ENDSEC
  0
SECTION
  2
BLOCKS
  0
BLOCK
  5
20
100
AcDbEntity
  8
0
100
AcDbBlockBegin
  2
*Model_Space
 70
0
 10
0.0
 20
0.0
 30
0.0
  3
*Model_Space
  1

  0
ENDBLK
  5
21
100
AcDbEntity
  8
0
100
AcDbBlockEnd
  0
BLOCK
  5
1C
100
AcDbEntity
  8
0
100
AcDbBlockBegin
  2
*Paper_Space
 70
0
 10
0.0
 20
0.0
 30
0.0
  3
*Paper_Space
  1

  0
ENDBLK
  5
1D
100
AcDbEntity
  8
0
100
AcDbBlockEnd
  0
BLOCK
  5
21C
100
AcDbEntity
  8
0
100
AcDbBlockBegin
  2
_FILLED
 70
64
 10
0.0
 20
0.0
  3
_FILLED
  1

  0
SOLID
  5
21D
100
AcDbEntity
  8
0
  6
BYBLOCK
 62
0
100
AcDbTrace
 10
0.0
 20
0.0
 11
-1.0
 21
0.3166666667
 12
-1.0
 22
-0.3166666667
 13
-1.0
 23
-0.3166666667
  0
ENDBLK
  5
21E
100
AcDbEntity
  8
0
  6
BYBLOCK
 62
0
100
AcDbBlockEnd
  0
BLOCK
  5
21F
100
AcDbEntity
  8
0
100
AcDbBlockBegin
 62
7
  6
CONTINUOUS
  2
*D0
 70
65
 10
0.0
 20
0.0
  3
*D0
  1

  0
LINE
  5
220
100
AcDbEntity
  8
0
100
AcDbLine
 62
7
  6
CONTINUOUS
 10
-40.0464763639
 20
42.8568400118
 11
-40.0464763639
 21
55.8105479405
  0
LINE
  5
221
100
AcDbEntity
  8
0
100
AcDbLine
 62
7
  6
CONTINUOUS
 10
-47.8464763639
 20
46.1857042115
 11
-47.8464763639
 21
55.8105479405
  0
LINE
  5
222
100
AcDbEntity
  8
0
100
AcDbLine
 62
7
  6
CONTINUOUS
 10
-40.0464763639
 20
54.3105479405
 11
-43.9464763639
 21
54.3105479405
  0
LINE
  5
223
100
AcDbEntity
  8
0
100
AcDbLine
 62
7
  6
CONTINUOUS
 10
-47.8464763639
 20
54.3105479405
 11
-43.9464763639
 21
54.3105479405
  0
LINE
  5
224
100
AcDbEntity
  8
0
100
AcDbLine
 62
7
  6
CONTINUOUS
 10
-43.9464763639
 20
54.3105479405
 11
-54.5318239836
 21
54.3105479405
  0
INSERT
  5
225
100
AcDbEntity
  8
0
100
AcDbBlockReference
 62
7
  6
CONTINUOUS
  2
_FILLED
 10
-40.0464763639
 20
54.3105479405
 41
3.0
 42
3.0
 43
3.0
  0
INSERT
  5
226
100
AcDbEntity
  8
0
100
AcDbBlockReference
 62
7
  6
CONTINUOUS
  2
_FILLED
 10
-47.8464763639
 20
54.3105479405
 41
3.0
 42
3.0
 43
3.0
 50
180.0
  0
ENDBLK
  5
227
100
AcDbEntity
  8
0
  6
BYBLOCK
 62
0
100
AcDbBlockEnd
  0
BLOCK
  5
228
100
AcDbEntity
  8
0
100
AcDbBlockBegin
 62
7
  6
CONTINUOUS
  2
*D1
 70
65
 10
0.0
 20
0.0
  3
*D1
  1

  0
LINE
  5
229
100
AcDbEntity
  8
0
100
AcDbLine
 62
7
  6
CONTINUOUS
 10
-37.0464763639
 20
40.7349197785
 11
-37.0464763639
 21
65.8452647728
  0
LINE
  5
22A
100
AcDbEntity
  8
0
100
AcDbLine
 62
7
  6
CONTINUOUS
 10
-47.8464763639
 20
46.1857042115
 11
-47.8464763639
 21
65.8452647728
  0
LINE
  5
22B
100
AcDbEntity
  8
0
100
AcDbLine
 62
7
  6
CONTINUOUS
 10
-37.0464763639
 20
64.3452647728
 11
-33.0464763639
 21
64.3452647728
  0
LINE
  5
22C
100
AcDbEntity
  8
0
100
AcDbLine
 62
7
  6
CONTINUOUS
 10
-33.0464763639
 20
64.3452647728
 11
-42.4464763639
 21
64.3452647728
  0
LINE
  5
22D
100
AcDbEntity
  8
0
100
AcDbLine
 62
7
  6
CONTINUOUS
 10
-47.8464763639
 20
64.3452647728
 11
-51.8464763639
 21
64.3452647728
  0
LINE
  5
22E
100
AcDbEntity
  8
0
100
AcDbLine
 62
7
  6
CONTINUOUS
 10
-51.8464763639
 20
64.3452647728
 11
-42.4464763639
 21
64.3452647728
  0
INSERT
  5
22F
100
AcDbEntity
  8
0
100
AcDbBlockReference
 62
7
  6
CONTINUOUS
  2
_FILLED
 10
-37.0464763639
 20
64.3452647728
 41
3.0
 42
3.0
 43
3.0
 50
180.0
  0
INSERT
  5
230
100
AcDbEntity
  8
0
100
AcDbBlockReference
 62
7
  6
CONTINUOUS
  2
_FILLED
 10
-47.8464763639
 20
64.3452647728
 41
3.0
 42
3.0
 43
3.0
  0
ENDBLK
  5
231
100
AcDbEntity
  8
0
  6
BYBLOCK
 62
0
100
AcDbBlockEnd
  0
BLOCK
  5
232
100
AcDbEntity
  8
0
100
AcDbBlockBegin
 62
7
  6
CONTINUOUS
  2
*D2
 70
65
 10
0.0
 20
0.0
  3
*D2
  1

  0
LINE
  5
233
100
AcDbEntity
  8
0
100
AcDbLine
 62
7
  6
CONTINUOUS
 10
-15.2823231008
 20
46.2836048916
 11
-15.2823231008
 21
55.8061672434
  0
LINE
  5
234
100
AcDbEntity
  8
0
100
AcDbLine
 62
7
  6
CONTINUOUS
 10
15.2106948732
 20
46.2836048916
 11
15.2106948732
 21
55.8061672434
  0
LINE
  5
235
100
AcDbEntity
  8
0
100
AcDbLine
 62
7
  6
CONTINUOUS
 10
-15.2823231008
 20
54.3061672434
 11
-0.0358141138
 21
54.3061672434
  0
LINE
  5
236
100
AcDbEntity
  8
0
100
AcDbLine
 62
7
  6
CONTINUOUS
 10
15.2106948732
 20
54.3061672434
 11
-0.0358141138
 21
54.3061672434
  0
INSERT
  5
237
100
AcDbEntity
  8
0
100
AcDbBlockReference
 62
7
  6
CONTINUOUS
  2
_FILLED
 10
-15.2823231008
 20
54.3061672434
 41
3.0
 42
3.0
 43
3.0
 50
180.0
  0
INSERT
  5
238
100
AcDbEntity
  8
0
100
AcDbBlockReference
 62
7
  6
CONTINUOUS
  2
_FILLED
 10
15.2106948732
 20
54.3061672434
 41
3.0
 42
3.0
 43
3.0
  0
ENDBLK
  5
239
100
AcDbEntity
  8
0
  6
BYBLOCK
 62
0
100
AcDbBlockEnd
  0
BLOCK
  5
23A
100
AcDbEntity
  8
0
100
AcDbBlockBegin
 62
7
  6
CONTINUOUS
  2
*D3
 70
65
 10
0.0
 20
0.0
  3
*D3
  1

  0
LINE
  5
23B
100
AcDbEntity
  8
0
100
AcDbLine
 62
7
  6
CONTINUOUS
 10
15.2107710256
 20
46.2835287391
 11
24.7509268557
 21
46.2835287391
  0
LINE
  5
23C
100
AcDbEntity
  8
0
100
AcDbLine
 62
7
  6
CONTINUOUS
 10
15.2107710256
 20
-41.7094892349
 11
24.7509268557
 21
-41.7094892349
  0
LINE
  5
23D
100
AcDbEntity
  8
0
100
AcDbLine
 62
7
  6
CONTINUOUS
 10
23.2509268557
 20
46.2835287391
 11
23.2509268557
 21
2.2870197521
  0
LINE
  5
23E
100
AcDbEntity
  8
0
100
AcDbLine
 62
7
  6
CONTINUOUS
 10
23.2509268557
 20
-41.7094892349
 11
23.2509268557
 21
2.2870197521
  0
INSERT
  5
23F
100
AcDbEntity
  8
0
100
AcDbBlockReference
 62
7
  6
CONTINUOUS
  2
_FILLED
 10
23.2509268557
 20
46.2835287391
 41
3.0
 42
3.0
 43
3.0
 50
90.0
  0
INSERT
  5
240
100
AcDbEntity
  8
0
100
AcDbBlockReference
 62
7
  6
CONTINUOUS
  2
_FILLED
 10
23.2509268557
 20
-41.7094892349
 41
3.0
 42
3.0
 43
3.0
 50
270.0
  0
ENDBLK
  5
241
100
AcDbEntity
  8
0
  6
BYBLOCK
 62
0
100
AcDbBlockEnd
  0
ENDSEC
  0
SECTION
  2
ENTITIES
  0
DIMENSION
  5
242
100
AcDbEntity
  8
0
100
AcDbDimension
 62
7
  6
CONTINUOUS
  2
*D0
 10
-47.8464763639
 20
54.3105479405
 11
-54.5318239836
 21
54.3105479405
 70
160
 71
3
 72
2
 41
0.9
 42
7.8
  3
DIMSTYLE_1
100
AcDbAlignedDimension
 13
-40.0464763639
 23
42.3568400118
 14
-47.8464763639
 24
45.6857042115
 50
180.0
100
AcDbRotatedDimension
  0
DIMENSION
  5
243
100
AcDbEntity
  8
0
100
AcDbDimension
 62
7
  6
CONTINUOUS
  2
*D1
 10
-47.8464763639
 20
64.3452647728
 11
-46.5179049354
 21
64.3452647728
 70
160
 71
2
 72
2
 41
0.9
 42
10.8
  3
DIMSTYLE_1
100
AcDbAlignedDimension
 13
-37.0464763639
 23
40.2349197785
 14
-47.8464763639
 24
45.6857042115
 50
180.0
100
AcDbRotatedDimension
  0
DIMENSION
  5
244
100
AcDbEntity
  8
0
100
AcDbDimension
 62
7
  6
CONTINUOUS
  2
*D2
 10
15.2106948732
 20
54.3061672434
 11
-4.2143855424
 21
54.3061672434
 70
160
 71
2
 72
2
 41
0.9
 42
30.493017974
  3
DIMSTYLE_2
100
AcDbAlignedDimension
 13
-15.2823231008
 23
45.7836048916
 14
15.2106948732
 24
45.7836048916
100
AcDbRotatedDimension
  0
DIMENSION
  5
245
100
AcDbEntity
  8
0
100
AcDbDimension
 62
7
  6
CONTINUOUS
  2
*D3
 10
23.2509268557
 20
-41.7094892349
 11
23.2509268557
 21
-0.070123105
 70
160
 71
2
 72
2
 41
0.9
 42
87.993017974
  3
DIMSTYLE_2
100
AcDbAlignedDimension
 13
14.7107710256
 23
46.2835287391
 14
14.7107710256
 24
-41.7094892349
 50
270.0
100
AcDbRotatedDimension
  0
LWPOLYLINE
  5
246
100
AcDbEntity
  8
0
100
AcDbPolyline
 62
7
  6
CONTINUOUS
 90
5
 70
0
 43
0.3500000019
 10
-3.3572402344
 20
56.7704521484
 10
-3.0001000977
 20
56.9847373047
 10
-3.0001000977
 20
57.6275981445
 10
-3.3572402344
 20
58.056168457
 10
-4.2143862305
 20
58.056168457
  0
LWPOLYLINE
  5
247
100
AcDbEntity
  8
RACCORDO
100
AcDbPolyline
 62
250
  6
CONTINUOUS
 90
19
 70
0
 10
14.6128703456
 20
-41.6115885548
 10
14.6564331545
 20
-41.6096736623
 10
14.6996645527
 20
-41.6039700896
 10
14.7422356505
 20
-41.5945212277
 10
14.7838225819
 20
-41.5813989602
 10
14.8241089678
 20
-41.5647031168
 10
14.8627883232
 20
-41.5445607136
 10
14.8995663888
 20
-41.5211249873
 10
14.93416337
 20
-41.4945742288
 10
14.9663160648
 20
-41.4651104268
 10
14.9957798669
 20
-41.4329577319
 10
15.0223306256
 20
-41.3983607506
 10
15.0457663519
 20
-41.3615826849
 10
15.065908755
 20
-41.3229033296
 10
15.0826045984
 20
-41.2826169438
 10
15.0957268659
 20
-41.2410300125
 10
15.1051757279
 20
-41.1984589146
 10
15.1108793005
 20
-41.1552275164
 10
15.1127941931
 20
-41.1116647073
  0
LINE
  5
248
100
AcDbEntity
  8
0
100
AcDbLine
 62
7
  6
CONTINUOUS
 10
-14.7823992533
 20
-41.7094892349
 11
14.7107710256
 21
-41.7094892349
  0
LINE
  5
249
100
AcDbEntity
  8
RACCORDO
100
AcDbLine
 62
250
  6
CONTINUOUS
 10
-14.6844985732
 20
-41.6115885548
 11
14.6128703456
 21
-41.6115885548
  0
LINE
  5
24A
100
AcDbEntity
  8
RACCORDO
100
AcDbLine
 62
250
  6
CONTINUOUS
 10
-15.1844224208
 20
-41.1116647073
 11
15.1127941931
 21
-41.1116647073
  0
LINE
  5
24B
100
AcDbEntity
  8
0
100
AcDbLine
 62
250
  6
CONTINUOUS
 10
14.6128703456
 20
46.1856280591
 11
14.7107710256
 21
46.2835287391
  0
LINE
  5
24C
100
AcDbEntity
  8
0
100
AcDbLine
 62
250
  6
CONTINUOUS
 10
15.1127941931
 20
45.6857042115
 11
15.2106948732
 21
45.7836048916
  0
LINE
  5
24D
100
AcDbEntity
  8
0
100
AcDbLine
 62
250
  6
CONTINUOUS
 10
14.6128703456
 20
-41.6115885548
 11
14.7107710256
 21
-41.7094892349
  0
LWPOLYLINE
  5
24E
100
AcDbEntity
  8
RACCORDO
100
AcDbPolyline
 62
250
  6
CONTINUOUS
 90
19
 70
0
 10
-15.1844224208
 20
-41.1116647073
 10
-15.1825075282
 20
-41.1552275162
 10
-15.1768039556
 20
-41.1984589144
 10
-15.1673550937
 20
-41.2410300122
 10
-15.1542328262
 20
-41.2826169436
 10
-15.1375369827
 20
-41.3229033295
 10
-15.1173945796
 20
-41.3615826849
 10
-15.0939588533
 20
-41.3983607505
 10
-15.0674080947
 20
-41.4329577316
 10
-15.0379442928
 20
-41.4651104265
 10
-15.0057915978
 20
-41.4945742286
 10
-14.9711946166
 20
-41.5211249873
 10
-14.9344165509
 20
-41.5445607136
 10
-14.8957371956
 20
-41.5647031167
 10
-14.8554508098
 20
-41.5813989601
 10
-14.8138638785
 20
-41.5945212276
 10
-14.7712927806
 20
-41.6039700896
 10
-14.7280613823
 20
-41.6096736622
 10
-14.6844985732
 20
-41.6115885548
  0
LWPOLYLINE
  5
24F
100
AcDbEntity
  8
0
100
AcDbPolyline
 62
7
  6
CONTINUOUS
 90
3
 70
0
 43
0.3500000019
 10
0.9998984375
 20
55.3418808594
 10
0.9284736328
 20
55.1275957031
 10
0.7856132813
 20
54.8418803711
  0
LINE
  5
250
100
AcDbEntity
  8
0
100
AcDbLine
 62
250
  6
CONTINUOUS
 10
15.1127941931
 20
-41.1116647073
 11
15.2106948732
 21
-41.2095653873
  0
LINE
  5
251
100
AcDbEntity
  8
0
100
AcDbLine
 62
7
  6
CONTINUOUS
 10
-15.2823231008
 20
45.7836048916
 11
-15.2823231008
 21
-41.2095653873
  0
LINE
  5
252
100
AcDbEntity
  8
RACCORDO
100
AcDbLine
 62
250
  6
CONTINUOUS
 10
-15.1844224208
 20
45.6857042115
 11
-15.1844224208
 21
-41.1116647073
  0
LINE
  5
253
100
AcDbEntity
  8
RACCORDO
100
AcDbLine
 62
250
  6
CONTINUOUS
 10
-14.6844985732
 20
-41.6115885548
 11
-14.6844985732
 21
46.1856280591
  0
LWPOLYLINE
  5
254
100
AcDbEntity
  8
0
100
AcDbPolyline
 62
7
  6
CONTINUOUS
 90
13
 70
0
 43
0.3500000019
 10
-2.0715292969
 20
55.9133115234
 10
-2.0715292969
 20
57.1990224609
 10
-1.8572441406
 20
57.6275981445
 10
-1.4286738281
 20
58.056168457
 10
-1.2143833008
 20
58.056168457
 10
-0.7858129883
 20
57.6275981445
 10
-0.571527832
 20
57.1990224609
 10
-0.571527832
 20
55.9133115234
 10
-0.7858129883
 20
55.4847412109
 10
-1.2143833008
 20
55.0561655273
 10
-1.4286738281
 20
55.0561655273
 10
-1.8572441406
 20
55.4847412109
 10
-2.0715292969
 20
55.9133115234
  0
LWPOLYLINE
  5
255
100
AcDbEntity
  8
0
100
AcDbPolyline
 62
7
  6
CONTINUOUS
 90
4
 70
0
 43
0.3500000019
 10
22.0723535156
 20
-0.0701231065
 10
21.2152128906
 20
-0.0701231065
 10
20.7866425781
 20
0.3584483337
 10
20.7866425781
 20
1.001305481
  0
LWPOLYLINE
  5
256
100
AcDbEntity
  8
0
100
AcDbPolyline
 62
7
  6
CONTINUOUS
 90
4
 70
0
 43
0.3500000019
 10
22.0723535156
 20
2.2870197754
 10
21.2152128906
 20
2.2870197754
 10
20.7866425781
 20
2.7155912628
 10
20.7866425781
 20
3.3584482422
  0
LINE
  5
257
100
AcDbEntity
  8
RACCORDO
100
AcDbLine
 62
250
  6
CONTINUOUS
 10
14.6128703456
 20
-41.6115885548
 11
14.6128703456
 21
46.1856280591
  0
LINE
  5
258
100
AcDbEntity
  8
RACCORDO
100
AcDbLine
 62
250
  6
CONTINUOUS
 10
15.1127941931
 20
-41.1116647073
 11
15.1127941931
 21
45.6857042115
  0
LINE
  5
259
100
AcDbEntity
  8
0
100
AcDbLine
 62
7
  6
CONTINUOUS
 10
15.2106948732
 20
-41.2095653873
 11
15.2106948732
 21
45.7836048916
  0
LWPOLYLINE
  5
25A
100
AcDbEntity
  8
0
100
AcDbPolyline
 62
7
  6
CONTINUOUS
 90
13
 70
0
 43
0.3500000019
 10
20.7866425781
 20
2.7155912628
 10
20.5723574219
 20
2.4298769379
 10
19.9295019531
 20
2.4298769379
 10
19.5009316406
 20
2.7155912628
 10
19.5009316406
 20
3.3584482422
 10
19.9295019531
 20
3.6441625671
 10
20.5723574219
 20
3.6441625671
 10
20.7866425781
 20
3.3584482422
 10
21.2152128906
 20
3.7870198975
 10
22.0723535156
 20
3.7870198975
 10
22.5009238281
 20
3.3584482422
 10
22.5009238281
 20
2.7155912628
 10
22.0723535156
 20
2.2870197754
  0
LWPOLYLINE
  5
25B
100
AcDbEntity
  8
0
100
AcDbPolyline
 62
7
  6
CONTINUOUS
 90
13
 70
0
 43
0.3500000019
 10
20.7866425781
 20
0.3584483337
 10
20.5723574219
 20
0.0727340403
 10
19.9295019531
 20
0.0727340403
 10
19.5009316406
 20
0.3584483337
 10
19.5009316406
 20
1.001305481
 10
19.9295019531
 20
1.287019722
 10
20.5723574219
 20
1.287019722
 10
20.7866425781
 20
1.001305481
 10
21.2152128906
 20
1.4298769684
 10
22.0723535156
 20
1.4298769684
 10
22.5009238281
 20
1.001305481
 10
22.5009238281
 20
0.3584483337
 10
22.0723535156
 20
-0.0701231065
  0
LWPOLYLINE
  5
25C
100
AcDbEntity
  8
RACCORDO
100
AcDbPolyline
 62
250
  6
CONTINUOUS
 90
19
 70
0
 10
15.1127941931
 20
45.6857042115
 10
15.1108793006
 20
45.7292670204
 10
15.1051757279
 20
45.7724984186
 10
15.095726866
 20
45.8150695165
 10
15.0826045985
 20
45.8566564479
 10
15.0659087551
 20
45.8969428338
 10
15.045766352
 20
45.9356221891
 10
15.0223306257
 20
45.9724002548
 10
14.9957798671
 20
46.0069972359
 10
14.9663160651
 20
46.0391499308
 10
14.9341633702
 20
46.0686137328
 10
14.8995663889
 20
46.0951644915
 10
14.8627883232
 20
46.1186002179
 10
14.8241089679
 20
46.138742621
 10
14.7838225821
 20
46.1554384644
 10
14.7422356508
 20
46.1685607319
 10
14.6996645529
 20
46.1780095938
 10
14.6564331547
 20
46.1837131665
 10
14.6128703456
 20
46.1856280591
  0
LINE
  5
25D
100
AcDbEntity
  8
0
100
AcDbLine
 62
250
  6
CONTINUOUS
 10
-15.1844224208
 20
-41.1116647073
 11
-15.2823231008
 21
-41.2095653873
  0
LINE
  5
25E
100
AcDbEntity
  8
0
100
AcDbLine
 62
250
  6
CONTINUOUS
 10
-14.6844985732
 20
-41.6115885548
 11
-14.7823992533
 21
-41.7094892349
  0
LINE
  5
25F
100
AcDbEntity
  8
0
100
AcDbLine
 62
250
  6
CONTINUOUS
 10
-15.1844224208
 20
45.6857042115
 11
-15.2823231008
 21
45.7836048916
  0
LINE
  5
260
100
AcDbEntity
  8
0
100
AcDbLine
 62
250
  6
CONTINUOUS
 10
-14.6844985732
 20
46.1856280591
 11
-14.7823992533
 21
46.2835287391
  0
LWPOLYLINE
  5
261
100
AcDbEntity
  8
0
100
AcDbPolyline
 62
7
  6
CONTINUOUS
 90
10
 70
0
 43
0.3500000019
 10
0.9284736328
 20
55.5561660156
 10
0.9998984375
 20
55.4133110352
 10
0.9998984375
 20
55.3418808594
 10
0.857043457
 20
55.1990258789
 10
0.7856132813
 20
55.1990258789
 10
0.7141884766
 20
55.2704506836
 10
0.7141884766
 20
55.3418808594
 10
0.7856132813
 20
55.4847412109
 10
0.857043457
 20
55.5561660156
 10
0.9284736328
 20
55.5561660156
  0
LWPOLYLINE
  5
262
100
AcDbEntity
  8
RACCORDO
100
AcDbPolyline
 62
250
  6
CONTINUOUS
 90
19
 70
0
 10
-14.6844985732
 20
46.1856280591
 10
-14.7280613821
 20
46.1837131665
 10
-14.7712927803
 20
46.1780095939
 10
-14.8138638782
 20
46.168560732
 10
-14.8554508096
 20
46.1554384645
 10
-14.8957371955
 20
46.138742621
 10
-14.9344165508
 20
46.1186002179
 10
-14.9711946165
 20
46.0951644916
 10
-15.0057915976
 20
46.068613733
 10
-15.0379442925
 20
46.0391499311
 10
-15.0674080945
 20
46.0069972361
 10
-15.0939588532
 20
45.9724002549
 10
-15.1173945796
 20
45.9356221892
 10
-15.1375369827
 20
45.8969428339
 10
-15.1542328261
 20
45.8566564481
 10
-15.1673550936
 20
45.8150695168
 10
-15.1768039555
 20
45.7724984189
 10
-15.1825075282
 20
45.7292670206
 10
-15.1844224208
 20
45.6857042115
  0
LINE
  5
263
100
AcDbEntity
  8
RACCORDO
100
AcDbLine
 62
250
  6
CONTINUOUS
 10
-15.1844224208
 20
45.6857042115
 11
15.1127941931
 21
45.6857042115
  0
LINE
  5
264
100
AcDbEntity
  8
RACCORDO
100
AcDbLine
 62
250
  6
CONTINUOUS
 10
14.6128703456
 20
46.1856280591
 11
-14.6844985732
 21
46.1856280591
  0
LINE
  5
265
100
AcDbEntity
  8
0
100
AcDbLine
 62
7
  6
CONTINUOUS
 10
14.7107710256
 20
46.2835287391
 11
-14.7823992533
 21
46.2835287391
  0
LWPOLYLINE
  5
266
100
AcDbEntity
  8
0
100
AcDbPolyline
 62
7
  6
CONTINUOUS
 90
6
 70
0
 43
0.3500000019
 10
-4.2143862305
 20
55.0561655273
 10
-3.1429550781
 20
55.0561655273
 10
-2.9286699219
 20
55.2704506836
 10
-2.9286699219
 20
56.3418818359
 10
-3.3572402344
 20
56.7704521484
 10
-3.785815918
 20
56.7704521484
  0
LWPOLYLINE
  5
267
100
AcDbEntity
  8
0
100
AcDbPolyline
 62
7
  6
CONTINUOUS
 90
8
 70
0
 43
0.3500000019
 10
1.9998994141
 20
55.0561655273
 10
2.8570454102
 20
55.0561655273
 10
3.2856157227
 20
55.4847412109
 10
3.2856157227
 20
56.3418818359
 10
2.8570454102
 20
56.7704521484
 10
1.9998994141
 20
56.7704521484
 10
1.9998994141
 20
58.056168457
 10
3.2856157227
 20
58.056168457
  0
LWPOLYLINE
  5
268
100
AcDbEntity
  8
0
100
AcDbPolyline
 62
7
  6
CONTINUOUS
 90
3
 70
0
 43
0.3500000019
 10
-46.5179047852
 20
67.2381230469
 10
-45.6607614746
 20
68.0952636719
 10
-45.6607614746
 20
65.0952661133
  0
LINE
  5
269
100
AcDbEntity
  8
RACCORDO
100
AcDbLine
 62
250
  6
CONTINUOUS
 10
-47.8464763639
 20
-41.1116647073
 11
-47.3552025672
 21
-41.1116647073
  0
LINE
  5
26A
100
AcDbEntity
  8
0
100
AcDbLine
 62
7
  6
CONTINUOUS
 10
-47.3552025672
 20
-41.6115885548
 11
-41.7464763639
 21
-41.7094892349
  0
LINE
  5
26B
100
AcDbEntity
  8
RACCORDO
100
AcDbLine
 62
7
  6
CONTINUOUS
 10
-41.7464763639
 20
-41.4594892349
 11
-41.5464763639
 21
-41.4629802479
  0
LINE
  5
26C
100
AcDbEntity
  8
0
100
AcDbLine
 62
250
  6
CONTINUOUS
 10
-47.3552025672
 20
-41.1116647073
 11
-41.7464763639
 21
-41.2095653873
  0
LINE
  5
26D
100
AcDbEntity
  8
RACCORDO
100
AcDbLine
 62
250
  6
CONTINUOUS
 10
-41.7464756995
 20
-41.2095273227
 11
-41.5464763639
 21
-41.2130183241
  0
LINE
  5
26E
100
AcDbEntity
  8
DRAFT
100
AcDbLine
 62
7
  6
CONTINUOUS
 10
-40.0464763639
 20
-37.7828005076
 11
-41.5464763639
 21
-37.7566179825
  0
LINE
  5
26F
100
AcDbEntity
  8
RACCORDO
100
AcDbLine
 62
7
  6
CONTINUOUS
 10
-41.5464763639
 20
-39.4105990936
 11
-40.0464763639
 21
-39.4629802479
  0
LINE
  5
270
100
AcDbEntity
  8
RACCORDO
100
AcDbLine
 62
250
  6
CONTINUOUS
 10
-41.5464763639
 20
-38.9109036801
 11
-40.0464763639
 21
-38.9632848344
  0
LWPOLYLINE
  5
271
100
AcDbEntity
  8
RACCORDO
100
AcDbPolyline
 62
250
  6
CONTINUOUS
 90
19
 70
0
 10
-39.6569467446
 20
-35.5041399009
 10
-39.6737267696
 20
-35.5054799423
 10
-39.6900760742
 20
-35.5081087022
 10
-39.7059946583
 20
-35.5120261806
 10
-39.7215687715
 20
-35.5172783878
 10
-39.7367121642
 20
-35.5238193135
 10
-39.7511660874
 20
-35.5315109262
 10
-39.7649111966
 20
-35.5403464168
 10
-39.7779668363
 20
-35.5503325944
 10
-39.7901322911
 20
-35.5613518552
 10
-39.80140651
 20
-35.5733621466
 10
-39.8117905442
 20
-35.5864055211
 10
-39.8210868312
 20
-35.6004905317
 10
-39.8293650687
 20
-35.6157264737
 10
-39.8365555591
 20
-35.6320040519
 10
-39.8422516475
 20
-35.6490039334
 10
-39.8463177821
 20
-35.6666196742
 10
-39.8488895147
 20
-35.6849577185
 10
-39.8499668452
 20
-35.7040180663
  0
LINE
  5
272
100
AcDbEntity
  8
RACCORDO
100
AcDbLine
 62
7
  6
CONTINUOUS
 10
-39.0498466665
 20
-35.5781771719
 11
-37.2394964646
 21
-35.5149583498
  0
LINE
  5
273
100
AcDbEntity
  8
RACCORDO
100
AcDbLine
 62
250
  6
CONTINUOUS
 10
-38.7604139727
 20
-35.4728322866
 11
-39.6569467446
 21
-35.5041399009
  0
LINE
  5
274
100
AcDbEntity
  8
RACCORDO
100
AcDbLine
 62
250
  6
CONTINUOUS
 10
-38.4424055769
 20
-35.3570866963
 11
-37.2394964646
 21
-35.3150801844
  0
LINE
  5
275
100
AcDbEntity
  8
RACCORDO
100
AcDbLine
 62
7
  6
CONTINUOUS
 10
-39.6604361626
 20
-35.3042617355
 11
-37.3360065149
 21
-35.2230908635
  0
LINE
  5
276
100
AcDbEntity
  8
RACCORDO
100
AcDbLine
 62
250
  6
CONTINUOUS
 10
-39.6604361626
 20
-34.804566322
 11
-37.3360065149
 21
-34.72339545
  0
LINE
  5
277
100
AcDbEntity
  8
RACCORDO
100
AcDbLine
 62
7
  6
CONTINUOUS
 10
-40.0464763639
 20
-34.4629802479
 11
-38.0053236311
 21
-34.3917016238
  0
LINE
  5
278
100
AcDbEntity
  8
RACCORDO
100
AcDbLine
 62
250
  6
CONTINUOUS
 10
-40.0464763639
 20
-35.7040180663
 11
-39.8499668452
 21
-35.7040180663
  0
LINE
  5
279
100
AcDbEntity
  8
RACCORDO
100
AcDbLine
 62
250
  6
CONTINUOUS
 10
-37.0464763639
 20
-35.3150801844
 11
-37.2394964646
 21
-35.3150801844
  0
LINE
  5
27A
100
AcDbEntity
  8
RACCORDO
100
AcDbLine
 62
250
  6
CONTINUOUS
 10
-40.0464763639
 20
-34.804566322
 11
-39.6604361626
 21
-34.804566322
  0
LINE
  5
27B
100
AcDbEntity
  8
RACCORDO
100
AcDbLine
 62
250
  6
CONTINUOUS
 10
-37.3360065149
 20
-34.72339545
 11
-37.0464763639
 21
-34.72339545
  0
LINE
  5
27C
100
AcDbEntity
  8
RACCORDO
100
AcDbLine
 62
250
  6
CONTINUOUS
 10
-37.0464763639
 20
-34.1108803113
 11
-37.2394964646
 21
-34.1108803113
  0
LINE
  5
27D
100
AcDbEntity
  8
RACCORDO
100
AcDbLine
 62
250
  6
CONTINUOUS
 10
-40.0464763639
 20
-34.0195988237
 11
-39.8534562633
 21
-34.0195988237
  0
LINE
  5
27E
100
AcDbEntity
  8
DRAFT
100
AcDbLine
 62
7
  6
CONTINUOUS
 10
-37.374933643
 20
-34.1345229688
 11
-37.8473174911
 21
-34.1180269614
  0
LINE
  5
27F
100
AcDbEntity
  8
RACCORDO
100
AcDbLine
 62
250
  6
CONTINUOUS
 10
-39.8534562633
 20
-34.0195988237
 11
-37.2394964646
 21
-34.1108803113
  0
LINE
  5
280
100
AcDbEntity
  8
RACCORDO
100
AcDbLine
 62
7
  6
CONTINUOUS
 10
-39.8534562633
 20
-33.8197206583
 11
-37.2394964646
 21
-33.9110021459
  0
LINE
  5
281
100
AcDbEntity
  8
DRAFT
100
AcDbLine
 62
7
  6
CONTINUOUS
 10
-37.8473174911
 20
-33.3079335344
 11
-37.374933643
 21
-33.2914375269
  0
LINE
  5
282
100
AcDbEntity
  8
DRAFT
100
AcDbLine
 62
7
  6
CONTINUOUS
 10
-40.0464763639
 20
-33.6431599882
 11
-41.5464763639
 21
-33.6693425132
  0
LINE
  5
283
100
AcDbEntity
  8
RACCORDO
100
AcDbLine
 62
7
  6
CONTINUOUS
 10
-40.8877501607
 20
-33.129916373
 11
-41.5464763639
 21
-33.1414144817
  0
LINE
  5
284
100
AcDbEntity
  8
RACCORDO
100
AcDbLine
 62
250
  6
CONTINUOUS
 10
-37.3360065149
 20
-32.7025650457
 11
-37.0464763639
 21
-32.7025650457
  0
LINE
  5
285
100
AcDbEntity
  8
RACCORDO
100
AcDbLine
 62
250
  6
CONTINUOUS
 10
-40.0464763639
 20
-32.6213941738
 11
-39.6604361626
 21
-32.6213941725
  0
LINE
  5
286
100
AcDbEntity
  8
DRAFT
100
AcDbLine
 62
7
  6
CONTINUOUS
 10
-40.0464763639
 20
-33.2426538582
 11
-41.5464763639
 21
-33.2164712609
  0
LINE
  5
287
100
AcDbEntity
  8
RACCORDO
100
AcDbLine
 62
7
  6
CONTINUOUS
 10
-40.0464763639
 20
-32.9629802479
 11
-38.0053236311
 21
-33.0342588719
  0
LINE
  5
288
100
AcDbEntity
  8
RACCORDO
100
AcDbLine
 62
250
  6
CONTINUOUS
 10
-37.3360065149
 20
-32.7025650457
 11
-39.6604361626
 21
-32.6213941738
  0
LINE
  5
289
100
AcDbEntity
  8
RACCORDO
100
AcDbLine
 62
7
  6
CONTINUOUS
 10
-37.3360065149
 20
-32.2028696322
 11
-39.6604361626
 21
-32.1216987603
  0
LINE
  5
28A
100
AcDbEntity
  8
DRAFT
100
AcDbLine
 62
7
  6
CONTINUOUS
 10
-40.0464763639
 20
-28.1833066375
 11
-41.5464763639
 21
-28.2094892349
  0
LINE
  5
28B
100
AcDbEntity
  8
RACCORDO
100
AcDbLine
 62
7
  6
CONTINUOUS
 10
-40.8877501607
 20
-28.2960441227
 11
-41.5464763639
 21
-28.2845460141
  0
LWPOLYLINE
  5
28C
100
AcDbEntity
  8
0
100
AcDbPolyline
 62
7
  6
CONTINUOUS
 90
3
 70
0
 43
0.3500000019
 10
-51.4603959961
 20
55.3462636719
 10
-51.5318234863
 20
55.1319785156
 10
-51.6746811523
 20
54.8462631836
  0
LWPOLYLINE
  5
28D
100
AcDbEntity
  8
RACCORDO
100
AcDbPolyline
 62
250
  6
CONTINUOUS
 90
12
 70
0
 10
-39.6604353791
 20
39.8783012124
 10
-39.6614501906
 20
39.8769525736
 10
-39.6623613836
 20
39.8728447299
 10
-39.6631749858
 20
39.8660080798
 10
-39.6639036607
 20
39.8564924008
 10
-39.6645447715
 20
39.8443550254
 10
-39.6650808359
 20
39.82965028
 10
-39.6655125396
 20
39.8124424095
 10
-39.6658463019
 20
39.7928349997
 10
-39.6660721554
 20
39.7709611844
 10
-39.6661885243
 20
39.7470006659
 10
-39.6660974481
 20
39.6930939677
  0
LWPOLYLINE
  5
28E
100
AcDbEntity
  8
RACCORDO
100
AcDbPolyline
 62
250
  6
CONTINUOUS
 90
14
 70
0
 10
-39.8534554813
 20
40.9302793144
 10
-39.8540468364
 20
40.929526867
 10
-39.8545678911
 20
40.9272615357
 10
-39.8550208605
 20
40.9235447859
 10
-39.8554090274
 20
40.9184680719
 10
-39.855731135
 20
40.9120990445
 10
-39.855983745
 20
40.9044330224
 10
-39.8561699311
 20
40.8954894525
 10
-39.8562905156
 20
40.8853540387
 10
-39.8563401723
 20
40.8740907289
 10
-39.856320662
 20
40.861845522
 10
-39.8562301639
 20
40.8486442419
 10
-39.8560608551
 20
40.8343358943
 10
-39.8554928269
 20
40.8024178952
  0
LWPOLYLINE
  5
28F
100
AcDbEntity
  8
RACCORDO
100
AcDbPolyline
 62
250
  6
CONTINUOUS
 90
13
 70
0
 10
-39.8534512356
 20
38.630279129
 10
-39.8540432132
 20
38.6295368734
 10
-39.8545648397
 20
38.6272804156
 10
-39.8550183426
 20
38.6235710604
 10
-39.8554070343
 20
38.6185000381
 10
-39.8557296534
 20
38.6121349636
 10
-39.8559827168
 20
38.6044714261
 10
-39.8561692889
 20
38.5955290757
 10
-39.8562902065
 20
38.5853935611
 10
-39.8563401288
 20
38.5741288148
 10
-39.8563208098
 20
38.5618807206
 10
-39.8562304423
 20
38.5486753597
 10
-39.8558138411
 20
38.5188856225
  0
LINE
  5
290
100
AcDbEntity
  8
RACCORDO
100
AcDbLine
 62
7
  6
CONTINUOUS
 10
-37.374933643
 20
38.7085624731
 11
-37.1343443296
 21
38.9491517865
  0
LINE
  5
291
100
AcDbEntity
  8
DRAFT
100
AcDbLine
 62
7
  6
CONTINUOUS
 10
-40.0464763639
 20
-21.7828005076
 11
-41.5464763639
 21
-21.7566179825
  0
LWPOLYLINE
  5
292
100
AcDbEntity
  8
0
100
AcDbPolyline
 62
7
  6
CONTINUOUS
 90
3
 70
0
 43
0.3500000019
 10
-41.7321904297
 20
65.3809814453
 10
-41.8036179199
 20
65.166690918
 10
-41.9464755859
 20
64.880980957
  0
LINE
  5
293
100
AcDbEntity
  8
RACCORDO
100
AcDbLine
 62
7
  6
CONTINUOUS
 10
-37.374933643
 20
-34.1345229688
 11
-37.1343443296
 21
-34.3751122822
  0
LWPOLYLINE
  5
294
100
AcDbEntity
  8
RACCORDO
100
AcDbPolyline
 62
250
  6
CONTINUOUS
 90
8
 70
0
 10
-47.3552025672
 20
-41.6115885548
 10
-47.3559295342
 20
-41.6096736623
 10
-47.3565845849
 20
-41.6039700896
 10
-47.3571627357
 20
-41.5945212277
 10
-47.3576595882
 20
-41.5813989602
 10
-47.3580713627
 20
-41.5647031168
 10
-47.3583949264
 20
-41.5445607136
 10
-47.3586278178
 20
-41.5211249873
  0
LINE
  5
295
100
AcDbEntity
  8
DRAFT
100
AcDbLine
 62
7
  6
CONTINUOUS
 10
-40.0464763639
 20
-17.6431599882
 11
-41.5464763639
 21
-17.6693425132
  0
LWPOLYLINE
  5
296
100
AcDbEntity
  8
0
100
AcDbPolyline
 62
7
  6
CONTINUOUS
 90
4
 70
0
 43
0.3500000019
 10
-54.5318237305
 20
57.4176904297
 10
-54.5318237305
 20
58.0605458984
 10
-53.0318236084
 20
58.0605458984
 10
-53.8889669189
 20
55.0605483398
  0
LINE
  5
297
100
AcDbEntity
  8
DRAFT
100
AcDbLine
 62
7
  6
CONTINUOUS
 10
-37.8473174911
 20
37.8819730386
 11
-38.0053236311
 21
37.6082983762
  0
LWPOLYLINE
  5
298
100
AcDbEntity
  8
RACCORDO
100
AcDbPolyline
 62
250
  6
CONTINUOUS
 90
12
 70
0
 10
-37.2394964646
 20
-33.9110021459
 10
-37.2388064975
 20
-33.9121208222
 10
-37.2382004322
 20
-33.9154137591
 10
-37.2376848987
 20
-33.9208449348
 10
-37.2372655363
 20
-33.9283549356
 10
-37.2369469326
 20
-33.9378616093
 10
-37.2367325727
 20
-33.9492609663
 10
-37.2366248018
 20
-33.9624283013
 10
-37.2366247986
 20
-33.9772195832
 10
-37.2367325638
 20
-33.9934730486
 10
-37.2369469199
 20
-34.01101094
 10
-37.2372655226
 20
-34.0296413872
  0
LINE
  5
299
100
AcDbEntity
  8
DRAFT
100
AcDbLine
 62
7
  6
CONTINUOUS
 10
-38.0053236311
 20
-33.0342588719
 11
-37.8473174911
 21
-33.3079335344
  0
LWPOLYLINE
  5
29A
100
AcDbEntity
  8
RACCORDO
100
AcDbPolyline
 62
250
  6
CONTINUOUS
 90
11
 70
0
 10
-37.3360065149
 20
36.7769091365
 10
-37.3351454337
 20
36.7788141205
 10
-37.3343687603
 20
36.7844082607
 10
-37.3336835202
 20
36.7935852551
 10
-37.3330981828
 20
36.80618545
 10
-37.3326134922
 20
36.8220713476
 10
-37.3322257784
 20
36.8411967201
 10
-37.33193967
 20
36.8634380118
 10
-37.3317587761
 20
36.8886285964
 10
-37.331681444
 20
36.9167239862
 10
-37.3318493699
 20
36.9808106235
  0
LINE
  5
29B
100
AcDbEntity
  8
RACCORDO
100
AcDbLine
 62
7
  6
CONTINUOUS
 10
-40.8877501607
 20
-10.129916373
 11
-41.5464763639
 21
-10.1414144817
  0
LINE
  5
29C
100
AcDbEntity
  8
DRAFT
100
AcDbLine
 62
7
  6
CONTINUOUS
 10
-40.0464763639
 20
-10.2426538582
 11
-41.5464763639
 21
-10.2164712609
  0
LWPOLYLINE
  5
29D
100
AcDbEntity
  8
0
100
AcDbPolyline
 62
7
  6
CONTINUOUS
 90
4
 70
0
 43
0.3500000019
 10
-50.4603950195
 20
55.4891186523
 10
-50.4603950195
 20
56.3462646484
 10
-50.0318233643
 20
56.7748349609
 10
-49.3889665527
 20
56.7748349609
  0
LINE
  5
29E
100
AcDbEntity
  8
RACCORDO
100
AcDbLine
 62
250
  6
CONTINUOUS
 10
-47.3552025672
 20
45.6857042115
 11
-47.3571627357
 21
45.8150695165
  0
LINE
  5
29F
100
AcDbEntity
  8
RACCORDO
100
AcDbLine
 62
250
  6
CONTINUOUS
 10
-47.3571627357
 20
45.8150695165
 11
-47.3583949264
 21
45.9356221891
  0
LINE
  5
2A0
100
AcDbEntity
  8
RACCORDO
100
AcDbLine
 62
250
  6
CONTINUOUS
 10
-47.3583949264
 20
45.9356221891
 11
-47.3587682651
 21
46.0069972359
  0
LINE
  5
2A1
100
AcDbEntity
  8
RACCORDO
100
AcDbLine
 62
250
  6
CONTINUOUS
 10
-47.3586278178
 20
-41.5211249873
 11
-47.3588151999
 21
-41.4651104268
  0
LINE
  5
2A2
100
AcDbEntity
  8
RACCORDO
100
AcDbLine
 62
7
  6
CONTINUOUS
 10
-47.8464763639
 20
-41.1116647073
 11
-47.8464763639
 21
45.6857042115
  0
LINE
  5
2A3
100
AcDbEntity
  8
RACCORDO
100
AcDbLine
 62
250
  6
CONTINUOUS
 10
-47.3552025672
 20
-41.1116647073
 11
-47.3552025672
 21
45.6857042115
  0
LWPOLYLINE
  5
2A4
100
AcDbEntity
  8
RACCORDO
100
AcDbPolyline
 62
250
  6
CONTINUOUS
 90
10
 70
0
 10
-47.3587682651
 20
46.0069972359
 10
-47.3587682651
 20
46.0686137328
 10
-47.3586278178
 20
46.0951644915
 10
-47.3583949264
 20
46.1186002179
 10
-47.3580713627
 20
46.138742621
 10
-47.3576595882
 20
46.1554384644
 10
-47.3571627357
 20
46.1685607319
 10
-47.3565845849
 20
46.1780095938
 10
-47.3559295342
 20
46.1837131665
 10
-47.3552025672
 20
46.1856280591
  0
LINE
  5
2A5
100
AcDbEntity
  8
RACCORDO
100
AcDbLine
 62
250
  6
CONTINUOUS
 10
-47.3588151999
 20
-41.4651104268
 11
-47.3586278178
 21
-41.3983607506
  0
LINE
  5
2A6
100
AcDbEntity
  8
RACCORDO
100
AcDbLine
 62
250
  6
CONTINUOUS
 10
-47.3586278178
 20
-41.3983607506
 11
-47.3576595882
 21
-41.2826169438
  0
LWPOLYLINE
  5
2A7
100
AcDbEntity
  8
RACCORDO
100
AcDbPolyline
 62
250
  6
CONTINUOUS
 90
3
 70
0
 10
-47.3576595882
 20
-41.2826169438
 10
-47.3559295342
 20
-41.1552275164
 10
-47.3552025672
 20
-41.1116647073
  0
LINE
  5
2A8
100
AcDbEntity
  8
DRAFT
100
AcDbLine
 62
7
  6
CONTINUOUS
 10
-40.0464763639
 20
-5.1833066375
 11
-41.5464763639
 21
-5.2094892349
  0
LINE
  5
2A9
100
AcDbEntity
  8
RACCORDO
100
AcDbLine
 62
7
  6
CONTINUOUS
 10
-40.8877501607
 20
-5.2960441227
 11
-41.5464763639
 21
-5.2845460141
  0
LINE
  5
2AA
100
AcDbEntity
  8
DRAFT
100
AcDbLine
 62
7
  6
CONTINUOUS
 10
-40.0464763639
 20
-4.7828005076
 11
-41.5464763639
 21
-4.7566179825
  0
LWPOLYLINE
  5
2AB
100
AcDbEntity
  8
0
100
AcDbPolyline
 62
7
  6
CONTINUOUS
 90
13
 70
0
 43
0.3500000019
 10
-44.8036181641
 20
65.9524067383
 10
-44.8036181641
 20
67.2381230469
 10
-44.5893330078
 20
67.6666933594
 10
-44.1607626953
 20
68.0952636719
 10
-43.9464775391
 20
68.0952636719
 10
-43.517904541
 20
67.6666933594
 10
-43.3036193848
 20
67.2381230469
 10
-43.3036193848
 20
65.9524067383
 10
-43.517904541
 20
65.5238364258
 10
-43.9464775391
 20
65.0952661133
 10
-44.1607626953
 20
65.0952661133
 10
-44.5893330078
 20
65.5238364258
 10
-44.8036181641
 20
65.9524067383
  0
LINE
  5
2AC
100
AcDbEntity
  8
DRAFT
100
AcDbLine
 62
7
  6
CONTINUOUS
 10
-40.0464763639
 20
-0.6431599882
 11
-41.5464763639
 21
-0.6693425132
  0
LINE
  5
2AD
100
AcDbEntity
  8
RACCORDO
100
AcDbLine
 62
250
  6
CONTINUOUS
 10
-39.6586331466
 20
-35.4524284414
 11
-39.6569467446
 21
-35.5041399009
  0
LINE
  5
2AE
100
AcDbEntity
  8
RACCORDO
100
AcDbLine
 62
250
  6
CONTINUOUS
 10
-39.8546284363
 20
-33.9826097884
 11
-39.8534552559
 21
-34.0195988589
  0
LINE
  5
2AF
100
AcDbEntity
  8
RACCORDO
100
AcDbLine
 62
250
  6
CONTINUOUS
 10
-39.6599670585
 20
-35.4042376565
 11
-39.6586331466
 21
-35.4524284414
  0
LINE
  5
2B0
100
AcDbEntity
  8
RACCORDO
100
AcDbLine
 62
250
  6
CONTINUOUS
 10
-39.662388483
 20
-32.5462087065
 11
-39.6604352873
 21
-32.6213942044
  0
LINE
  5
2B1
100
AcDbEntity
  8
RACCORDO
100
AcDbLine
 62
250
  6
CONTINUOUS
 10
-39.8554928269
 20
-33.9475821048
 11
-39.8546284363
 21
-33.9826097884
  0
LINE
  5
2B2
100
AcDbEntity
  8
RACCORDO
100
AcDbLine
 62
250
  6
CONTINUOUS
 10
-39.8558138411
 20
38.5188856225
 11
-39.8550986626
 21
38.4852167901
  0
LINE
  5
2B3
100
AcDbEntity
  8
RACCORDO
100
AcDbLine
 62
250
  6
CONTINUOUS
 10
-39.6645991291
 20
-32.4362702906
 11
-39.662388483
 21
-32.5462087065
  0
LINE
  5
2B4
100
AcDbEntity
  8
RACCORDO
100
AcDbLine
 62
250
  6
CONTINUOUS
 10
-39.665567341
 20
-32.3683572507
 11
-39.6645991291
 21
-32.4362702906
  0
LINE
  5
2B5
100
AcDbEntity
  8
RACCORDO
100
AcDbLine
 62
250
  6
CONTINUOUS
 10
-39.665567341
 20
39.6316427493
 11
-39.6645991291
 21
39.5637297094
  0
LINE
  5
2B6
100
AcDbEntity
  8
RACCORDO
100
AcDbLine
 62
250
  6
CONTINUOUS
 10
-39.6660974481
 20
-32.3069060323
 11
-39.665567341
 21
-32.3683572507
  0
LINE
  5
2B7
100
AcDbEntity
  8
RACCORDO
100
AcDbLine
 62
250
  6
CONTINUOUS
 10
-39.6660974481
 20
39.6930939677
 11
-39.665567341
 21
39.6316427493
  0
LWPOLYLINE
  5
2B8
100
AcDbEntity
  8
RACCORDO
100
AcDbPolyline
 62
250
  6
CONTINUOUS
 90
11
 70
0
 10
-39.6661958019
 20
-35.1692847604
 10
-39.6660954443
 20
-35.1936105679
 10
-39.6658864647
 20
-35.2158229913
 10
-39.6655688451
 20
-35.235801116
 10
-39.6651439679
 20
-35.2534924863
 10
-39.6646049133
 20
-35.2688025316
 10
-39.663957744
 20
-35.2815244609
 10
-39.6632212064
 20
-35.2914770805
 10
-39.6623964887
 20
-35.2985938132
 10
-39.6614701234
 20
-35.3028623503
 10
-39.6604352808
 20
-35.3042617047
  0
LWPOLYLINE
  5
2B9
100
AcDbEntity
  8
RACCORDO
100
AcDbPolyline
 62
250
  6
CONTINUOUS
 90
11
 70
0
 10
-39.6661958019
 20
36.8307152396
 10
-39.6660954443
 20
36.8063894321
 10
-39.6658864647
 20
36.7841770087
 10
-39.6655688451
 20
36.764198884
 10
-39.6651439679
 20
36.7465075137
 10
-39.6646049133
 20
36.7311974684
 10
-39.663957744
 20
36.7184755391
 10
-39.6632212064
 20
36.7085229195
 10
-39.6623964887
 20
36.7014061868
 10
-39.6614701234
 20
36.6971376497
 10
-39.6604352808
 20
36.6957382953
  0
LINE
  5
2BA
100
AcDbEntity
  8
0
100
AcDbLine
 62
7
  6
CONTINUOUS
 10
-41.7464763639
 20
-41.7094892349
 11
-41.7464763639
 21
46.2835287391
  0
LINE
  5
2BB
100
AcDbEntity
  8
RACCORDO
100
AcDbLine
 62
7
  6
CONTINUOUS
 10
-41.5464763639
 20
-41.4629802479
 11
-41.5464763639
 21
46.0370197521
  0
LWPOLYLINE
  5
2BC
100
AcDbEntity
  8
0
100
AcDbPolyline
 62
7
  6
CONTINUOUS
 90
4
 70
0
 43
0.3500000019
 10
-40.7321894531
 20
65.5238364258
 10
-40.7321894531
 20
66.3809770508
 10
-40.3036191406
 20
66.8095527344
 10
-39.6607609863
 20
66.8095527344
  0
LINE
  5
2BD
100
AcDbEntity
  8
RACCORDO
100
AcDbLine
 62
7
  6
CONTINUOUS
 10
-40.3964763639
 20
-32.6299925254
 11
-40.3964763639
 21
-28.7959679703
  0
LINE
  5
2BE
100
AcDbEntity
  8
RACCORDO
100
AcDbLine
 62
7
  6
CONTINUOUS
 10
-40.3964763639
 20
-9.6299925254
 11
-40.3964763639
 21
-5.7959679703
  0
LINE
  5
2BF
100
AcDbEntity
  8
RACCORDO
100
AcDbLine
 62
7
  6
CONTINUOUS
 10
-40.3964763639
 20
10.3700074746
 11
-40.3964763639
 21
14.2040320297
  0
LINE
  5
2C0
100
AcDbEntity
  8
RACCORDO
100
AcDbLine
 62
7
  6
CONTINUOUS
 10
-40.3964763639
 20
33.3700074746
 11
-40.3964763639
 21
37.2040320297
  0
LINE
  5
2C1
100
AcDbEntity
  8
DRAFT
100
AcDbLine
 62
7
  6
CONTINUOUS
 10
-40.0464763639
 20
-37.7828005076
 11
-40.0464763639
 21
42.3568400118
  0
LINE
  5
2C2
100
AcDbEntity
  8
RACCORDO
100
AcDbLine
 62
7
  6
CONTINUOUS
 10
-40.0464763639
 20
-37.7828005076
 11
-40.0464763639
 21
-39.4629802479
  0
LINE
  5
2C3
100
AcDbEntity
  8
RACCORDO
100
AcDbLine
 62
7
  6
CONTINUOUS
 10
-40.0464763639
 20
42.3568400118
 11
-40.0464763639
 21
44.0370197521
  0
LINE
  5
2C4
100
AcDbEntity
  8
RACCORDO
100
AcDbLine
 62
250
  6
CONTINUOUS
 10
-39.8534562633
 20
40.7304011763
 11
-39.8534562633
 21
40.4434366051
  0
LINE
  5
2C5
100
AcDbEntity
  8
RACCORDO
100
AcDbLine
 62
250
  6
CONTINUOUS
 10
-39.8534562633
 20
39.0302793417
 11
-39.8534562633
 21
38.8301575071
  0
LINE
  5
2C6
100
AcDbEntity
  8
RACCORDO
100
AcDbLine
 62
250
  6
CONTINUOUS
 10
-39.8534562633
 20
38.4304011763
 11
-39.8534562633
 21
37.843638328
  0
LINE
  5
2C7
100
AcDbEntity
  8
RACCORDO
100
AcDbLine
 62
250
  6
CONTINUOUS
 10
-39.8534562633
 20
-34.0195988237
 11
-39.8534562633
 21
-34.4562398374
  0
LINE
  5
2C8
100
AcDbEntity
  8
RACCORDO
100
AcDbLine
 62
250
  6
CONTINUOUS
 10
-39.8499668452
 20
40.4434366051
 11
-39.8499668452
 21
40.2780575705
  0
LINE
  5
2C9
100
AcDbEntity
  8
RACCORDO
100
AcDbLine
 62
250
  6
CONTINUOUS
 10
-39.8499668452
 20
-35.7040180663
 11
-39.8499668452
 21
-35.8693971008
  0
LINE
  5
2CA
100
AcDbEntity
  8
RACCORDO
100
AcDbLine
 62
250
  6
CONTINUOUS
 10
-39.6604361626
 20
39.3786058262
 11
-39.6604361626
 21
39.0235389312
  0
LINE
  5
2CB
100
AcDbEntity
  8
RACCORDO
100
AcDbLine
 62
250
  6
CONTINUOUS
 10
-39.6604361626
 20
37.550500573
 11
-39.6604361626
 21
37.195433678
  0
LINE
  5
2CC
100
AcDbEntity
  8
RACCORDO
100
AcDbLine
 62
250
  6
CONTINUOUS
 10
-39.6604361626
 20
-32.6213941738
 11
-39.6604361626
 21
-32.9764610688
  0
LINE
  5
2CD
100
AcDbEntity
  8
RACCORDO
100
AcDbLine
 62
250
  6
CONTINUOUS
 10
-39.6604361626
 20
-34.449499427
 11
-39.6604361626
 21
-34.804566322
  0
LWPOLYLINE
  5
2CE
100
AcDbEntity
  8
RACCORDO
100
AcDbPolyline
 62
250
  6
CONTINUOUS
 90
11
 70
0
 10
-39.8562905156
 20
37.7171288634
 10
-39.8563401723
 20
37.7044625967
 10
-39.856320662
 20
37.6928460242
 10
-39.8562301639
 20
37.6822949169
 10
-39.8560608551
 20
37.6727417682
 10
-39.855813468
 20
37.6642637609
 10
-39.8554928269
 20
37.6570751637
 10
-39.8550983891
 20
37.6513396882
 10
-39.8546284363
 20
37.6471604214
 10
-39.8540815954
 20
37.6446092941
 10
-39.8534552559
 20
37.6437601977
  0
LINE
  5
2CF
100
AcDbEntity
  8
RACCORDO
100
AcDbLine
 62
250
  6
CONTINUOUS
 10
-39.6660739757
 20
36.8851554536
 11
-39.6661958019
 21
36.8307152396
  0
LINE
  5
2D0
100
AcDbEntity
  8
RACCORDO
100
AcDbLine
 62
250
  6
CONTINUOUS
 10
-39.6660739757
 20
-35.1148445464
 11
-39.6661958019
 21
-35.1692847604
  0
LINE
  5
2D1
100
AcDbEntity
  8
RACCORDO
100
AcDbLine
 62
250
  6
CONTINUOUS
 10
-39.6655164857
 20
36.9465778329
 11
-39.6660739757
 21
36.8851554536
  0
LINE
  5
2D2
100
AcDbEntity
  8
RACCORDO
100
AcDbLine
 62
250
  6
CONTINUOUS
 10
-39.6655164857
 20
-35.0534221671
 11
-39.6660739757
 21
-35.1148445464
  0
LINE
  5
2D3
100
AcDbEntity
  8
RACCORDO
100
AcDbLine
 62
250
  6
CONTINUOUS
 10
-39.855983745
 20
37.7450548111
 11
-39.8562905156
 21
37.7171288634
  0
LINE
  5
2D4
100
AcDbEntity
  8
RACCORDO
100
AcDbLine
 62
250
  6
CONTINUOUS
 10
-39.6645519064
 20
37.0134289492
 11
-39.6655164857
 21
36.9465778329
  0
LWPOLYLINE
  5
2D5
100
AcDbEntity
  8
RACCORDO
100
AcDbPolyline
 62
250
  6
CONTINUOUS
 90
12
 70
0
 10
-39.855687765
 20
38.748889643
 10
-39.8560063128
 20
38.7302538664
 10
-39.8562205304
 20
38.7127117903
 10
-39.8563280723
 20
38.6964554704
 10
-39.8563277613
 20
38.6816628655
 10
-39.8562196001
 20
38.6684958941
 10
-39.8560047718
 20
38.6570986998
 10
-39.8556856272
 20
38.6475960964
 10
-39.8552656609
 20
38.6400921524
 10
-39.8547494711
 20
38.6346690228
 10
-39.8541427087
 20
38.6313860689
 10
-39.8534520165
 20
38.6302792305
  0
LWPOLYLINE
  5
2D6
100
AcDbEntity
  8
RACCORDO
100
AcDbPolyline
 62
250
  6
CONTINUOUS
 90
3
 70
0
 10
-39.663912764
 20
-34.9515895378
 10
-39.6645519064
 20
-34.9865710508
 10
-39.6655164857
 20
-35.0534221671
  0
LINE
  5
2D7
100
AcDbEntity
  8
RACCORDO
100
AcDbLine
 62
250
  6
CONTINUOUS
 10
-39.8554090274
 20
37.7756614667
 11
-39.855983745
 21
37.7450548111
  0
LINE
  5
2D8
100
AcDbEntity
  8
RACCORDO
100
AcDbLine
 62
250
  6
CONTINUOUS
 10
-39.6623682515
 20
37.1208990625
 11
-39.6645519064
 21
37.0134289492
  0
LINE
  5
2D9
100
AcDbEntity
  8
RACCORDO
100
AcDbLine
 62
250
  6
CONTINUOUS
 10
-39.6608576877
 20
39.9368872218
 11
-39.6599671239
 21
39.97827545
  0
LINE
  5
2DA
100
AcDbEntity
  8
RACCORDO
100
AcDbLine
 62
250
  6
CONTINUOUS
 10
-39.8547527314
 20
38.7886165124
 11
-39.855687765
 21
38.748889643
  0
LINE
  5
2DB
100
AcDbEntity
  8
RACCORDO
100
AcDbLine
 62
250
  6
CONTINUOUS
 10
-39.8545678911
 20
37.808760005
 11
-39.8554090274
 21
37.7756614667
  0
LINE
  5
2DC
100
AcDbEntity
  8
RACCORDO
100
AcDbLine
 62
250
  6
CONTINUOUS
 10
-39.6604353737
 20
37.1954337056
 11
-39.6623682515
 21
37.1208990625
  0
LINE
  5
2DD
100
AcDbEntity
  8
RACCORDO
100
AcDbLine
 62
250
  6
CONTINUOUS
 10
-39.6599671239
 20
39.97827545
 11
-39.6586331979
 21
40.0264667189
  0
LINE
  5
2DE
100
AcDbEntity
  8
RACCORDO
100
AcDbLine
 62
250
  6
CONTINUOUS
 10
-39.8534562633
 20
38.8301575071
 11
-39.8547527314
 21
38.7886165124
  0
LINE
  5
2DF
100
AcDbEntity
  8
RACCORDO
100
AcDbLine
 62
250
  6
CONTINUOUS
 10
-39.8534554813
 20
37.8436383553
 11
-39.8545678911
 21
37.808760005
  0
LINE
  5
2E0
100
AcDbEntity
  8
RACCORDO
100
AcDbLine
 62
250
  6
CONTINUOUS
 10
-39.6586331979
 20
40.0264667189
 11
-39.6569467446
 21
40.0781794051
  0
LWPOLYLINE
  5
2E1
100
AcDbEntity
  8
RACCORDO
100
AcDbPolyline
 62
250
  6
CONTINUOUS
 90
19
 70
0
 10
-39.8499668452
 20
40.2780575705
 10
-39.8492286946
 20
40.2613234624
 10
-39.8471875866
 20
40.2449533183
 10
-39.8438435211
 20
40.2289471383
 10
-39.8391520634
 20
40.2132086729
 10
-39.8331576482
 20
40.1978341716
 10
-39.8259935798
 20
40.1831123826
 10
-39.8176744278
 20
40.1690778983
 10
-39.8081856225
 20
40.1556961263
 10
-39.7976167598
 20
40.1431520379
 10
-39.7859989112
 20
40.1314345276
 10
-39.7733010051
 20
40.1205547009
 10
-39.759519423
 20
40.1107308461
 10
-39.7445462455
 20
40.101895737
 10
-39.7284893919
 20
40.0941165997
 10
-39.7116690011
 20
40.0878134012
 10
-39.6941917861
 20
40.0831261304
 10
-39.675951034
 20
40.0799147984
 10
-39.6569467446
 20
40.0781794051
  0
LINE
  5
2E2
100
AcDbEntity
  8
RACCORDO
100
AcDbLine
 62
250
  6
CONTINUOUS
 10
-37.2394972476
 20
38.7388760468
 11
-37.2383844616
 21
38.7039853597
  0
LINE
  5
2E3
100
AcDbEntity
  8
RACCORDO
100
AcDbLine
 62
250
  6
CONTINUOUS
 10
-39.8546284363
 20
40.7673902116
 11
-39.8534552559
 21
40.7304011411
  0
LINE
  5
2E4
100
AcDbEntity
  8
RACCORDO
100
AcDbLine
 62
250
  6
CONTINUOUS
 10
-37.2394964646
 20
-35.3150801844
 11
-37.2382004322
 21
-35.3566053085
  0
LINE
  5
2E5
100
AcDbEntity
  8
RACCORDO
100
AcDbLine
 62
250
  6
CONTINUOUS
 10
-37.2394964646
 20
37.9349198156
 11
-37.2382004322
 21
37.8933946915
  0
LINE
  5
2E6
100
AcDbEntity
  8
RACCORDO
100
AcDbLine
 62
250
  6
CONTINUOUS
 10
-37.2394964646
 20
40.2349198156
 11
-37.2381999964
 21
40.1933788209
  0
LWPOLYLINE
  5
2E7
100
AcDbEntity
  8
RACCORDO
100
AcDbPolyline
 62
250
  6
CONTINUOUS
 90
3
 70
0
 10
-39.8550986626
 20
38.4852167901
 10
-39.8546286557
 20
38.4673968112
 10
-39.853455255
 20
38.4304011411
  0
LINE
  5
2E8
100
AcDbEntity
  8
RACCORDO
100
AcDbLine
 62
250
  6
CONTINUOUS
 10
-39.662388483
 20
39.4537912935
 11
-39.6604352873
 21
39.3786057956
  0
LINE
  5
2E9
100
AcDbEntity
  8
RACCORDO
100
AcDbLine
 62
250
  6
CONTINUOUS
 10
-37.2383844616
 20
38.7039853597
 11
-37.2375431434
 21
38.6708735292
  0
LINE
  5
2EA
100
AcDbEntity
  8
RACCORDO
100
AcDbLine
 62
250
  6
CONTINUOUS
 10
-39.8554928269
 20
40.8024178952
 11
-39.8546284363
 21
40.7673902116
  0
LWPOLYLINE
  5
2EB
100
AcDbEntity
  8
RACCORDO
100
AcDbPolyline
 62
250
  6
CONTINUOUS
 90
13
 70
0
 10
-37.2382004322
 20
-35.3566053085
 10
-37.2372655363
 20
-35.3963184013
 10
-37.2369469326
 20
-35.4149486914
 10
-37.2367325727
 20
-35.4324865125
 10
-37.2366248018
 20
-35.4487400043
 10
-37.2366247986
 20
-35.4635313765
 10
-37.2367325638
 20
-35.4766988499
 10
-37.2369469199
 20
-35.4880983869
 10
-37.2372655226
 20
-35.4976052447
 10
-37.2376848862
 20
-35.5051153889
 10
-37.2382004224
 20
-35.5105466603
 10
-37.2388064919
 20
-35.5138396545
 10
-37.2394964646
 20
-35.5149583498
  0
LWPOLYLINE
  5
2EC
100
AcDbEntity
  8
RACCORDO
100
AcDbPolyline
 62
250
  6
CONTINUOUS
 90
13
 70
0
 10
-37.2382004322
 20
37.8933946915
 10
-37.2372655363
 20
37.8536815987
 10
-37.2369469326
 20
37.8350513086
 10
-37.2367325727
 20
37.8175134875
 10
-37.2366248018
 20
37.8012599957
 10
-37.2366247986
 20
37.7864686235
 10
-37.2367325638
 20
37.7733011501
 10
-37.2369469199
 20
37.7619016131
 10
-37.2372655226
 20
37.7523947553
 10
-37.2376848862
 20
37.7448846111
 10
-37.2382004224
 20
37.7394533397
 10
-37.2388064919
 20
37.7361603455
 10
-37.2394964646
 20
37.7350416502
  0
LWPOLYLINE
  5
2ED
100
AcDbEntity
  8
RACCORDO
100
AcDbPolyline
 62
250
  6
CONTINUOUS
 90
13
 70
0
 10
-37.2381999964
 20
40.1933788209
 10
-37.2372649629
 20
40.1536519514
 10
-37.2369464151
 20
40.1350161749
 10
-37.2367321975
 20
40.1174740988
 10
-37.2366246556
 20
40.1012177789
 10
-37.2366249666
 20
40.086425174
 10
-37.2367331277
 20
40.0732582026
 10
-37.2369479561
 20
40.0618610083
 10
-37.2372671006
 20
40.0523584049
 10
-37.237687067
 20
40.0448544609
 10
-37.2382032568
 20
40.0394313313
 10
-37.2388100192
 20
40.0361483774
 10
-37.2395007114
 20
40.0350415389
  0
LINE
  5
2EE
100
AcDbEntity
  8
RACCORDO
100
AcDbLine
 62
250
  6
CONTINUOUS
 10
-39.6645991291
 20
39.5637297094
 11
-39.662388483
 21
39.4537912935
  0
LINE
  5
2EF
100
AcDbEntity
  8
RACCORDO
100
AcDbLine
 62
250
  6
CONTINUOUS
 10
-37.2375431434
 20
38.6708735292
 11
-37.23696841
 21
38.6402545809
  0
LINE
  5
2F0
100
AcDbEntity
  8
RACCORDO
100
AcDbLine
 62
250
  6
CONTINUOUS
 10
-37.3335425533
 20
-34.8603828807
 11
-37.3360065149
 21
-34.72339545
  0
LINE
  5
2F1
100
AcDbEntity
  8
RACCORDO
100
AcDbLine
 62
250
  6
CONTINUOUS
 10
-37.3335425533
 20
37.1396171193
 11
-37.3360065149
 21
37.27660455
  0
LINE
  5
2F2
100
AcDbEntity
  8
RACCORDO
100
AcDbLine
 62
250
  6
CONTINUOUS
 10
-37.3324601398
 20
-34.9444282599
 11
-37.3335425533
 21
-34.8603828807
  0
LINE
  5
2F3
100
AcDbEntity
  8
RACCORDO
100
AcDbLine
 62
250
  6
CONTINUOUS
 10
-37.3324601398
 20
37.0555717401
 11
-37.3335425533
 21
37.1396171193
  0
LWPOLYLINE
  5
2F4
100
AcDbEntity
  8
RACCORDO
100
AcDbPolyline
 62
250
  6
CONTINUOUS
 90
8
 70
0
 10
-37.3318478388
 20
-32.3002035045
 10
-37.3320952704
 20
-32.2759886538
 10
-37.3324586272
 20
-32.2546276665
 10
-37.3329416481
 20
-32.2365520541
 10
-37.3335421719
 20
-32.2221135491
 10
-37.3342561132
 20
-32.2115612412
 10
-37.3350797925
 20
-32.2050858396
 10
-37.3360065149
 20
-32.2028696322
  0
LWPOLYLINE
  5
2F5
100
AcDbEntity
  8
RACCORDO
100
AcDbPolyline
 62
250
  6
CONTINUOUS
 90
8
 70
0
 10
-37.3318478388
 20
39.6997964955
 10
-37.3320952704
 20
39.7240113462
 10
-37.3324586272
 20
39.7453723335
 10
-37.3329416481
 20
39.7634479459
 10
-37.3335421719
 20
39.7778864509
 10
-37.3342561132
 20
39.7884387588
 10
-37.3350797925
 20
39.7949141604
 10
-37.3360065149
 20
39.7971303678
  0
LWPOLYLINE
  5
2F6
100
AcDbEntity
  8
RACCORDO
100
AcDbPolyline
 62
250
  6
CONTINUOUS
 90
12
 70
0
 10
-37.23696841
 20
38.6402545809
 10
-37.2366619205
 20
38.612320792
 10
-37.2366125036
 20
38.5996522806
 10
-37.2366323273
 20
38.5880345184
 10
-37.2367232042
 20
38.5774835717
 10
-37.2368929331
 20
38.5679324099
 10
-37.237140813
 20
38.5594582865
 10
-37.2374620076
 20
38.5522753604
 10
-37.2378569825
 20
38.5465473176
 10
-37.2383274445
 20
38.542377012
 10
-37.2388748138
 20
38.5398360695
 10
-37.2395017177
 20
38.5389980746
  0
LINE
  5
2F7
100
AcDbEntity
  8
RACCORDO
100
AcDbLine
 62
250
  6
CONTINUOUS
 10
-37.3318493699
 20
-35.0191893765
 11
-37.3324601398
 21
-34.9444282599
  0
LINE
  5
2F8
100
AcDbEntity
  8
RACCORDO
100
AcDbLine
 62
250
  6
CONTINUOUS
 10
-37.3318493699
 20
36.9808106235
 11
-37.3324601398
 21
37.0555717401
  0
LINE
  5
2F9
100
AcDbEntity
  8
RACCORDO
100
AcDbLine
 62
250
  6
CONTINUOUS
 10
-37.3316817115
 20
-32.3564610009
 11
-37.3318478388
 21
-32.3002035045
  0
LINE
  5
2FA
100
AcDbEntity
  8
RACCORDO
100
AcDbLine
 62
250
  6
CONTINUOUS
 10
-37.3316817115
 20
39.6435389991
 11
-37.3318478388
 21
39.6997964955
  0
LINE
  5
2FB
100
AcDbEntity
  8
RACCORDO
100
AcDbLine
 62
250
  6
CONTINUOUS
 10
-37.3360065149
 20
-34.72339545
 11
-37.3360065149
 21
-34.1734500969
  0
LINE
  5
2FC
100
AcDbEntity
  8
RACCORDO
100
AcDbLine
 62
250
  6
CONTINUOUS
 10
-37.3360065149
 20
-33.2525103989
 11
-37.3360065149
 21
-32.7025650457
  0
LINE
  5
2FD
100
AcDbEntity
  8
RACCORDO
100
AcDbLine
 62
250
  6
CONTINUOUS
 10
-37.3360065149
 20
37.27660455
 11
-37.3360065149
 21
37.8265499031
  0
LINE
  5
2FE
100
AcDbEntity
  8
RACCORDO
100
AcDbLine
 62
250
  6
CONTINUOUS
 10
-37.3360065149
 20
38.7474896011
 11
-37.3360065149
 21
39.2974349543
  0
LINE
  5
2FF
100
AcDbEntity
  8
RACCORDO
100
AcDbLine
 62
250
  6
CONTINUOUS
 10
-37.2394964646
 20
40.6391196887
 11
-37.2394964646
 21
40.2349198156
  0
LINE
  5
300
100
AcDbEntity
  8
RACCORDO
100
AcDbLine
 62
250
  6
CONTINUOUS
 10
-37.2394964646
 20
39.8351634848
 11
-37.2394964646
 21
39.7772980819
  0
LINE
  5
301
100
AcDbEntity
  8
RACCORDO
100
AcDbLine
 62
250
  6
CONTINUOUS
 10
-37.2394964646
 20
38.8439996515
 11
-37.2394964646
 21
38.7388760195
  0
LINE
  5
302
100
AcDbEntity
  8
RACCORDO
100
AcDbLine
 62
250
  6
CONTINUOUS
 10
-37.2394964646
 20
38.3391196887
 11
-37.2394964646
 21
37.9349198156
  0
LINE
  5
303
100
AcDbEntity
  8
RACCORDO
100
AcDbLine
 62
250
  6
CONTINUOUS
 10
-37.2394964646
 20
-34.1108803113
 11
-37.2394964646
 21
-34.2699601472
  0
LINE
  5
304
100
AcDbEntity
  8
RACCORDO
100
AcDbLine
 62
250
  6
CONTINUOUS
 10
-37.2394964646
 20
-35.2032586219
 11
-37.2394964646
 21
-35.3150801844
  0
LINE
  5
305
100
AcDbEntity
  8
RACCORDO
100
AcDbLine
 62
7
  6
CONTINUOUS
 10
-37.0464763639
 20
-32.8387161792
 11
-37.0464763639
 21
-32.5026868803
  0
LINE
  5
306
100
AcDbEntity
  8
RACCORDO
100
AcDbLine
 62
7
  6
CONTINUOUS
 10
-37.0464763639
 20
-34.1108803113
 11
-37.0464763639
 21
-35.3150801844
  0
LINE
  5
307
100
AcDbEntity
  8
RACCORDO
100
AcDbLine
 62
7
  6
CONTINUOUS
 10
-37.0464763639
 20
37.0767263846
 11
-37.0464763639
 21
37.4127556834
  0
LINE
  5
308
100
AcDbEntity
  8
RACCORDO
100
AcDbLine
 62
7
  6
CONTINUOUS
 10
-37.0464763639
 20
37.9349198156
 11
-37.0464763639
 21
40.6391196887
  0
LINE
  5
309
100
AcDbEntity
  8
RACCORDO
100
AcDbLine
 62
250
  6
CONTINUOUS
 10
-37.3319421669
 20
39.5778657882
 11
-37.3316817115
 21
39.6435389991
  0
LINE
  5
30A
100
AcDbEntity
  8
RACCORDO
100
AcDbLine
 62
250
  6
CONTINUOUS
 10
-37.3319421669
 20
-32.4221342118
 11
-37.3316817115
 21
-32.3564610009
  0
LINE
  5
30B
100
AcDbEntity
  8
RACCORDO
100
AcDbLine
 62
250
  6
CONTINUOUS
 10
-37.3326176444
 20
39.5043482191
 11
-37.3319421669
 21
39.5778657882
  0
LINE
  5
30C
100
AcDbEntity
  8
RACCORDO
100
AcDbLine
 62
250
  6
CONTINUOUS
 10
-37.3326176444
 20
-32.4956517809
 11
-37.3319421669
 21
-32.4221342118
  0
LINE
  5
30D
100
AcDbEntity
  8
RACCORDO
100
AcDbLine
 62
250
  6
CONTINUOUS
 10
-37.2367222856
 20
39.9534376682
 11
-37.2371388867
 21
39.923647931
  0
LINE
  5
30E
100
AcDbEntity
  8
RACCORDO
100
AcDbLine
 62
250
  6
CONTINUOUS
 10
-37.3343747668
 20
39.3830073522
 11
-37.3326176444
 21
39.5043482191
  0
LINE
  5
30F
100
AcDbEntity
  8
RACCORDO
100
AcDbLine
 62
250
  6
CONTINUOUS
 10
-37.3343747668
 20
-32.6169926478
 11
-37.3326176444
 21
-32.4956517809
  0
LINE
  5
310
100
AcDbEntity
  8
RACCORDO
100
AcDbLine
 62
250
  6
CONTINUOUS
 10
-37.3360065149
 20
39.2974349543
 11
-37.3343747668
 21
39.3830073522
  0
LINE
  5
311
100
AcDbEntity
  8
RACCORDO
100
AcDbLine
 62
250
  6
CONTINUOUS
 10
-37.3360065149
 20
-32.7025650457
 11
-37.3343747668
 21
-32.6169926478
  0
LINE
  5
312
100
AcDbEntity
  8
RACCORDO
100
AcDbLine
 62
250
  6
CONTINUOUS
 10
-37.2371388867
 20
39.923647931
 11
-37.2378540652
 21
39.8899790986
  0
LINE
  5
313
100
AcDbEntity
  8
RACCORDO
100
AcDbLine
 62
250
  6
CONTINUOUS
 10
-37.2372655226
 20
40.7203586128
 11
-37.2382004224
 21
40.68064517
  0
LINE
  5
314
100
AcDbEntity
  8
RACCORDO
100
AcDbLine
 62
250
  6
CONTINUOUS
 10
-37.2372649492
 20
38.4203882606
 11
-37.2381999866
 21
38.3806610409
  0
LINE
  5
315
100
AcDbEntity
  8
RACCORDO
100
AcDbLine
 62
250
  6
CONTINUOUS
 10
-37.2372655226
 20
-34.0296413872
 11
-37.2382004224
 21
-34.06935483
  0
LWPOLYLINE
  5
316
100
AcDbEntity
  8
RACCORDO
100
AcDbPolyline
 62
250
  6
CONTINUOUS
 90
3
 70
0
 10
-39.6604353737
 20
-34.8045662944
 10
-39.6614539157
 20
-34.8419839516
 10
-39.663912764
 20
-34.9515895378
  0
LWPOLYLINE
  5
317
100
AcDbEntity
  8
RACCORDO
100
AcDbPolyline
 62
250
  6
CONTINUOUS
 90
3
 70
0
 10
-37.2378540652
 20
39.8899790986
 10
-37.2388710005
 20
39.8538376448
 10
-37.2394974729
 20
39.8351634495
  0
LINE
  5
318
100
AcDbEntity
  8
RACCORDO
100
AcDbLine
 62
250
  6
CONTINUOUS
 10
-37.2382004224
 20
40.68064517
 11
-37.2394964646
 21
40.6391196887
  0
LINE
  5
319
100
AcDbEntity
  8
RACCORDO
100
AcDbLine
 62
250
  6
CONTINUOUS
 10
-37.2381999866
 20
38.3806610409
 11
-37.2394964646
 21
38.3391196887
  0
LINE
  5
31A
100
AcDbEntity
  8
RACCORDO
100
AcDbLine
 62
250
  6
CONTINUOUS
 10
-37.2382004224
 20
-34.06935483
 11
-37.2394964646
 21
-34.1108803113
  0
LINE
  5
31B
100
AcDbEntity
  8
DRAFT
100
AcDbLine
 62
7
  6
CONTINUOUS
 10
-40.0464763639
 20
5.2171994924
 11
-41.5464763639
 21
5.2433820175
  0
LINE
  5
31C
100
AcDbEntity
  8
DRAFT
100
AcDbLine
 62
7
  6
CONTINUOUS
 10
-40.0464763639
 20
9.3568400118
 11
-41.5464763639
 21
9.3306574868
  0
LWPOLYLINE
  5
31D
100
AcDbEntity
  8
RACCORDO
100
AcDbPolyline
 62
250
  6
CONTINUOUS
 90
8
 70
0
 10
-39.6604361626
 20
-35.3042617355
 10
-39.6608313642
 20
-35.3059863565
 10
-39.6611004682
 20
-35.3110989405
 10
-39.6612388748
 20
-35.3195120409
 10
-39.6612442186
 20
-35.3310817875
 10
-39.6611164097
 20
-35.3456103334
 10
-39.6608576353
 20
-35.3628492256
 10
-39.6599670585
 20
-35.4042376565
  0
LINE
  5
31E
100
AcDbEntity
  8
RACCORDO
100
AcDbLine
 62
7
  6
CONTINUOUS
 10
-40.8877501607
 20
9.870083627
 11
-41.5464763639
 21
9.8585855183
  0
LINE
  5
31F
100
AcDbEntity
  8
DRAFT
100
AcDbLine
 62
7
  6
CONTINUOUS
 10
-40.0464763639
 20
9.7573461418
 11
-41.5464763639
 21
9.7835287391
  0
LWPOLYLINE
  5
320
100
AcDbEntity
  8
RACCORDO
100
AcDbPolyline
 62
250
  6
CONTINUOUS
 90
7
 70
0
 10
-39.6604361626
 20
39.8783012397
 10
-39.6608313648
 20
39.8800257856
 10
-39.6611004743
 20
39.8851381698
 10
-39.6612388902
 20
39.8935509857
 10
-39.6612442459
 20
39.9051203992
 10
-39.66111645
 20
39.9196486076
 10
-39.6608576877
 20
39.9368872218
  0
LINE
  5
321
100
AcDbEntity
  8
DRAFT
100
AcDbLine
 62
7
  6
CONTINUOUS
 10
-40.0464763639
 20
14.8166933625
 11
-41.5464763639
 21
14.7905107651
  0
LINE
  5
322
100
AcDbEntity
  8
RACCORDO
100
AcDbLine
 62
7
  6
CONTINUOUS
 10
-40.8877501607
 20
14.7039558773
 11
-41.5464763639
 21
14.7154539859
  0
LWPOLYLINE
  5
323
100
AcDbEntity
  8
0
100
AcDbPolyline
 62
7
  6
CONTINUOUS
 90
10
 70
0
 43
0.3500000019
 10
-51.5318234863
 20
55.5605488281
 10
-51.4603959961
 20
55.4176884766
 10
-51.4603959961
 20
55.3462636719
 10
-51.6032523193
 20
55.2034033203
 10
-51.6746811523
 20
55.2034033203
 10
-51.7461099854
 20
55.2748334961
 10
-51.7461099854
 20
55.3462636719
 10
-51.6746811523
 20
55.4891186523
 10
-51.6032523193
 20
55.5605488281
 10
-51.5318234863
 20
55.5605488281
  0
LWPOLYLINE
  5
324
100
AcDbEntity
  8
RACCORDO
100
AcDbPolyline
 62
250
  6
CONTINUOUS
 90
11
 70
0
 10
-37.3360065149
 20
-35.2230908635
 10
-37.3351454337
 20
-35.2211858795
 10
-37.3343687603
 20
-35.2155917393
 10
-37.3336835202
 20
-35.2064147449
 10
-37.3330981828
 20
-35.19381455
 10
-37.3326134922
 20
-35.1779286524
 10
-37.3322257784
 20
-35.1588032799
 10
-37.33193967
 20
-35.1365619882
 10
-37.3317587761
 20
-35.1113714036
 10
-37.331681444
 20
-35.0832760138
 10
-37.3318493699
 20
-35.0191893765
  0
LINE
  5
325
100
AcDbEntity
  8
DRAFT
100
AcDbLine
 62
7
  6
CONTINUOUS
 10
-37.8473174911
 20
-34.1180269614
 11
-38.0053236311
 21
-34.3917016238
  0
LWPOLYLINE
  5
326
100
AcDbEntity
  8
RACCORDO
100
AcDbPolyline
 62
250
  6
CONTINUOUS
 90
12
 70
0
 10
-39.6604353791
 20
-32.1216987876
 10
-39.6614501906
 20
-32.1230474264
 10
-39.6623613836
 20
-32.1271552701
 10
-39.6631749858
 20
-32.1339919202
 10
-39.6639036607
 20
-32.1435075992
 10
-39.6645447715
 20
-32.1556449746
 10
-39.6650808359
 20
-32.17034972
 10
-39.6655125396
 20
-32.1875575905
 10
-39.6658463019
 20
-32.2071650003
 10
-39.6660721554
 20
-32.2290388156
 10
-39.6661885243
 20
-32.2529993341
 10
-39.6660974481
 20
-32.3069060323
  0
LWPOLYLINE
  5
327
100
AcDbEntity
  8
RACCORDO
100
AcDbPolyline
 62
250
  6
CONTINUOUS
 90
14
 70
0
 10
-39.8534554813
 20
-33.8197206856
 10
-39.8540468364
 20
-33.820473133
 10
-39.8545678911
 20
-33.8227384643
 10
-39.8550208605
 20
-33.8264552141
 10
-39.8554090274
 20
-33.8315319281
 10
-39.855731135
 20
-33.8379009555
 10
-39.855983745
 20
-33.8455669776
 10
-39.8561699311
 20
-33.8545105475
 10
-39.8562905156
 20
-33.8646459613
 10
-39.8563401723
 20
-33.8759092711
 10
-39.856320662
 20
-33.888154478
 10
-39.8562301639
 20
-33.9013557581
 10
-39.8560608551
 20
-33.9156641057
 10
-39.8554928269
 20
-33.9475821048
  0
LINE
  5
328
100
AcDbEntity
  8
DRAFT
100
AcDbLine
 62
7
  6
CONTINUOUS
 10
-40.0464763639
 20
22.2171994924
 11
-41.5464763639
 21
22.2433820175
  0
LWPOLYLINE
  5
329
100
AcDbEntity
  8
RACCORDO
100
AcDbPolyline
 62
250
  6
CONTINUOUS
 90
12
 70
0
 10
-37.2395007114
 20
38.5389979653
 10
-37.2388100248
 20
38.5378911458
 10
-37.2382032666
 20
38.5346082492
 10
-37.2376870794
 20
38.5291852153
 10
-37.2372671143
 20
38.5216814148
 10
-37.2369479689
 20
38.5121789957
 10
-37.2367331367
 20
38.5007819814
 10
-37.2366249698
 20
38.4876151486
 10
-37.2366246524
 20
38.4728226342
 10
-37.2367321886
 20
38.4565663407
 10
-37.2369464023
 20
38.4390241943
 10
-37.2372649492
 20
38.4203882606
  0
LINE
  5
32A
100
AcDbEntity
  8
DRAFT
100
AcDbLine
 62
7
  6
CONTINUOUS
 10
-38.0053236311
 20
38.9657411281
 11
-37.8473174911
 21
38.6920664656
  0
LINE
  5
32B
100
AcDbEntity
  8
RACCORDO
100
AcDbLine
 62
7
  6
CONTINUOUS
 10
-37.374933643
 20
-33.2914375269
 11
-37.1343443296
 21
-33.0508482135
  0
LINE
  5
32C
100
AcDbEntity
  8
DRAFT
100
AcDbLine
 62
7
  6
CONTINUOUS
 10
-40.0464763639
 20
26.3568400118
 11
-41.5464763639
 21
26.3306574868
  0
LWPOLYLINE
  5
32D
100
AcDbEntity
  8
RACCORDO
100
AcDbPolyline
 62
250
  6
CONTINUOUS
 90
12
 70
0
 10
-37.2394964646
 20
40.8389978541
 10
-37.2388064975
 20
40.8378791778
 10
-37.2382004322
 20
40.8345862409
 10
-37.2376848987
 20
40.8291550652
 10
-37.2372655363
 20
40.8216450644
 10
-37.2369469326
 20
40.8121383907
 10
-37.2367325727
 20
40.8007390337
 10
-37.2366248018
 20
40.7875716987
 10
-37.2366247986
 20
40.7727804168
 10
-37.2367325638
 20
40.7565269514
 10
-37.2369469199
 20
40.73898906
 10
-37.2372655226
 20
40.7203586128
  0
LINE
  5
32E
100
AcDbEntity
  8
RACCORDO
100
AcDbLine
 62
7
  6
CONTINUOUS
 10
-37.1343443296
 20
37.6248877178
 11
-37.374933643
 21
37.8654770312
  0
LWPOLYLINE
  5
32F
100
AcDbEntity
  8
RACCORDO
100
AcDbPolyline
 62
250
  6
CONTINUOUS
 90
12
 70
0
 10
-37.2395014923
 20
40.0350414375
 10
-37.2389095147
 20
40.0342991819
 10
-37.2383878882
 20
40.0320427241
 10
-37.2379343853
 20
40.0283333689
 10
-37.2375456936
 20
40.0232623466
 10
-37.2372230744
 20
40.0168972721
 10
-37.236970011
 20
40.0092337346
 10
-37.236783439
 20
40.0002913841
 10
-37.2366625214
 20
39.9901558696
 10
-37.236612599
 20
39.9788911233
 10
-37.2366319181
 20
39.9666430291
 10
-37.2367222856
 20
39.9534376682
  0
LWPOLYLINE
  5
330
100
AcDbEntity
  8
0
100
AcDbPolyline
 62
7
  6
CONTINUOUS
 90
10
 70
0
 43
0.3500000019
 10
-41.8036179199
 20
65.5952666016
 10
-41.7321904297
 20
65.45240625
 10
-41.7321904297
 20
65.3809814453
 10
-41.8750480957
 20
65.2381210938
 10
-41.9464755859
 20
65.2381210938
 10
-42.0179057617
 20
65.3095512695
 10
-42.0179057617
 20
65.3809814453
 10
-41.9464755859
 20
65.5238364258
 10
-41.8750480957
 20
65.5952666016
 10
-41.8036179199
 20
65.5952666016
  0
LINE
  5
331
100
AcDbEntity
  8
RACCORDO
100
AcDbLine
 62
7
  6
CONTINUOUS
 10
-40.8877501607
 20
32.870083627
 11
-41.5464763639
 21
32.8585855183
  0
LINE
  5
332
100
AcDbEntity
  8
DRAFT
100
AcDbLine
 62
7
  6
CONTINUOUS
 10
-40.0464763639
 20
32.7573461418
 11
-41.5464763639
 21
32.7835287391
  0
LINE
  5
333
100
AcDbEntity
  8
RACCORDO
100
AcDbLine
 62
7
  6
CONTINUOUS
 10
-40.0464763639
 20
-35.9409207164
 11
-38.1526025645
 21
-35.2516070259
  0
LINE
  5
334
100
AcDbEntity
  8
RACCORDO
100
AcDbLine
 62
7
  6
CONTINUOUS
 10
-39.6604361626
 20
36.6957382645
 11
-37.3360065149
 21
36.7769091365
  0
LINE
  5
335
100
AcDbEntity
  8
RACCORDO
100
AcDbLine
 62
250
  6
CONTINUOUS
 10
-39.6604361626
 20
37.195433678
 11
-37.3360065149
 21
37.27660455
  0
LINE
  5
336
100
AcDbEntity
  8
RACCORDO
100
AcDbLine
 62
7
  6
CONTINUOUS
 10
-40.0464763639
 20
37.5370197521
 11
-38.0053236311
 21
37.6082983762
  0
LINE
  5
337
100
AcDbEntity
  8
RACCORDO
100
AcDbLine
 62
7
  6
CONTINUOUS
 10
-39.8534562633
 20
37.6437601626
 11
-37.9464006272
 21
37.7103560128
  0
LINE
  5
338
100
AcDbEntity
  8
RACCORDO
100
AcDbLine
 62
250
  6
CONTINUOUS
 10
-40.0464763639
 20
37.195433678
 11
-39.6604361626
 21
37.195433678
  0
LINE
  5
339
100
AcDbEntity
  8
RACCORDO
100
AcDbLine
 62
250
  6
CONTINUOUS
 10
-37.3360065149
 20
37.27660455
 11
-37.0464763639
 21
37.27660455
  0
LINE
  5
33A
100
AcDbEntity
  8
RACCORDO
100
AcDbLine
 62
250
  6
CONTINUOUS
 10
-39.8534562633
 20
37.843638328
 11
-37.2394964646
 21
37.9349198156
  0
LINE
  5
33B
100
AcDbEntity
  8
DRAFT
100
AcDbLine
 62
7
  6
CONTINUOUS
 10
-37.8473174911
 20
38.6920664656
 11
-37.374933643
 21
38.7085624731
  0
LINE
  5
33C
100
AcDbEntity
  8
RACCORDO
100
AcDbLine
 62
250
  6
CONTINUOUS
 10
-37.2394964646
 20
39.8351634848
 11
-37.832314475
 21
39.8144618237
  0
LINE
  5
33D
100
AcDbEntity
  8
RACCORDO
100
AcDbLine
 62
7
  6
CONTINUOUS
 10
-38.5976081263
 20
39.9876153088
 11
-37.2395014923
 21
40.0350414375
  0
LINE
  5
33E
100
AcDbEntity
  8
RACCORDO
100
AcDbLine
 62
250
  6
CONTINUOUS
 10
-39.0986928853
 20
40.1699952459
 11
-37.2394964646
 21
40.2349198156
  0
LINE
  5
33F
100
AcDbEntity
  8
DRAFT
100
AcDbLine
 62
7
  6
CONTINUOUS
 10
-40.0464763639
 20
37.8166933625
 11
-41.5464763639
 21
37.7905107651
  0
LINE
  5
340
100
AcDbEntity
  8
RACCORDO
100
AcDbLine
 62
250
  6
CONTINUOUS
 10
-40.0464763639
 20
37.843638328
 11
-39.8534562633
 21
37.843638328
  0
LINE
  5
341
100
AcDbEntity
  8
RACCORDO
100
AcDbLine
 62
250
  6
CONTINUOUS
 10
-37.0464763639
 20
37.9349198156
 11
-37.2394964646
 21
37.9349198156
  0
LINE
  5
342
100
AcDbEntity
  8
RACCORDO
100
AcDbLine
 62
250
  6
CONTINUOUS
 10
-37.0464763639
 20
38.3391196887
 11
-37.2394964646
 21
38.3391196887
  0
LINE
  5
343
100
AcDbEntity
  8
RACCORDO
100
AcDbLine
 62
250
  6
CONTINUOUS
 10
-40.0464763639
 20
38.4304011763
 11
-39.8534562633
 21
38.4304011763
  0
LINE
  5
344
100
AcDbEntity
  8
RACCORDO
100
AcDbLine
 62
250
  6
CONTINUOUS
 10
-37.0464763639
 20
38.7388760195
 11
-37.2394964646
 21
38.7388760195
  0
LINE
  5
345
100
AcDbEntity
  8
RACCORDO
100
AcDbLine
 62
250
  6
CONTINUOUS
 10
-40.0464763639
 20
38.8301575071
 11
-39.8534562633
 21
38.8301575071
  0
LINE
  5
346
100
AcDbEntity
  8
RACCORDO
100
AcDbLine
 62
250
  6
CONTINUOUS
 10
-37.3360065149
 20
39.2974349543
 11
-37.0464763639
 21
39.2974349543
  0
LINE
  5
347
100
AcDbEntity
  8
RACCORDO
100
AcDbLine
 62
250
  6
CONTINUOUS
 10
-40.0464763639
 20
39.3786058262
 11
-39.6604361626
 21
39.3786058275
  0
LINE
  5
348
100
AcDbEntity
  8
RACCORDO
100
AcDbLine
 62
250
  6
CONTINUOUS
 10
-37.0464763639
 20
39.8351634848
 11
-37.2394964646
 21
39.8351634848
  0
LINE
  5
349
100
AcDbEntity
  8
RACCORDO
100
AcDbLine
 62
250
  6
CONTINUOUS
 10
-37.0464763639
 20
40.2349198156
 11
-37.2394964646
 21
40.2349198156
  0
LINE
  5
34A
100
AcDbEntity
  8
RACCORDO
100
AcDbLine
 62
250
  6
CONTINUOUS
 10
-40.0464763639
 20
40.2780575705
 11
-39.8499668452
 21
40.2780575705
  0
LINE
  5
34B
100
AcDbEntity
  8
RACCORDO
100
AcDbLine
 62
250
  6
CONTINUOUS
 10
-37.0464763639
 20
40.6391196887
 11
-37.2394964646
 21
40.6391196887
  0
LINE
  5
34C
100
AcDbEntity
  8
RACCORDO
100
AcDbLine
 62
250
  6
CONTINUOUS
 10
-40.0464763639
 20
40.7304011763
 11
-39.8534562633
 21
40.7304011763
  0
LINE
  5
34D
100
AcDbEntity
  8
RACCORDO
100
AcDbLine
 62
7
  6
CONTINUOUS
 10
-40.8877501607
 20
37.7039558773
 11
-41.5464763639
 21
37.7154539859
  0
LINE
  5
34E
100
AcDbEntity
  8
DRAFT
100
AcDbLine
 62
7
  6
CONTINUOUS
 10
-40.0464763639
 20
38.2171994924
 11
-41.5464763639
 21
38.2433820175
  0
LINE
  5
34F
100
AcDbEntity
  8
DRAFT
100
AcDbLine
 62
7
  6
CONTINUOUS
 10
-37.374933643
 20
37.8654770312
 11
-37.8473174911
 21
37.8819730386
  0
LINE
  5
350
100
AcDbEntity
  8
RACCORDO
100
AcDbLine
 62
250
  6
CONTINUOUS
 10
-39.8534562633
 20
38.4304011763
 11
-37.2394964646
 21
38.3391196887
  0
LINE
  5
351
100
AcDbEntity
  8
RACCORDO
100
AcDbLine
 62
7
  6
CONTINUOUS
 10
-39.8534520165
 20
38.6302792305
 11
-37.2395017177
 21
38.5389980746
  0
LINE
  5
352
100
AcDbEntity
  8
RACCORDO
100
AcDbLine
 62
250
  6
CONTINUOUS
 10
-37.2394964646
 20
38.7388760195
 11
-37.3361893947
 21
38.742252611
  0
LINE
  5
353
100
AcDbEntity
  8
RACCORDO
100
AcDbLine
 62
250
  6
CONTINUOUS
 10
-37.8874058346
 20
38.7615015133
 11
-39.8534562633
 21
38.8301575071
  0
LINE
  5
354
100
AcDbEntity
  8
RACCORDO
100
AcDbLine
 62
7
  6
CONTINUOUS
 10
-40.0464763639
 20
39.0370197521
 11
-38.0053236311
 21
38.9657411281
  0
LINE
  5
355
100
AcDbEntity
  8
RACCORDO
100
AcDbLine
 62
250
  6
CONTINUOUS
 10
-37.3360065149
 20
39.2974349543
 11
-39.6604361626
 21
39.3786058262
  0
LINE
  5
356
100
AcDbEntity
  8
RACCORDO
100
AcDbLine
 62
7
  6
CONTINUOUS
 10
-37.3360065149
 20
39.7971303678
 11
-39.6604361626
 21
39.8783012397
  0
LINE
  5
357
100
AcDbEntity
  8
RACCORDO
100
AcDbLine
 62
250
  6
CONTINUOUS
 10
-39.6569467446
 20
40.0781794051
 11
-38.7604139727
 21
40.0468717909
  0
LINE
  5
358
100
AcDbEntity
  8
RACCORDO
100
AcDbLine
 62
250
  6
CONTINUOUS
 10
-39.8534562633
 20
40.7304011763
 11
-37.2394964646
 21
40.6391196887
  0
LINE
  5
359
100
AcDbEntity
  8
RACCORDO
100
AcDbLine
 62
7
  6
CONTINUOUS
 10
-40.0464763639
 20
40.5149602207
 11
-38.1526025645
 21
39.8256465302
  0
LINE
  5
35A
100
AcDbEntity
  8
RACCORDO
100
AcDbLine
 62
250
  6
CONTINUOUS
 10
-41.5464763639
 20
43.4849431844
 11
-40.0464763639
 21
43.5373243386
  0
LINE
  5
35B
100
AcDbEntity
  8
RACCORDO
100
AcDbLine
 62
7
  6
CONTINUOUS
 10
-41.5464763639
 20
43.9846385979
 11
-40.0464763639
 21
44.0370197521
  0
LINE
  5
35C
100
AcDbEntity
  8
DRAFT
100
AcDbLine
 62
7
  6
CONTINUOUS
 10
-40.0464763639
 20
42.3568400118
 11
-41.5464763639
 21
42.3306574868
  0
LINE
  5
35D
100
AcDbEntity
  8
RACCORDO
100
AcDbLine
 62
250
  6
CONTINUOUS
 10
-41.7464756995
 20
45.783566827
 11
-41.5464763639
 21
45.7870578283
  0
LINE
  5
35E
100
AcDbEntity
  8
0
100
AcDbLine
 62
250
  6
CONTINUOUS
 10
-47.3552025672
 20
45.6857042115
 11
-41.7464763639
 21
45.7836048916
  0
LINE
  5
35F
100
AcDbEntity
  8
RACCORDO
100
AcDbLine
 62
7
  6
CONTINUOUS
 10
-41.7464763639
 20
46.0335287391
 11
-41.5464763639
 21
46.0370197521
  0
LINE
  5
360
100
AcDbEntity
  8
0
100
AcDbLine
 62
7
  6
CONTINUOUS
 10
-47.3552025672
 20
46.1856280591
 11
-41.7464763639
 21
46.2835287391
  0
LINE
  5
361
100
AcDbEntity
  8
RACCORDO
100
AcDbLine
 62
250
  6
CONTINUOUS
 10
-47.8464763639
 20
45.6857042115
 11
-47.3552025672
 21
45.6857042115
  0
LINE
  5
362
100
AcDbEntity
  8
RACCORDO
100
AcDbLine
 62
7
  6
CONTINUOUS
 10
-39.8534562633
 20
40.9302793417
 11
-37.2394964646
 21
40.8389978541
  0
LWPOLYLINE
  5
363
100
AcDbEntity
  8
0
100
AcDbPolyline
 62
7
  6
CONTINUOUS
 90
13
 70
0
 43
0.3500000019
 10
-50.0318233643
 20
56.7748349609
 10
-50.3175386963
 20
56.9891201172
 10
-50.3175386963
 20
57.6319755859
 10
-50.0318233643
 20
58.0605458984
 10
-49.3889665527
 20
58.0605458984
 10
-49.1032525635
 20
57.6319755859
 10
-49.1032525635
 20
56.9891201172
 10
-49.3889665527
 20
56.7748349609
 10
-48.9603948975
 20
56.3462646484
 10
-48.9603948975
 20
55.4891186523
 10
-49.3889665527
 20
55.0605483398
 10
-50.0318233643
 20
55.0605483398
 10
-50.4603950195
 20
55.4891186523
  0
LWPOLYLINE
  5
364
100
AcDbEntity
  8
0
100
AcDbPolyline
 62
7
  6
CONTINUOUS
 90
13
 70
0
 43
0.3500000019
 10
-40.3036191406
 20
66.8095527344
 10
-40.5893344727
 20
67.0238378906
 10
-40.5893344727
 20
67.6666933594
 10
-40.3036191406
 20
68.0952636719
 10
-39.6607609863
 20
68.0952636719
 10
-39.3750483398
 20
67.6666933594
 10
-39.3750483398
 20
67.0238378906
 10
-39.6607609863
 20
66.8095527344
 10
-39.2321906738
 20
66.3809770508
 10
-39.2321906738
 20
65.5238364258
 10
-39.6607609863
 20
65.0952661133
 10
-40.3036191406
 20
65.0952661133
 10
-40.7321894531
 20
65.5238364258
  0
ARC
  5
365
100
AcDbEntity
  8
RACCORDO
100
AcDbCircle
 62
7
  6
CONTINUOUS
 10
-47.3464763639
 20
-41.1116647073
 40
0.5
100
AcDbArc
 50
180.0
 51
269.0
  0
ARC
  5
366
100
AcDbEntity
  8
RACCORDO
100
AcDbCircle
 62
7
  6
CONTINUOUS
 10
-47.3464763639
 20
45.6857042115
 40
0.5
100
AcDbArc
 50
91.0
 51
180.0
  0
ARC
  5
367
100
AcDbEntity
  8
RACCORDO
100
AcDbCircle
 62
7
  6
CONTINUOUS
 10
-40.8964763639
 20
-28.7959679703
 40
0.5
100
AcDbArc
 50
0.0
 51
89.0
  0
ARC
  5
368
100
AcDbEntity
  8
RACCORDO
100
AcDbCircle
 62
7
  6
CONTINUOUS
 10
-40.8964763639
 20
-32.6299925254
 40
0.5
100
AcDbArc
 50
271.0
 51
360.0
  0
ARC
  5
369
100
AcDbEntity
  8
RACCORDO
100
AcDbCircle
 62
7
  6
CONTINUOUS
 10
-40.8964763639
 20
-9.6299925254
 40
0.5
100
AcDbArc
 50
271.0
 51
360.0
  0
ARC
  5
36A
100
AcDbEntity
  8
RACCORDO
100
AcDbCircle
 62
7
  6
CONTINUOUS
 10
-40.8964763639
 20
-5.7959679703
 40
0.5
100
AcDbArc
 50
0.0
 51
89.0
  0
ARC
  5
36B
100
AcDbEntity
  8
RACCORDO
100
AcDbCircle
 62
7
  6
CONTINUOUS
 10
-39.6464763639
 20
-31.7219424295
 40
0.4
100
AcDbArc
 50
180.0
 51
268.0
  0
ARC
  5
36C
100
AcDbEntity
  8
RACCORDO
100
AcDbCircle
 62
7
  6
CONTINUOUS
 10
-39.6464763639
 20
-35.7040180663
 40
0.4
100
AcDbArc
 50
92.0000000001
 51
180.0
  0
ARC
  5
36D
100
AcDbEntity
  8
RACCORDO
100
AcDbCircle
 62
7
  6
CONTINUOUS
 10
-37.3464763639
 20
-34.5872443166
 40
0.3
100
AcDbArc
 50
0.0
 51
45.0
  0
ARC
  5
36E
100
AcDbEntity
  8
RACCORDO
100
AcDbCircle
 62
7
  6
CONTINUOUS
 10
-37.3464763639
 20
-34.9232736154
 40
0.3
100
AcDbArc
 50
272.0
 51
360.0
  0
ARC
  5
36F
100
AcDbEntity
  8
RACCORDO
100
AcDbCircle
 62
7
  6
CONTINUOUS
 10
-37.3464763639
 20
-32.8387161792
 40
0.3
100
AcDbArc
 50
315.0
 51
360.0
  0
ARC
  5
370
100
AcDbEntity
  8
RACCORDO
100
AcDbCircle
 62
7
  6
CONTINUOUS
 10
-37.3464763639
 20
-32.5026868803
 40
0.3
100
AcDbArc
 50
0.0000000001
 51
88.0
  0
ARC
  5
371
100
AcDbEntity
  8
RACCORDO
100
AcDbCircle
 62
7
  6
CONTINUOUS
 10
-37.2464763639
 20
-35.3150801844
 40
0.2
100
AcDbArc
 50
272.0
 51
360.0
  0
ARC
  5
372
100
AcDbEntity
  8
RACCORDO
100
AcDbCircle
 62
7
  6
CONTINUOUS
 10
-37.2464763639
 20
-34.1108803113
 40
0.2
100
AcDbArc
 50
0.0
 51
88.0
  0
ARC
  5
373
100
AcDbEntity
  8
RACCORDO
100
AcDbCircle
 62
7
  6
CONTINUOUS
 10
-39.8464763639
 20
-33.6198424929
 40
0.2
100
AcDbArc
 50
194.6666666667
 51
268.0
  0
ARC
  5
374
100
AcDbEntity
  8
RACCORDO
100
AcDbCircle
 62
7
  6
CONTINUOUS
 10
-40.8964763639
 20
33.3700074746
 40
0.5
100
AcDbArc
 50
271.0
 51
360.0
  0
ARC
  5
375
100
AcDbEntity
  8
RACCORDO
100
AcDbCircle
 62
7
  6
CONTINUOUS
 10
-40.8964763639
 20
37.2040320297
 40
0.5
100
AcDbArc
 50
0.0
 51
89.0
  0
ARC
  5
376
100
AcDbEntity
  8
RACCORDO
100
AcDbCircle
 62
7
  6
CONTINUOUS
 10
-40.8964763639
 20
10.3700074746
 40
0.5
100
AcDbArc
 50
271.0
 51
360.0
  0
ARC
  5
377
100
AcDbEntity
  8
RACCORDO
100
AcDbCircle
 62
7
  6
CONTINUOUS
 10
-40.8964763639
 20
14.2040320297
 40
0.5
100
AcDbArc
 50
0.0
 51
89.0
  0
ARC
  5
378
100
AcDbEntity
  8
RACCORDO
100
AcDbCircle
 62
7
  6
CONTINUOUS
 10
-39.6464763639
 20
36.2959819337
 40
0.4
100
AcDbArc
 50
92.0
 51
180.0
  0
ARC
  5
379
100
AcDbEntity
  8
RACCORDO
100
AcDbCircle
 62
7
  6
CONTINUOUS
 10
-39.6464763639
 20
40.2780575705
 40
0.4
100
AcDbArc
 50
180.0
 51
268.0
  0
ARC
  5
37A
100
AcDbEntity
  8
RACCORDO
100
AcDbCircle
 62
7
  6
CONTINUOUS
 10
-37.3464763639
 20
37.4127556834
 40
0.3
100
AcDbArc
 50
0.0
 51
45.0
  0
ARC
  5
37B
100
AcDbEntity
  8
RACCORDO
100
AcDbCircle
 62
7
  6
CONTINUOUS
 10
-37.3464763639
 20
37.0767263846
 40
0.3
100
AcDbArc
 50
272.0
 51
360.0
  0
ARC
  5
37C
100
AcDbEntity
  8
RACCORDO
100
AcDbCircle
 62
7
  6
CONTINUOUS
 10
-37.3464763639
 20
39.1612838208
 40
0.3
100
AcDbArc
 50
315.0
 51
360.0
  0
ARC
  5
37D
100
AcDbEntity
  8
RACCORDO
100
AcDbCircle
 62
7
  6
CONTINUOUS
 10
-37.3464763639
 20
39.4973131197
 40
0.3
100
AcDbArc
 50
0.0000000001
 51
88.0
  0
ARC
  5
37E
100
AcDbEntity
  8
RACCORDO
100
AcDbCircle
 62
7
  6
CONTINUOUS
 10
-37.2464763639
 20
38.3391197312
 40
0.2000000379
100
AcDbArc
 50
0.00060554
 51
88.001217004
  0
ARC
  5
37F
100
AcDbEntity
  8
RACCORDO
100
AcDbCircle
 62
7
  6
CONTINUOUS
 10
-37.2464763639
 20
40.2349197736
 40
0.2000000376
100
AcDbArc
 50
271.9987830021
 51
0.0000172806
  0
ARC
  5
380
100
AcDbEntity
  8
RACCORDO
100
AcDbCircle
 62
7
  6
CONTINUOUS
 10
-39.8464763639
 20
38.8301574651
 40
0.2000000376
100
AcDbArc
 50
180.0006053855
 51
268.0012169978
  0
ARC
  5
381
100
AcDbEntity
  8
RACCORDO
100
AcDbCircle
 62
7
  6
CONTINUOUS
 10
-37.2464763639
 20
37.9349198156
 40
0.2
100
AcDbArc
 50
272.0
 51
360.0
  0
ARC
  5
382
100
AcDbEntity
  8
RACCORDO
100
AcDbCircle
 62
7
  6
CONTINUOUS
 10
-37.2464763639
 20
40.6391196887
 40
0.2
100
AcDbArc
 50
0.0
 51
88.0
  0
ARC
  5
383
100
AcDbEntity
  8
RACCORDO
100
AcDbCircle
 62
7
  6
CONTINUOUS
 10
-39.8464763639
 20
41.1301575071
 40
0.2
100
AcDbArc
 50
179.9999999999
 51
268.0
  0
ARC
  5
384
100
AcDbEntity
  8
RACCORDO
100
AcDbCircle
 62
7
  6
CONTINUOUS
 10
-39.8464763639
 20
37.4438819972
 40
0.2
100
AcDbArc
 50
92.0
 51
143.3332199797
  0
ELLIPSE
  5
385
100
AcDbEntity
  8
0
100
AcDbEllipse
 62
7
  6
CONTINUOUS
 10
-14.7822469368
 20
45.7834525751
 30
0.0
 11
0.3536610946
 21
-0.3536610946
 31
0.0
 40
0.9996954599
 41
2.3563467834
 42
3.9268385237
  0
ELLIPSE
  5
386
100
AcDbEntity
  8
0
100
AcDbEllipse
 62
7
  6
CONTINUOUS
 10
14.7106187092
 20
45.7834525751
 30
0.0
 11
0.3536610946
 21
0.3536610946
 31
0.0
 40
0.9996954599
 41
-0.7852458701
 42
0.7852458701
  0
ELLIPSE
  5
387
100
AcDbEntity
  8
0
100
AcDbEllipse
 62
7
  6
CONTINUOUS
 10
14.7106187092
 20
-41.2094130709
 30
0.0
 11
0.3536610946
 21
-0.3536610946
 31
0.0
 40
0.9996954599
 41
-0.7852458701
 42
0.7852458701
  0
ELLIPSE
  5
388
100
AcDbEntity
  8
0
100
AcDbEllipse
 62
7
  6
CONTINUOUS
 10
-14.7822469368
 20
-41.2094130709
 30
0.0
 11
0.3536610946
 21
0.3536610946
 31
0.0
 40
0.9996954599
 41
2.3563467834
 42
3.9268385237
  0
ELLIPSE
  5
389
100
AcDbEntity
  8
DRAFT
100
AcDbEllipse
 62
7
  6
CONTINUOUS
 10
-75.8417929676
 20
31.2870197521
 30
0.0
 11
42.9543799244
 21
0.0
 31
0.0
 40
0.0349207695
 41
0.5856855435
 42
0.6461420562
  0
ELLIPSE
  5
38A
100
AcDbEntity
  8
DRAFT
100
AcDbEllipse
 62
7
  6
CONTINUOUS
 10
-75.8417929676
 20
-11.7129802479
 30
0.0
 11
42.9543799244
 21
0.0
 31
0.0
 40
0.0349207695
 41
-0.6461420562
 42
-0.5856855435
  0
ELLIPSE
  5
38B
100
AcDbEntity
  8
DRAFT
100
AcDbEllipse
 62
7
  6
CONTINUOUS
 10
-75.8417929676
 20
16.2870197521
 30
0.0
 11
42.9543799244
 21
0.0
 31
0.0
 40
0.0349207695
 41
0.5856855435
 42
0.6461420562
  0
ELLIPSE
  5
38C
100
AcDbEntity
  8
DRAFT
100
AcDbEllipse
 62
7
  6
CONTINUOUS
 10
-75.8417929676
 20
-26.7129802479
 30
0.0
 11
42.9543799244
 21
0.0
 31
0.0
 40
0.0349207695
 41
0.5856855435
 42
0.6461420562
  0
ELLIPSE
  5
38D
100
AcDbEntity
  8
DRAFT
100
AcDbEllipse
 62
7
  6
CONTINUOUS
 10
-75.8417929676
 20
31.2870197521
 30
0.0
 11
42.9543799244
 21
-0.0
 31
0.0
 40
0.0349207695
 41
-0.6461420562
 42
-0.5856855435
  0
ELLIPSE
  5
38E
100
AcDbEntity
  8
DRAFT
100
AcDbEllipse
 62
7
  6
CONTINUOUS
 10
-75.8417929676
 20
-11.7129802479
 30
0.0
 11
42.9543799244
 21
0.0
 31
0.0
 40
0.0349207695
 41
0.5856855435
 42
0.6461420562
  0
ELLIPSE
  5
38F
100
AcDbEntity
  8
DRAFT
100
AcDbEllipse
 62
7
  6
CONTINUOUS
 10
-75.8417929676
 20
-26.7129802479
 30
0.0
 11
42.9543799244
 21
-0.0
 31
0.0
 40
0.0349207695
 41
-0.6461420562
 42
-0.5856855435
  0
ELLIPSE
  5
390
100
AcDbEntity
  8
DRAFT
100
AcDbEllipse
 62
7
  6
CONTINUOUS
 10
-75.8417929676
 20
16.2870197521
 30
0.0
 11
42.9543799244
 21
-0.0
 31
0.0
 40
0.0349207695
 41
-0.6461420562
 42
-0.5856855435
  0
ENDSEC
  0
SECTION
  2
OBJECTS
  0
DICTIONARY
  5
C
100
AcDbDictionary
280
0
281
1
  3
ACAD_GROUP
350
D
  3
ACAD_MLINESTYLE
350
17
  3
ACAD_LAYOUT
350
1A
  3
ACAD_PLOTSETTINGS
350
19
  3
ACAD_PLOTSTYLENAME
350
E
  0
DICTIONARY
  5
D
102
{ACAD_REACTORS
330
C
102
}
100
AcDbDictionary
280
0
281
1
  0
ACDBDICTIONARYWDFLT
  5
E
102
{ACAD_REACTORS
330
C
102
}
100
AcDbDictionary
281
1
  3
Normal
350
F
100
AcDbDictionaryWithDefault
340
F
  0
DICTIONARY
  5
17
102
{ACAD_REACTORS
330
C
102
}
100
AcDbDictionary
280
0
281
1
  3
Standard
350
18
  0
DICTIONARY
  5
19
102
{ACAD_REACTORS
330
C
102
}
100
AcDbDictionary
281
1
  0
DICTIONARY
  5
1A
102
{ACAD_REACTORS
330
C
102
}
100
AcDbDictionary
281
1
  3
Model
350
391
  3
Layout1
350
392
  0
ACDBPLACEHOLDER
  5
F
102
{ACAD_REACTORS
330
E
102
}
  0
MLINESTYLE
  5
18
102
{ACAD_REACTORS
330
17
102
}
100
AcDbMlineStyle
  2
STANDARD
 70
0
  3

 62
256
 51
90.0
 52
90.0
 71
2
 49
0.5
 62
256
  6
BYLAYER
 49
-0.5
 62
256
  6
BYLAYER
  0
LAYOUT
  5
391
102
{ACAD_REACTORS
330
1A
102
}
100
AcDbPlotSettings
  1

  2
none_device
  4

  6

 40
0.0
 41
0.0
 42
0.0
 43
0.0
 44
210.0
 45
297.0
 46
0.0
 47
0.0
 48
0.0
 49
0.0
140
0.0
141
0.0
142
1.0
143
1.0
 70
1024
 72
1
 73
0
 74
0
  7

 75
0
147
1.0
148
0.0
149
0.0
100
AcDbLayout
  1
Model
 70
0
 71
0
 10
0.0
 20
0.0
 11
210.0
 21
297.0
 12
0.0
 22
0.0
 32
0.0
 14
0.0
 24
0.0
 34
0.0
 15
0.0
 25
0.0
 35
0.0
146
0.0
 13
0.0
 23
0.0
 33
0.0
 16
1.0
 26
0.0
 36
0.0
 17
0.0
 27
1.0
 37
0.0
 76
0
330
212
345
0
346
0
  0
LAYOUT
  5
392
102
{ACAD_REACTORS
330
1A
102
}
100
AcDbPlotSettings
  1

  2
none_device
  4

  6

 40
0.0
 41
0.0
 42
0.0
 43
0.0
 44
210.0
 45
297.0
 46
0.0
 47
0.0
 48
0.0
 49
0.0
140
0.0
141
0.0
142
1.0
143
1.0
 70
0
 72
1
 73
0
 74
0
  7

 75
0
147
1.0
148
0.0
149
0.0
100
AcDbLayout
  1
Layout1
 70
0
 71
1
 10
0.0
 20
0.0
 11
210.0
 21
297.0
 12
0.0
 22
0.0
 32
0.0
 14
0.0
 24
0.0
 34
0.0
 15
0.0
 25
0.0
 35
0.0
146
0.0
 13
0.0
 23
0.0
 33
0.0
 16
1.0
 26
0.0
 36
0.0
 17
0.0
 27
1.0
 37
0.0
 76
0
330
213
345
0
346
0
  0
ENDSEC
  0
EOF
