  0
SECTION
  2
HEADER
  9
$ACADVER
  1
AC1024
  9
$DWGCODEPAGE
  3
ANSI_1252
  9
$EXTMAX
 10
297.0
 20
210.0
 30
0.0
  9
$EXTMIN
 10
0.0
 20
0.0
 30
0.0
  9
$LIMMIN
 10
0.0
 20
0.0
  9
$LIMMAX
 10
297.0
 20
210.0
  9
$VIEWCTR
 10
148.5
 20
105.0
  9
$VIEWSIZE
 40
210.0
  9
$CLAYER
  8
0
  9
$LTSCALE
 40
16.335
  9
$CELTYPE
  6
BYLAYER
  9
$DIMSCALE
 40
1.0
  9
$DIMASZ
 40
3.0
  9
$DIMEXO
 40
0.5
  9
$DIMDLI
 40
11.286
  9
$DIMEXE
 40
1.5
  9
$DIMCEN
 40
2.673
  9
$DIMLFAC
 40
1.0
  9
$DIMBLK
  1
_FILLED
  9
$DIMALT
 70
0
  9
$DIMALTF
 40
0.0393700787
  9
$DIMTXT
 40
3.0
  9
$DIMTOL
 70
1
  9
$DIMLIM
 70
0
  9
$DIMTFAC
 40
1.0
  9
$DIMTP
 40
0.01
  9
$DIMTM
 40
0.01
  9
$DIMGAP
 40
0.625
  9
$DIMDSEP
 70
44
  9
$AUNITS
 70
0
  9
$PDMODE
 70
3
  9
$PDSIZE
 40
3.0
  9
$HANDSEED
  5
314
  9
$TILEMODE
 70
1
  9
$MEASUREMENT
 70
1
  9
$INSUNITS
 70
4
  0
ENDSEC
  0
SECTION
  2
CLASSES
  0
CLASS
  1
ACDBDICTIONARYWDFLT
  2
AcDbDictionaryWithDefault
  3
AutoCAD 2000
 90
0
 91
1
280
0
281
0
  0
CLASS
  1
ACDBPLACEHOLDER
  2
AcDbPlaceHolder
  3
AutoCAD 2000
 90
0
 91
1
280
0
281
0
  0
CLASS
  1
LAYOUT
  2
AcDbLayout
  3
AutoCAD 2000
 90
0
 91
0
280
0
281
0
  0
ENDSEC
  0
SECTION
  2
TABLES
  0
TABLE
  2
VPORT
  5
8
100
AcDbSymbolTable
 70
2
  0
VPORT
  5
1F4
100
AcDbSymbolTableRecord
100
AcDbViewportTableRecord
  2
*ACTIVE
 70
0
 10
0.0
 20
0.0
 11
1.0
 21
1.0
 12
148.5
 22
105.0
 13
0.0
 23
0.0
 14
1.0
 24
1.0
 15
0.0
 25
0.0
 16
0.0
 26
0.0
 36
1.0
 17
0.0
 27
0.0
 37
0.0
 40
210.0
 41
1.4142857143
 42
50.0
 43
0.0
 44
0.0
 50
0.0
 51
0.0
 71
0
 72
100
 73
1
 74
1
 75
0
 76
0
 77
0
 78
0
  0
ENDTAB
  0
TABLE
  2
LTYPE
  5
5
100
AcDbSymbolTable
 70
6
  0
LTYPE
  5
14
100
AcDbSymbolTableRecord
100
AcDbLinetypeTableRecord
  2
BYBLOCK
 70
0
  3

 72
65
 73
0
 40
0.0
  0
LTYPE
  5
15
100
AcDbSymbolTableRecord
100
AcDbLinetypeTableRecord
  2
BYLAYER
 70
0
  3

 72
65
 73
0
 40
0.0
  0
LTYPE
  5
16
100
AcDbSymbolTableRecord
100
AcDbLinetypeTableRecord
  2
CONTINUOUS
 70
64
  3
Solid line
 72
65
 73
0
 40
0.0
  0
LTYPE
  5
1F5
100
AcDbSymbolTableRecord
100
AcDbLinetypeTableRecord
  2
CENTER
 70
64
  3
____ _ ____ _ ____ _ ____ _ ____ _ ____ _ ____
 72
65
 73
4
 40
0.6
 49
0.375
 74
0
 49
-0.075
 74
0
 49
0.075
 74
0
 49
-0.075
 74
0
  0
LTYPE
  5
1F6
100
AcDbSymbolTableRecord
100
AcDbLinetypeTableRecord
  2
HIDDEN
 70
64
  3
- - - - - - - - - - - - - - - - - - - -
 72
65
 73
2
 40
0.2
 49
0.1
 74
0
 49
-0.1
 74
0
  0
LTYPE
  5
1F7
100
AcDbSymbolTableRecord
100
AcDbLinetypeTableRecord
  2
PHANTOM
 70
64
  3
_____ _ _ _____ _ _ _____ _ _ _____
 72
65
 73
6
 40
0.8
 49
0.45
 74
0
 49
-0.05
 74
0
 49
0.1
 74
0
 49
-0.05
 74
0
 49
0.1
 74
0
 49
-0.05
 74
0
  0
LTYPE
  5
1F8
100
AcDbSymbolTableRecord
100
AcDbLinetypeTableRecord
  2
DOT
 70
64
  3
. . . . . . . . . . . . . . . . . . . .
 72
65
 73
2
 40
0.2
 49
0.1
 74
0
 49
-0.1
 74
0
  0
LTYPE
  5
1F9
100
AcDbSymbolTableRecord
100
AcDbLinetypeTableRecord
  2
DASHED
 70
64
  3
- - - - - - - - - - - - - - - - - - - -
 72
65
 73
2
 40
0.2
 49
0.1
 74
0
 49
-0.1
 74
0
  0
ENDTAB
  0
TABLE
  2
LAYER
  5
2
100
AcDbSymbolTable
 70
36
  0
LAYER
  5
10
100
AcDbSymbolTableRecord
100
AcDbLayerTableRecord
  2
0
 70
0
 62
7
  6
CONTINUOUS
370
-3
390
F
  0
LAYER
  5
1FA
100
AcDbSymbolTableRecord
100
AcDbLayerTableRecord
  2
DEFAULT_1
 70
0
 62
7
  6
CENTER
370
-3
390
F
  0
LAYER
  5
1FB
100
AcDbSymbolTableRecord
100
AcDbLayerTableRecord
  2
DEFAULT_2
 70
0
 62
7
  6
HIDDEN
370
-3
390
F
  0
LAYER
  5
1FC
100
AcDbSymbolTableRecord
100
AcDbLayerTableRecord
  2
DEFAULT_3
 70
0
 62
7
  6
PHANTOM
370
-3
390
F
  0
LAYER
  5
1FD
100
AcDbSymbolTableRecord
100
AcDbLayerTableRecord
  2
ASSI
 70
0
 62
7
  6
CONTINUOUS
370
-3
390
F
  0
LAYER
  5
1FE
100
AcDbSymbolTableRecord
100
AcDbLayerTableRecord
  2
COORDINATE
 70
0
 62
7
  6
CONTINUOUS
370
-3
390
F
  0
LAYER
  5
1FF
100
AcDbSymbolTableRecord
100
AcDbLayerTableRecord
  2
COPY_PUBLISH
 70
0
 62
7
  6
CONTINUOUS
370
-3
390
F
  0
LAYER
  5
200
100
AcDbSymbolTableRecord
100
AcDbLayerTableRecord
  2
COSMETIC
 70
0
 62
7
  6
CONTINUOUS
370
-3
390
F
  0
LAYER
  5
201
100
AcDbSymbolTableRecord
100
AcDbLayerTableRecord
  2
COSMETICI
 70
0
 62
7
  6
CONTINUOUS
370
-3
390
F
  0
LAYER
  5
202
100
AcDbSymbolTableRecord
100
AcDbLayerTableRecord
  2
CURVE
 70
0
 62
7
  6
CONTINUOUS
370
-3
390
F
  0
LAYER
  5
203
100
AcDbSymbolTableRecord
100
AcDbLayerTableRecord
  2
DRAFT
 70
0
 62
7
  6
CONTINUOUS
370
-3
390
F
  0
LAYER
  5
204
100
AcDbSymbolTableRecord
100
AcDbLayerTableRecord
  2
IMPORT_IGES
 70
0
 62
7
  6
CONTINUOUS
370
-3
390
F
  0
LAYER
  5
205
100
AcDbSymbolTableRecord
100
AcDbLayerTableRecord
  2
INTFCLR_11
 70
0
 62
7
  6
CONTINUOUS
370
-3
390
F
  0
LAYER
  5
206
100
AcDbSymbolTableRecord
100
AcDbLayerTableRecord
  2
INTF_1
 70
0
 62
7
  6
CONTINUOUS
370
-3
390
F
  0
LAYER
  5
207
100
AcDbSymbolTableRecord
100
AcDbLayerTableRecord
  2
INTF_3
 70
0
 62
7
  6
CONTINUOUS
370
-3
390
F
  0
LAYER
  5
208
100
AcDbSymbolTableRecord
100
AcDbLayerTableRecord
  2
INTF_9
 70
0
 62
7
  6
CONTINUOUS
370
-3
390
F
  0
LAYER
  5
209
100
AcDbSymbolTableRecord
100
AcDbLayerTableRecord
  2
NOTE
 70
0
 62
7
  6
CONTINUOUS
370
-3
390
F
  0
LAYER
  5
20A
100
AcDbSymbolTableRecord
100
AcDbLayerTableRecord
  2
PIANI
 70
0
 62
7
  6
CONTINUOUS
370
-3
390
F
  0
LAYER
  5
20B
100
AcDbSymbolTableRecord
100
AcDbLayerTableRecord
  2
PIANI_RIFERIMENTO
 70
0
 62
7
  6
CONTINUOUS
370
-3
390
F
  0
LAYER
  5
20C
100
AcDbSymbolTableRecord
100
AcDbLayerTableRecord
  2
PUNTI
 70
0
 62
7
  6
CONTINUOUS
370
-3
390
F
  0
LAYER
  5
20D
100
AcDbSymbolTableRecord
100
AcDbLayerTableRecord
  2
RACCORDO
 70
0
 62
7
  6
CONTINUOUS
370
-3
390
F
  0
LAYER
  5
20E
100
AcDbSymbolTableRecord
100
AcDbLayerTableRecord
  2
SIMBOLI
 70
0
 62
7
  6
CONTINUOUS
370
-3
390
F
  0
LAYER
  5
20F
100
AcDbSymbolTableRecord
100
AcDbLayerTableRecord
  2
SMUSSO
 70
0
 62
7
  6
CONTINUOUS
370
-3
390
F
  0
LAYER
  5
210
100
AcDbSymbolTableRecord
100
AcDbLayerTableRecord
  2
SNAPLINE
 70
0
 62
7
  6
CONTINUOUS
370
-3
390
F
  0
LAYER
  5
211
100
AcDbSymbolTableRecord
100
AcDbLayerTableRecord
  2
SUPERFICI
 70
0
 62
7
  6
CONTINUOUS
370
-3
390
F
  0
LAYER
  5
212
100
AcDbSymbolTableRecord
100
AcDbLayerTableRecord
  2
TRASH
 70
0
 62
7
  6
CONTINUOUS
370
-3
390
F
  0
LAYER
  5
213
100
AcDbSymbolTableRecord
100
AcDbLayerTableRecord
  2
___SHELL
 70
0
 62
7
  6
CONTINUOUS
370
-3
390
F
  0
ENDTAB
  0
TABLE
  2
STYLE
  5
3
100
AcDbSymbolTable
 70
1
  0
STYLE
  5
11
100
AcDbSymbolTableRecord
100
AcDbTextStyleTableRecord
  2
STANDARD
 70
0
 40
0.0
 41
0.8
 50
0.0
 71
0
 42
0.2
  3
txt
  4

  0
STYLE
  5
214
100
AcDbSymbolTableRecord
100
AcDbTextStyleTableRecord
  2
TEXTSTYLE_1
 70
0
 40
0.0
 41
0.8
 50
0.0
 71
0
 42
0.2
  3
gdt
  4

  0
ENDTAB
  0
TABLE
  2
VIEW
  5
6
100
AcDbSymbolTable
 70
0
  0
ENDTAB
  0
TABLE
  2
UCS
  5
7
100
AcDbSymbolTable
 70
0
  0
ENDTAB
  0
TABLE
  2
APPID
  5
9
100
AcDbSymbolTable
 70
1
  0
APPID
  5
215
100
AcDbSymbolTableRecord
100
AcDbRegAppTableRecord
  2
ACAD
 70
0
  0
ENDTAB
  0
TABLE
  2
BLOCK_RECORD
  5
1
100
AcDbSymbolTable
 70
0
  0
BLOCK_RECORD
  5
216
100
AcDbSymbolTableRecord
100
AcDbBlockTableRecord
  2
*Model_Space
  0
BLOCK_RECORD
  5
217
100
AcDbSymbolTableRecord
100
AcDbBlockTableRecord
  2
*Paper_Space
  0
BLOCK_RECORD
  5
218
100
AcDbSymbolTableRecord
100
AcDbBlockTableRecord
  2
_FILLED
  0
BLOCK_RECORD
  5
219
100
AcDbSymbolTableRecord
100
AcDbBlockTableRecord
  2
*D0
  0
BLOCK_RECORD
  5
21A
100
AcDbSymbolTableRecord
100
AcDbBlockTableRecord
  2
*D1
  0
BLOCK_RECORD
  5
21B
100
AcDbSymbolTableRecord
100
AcDbBlockTableRecord
  2
*D2
  0
ENDTAB
  0
TABLE
  2
DIMSTYLE
  5
A
100
AcDbSymbolTable
 70
1
100
AcDbDimStyleTable
 71
0
  0
DIMSTYLE
105
21C
100
AcDbSymbolTableRecord
100
AcDbDimStyleTableRecord
  2
STANDARD
 70
0
  3

  4

 40
1.0
 41
3.0
 42
0.5
 43
0.38
 44
1.5
 45
0.0
 46
0.0
 47
0.01
 48
0.01
140
3.0
141
0.09
142
0.0
143
25.4
144
1.0
145
0.0
146
1.0
147
0.625
 71
1
 72
0
 73
0
 74
0
 75
0
 76
0
 77
1
 78
8
 79
2
170
0
171
1
172
0
173
0
174
0
175
0
176
0
177
0
178
0
270
2
179
2
271
2
272
2
273
2
274
2
275
0
280
0
281
0
282
0
283
1
284
8
285
0
286
0
287
3
288
0
340
11
278
44
341
218
342
218
343
218
344
218
  0
DIMSTYLE
105
21D
100
AcDbSymbolTableRecord
100
AcDbDimStyleTableRecord
  2
DIMSTYLE_1
 70
0
  3

  4

 40
1.0
 41
3.0
 42
0.5
 43
0.38
 44
1.5
 45
0.0
 46
0.0
 47
0.0
 48
0.0
140
3.0
141
0.09
142
0.0
143
25.4
144
1.0
145
0.0
146
1.0
147
0.75
 71
0
 72
0
 73
0
 74
0
 75
0
 76
0
 77
1
 78
8
 79
2
170
0
171
1
172
0
173
0
174
0
175
0
176
0
177
0
178
0
270
2
179
2
271
1
272
1
273
2
274
2
275
0
280
0
281
0
282
0
283
1
284
8
285
0
286
0
287
3
288
0
340
11
278
44
341
218
342
218
343
218
344
218
  0
DIMSTYLE
105
21E
100
AcDbSymbolTableRecord
100
AcDbDimStyleTableRecord
  2
DIMSTYLE_2
 70
0
  3

  4

 40
1.0
 41
3.0
 42
0.5
 43
0.38
 44
1.5
 45
0.0
 46
0.0
 47
0.0
 48
0.0
140
3.0
141
0.09
142
0.0
143
25.4
144
1.0
145
0.0
146
1.0
147
0.75
 71
0
 72
0
 73
0
 74
0
 75
0
 76
0
 77
1
 78
8
 79
2
170
0
171
1
172
0
173
0
174
0
175
0
176
0
177
0
178
0
270
2
179
2
271
2
272
2
273
2
274
2
275
0
280
0
281
0
282
0
283
1
284
8
285
0
286
0
287
3
288
0
340
11
278
44
341
218
342
218
343
218
344
218
  0
ENDTAB
  0
ENDSEC
  0
SECTION
  2
BLOCKS
  0
BLOCK
  5
20
100
AcDbEntity
  8
0
100
AcDbBlockBegin
  2
*Model_Space
 70
0
 10
0.0
 20
0.0
 30
0.0
  3
*Model_Space
  1

  0
ENDBLK
  5
21
100
AcDbEntity
  8
0
100
AcDbBlockEnd
  0
BLOCK
  5
1C
100
AcDbEntity
  8
0
100
AcDbBlockBegin
  2
*Paper_Space
 70
0
 10
0.0
 20
0.0
 30
0.0
  3
*Paper_Space
  1

  0
ENDBLK
  5
1D
100
AcDbEntity
  8
0
100
AcDbBlockEnd
  0
BLOCK
  5
21F
100
AcDbEntity
  8
0
100
AcDbBlockBegin
  2
_FILLED
 70
64
 10
0.0
 20
0.0
  3
_FILLED
  1

  0
SOLID
  5
220
100
AcDbEntity
  8
0
  6
BYBLOCK
 62
0
100
AcDbTrace
 10
0.0
 20
0.0
 11
-1.0
 21
0.3166666667
 12
-1.0
 22
-0.3166666667
 13
-1.0
 23
-0.3166666667
  0
ENDBLK
  5
221
100
AcDbEntity
  8
0
  6
BYBLOCK
 62
0
100
AcDbBlockEnd
  0
BLOCK
  5
222
100
AcDbEntity
  8
0
100
AcDbBlockBegin
 62
7
  6
CONTINUOUS
  2
*D0
 70
65
 10
0.0
 20
0.0
  3
*D0
  1

  0
LINE
  5
223
100
AcDbEntity
  8
0
100
AcDbLine
 62
7
  6
CONTINUOUS
 10
0.2154648039
 20
26.3347065336
 11
0.2154648039
 21
35.949753251
  0
LINE
  5
224
100
AcDbEntity
  8
0
100
AcDbLine
 62
7
  6
CONTINUOUS
 10
44.7845351961
 20
26.3347065336
 11
44.7845351961
 21
35.949753251
  0
LINE
  5
225
100
AcDbEntity
  8
0
100
AcDbLine
 62
7
  6
CONTINUOUS
 10
0.2154648039
 20
34.449753251
 11
22.5
 21
34.449753251
  0
LINE
  5
226
100
AcDbEntity
  8
0
100
AcDbLine
 62
7
  6
CONTINUOUS
 10
44.7845351961
 20
34.449753251
 11
22.5
 21
34.449753251
  0
INSERT
  5
227
100
AcDbEntity
  8
0
100
AcDbBlockReference
 62
7
  6
CONTINUOUS
  2
_FILLED
 10
0.2154648039
 20
34.449753251
 41
3.0
 42
3.0
 43
3.0
 50
180.0
  0
INSERT
  5
228
100
AcDbEntity
  8
0
100
AcDbBlockReference
 62
7
  6
CONTINUOUS
  2
_FILLED
 10
44.7845351961
 20
34.449753251
 41
3.0
 42
3.0
 43
3.0
  0
ENDBLK
  5
229
100
AcDbEntity
  8
0
  6
BYBLOCK
 62
0
100
AcDbBlockEnd
  0
BLOCK
  5
22A
100
AcDbEntity
  8
0
100
AcDbBlockBegin
 62
7
  6
CONTINUOUS
  2
*D1
 70
65
 10
0.0
 20
0.0
  3
*D1
  1

  0
LINE
  5
22B
100
AcDbEntity
  8
0
100
AcDbLine
 62
7
  6
CONTINUOUS
 10
44.7847065336
 20
26.3345351961
 11
54.399753251
 21
26.3345351961
  0
LINE
  5
22C
100
AcDbEntity
  8
0
100
AcDbLine
 62
7
  6
CONTINUOUS
 10
44.7847065336
 20
-26.3345351961
 11
54.399753251
 21
-26.3345351961
  0
LINE
  5
22D
100
AcDbEntity
  8
0
100
AcDbLine
 62
7
  6
CONTINUOUS
 10
52.899753251
 20
26.3345351961
 11
52.899753251
 21
0.0
  0
LINE
  5
22E
100
AcDbEntity
  8
0
100
AcDbLine
 62
7
  6
CONTINUOUS
 10
52.899753251
 20
-26.3345351961
 11
52.899753251
 21
0.0
  0
INSERT
  5
22F
100
AcDbEntity
  8
0
100
AcDbBlockReference
 62
7
  6
CONTINUOUS
  2
_FILLED
 10
52.899753251
 20
26.3345351961
 41
3.0
 42
3.0
 43
3.0
 50
90.0
  0
INSERT
  5
230
100
AcDbEntity
  8
0
100
AcDbBlockReference
 62
7
  6
CONTINUOUS
  2
_FILLED
 10
52.899753251
 20
-26.3345351961
 41
3.0
 42
3.0
 43
3.0
 50
270.0
  0
ENDBLK
  5
231
100
AcDbEntity
  8
0
  6
BYBLOCK
 62
0
100
AcDbBlockEnd
  0
BLOCK
  5
232
100
AcDbEntity
  8
0
100
AcDbBlockBegin
 62
7
  6
CONTINUOUS
  2
*D2
 70
65
 10
0.0
 20
0.0
  3
*D2
  1

  0
LINE
  5
233
100
AcDbEntity
  8
0
100
AcDbLine
 62
7
  6
CONTINUOUS
 10
-25.35
 20
26.3134150626
 11
-25.35
 21
35.949753251
  0
LINE
  5
234
100
AcDbEntity
  8
0
100
AcDbLine
 62
7
  6
CONTINUOUS
 10
-20.15
 20
19.2448313742
 11
-20.15
 21
35.949753251
  0
LINE
  5
235
100
AcDbEntity
  8
0
100
AcDbLine
 62
7
  6
CONTINUOUS
 10
-25.35
 20
34.449753251
 11
-29.35
 21
34.449753251
  0
LINE
  5
236
100
AcDbEntity
  8
0
100
AcDbLine
 62
7
  6
CONTINUOUS
 10
-29.35
 20
34.449753251
 11
-22.75
 21
34.449753251
  0
LINE
  5
237
100
AcDbEntity
  8
0
100
AcDbLine
 62
7
  6
CONTINUOUS
 10
-20.15
 20
34.449753251
 11
-9.9439104064
 21
34.449753251
  0
LINE
  5
238
100
AcDbEntity
  8
0
100
AcDbLine
 62
7
  6
CONTINUOUS
 10
-9.9439104064
 20
34.449753251
 11
-22.75
 21
34.449753251
  0
INSERT
  5
239
100
AcDbEntity
  8
0
100
AcDbBlockReference
 62
7
  6
CONTINUOUS
  2
_FILLED
 10
-25.35
 20
34.449753251
 41
3.0
 42
3.0
 43
3.0
  0
INSERT
  5
23A
100
AcDbEntity
  8
0
100
AcDbBlockReference
 62
7
  6
CONTINUOUS
  2
_FILLED
 10
-20.15
 20
34.449753251
 41
3.0
 42
3.0
 43
3.0
 50
180.0
  0
ENDBLK
  5
23B
100
AcDbEntity
  8
0
  6
BYBLOCK
 62
0
100
AcDbBlockEnd
  0
ENDSEC
  0
SECTION
  2
ENTITIES
  0
DIMENSION
  5
23C
100
AcDbEntity
  8
0
100
AcDbDimension
 62
7
  6
CONTINUOUS
  2
*D0
 10
44.7845351961
 20
34.449753251
 11
18.1071428571
 21
34.449753251
 70
160
 71
2
 72
2
 41
0.9
 42
44.5690703922
  3
DIMSTYLE_1
100
AcDbAlignedDimension
 13
0.2154648039
 23
25.8347065336
 14
44.7845351961
 24
25.8347065336
100
AcDbRotatedDimension
  0
DIMENSION
  5
23D
100
AcDbEntity
  8
0
100
AcDbDimension
 62
7
  6
CONTINUOUS
  2
*D1
 10
52.899753251
 20
-26.3345351961
 11
52.899753251
 21
-4.2857142857
 70
160
 71
2
 72
2
 41
0.9
 42
52.6690703922
  3
DIMSTYLE_1
100
AcDbAlignedDimension
 13
44.2847065336
 23
26.3345351961
 14
44.2847065336
 24
-26.3345351961
 50
270.0
100
AcDbRotatedDimension
  0
DIMENSION
  5
23E
100
AcDbEntity
  8
0
100
AcDbDimension
 62
7
  6
CONTINUOUS
  2
*D2
 10
-20.15
 20
34.449753251
 11
-16.1581961207
 21
34.449753251
 70
160
 71
1
 72
2
 41
0.9
 42
5.2
  3
DIMSTYLE_2
100
AcDbAlignedDimension
 13
-25.35
 23
25.8134150626
 14
-20.15
 24
18.7448313742
100
AcDbRotatedDimension
  0
LINE
  5
23F
100
AcDbEntity
  8
0
100
AcDbLine
 62
7
  6
CONTINUOUS
 10
0.7152934664
 20
-26.3345351961
 11
21.7847065336
 21
-26.3345351961
  0
LINE
  5
240
100
AcDbEntity
  8
0
100
AcDbLine
 62
7
  6
CONTINUOUS
 10
23.2152934664
 20
-26.3345351961
 11
44.2847065336
 21
-26.3345351961
  0
LINE
  5
241
100
AcDbEntity
  8
0
100
AcDbLine
 62
250
  6
CONTINUOUS
 10
0.7365849374
 20
-26.3132437251
 11
21.7634150626
 21
-26.3132437251
  0
LINE
  5
242
100
AcDbEntity
  8
0
100
AcDbLine
 62
250
  6
CONTINUOUS
 10
23.2365849374
 20
-26.3132437251
 11
44.2634150626
 21
-26.3132437251
  0
LINE
  5
243
100
AcDbEntity
  8
0
100
AcDbLine
 62
250
  6
CONTINUOUS
 10
0.2367562749
 20
-25.8134150626
 11
22.2632437251
 21
-25.8134150626
  0
LINE
  5
244
100
AcDbEntity
  8
0
100
AcDbLine
 62
250
  6
CONTINUOUS
 10
22.7367562749
 20
-25.8134150626
 11
44.7632437251
 21
-25.8134150626
  0
LWPOLYLINE
  5
245
100
AcDbEntity
  8
0
100
AcDbPolyline
 62
7
  6
CONTINUOUS
 90
10
 70
0
 43
0.3500000006
 10
25.6071432266
 20
38.1997530212
 10
24.9642852402
 20
37.5568950348
 10
24.5357140045
 20
36.6997525635
 10
24.5357140045
 20
35.6283256073
 10
24.9642852402
 20
35.1997521057
 10
25.6071432266
 20
35.1997521057
 10
26.0357144623
 20
35.6283256073
 10
26.0357144623
 20
36.4854680786
 10
25.6071432266
 20
36.9140370483
 10
24.6785718384
 20
36.9140370483
  0
LINE
  5
246
100
AcDbEntity
  8
0
100
AcDbLine
 62
7
  6
CONTINUOUS
 10
0.2154648039
 20
25.8347065336
 11
0.2154648039
 21
-25.8347065336
  0
LINE
  5
247
100
AcDbEntity
  8
0
100
AcDbLine
 62
250
  6
CONTINUOUS
 10
0.2367562749
 20
-25.8134150626
 11
0.2367562749
 21
25.8134150626
  0
LINE
  5
248
100
AcDbEntity
  8
0
100
AcDbLine
 62
250
  6
CONTINUOUS
 10
0.7365849374
 20
-26.3132437251
 11
0.7365849374
 21
26.3132437251
  0
LINE
  5
249
100
AcDbEntity
  8
0
100
AcDbLine
 62
250
  6
CONTINUOUS
 10
21.7847065336
 20
26.3345351961
 11
21.7634150626
 21
26.3132437251
  0
LINE
  5
24A
100
AcDbEntity
  8
0
100
AcDbLine
 62
250
  6
CONTINUOUS
 10
22.2845351961
 20
25.8347065336
 11
22.2632437251
 21
25.8134150626
  0
LINE
  5
24B
100
AcDbEntity
  8
0
100
AcDbLine
 62
250
  6
CONTINUOUS
 10
21.7634150626
 20
-26.3132437251
 11
21.7847065336
 21
-26.3345351961
  0
LINE
  5
24C
100
AcDbEntity
  8
0
100
AcDbLine
 62
250
  6
CONTINUOUS
 10
22.2632437251
 20
-25.8134150626
 11
22.2845351961
 21
-25.8347065336
  0
LWPOLYLINE
  5
24D
100
AcDbEntity
  8
0
100
AcDbPolyline
 62
7
  6
CONTINUOUS
 90
3
 70
0
 43
0.3500000006
 10
23.5357136993
 20
35.4854677734
 10
23.4642847824
 20
35.2711832886
 10
23.3214292145
 20
34.9854676208
  0
LWPOLYLINE
  5
24E
100
AcDbEntity
  8
0
100
AcDbPolyline
 62
7
  6
CONTINUOUS
 90
2
 70
0
 43
0.3500000006
 10
19.1071435089
 20
35.1997521057
 10
19.1071435089
 20
36.6997525635
  0
LINE
  5
24F
100
AcDbEntity
  8
0
100
AcDbLine
 62
250
  6
CONTINUOUS
 10
44.2847065336
 20
26.3345351961
 11
44.2634150626
 21
26.3132437251
  0
LINE
  5
250
100
AcDbEntity
  8
0
100
AcDbLine
 62
250
  6
CONTINUOUS
 10
44.7845351961
 20
25.8347065336
 11
44.7632437251
 21
25.8134150626
  0
LINE
  5
251
100
AcDbEntity
  8
0
100
AcDbLine
 62
250
  6
CONTINUOUS
 10
44.2634150626
 20
-26.3132437251
 11
44.2847065336
 21
-26.3345351961
  0
LINE
  5
252
100
AcDbEntity
  8
0
100
AcDbLine
 62
250
  6
CONTINUOUS
 10
44.7632437251
 20
-25.8134150626
 11
44.7845351961
 21
-25.8347065336
  0
LWPOLYLINE
  5
253
100
AcDbEntity
  8
0
100
AcDbPolyline
 62
7
  6
CONTINUOUS
 90
2
 70
0
 43
0.3500000006
 10
21.464286438
 20
35.1997521057
 10
21.464286438
 20
36.6997525635
  0
LINE
  5
254
100
AcDbEntity
  8
0
100
AcDbLine
 62
250
  6
CONTINUOUS
 10
21.7634150626
 20
26.3132437251
 11
21.7634150626
 21
-26.3132437251
  0
LINE
  5
255
100
AcDbEntity
  8
0
100
AcDbLine
 62
250
  6
CONTINUOUS
 10
22.2632437251
 20
25.8134150626
 11
22.2632437251
 21
-25.8134150626
  0
LINE
  5
256
100
AcDbEntity
  8
0
100
AcDbLine
 62
7
  6
CONTINUOUS
 10
22.2845351961
 20
-25.8347065336
 11
22.2845351961
 21
25.8347065336
  0
LINE
  5
257
100
AcDbEntity
  8
0
100
AcDbLine
 62
7
  6
CONTINUOUS
 10
22.7154648039
 20
25.8347065336
 11
22.7154648039
 21
-25.8347065336
  0
LINE
  5
258
100
AcDbEntity
  8
0
100
AcDbLine
 62
250
  6
CONTINUOUS
 10
22.7367562749
 20
-25.8134150626
 11
22.7367562749
 21
25.8134150626
  0
LINE
  5
259
100
AcDbEntity
  8
0
100
AcDbLine
 62
250
  6
CONTINUOUS
 10
23.2365849374
 20
-26.3132437251
 11
23.2365849374
 21
26.3132437251
  0
LINE
  5
25A
100
AcDbEntity
  8
0
100
AcDbLine
 62
250
  6
CONTINUOUS
 10
0.2154648039
 20
-25.8347065336
 11
0.2367562749
 21
-25.8134150626
  0
LWPOLYLINE
  5
25B
100
AcDbEntity
  8
0
100
AcDbPolyline
 62
7
  6
CONTINUOUS
 90
4
 70
0
 43
0.3500000006
 10
49.7926101379
 20
1.928571373
 10
49.1497521515
 20
1.928571373
 10
49.1497521515
 20
3.4285718307
 10
52.149753067
 20
2.5714293594
  0
LINE
  5
25C
100
AcDbEntity
  8
0
100
AcDbLine
 62
250
  6
CONTINUOUS
 10
0.2367562749
 20
25.8134150626
 11
0.2154648039
 21
25.8347065336
  0
LINE
  5
25D
100
AcDbEntity
  8
0
100
AcDbLine
 62
250
  6
CONTINUOUS
 10
0.7152934664
 20
-26.3345351961
 11
0.7365849374
 21
-26.3132437251
  0
LINE
  5
25E
100
AcDbEntity
  8
0
100
AcDbLine
 62
250
  6
CONTINUOUS
 10
0.7365849374
 20
26.3132437251
 11
0.7152934664
 21
26.3345351961
  0
LWPOLYLINE
  5
25F
100
AcDbEntity
  8
0
100
AcDbPolyline
 62
7
  6
CONTINUOUS
 90
3
 70
0
 43
0.3500000006
 10
51.8640373993
 20
0.9285710678
 10
52.078326416
 20
0.8571421509
 10
52.3640375519
 20
0.7142865829
  0
LWPOLYLINE
  5
260
100
AcDbEntity
  8
0
100
AcDbPolyline
 62
7
  6
CONTINUOUS
 90
10
 70
0
 43
0.3500000006
 10
51.6497529144
 20
0.8571421509
 10
51.7926107483
 20
0.9285710678
 10
51.8640373993
 20
0.9285710678
 10
52.0068952332
 20
0.7857132339
 10
52.0068952332
 20
0.7142865829
 10
51.9354685822
 20
0.642857666
 10
51.8640373993
 20
0.642857666
 10
51.7211795654
 20
0.7142865829
 10
51.6497529144
 20
0.7857132339
 10
51.6497529144
 20
0.8571421509
  0
LINE
  5
261
100
AcDbEntity
  8
0
100
AcDbLine
 62
250
  6
CONTINUOUS
 10
22.7154648039
 20
-25.8347065336
 11
22.7367562749
 21
-25.8134150626
  0
LINE
  5
262
100
AcDbEntity
  8
0
100
AcDbLine
 62
250
  6
CONTINUOUS
 10
22.7367562749
 20
25.8134150626
 11
22.7154648039
 21
25.8347065336
  0
LWPOLYLINE
  5
263
100
AcDbEntity
  8
0
100
AcDbPolyline
 62
7
  6
CONTINUOUS
 90
10
 70
0
 43
0.3500000006
 10
23.4642847824
 20
35.6997522583
 10
23.5357136993
 20
35.5568944244
 10
23.5357136993
 20
35.4854677734
 10
23.3928581314
 20
35.3426099396
 10
23.3214292145
 20
35.3426099396
 10
23.2500002975
 20
35.4140411224
 10
23.2500002975
 20
35.4854677734
 10
23.3214292145
 20
35.6283256073
 10
23.3928581314
 20
35.6997522583
 10
23.4642847824
 20
35.6997522583
  0
LINE
  5
264
100
AcDbEntity
  8
0
100
AcDbLine
 62
250
  6
CONTINUOUS
 10
23.2152934664
 20
-26.3345351961
 11
23.2365849374
 21
-26.3132437251
  0
LINE
  5
265
100
AcDbEntity
  8
0
100
AcDbLine
 62
250
  6
CONTINUOUS
 10
23.2365849374
 20
26.3132437251
 11
23.2152934664
 21
26.3345351961
  0
LINE
  5
266
100
AcDbEntity
  8
0
100
AcDbLine
 62
250
  6
CONTINUOUS
 10
44.2634150626
 20
26.3132437251
 11
44.2634150626
 21
-26.3132437251
  0
LINE
  5
267
100
AcDbEntity
  8
0
100
AcDbLine
 62
250
  6
CONTINUOUS
 10
44.7632437251
 20
25.8134150626
 11
44.7632437251
 21
-25.8134150626
  0
LINE
  5
268
100
AcDbEntity
  8
0
100
AcDbLine
 62
7
  6
CONTINUOUS
 10
44.7845351961
 20
-25.8347065336
 11
44.7845351961
 21
25.8347065336
  0
LINE
  5
269
100
AcDbEntity
  8
0
100
AcDbLine
 62
250
  6
CONTINUOUS
 10
0.2367562749
 20
25.8134150626
 11
22.2632437251
 21
25.8134150626
  0
LINE
  5
26A
100
AcDbEntity
  8
0
100
AcDbLine
 62
250
  6
CONTINUOUS
 10
22.7367562749
 20
25.8134150626
 11
44.7632437251
 21
25.8134150626
  0
LINE
  5
26B
100
AcDbEntity
  8
0
100
AcDbLine
 62
250
  6
CONTINUOUS
 10
44.2634150626
 20
26.3132437251
 11
23.2365849374
 21
26.3132437251
  0
LINE
  5
26C
100
AcDbEntity
  8
0
100
AcDbLine
 62
250
  6
CONTINUOUS
 10
21.7634150626
 20
26.3132437251
 11
0.7365849374
 21
26.3132437251
  0
LINE
  5
26D
100
AcDbEntity
  8
0
100
AcDbLine
 62
7
  6
CONTINUOUS
 10
44.2847065336
 20
26.3345351961
 11
23.2152934664
 21
26.3345351961
  0
LINE
  5
26E
100
AcDbEntity
  8
0
100
AcDbLine
 62
7
  6
CONTINUOUS
 10
21.7847065336
 20
26.3345351961
 11
0.7152934664
 21
26.3345351961
  0
LWPOLYLINE
  5
26F
100
AcDbEntity
  8
0
100
AcDbPolyline
 62
7
  6
CONTINUOUS
 90
7
 70
0
 43
0.3500000006
 10
52.149753067
 20
-0.642856041
 10
52.149753067
 20
-2.1428576317
 10
50.0068946228
 20
-0.642856041
 10
49.5783256531
 20
-0.642856041
 10
49.1497521515
 20
-1.0714295425
 10
49.1497521515
 20
-1.7142852631
 10
49.7926101379
 20
-2.1428576317
  0
LWPOLYLINE
  5
270
100
AcDbEntity
  8
0
100
AcDbPolyline
 62
7
  6
CONTINUOUS
 90
8
 70
0
 43
0.3500000006
 10
52.149753067
 20
-4.28571381
 10
52.149753067
 20
-3.4285713387
 10
51.7211795654
 20
-3.000000103
 10
50.8640370941
 20
-3.000000103
 10
50.4354681244
 20
-3.4285713387
 10
50.4354681244
 20
-4.28571381
 10
49.1497521515
 20
-4.28571381
 10
49.1497521515
 20
-3.000000103
  0
LWPOLYLINE
  5
271
100
AcDbEntity
  8
0
100
AcDbPolyline
 62
7
  6
CONTINUOUS
 90
3
 70
0
 43
0.3500000006
 10
21.9642865906
 20
35.8426100922
 10
20.4642861328
 20
35.8426100922
 10
21.1071418533
 20
38.1997530212
  0
LWPOLYLINE
  5
272
100
AcDbEntity
  8
0
100
AcDbPolyline
 62
7
  6
CONTINUOUS
 90
3
 70
0
 43
0.3500000006
 10
19.6071436615
 20
35.8426100922
 10
18.1071432037
 20
35.8426100922
 10
18.7500000572
 20
38.1997530212
  0
LINE
  5
273
100
AcDbEntity
  8
0
100
AcDbLine
 62
7
  6
CONTINUOUS
 10
-24.8630884742
 20
-26.3132437251
 11
-24.05
 21
-26.3345351961
  0
LINE
  5
274
100
AcDbEntity
  8
0
100
AcDbLine
 62
250
  6
CONTINUOUS
 10
-24.8630884742
 20
-25.8134150626
 11
-25.35
 21
-25.8134150626
  0
LINE
  5
275
100
AcDbEntity
  8
0
100
AcDbLine
 62
250
  6
CONTINUOUS
 10
-24.8630884742
 20
-25.8134150626
 11
-24.05
 21
-25.8347065336
  0
LINE
  5
276
100
AcDbEntity
  8
0
100
AcDbLine
 62
7
  6
CONTINUOUS
 10
-22.819668242
 20
-20.980593439
 11
-20.8663772294
 21
-20.7752942809
  0
LINE
  5
277
100
AcDbEntity
  8
0
100
AcDbLine
 62
250
  6
CONTINUOUS
 10
-22.7583532758
 20
-20.7735975821
 11
-20.8820475324
 21
-20.5763899018
  0
LINE
  5
278
100
AcDbEntity
  8
0
100
AcDbLine
 62
250
  6
CONTINUOUS
 10
-20.3447646103
 20
-19.9796767646
 11
-20.15
 21
-19.9796767646
  0
LINE
  5
279
100
AcDbEntity
  8
0
100
AcDbLine
 62
250
  6
CONTINUOUS
 10
-20.3447646103
 20
-17.8203232354
 11
-20.15
 21
-17.8203232354
  0
LINE
  5
27A
100
AcDbEntity
  8
0
100
AcDbLine
 62
250
  6
CONTINUOUS
 10
-21.85
 20
-17.2720690169
 11
-22.0447646103
 21
-17.2720690169
  0
LINE
  5
27B
100
AcDbEntity
  8
0
100
AcDbLine
 62
250
  6
CONTINUOUS
 10
-20.8820475324
 20
-17.2236100982
 11
-21.85
 21
-17.1218741943
  0
LINE
  5
27C
100
AcDbEntity
  8
0
100
AcDbLine
 62
7
  6
CONTINUOUS
 10
-20.8663772294
 20
-17.0247057191
 11
-21.85
 21
-16.9213228
  0
LINE
  5
27D
100
AcDbEntity
  8
0
100
AcDbLine
 62
7
  6
CONTINUOUS
 10
-21.4360402013
 20
-10.9855442053
 11
-21.4639597987
 21
-10.9865191791
  0
LINE
  5
27E
100
AcDbEntity
  8
0
100
AcDbLine
 62
250
  6
CONTINUOUS
 10
-21.437784711
 20
-10.7856660399
 11
-21.4657043084
 21
-10.7866410137
  0
LINE
  5
27F
100
AcDbEntity
  8
0
100
AcDbLine
 62
250
  6
CONTINUOUS
 10
-21.85
 20
-11.3862755099
 11
-22.0447646103
 21
-11.3862755099
  0
LINE
  5
280
100
AcDbEntity
  8
0
100
AcDbLine
 62
250
  6
CONTINUOUS
 10
-21.05
 20
-10.5857878745
 11
-21.2447646103
 21
-10.5857878745
  0
LINE
  5
281
100
AcDbEntity
  8
0
100
AcDbLine
 62
250
  6
CONTINUOUS
 10
-21.05
 20
-10.2
 11
-21.1841654476
 21
-10.2
  0
LINE
  5
282
100
AcDbEntity
  8
0
100
AcDbLine
 62
250
  6
CONTINUOUS
 10
-21.05
 20
-7.8
 11
-21.1841654476
 21
-7.8
  0
LINE
  5
283
100
AcDbEntity
  8
0
100
AcDbLine
 62
250
  6
CONTINUOUS
 10
-21.05
 20
-7.4142121255
 11
-21.2447646103
 21
-7.4142121255
  0
LINE
  5
284
100
AcDbEntity
  8
0
100
AcDbLine
 62
250
  6
CONTINUOUS
 10
-21.4657043084
 20
-7.2133589863
 11
-21.437784711
 21
-7.2143339601
  0
LINE
  5
285
100
AcDbEntity
  8
0
100
AcDbLine
 62
7
  6
CONTINUOUS
 10
-21.4639597987
 20
-7.0134808209
 11
-21.4360402013
 21
-7.0144557947
  0
LINE
  5
286
100
AcDbEntity
  8
0
100
AcDbLine
 62
250
  6
CONTINUOUS
 10
-21.85
 20
-6.6137244901
 11
-22.0447646103
 21
-6.6137244901
  0
LINE
  5
287
100
AcDbEntity
  8
0
100
AcDbLine
 62
7
  6
CONTINUOUS
 10
-25.35
 20
25.8134150626
 11
-25.35
 21
-25.8134150626
  0
LINE
  5
288
100
AcDbEntity
  8
0
100
AcDbLine
 62
250
  6
CONTINUOUS
 10
-24.8630884742
 20
25.8134150626
 11
-24.8630884742
 21
-25.8134150626
  0
LINE
  5
289
100
AcDbEntity
  8
0
100
AcDbLine
 62
7
  6
CONTINUOUS
 10
-24.05
 20
-26.3345351961
 11
-24.05
 21
26.3345351961
  0
LWPOLYLINE
  5
28A
100
AcDbEntity
  8
0
100
AcDbPolyline
 62
7
  6
CONTINUOUS
 90
3
 70
0
 43
0.3500000006
 10
-13.3010531845
 20
35.4854677734
 10
-13.3724821014
 20
35.2711832886
 10
-13.5153388023
 20
34.9854676208
  0
LINE
  5
28B
100
AcDbEntity
  8
0
100
AcDbLine
 62
7
  6
CONTINUOUS
 10
-21.85
 20
-2.5296736104
 11
-20.6412737968
 21
-2.508575216
  0
LINE
  5
28C
100
AcDbEntity
  8
0
100
AcDbLine
 62
7
  6
CONTINUOUS
 10
-20.4473820394
 20
-1.0474047863
 11
-20.7635486309
 21
-1.0446456422
  0
LINE
  5
28D
100
AcDbEntity
  8
0
100
AcDbLine
 62
250
  6
CONTINUOUS
 10
-22.0447646103
 20
17.2720690169
 11
-22.0447646103
 21
-6.6137244901
  0
LINE
  5
28E
100
AcDbEntity
  8
0
100
AcDbLine
 62
250
  6
CONTINUOUS
 10
-22.0447646103
 20
-11.3862755099
 11
-22.0447646103
 21
-17.2720690169
  0
LINE
  5
28F
100
AcDbEntity
  8
0
100
AcDbLine
 62
7
  6
CONTINUOUS
 10
-21.9413361056
 20
12.0
 11
-21.9413361056
 21
6.9
  0
LINE
  5
290
100
AcDbEntity
  8
0
100
AcDbLine
 62
7
  6
CONTINUOUS
 10
-21.85
 20
17.2720690169
 11
-21.85
 21
-6.6137244901
  0
LINE
  5
291
100
AcDbEntity
  8
0
100
AcDbLine
 62
7
  6
CONTINUOUS
 10
-21.85
 20
-11.3862755099
 11
-21.85
 21
-17.2720690169
  0
LINE
  5
292
100
AcDbEntity
  8
0
100
AcDbLine
 62
7
  6
CONTINUOUS
 10
-21.5342911395
 20
10.2
 11
-21.5342911395
 21
7.8
  0
LINE
  5
293
100
AcDbEntity
  8
0
100
AcDbLine
 62
250
  6
CONTINUOUS
 10
-21.2447646103
 20
10.5857878745
 11
-21.2447646103
 21
10.2545447354
  0
LINE
  5
294
100
AcDbEntity
  8
0
100
AcDbLine
 62
250
  6
CONTINUOUS
 10
-21.2447646103
 20
7.7454552646
 11
-21.2447646103
 21
7.4142121255
  0
LINE
  5
295
100
AcDbEntity
  8
0
100
AcDbLine
 62
250
  6
CONTINUOUS
 10
-21.2447646103
 20
-7.4142121255
 11
-21.2447646103
 21
-10.5857878745
  0
LINE
  5
296
100
AcDbEntity
  8
0
100
AcDbLine
 62
7
  6
CONTINUOUS
 10
-21.1841654476
 20
-7.8
 11
-21.1841654476
 21
-10.2
  0
LINE
  5
297
100
AcDbEntity
  8
0
100
AcDbLine
 62
7
  6
CONTINUOUS
 10
-21.05
 20
10.5857878745
 11
-21.05
 21
7.4142121255
  0
LINE
  5
298
100
AcDbEntity
  8
0
100
AcDbLine
 62
7
  6
CONTINUOUS
 10
-21.05
 20
-7.4142121255
 11
-21.05
 21
-10.5857878745
  0
LINE
  5
299
100
AcDbEntity
  8
0
100
AcDbLine
 62
7
  6
CONTINUOUS
 10
-20.7635486309
 20
-1.0446456422
 11
-20.8265237316
 21
-1.0834100529
  0
LINE
  5
29A
100
AcDbEntity
  8
0
100
AcDbLine
 62
7
  6
CONTINUOUS
 10
-20.7635486309
 20
1.0446456422
 11
-20.4473820394
 21
1.0474047863
  0
LINE
  5
29B
100
AcDbEntity
  8
0
100
AcDbLine
 62
7
  6
CONTINUOUS
 10
-20.8265237316
 20
1.0834100529
 11
-20.7635486309
 21
1.0446456422
  0
LINE
  5
29C
100
AcDbEntity
  8
0
100
AcDbLine
 62
250
  6
CONTINUOUS
 10
-20.3447646103
 20
19.9796767646
 11
-20.3447646103
 21
17.8203232354
  0
LINE
  5
29D
100
AcDbEntity
  8
0
100
AcDbLine
 62
250
  6
CONTINUOUS
 10
-20.3447646103
 20
-19.9796767646
 11
-20.3447646103
 21
-17.8203232354
  0
LINE
  5
29E
100
AcDbEntity
  8
0
100
AcDbLine
 62
7
  6
CONTINUOUS
 10
-20.15
 20
19.9796767646
 11
-20.15
 21
17.8203232354
  0
LINE
  5
29F
100
AcDbEntity
  8
0
100
AcDbLine
 62
7
  6
CONTINUOUS
 10
-20.15
 20
-19.9796767646
 11
-20.15
 21
-17.8203232354
  0
LINE
  5
2A0
100
AcDbEntity
  8
0
100
AcDbLine
 62
7
  6
CONTINUOUS
 10
-20.15
 20
-2.0086513684
 11
-20.15
 21
-1.3473933632
  0
LINE
  5
2A1
100
AcDbEntity
  8
0
100
AcDbLine
 62
7
  6
CONTINUOUS
 10
-20.15
 20
1.3473933632
 11
-20.15
 21
2.0086513684
  0
LINE
  5
2A2
100
AcDbEntity
  8
0
100
AcDbLine
 62
7
  6
CONTINUOUS
 10
-20.6412737968
 20
2.508575216
 11
-21.85
 21
2.5296736104
  0
LINE
  5
2A3
100
AcDbEntity
  8
0
100
AcDbLine
 62
250
  6
CONTINUOUS
 10
-22.1600693527
 20
-18.0673119821
 11
-24.05
 21
-24.44761092
  0
LINE
  5
2A4
100
AcDbEntity
  8
0
100
AcDbLine
 62
250
  6
CONTINUOUS
 10
-24.05
 20
24.44761092
 11
-22.1600693527
 21
18.0673119821
  0
LINE
  5
2A5
100
AcDbEntity
  8
0
100
AcDbLine
 62
7
  6
CONTINUOUS
 10
-21.9735407954
 20
-18.124115051
 11
-24.05
 21
-25.1341238451
  0
LINE
  5
2A6
100
AcDbEntity
  8
0
100
AcDbLine
 62
7
  6
CONTINUOUS
 10
-21.4360402013
 20
7.0144557947
 11
-21.4639597987
 21
7.0134808209
  0
LINE
  5
2A7
100
AcDbEntity
  8
0
100
AcDbLine
 62
250
  6
CONTINUOUS
 10
-21.437784711
 20
7.2143339601
 11
-21.4657043084
 21
7.2133589863
  0
LINE
  5
2A8
100
AcDbEntity
  8
0
100
AcDbLine
 62
250
  6
CONTINUOUS
 10
-21.85
 20
6.9
 11
-21.9413361056
 21
6.9
  0
LINE
  5
2A9
100
AcDbEntity
  8
0
100
AcDbLine
 62
7
  6
CONTINUOUS
 10
-24.05
 20
25.1341238451
 11
-21.9735407954
 21
18.124115051
  0
LINE
  5
2AA
100
AcDbEntity
  8
0
100
AcDbLine
 62
250
  6
CONTINUOUS
 10
-21.05
 20
7.4142121255
 11
-21.2447646103
 21
7.4142121255
  0
LINE
  5
2AB
100
AcDbEntity
  8
0
100
AcDbLine
 62
250
  6
CONTINUOUS
 10
-21.05
 20
7.8
 11
-21.5342911395
 21
7.8
  0
LINE
  5
2AC
100
AcDbEntity
  8
0
100
AcDbLine
 62
250
  6
CONTINUOUS
 10
-21.05
 20
10.2
 11
-21.5342911395
 21
10.2
  0
LINE
  5
2AD
100
AcDbEntity
  8
0
100
AcDbLine
 62
250
  6
CONTINUOUS
 10
-21.05
 20
10.5857878745
 11
-21.2447646103
 21
10.5857878745
  0
LINE
  5
2AE
100
AcDbEntity
  8
0
100
AcDbLine
 62
250
  6
CONTINUOUS
 10
-21.4657043084
 20
10.7866410137
 11
-21.437784711
 21
10.7856660399
  0
LINE
  5
2AF
100
AcDbEntity
  8
0
100
AcDbLine
 62
250
  6
CONTINUOUS
 10
-21.85
 20
12.0
 11
-21.9413361056
 21
12.0
  0
LINE
  5
2B0
100
AcDbEntity
  8
0
100
AcDbLine
 62
7
  6
CONTINUOUS
 10
-21.4639597987
 20
10.9865191791
 11
-21.4360402013
 21
10.9855442053
  0
LINE
  5
2B1
100
AcDbEntity
  8
0
100
AcDbLine
 62
7
  6
CONTINUOUS
 10
-20.8663772294
 20
17.0247057191
 11
-21.85
 21
16.9213228
  0
LINE
  5
2B2
100
AcDbEntity
  8
0
100
AcDbLine
 62
250
  6
CONTINUOUS
 10
-20.8820475324
 20
17.2236100982
 11
-21.85
 21
17.1218741943
  0
LINE
  5
2B3
100
AcDbEntity
  8
0
100
AcDbLine
 62
250
  6
CONTINUOUS
 10
-21.85
 20
17.2720690169
 11
-22.0447646103
 21
17.2720690169
  0
LINE
  5
2B4
100
AcDbEntity
  8
0
100
AcDbLine
 62
250
  6
CONTINUOUS
 10
-20.15
 20
17.8203232354
 11
-20.3447646103
 21
17.8203232354
  0
LINE
  5
2B5
100
AcDbEntity
  8
0
100
AcDbLine
 62
250
  6
CONTINUOUS
 10
-20.15
 20
19.9796767646
 11
-20.3447646103
 21
19.9796767646
  0
LINE
  5
2B6
100
AcDbEntity
  8
0
100
AcDbLine
 62
250
  6
CONTINUOUS
 10
-22.7583532758
 20
20.7735975821
 11
-20.8820475324
 21
20.5763899018
  0
LINE
  5
2B7
100
AcDbEntity
  8
0
100
AcDbLine
 62
7
  6
CONTINUOUS
 10
-22.819668242
 20
20.980593439
 11
-20.8663772294
 21
20.7752942809
  0
LINE
  5
2B8
100
AcDbEntity
  8
0
100
AcDbLine
 62
250
  6
CONTINUOUS
 10
-24.05
 20
25.8347065336
 11
-24.8630884742
 21
25.8134150626
  0
LINE
  5
2B9
100
AcDbEntity
  8
0
100
AcDbLine
 62
7
  6
CONTINUOUS
 10
-24.05
 20
26.3345351961
 11
-24.8630884742
 21
26.3132437251
  0
LINE
  5
2BA
100
AcDbEntity
  8
0
100
AcDbLine
 62
250
  6
CONTINUOUS
 10
-24.8630884742
 20
25.8134150626
 11
-25.35
 21
25.8134150626
  0
LWPOLYLINE
  5
2BB
100
AcDbEntity
  8
0
100
AcDbPolyline
 62
7
  6
CONTINUOUS
 90
8
 70
0
 43
0.3500000006
 10
-16.1581962662
 20
35.1997521057
 10
-15.3010537949
 20
35.1997521057
 10
-14.8724814262
 20
35.6283256073
 10
-14.8724814262
 20
36.4854680786
 10
-15.3010537949
 20
36.9140370483
 10
-16.1581962662
 20
36.9140370483
 10
-16.1581962662
 20
38.1997530212
 10
-14.8724814262
 20
38.1997530212
  0
LWPOLYLINE
  5
2BC
100
AcDbEntity
  8
0
100
AcDbPolyline
 62
7
  6
CONTINUOUS
 90
7
 70
0
 43
0.3500000006
 10
-10.8010535545
 20
35.1997521057
 10
-12.3010528793
 20
35.1997521057
 10
-10.8010535545
 20
37.3426105499
 10
-10.8010535545
 20
37.7711840515
 10
-11.2296247902
 20
38.1997530212
 10
-11.8724816437
 20
38.1997530212
 10
-12.3010528793
 20
37.5568950348
  0
LWPOLYLINE
  5
2BD
100
AcDbEntity
  8
0
100
AcDbPolyline
 62
7
  6
CONTINUOUS
 90
10
 70
0
 43
0.3500000006
 10
-13.3724821014
 20
35.6997522583
 10
-13.3010531845
 20
35.5568944244
 10
-13.3010531845
 20
35.4854677734
 10
-13.4439098854
 20
35.3426099396
 10
-13.5153388023
 20
35.3426099396
 10
-13.5867677193
 20
35.4140411224
 10
-13.5867677193
 20
35.4854677734
 10
-13.5153388023
 20
35.6283256073
 10
-13.4439098854
 20
35.6997522583
 10
-13.3724821014
 20
35.6997522583
  0
ARC
  5
2BE
100
AcDbEntity
  8
0
100
AcDbCircle
 62
250
  6
CONTINUOUS
 10
0.737018677
 20
-25.8129809459
 40
0.5002658726
100
AcDbArc
 50
180.0497200052
 51
269.95032325
  0
ARC
  5
2BF
100
AcDbEntity
  8
0
100
AcDbCircle
 62
250
  6
CONTINUOUS
 10
23.237018677
 20
-25.8129809459
 40
0.5002658726
100
AcDbArc
 50
180.0497200064
 51
269.9503232502
  0
ARC
  5
2C0
100
AcDbEntity
  8
0
100
AcDbCircle
 62
250
  6
CONTINUOUS
 10
21.7629813372
 20
-25.8129809609
 40
0.500265857
100
AcDbArc
 50
270.0496751504
 51
359.950281719
  0
ARC
  5
2C1
100
AcDbEntity
  8
0
100
AcDbCircle
 62
250
  6
CONTINUOUS
 10
44.2629813371
 20
-25.8129809609
 40
0.5002658571
100
AcDbArc
 50
270.0496751591
 51
359.9502817103
  0
ARC
  5
2C2
100
AcDbEntity
  8
0
100
AcDbCircle
 62
250
  6
CONTINUOUS
 10
21.7629814927
 20
25.8129810154
 40
0.5002657344
100
AcDbArc
 50
0.0497120624
 51
89.9503426714
  0
ARC
  5
2C3
100
AcDbEntity
  8
0
100
AcDbCircle
 62
250
  6
CONTINUOUS
 10
44.2629814927
 20
25.8129810154
 40
0.5002657343
100
AcDbArc
 50
0.0497120603
 51
89.9503426735
  0
ARC
  5
2C4
100
AcDbEntity
  8
0
100
AcDbCircle
 62
250
  6
CONTINUOUS
 10
0.7370184992
 20
25.8129810322
 40
0.500265722
100
AcDbArc
 50
90.0496564235
 51
179.9502898679
  0
ARC
  5
2C5
100
AcDbEntity
  8
0
100
AcDbCircle
 62
250
  6
CONTINUOUS
 10
23.2370184992
 20
25.8129810323
 40
0.5002657219
100
AcDbArc
 50
90.0496564207
 51
179.9502898723
  0
ARC
  5
2C6
100
AcDbEntity
  8
0
100
AcDbCircle
 62
250
  6
CONTINUOUS
 10
-27.9511686281
 20
-6.9825491335
 40
6.4895701422
100
AcDbArc
 50
357.9617725368
 51
358.8440005172
  0
ARC
  5
2C7
100
AcDbEntity
  8
0
100
AcDbCircle
 62
250
  6
CONTINUOUS
 10
-27.9510961312
 20
-11.0174486258
 40
6.4894976115
100
AcDbArc
 50
1.155960183
 51
2.0382304576
  0
ARC
  5
2C8
100
AcDbEntity
  8
0
100
AcDbCircle
 62
7
  6
CONTINUOUS
 10
-24.85
 20
-17.2720690169
 40
3.0
100
AcDbArc
 50
343.5
 51
360.0
  0
ARC
  5
2C9
100
AcDbEntity
  8
0
100
AcDbCircle
 62
250
  6
CONTINUOUS
 10
-24.8446768152
 20
-17.2720817466
 40
2.7999122049
100
AcDbArc
 50
343.4997395071
 51
0.0002604929
  0
ARC
  5
2CA
100
AcDbEntity
  8
0
100
AcDbCircle
 62
7
  6
CONTINUOUS
 10
-24.85
 20
-25.8134150626
 40
0.5
100
AcDbArc
 50
180.0
 51
268.5
  0
ARC
  5
2CB
100
AcDbEntity
  8
0
100
AcDbCircle
 62
250
  6
CONTINUOUS
 10
-27.9511686282
 20
11.0174508665
 40
6.4895701424
100
AcDbArc
 50
357.9617725368
 51
358.8440005172
  0
ARC
  5
2CC
100
AcDbEntity
  8
0
100
AcDbCircle
 62
250
  6
CONTINUOUS
 10
-27.9510961311
 20
6.9825513742
 40
6.4894976114
100
AcDbArc
 50
1.155960183
 51
2.0382304576
  0
ARC
  5
2CD
100
AcDbEntity
  8
0
100
AcDbCircle
 62
7
  6
CONTINUOUS
 10
-24.85
 20
17.2720690169
 40
3.0
100
AcDbArc
 50
0.0
 51
16.5
  0
ARC
  5
2CE
100
AcDbEntity
  8
0
100
AcDbCircle
 62
250
  6
CONTINUOUS
 10
-24.8446763468
 20
17.2720818145
 40
2.7999117364
100
AcDbArc
 50
359.9997381171
 51
16.5002618829
  0
ARC
  5
2CF
100
AcDbEntity
  8
0
100
AcDbCircle
 62
7
  6
CONTINUOUS
 10
-24.85
 20
25.8134150626
 40
0.5
100
AcDbArc
 50
91.5
 51
180.0
  0
ARC
  5
2D0
100
AcDbEntity
  8
0
100
AcDbCircle
 62
250
  6
CONTINUOUS
 10
-21.4447622736
 20
-11.3862777665
 40
0.6000023368
100
AcDbArc
 50
92.0002154879
 51
179.9997845121
  0
ARC
  5
2D1
100
AcDbEntity
  8
0
100
AcDbCircle
 62
7
  6
CONTINUOUS
 10
-21.45
 20
-11.3862755099
 40
0.4
100
AcDbArc
 50
92.0
 51
180.0
  0
ARC
  5
2D2
100
AcDbEntity
  8
0
100
AcDbCircle
 62
250
  6
CONTINUOUS
 10
-21.444761851
 20
-6.6137218254
 40
0.6000027593
100
AcDbArc
 50
180.0002544525
 51
267.9997455475
  0
ARC
  5
2D3
100
AcDbEntity
  8
0
100
AcDbCircle
 62
7
  6
CONTINUOUS
 10
-21.45
 20
-7.4142121255
 40
0.4
100
AcDbArc
 50
0.0
 51
88.0
  0
ARC
  5
2D4
100
AcDbEntity
  8
0
100
AcDbCircle
 62
7
  6
CONTINUOUS
 10
-21.45
 20
-10.5857878745
 40
0.4
100
AcDbArc
 50
272.0
 51
360.0
  0
ARC
  5
2D5
100
AcDbEntity
  8
0
100
AcDbCircle
 62
7
  6
CONTINUOUS
 10
-21.45
 20
-6.6137244901
 40
0.4
100
AcDbArc
 50
180.0
 51
268.0
  0
ARC
  5
2D6
100
AcDbEntity
  8
0
100
AcDbCircle
 62
250
  6
CONTINUOUS
 10
-21.4447691295
 20
-7.4142164896
 40
0.2000054462
100
AcDbArc
 50
0.0012501925
 51
87.9987498007
  0
ARC
  5
2D7
100
AcDbEntity
  8
0
100
AcDbCircle
 62
250
  6
CONTINUOUS
 10
-21.4447663012
 20
-10.585785812
 40
0.200002247
100
AcDbArc
 50
272.0004634733
 51
359.9994091375
  0
ARC
  5
2D8
100
AcDbEntity
  8
0
100
AcDbCircle
 62
7
  6
CONTINUOUS
 10
-20.95
 20
-19.9796767646
 40
0.8
100
AcDbArc
 50
276.0
 51
360.0
  0
ARC
  5
2D9
100
AcDbEntity
  8
0
100
AcDbCircle
 62
7
  6
CONTINUOUS
 10
-20.95
 20
-17.8203232354
 40
0.8
100
AcDbArc
 50
0.0
 51
84.0
  0
ARC
  5
2DA
100
AcDbEntity
  8
0
100
AcDbCircle
 62
250
  6
CONTINUOUS
 10
-20.9447756041
 20
-19.9796668658
 40
0.6000128163
100
AcDbArc
 50
276.0009452495
 51
359.9990547548
  0
ARC
  5
2DB
100
AcDbEntity
  8
0
100
AcDbCircle
 62
250
  6
CONTINUOUS
 10
-20.9447686175
 20
-17.8203268435
 40
0.6000051524
100
AcDbArc
 50
0.0003445451
 51
83.9996554577
  0
ARC
  5
2DC
100
AcDbEntity
  8
0
100
AcDbCircle
 62
7
  6
CONTINUOUS
 10
-20.65
 20
-2.0086513684
 40
0.5
100
AcDbArc
 50
271.0
 51
360.0
  0
ARC
  5
2DD
100
AcDbEntity
  8
0
100
AcDbCircle
 62
7
  6
CONTINUOUS
 10
-20.45
 20
-1.3473933632
 40
0.3
100
AcDbArc
 50
0.0
 51
89.5
  0
ARC
  5
2DE
100
AcDbEntity
  8
0
100
AcDbCircle
 62
250
  6
CONTINUOUS
 10
-21.4447724529
 20
6.6137499978
 40
0.5999742342
100
AcDbArc
 50
91.9993365232
 51
132.5279078389
  0
ARC
  5
2DF
100
AcDbEntity
  8
0
100
AcDbCircle
 62
7
  6
CONTINUOUS
 10
-21.45
 20
7.4142121255
 40
0.4
100
AcDbArc
 50
272.0
 51
360.0
  0
ARC
  5
2E0
100
AcDbEntity
  8
0
100
AcDbCircle
 62
7
  6
CONTINUOUS
 10
-21.45
 20
10.5857878745
 40
0.4
100
AcDbArc
 50
0.0
 51
88.0
  0
ARC
  5
2E1
100
AcDbEntity
  8
0
100
AcDbCircle
 62
7
  6
CONTINUOUS
 10
-21.45
 20
6.6137244901
 40
0.4
100
AcDbArc
 50
92.0
 51
174.7075570456
  0
ARC
  5
2E2
100
AcDbEntity
  8
0
100
AcDbCircle
 62
250
  6
CONTINUOUS
 10
-21.4447691295
 20
10.5857835104
 40
0.2000054462
100
AcDbArc
 50
0.0012501925
 51
87.9987498007
  0
ARC
  5
2E3
100
AcDbEntity
  8
0
100
AcDbCircle
 62
250
  6
CONTINUOUS
 10
-21.4447663012
 20
7.414214188
 40
0.200002247
100
AcDbArc
 50
272.0004634751
 51
359.9994091357
  0
ARC
  5
2E4
100
AcDbEntity
  8
0
100
AcDbCircle
 62
250
  6
CONTINUOUS
 10
-21.4447881748
 20
11.3861936015
 40
0.5999173194
100
AcDbArc
 50
227.5040495404
 51
268.0019761703
  0
ARC
  5
2E5
100
AcDbEntity
  8
0
100
AcDbCircle
 62
7
  6
CONTINUOUS
 10
-21.45
 20
11.3862755099
 40
0.4
100
AcDbArc
 50
180.0
 51
268.0
  0
ARC
  5
2E6
100
AcDbEntity
  8
0
100
AcDbCircle
 62
7
  6
CONTINUOUS
 10
-20.65
 20
2.0086513684
 40
0.5
100
AcDbArc
 50
0.0
 51
89.0
  0
ARC
  5
2E7
100
AcDbEntity
  8
0
100
AcDbCircle
 62
7
  6
CONTINUOUS
 10
-20.45
 20
1.3473933632
 40
0.3
100
AcDbArc
 50
270.5
 51
360.0
  0
ARC
  5
2E8
100
AcDbEntity
  8
0
100
AcDbCircle
 62
7
  6
CONTINUOUS
 10
-20.95
 20
19.9796767646
 40
0.8
100
AcDbArc
 50
0.0
 51
84.0
  0
ARC
  5
2E9
100
AcDbEntity
  8
0
100
AcDbCircle
 62
7
  6
CONTINUOUS
 10
-20.95
 20
17.8203232354
 40
0.8
100
AcDbArc
 50
276.0
 51
360.0
  0
ARC
  5
2EA
100
AcDbEntity
  8
0
100
AcDbCircle
 62
250
  6
CONTINUOUS
 10
-20.9447698881
 20
17.8203279876
 40
0.6000066617
100
AcDbArc
 50
276.0004537873
 51
359.9995462091
  0
ARC
  5
2EB
100
AcDbEntity
  8
0
100
AcDbCircle
 62
250
  6
CONTINUOUS
 10
-20.9447687305
 20
19.9796730548
 40
0.6000053566
100
AcDbArc
 50
0.0003542563
 51
83.9996457417
  0
SPLINE
  5
2EC
100
AcDbEntity
  8
0
100
AcDbSpline
 62
250
  6
CONTINUOUS
 70
0
 71
3
 72
15
 73
11
 74
0
 42
0.0000001
 43
0.0000001
 44
0.0000000001
 40
0.0
 40
0.0
 40
0.0
 40
0.0
 40
0.0054863289
 40
0.0187765277
 40
0.070114162
 40
0.1541456749
 40
0.2698311346
 40
0.4149325401
 40
0.5869092771
 40
1.0
 40
1.0
 40
1.0
 40
1.0
 10
-21.4639597987
 20
10.9865191791
 30
0.0
 10
-21.4637767207
 20
10.9865127859
 30
0.0
 10
-21.463509839
 20
10.9857316813
 30
0.0
 10
-21.4631203638
 20
10.9836809895
 30
0.0
 10
-21.4627352531
 20
10.9784679569
 30
0.0
 10
-21.4624270673
 20
10.970240087
 30
0.0
 10
-21.462243136
 20
10.958662759
 30
0.0
 10
-21.4621966491
 20
10.9442368083
 30
0.0
 10
-21.4623341411
 20
10.9198454085
 30
0.0
 10
-21.4626466167
 20
10.9003166857
 30
0.0
 10
-21.4629192985
 20
10.886526201
 30
0.0
  0
SPLINE
  5
2ED
100
AcDbEntity
  8
0
100
AcDbSpline
 62
250
  6
CONTINUOUS
 70
0
 71
3
 72
13
 73
9
 74
0
 42
0.0000001
 43
0.0000001
 44
0.0000000001
 40
0.0
 40
0.0
 40
0.0
 40
0.0
 40
0.0191699655
 40
0.0685158421
 40
0.148998543
 40
0.2603505467
 40
0.5736281516
 40
1.0
 40
1.0
 40
1.0
 40
1.0
 10
-21.4360402013
 20
10.9855442053
 30
0.0
 10
-21.4357749198
 20
10.9855349415
 30
0.0
 10
-21.4355151112
 20
10.984254183
 30
0.0
 10
-21.4351998048
 20
10.9825342009
 30
0.0
 10
-21.4349343502
 20
10.9790284458
 30
0.0
 10
-21.4345747787
 20
10.9721477361
 30
0.0
 10
-21.4343401814
 20
10.960286229
 30
0.0
 10
-21.4342949597
 20
10.9500721699
 30
0.0
 10
-21.4342996239
 20
10.9441682748
 30
0.0
  0
SPLINE
  5
2EE
100
AcDbEntity
  8
0
100
AcDbSpline
 62
250
  6
CONTINUOUS
 70
0
 71
3
 72
9
 73
5
 74
0
 42
0.0000001
 43
0.0000001
 44
0.0000000001
 40
0.0
 40
0.0
 40
0.0
 40
0.0
 40
0.2002495639
 40
1.0
 40
1.0
 40
1.0
 40
1.0
 10
-21.4342996239
 20
10.9441682748
 30
0.0
 10
-21.4343079845
 20
10.9335854553
 30
0.0
 10
-21.4348095808
 20
10.8807382592
 30
0.0
 10
-21.4363107157
 20
10.8279056759
 30
0.0
 10
-21.437784711
 20
10.7856660399
 30
0.0
  0
SPLINE
  5
2EF
100
AcDbEntity
  8
0
100
AcDbSpline
 62
7
  6
CONTINUOUS
 70
0
 71
3
 72
18
 73
14
 74
0
 42
0.0000001
 43
0.0000001
 44
0.0000000001
 40
0.0
 40
0.0
 40
0.0
 40
0.0
 40
0.1713438199
 40
0.3385971968
 40
0.4991183816
 40
0.6490152073
 40
0.7829986136
 40
0.8416962841
 40
0.8933110385
 40
0.9363343967
 40
0.9692409177
 40
0.990788301
 40
1.0
 40
1.0
 40
1.0
 40
1.0
 10
-21.2447646103
 20
7.7454552646
 30
0.0
 10
-21.2308263021
 20
7.7441676915
 30
0.0
 10
-21.2048125762
 20
7.7316088496
 30
0.0
 10
-21.1725653706
 20
7.7070918483
 30
0.0
 10
-21.1426547577
 20
7.6819008523
 30
0.0
 10
-21.1155447191
 20
7.6577811895
 30
0.0
 10
-21.0947995521
 20
7.6389839306
 30
0.0
 10
-21.0800192973
 20
7.6255858937
 30
0.0
 10
-21.0707249797
 20
7.6171592123
 30
0.0
 10
-21.0629416373
 20
7.6103123924
 30
0.0
 10
-21.0569512531
 20
7.604864891
 30
0.0
 10
-21.0528920921
 20
7.6020033519
 30
0.0
 10
-21.0508936968
 20
7.6
 30
0.0
 10
-21.0501411621
 20
7.6
 30
0.0
  0
SPLINE
  5
2F0
100
AcDbEntity
  8
0
100
AcDbSpline
 62
7
  6
CONTINUOUS
 70
0
 71
3
 72
18
 73
14
 74
0
 42
0.0000001
 43
0.0000001
 44
0.0000000001
 40
0.0
 40
0.0
 40
0.0
 40
0.0
 40
0.0092495944
 40
0.0308568769
 40
0.0637452285
 40
0.1067012562
 40
0.158308769
 40
0.2170847436
 40
0.3509510916
 40
0.500874737
 40
0.6609778908
 40
0.8283757474
 40
1.0
 40
1.0
 40
1.0
 40
1.0
 10
-21.0501411621
 20
10.4
 30
0.0
 10
-21.0508967611
 20
10.4
 30
0.0
 10
-21.0528980317
 20
10.3979843948
 30
0.0
 10
-21.0569628423
 20
10.3951217197
 30
0.0
 10
-21.0629525043
 20
10.3896767557
 30
0.0
 10
-21.0707320835
 20
10.3828377847
 30
0.0
 10
-21.0800266799
 20
10.3744116606
 30
0.0
 10
-21.0948031895
 20
10.3610164556
 30
0.0
 10
-21.1155288379
 20
10.3421999548
 30
0.0
 10
-21.1426536419
 20
10.3181647048
 30
0.0
 10
-21.1724647785
 20
10.2928826802
 30
0.0
 10
-21.2048060274
 20
10.2685079437
 30
0.0
 10
-21.2308040713
 20
10.2558343621
 30
0.0
 10
-21.2447646103
 20
10.2545447354
 30
0.0
  0
SPLINE
  5
2F1
100
AcDbEntity
  8
0
100
AcDbSpline
 62
250
  6
CONTINUOUS
 70
0
 71
3
 72
13
 73
9
 74
0
 42
0.0000001
 43
0.0000001
 44
0.0000000001
 40
0.0
 40
0.0
 40
0.0
 40
0.0
 40
0.0191702154
 40
0.0685160448
 40
0.1489985959
 40
0.2603504191
 40
0.5736277764
 40
1.0
 40
1.0
 40
1.0
 40
1.0
 10
-21.4360402013
 20
7.0144557947
 30
0.0
 10
-21.4357749322
 20
7.0144650581
 30
0.0
 10
-21.4355150997
 20
7.0157457213
 30
0.0
 10
-21.4351998104
 20
7.0174656169
 30
0.0
 10
-21.434934341
 20
7.0209711465
 30
0.0
 10
-21.4345747663
 20
7.0278514431
 30
0.0
 10
-21.4343401451
 20
7.0397122387
 30
0.0
 10
-21.4342949072
 20
7.0499256931
 30
0.0
 10
-21.4342995608
 20
7.0558292421
 30
0.0
  0
SPLINE
  5
2F2
100
AcDbEntity
  8
0
100
AcDbSpline
 62
250
  6
CONTINUOUS
 70
0
 71
3
 72
9
 73
5
 74
0
 42
0.0000001
 43
0.0000001
 44
0.0000000001
 40
0.0
 40
0.0
 40
0.0
 40
0.0
 40
0.200247092
 40
1.0
 40
1.0
 40
1.0
 40
1.0
 10
-21.4342995608
 20
7.0558292421
 30
0.0
 10
-21.4343079031
 20
7.0664120969
 30
0.0
 10
-21.434809465
 20
7.1192601218
 30
0.0
 10
-21.4363106535
 20
7.1720935328
 30
0.0
 10
-21.437784711
 20
7.2143339601
 30
0.0
  0
SPLINE
  5
2F3
100
AcDbEntity
  8
0
100
AcDbSpline
 62
250
  6
CONTINUOUS
 70
0
 71
3
 72
15
 73
11
 74
0
 42
0.0000001
 43
0.0000001
 44
0.0000000001
 40
0.0
 40
0.0
 40
0.0
 40
0.0
 40
0.0054863421
 40
0.0187764929
 40
0.0701139302
 40
0.15414518
 40
0.2698303493
 40
0.4149315229
 40
0.5869082289
 40
1.0
 40
1.0
 40
1.0
 40
1.0
 10
-21.4639597987
 20
7.0134808209
 30
0.0
 10
-21.4637767269
 20
7.0134872139
 30
0.0
 10
-21.4635098471
 20
7.014268282
 30
0.0
 10
-21.4631203825
 20
7.0163188971
 30
0.0
 10
-21.4627352721
 20
7.0215317133
 30
0.0
 10
-21.4624270884
 20
7.0297592603
 30
0.0
 10
-21.4622431494
 20
7.0413361356
 30
0.0
 10
-21.46219665
 20
7.0557615394
 30
0.0
 10
-21.4623341153
 20
7.0801520709
 30
0.0
 10
-21.4626465656
 20
7.0996801119
 30
0.0
 10
-21.4629192278
 20
7.1134701261
 30
0.0
  0
SPLINE
  5
2F4
100
AcDbEntity
  8
0
100
AcDbSpline
 62
250
  6
CONTINUOUS
 70
0
 71
3
 72
20
 73
16
 74
0
 42
0.0000001
 43
0.0000001
 44
0.0000000001
 40
0.0
 40
0.0
 40
0.0
 40
0.0
 40
0.1946836485
 40
0.3822420157
 40
0.5548672278
 40
0.7061645703
 40
0.7720139913
 40
0.8304267701
 40
0.8808290906
 40
0.9227902547
 40
0.9558939461
 40
0.9798065621
 40
0.9944056219
 40
0.9982402306
 40
1.0
 40
1.0
 40
1.0
 40
1.0
 10
-24.8630884742
 20
-25.8134150626
 30
0.0
 10
-24.8639379089
 20
-25.8458759099
 30
0.0
 10
-24.8654432838
 20
-25.9096139435
 30
0.0
 10
-24.8671472584
 20
-26.0021468789
 30
0.0
 10
-24.8682134912
 20
-26.0874526303
 30
0.0
 10
-24.8685622973
 20
-26.1524634091
 30
0.0
 10
-24.8684532472
 20
-26.1984260996
 30
0.0
 10
-24.8682028157
 20
-26.2275555575
 30
0.0
 10
-24.8677800195
 20
-26.2527087194
 30
0.0
 10
-24.8672057335
 20
-26.2736061796
 30
0.0
 10
-24.8664628464
 20
-26.2901580663
 30
0.0
 10
-24.8656504033
 20
-26.3019418112
 30
0.0
 10
-24.8647151724
 20
-26.3091890251
 30
0.0
 10
-24.863966089
 20
-26.3122355835
 30
0.0
 10
-24.8633818916
 20
-26.3132360417
 30
0.0
 10
-24.8630884742
 20
-26.3132437251
 30
0.0
  0
SPLINE
  5
2F5
100
AcDbEntity
  8
0
100
AcDbSpline
 62
250
  6
CONTINUOUS
 70
0
 71
3
 72
18
 73
14
 74
0
 42
0.0000001
 43
0.0000001
 44
0.0000000001
 40
0.0
 40
0.0
 40
0.0
 40
0.0
 40
0.0048694746
 40
0.0192135973
 40
0.0428870148
 40
0.075719319
 40
0.1174794648
 40
0.1677042665
 40
0.2914622104
 40
0.442555251
 40
0.6154816069
 40
0.8040031004
 40
1.0
 40
1.0
 40
1.0
 40
1.0
 10
-21.9735407954
 20
18.124115051
 30
0.0
 10
-21.9734508991
 20
18.1238115662
 30
0.0
 10
-21.975477723
 20
18.1236629654
 30
0.0
 10
-21.9772925016
 20
18.1224680069
 30
0.0
 10
-21.9821321905
 20
18.1211981336
 30
0.0
 10
-21.9880163572
 20
18.1191886596
 30
0.0
 10
-21.9958355744
 20
18.1167903111
 30
0.0
 10
-22.009195561
 20
18.1126284815
 30
0.0
 10
-22.0294241628
 20
18.1064563029
 30
0.0
 10
-22.057271359
 20
18.0980165863
 30
0.0
 10
-22.0891793975
 20
18.0884262833
 30
0.0
 10
-22.1238962383
 20
18.0780528972
 30
0.0
 10
-22.1478547301
 20
18.070932599
 30
0.0
 10
-22.1600693527
 20
18.0673119821
 30
0.0
  0
SPLINE
  5
2F6
100
AcDbEntity
  8
0
100
AcDbSpline
 62
7
  6
CONTINUOUS
 70
0
 71
3
 72
15
 73
11
 74
0
 42
0.0000001
 43
0.0000001
 44
0.0000000001
 40
0.0
 40
0.0
 40
0.0
 40
0.0
 40
0.3324214168
 40
0.4884853196
 40
0.6338465387
 40
0.7642662627
 40
0.8738088779
 40
0.9546448423
 40
0.9820236352
 40
1.0
 40
1.0
 40
1.0
 40
1.0
 10
-21.9413361056
 20
6.9
 30
0.0
 10
-21.9413361056
 20
6.8756480802
 30
0.0
 10
-21.9303566843
 20
6.8400130509
 30
0.0
 10
-21.9082889291
 20
6.7993266414
 30
0.0
 10
-21.8915886027
 20
6.7724132562
 30
0.0
 10
-21.8761160572
 20
6.7488011425
 30
0.0
 10
-21.8632608518
 20
6.7291615793
 30
0.0
 10
-21.8548654471
 20
6.7155171888
 30
0.0
 10
-21.8509888718
 20
6.7071660797
 30
0.0
 10
-21.85
 20
6.7039088652
 30
0.0
 10
-21.85
 20
6.7025919855
 30
0.0
  0
SPLINE
  5
2F7
100
AcDbEntity
  8
0
100
AcDbSpline
 62
7
  6
CONTINUOUS
 70
0
 71
3
 72
14
 73
10
 74
0
 42
0.0000001
 43
0.0000001
 44
0.0000000001
 40
0.0
 40
0.0
 40
0.0
 40
0.0
 40
0.0180257959
 40
0.0455208698
 40
0.1265525259
 40
0.2362118321
 40
0.366786517
 40
0.6683612691
 40
1.0
 40
1.0
 40
1.0
 40
1.0
 10
-21.85
 20
12.1974080145
 30
0.0
 10
-21.85
 20
12.1960877069
 30
0.0
 10
-21.8510003696
 20
12.1928205878
 30
0.0
 10
-21.8548937385
 20
12.1844514172
 30
0.0
 10
-21.8632910609
 20
12.1707728167
 30
0.0
 10
-21.8761751004
 20
12.1511201788
 30
0.0
 10
-21.8979197625
 20
12.1178846932
 30
0.0
 10
-21.9270799944
 20
12.0703314852
 30
0.0
 10
-21.9413361056
 20
12.0242910285
 30
0.0
 10
-21.9413361056
 20
12.0
 30
0.0
  0
SPLINE
  5
2F8
100
AcDbEntity
  8
0
100
AcDbSpline
 62
250
  6
CONTINUOUS
 70
0
 71
3
 72
15
 73
11
 74
0
 42
0.0000001
 43
0.0000001
 44
0.0000000001
 40
0.0
 40
0.0
 40
0.0
 40
0.0
 40
0.0054863289
 40
0.0187765277
 40
0.070114162
 40
0.1541456749
 40
0.2698311346
 40
0.4149325401
 40
0.5869092771
 40
1.0
 40
1.0
 40
1.0
 40
1.0
 10
-21.4639597987
 20
-7.0134808209
 30
0.0
 10
-21.4637767207
 20
-7.0134872141
 30
0.0
 10
-21.463509839
 20
-7.0142683187
 30
0.0
 10
-21.4631203638
 20
-7.0163190105
 30
0.0
 10
-21.4627352531
 20
-7.0215320431
 30
0.0
 10
-21.4624270673
 20
-7.029759913
 30
0.0
 10
-21.462243136
 20
-7.041337241
 30
0.0
 10
-21.4621966491
 20
-7.0557631917
 30
0.0
 10
-21.4623341411
 20
-7.0801545915
 30
0.0
 10
-21.4626466167
 20
-7.0996833143
 30
0.0
 10
-21.4629192985
 20
-7.113473799
 30
0.0
  0
SPLINE
  5
2F9
100
AcDbEntity
  8
0
100
AcDbSpline
 62
250
  6
CONTINUOUS
 70
0
 71
3
 72
13
 73
9
 74
0
 42
0.0000001
 43
0.0000001
 44
0.0000000001
 40
0.0
 40
0.0
 40
0.0
 40
0.0
 40
0.0191699655
 40
0.0685158421
 40
0.148998543
 40
0.2603505467
 40
0.5736281516
 40
1.0
 40
1.0
 40
1.0
 40
1.0
 10
-21.4360402013
 20
-7.0144557947
 30
0.0
 10
-21.4357749198
 20
-7.0144650585
 30
0.0
 10
-21.4355151112
 20
-7.015745817
 30
0.0
 10
-21.4351998048
 20
-7.0174657991
 30
0.0
 10
-21.4349343502
 20
-7.0209715542
 30
0.0
 10
-21.4345747787
 20
-7.0278522639
 30
0.0
 10
-21.4343401814
 20
-7.039713771
 30
0.0
 10
-21.4342949597
 20
-7.0499278301
 30
0.0
 10
-21.4342996239
 20
-7.0558317252
 30
0.0
  0
SPLINE
  5
2FA
100
AcDbEntity
  8
0
100
AcDbSpline
 62
250
  6
CONTINUOUS
 70
0
 71
3
 72
9
 73
5
 74
0
 42
0.0000001
 43
0.0000001
 44
0.0000000001
 40
0.0
 40
0.0
 40
0.0
 40
0.0
 40
0.2002495639
 40
1.0
 40
1.0
 40
1.0
 40
1.0
 10
-21.4342996239
 20
-7.0558317252
 30
0.0
 10
-21.4343079845
 20
-7.0664145447
 30
0.0
 10
-21.4348095808
 20
-7.1192617408
 30
0.0
 10
-21.4363107157
 20
-7.1720943241
 30
0.0
 10
-21.437784711
 20
-7.2143339601
 30
0.0
  0
SPLINE
  5
2FB
100
AcDbEntity
  8
0
100
AcDbSpline
 62
7
  6
CONTINUOUS
 70
0
 71
3
 72
18
 73
14
 74
0
 42
0.0000001
 43
0.0000001
 44
0.0000000001
 40
0.0
 40
0.0
 40
0.0
 40
0.0
 40
0.0104734752
 40
0.0328957411
 40
0.0663127612
 40
0.1095483767
 40
0.1612108892
 40
0.2198545683
 40
0.3532197192
 40
0.5024101573
 40
0.661704992
 40
0.8288320444
 40
1.0
 40
1.0
 40
1.0
 40
1.0
 10
-21.05
 20
-7.600310828
 30
0.0
 10
-21.05
 20
-7.6011615234
 30
0.0
 10
-21.0518143209
 20
-7.6034536241
 30
0.0
 10
-21.0547443996
 20
-7.6077477072
 30
0.0
 10
-21.0599743373
 20
-7.6139965418
 30
0.0
 10
-21.0666384326
 20
-7.6219578178
 30
0.0
 10
-21.0747886557
 20
-7.6314163313
 30
0.0
 10
-21.0877364857
 20
-7.6463771764
 30
0.0
 10
-21.1058830844
 20
-7.6673318237
 30
0.0
 10
-21.1288733435
 20
-7.6948757442
 30
0.0
 10
-21.1528187966
 20
-7.7252675885
 30
0.0
 10
-21.1749879599
 20
-7.758949376
 30
0.0
 10
-21.1841654476
 20
-7.7860970885
 30
0.0
 10
-21.1841654476
 20
-7.8
 30
0.0
  0
SPLINE
  5
2FC
100
AcDbEntity
  8
0
100
AcDbSpline
 62
7
  6
CONTINUOUS
 70
0
 71
3
 72
18
 73
14
 74
0
 42
0.0000001
 43
0.0000001
 44
0.0000000001
 40
0.0
 40
0.0
 40
0.0
 40
0.0
 40
0.1710074689
 40
0.3375834055
 40
0.4973005858
 40
0.6464691257
 40
0.7799711043
 40
0.8386322818
 40
0.8903432351
 40
0.9336399216
 40
0.9670954449
 40
0.989525351
 40
1.0
 40
1.0
 40
1.0
 40
1.0
 10
-21.1841654476
 20
-10.2
 30
0.0
 10
-21.1841654476
 20
-10.2138907541
 30
0.0
 10
-21.1751836361
 20
-10.2410540937
 30
0.0
 10
-21.152723757
 20
-10.2745390424
 30
0.0
 10
-21.129022506
 20
-10.3050944955
 30
0.0
 10
-21.1058968414
 20
-10.3325918849
 30
0.0
 10
-21.087772688
 20
-10.3535803428
 30
0.0
 10
-21.0748169952
 20
-10.3685580556
 30
0.0
 10
-21.0666585799
 20
-10.3780241125
 30
0.0
 10
-21.0599830809
 20
-10.3859923524
 30
0.0
 10
-21.0547456816
 20
-10.3922469962
 30
0.0
 10
-21.0518127893
 20
-10.3965444678
 30
0.0
 10
-21.05
 20
-10.3988383274
 30
0.0
 10
-21.05
 20
-10.399689172
 30
0.0
  0
SPLINE
  5
2FD
100
AcDbEntity
  8
0
100
AcDbSpline
 62
250
  6
CONTINUOUS
 70
0
 71
3
 72
13
 73
9
 74
0
 42
0.0000001
 43
0.0000001
 44
0.0000000001
 40
0.0
 40
0.0
 40
0.0
 40
0.0
 40
0.0191702154
 40
0.0685160448
 40
0.1489985959
 40
0.2603504191
 40
0.5736277764
 40
1.0
 40
1.0
 40
1.0
 40
1.0
 10
-21.4360402013
 20
-10.9855442053
 30
0.0
 10
-21.4357749322
 20
-10.9855349419
 30
0.0
 10
-21.4355150997
 20
-10.9842542787
 30
0.0
 10
-21.4351998104
 20
-10.9825343831
 30
0.0
 10
-21.434934341
 20
-10.9790288535
 30
0.0
 10
-21.4345747663
 20
-10.9721485569
 30
0.0
 10
-21.4343401451
 20
-10.9602877613
 30
0.0
 10
-21.4342949072
 20
-10.9500743069
 30
0.0
 10
-21.4342995608
 20
-10.9441707579
 30
0.0
  0
SPLINE
  5
2FE
100
AcDbEntity
  8
0
100
AcDbSpline
 62
250
  6
CONTINUOUS
 70
0
 71
3
 72
9
 73
5
 74
0
 42
0.0000001
 43
0.0000001
 44
0.0000000001
 40
0.0
 40
0.0
 40
0.0
 40
0.0
 40
0.200247092
 40
1.0
 40
1.0
 40
1.0
 40
1.0
 10
-21.4342995608
 20
-10.9441707579
 30
0.0
 10
-21.4343079031
 20
-10.9335879031
 30
0.0
 10
-21.434809465
 20
-10.8807398782
 30
0.0
 10
-21.4363106535
 20
-10.8279064672
 30
0.0
 10
-21.437784711
 20
-10.7856660399
 30
0.0
  0
SPLINE
  5
2FF
100
AcDbEntity
  8
0
100
AcDbSpline
 62
250
  6
CONTINUOUS
 70
0
 71
3
 72
15
 73
11
 74
0
 42
0.0000001
 43
0.0000001
 44
0.0000000001
 40
0.0
 40
0.0
 40
0.0
 40
0.0
 40
0.0054863421
 40
0.0187764929
 40
0.0701139302
 40
0.15414518
 40
0.2698303493
 40
0.4149315229
 40
0.5869082289
 40
1.0
 40
1.0
 40
1.0
 40
1.0
 10
-21.4639597987
 20
-10.9865191791
 30
0.0
 10
-21.4637767269
 20
-10.9865127861
 30
0.0
 10
-21.4635098471
 20
-10.985731718
 30
0.0
 10
-21.4631203825
 20
-10.9836811029
 30
0.0
 10
-21.4627352721
 20
-10.9784682867
 30
0.0
 10
-21.4624270884
 20
-10.9702407397
 30
0.0
 10
-21.4622431494
 20
-10.9586638644
 30
0.0
 10
-21.46219665
 20
-10.9442384606
 30
0.0
 10
-21.4623341153
 20
-10.9198479291
 30
0.0
 10
-21.4626465656
 20
-10.9003198881
 30
0.0
 10
-21.4629192278
 20
-10.8865298739
 30
0.0
  0
SPLINE
  5
300
100
AcDbEntity
  8
0
100
AcDbSpline
 62
250
  6
CONTINUOUS
 70
0
 71
3
 72
18
 73
14
 74
0
 42
0.0000001
 43
0.0000001
 44
0.0000000001
 40
0.0
 40
0.0
 40
0.0
 40
0.0
 40
0.0048694739
 40
0.0192135954
 40
0.0428870116
 40
0.0757193148
 40
0.1174794591
 40
0.1677042583
 40
0.2914621977
 40
0.4425552362
 40
0.6154815956
 40
0.804003097
 40
1.0
 40
1.0
 40
1.0
 40
1.0
 10
-21.9735407954
 20
-18.124115051
 30
0.0
 10
-21.9734508991
 20
-18.1238115662
 30
0.0
 10
-21.9754777229
 20
-18.1236629656
 30
0.0
 10
-21.9772925013
 20
-18.1224680072
 30
0.0
 10
-21.98213219
 20
-18.1211981341
 30
0.0
 10
-21.9880163565
 20
-18.1191886602
 30
0.0
 10
-21.9958355734
 20
-18.1167903118
 30
0.0
 10
-22.0091955595
 20
-18.1126284824
 30
0.0
 10
-22.0294241607
 20
-18.106456304
 30
0.0
 10
-22.0572713567
 20
-18.0980165874
 30
0.0
 10
-22.0891793958
 20
-18.0884262842
 30
0.0
 10
-22.1238962374
 20
-18.0780528976
 30
0.0
 10
-22.1478547299
 20
-18.0709325992
 30
0.0
 10
-22.1600693527
 20
-18.0673119821
 30
0.0
  0
SPLINE
  5
301
100
AcDbEntity
  8
0
100
AcDbSpline
 62
250
  6
CONTINUOUS
 70
0
 71
3
 72
20
 73
16
 74
0
 42
0.0000001
 43
0.0000001
 44
0.0000000001
 40
0.0
 40
0.0
 40
0.0
 40
0.0
 40
0.1946837027
 40
0.3822421983
 40
0.5548674707
 40
0.7061648431
 40
0.7720142736
 40
0.8304270734
 40
0.8808293464
 40
0.9227904303
 40
0.9558940757
 40
0.979806645
 40
0.9944056476
 40
0.9982402366
 40
1.0
 40
1.0
 40
1.0
 40
1.0
 10
-24.8630884742
 20
25.8134150626
 30
0.0
 10
-24.8639379091
 20
25.845875919
 30
0.0
 10
-24.8654432842
 20
25.9096139831
 30
0.0
 10
-24.86714726
 20
26.0021469591
 30
0.0
 10
-24.8682134922
 20
26.087452747
 30
0.0
 10
-24.868562298
 20
26.1524635425
 30
0.0
 10
-24.8684532458
 20
26.1984262431
 30
0.0
 10
-24.868202814
 20
26.2275556982
 30
0.0
 10
-24.8677800161
 20
26.2527088422
 30
0.0
 10
-24.867205728
 20
26.2736062737
 30
0.0
 10
-24.8664628431
 20
26.2901581308
 30
0.0
 10
-24.8656504054
 20
26.3019418528
 30
0.0
 10
-24.8647151768
 20
26.3091890428
 30
0.0
 10
-24.8639660953
 20
26.3122355914
 30
0.0
 10
-24.8633818972
 20
26.3132360415
 30
0.0
 10
-24.8630884808
 20
26.3132437249
 30
0.0
  0
SPLINE
  5
302
100
AcDbEntity
  8
0
100
AcDbSpline
 62
250
  6
CONTINUOUS
 70
0
 71
3
 72
18
 73
14
 74
0
 42
0.0000001
 43
0.0000001
 44
0.0000000001
 40
0.0
 40
0.0
 40
0.0
 40
0.0
 40
0.1945816202
 40
0.38240033
 40
0.5551474907
 40
0.7064139973
 40
0.8305407995
 40
0.880984054
 40
0.9229676318
 40
0.9560208843
 40
0.9799204388
 40
0.9945350393
 40
1.0
 40
1.0
 40
1.0
 40
1.0
 10
-20.8820475324
 20
-17.2236100982
 30
0.0
 10
-20.8806944507
 20
-17.2107275586
 30
0.0
 10
-20.8781000328
 20
-17.1854032424
 30
0.0
 10
-20.8745220017
 20
-17.1486208164
 30
0.0
 10
-20.8714230774
 20
-17.1146869034
 30
0.0
 10
-20.8689238984
 20
-17.0849643609
 30
0.0
 10
-20.867307096
 20
-17.0633188055
 30
0.0
 10
-20.866418987
 20
-17.0489522705
 30
0.0
 10
-20.8659793257
 20
-17.040561901
 30
0.0
 10
-20.8657874198
 20
-17.0341045796
 30
0.0
 10
-20.8656701054
 20
-17.0290507041
 30
0.0
 10
-20.8659462844
 20
-17.0266462799
 30
0.0
 10
-20.866015417
 20
-17.0247437472
 30
0.0
 10
-20.8663772294
 20
-17.0247057191
 30
0.0
  0
SPLINE
  5
303
100
AcDbEntity
  8
0
100
AcDbSpline
 62
250
  6
CONTINUOUS
 70
0
 71
3
 72
18
 73
14
 74
0
 42
0.0000001
 43
0.0000001
 44
0.0000000001
 40
0.0
 40
0.0
 40
0.0
 40
0.0
 40
0.1945815577
 40
0.3824001208
 40
0.5551472157
 40
0.7064137582
 40
0.830540641
 40
0.8809839427
 40
0.9229675474
 40
0.9560208182
 40
0.9799203995
 40
0.9945350248
 40
1.0
 40
1.0
 40
1.0
 40
1.0
 10
-20.8820475324
 20
-20.5763899018
 30
0.0
 10
-20.8806944515
 20
-20.5892724374
 30
0.0
 10
-20.8781000351
 20
-20.6145967399
 30
0.0
 10
-20.8745220063
 20
-20.651379148
 30
0.0
 10
-20.8714230831
 20
-20.6853130495
 30
0.0
 10
-20.868923903
 20
-20.7150355955
 30
0.0
 10
-20.8673070986
 20
-20.7366811618
 30
0.0
 10
-20.866418988
 20
-20.7510477071
 30
0.0
 10
-20.8659793265
 20
-20.7594380828
 30
0.0
 10
-20.8657874212
 20
-20.7658954092
 30
0.0
 10
-20.8656701083
 20
-20.7709492892
 30
0.0
 10
-20.8659462876
 20
-20.7733537178
 30
0.0
 10
-20.8660154225
 20
-20.7752562534
 30
0.0
 10
-20.8663772359
 20
-20.7752942815
 30
0.0
  0
SPLINE
  5
304
100
AcDbEntity
  8
0
100
AcDbSpline
 62
250
  6
CONTINUOUS
 70
0
 71
3
 72
18
 73
14
 74
0
 42
0.0000001
 43
0.0000001
 44
0.0000000001
 40
0.0
 40
0.0
 40
0.0
 40
0.0
 40
0.0054649618
 40
0.0200795625
 40
0.0439791171
 40
0.0770323696
 40
0.1190159473
 40
0.1694592017
 40
0.2935860037
 40
0.4448525101
 40
0.6175996705
 40
0.8054183801
 40
1.0
 40
1.0
 40
1.0
 40
1.0
 10
-20.8663772294
 20
17.0247057191
 30
0.0
 10
-20.8660154169
 20
17.0247437472
 30
0.0
 10
-20.8659462836
 20
17.0266462798
 30
0.0
 10
-20.8656701047
 20
17.0290507042
 30
0.0
 10
-20.8657874187
 20
17.0341045796
 30
0.0
 10
-20.8659793245
 20
17.0405619011
 30
0.0
 10
-20.8664189859
 20
17.0489522706
 30
0.0
 10
-20.8673070951
 20
17.0633188056
 30
0.0
 10
-20.8689238978
 20
17.084964361
 30
0.0
 10
-20.8714230771
 20
17.1146869035
 30
0.0
 10
-20.8745220016
 20
17.1486208164
 30
0.0
 10
-20.8781000327
 20
17.1854032424
 30
0.0
 10
-20.8806944507
 20
17.2107275586
 30
0.0
 10
-20.8820475324
 20
17.2236100982
 30
0.0
  0
SPLINE
  5
305
100
AcDbEntity
  8
0
100
AcDbSpline
 62
250
  6
CONTINUOUS
 70
0
 71
3
 72
18
 73
14
 74
0
 42
0.0000001
 43
0.0000001
 44
0.0000000001
 40
0.0
 40
0.0
 40
0.0
 40
0.0
 40
0.0054649691
 40
0.0200795919
 40
0.0439791716
 40
0.0770324416
 40
0.1190160456
 40
0.1694593462
 40
0.2935862274
 40
0.4448527701
 40
0.6175998686
 40
0.8054184385
 40
1.0
 40
1.0
 40
1.0
 40
1.0
 10
-20.8663772294
 20
20.7752942809
 30
0.0
 10
-20.8660154164
 20
20.7752562528
 30
0.0
 10
-20.865946286
 20
20.7733537162
 30
0.0
 10
-20.865670106
 20
20.7709492898
 30
0.0
 10
-20.8657874217
 20
20.7658954093
 30
0.0
 10
-20.8659793276
 20
20.7594380835
 30
0.0
 10
-20.8664189899
 20
20.751047708
 30
0.0
 10
-20.8673071008
 20
20.7366811632
 30
0.0
 10
-20.868923905
 20
20.7150355972
 30
0.0
 10
-20.8714230851
 20
20.6853130513
 30
0.0
 10
-20.8745220081
 20
20.6513791493
 30
0.0
 10
-20.8781000362
 20
20.6145967406
 30
0.0
 10
-20.8806944519
 20
20.5892724376
 30
0.0
 10
-20.8820475324
 20
20.5763899018
 30
0.0
  0
ELLIPSE
  5
306
100
AcDbEntity
  8
0
100
AcDbEllipse
 62
7
  6
CONTINUOUS
 10
21.7843637998
 20
-25.8343637998
 30
0.0
 11
0.35379574
 21
-0.35379574
 31
0.0
 40
0.999315002
 41
-0.7850555471
 42
0.7850555471
  0
ELLIPSE
  5
307
100
AcDbEntity
  8
0
100
AcDbEllipse
 62
7
  6
CONTINUOUS
 10
21.7843637998
 20
25.8343637998
 30
0.0
 11
-0.35379574
 21
-0.35379574
 31
0.0
 40
0.999315002
 41
2.3565371065
 42
3.9266482006
  0
ELLIPSE
  5
308
100
AcDbEntity
  8
0
100
AcDbEllipse
 62
7
  6
CONTINUOUS
 10
0.7156362002
 20
25.8343637998
 30
0.0
 11
-0.35379574
 21
0.35379574
 31
0.0
 40
0.999315002
 41
-0.7850555471
 42
0.7850555471
  0
ELLIPSE
  5
309
100
AcDbEntity
  8
0
100
AcDbEllipse
 62
7
  6
CONTINUOUS
 10
0.7156362002
 20
-25.8343637998
 30
0.0
 11
0.35379574
 21
0.35379574
 31
0.0
 40
0.999315002
 41
2.3565371065
 42
3.9266482006
  0
ELLIPSE
  5
30A
100
AcDbEntity
  8
0
100
AcDbEllipse
 62
7
  6
CONTINUOUS
 10
23.2156362002
 20
25.8343637998
 30
0.0
 11
0.35379574
 21
-0.35379574
 31
0.0
 40
0.999315002
 41
2.3565371065
 42
3.9266482006
  0
ELLIPSE
  5
30B
100
AcDbEntity
  8
0
100
AcDbEllipse
 62
7
  6
CONTINUOUS
 10
23.2156362002
 20
-25.8343637998
 30
0.0
 11
0.35379574
 21
0.35379574
 31
0.0
 40
0.999315002
 41
2.3565371065
 42
3.9266482006
  0
ELLIPSE
  5
30C
100
AcDbEntity
  8
0
100
AcDbEllipse
 62
7
  6
CONTINUOUS
 10
44.2843637998
 20
-25.8343637998
 30
0.0
 11
-0.35379574
 21
0.35379574
 31
0.0
 40
0.999315002
 41
-3.9266482006
 42
-2.3565371065
  0
ELLIPSE
  5
30D
100
AcDbEntity
  8
0
100
AcDbEllipse
 62
7
  6
CONTINUOUS
 10
44.2843637998
 20
25.8343637998
 30
0.0
 11
-0.35379574
 21
-0.35379574
 31
0.0
 40
0.999315002
 41
2.3565371065
 42
3.9266482006
  0
ELLIPSE
  5
30E
100
AcDbEntity
  8
0
100
AcDbEllipse
 62
7
  6
CONTINUOUS
 10
-13.8965992801
 20
10.2
 30
0.0
 11
7.6376918594
 21
0.0
 31
0.0
 40
0.0261859216
 41
2.86536976
 42
3.1415926536
  0
ELLIPSE
  5
30F
100
AcDbEntity
  8
0
100
AcDbEllipse
 62
7
  6
CONTINUOUS
 10
-13.8965992801
 20
7.8
 30
0.0
 11
7.6376918594
 21
0.0
 31
0.0
 40
0.0261859216
 41
3.1415926536
 42
3.4178155471
  0
ELLIPSE
  5
310
100
AcDbEntity
  8
0
100
AcDbEllipse
 62
7
  6
CONTINUOUS
 10
-21.45
 20
0.0
 30
0.0
 11
0.0
 21
1.25
 31
0.0
 40
1.0
 41
-3.467601824
 42
-2.61940087
  0
ELLIPSE
  5
311
100
AcDbEntity
  8
0
100
AcDbEllipse
 62
7
  6
CONTINUOUS
 10
-21.45
 20
0.0
 30
0.0
 11
0.0
 21
1.25
 31
0.0
 40
1.0
 41
-0.5221917836
 42
0.3260091704
  0
ENDSEC
  0
SECTION
  2
OBJECTS
  0
DICTIONARY
  5
C
100
AcDbDictionary
280
0
281
1
  3
ACAD_GROUP
350
D
  3
ACAD_MLINESTYLE
350
17
  3
ACAD_LAYOUT
350
1A
  3
ACAD_PLOTSETTINGS
350
19
  3
ACAD_PLOTSTYLENAME
350
E
  0
DICTIONARY
  5
D
102
{ACAD_REACTORS
330
C
102
}
100
AcDbDictionary
280
0
281
1
  0
ACDBDICTIONARYWDFLT
  5
E
102
{ACAD_REACTORS
330
C
102
}
100
AcDbDictionary
281
1
  3
Normal
350
F
100
AcDbDictionaryWithDefault
340
F
  0
DICTIONARY
  5
17
102
{ACAD_REACTORS
330
C
102
}
100
AcDbDictionary
280
0
281
1
  3
Standard
350
18
  0
DICTIONARY
  5
19
102
{ACAD_REACTORS
330
C
102
}
100
AcDbDictionary
281
1
  0
DICTIONARY
  5
1A
102
{ACAD_REACTORS
330
C
102
}
100
AcDbDictionary
281
1
  3
Model
350
312
  3
Layout1
350
313
  0
ACDBPLACEHOLDER
  5
F
102
{ACAD_REACTORS
330
E
102
}
  0
MLINESTYLE
  5
18
102
{ACAD_REACTORS
330
17
102
}
100
AcDbMlineStyle
  2
STANDARD
 70
0
  3

 62
256
 51
90.0
 52
90.0
 71
2
 49
0.5
 62
256
  6
BYLAYER
 49
-0.5
 62
256
  6
BYLAYER
  0
LAYOUT
  5
312
102
{ACAD_REACTORS
330
1A
102
}
100
AcDbPlotSettings
  1

  2
none_device
  4
ISO_A4_(297.00_x_210.00_MM)
  6

 40
0.0
 41
0.0
 42
0.0
 43
0.0
 44
297.0
 45
210.0
 46
0.0
 47
0.0
 48
0.0
 49
0.0
140
0.0
141
0.0
142
1.0
143
1.0
 70
1024
 72
1
 73
0
 74
0
  7

 75
0
147
1.0
148
0.0
149
0.0
100
AcDbLayout
  1
Model
 70
0
 71
0
 10
0.0
 20
0.0
 11
297.0
 21
210.0
 12
0.0
 22
0.0
 32
0.0
 14
0.0
 24
0.0
 34
0.0
 15
0.0
 25
0.0
 35
0.0
146
0.0
 13
0.0
 23
0.0
 33
0.0
 16
1.0
 26
0.0
 36
0.0
 17
0.0
 27
1.0
 37
0.0
 76
0
330
216
345
0
346
0
  0
LAYOUT
  5
313
102
{ACAD_REACTORS
330
1A
102
}
100
AcDbPlotSettings
  1

  2
none_device
  4
ISO_A4_(297.00_x_210.00_MM)
  6

 40
0.0
 41
0.0
 42
0.0
 43
0.0
 44
297.0
 45
210.0
 46
0.0
 47
0.0
 48
0.0
 49
0.0
140
0.0
141
0.0
142
1.0
143
1.0
 70
0
 72
1
 73
0
 74
0
  7

 75
0
147
1.0
148
0.0
149
0.0
100
AcDbLayout
  1
Layout1
 70
0
 71
1
 10
0.0
 20
0.0
 11
297.0
 21
210.0
 12
0.0
 22
0.0
 32
0.0
 14
0.0
 24
0.0
 34
0.0
 15
0.0
 25
0.0
 35
0.0
146
0.0
 13
0.0
 23
0.0
 33
0.0
 16
1.0
 26
0.0
 36
0.0
 17
0.0
 27
1.0
 37
0.0
 76
0
330
217
345
0
346
0
  0
ENDSEC
  0
EOF
