  0
SECTION
  2
HEADER
  9
$ACADVER
  1
AC1024
  9
$DWGCODEPAGE
  3
ANSI_1252
  9
$EXTMAX
 10
210.0
 20
297.0
 30
0.0
  9
$EXTMIN
 10
0.0
 20
0.0
 30
0.0
  9
$LIMMIN
 10
0.0
 20
0.0
  9
$LIMMAX
 10
210.0
 20
297.0
  9
$VIEWCTR
 10
105.0
 20
148.5
  9
$VIEWSIZE
 40
297.0
  9
$CLAYER
  8
0
  9
$LTSCALE
 40
19.36
  9
$CELTYPE
  6
BYLAYER
  9
$DIMSCALE
 40
1.0
  9
$DIMASZ
 40
3.0
  9
$DIMEXO
 40
0.5
  9
$DIMDLI
 40
13.376
  9
$DIMEXE
 40
1.5
  9
$DIMCEN
 40
3.168
  9
$DIMLFAC
 40
1.0
  9
$DIMBLK
  1
_FILLED
  9
$DIMALT
 70
0
  9
$DIMALTF
 40
0.0393700787
  9
$DIMTXT
 40
3.0
  9
$DIMTOL
 70
1
  9
$DIMLIM
 70
0
  9
$DIMTFAC
 40
1.0
  9
$DIMTP
 40
0.01
  9
$DIMTM
 40
0.01
  9
$DIMGAP
 40
0.625
  9
$DIMDSEP
 70
44
  9
$AUNITS
 70
0
  9
$PDMODE
 70
3
  9
$PDSIZE
 40
3.0
  9
$HANDSEED
  5
309
  9
$TILEMODE
 70
1
  9
$MEASUREMENT
 70
1
  9
$INSUNITS
 70
4
  0
ENDSEC
  0
SECTION
  2
CLASSES
  0
CLASS
  1
ACDBDICTIONARYWDFLT
  2
AcDbDictionaryWithDefault
  3
AutoCAD 2000
 90
0
 91
1
280
0
281
0
  0
CLASS
  1
ACDBPLACEHOLDER
  2
AcDbPlaceHolder
  3
AutoCAD 2000
 90
0
 91
1
280
0
281
0
  0
CLASS
  1
LAYOUT
  2
AcDbLayout
  3
AutoCAD 2000
 90
0
 91
0
280
0
281
0
  0
ENDSEC
  0
SECTION
  2
TABLES
  0
TABLE
  2
VPORT
  5
8
100
AcDbSymbolTable
 70
2
  0
VPORT
  5
1F4
100
AcDbSymbolTableRecord
100
AcDbViewportTableRecord
  2
*ACTIVE
 70
0
 10
0.0
 20
0.0
 11
1.0
 21
1.0
 12
105.0
 22
148.5
 13
0.0
 23
0.0
 14
1.0
 24
1.0
 15
0.0
 25
0.0
 16
0.0
 26
0.0
 36
1.0
 17
0.0
 27
0.0
 37
0.0
 40
297.0
 41
0.7070707071
 42
50.0
 43
0.0
 44
0.0
 50
0.0
 51
0.0
 71
0
 72
100
 73
1
 74
1
 75
0
 76
0
 77
0
 78
0
  0
ENDTAB
  0
TABLE
  2
LTYPE
  5
5
100
AcDbSymbolTable
 70
6
  0
LTYPE
  5
14
100
AcDbSymbolTableRecord
100
AcDbLinetypeTableRecord
  2
BYBLOCK
 70
0
  3

 72
65
 73
0
 40
0.0
  0
LTYPE
  5
15
100
AcDbSymbolTableRecord
100
AcDbLinetypeTableRecord
  2
BYLAYER
 70
0
  3

 72
65
 73
0
 40
0.0
  0
LTYPE
  5
16
100
AcDbSymbolTableRecord
100
AcDbLinetypeTableRecord
  2
CONTINUOUS
 70
64
  3
Solid line
 72
65
 73
0
 40
0.0
  0
LTYPE
  5
1F5
100
AcDbSymbolTableRecord
100
AcDbLinetypeTableRecord
  2
CENTER
 70
64
  3
____ _ ____ _ ____ _ ____ _ ____ _ ____ _ ____
 72
65
 73
4
 40
0.6
 49
0.375
 74
0
 49
-0.075
 74
0
 49
0.075
 74
0
 49
-0.075
 74
0
  0
LTYPE
  5
1F6
100
AcDbSymbolTableRecord
100
AcDbLinetypeTableRecord
  2
HIDDEN
 70
64
  3
- - - - - - - - - - - - - - - - - - - -
 72
65
 73
2
 40
0.2
 49
0.1
 74
0
 49
-0.1
 74
0
  0
LTYPE
  5
1F7
100
AcDbSymbolTableRecord
100
AcDbLinetypeTableRecord
  2
PHANTOM
 70
64
  3
_____ _ _ _____ _ _ _____ _ _ _____
 72
65
 73
6
 40
0.8
 49
0.45
 74
0
 49
-0.05
 74
0
 49
0.1
 74
0
 49
-0.05
 74
0
 49
0.1
 74
0
 49
-0.05
 74
0
  0
LTYPE
  5
1F8
100
AcDbSymbolTableRecord
100
AcDbLinetypeTableRecord
  2
DOT
 70
64
  3
. . . . . . . . . . . . . . . . . . . .
 72
65
 73
2
 40
0.2
 49
0.1
 74
0
 49
-0.1
 74
0
  0
LTYPE
  5
1F9
100
AcDbSymbolTableRecord
100
AcDbLinetypeTableRecord
  2
DASHED
 70
64
  3
- - - - - - - - - - - - - - - - - - - -
 72
65
 73
2
 40
0.2
 49
0.1
 74
0
 49
-0.1
 74
0
  0
ENDTAB
  0
TABLE
  2
LAYER
  5
2
100
AcDbSymbolTable
 70
36
  0
LAYER
  5
10
100
AcDbSymbolTableRecord
100
AcDbLayerTableRecord
  2
0
 70
0
 62
7
  6
CONTINUOUS
370
-3
390
F
  0
LAYER
  5
1FA
100
AcDbSymbolTableRecord
100
AcDbLayerTableRecord
  2
DEFAULT_1
 70
0
 62
7
  6
CENTER
370
-3
390
F
  0
LAYER
  5
1FB
100
AcDbSymbolTableRecord
100
AcDbLayerTableRecord
  2
DEFAULT_2
 70
0
 62
7
  6
HIDDEN
370
-3
390
F
  0
LAYER
  5
1FC
100
AcDbSymbolTableRecord
100
AcDbLayerTableRecord
  2
DEFAULT_3
 70
0
 62
7
  6
PHANTOM
370
-3
390
F
  0
LAYER
  5
1FD
100
AcDbSymbolTableRecord
100
AcDbLayerTableRecord
  2
ASSI
 70
0
 62
7
  6
CONTINUOUS
370
-3
390
F
  0
LAYER
  5
1FE
100
AcDbSymbolTableRecord
100
AcDbLayerTableRecord
  2
COORDINATE
 70
0
 62
7
  6
CONTINUOUS
370
-3
390
F
  0
LAYER
  5
1FF
100
AcDbSymbolTableRecord
100
AcDbLayerTableRecord
  2
COPY_PUBLISH
 70
0
 62
7
  6
CONTINUOUS
370
-3
390
F
  0
LAYER
  5
200
100
AcDbSymbolTableRecord
100
AcDbLayerTableRecord
  2
COSMETICI
 70
0
 62
7
  6
CONTINUOUS
370
-3
390
F
  0
LAYER
  5
201
100
AcDbSymbolTableRecord
100
AcDbLayerTableRecord
  2
CURVE
 70
0
 62
7
  6
CONTINUOUS
370
-3
390
F
  0
LAYER
  5
202
100
AcDbSymbolTableRecord
100
AcDbLayerTableRecord
  2
DRAFT
 70
0
 62
7
  6
CONTINUOUS
370
-3
390
F
  0
LAYER
  5
203
100
AcDbSymbolTableRecord
100
AcDbLayerTableRecord
  2
IMPORT_IGES
 70
0
 62
7
  6
CONTINUOUS
370
-3
390
F
  0
LAYER
  5
204
100
AcDbSymbolTableRecord
100
AcDbLayerTableRecord
  2
NOTE
 70
0
 62
7
  6
CONTINUOUS
370
-3
390
F
  0
LAYER
  5
205
100
AcDbSymbolTableRecord
100
AcDbLayerTableRecord
  2
PIANI
 70
0
 62
7
  6
CONTINUOUS
370
-3
390
F
  0
LAYER
  5
206
100
AcDbSymbolTableRecord
100
AcDbLayerTableRecord
  2
PUNTI
 70
0
 62
7
  6
CONTINUOUS
370
-3
390
F
  0
LAYER
  5
207
100
AcDbSymbolTableRecord
100
AcDbLayerTableRecord
  2
RACCORDO
 70
0
 62
7
  6
CONTINUOUS
370
-3
390
F
  0
LAYER
  5
208
100
AcDbSymbolTableRecord
100
AcDbLayerTableRecord
  2
SIMBOLI
 70
0
 62
7
  6
CONTINUOUS
370
-3
390
F
  0
LAYER
  5
209
100
AcDbSymbolTableRecord
100
AcDbLayerTableRecord
  2
SMUSSO
 70
0
 62
7
  6
CONTINUOUS
370
-3
390
F
  0
LAYER
  5
20A
100
AcDbSymbolTableRecord
100
AcDbLayerTableRecord
  2
SNAPLINE
 70
0
 62
7
  6
CONTINUOUS
370
-3
390
F
  0
LAYER
  5
20B
100
AcDbSymbolTableRecord
100
AcDbLayerTableRecord
  2
SUPERFICI
 70
0
 62
7
  6
CONTINUOUS
370
-3
390
F
  0
LAYER
  5
20C
100
AcDbSymbolTableRecord
100
AcDbLayerTableRecord
  2
TRASH
 70
0
 62
7
  6
CONTINUOUS
370
-3
390
F
  0
ENDTAB
  0
TABLE
  2
STYLE
  5
3
100
AcDbSymbolTable
 70
1
  0
STYLE
  5
11
100
AcDbSymbolTableRecord
100
AcDbTextStyleTableRecord
  2
STANDARD
 70
0
 40
0.0
 41
0.8
 50
0.0
 71
0
 42
0.2
  3
txt
  4

  0
STYLE
  5
20D
100
AcDbSymbolTableRecord
100
AcDbTextStyleTableRecord
  2
TEXTSTYLE_1
 70
0
 40
0.0
 41
0.8
 50
0.0
 71
0
 42
0.2
  3
gdt
  4

  0
ENDTAB
  0
TABLE
  2
VIEW
  5
6
100
AcDbSymbolTable
 70
0
  0
ENDTAB
  0
TABLE
  2
UCS
  5
7
100
AcDbSymbolTable
 70
0
  0
ENDTAB
  0
TABLE
  2
APPID
  5
9
100
AcDbSymbolTable
 70
1
  0
APPID
  5
20E
100
AcDbSymbolTableRecord
100
AcDbRegAppTableRecord
  2
ACAD
 70
0
  0
ENDTAB
  0
TABLE
  2
BLOCK_RECORD
  5
1
100
AcDbSymbolTable
 70
0
  0
BLOCK_RECORD
  5
20F
100
AcDbSymbolTableRecord
100
AcDbBlockTableRecord
  2
*Model_Space
  0
BLOCK_RECORD
  5
210
100
AcDbSymbolTableRecord
100
AcDbBlockTableRecord
  2
*Paper_Space
  0
BLOCK_RECORD
  5
211
100
AcDbSymbolTableRecord
100
AcDbBlockTableRecord
  2
_FILLED
  0
BLOCK_RECORD
  5
212
100
AcDbSymbolTableRecord
100
AcDbBlockTableRecord
  2
*D0
  0
BLOCK_RECORD
  5
213
100
AcDbSymbolTableRecord
100
AcDbBlockTableRecord
  2
*D1
  0
BLOCK_RECORD
  5
214
100
AcDbSymbolTableRecord
100
AcDbBlockTableRecord
  2
*D2
  0
BLOCK_RECORD
  5
215
100
AcDbSymbolTableRecord
100
AcDbBlockTableRecord
  2
*D3
  0
ENDTAB
  0
TABLE
  2
DIMSTYLE
  5
A
100
AcDbSymbolTable
 70
1
100
AcDbDimStyleTable
 71
0
  0
DIMSTYLE
105
216
100
AcDbSymbolTableRecord
100
AcDbDimStyleTableRecord
  2
STANDARD
 70
0
  3

  4

 40
1.0
 41
3.0
 42
0.5
 43
0.38
 44
1.5
 45
0.0
 46
0.0
 47
0.01
 48
0.01
140
3.0
141
0.09
142
0.0
143
25.4
144
1.0
145
0.0
146
1.0
147
0.625
 71
1
 72
0
 73
0
 74
0
 75
0
 76
0
 77
1
 78
8
 79
2
170
0
171
1
172
0
173
0
174
0
175
0
176
0
177
0
178
0
270
2
179
2
271
2
272
2
273
2
274
2
275
0
280
0
281
0
282
0
283
1
284
8
285
0
286
0
287
3
288
0
340
11
278
44
341
211
342
211
343
211
344
211
  0
DIMSTYLE
105
217
100
AcDbSymbolTableRecord
100
AcDbDimStyleTableRecord
  2
DIMSTYLE_1
 70
0
  3

  4

 40
1.0
 41
3.0
 42
0.5
 43
0.38
 44
1.5
 45
0.0
 46
0.0
 47
0.0
 48
0.0
140
3.0
141
0.09
142
0.0
143
25.4
144
1.0
145
0.0
146
1.0
147
0.75
 71
0
 72
0
 73
0
 74
0
 75
0
 76
0
 77
1
 78
8
 79
2
170
0
171
1
172
0
173
0
174
0
175
0
176
0
177
0
178
0
270
2
179
2
271
2
272
2
273
2
274
2
275
0
280
0
281
0
282
0
283
1
284
8
285
0
286
0
287
3
288
0
340
11
278
44
341
211
342
211
343
211
344
211
  0
DIMSTYLE
105
218
100
AcDbSymbolTableRecord
100
AcDbDimStyleTableRecord
  2
DIMSTYLE_2
 70
0
  3

  4

 40
1.0
 41
3.0
 42
0.5
 43
0.38
 44
1.5
 45
0.0
 46
0.0
 47
0.0
 48
0.0
140
3.0
141
0.09
142
0.0
143
25.4
144
1.0
145
0.0
146
1.0
147
0.75
 71
0
 72
0
 73
0
 74
0
 75
0
 76
0
 77
1
 78
8
 79
2
170
0
171
1
172
0
173
0
174
0
175
0
176
0
177
0
178
0
270
2
179
2
271
1
272
1
273
2
274
2
275
0
280
0
281
0
282
0
283
1
284
8
285
0
286
0
287
3
288
0
340
11
278
44
341
211
342
211
343
211
344
211
  0
ENDTAB
  0
ENDSEC
  0
SECTION
  2
BLOCKS
  0
BLOCK
  5
20
100
AcDbEntity
  8
0
100
AcDbBlockBegin
  2
*Model_Space
 70
0
 10
0.0
 20
0.0
 30
0.0
  3
*Model_Space
  1

  0
ENDBLK
  5
21
100
AcDbEntity
  8
0
100
AcDbBlockEnd
  0
BLOCK
  5
1C
100
AcDbEntity
  8
0
100
AcDbBlockBegin
  2
*Paper_Space
 70
0
 10
0.0
 20
0.0
 30
0.0
  3
*Paper_Space
  1

  0
ENDBLK
  5
1D
100
AcDbEntity
  8
0
100
AcDbBlockEnd
  0
BLOCK
  5
219
100
AcDbEntity
  8
0
100
AcDbBlockBegin
  2
_FILLED
 70
64
 10
0.0
 20
0.0
  3
_FILLED
  1

  0
SOLID
  5
21A
100
AcDbEntity
  8
0
  6
BYBLOCK
 62
0
100
AcDbTrace
 10
0.0
 20
0.0
 11
-1.0
 21
0.3166666667
 12
-1.0
 22
-0.3166666667
 13
-1.0
 23
-0.3166666667
  0
ENDBLK
  5
21B
100
AcDbEntity
  8
0
  6
BYBLOCK
 62
0
100
AcDbBlockEnd
  0
BLOCK
  5
21C
100
AcDbEntity
  8
0
100
AcDbBlockBegin
 62
7
  6
CONTINUOUS
  2
*D0
 70
65
 10
0.0
 20
0.0
  3
*D0
  1

  0
LINE
  5
21D
100
AcDbEntity
  8
0
100
AcDbLine
 62
7
  6
CONTINUOUS
 10
-11.5484266659
 20
22.3991887026
 11
-11.5484266659
 21
35.4698692976
  0
LINE
  5
21E
100
AcDbEntity
  8
0
100
AcDbLine
 62
7
  6
CONTINUOUS
 10
10.6515733341
 20
22.3991887026
 11
10.6515733341
 21
35.4698692976
  0
LINE
  5
21F
100
AcDbEntity
  8
0
100
AcDbLine
 62
7
  6
CONTINUOUS
 10
-11.5484266659
 20
33.9698692976
 11
-0.4484266659
 21
33.9698692976
  0
LINE
  5
220
100
AcDbEntity
  8
0
100
AcDbLine
 62
7
  6
CONTINUOUS
 10
10.6515733341
 20
33.9698692976
 11
-0.4484266659
 21
33.9698692976
  0
INSERT
  5
221
100
AcDbEntity
  8
0
100
AcDbBlockReference
 62
7
  6
CONTINUOUS
  2
_FILLED
 10
-11.5484266659
 20
33.9698692976
 41
3.0
 42
3.0
 43
3.0
 50
180.0
  0
INSERT
  5
222
100
AcDbEntity
  8
0
100
AcDbBlockReference
 62
7
  6
CONTINUOUS
  2
_FILLED
 10
10.6515733341
 20
33.9698692976
 41
3.0
 42
3.0
 43
3.0
  0
ENDBLK
  5
223
100
AcDbEntity
  8
0
  6
BYBLOCK
 62
0
100
AcDbBlockEnd
  0
BLOCK
  5
224
100
AcDbEntity
  8
0
100
AcDbBlockBegin
 62
7
  6
CONTINUOUS
  2
*D1
 70
65
 10
0.0
 20
0.0
  3
*D1
  1

  0
LINE
  5
225
100
AcDbEntity
  8
0
100
AcDbLine
 62
7
  6
CONTINUOUS
 10
10.6238742383
 20
25.937144518
 11
20.2012113875
 21
25.937144518
  0
LINE
  5
226
100
AcDbEntity
  8
0
100
AcDbLine
 62
7
  6
CONTINUOUS
 10
10.6238742383
 20
-26.8071146153
 11
20.2012113875
 21
-26.8071146153
  0
LINE
  5
227
100
AcDbEntity
  8
0
100
AcDbLine
 62
7
  6
CONTINUOUS
 10
18.7012113875
 20
25.937144518
 11
18.7012113875
 21
-0.4349850486
  0
LINE
  5
228
100
AcDbEntity
  8
0
100
AcDbLine
 62
7
  6
CONTINUOUS
 10
18.7012113875
 20
-26.8071146153
 11
18.7012113875
 21
-0.4349850486
  0
INSERT
  5
229
100
AcDbEntity
  8
0
100
AcDbBlockReference
 62
7
  6
CONTINUOUS
  2
_FILLED
 10
18.7012113875
 20
25.937144518
 41
3.0
 42
3.0
 43
3.0
 50
90.0
  0
INSERT
  5
22A
100
AcDbEntity
  8
0
100
AcDbBlockReference
 62
7
  6
CONTINUOUS
  2
_FILLED
 10
18.7012113875
 20
-26.8071146153
 41
3.0
 42
3.0
 43
3.0
 50
270.0
  0
ENDBLK
  5
22B
100
AcDbEntity
  8
0
  6
BYBLOCK
 62
0
100
AcDbBlockEnd
  0
BLOCK
  5
22C
100
AcDbEntity
  8
0
100
AcDbBlockBegin
 62
7
  6
CONTINUOUS
  2
*D2
 70
65
 10
0.0
 20
0.0
  3
*D2
  1

  0
LINE
  5
22D
100
AcDbEntity
  8
0
100
AcDbLine
 62
7
  6
CONTINUOUS
 10
-31.2869003501
 20
22.3991887026
 11
-31.2869003501
 21
35.437144518
  0
LINE
  5
22E
100
AcDbEntity
  8
0
100
AcDbLine
 62
7
  6
CONTINUOUS
 10
-36.0869003501
 20
25.8522440924
 11
-36.0869003501
 21
35.437144518
  0
LINE
  5
22F
100
AcDbEntity
  8
0
100
AcDbLine
 62
7
  6
CONTINUOUS
 10
-31.2869003501
 20
33.937144518
 11
-17.7299619091
 21
33.937144518
  0
LINE
  5
230
100
AcDbEntity
  8
0
100
AcDbLine
 62
7
  6
CONTINUOUS
 10
-17.7299619091
 20
33.937144518
 11
-33.6869003501
 21
33.937144518
  0
LINE
  5
231
100
AcDbEntity
  8
0
100
AcDbLine
 62
7
  6
CONTINUOUS
 10
-36.0869003501
 20
33.937144518
 11
-40.0869003501
 21
33.937144518
  0
LINE
  5
232
100
AcDbEntity
  8
0
100
AcDbLine
 62
7
  6
CONTINUOUS
 10
-40.0869003501
 20
33.937144518
 11
-33.6869003501
 21
33.937144518
  0
INSERT
  5
233
100
AcDbEntity
  8
0
100
AcDbBlockReference
 62
7
  6
CONTINUOUS
  2
_FILLED
 10
-31.2869003501
 20
33.937144518
 41
3.0
 42
3.0
 43
3.0
 50
180.0
  0
INSERT
  5
234
100
AcDbEntity
  8
0
100
AcDbBlockReference
 62
7
  6
CONTINUOUS
  2
_FILLED
 10
-36.0869003501
 20
33.937144518
 41
3.0
 42
3.0
 43
3.0
  0
ENDBLK
  5
235
100
AcDbEntity
  8
0
  6
BYBLOCK
 62
0
100
AcDbBlockEnd
  0
BLOCK
  5
236
100
AcDbEntity
  8
0
100
AcDbBlockBegin
 62
7
  6
CONTINUOUS
  2
*D3
 70
65
 10
0.0
 20
0.0
  3
*D3
  1

  0
LINE
  5
237
100
AcDbEntity
  8
0
100
AcDbLine
 62
7
  6
CONTINUOUS
 10
-28.8369003501
 20
10.5309014107
 11
-28.8369003501
 21
45.4025893302
  0
LINE
  5
238
100
AcDbEntity
  8
0
100
AcDbLine
 62
7
  6
CONTINUOUS
 10
-36.0869003501
 20
25.8522440924
 11
-36.0869003501
 21
45.4025893302
  0
LINE
  5
239
100
AcDbEntity
  8
0
100
AcDbLine
 62
7
  6
CONTINUOUS
 10
-28.8369003501
 20
43.9025893302
 11
-16.7941991706
 21
43.9025893302
  0
LINE
  5
23A
100
AcDbEntity
  8
0
100
AcDbLine
 62
7
  6
CONTINUOUS
 10
-16.7941991706
 20
43.9025893302
 11
-32.4619003501
 21
43.9025893302
  0
LINE
  5
23B
100
AcDbEntity
  8
0
100
AcDbLine
 62
7
  6
CONTINUOUS
 10
-36.0869003501
 20
43.9025893302
 11
-40.0869003501
 21
43.9025893302
  0
LINE
  5
23C
100
AcDbEntity
  8
0
100
AcDbLine
 62
7
  6
CONTINUOUS
 10
-40.0869003501
 20
43.9025893302
 11
-32.4619003501
 21
43.9025893302
  0
INSERT
  5
23D
100
AcDbEntity
  8
0
100
AcDbBlockReference
 62
7
  6
CONTINUOUS
  2
_FILLED
 10
-28.8369003501
 20
43.9025893302
 41
3.0
 42
3.0
 43
3.0
 50
180.0
  0
INSERT
  5
23E
100
AcDbEntity
  8
0
100
AcDbBlockReference
 62
7
  6
CONTINUOUS
  2
_FILLED
 10
-36.0869003501
 20
43.9025893302
 41
3.0
 42
3.0
 43
3.0
  0
ENDBLK
  5
23F
100
AcDbEntity
  8
0
  6
BYBLOCK
 62
0
100
AcDbBlockEnd
  0
ENDSEC
  0
SECTION
  2
ENTITIES
  0
DIMENSION
  5
240
100
AcDbEntity
  8
0
100
AcDbDimension
 62
7
  6
CONTINUOUS
  2
*D0
 10
10.6515733341
 20
33.9698692976
 11
-4.8412838087
 21
33.9698692976
 70
160
 71
2
 72
2
 41
0.9
 42
22.2
  3
DIMSTYLE_1
100
AcDbAlignedDimension
 13
-11.5484266659
 23
21.8991887026
 14
10.6515733341
 24
21.8991887026
100
AcDbRotatedDimension
  0
DIMENSION
  5
241
100
AcDbEntity
  8
0
100
AcDbDimension
 62
7
  6
CONTINUOUS
  2
*D1
 10
18.7012113875
 20
-26.8071146153
 11
18.7012113875
 21
-4.7206993343
 70
160
 71
2
 72
2
 41
0.9
 42
52.7442591333
  3
DIMSTYLE_2
100
AcDbAlignedDimension
 13
10.1238742383
 23
25.937144518
 14
10.1238742383
 24
-26.8071146153
 50
270.0
100
AcDbRotatedDimension
  0
DIMENSION
  5
242
100
AcDbEntity
  8
0
100
AcDbDimension
 62
7
  6
CONTINUOUS
  2
*D2
 10
-36.0869003501
 20
33.937144518
 11
-24.1585333376
 21
33.937144518
 70
160
 71
1
 72
2
 41
0.9
 42
4.8
  3
DIMSTYLE_1
100
AcDbAlignedDimension
 13
-31.2869003501
 23
21.8991887026
 14
-36.0869003501
 24
25.3522440924
 50
180.0
100
AcDbRotatedDimension
  0
DIMENSION
  5
243
100
AcDbEntity
  8
0
100
AcDbDimension
 62
7
  6
CONTINUOUS
  2
*D3
 10
-36.0869003501
 20
43.9025893302
 11
-25.365627742
 21
43.9025893302
 70
160
 71
1
 72
2
 41
0.9
 42
7.25
  3
DIMSTYLE_1
100
AcDbAlignedDimension
 13
-28.8369003501
 23
10.0309014107
 14
-36.0869003501
 24
25.3522440924
 50
180.0
100
AcDbRotatedDimension
  0
LWPOLYLINE
  5
244
100
AcDbEntity
  8
RACCORDO
100
AcDbPolyline
 62
250
  6
CONTINUOUS
 90
16
 70
0
 10
10.0388024751
 20
-26.7220428521
 10
10.0899447377
 20
-26.7193844973
 10
10.1408043901
 20
-26.7114543252
 10
10.1908298638
 20
-26.6982574463
 10
10.2394953172
 20
-26.6798441791
 10
10.2862125269
 20
-26.6563452282
 10
10.3303530016
 20
-26.6280033532
 10
10.3714380842
 20
-26.5950576915
 10
10.4089405404
 20
-26.5578572228
 10
10.4422660516
 20
-26.5169731631
 10
10.4710073693
 20
-26.4729712284
 10
10.4949413214
 20
-26.4262692934
 10
10.5138547744
 20
-26.3773045967
 10
10.5275412069
 20
-26.3265848584
 10
10.5358321283
 20
-26.2746971994
 10
10.5386311376
 20
-26.2222141896
  0
LWPOLYLINE
  5
245
100
AcDbEntity
  8
RACCORDO
100
AcDbPolyline
 62
250
  6
CONTINUOUS
 90
16
 70
0
 10
-10.9356558069
 20
-26.7220428521
 10
-10.9871761632
 20
-26.7193452024
 10
-11.0383453028
 20
-26.7113100163
 10
-11.088604175
 20
-26.697961777
 10
-11.1374547754
 20
-26.6793568823
 10
-11.1842743866
 20
-26.6556537019
 10
-11.2283540897
 20
-26.6271758713
 10
-11.2691531553
 20
-26.5942869727
 10
-11.3062880054
 20
-26.5573115731
 10
-11.3393625972
 20
-26.5166401114
 10
-11.3680152543
 20
-26.4727048599
 10
-11.3919171029
 20
-26.4259956877
 10
-11.4107938442
 20
-26.3770422215
 10
-11.4244362919
 20
-26.3263897464
 10
-11.4326968106
 20
-26.2745902819
 10
-11.4354844694
 20
-26.2222141896
  0
LINE
  5
246
100
AcDbEntity
  8
RACCORDO
100
AcDbLine
 62
7
  6
CONTINUOUS
 10
-11.02072757
 20
-26.8071146153
 11
10.1238742383
 21
-26.8071146153
  0
LINE
  5
247
100
AcDbEntity
  8
RACCORDO
100
AcDbLine
 62
250
  6
CONTINUOUS
 10
-10.9356558069
 20
-26.7220428521
 11
10.0388024751
 21
-26.7220428521
  0
LINE
  5
248
100
AcDbEntity
  8
RACCORDO
100
AcDbLine
 62
250
  6
CONTINUOUS
 10
-11.4354844694
 20
-26.2222141896
 11
10.5386311376
 21
-26.2222141896
  0
LINE
  5
249
100
AcDbEntity
  8
RACCORDO
100
AcDbLine
 62
7
  6
CONTINUOUS
 10
-11.5364748318
 20
12.5174580499
 11
-11.5222407443
 21
12.5650149514
  0
LINE
  5
24A
100
AcDbEntity
  8
RACCORDO
100
AcDbLine
 62
7
  6
CONTINUOUS
 10
-11.5364748318
 20
-13.3874281471
 11
-11.5222407443
 21
-13.4349850486
  0
LINE
  5
24B
100
AcDbEntity
  8
RACCORDO
100
AcDbLine
 62
7
  6
CONTINUOUS
 10
-11.547980534
 20
-22.8985683224
 11
-11.5240388429
 21
-26.3107685631
  0
LINE
  5
24C
100
AcDbEntity
  8
RACCORDO
100
AcDbLine
 62
7
  6
CONTINUOUS
 10
-11.547980534
 20
22.0285982251
 11
-11.5240388429
 21
25.4407984659
  0
LWPOLYLINE
  5
24D
100
AcDbEntity
  8
RACCORDO
100
AcDbPolyline
 62
250
  6
CONTINUOUS
 90
16
 70
0
 10
-11.4354844694
 20
0.3034922582
 10
-11.4326967327
 20
0.2509925317
 10
-11.4244153166
 20
0.1990874323
 10
-11.4107362086
 20
0.148349947
 10
-11.3918276409
 20
0.0993679064
 10
-11.3678957951
 20
0.0526492911
 10
-11.3391531497
 20
0.0086312685
 10
-11.3058213139
 20
-0.0322689291
 10
-11.2683082965
 20
-0.0694831278
 10
-11.2272123083
 20
-0.1024364579
 10
-11.1830625544
 20
-0.1307798348
 10
-11.1363376579
 20
-0.1542755365
 10
-11.0876680888
 20
-0.1726812054
 10
-11.0376431221
 20
-0.1858673936
 10
-10.9867884923
 20
-0.1937853993
 10
-10.9356558069
 20
-0.1964315893
  0
LINE
  5
24E
100
AcDbEntity
  8
RACCORDO
100
AcDbLine
 62
7
  6
CONTINUOUS
 10
-11.5484266659
 20
21.8991887026
 11
-11.5484266659
 21
16.1106692019
  0
LINE
  5
24F
100
AcDbEntity
  8
RACCORDO
100
AcDbLine
 62
7
  6
CONTINUOUS
 10
-11.5484266659
 20
12.0193607008
 11
-11.5484266659
 21
10.5650149514
  0
LINE
  5
250
100
AcDbEntity
  8
DRAFT
100
AcDbLine
 62
7
  6
CONTINUOUS
 10
-11.5484266659
 20
10.5650149514
 11
-11.5484266659
 21
6.5650149514
  0
LINE
  5
251
100
AcDbEntity
  8
RACCORDO
100
AcDbLine
 62
7
  6
CONTINUOUS
 10
-11.5484266659
 20
6.5650149514
 11
-11.5484266659
 21
0.2282070189
  0
LINE
  5
252
100
AcDbEntity
  8
RACCORDO
100
AcDbLine
 62
7
  6
CONTINUOUS
 10
-11.5484266659
 20
-1.0981771161
 11
-11.5484266659
 21
-7.4349850486
  0
LINE
  5
253
100
AcDbEntity
  8
DRAFT
100
AcDbLine
 62
7
  6
CONTINUOUS
 10
-11.5484266659
 20
-7.4349850486
 11
-11.5484266659
 21
-11.4349850486
  0
LINE
  5
254
100
AcDbEntity
  8
RACCORDO
100
AcDbLine
 62
7
  6
CONTINUOUS
 10
-11.5484266659
 20
-11.4349850486
 11
-11.5484266659
 21
-12.8893307981
  0
LINE
  5
255
100
AcDbEntity
  8
RACCORDO
100
AcDbLine
 62
7
  6
CONTINUOUS
 10
-11.5484266659
 20
-16.9806392992
 11
-11.5484266659
 21
-22.7691587998
  0
LINE
  5
256
100
AcDbEntity
  8
DRAFT
100
AcDbLine
 62
7
  6
CONTINUOUS
 10
-11.5222407443
 20
15.5650149514
 11
-11.5222407443
 21
12.5650149514
  0
LINE
  5
257
100
AcDbEntity
  8
DRAFT
100
AcDbLine
 62
7
  6
CONTINUOUS
 10
-11.5222407443
 20
-16.4349850486
 11
-11.5222407443
 21
-13.4349850486
  0
LINE
  5
258
100
AcDbEntity
  8
RACCORDO
100
AcDbLine
 62
250
  6
CONTINUOUS
 10
-11.4354844694
 20
25.3522440924
 11
-11.4354844694
 21
0.3034922582
  0
LINE
  5
259
100
AcDbEntity
  8
RACCORDO
100
AcDbLine
 62
250
  6
CONTINUOUS
 10
-11.4354844694
 20
-1.1734623555
 11
-11.4354844694
 21
-26.2222141896
  0
LINE
  5
25A
100
AcDbEntity
  8
RACCORDO
100
AcDbLine
 62
250
  6
CONTINUOUS
 10
-10.9356558069
 20
-0.1964315893
 11
-10.9356558069
 21
25.8520727549
  0
LINE
  5
25B
100
AcDbEntity
  8
RACCORDO
100
AcDbLine
 62
250
  6
CONTINUOUS
 10
-10.9356558069
 20
-0.6735385079
 11
-10.9356558069
 21
-26.7220428521
  0
LWPOLYLINE
  5
25C
100
AcDbEntity
  8
0
100
AcDbPolyline
 62
7
  6
CONTINUOUS
 90
3
 70
0
 43
0.3500000019
 10
0.5872856445
 20
35.0055825195
 10
0.5158608398
 20
34.7912973633
 10
0.3730004883
 20
34.5055847168
  0
LINE
  5
25D
100
AcDbEntity
  8
RACCORDO
100
AcDbLine
 62
250
  6
CONTINUOUS
 10
10.0388024751
 20
25.8520727549
 11
10.1238742383
 21
25.937144518
  0
LINE
  5
25E
100
AcDbEntity
  8
RACCORDO
100
AcDbLine
 62
250
  6
CONTINUOUS
 10
10.5386311376
 20
25.3522440924
 11
10.6271855111
 21
25.4407984659
  0
LINE
  5
25F
100
AcDbEntity
  8
RACCORDO
100
AcDbLine
 62
250
  6
CONTINUOUS
 10
10.1238742383
 20
-26.8071146153
 11
10.0388024751
 21
-26.7220428521
  0
LINE
  5
260
100
AcDbEntity
  8
RACCORDO
100
AcDbLine
 62
250
  6
CONTINUOUS
 10
10.6271855111
 20
-26.3107685631
 11
10.5386311376
 21
-26.2222141896
  0
LINE
  5
261
100
AcDbEntity
  8
RACCORDO
100
AcDbLine
 62
7
  6
CONTINUOUS
 10
-11.5364748318
 20
-16.4825419501
 11
-11.5222407443
 21
-16.4349850486
  0
LINE
  5
262
100
AcDbEntity
  8
RACCORDO
100
AcDbLine
 62
7
  6
CONTINUOUS
 10
-10.5398514498
 20
-0.263065469
 11
-10.5117710295
 21
-0.2349850486
  0
LINE
  5
263
100
AcDbEntity
  8
RACCORDO
100
AcDbLine
 62
250
  6
CONTINUOUS
 10
-11.5484266659
 20
0.2282070189
 11
-11.4354844694
 21
0.3034922582
  0
LINE
  5
264
100
AcDbEntity
  8
RACCORDO
100
AcDbLine
 62
250
  6
CONTINUOUS
 10
-11.0484837733
 20
-0.271640685
 11
-10.9356558069
 21
-0.1964315893
  0
LINE
  5
265
100
AcDbEntity
  8
RACCORDO
100
AcDbLine
 62
250
  6
CONTINUOUS
 10
-11.4354844694
 20
-1.1734623555
 11
-11.5484266659
 21
-1.0981771161
  0
LINE
  5
266
100
AcDbEntity
  8
RACCORDO
100
AcDbLine
 62
250
  6
CONTINUOUS
 10
-10.9356558069
 20
-0.6735385079
 11
-11.0484837733
 21
-0.5983294123
  0
LINE
  5
267
100
AcDbEntity
  8
RACCORDO
100
AcDbLine
 62
7
  6
CONTINUOUS
 10
-10.5398514498
 20
-0.6069046283
 11
-10.5117710295
 21
-0.6349850486
  0
LINE
  5
268
100
AcDbEntity
  8
RACCORDO
100
AcDbLine
 62
7
  6
CONTINUOUS
 10
-11.5364748318
 20
15.6125718529
 11
-11.5222407443
 21
15.5650149514
  0
LWPOLYLINE
  5
269
100
AcDbEntity
  8
RACCORDO
100
AcDbPolyline
 62
250
  6
CONTINUOUS
 90
16
 70
0
 10
10.0388024751
 20
-0.1964315893
 10
10.0910336628
 20
-0.1936706791
 10
10.1426929272
 20
-0.1854659128
 10
10.1932146074
 20
-0.1719071313
 10
10.242045499
 20
-0.153142801
 10
10.2886509114
 20
-0.1293783886
 10
10.3325205227
 20
-0.1008741106
 10
10.3731739675
 20
-0.0679420843
 10
10.4101660969
 20
-0.0309429103
 10
10.4430918529
 20
0.0097182764
 10
10.4715907038
 20
0.0535962419
 10
10.4953505915
 20
0.1002105297
 10
10.514111349
 20
0.1490507204
 10
10.5276675489
 20
0.1995820218
 10
10.5358707531
 20
0.2512511239
 10
10.5386311376
 20
0.3034922582
  0
LINE
  5
26A
100
AcDbEntity
  8
RACCORDO
100
AcDbLine
 62
250
  6
CONTINUOUS
 10
-11.4354844694
 20
-1.1734623555
 11
10.5386311376
 21
-1.1734623555
  0
LINE
  5
26B
100
AcDbEntity
  8
RACCORDO
100
AcDbLine
 62
250
  6
CONTINUOUS
 10
10.0388024751
 20
-0.6735385079
 11
-10.9356558069
 21
-0.6735385079
  0
LINE
  5
26C
100
AcDbEntity
  8
DRAFT
100
AcDbLine
 62
7
  6
CONTINUOUS
 10
-10.5117710295
 20
-0.6349850486
 11
9.6149176978
 21
-0.6349850486
  0
LINE
  5
26D
100
AcDbEntity
  8
RACCORDO
100
AcDbLine
 62
7
  6
CONTINUOUS
 10
-11.0484837733
 20
-0.5983294123
 11
-11.0397752974
 21
-0.5983294123
  0
LINE
  5
26E
100
AcDbEntity
  8
RACCORDO
100
AcDbLine
 62
7
  6
CONTINUOUS
 10
10.1429219657
 20
-0.5983294123
 11
10.1516304416
 21
-0.5983294123
  0
LINE
  5
26F
100
AcDbEntity
  8
RACCORDO
100
AcDbLine
 62
7
  6
CONTINUOUS
 10
10.1516304416
 20
-0.271640685
 11
10.1429219657
 21
-0.271640685
  0
LINE
  5
270
100
AcDbEntity
  8
RACCORDO
100
AcDbLine
 62
7
  6
CONTINUOUS
 10
-11.0397752974
 20
-0.271640685
 11
-11.0484837733
 21
-0.271640685
  0
LINE
  5
271
100
AcDbEntity
  8
DRAFT
100
AcDbLine
 62
7
  6
CONTINUOUS
 10
9.6149176978
 20
-0.2349850486
 11
-10.5117710295
 21
-0.2349850486
  0
LINE
  5
272
100
AcDbEntity
  8
RACCORDO
100
AcDbLine
 62
250
  6
CONTINUOUS
 10
-10.9356558069
 20
-0.1964315893
 11
10.0388024751
 21
-0.1964315893
  0
LWPOLYLINE
  5
273
100
AcDbEntity
  8
RACCORDO
100
AcDbPolyline
 62
250
  6
CONTINUOUS
 90
16
 70
0
 10
-10.9356558069
 20
-0.6735385079
 10
-10.9878869945
 20
-0.6762994181
 10
-11.0395462589
 20
-0.6845041845
 10
-11.0900679391
 20
-0.698062966
 10
-11.1388988307
 20
-0.7168272962
 10
-11.1855042432
 20
-0.7405917086
 10
-11.2293738544
 20
-0.7690959867
 10
-11.2700272992
 20
-0.802028013
 10
-11.3070194286
 20
-0.839027187
 10
-11.3399451847
 20
-0.8796883736
 10
-11.3684440355
 20
-0.9235663392
 10
-11.3922039232
 20
-0.9701806269
 10
-11.4109646807
 20
-1.0190208177
 10
-11.4245208807
 20
-1.069552119
 10
-11.4327240848
 20
-1.1212212212
 10
-11.4354844694
 20
-1.1734623555
  0
LINE
  5
274
100
AcDbEntity
  8
RACCORDO
100
AcDbLine
 62
250
  6
CONTINUOUS
 10
-11.4354844694
 20
0.3034922582
 11
10.5386311376
 21
0.3034922582
  0
LWPOLYLINE
  5
275
100
AcDbEntity
  8
0
100
AcDbPolyline
 62
7
  6
CONTINUOUS
 90
4
 70
0
 43
0.3500000019
 10
15.5940678711
 20
1.4935863647
 10
14.9512124023
 20
1.4935863647
 10
14.9512124023
 20
2.9935864868
 10
17.9512099609
 20
2.136443512
  0
LINE
  5
276
100
AcDbEntity
  8
RACCORDO
100
AcDbLine
 62
7
  6
CONTINUOUS
 10
10.6396215001
 20
15.6125718529
 11
10.6253874126
 21
15.5650149514
  0
LINE
  5
277
100
AcDbEntity
  8
RACCORDO
100
AcDbLine
 62
7
  6
CONTINUOUS
 10
9.6429981181
 20
-0.6069046283
 11
9.6149176978
 21
-0.6349850486
  0
LINE
  5
278
100
AcDbEntity
  8
RACCORDO
100
AcDbLine
 62
250
  6
CONTINUOUS
 10
10.1516304416
 20
-0.5983294123
 11
10.0388024751
 21
-0.6735385079
  0
LINE
  5
279
100
AcDbEntity
  8
RACCORDO
100
AcDbLine
 62
250
  6
CONTINUOUS
 10
10.6515733341
 20
-1.0981771161
 11
10.5386311376
 21
-1.1734623555
  0
LWPOLYLINE
  5
27A
100
AcDbEntity
  8
0
100
AcDbPolyline
 62
7
  6
CONTINUOUS
 90
10
 70
0
 43
0.3500000019
 10
17.4512094727
 20
0.422157814
 10
17.5940698242
 20
0.4935863953
 10
17.6654946289
 20
0.4935863953
 10
17.8083549805
 20
0.3507292328
 10
17.8083549805
 20
0.2793006725
 10
17.7369248047
 20
0.2078720913
 10
17.6654946289
 20
0.2078720913
 10
17.5226396484
 20
0.2793006725
 10
17.4512094727
 20
0.3507292328
 10
17.4512094727
 20
0.422157814
  0
LWPOLYLINE
  5
27B
100
AcDbEntity
  8
0
100
AcDbPolyline
 62
7
  6
CONTINUOUS
 90
3
 70
0
 43
0.3500000019
 10
17.6654946289
 20
0.4935863953
 10
17.8797851563
 20
0.422157814
 10
18.1654951172
 20
0.2793006725
  0
LINE
  5
27C
100
AcDbEntity
  8
RACCORDO
100
AcDbLine
 62
250
  6
CONTINUOUS
 10
10.0388024751
 20
-0.1964315893
 11
10.1516304416
 21
-0.271640685
  0
LINE
  5
27D
100
AcDbEntity
  8
RACCORDO
100
AcDbLine
 62
250
  6
CONTINUOUS
 10
10.5386311376
 20
0.3034922582
 11
10.6515733341
 21
0.2282070189
  0
LINE
  5
27E
100
AcDbEntity
  8
RACCORDO
100
AcDbLine
 62
7
  6
CONTINUOUS
 10
9.6429981181
 20
-0.263065469
 11
9.6149176978
 21
-0.2349850486
  0
LINE
  5
27F
100
AcDbEntity
  8
RACCORDO
100
AcDbLine
 62
7
  6
CONTINUOUS
 10
10.6396215001
 20
-16.4825419501
 11
10.6253874126
 21
-16.4349850486
  0
LWPOLYLINE
  5
280
100
AcDbEntity
  8
RACCORDO
100
AcDbPolyline
 62
250
  6
CONTINUOUS
 90
16
 70
0
 10
10.5386311376
 20
-1.1734623555
 10
10.535843401
 20
-1.120962629
 10
10.5275619849
 20
-1.0690575296
 10
10.5138828769
 20
-1.0183200442
 10
10.4949743091
 20
-0.9693380037
 10
10.4710424634
 20
-0.9226193883
 10
10.442299818
 20
-0.8786013657
 10
10.4089679822
 20
-0.8377011682
 10
10.3714549648
 20
-0.8004869695
 10
10.3303589765
 20
-0.7675336394
 10
10.2862092227
 20
-0.7391902624
 10
10.2394843262
 20
-0.7156945608
 10
10.1908147571
 20
-0.6972888919
 10
10.1407897904
 20
-0.6841027037
 10
10.0899351605
 20
-0.6761846979
 10
10.0388024751
 20
-0.6735385079
  0
LINE
  5
281
100
AcDbEntity
  8
RACCORDO
100
AcDbLine
 62
7
  6
CONTINUOUS
 10
10.6511272023
 20
22.0285982251
 11
10.6271855111
 21
25.4407984659
  0
LINE
  5
282
100
AcDbEntity
  8
RACCORDO
100
AcDbLine
 62
250
  6
CONTINUOUS
 10
10.0388024751
 20
-0.6735385079
 11
10.0388024751
 21
-26.7220428521
  0
LINE
  5
283
100
AcDbEntity
  8
RACCORDO
100
AcDbLine
 62
250
  6
CONTINUOUS
 10
10.0388024751
 20
-0.1964315893
 11
10.0388024751
 21
25.8520727549
  0
LINE
  5
284
100
AcDbEntity
  8
RACCORDO
100
AcDbLine
 62
250
  6
CONTINUOUS
 10
10.5386311376
 20
-26.2222141896
 11
10.5386311376
 21
-1.1734623555
  0
LINE
  5
285
100
AcDbEntity
  8
RACCORDO
100
AcDbLine
 62
250
  6
CONTINUOUS
 10
10.5386311376
 20
0.3034922582
 11
10.5386311376
 21
25.3522440924
  0
LINE
  5
286
100
AcDbEntity
  8
DRAFT
100
AcDbLine
 62
7
  6
CONTINUOUS
 10
10.6253874126
 20
15.5650149514
 11
10.6253874126
 21
12.5650149514
  0
LINE
  5
287
100
AcDbEntity
  8
DRAFT
100
AcDbLine
 62
7
  6
CONTINUOUS
 10
10.6253874126
 20
-16.4349850486
 11
10.6253874126
 21
-13.4349850486
  0
LINE
  5
288
100
AcDbEntity
  8
RACCORDO
100
AcDbLine
 62
7
  6
CONTINUOUS
 10
10.6515733341
 20
-22.7691587998
 11
10.6515733341
 21
-16.9806392992
  0
LINE
  5
289
100
AcDbEntity
  8
RACCORDO
100
AcDbLine
 62
7
  6
CONTINUOUS
 10
10.6515733341
 20
-12.8893307981
 11
10.6515733341
 21
-11.4349850486
  0
LINE
  5
28A
100
AcDbEntity
  8
DRAFT
100
AcDbLine
 62
7
  6
CONTINUOUS
 10
10.6515733341
 20
-11.4349850486
 11
10.6515733341
 21
-7.4349850486
  0
LINE
  5
28B
100
AcDbEntity
  8
RACCORDO
100
AcDbLine
 62
7
  6
CONTINUOUS
 10
10.6515733341
 20
-7.4349850486
 11
10.6515733341
 21
-1.0981771161
  0
LINE
  5
28C
100
AcDbEntity
  8
RACCORDO
100
AcDbLine
 62
7
  6
CONTINUOUS
 10
10.6515733341
 20
0.2282070189
 11
10.6515733341
 21
6.5650149514
  0
LINE
  5
28D
100
AcDbEntity
  8
DRAFT
100
AcDbLine
 62
7
  6
CONTINUOUS
 10
10.6515733341
 20
6.5650149514
 11
10.6515733341
 21
10.5650149514
  0
LINE
  5
28E
100
AcDbEntity
  8
RACCORDO
100
AcDbLine
 62
7
  6
CONTINUOUS
 10
10.6515733341
 20
10.5650149514
 11
10.6515733341
 21
12.0193607008
  0
LINE
  5
28F
100
AcDbEntity
  8
RACCORDO
100
AcDbLine
 62
7
  6
CONTINUOUS
 10
10.6515733341
 20
16.1106692019
 11
10.6515733341
 21
21.8991887026
  0
LINE
  5
290
100
AcDbEntity
  8
RACCORDO
100
AcDbLine
 62
7
  6
CONTINUOUS
 10
10.6511272023
 20
-22.8985683224
 11
10.6271855111
 21
-26.3107685631
  0
LINE
  5
291
100
AcDbEntity
  8
RACCORDO
100
AcDbLine
 62
250
  6
CONTINUOUS
 10
-11.4354844694
 20
-26.2222141896
 11
-11.5240388429
 21
-26.3107685631
  0
LINE
  5
292
100
AcDbEntity
  8
RACCORDO
100
AcDbLine
 62
250
  6
CONTINUOUS
 10
-10.9356558069
 20
-26.7220428521
 11
-11.02072757
 21
-26.8071146153
  0
LINE
  5
293
100
AcDbEntity
  8
RACCORDO
100
AcDbLine
 62
250
  6
CONTINUOUS
 10
-11.5240388429
 20
25.4407984659
 11
-11.4354844694
 21
25.3522440924
  0
LINE
  5
294
100
AcDbEntity
  8
RACCORDO
100
AcDbLine
 62
250
  6
CONTINUOUS
 10
-11.02072757
 20
25.937144518
 11
-10.9356558069
 21
25.8520727549
  0
LINE
  5
295
100
AcDbEntity
  8
RACCORDO
100
AcDbLine
 62
7
  6
CONTINUOUS
 10
10.6396215001
 20
-13.3874281471
 11
10.6253874126
 21
-13.4349850486
  0
LINE
  5
296
100
AcDbEntity
  8
RACCORDO
100
AcDbLine
 62
7
  6
CONTINUOUS
 10
10.6396215001
 20
12.5174580499
 11
10.6253874126
 21
12.5650149514
  0
LWPOLYLINE
  5
297
100
AcDbEntity
  8
0
100
AcDbPolyline
 62
7
  6
CONTINUOUS
 90
10
 70
0
 43
0.3500000019
 10
0.5158608398
 20
35.2198703613
 10
0.5872856445
 20
35.0770126953
 10
0.5872856445
 20
35.0055825195
 10
0.4444306641
 20
34.8627275391
 10
0.3730004883
 20
34.8627275391
 10
0.3015756836
 20
34.9341550293
 10
0.3015756836
 20
35.0055825195
 10
0.3730004883
 20
35.1484401855
 10
0.4444306641
 20
35.2198703613
 10
0.5158608398
 20
35.2198703613
  0
LWPOLYLINE
  5
298
100
AcDbEntity
  8
0
100
AcDbPolyline
 62
7
  6
CONTINUOUS
 90
8
 70
0
 43
0.3500000019
 10
17.9512099609
 20
-4.7206992798
 10
17.9512099609
 20
-3.8635566406
 10
17.5226396484
 20
-3.4349849854
 10
16.6654990234
 20
-3.4349849854
 10
16.2369233398
 20
-3.8635566406
 10
16.2369233398
 20
-4.7206992798
 10
14.9512124023
 20
-4.7206992798
 10
14.9512124023
 20
-3.4349849854
  0
LWPOLYLINE
  5
299
100
AcDbEntity
  8
0
100
AcDbPolyline
 62
7
  6
CONTINUOUS
 90
7
 70
0
 43
0.3500000019
 10
17.9512099609
 20
-1.0778422241
 10
17.9512099609
 20
-2.5778421783
 10
15.8083530273
 20
-1.0778422241
 10
15.3797827148
 20
-1.0778422241
 10
14.9512124023
 20
-1.5064135437
 10
14.9512124023
 20
-2.1492706909
 10
15.5940678711
 20
-2.5778421783
  0
LWPOLYLINE
  5
29A
100
AcDbEntity
  8
RACCORDO
100
AcDbPolyline
 62
250
  6
CONTINUOUS
 90
16
 70
0
 10
-10.9356558069
 20
25.8520727549
 10
-10.9867980694
 20
25.8494144
 10
-11.0376577219
 20
25.841484228
 10
-11.0876831955
 20
25.828287349
 10
-11.1363486489
 20
25.8098740818
 10
-11.1830658586
 20
25.786375131
 10
-11.2272063333
 20
25.758033256
 10
-11.268291416
 20
25.7250875943
 10
-11.3057938722
 20
25.6878871256
 10
-11.3391193833
 20
25.6470030659
 10
-11.367860701
 20
25.6030011311
 10
-11.3917946531
 20
25.5562991961
 10
-11.4107081061
 20
25.5073344994
 10
-11.4243945386
 20
25.4566147611
 10
-11.43268546
 20
25.4047271021
 10
-11.4354844694
 20
25.3522440924
  0
LINE
  5
29B
100
AcDbEntity
  8
RACCORDO
100
AcDbLine
 62
250
  6
CONTINUOUS
 10
-11.4354844694
 20
25.3522440924
 11
10.5386311376
 21
25.3522440924
  0
LINE
  5
29C
100
AcDbEntity
  8
RACCORDO
100
AcDbLine
 62
250
  6
CONTINUOUS
 10
10.0388024751
 20
25.8520727549
 11
-10.9356558069
 21
25.8520727549
  0
LINE
  5
29D
100
AcDbEntity
  8
RACCORDO
100
AcDbLine
 62
7
  6
CONTINUOUS
 10
10.1238742383
 20
25.937144518
 11
-11.02072757
 21
25.937144518
  0
LWPOLYLINE
  5
29E
100
AcDbEntity
  8
0
100
AcDbPolyline
 62
7
  6
CONTINUOUS
 90
7
 70
0
 43
0.3500000019
 10
3.0872880859
 20
34.719869873
 10
1.5872866211
 20
34.719869873
 10
3.0872880859
 20
36.8627268066
 10
3.0872880859
 20
37.2912971191
 10
2.6587177734
 20
37.7198701172
 10
2.0158569336
 20
37.7198701172
 10
1.5872866211
 20
37.0770119629
  0
LWPOLYLINE
  5
29F
100
AcDbEntity
  8
0
100
AcDbPolyline
 62
7
  6
CONTINUOUS
 90
7
 70
0
 43
0.3500000019
 10
-0.984140625
 20
34.719869873
 10
-2.4841420898
 20
34.719869873
 10
-0.984140625
 20
36.8627268066
 10
-0.984140625
 20
37.2912971191
 10
-1.4127109375
 20
37.7198701172
 10
-2.0555717773
 20
37.7198701172
 10
-2.4841420898
 20
37.0770119629
  0
LWPOLYLINE
  5
2A0
100
AcDbEntity
  8
0
100
AcDbPolyline
 62
7
  6
CONTINUOUS
 90
7
 70
0
 43
0.3500000019
 10
-3.3412827148
 20
34.719869873
 10
-4.8412841797
 20
34.719869873
 10
-3.3412827148
 20
36.8627268066
 10
-3.3412827148
 20
37.2912971191
 10
-3.7698530273
 20
37.7198701172
 10
-4.4127138672
 20
37.7198701172
 10
-4.8412841797
 20
37.0770119629
  0
LWPOLYLINE
  5
2A1
100
AcDbEntity
  8
RACCORDO
100
AcDbPolyline
 62
250
  6
CONTINUOUS
 90
16
 70
0
 10
10.0388024751
 20
25.8520727549
 10
10.0903228315
 20
25.8493751052
 10
10.1414919711
 20
25.841339919
 10
10.1917508432
 20
25.8279916797
 10
10.2406014437
 20
25.809386785
 10
10.2874210549
 20
25.7856836046
 10
10.331500758
 20
25.7572057741
 10
10.3722998236
 20
25.7243168754
 10
10.4094346736
 20
25.6873414759
 10
10.4425092655
 20
25.6466700141
 10
10.4711619226
 20
25.6027347627
 10
10.4950637712
 20
25.5560255905
 10
10.5139405125
 20
25.5070721242
 10
10.5275829601
 20
25.4564196492
 10
10.5358434789
 20
25.4046201847
 10
10.5386311376
 20
25.3522440924
  0
LINE
  5
2A2
100
AcDbEntity
  8
RACCORDO
100
AcDbLine
 62
250
  6
CONTINUOUS
 10
-36.0869003501
 20
-26.2222141896
 11
-35.5999888242
 21
-26.2222141896
  0
LINE
  5
2A3
100
AcDbEntity
  8
RACCORDO
100
AcDbLine
 62
7
  6
CONTINUOUS
 10
-32.3512292597
 20
-26.8071146153
 11
-35.5999888242
 21
-26.7220428521
  0
LINE
  5
2A4
100
AcDbEntity
  8
RACCORDO
100
AcDbLine
 62
250
  6
CONTINUOUS
 10
-32.2182337359
 20
-26.3107685631
 11
-35.5999888242
 21
-26.2222141896
  0
LINE
  5
2A5
100
AcDbEntity
  8
RACCORDO
100
AcDbLine
 62
7
  6
CONTINUOUS
 10
-31.7433224787
 20
-16.4825419501
 11
-32.2869003501
 21
-16.4349850486
  0
LWPOLYLINE
  5
2A6
100
AcDbEntity
  8
RACCORDO
100
AcDbPolyline
 62
250
  6
CONTINUOUS
 90
11
 70
0
 10
-35.5999888242
 20
25.8520727549
 10
-35.6012672918
 20
25.8493751052
 10
-35.6023967941
 20
25.841339919
 10
-35.6033633331
 20
25.8279916797
 10
-35.6041553447
 20
25.809386785
 10
-35.6047606698
 20
25.7856836046
 10
-35.6051692192
 20
25.7572057741
 10
-35.6053763542
 20
25.7243168754
 10
-35.6053805296
 20
25.6873414759
 10
-35.6051815985
 20
25.6466700141
 10
-35.6041841789
 20
25.5560255905
  0
LWPOLYLINE
  5
2A7
100
AcDbEntity
  8
RACCORDO
100
AcDbPolyline
 62
250
  6
CONTINUOUS
 90
9
 70
0
 10
-35.5999888242
 20
-26.7220428521
 10
-35.60125842
 20
-26.7193844973
 10
-35.602382568
 20
-26.7114543252
 10
-35.6033469587
 20
-26.6982574463
 10
-35.6041391401
 20
-26.6798441791
 10
-35.6047471316
 20
-26.6563452282
 10
-35.6051608325
 20
-26.6280033532
 10
-35.6053739707
 20
-26.5950576915
 10
-35.6053818786
 20
-26.5578572228
  0
LINE
  5
2A8
100
AcDbEntity
  8
RACCORDO
100
AcDbLine
 62
7
  6
CONTINUOUS
 10
-31.7433224787
 20
-13.3874281471
 11
-32.2869003501
 21
-13.4349850486
  0
LINE
  5
2A9
100
AcDbEntity
  8
RACCORDO
100
AcDbLine
 62
7
  6
CONTINUOUS
 10
-29.3281741469
 20
-11.4007953556
 11
-31.2869003501
 21
-11.4349850486
  0
LINE
  5
2AA
100
AcDbEntity
  8
RACCORDO
100
AcDbLine
 62
7
  6
CONTINUOUS
 10
-29.3281741469
 20
-7.4691747417
 11
-31.2869003501
 21
-7.4349850486
  0
LINE
  5
2AB
100
AcDbEntity
  8
RACCORDO
100
AcDbLine
 62
7
  6
CONTINUOUS
 10
-36.0869003501
 20
-26.2222141896
 11
-36.0869003501
 21
-1.1734623555
  0
LINE
  5
2AC
100
AcDbEntity
  8
RACCORDO
100
AcDbLine
 62
7
  6
CONTINUOUS
 10
-36.0869003501
 20
0.3034922582
 11
-36.0869003501
 21
25.3522440924
  0
LWPOLYLINE
  5
2AD
100
AcDbEntity
  8
0
100
AcDbPolyline
 62
7
  6
CONTINUOUS
 90
3
 70
0
 43
0.3500000019
 10
-22.2941967773
 20
44.9383032227
 10
-22.3656269531
 20
44.7240180664
 10
-22.5084873047
 20
44.4383027344
  0
LINE
  5
2AE
100
AcDbEntity
  8
RACCORDO
100
AcDbLine
 62
250
  6
CONTINUOUS
 10
-35.6024274505
 20
25.4564196492
 11
-35.5999888242
 21
25.3522440924
  0
LINE
  5
2AF
100
AcDbEntity
  8
RACCORDO
100
AcDbLine
 62
250
  6
CONTINUOUS
 10
-35.6041841789
 20
25.5560255905
 11
-35.6024274505
 21
25.4564196492
  0
LINE
  5
2B0
100
AcDbEntity
  8
RACCORDO
100
AcDbLine
 62
250
  6
CONTINUOUS
 10
-35.5999888242
 20
-1.1734623555
 11
-35.6015213613
 21
-1.0690575296
  0
LINE
  5
2B1
100
AcDbEntity
  8
RACCORDO
100
AcDbLine
 62
250
  6
CONTINUOUS
 10
-35.6015213613
 20
-1.0690575296
 11
-35.6024086338
 21
-0.9693380037
  0
LWPOLYLINE
  5
2B2
100
AcDbEntity
  8
RACCORDO
100
AcDbPolyline
 62
250
  6
CONTINUOUS
 90
11
 70
0
 10
-35.6024086338
 20
-0.9693380037
 10
-35.6026131176
 20
-0.8786013657
 10
-35.6024542083
 20
-0.8377011682
 10
-35.6021214717
 20
-0.8004869695
 10
-35.6016205378
 20
-0.7675336394
 10
-35.6009591713
 20
-0.7391902624
 10
-35.6001457559
 20
-0.7156945608
 10
-35.5991925705
 20
-0.6972888919
 10
-35.5981127864
 20
-0.6841027037
 10
-35.5969193204
 20
-0.6761846979
 10
-35.5956265533
 20
-0.6735385079
  0
LINE
  5
2B3
100
AcDbEntity
  8
RACCORDO
100
AcDbLine
 62
250
  6
CONTINUOUS
 10
-35.5999888242
 20
-26.2222141896
 11
-35.5999888242
 21
-1.1734623555
  0
LINE
  5
2B4
100
AcDbEntity
  8
RACCORDO
100
AcDbLine
 62
250
  6
CONTINUOUS
 10
-35.5999888242
 20
0.3034922582
 11
-35.5999888242
 21
25.3522440924
  0
LINE
  5
2B5
100
AcDbEntity
  8
RACCORDO
100
AcDbLine
 62
250
  6
CONTINUOUS
 10
-35.6024624363
 20
-0.0309429103
 11
-35.6025952599
 21
0.0535962419
  0
LINE
  5
2B6
100
AcDbEntity
  8
RACCORDO
100
AcDbLine
 62
250
  6
CONTINUOUS
 10
-35.6025952599
 20
0.0535962419
 11
-35.602042538
 21
0.1490507204
  0
LINE
  5
2B7
100
AcDbEntity
  8
RACCORDO
100
AcDbLine
 62
250
  6
CONTINUOUS
 10
-35.6053818786
 20
-26.5578572228
 11
-35.6047843377
 21
-26.4729712284
  0
LWPOLYLINE
  5
2B8
100
AcDbEntity
  8
RACCORDO
100
AcDbPolyline
 62
250
  6
CONTINUOUS
 90
3
 70
0
 10
-35.602042538
 20
0.1490507204
 10
-35.6008284134
 20
0.2512511239
 10
-35.5999888242
 20
0.3034922582
  0
LINE
  5
2B9
100
AcDbEntity
  8
RACCORDO
100
AcDbLine
 62
250
  6
CONTINUOUS
 10
-35.6047843377
 20
-26.4729712284
 11
-35.6034012176
 21
-26.3773045967
  0
LWPOLYLINE
  5
2BA
100
AcDbEntity
  8
RACCORDO
100
AcDbPolyline
 62
250
  6
CONTINUOUS
 90
3
 70
0
 10
-35.6034012176
 20
-26.3773045967
 10
-35.6012898456
 20
-26.2746971994
 10
-35.5999888242
 20
-26.2222141896
  0
LWPOLYLINE
  5
2BB
100
AcDbEntity
  8
RACCORDO
100
AcDbPolyline
 62
250
  6
CONTINUOUS
 90
9
 70
0
 10
-35.5956265533
 20
-0.1964315893
 10
-35.5969460832
 20
-0.1936706791
 10
-35.5981556139
 20
-0.1854659128
 10
-35.5992419013
 20
-0.1719071313
 10
-35.6001930506
 20
-0.153142801
 10
-35.6009986469
 20
-0.1293783886
 10
-35.6016498691
 20
-0.1008741106
 10
-35.6021395863
 20
-0.0679420843
 10
-35.6024624363
 20
-0.0309429103
  0
LINE
  5
2BC
100
AcDbEntity
  8
DRAFT
100
AcDbLine
 62
7
  6
CONTINUOUS
 10
-32.2869003501
 20
15.5650149514
 11
-32.2869003501
 21
12.5650149514
  0
LINE
  5
2BD
100
AcDbEntity
  8
DRAFT
100
AcDbLine
 62
7
  6
CONTINUOUS
 10
-32.2869003501
 20
-16.4349850486
 11
-32.2869003501
 21
-13.4349850486
  0
LWPOLYLINE
  5
2BE
100
AcDbEntity
  8
0
100
AcDbPolyline
 62
7
  6
CONTINUOUS
 90
3
 70
0
 43
0.3500000019
 10
-21.0871025391
 20
34.9728591309
 10
-21.1585327148
 20
34.7585739746
 10
-21.3013930664
 20
34.4728586426
  0
LINE
  5
2BF
100
AcDbEntity
  8
RACCORDO
100
AcDbLine
 62
250
  6
CONTINUOUS
 10
-31.2869003501
 20
-1.0981771161
 11
-35.5999888242
 21
-1.1734623555
  0
LINE
  5
2C0
100
AcDbEntity
  8
RACCORDO
100
AcDbLine
 62
7
  6
CONTINUOUS
 10
-31.2869003501
 20
-0.5983294123
 11
-35.5956265533
 21
-0.6735385079
  0
LINE
  5
2C1
100
AcDbEntity
  8
RACCORDO
100
AcDbLine
 62
250
  6
CONTINUOUS
 10
-36.0869003501
 20
-1.1734623555
 11
-35.5999888242
 21
-1.1734623555
  0
LINE
  5
2C2
100
AcDbEntity
  8
RACCORDO
100
AcDbLine
 62
7
  6
CONTINUOUS
 10
-35.5956265533
 20
-0.1964315893
 11
-31.2869003501
 21
-0.271640685
  0
LINE
  5
2C3
100
AcDbEntity
  8
RACCORDO
100
AcDbLine
 62
7
  6
CONTINUOUS
 10
-31.2869003501
 20
-22.7691587998
 11
-31.2869003501
 21
-16.9806392992
  0
LINE
  5
2C4
100
AcDbEntity
  8
RACCORDO
100
AcDbLine
 62
7
  6
CONTINUOUS
 10
-31.2869003501
 20
-12.8893307981
 11
-31.2869003501
 21
-11.4349850486
  0
LINE
  5
2C5
100
AcDbEntity
  8
DRAFT
100
AcDbLine
 62
7
  6
CONTINUOUS
 10
-31.2869003501
 20
-11.4349850486
 11
-31.2869003501
 21
-7.4349850486
  0
LINE
  5
2C6
100
AcDbEntity
  8
RACCORDO
100
AcDbLine
 62
7
  6
CONTINUOUS
 10
-31.2869003501
 20
-0.5983294123
 11
-31.2869003501
 21
-7.4349850486
  0
LINE
  5
2C7
100
AcDbEntity
  8
RACCORDO
100
AcDbLine
 62
7
  6
CONTINUOUS
 10
-31.2869003501
 20
-0.271640685
 11
-31.2869003501
 21
6.5650149514
  0
LINE
  5
2C8
100
AcDbEntity
  8
DRAFT
100
AcDbLine
 62
7
  6
CONTINUOUS
 10
-31.2869003501
 20
6.5650149514
 11
-31.2869003501
 21
10.5650149514
  0
LINE
  5
2C9
100
AcDbEntity
  8
RACCORDO
100
AcDbLine
 62
7
  6
CONTINUOUS
 10
-31.2869003501
 20
10.5650149514
 11
-31.2869003501
 21
12.0193607008
  0
LINE
  5
2CA
100
AcDbEntity
  8
RACCORDO
100
AcDbLine
 62
7
  6
CONTINUOUS
 10
-31.2869003501
 20
16.1106692019
 11
-31.2869003501
 21
21.8991887026
  0
LINE
  5
2CB
100
AcDbEntity
  8
RACCORDO
100
AcDbLine
 62
250
  6
CONTINUOUS
 10
-35.5999888242
 20
0.3034922582
 11
-36.0869003501
 21
0.3034922582
  0
LINE
  5
2CC
100
AcDbEntity
  8
RACCORDO
100
AcDbLine
 62
250
  6
CONTINUOUS
 10
-35.5999888242
 20
0.3034922582
 11
-31.2869003501
 21
0.2282070189
  0
LINE
  5
2CD
100
AcDbEntity
  8
RACCORDO
100
AcDbLine
 62
7
  6
CONTINUOUS
 10
-28.8369003501
 20
-7.9690985893
 11
-28.8369003501
 21
-10.900871508
  0
LINE
  5
2CE
100
AcDbEntity
  8
RACCORDO
100
AcDbLine
 62
7
  6
CONTINUOUS
 10
-28.8369003501
 20
7.099128492
 11
-28.8369003501
 21
10.0309014107
  0
LWPOLYLINE
  5
2CF
100
AcDbEntity
  8
0
100
AcDbPolyline
 62
7
  6
CONTINUOUS
 90
4
 70
0
 43
0.3500000019
 10
-25.3656298828
 20
47.0097299805
 10
-25.3656298828
 20
47.6525908203
 10
-23.865628418
 20
47.6525908203
 10
-24.722769043
 20
44.6525905762
  0
LINE
  5
2D0
100
AcDbEntity
  8
RACCORDO
100
AcDbLine
 62
7
  6
CONTINUOUS
 10
-31.3039374369
 20
-22.8985683224
 11
-32.3512292597
 21
-26.8071146153
  0
LINE
  5
2D1
100
AcDbEntity
  8
RACCORDO
100
AcDbLine
 62
7
  6
CONTINUOUS
 10
-31.2869003501
 20
6.5650149514
 11
-29.3281741469
 21
6.5992046444
  0
LINE
  5
2D2
100
AcDbEntity
  8
RACCORDO
100
AcDbLine
 62
7
  6
CONTINUOUS
 10
-31.3039374369
 20
22.0285982251
 11
-32.3512292597
 21
25.937144518
  0
LWPOLYLINE
  5
2D3
100
AcDbEntity
  8
0
100
AcDbPolyline
 62
7
  6
CONTINUOUS
 90
2
 70
0
 43
0.3500000019
 10
-23.158534668
 20
34.6871437988
 10
-23.158534668
 20
36.1871452637
  0
LWPOLYLINE
  5
2D4
100
AcDbEntity
  8
0
100
AcDbPolyline
 62
7
  6
CONTINUOUS
 90
4
 70
0
 43
0.3500000019
 10
-20.0871069336
 20
35.1157167969
 10
-20.0871069336
 20
35.9728601074
 10
-19.65853125
 20
36.4014304199
 10
-19.0156757812
 20
36.4014304199
  0
LINE
  5
2D5
100
AcDbEntity
  8
RACCORDO
100
AcDbLine
 62
7
  6
CONTINUOUS
 10
-31.2869003501
 20
10.5650149514
 11
-29.3281741469
 21
10.5308252583
  0
LINE
  5
2D6
100
AcDbEntity
  8
RACCORDO
100
AcDbLine
 62
7
  6
CONTINUOUS
 10
-31.7433224787
 20
12.5174580499
 11
-32.2869003501
 21
12.5650149514
  0
LINE
  5
2D7
100
AcDbEntity
  8
RACCORDO
100
AcDbLine
 62
7
  6
CONTINUOUS
 10
-31.7433224787
 20
15.6125718529
 11
-32.2869003501
 21
15.5650149514
  0
LINE
  5
2D8
100
AcDbEntity
  8
RACCORDO
100
AcDbLine
 62
250
  6
CONTINUOUS
 10
-35.5999888242
 20
25.3522440924
 11
-32.2182337359
 21
25.4407984659
  0
LINE
  5
2D9
100
AcDbEntity
  8
RACCORDO
100
AcDbLine
 62
7
  6
CONTINUOUS
 10
-35.5999888242
 20
25.8520727549
 11
-32.3512292597
 21
25.937144518
  0
LINE
  5
2DA
100
AcDbEntity
  8
RACCORDO
100
AcDbLine
 62
250
  6
CONTINUOUS
 10
-36.0869003501
 20
25.3522440924
 11
-35.5999888242
 21
25.3522440924
  0
LWPOLYLINE
  5
2DB
100
AcDbEntity
  8
0
100
AcDbPolyline
 62
7
  6
CONTINUOUS
 90
3
 70
0
 43
0.3500000019
 10
-22.6585341797
 20
35.3300019531
 10
-24.1585356445
 20
35.3300019531
 10
-23.5156748047
 20
37.687144043
  0
LWPOLYLINE
  5
2DC
100
AcDbEntity
  8
0
100
AcDbPolyline
 62
7
  6
CONTINUOUS
 90
7
 70
0
 43
0.3500000019
 10
-19.794199707
 20
44.6525905762
 10
-21.2942011719
 20
44.6525905762
 10
-19.794199707
 20
46.7954448242
 10
-19.794199707
 20
47.2240205078
 10
-20.2227700195
 20
47.6525908203
 10
-20.8656254883
 20
47.6525908203
 10
-21.2942011719
 20
47.0097299805
  0
LWPOLYLINE
  5
2DD
100
AcDbEntity
  8
0
100
AcDbPolyline
 62
7
  6
CONTINUOUS
 90
8
 70
0
 43
0.3500000019
 10
-18.9370537109
 20
44.6525905762
 10
-18.0799130859
 20
44.6525905762
 10
-17.6513427734
 20
45.0811582031
 10
-17.6513427734
 20
45.9383041992
 10
-18.0799130859
 20
46.3668745117
 10
-18.9370537109
 20
46.3668745117
 10
-18.9370537109
 20
47.6525908203
 10
-17.6513427734
 20
47.6525908203
  0
LWPOLYLINE
  5
2DE
100
AcDbEntity
  8
0
100
AcDbPolyline
 62
7
  6
CONTINUOUS
 90
13
 70
0
 43
0.3500000019
 10
-19.65853125
 20
36.4014304199
 10
-19.944246582
 20
36.6157155762
 10
-19.944246582
 20
37.2585737305
 10
-19.65853125
 20
37.687144043
 10
-19.0156757812
 20
37.687144043
 10
-18.7299604492
 20
37.2585737305
 10
-18.7299604492
 20
36.6157155762
 10
-19.0156757812
 20
36.4014304199
 10
-18.5871054687
 20
35.9728601074
 10
-18.5871054687
 20
35.1157167969
 10
-19.0156757812
 20
34.6871437988
 10
-19.65853125
 20
34.6871437988
 10
-20.0871069336
 20
35.1157167969
  0
LWPOLYLINE
  5
2DF
100
AcDbEntity
  8
0
100
AcDbPolyline
 62
7
  6
CONTINUOUS
 90
10
 70
0
 43
0.3500000019
 10
-21.1585327148
 20
35.1871442871
 10
-21.0871025391
 20
35.0442866211
 10
-21.0871025391
 20
34.9728591309
 10
-21.2299628906
 20
34.8300014648
 10
-21.3013930664
 20
34.8300014648
 10
-21.3728178711
 20
34.9014289551
 10
-21.3728178711
 20
34.9728591309
 10
-21.3013930664
 20
35.1157167969
 10
-21.2299628906
 20
35.1871442871
 10
-21.1585327148
 20
35.1871442871
  0
LWPOLYLINE
  5
2E0
100
AcDbEntity
  8
0
100
AcDbPolyline
 62
7
  6
CONTINUOUS
 90
10
 70
0
 43
0.3500000019
 10
-22.3656269531
 20
45.1525883789
 10
-22.2941967773
 20
45.0097333984
 10
-22.2941967773
 20
44.9383032227
 10
-22.4370571289
 20
44.7954455566
 10
-22.5084873047
 20
44.7954455566
 10
-22.5799121094
 20
44.8668757324
 10
-22.5799121094
 20
44.9383032227
 10
-22.5084873047
 20
45.0811582031
 10
-22.4370571289
 20
45.1525883789
 10
-22.3656269531
 20
45.1525883789
  0
ARC
  5
2E1
100
AcDbEntity
  8
RACCORDO
100
AcDbCircle
 62
7
  6
CONTINUOUS
 10
-29.3369003501
 20
7.099128492
 40
0.5
100
AcDbArc
 50
271.0
 51
360.0
  0
ARC
  5
2E2
100
AcDbEntity
  8
RACCORDO
100
AcDbCircle
 62
7
  6
CONTINUOUS
 10
-29.3369003501
 20
10.0309014107
 40
0.5
100
AcDbArc
 50
0.0
 51
89.0
  0
ARC
  5
2E3
100
AcDbEntity
  8
RACCORDO
100
AcDbCircle
 62
7
  6
CONTINUOUS
 10
-35.5869003501
 20
0.3034922582
 40
0.5
100
AcDbArc
 50
180.0
 51
269.0
  0
ARC
  5
2E4
100
AcDbEntity
  8
RACCORDO
100
AcDbCircle
 62
7
  6
CONTINUOUS
 10
-35.5869003501
 20
25.3522440924
 40
0.5
100
AcDbArc
 50
91.5
 51
180.0
  0
ARC
  5
2E5
100
AcDbEntity
  8
RACCORDO
100
AcDbCircle
 62
7
  6
CONTINUOUS
 10
-31.7869003501
 20
21.8991887026
 40
0.5
100
AcDbArc
 50
0.0
 51
15.0
  0
ARC
  5
2E6
100
AcDbEntity
  8
RACCORDO
100
AcDbCircle
 62
7
  6
CONTINUOUS
 10
-31.7869003501
 20
16.1106692019
 40
0.5
100
AcDbArc
 50
275.0
 51
360.0
  0
ARC
  5
2E7
100
AcDbEntity
  8
RACCORDO
100
AcDbCircle
 62
7
  6
CONTINUOUS
 10
-31.7869003501
 20
12.0193607008
 40
0.5
100
AcDbArc
 50
0.0
 51
85.0
  0
ARC
  5
2E8
100
AcDbEntity
  8
RACCORDO
100
AcDbCircle
 62
7
  6
CONTINUOUS
 10
-29.3369003501
 20
-10.900871508
 40
0.5
100
AcDbArc
 50
271.0
 51
360.0
  0
ARC
  5
2E9
100
AcDbEntity
  8
RACCORDO
100
AcDbCircle
 62
7
  6
CONTINUOUS
 10
-29.3369003501
 20
-7.9690985893
 40
0.5
100
AcDbArc
 50
0.0
 51
89.0
  0
ARC
  5
2EA
100
AcDbEntity
  8
RACCORDO
100
AcDbCircle
 62
7
  6
CONTINUOUS
 10
-35.5869003501
 20
-1.1734623555
 40
0.5
100
AcDbArc
 50
91.0
 51
180.0
  0
ARC
  5
2EB
100
AcDbEntity
  8
RACCORDO
100
AcDbCircle
 62
7
  6
CONTINUOUS
 10
-35.5869003501
 20
-26.2222141896
 40
0.5
100
AcDbArc
 50
180.0
 51
268.5
  0
ARC
  5
2EC
100
AcDbEntity
  8
RACCORDO
100
AcDbCircle
 62
7
  6
CONTINUOUS
 10
-31.7869003501
 20
-12.8893307981
 40
0.5
100
AcDbArc
 50
275.0
 51
360.0
  0
ARC
  5
2ED
100
AcDbEntity
  8
RACCORDO
100
AcDbCircle
 62
7
  6
CONTINUOUS
 10
-31.7869003501
 20
-16.9806392992
 40
0.5
100
AcDbArc
 50
0.0
 51
85.0
  0
ARC
  5
2EE
100
AcDbEntity
  8
RACCORDO
100
AcDbCircle
 62
7
  6
CONTINUOUS
 10
-31.7869003501
 20
-22.7691587998
 40
0.5
100
AcDbArc
 50
345.0
 51
360.0
  0
ELLIPSE
  5
2EF
100
AcDbEntity
  8
RACCORDO
100
AcDbEllipse
 62
7
  6
CONTINUOUS
 10
10.6384803734
 20
21.8991887026
 30
0.0
 11
-0.0
 21
0.5
 31
0.0
 40
0.0261859216
 41
-1.5707963268
 42
-1.308996939
  0
ELLIPSE
  5
2F0
100
AcDbEntity
  8
RACCORDO
100
AcDbEllipse
 62
7
  6
CONTINUOUS
 10
10.6384803734
 20
12.0193607008
 30
0.0
 11
0.0
 21
0.5
 31
0.0
 40
0.0261859216
 41
-1.5707963268
 42
-0.0872664626
  0
ELLIPSE
  5
2F1
100
AcDbEntity
  8
RACCORDO
100
AcDbEllipse
 62
7
  6
CONTINUOUS
 10
10.6384803734
 20
16.1106692019
 30
0.0
 11
-0.0
 21
0.5
 31
0.0
 40
0.0261859216
 41
-3.054326191
 42
-1.5707963268
  0
ELLIPSE
  5
2F2
100
AcDbEntity
  8
RACCORDO
100
AcDbEllipse
 62
7
  6
CONTINUOUS
 10
10.1514019379
 20
0.228435479
 30
0.0
 11
0.416247366
 21
-0.2774630169
 31
0.0
 40
0.9995051766
 41
-0.9826238685
 42
0.5877156075
  0
ELLIPSE
  5
2F3
100
AcDbEntity
  8
RACCORDO
100
AcDbEllipse
 62
7
  6
CONTINUOUS
 10
-11.5353337051
 20
12.0193607008
 30
0.0
 11
-0.0
 21
0.5
 31
0.0
 40
0.0261859216
 41
0.0872664626
 42
1.5707963268
  0
ELLIPSE
  5
2F4
100
AcDbEntity
  8
RACCORDO
100
AcDbEllipse
 62
7
  6
CONTINUOUS
 10
-11.5353337051
 20
21.8991887026
 30
0.0
 11
-0.0
 21
0.5
 31
0.0
 40
0.0261859216
 41
1.308996939
 42
1.5707963268
  0
ELLIPSE
  5
2F5
100
AcDbEntity
  8
RACCORDO
100
AcDbEllipse
 62
7
  6
CONTINUOUS
 10
-11.0482552696
 20
0.228435479
 30
0.0
 11
0.416247366
 21
0.2774630169
 31
0.0
 40
0.9995051766
 41
2.5538770461
 42
4.1242165221
  0
ELLIPSE
  5
2F6
100
AcDbEntity
  8
RACCORDO
100
AcDbEllipse
 62
7
  6
CONTINUOUS
 10
-11.5353337051
 20
16.1106692019
 30
0.0
 11
-0.0
 21
0.5
 31
0.0
 40
0.0261859216
 41
-4.7123889804
 42
-3.2288591162
  0
ELLIPSE
  5
2F7
100
AcDbEntity
  8
RACCORDO
100
AcDbEllipse
 62
7
  6
CONTINUOUS
 10
-11.0397752974
 20
-0.2629131525
 30
0.0
 11
0.5
 21
0.0
 31
0.0
 40
0.0174550649
 41
-1.5707963268
 42
-0.0174532925
  0
ELLIPSE
  5
2F8
100
AcDbEntity
  8
RACCORDO
100
AcDbEllipse
 62
7
  6
CONTINUOUS
 10
10.1429219657
 20
-0.2629131525
 30
0.0
 11
0.5
 21
0.0
 31
0.0
 40
0.0174550649
 41
-3.1241393611
 42
-1.5707963268
  0
ELLIPSE
  5
2F9
100
AcDbEntity
  8
RACCORDO
100
AcDbEllipse
 62
7
  6
CONTINUOUS
 10
-11.0238698347
 20
25.4404581202
 30
0.0
 11
0.4677351297
 21
0.1788908786
 31
0.0
 40
0.9906298547
 41
1.202347637
 42
2.7724587311
  0
ELLIPSE
  5
2FA
100
AcDbEntity
  8
RACCORDO
100
AcDbEllipse
 62
7
  6
CONTINUOUS
 10
10.1270165029
 20
25.4404581202
 30
0.0
 11
0.4677351297
 21
-0.1788908786
 31
0.0
 40
0.9906298547
 41
0.3691339225
 42
1.9392450166
  0
ELLIPSE
  5
2FB
100
AcDbEntity
  8
RACCORDO
100
AcDbEllipse
 62
7
  6
CONTINUOUS
 10
-11.5353337051
 20
-22.7691587998
 30
0.0
 11
0.0
 21
0.5
 31
0.0
 40
0.0261859216
 41
-4.7123889804
 42
-4.4505895926
  0
ELLIPSE
  5
2FC
100
AcDbEntity
  8
RACCORDO
100
AcDbEllipse
 62
7
  6
CONTINUOUS
 10
-11.5353337051
 20
-12.8893307981
 30
0.0
 11
0.0
 21
0.5
 31
0.0
 40
0.0261859216
 41
-4.7123889804
 42
-3.2288591162
  0
ELLIPSE
  5
2FD
100
AcDbEntity
  8
RACCORDO
100
AcDbEllipse
 62
7
  6
CONTINUOUS
 10
-11.5353337051
 20
-16.9806392992
 30
0.0
 11
-0.0
 21
0.5
 31
0.0
 40
0.0261859216
 41
0.0872664626
 42
1.5707963268
  0
ELLIPSE
  5
2FE
100
AcDbEntity
  8
RACCORDO
100
AcDbEllipse
 62
7
  6
CONTINUOUS
 10
-11.0482552696
 20
-1.0984055763
 30
0.0
 11
0.416247366
 21
-0.2774630169
 31
0.0
 40
0.9995051766
 41
2.1589687851
 42
3.7293082611
  0
ELLIPSE
  5
2FF
100
AcDbEntity
  8
RACCORDO
100
AcDbEllipse
 62
7
  6
CONTINUOUS
 10
10.6384803734
 20
-12.8893307981
 30
0.0
 11
-0.0
 21
0.5
 31
0.0
 40
0.0261859216
 41
-3.054326191
 42
-1.5707963268
  0
ELLIPSE
  5
300
100
AcDbEntity
  8
RACCORDO
100
AcDbEllipse
 62
7
  6
CONTINUOUS
 10
10.6384803734
 20
-22.7691587998
 30
0.0
 11
-0.0
 21
0.5
 31
0.0
 40
0.0261859216
 41
-1.8325957146
 42
-1.5707963268
  0
ELLIPSE
  5
301
100
AcDbEntity
  8
RACCORDO
100
AcDbEllipse
 62
7
  6
CONTINUOUS
 10
10.1514019379
 20
-1.0984055763
 30
0.0
 11
0.416247366
 21
0.2774630169
 31
0.0
 40
0.9995051766
 41
-0.5877156075
 42
0.9826238685
  0
ELLIPSE
  5
302
100
AcDbEntity
  8
RACCORDO
100
AcDbEllipse
 62
7
  6
CONTINUOUS
 10
10.6384803734
 20
-16.9806392992
 30
0.0
 11
0.0
 21
0.5
 31
0.0
 40
0.0261859216
 41
-1.5707963268
 42
-0.0872664626
  0
ELLIPSE
  5
303
100
AcDbEntity
  8
RACCORDO
100
AcDbEllipse
 62
7
  6
CONTINUOUS
 10
10.1429219657
 20
-0.6070569447
 30
0.0
 11
0.5
 21
0.0
 31
0.0
 40
0.0174550649
 41
1.5707963268
 42
3.1241393611
  0
ELLIPSE
  5
304
100
AcDbEntity
  8
RACCORDO
100
AcDbEllipse
 62
7
  6
CONTINUOUS
 10
-11.0397752974
 20
-0.6070569447
 30
0.0
 11
0.5
 21
0.0
 31
0.0
 40
0.0174550649
 41
0.0174532925
 42
1.5707963268
  0
ELLIPSE
  5
305
100
AcDbEntity
  8
RACCORDO
100
AcDbEllipse
 62
7
  6
CONTINUOUS
 10
10.1270165029
 20
-26.3104282174
 30
0.0
 11
0.4677351297
 21
0.1788908786
 31
0.0
 40
0.9906298547
 41
-1.9392450166
 42
-0.3691339225
  0
ELLIPSE
  5
306
100
AcDbEntity
  8
RACCORDO
100
AcDbEllipse
 62
7
  6
CONTINUOUS
 10
-11.0238698347
 20
-26.3104282174
 30
0.0
 11
0.4677351297
 21
-0.1788908786
 31
0.0
 40
0.9906298547
 41
-2.7724587311
 42
-1.202347637
  0
ENDSEC
  0
SECTION
  2
OBJECTS
  0
DICTIONARY
  5
C
100
AcDbDictionary
280
0
281
1
  3
ACAD_GROUP
350
D
  3
ACAD_MLINESTYLE
350
17
  3
ACAD_LAYOUT
350
1A
  3
ACAD_PLOTSETTINGS
350
19
  3
ACAD_PLOTSTYLENAME
350
E
  0
DICTIONARY
  5
D
102
{ACAD_REACTORS
330
C
102
}
100
AcDbDictionary
280
0
281
1
  0
ACDBDICTIONARYWDFLT
  5
E
102
{ACAD_REACTORS
330
C
102
}
100
AcDbDictionary
281
1
  3
Normal
350
F
100
AcDbDictionaryWithDefault
340
F
  0
DICTIONARY
  5
17
102
{ACAD_REACTORS
330
C
102
}
100
AcDbDictionary
280
0
281
1
  3
Standard
350
18
  0
DICTIONARY
  5
19
102
{ACAD_REACTORS
330
C
102
}
100
AcDbDictionary
281
1
  0
DICTIONARY
  5
1A
102
{ACAD_REACTORS
330
C
102
}
100
AcDbDictionary
281
1
  3
Model
350
307
  3
Layout1
350
308
  0
ACDBPLACEHOLDER
  5
F
102
{ACAD_REACTORS
330
E
102
}
  0
MLINESTYLE
  5
18
102
{ACAD_REACTORS
330
17
102
}
100
AcDbMlineStyle
  2
STANDARD
 70
0
  3

 62
256
 51
90.0
 52
90.0
 71
2
 49
0.5
 62
256
  6
BYLAYER
 49
-0.5
 62
256
  6
BYLAYER
  0
LAYOUT
  5
307
102
{ACAD_REACTORS
330
1A
102
}
100
AcDbPlotSettings
  1

  2
none_device
  4

  6

 40
0.0
 41
0.0
 42
0.0
 43
0.0
 44
210.0
 45
297.0
 46
0.0
 47
0.0
 48
0.0
 49
0.0
140
0.0
141
0.0
142
1.0
143
1.0
 70
1024
 72
1
 73
0
 74
0
  7

 75
0
147
1.0
148
0.0
149
0.0
100
AcDbLayout
  1
Model
 70
0
 71
0
 10
0.0
 20
0.0
 11
210.0
 21
297.0
 12
0.0
 22
0.0
 32
0.0
 14
0.0
 24
0.0
 34
0.0
 15
0.0
 25
0.0
 35
0.0
146
0.0
 13
0.0
 23
0.0
 33
0.0
 16
1.0
 26
0.0
 36
0.0
 17
0.0
 27
1.0
 37
0.0
 76
0
330
20F
345
0
346
0
  0
LAYOUT
  5
308
102
{ACAD_REACTORS
330
1A
102
}
100
AcDbPlotSettings
  1

  2
none_device
  4

  6

 40
0.0
 41
0.0
 42
0.0
 43
0.0
 44
210.0
 45
297.0
 46
0.0
 47
0.0
 48
0.0
 49
0.0
140
0.0
141
0.0
142
1.0
143
1.0
 70
0
 72
1
 73
0
 74
0
  7

 75
0
147
1.0
148
0.0
149
0.0
100
AcDbLayout
  1
Layout1
 70
0
 71
1
 10
0.0
 20
0.0
 11
210.0
 21
297.0
 12
0.0
 22
0.0
 32
0.0
 14
0.0
 24
0.0
 34
0.0
 15
0.0
 25
0.0
 35
0.0
146
0.0
 13
0.0
 23
0.0
 33
0.0
 16
1.0
 26
0.0
 36
0.0
 17
0.0
 27
1.0
 37
0.0
 76
0
330
210
345
0
346
0
  0
ENDSEC
  0
EOF
