  0
SECTION
  2
HEADER
  9
$ACADVER
  1
AC1024
  9
$DWGCODEPAGE
  3
ANSI_1252
  9
$EXTMAX
 10
210.0
 20
297.0
 30
0.0
  9
$EXTMIN
 10
0.0
 20
0.0
 30
0.0
  9
$LIMMIN
 10
0.0
 20
0.0
  9
$LIMMAX
 10
210.0
 20
297.0
  9
$VIEWCTR
 10
105.0
 20
148.5
  9
$VIEWSIZE
 40
297.0
  9
$CLAYER
  8
0
  9
$LTSCALE
 40
19.36
  9
$CELTYPE
  6
BYLAYER
  9
$DIMSCALE
 40
1.0
  9
$DIMASZ
 40
3.0
  9
$DIMEXO
 40
0.5
  9
$DIMDLI
 40
13.376
  9
$DIMEXE
 40
1.5
  9
$DIMCEN
 40
3.168
  9
$DIMLFAC
 40
1.0
  9
$DIMBLK
  1
_FILLED
  9
$DIMALT
 70
0
  9
$DIMALTF
 40
0.0393700787
  9
$DIMTXT
 40
3.0
  9
$DIMTOL
 70
1
  9
$DIMLIM
 70
0
  9
$DIMTFAC
 40
1.0
  9
$DIMTP
 40
0.01
  9
$DIMTM
 40
0.01
  9
$DIMGAP
 40
0.625
  9
$DIMDSEP
 70
44
  9
$AUNITS
 70
0
  9
$PDMODE
 70
3
  9
$PDSIZE
 40
3.0
  9
$HANDSEED
  5
337
  9
$TILEMODE
 70
1
  9
$MEASUREMENT
 70
1
  9
$INSUNITS
 70
4
  0
ENDSEC
  0
SECTION
  2
CLASSES
  0
CLASS
  1
ACDBDICTIONARYWDFLT
  2
AcDbDictionaryWithDefault
  3
AutoCAD 2000
 90
0
 91
1
280
0
281
0
  0
CLASS
  1
ACDBPLACEHOLDER
  2
AcDbPlaceHolder
  3
AutoCAD 2000
 90
0
 91
1
280
0
281
0
  0
CLASS
  1
LAYOUT
  2
AcDbLayout
  3
AutoCAD 2000
 90
0
 91
0
280
0
281
0
  0
ENDSEC
  0
SECTION
  2
TABLES
  0
TABLE
  2
VPORT
  5
8
100
AcDbSymbolTable
 70
2
  0
VPORT
  5
1F4
100
AcDbSymbolTableRecord
100
AcDbViewportTableRecord
  2
*ACTIVE
 70
0
 10
0.0
 20
0.0
 11
1.0
 21
1.0
 12
105.0
 22
148.5
 13
0.0
 23
0.0
 14
1.0
 24
1.0
 15
0.0
 25
0.0
 16
0.0
 26
0.0
 36
1.0
 17
0.0
 27
0.0
 37
0.0
 40
297.0
 41
0.7070707071
 42
50.0
 43
0.0
 44
0.0
 50
0.0
 51
0.0
 71
0
 72
100
 73
1
 74
1
 75
0
 76
0
 77
0
 78
0
  0
ENDTAB
  0
TABLE
  2
LTYPE
  5
5
100
AcDbSymbolTable
 70
6
  0
LTYPE
  5
14
100
AcDbSymbolTableRecord
100
AcDbLinetypeTableRecord
  2
BYBLOCK
 70
0
  3

 72
65
 73
0
 40
0.0
  0
LTYPE
  5
15
100
AcDbSymbolTableRecord
100
AcDbLinetypeTableRecord
  2
BYLAYER
 70
0
  3

 72
65
 73
0
 40
0.0
  0
LTYPE
  5
16
100
AcDbSymbolTableRecord
100
AcDbLinetypeTableRecord
  2
CONTINUOUS
 70
64
  3
Solid line
 72
65
 73
0
 40
0.0
  0
LTYPE
  5
1F5
100
AcDbSymbolTableRecord
100
AcDbLinetypeTableRecord
  2
CENTER
 70
64
  3
____ _ ____ _ ____ _ ____ _ ____ _ ____ _ ____
 72
65
 73
4
 40
0.6
 49
0.375
 74
0
 49
-0.075
 74
0
 49
0.075
 74
0
 49
-0.075
 74
0
  0
LTYPE
  5
1F6
100
AcDbSymbolTableRecord
100
AcDbLinetypeTableRecord
  2
HIDDEN
 70
64
  3
- - - - - - - - - - - - - - - - - - - -
 72
65
 73
2
 40
0.2
 49
0.1
 74
0
 49
-0.1
 74
0
  0
LTYPE
  5
1F7
100
AcDbSymbolTableRecord
100
AcDbLinetypeTableRecord
  2
PHANTOM
 70
64
  3
_____ _ _ _____ _ _ _____ _ _ _____
 72
65
 73
6
 40
0.8
 49
0.45
 74
0
 49
-0.05
 74
0
 49
0.1
 74
0
 49
-0.05
 74
0
 49
0.1
 74
0
 49
-0.05
 74
0
  0
LTYPE
  5
1F8
100
AcDbSymbolTableRecord
100
AcDbLinetypeTableRecord
  2
DOT
 70
64
  3
. . . . . . . . . . . . . . . . . . . .
 72
65
 73
2
 40
0.2
 49
0.1
 74
0
 49
-0.1
 74
0
  0
LTYPE
  5
1F9
100
AcDbSymbolTableRecord
100
AcDbLinetypeTableRecord
  2
DASHED
 70
64
  3
- - - - - - - - - - - - - - - - - - - -
 72
65
 73
2
 40
0.2
 49
0.1
 74
0
 49
-0.1
 74
0
  0
ENDTAB
  0
TABLE
  2
LAYER
  5
2
100
AcDbSymbolTable
 70
36
  0
LAYER
  5
10
100
AcDbSymbolTableRecord
100
AcDbLayerTableRecord
  2
0
 70
0
 62
7
  6
CONTINUOUS
370
-3
390
F
  0
LAYER
  5
1FA
100
AcDbSymbolTableRecord
100
AcDbLayerTableRecord
  2
DEFAULT_1
 70
0
 62
7
  6
CENTER
370
-3
390
F
  0
LAYER
  5
1FB
100
AcDbSymbolTableRecord
100
AcDbLayerTableRecord
  2
DEFAULT_2
 70
0
 62
7
  6
HIDDEN
370
-3
390
F
  0
LAYER
  5
1FC
100
AcDbSymbolTableRecord
100
AcDbLayerTableRecord
  2
DEFAULT_3
 70
0
 62
7
  6
PHANTOM
370
-3
390
F
  0
LAYER
  5
1FD
100
AcDbSymbolTableRecord
100
AcDbLayerTableRecord
  2
ASSI
 70
0
 62
7
  6
CONTINUOUS
370
-3
390
F
  0
LAYER
  5
1FE
100
AcDbSymbolTableRecord
100
AcDbLayerTableRecord
  2
COORDINATE
 70
0
 62
7
  6
CONTINUOUS
370
-3
390
F
  0
LAYER
  5
1FF
100
AcDbSymbolTableRecord
100
AcDbLayerTableRecord
  2
COPY_PUBLISH
 70
0
 62
7
  6
CONTINUOUS
370
-3
390
F
  0
LAYER
  5
200
100
AcDbSymbolTableRecord
100
AcDbLayerTableRecord
  2
COSMETICI
 70
0
 62
7
  6
CONTINUOUS
370
-3
390
F
  0
LAYER
  5
201
100
AcDbSymbolTableRecord
100
AcDbLayerTableRecord
  2
CURVE
 70
0
 62
7
  6
CONTINUOUS
370
-3
390
F
  0
LAYER
  5
202
100
AcDbSymbolTableRecord
100
AcDbLayerTableRecord
  2
DRAFT
 70
0
 62
7
  6
CONTINUOUS
370
-3
390
F
  0
LAYER
  5
203
100
AcDbSymbolTableRecord
100
AcDbLayerTableRecord
  2
IMPORT_IGES
 70
0
 62
7
  6
CONTINUOUS
370
-3
390
F
  0
LAYER
  5
204
100
AcDbSymbolTableRecord
100
AcDbLayerTableRecord
  2
INTF_1
 70
0
 62
7
  6
CONTINUOUS
370
-3
390
F
  0
LAYER
  5
205
100
AcDbSymbolTableRecord
100
AcDbLayerTableRecord
  2
INTF_2
 70
0
 62
7
  6
CONTINUOUS
370
-3
390
F
  0
LAYER
  5
206
100
AcDbSymbolTableRecord
100
AcDbLayerTableRecord
  2
INTF_4
 70
0
 62
7
  6
CONTINUOUS
370
-3
390
F
  0
LAYER
  5
207
100
AcDbSymbolTableRecord
100
AcDbLayerTableRecord
  2
INTF_8
 70
0
 62
7
  6
CONTINUOUS
370
-3
390
F
  0
LAYER
  5
208
100
AcDbSymbolTableRecord
100
AcDbLayerTableRecord
  2
INTF_9
 70
0
 62
7
  6
CONTINUOUS
370
-3
390
F
  0
LAYER
  5
209
100
AcDbSymbolTableRecord
100
AcDbLayerTableRecord
  2
NOTE
 70
0
 62
7
  6
CONTINUOUS
370
-3
390
F
  0
LAYER
  5
20A
100
AcDbSymbolTableRecord
100
AcDbLayerTableRecord
  2
PIANI
 70
0
 62
7
  6
CONTINUOUS
370
-3
390
F
  0
LAYER
  5
20B
100
AcDbSymbolTableRecord
100
AcDbLayerTableRecord
  2
PUNTI
 70
0
 62
7
  6
CONTINUOUS
370
-3
390
F
  0
LAYER
  5
20C
100
AcDbSymbolTableRecord
100
AcDbLayerTableRecord
  2
RACCORDO
 70
0
 62
7
  6
CONTINUOUS
370
-3
390
F
  0
LAYER
  5
20D
100
AcDbSymbolTableRecord
100
AcDbLayerTableRecord
  2
SIMBOLI
 70
0
 62
7
  6
CONTINUOUS
370
-3
390
F
  0
LAYER
  5
20E
100
AcDbSymbolTableRecord
100
AcDbLayerTableRecord
  2
SMUSSO
 70
0
 62
7
  6
CONTINUOUS
370
-3
390
F
  0
LAYER
  5
20F
100
AcDbSymbolTableRecord
100
AcDbLayerTableRecord
  2
SNAPLINE
 70
0
 62
7
  6
CONTINUOUS
370
-3
390
F
  0
LAYER
  5
210
100
AcDbSymbolTableRecord
100
AcDbLayerTableRecord
  2
SUPERFICI
 70
0
 62
7
  6
CONTINUOUS
370
-3
390
F
  0
LAYER
  5
211
100
AcDbSymbolTableRecord
100
AcDbLayerTableRecord
  2
TRASH
 70
0
 62
7
  6
CONTINUOUS
370
-3
390
F
  0
ENDTAB
  0
TABLE
  2
STYLE
  5
3
100
AcDbSymbolTable
 70
1
  0
STYLE
  5
11
100
AcDbSymbolTableRecord
100
AcDbTextStyleTableRecord
  2
STANDARD
 70
0
 40
0.0
 41
0.8
 50
0.0
 71
0
 42
0.2
  3
txt
  4

  0
STYLE
  5
212
100
AcDbSymbolTableRecord
100
AcDbTextStyleTableRecord
  2
TEXTSTYLE_1
 70
0
 40
0.0
 41
0.8
 50
0.0
 71
0
 42
0.2
  3
gdt
  4

  0
ENDTAB
  0
TABLE
  2
VIEW
  5
6
100
AcDbSymbolTable
 70
0
  0
ENDTAB
  0
TABLE
  2
UCS
  5
7
100
AcDbSymbolTable
 70
0
  0
ENDTAB
  0
TABLE
  2
APPID
  5
9
100
AcDbSymbolTable
 70
1
  0
APPID
  5
213
100
AcDbSymbolTableRecord
100
AcDbRegAppTableRecord
  2
ACAD
 70
0
  0
ENDTAB
  0
TABLE
  2
BLOCK_RECORD
  5
1
100
AcDbSymbolTable
 70
0
  0
BLOCK_RECORD
  5
214
100
AcDbSymbolTableRecord
100
AcDbBlockTableRecord
  2
*Model_Space
  0
BLOCK_RECORD
  5
215
100
AcDbSymbolTableRecord
100
AcDbBlockTableRecord
  2
*Paper_Space
  0
BLOCK_RECORD
  5
216
100
AcDbSymbolTableRecord
100
AcDbBlockTableRecord
  2
_FILLED
  0
BLOCK_RECORD
  5
217
100
AcDbSymbolTableRecord
100
AcDbBlockTableRecord
  2
*D0
  0
BLOCK_RECORD
  5
218
100
AcDbSymbolTableRecord
100
AcDbBlockTableRecord
  2
*D1
  0
BLOCK_RECORD
  5
219
100
AcDbSymbolTableRecord
100
AcDbBlockTableRecord
  2
*D2
  0
ENDTAB
  0
TABLE
  2
DIMSTYLE
  5
A
100
AcDbSymbolTable
 70
1
100
AcDbDimStyleTable
 71
0
  0
DIMSTYLE
105
21A
100
AcDbSymbolTableRecord
100
AcDbDimStyleTableRecord
  2
STANDARD
 70
0
  3

  4

 40
1.0
 41
3.0
 42
0.5
 43
0.38
 44
1.5
 45
0.0
 46
0.0
 47
0.01
 48
0.01
140
3.0
141
0.09
142
0.0
143
25.4
144
1.0
145
0.0
146
1.0
147
0.625
 71
1
 72
0
 73
0
 74
0
 75
0
 76
0
 77
1
 78
8
 79
2
170
0
171
1
172
0
173
0
174
0
175
0
176
0
177
0
178
0
270
2
179
2
271
2
272
2
273
2
274
2
275
0
280
0
281
0
282
0
283
1
284
8
285
0
286
0
287
3
288
0
340
11
278
44
341
216
342
216
343
216
344
216
  0
DIMSTYLE
105
21B
100
AcDbSymbolTableRecord
100
AcDbDimStyleTableRecord
  2
DIMSTYLE_1
 70
0
  3

  4

 40
1.0
 41
3.0
 42
0.5
 43
0.38
 44
1.5
 45
0.0
 46
0.0
 47
0.0
 48
0.0
140
3.0
141
0.09
142
0.0
143
25.4
144
1.0
145
0.0
146
1.0
147
0.75
 71
0
 72
0
 73
0
 74
0
 75
0
 76
0
 77
1
 78
8
 79
2
170
0
171
1
172
0
173
0
174
0
175
0
176
0
177
0
178
0
270
2
179
2
271
2
272
2
273
2
274
2
275
0
280
0
281
0
282
0
283
1
284
8
285
0
286
0
287
3
288
0
340
11
278
44
341
216
342
216
343
216
344
216
  0
DIMSTYLE
105
21C
100
AcDbSymbolTableRecord
100
AcDbDimStyleTableRecord
  2
DIMSTYLE_2
 70
0
  3

  4

 40
1.0
 41
3.0
 42
0.5
 43
0.38
 44
1.5
 45
0.0
 46
0.0
 47
0.0
 48
0.0
140
3.0
141
0.09
142
0.0
143
25.4
144
1.0
145
0.0
146
1.0
147
0.75
 71
0
 72
0
 73
0
 74
0
 75
0
 76
0
 77
1
 78
8
 79
2
170
0
171
1
172
0
173
0
174
0
175
0
176
0
177
0
178
0
270
2
179
2
271
1
272
1
273
2
274
2
275
0
280
0
281
0
282
0
283
1
284
8
285
0
286
0
287
3
288
0
340
11
278
44
341
216
342
216
343
216
344
216
  0
ENDTAB
  0
ENDSEC
  0
SECTION
  2
BLOCKS
  0
BLOCK
  5
20
100
AcDbEntity
  8
0
100
AcDbBlockBegin
  2
*Model_Space
 70
0
 10
0.0
 20
0.0
 30
0.0
  3
*Model_Space
  1

  0
ENDBLK
  5
21
100
AcDbEntity
  8
0
100
AcDbBlockEnd
  0
BLOCK
  5
1C
100
AcDbEntity
  8
0
100
AcDbBlockBegin
  2
*Paper_Space
 70
0
 10
0.0
 20
0.0
 30
0.0
  3
*Paper_Space
  1

  0
ENDBLK
  5
1D
100
AcDbEntity
  8
0
100
AcDbBlockEnd
  0
BLOCK
  5
21D
100
AcDbEntity
  8
0
100
AcDbBlockBegin
  2
_FILLED
 70
64
 10
0.0
 20
0.0
  3
_FILLED
  1

  0
SOLID
  5
21E
100
AcDbEntity
  8
0
  6
BYBLOCK
 62
0
100
AcDbTrace
 10
0.0
 20
0.0
 11
-1.0
 21
0.3166666667
 12
-1.0
 22
-0.3166666667
 13
-1.0
 23
-0.3166666667
  0
ENDBLK
  5
21F
100
AcDbEntity
  8
0
  6
BYBLOCK
 62
0
100
AcDbBlockEnd
  0
BLOCK
  5
220
100
AcDbEntity
  8
0
100
AcDbBlockBegin
 62
7
  6
CONTINUOUS
  2
*D0
 70
65
 10
0.0
 20
0.0
  3
*D0
  1

  0
LINE
  5
221
100
AcDbEntity
  8
0
100
AcDbLine
 62
7
  6
CONTINUOUS
 10
-11.4818770559
 20
22.3136299601
 11
-11.4818770559
 21
35.3873489483
  0
LINE
  5
222
100
AcDbEntity
  8
0
100
AcDbLine
 62
7
  6
CONTINUOUS
 10
10.7181229441
 20
22.3136299601
 11
10.7181229441
 21
35.3873489483
  0
LINE
  5
223
100
AcDbEntity
  8
0
100
AcDbLine
 62
7
  6
CONTINUOUS
 10
-11.4818770559
 20
33.8873489483
 11
-0.3818770559
 21
33.8873489483
  0
LINE
  5
224
100
AcDbEntity
  8
0
100
AcDbLine
 62
7
  6
CONTINUOUS
 10
10.7181229441
 20
33.8873489483
 11
-0.3818770559
 21
33.8873489483
  0
INSERT
  5
225
100
AcDbEntity
  8
0
100
AcDbBlockReference
 62
7
  6
CONTINUOUS
  2
_FILLED
 10
-11.4818770559
 20
33.8873489483
 41
3.0
 42
3.0
 43
3.0
 50
180.0
  0
INSERT
  5
226
100
AcDbEntity
  8
0
100
AcDbBlockReference
 62
7
  6
CONTINUOUS
  2
_FILLED
 10
10.7181229441
 20
33.8873489483
 41
3.0
 42
3.0
 43
3.0
  0
ENDBLK
  5
227
100
AcDbEntity
  8
0
  6
BYBLOCK
 62
0
100
AcDbBlockEnd
  0
BLOCK
  5
228
100
AcDbEntity
  8
0
100
AcDbBlockBegin
 62
7
  6
CONTINUOUS
  2
*D1
 70
65
 10
0.0
 20
0.0
  3
*D1
  1

  0
LINE
  5
229
100
AcDbEntity
  8
0
100
AcDbLine
 62
7
  6
CONTINUOUS
 10
10.6904238482
 20
25.8515857755
 11
20.2502616006
 21
25.8515857755
  0
LINE
  5
22A
100
AcDbEntity
  8
0
100
AcDbLine
 62
7
  6
CONTINUOUS
 10
10.6904238482
 20
-26.8926733578
 11
20.2502616006
 21
-26.8926733578
  0
LINE
  5
22B
100
AcDbEntity
  8
0
100
AcDbLine
 62
7
  6
CONTINUOUS
 10
18.7502616006
 20
25.8515857755
 11
18.7502616006
 21
-0.5205437911
  0
LINE
  5
22C
100
AcDbEntity
  8
0
100
AcDbLine
 62
7
  6
CONTINUOUS
 10
18.7502616006
 20
-26.8926733578
 11
18.7502616006
 21
-0.5205437911
  0
INSERT
  5
22D
100
AcDbEntity
  8
0
100
AcDbBlockReference
 62
7
  6
CONTINUOUS
  2
_FILLED
 10
18.7502616006
 20
25.8515857755
 41
3.0
 42
3.0
 43
3.0
 50
90.0
  0
INSERT
  5
22E
100
AcDbEntity
  8
0
100
AcDbBlockReference
 62
7
  6
CONTINUOUS
  2
_FILLED
 10
18.7502616006
 20
-26.8926733578
 41
3.0
 42
3.0
 43
3.0
 50
270.0
  0
ENDBLK
  5
22F
100
AcDbEntity
  8
0
  6
BYBLOCK
 62
0
100
AcDbBlockEnd
  0
BLOCK
  5
230
100
AcDbEntity
  8
0
100
AcDbBlockBegin
 62
7
  6
CONTINUOUS
  2
*D2
 70
65
 10
0.0
 20
0.0
  3
*D2
  1

  0
LINE
  5
231
100
AcDbEntity
  8
0
100
AcDbLine
 62
7
  6
CONTINUOUS
 10
-25.6161065296
 20
22.3136299601
 11
-25.6161065296
 21
35.3625655814
  0
LINE
  5
232
100
AcDbEntity
  8
0
100
AcDbLine
 62
7
  6
CONTINUOUS
 10
-29.4161065296
 20
17.5629333133
 11
-29.4161065296
 21
35.3625655814
  0
LINE
  5
233
100
AcDbEntity
  8
0
100
AcDbLine
 62
7
  6
CONTINUOUS
 10
-25.6161065296
 20
33.8625655814
 11
-14.9352535306
 21
33.8625655814
  0
LINE
  5
234
100
AcDbEntity
  8
0
100
AcDbLine
 62
7
  6
CONTINUOUS
 10
-14.9352535306
 20
33.8625655814
 11
-27.5161065296
 21
33.8625655814
  0
LINE
  5
235
100
AcDbEntity
  8
0
100
AcDbLine
 62
7
  6
CONTINUOUS
 10
-29.4161065296
 20
33.8625655814
 11
-33.4161065296
 21
33.8625655814
  0
LINE
  5
236
100
AcDbEntity
  8
0
100
AcDbLine
 62
7
  6
CONTINUOUS
 10
-33.4161065296
 20
33.8625655814
 11
-27.5161065296
 21
33.8625655814
  0
INSERT
  5
237
100
AcDbEntity
  8
0
100
AcDbBlockReference
 62
7
  6
CONTINUOUS
  2
_FILLED
 10
-25.6161065296
 20
33.8625655814
 41
3.0
 42
3.0
 43
3.0
 50
180.0
  0
INSERT
  5
238
100
AcDbEntity
  8
0
100
AcDbBlockReference
 62
7
  6
CONTINUOUS
  2
_FILLED
 10
-29.4161065296
 20
33.8625655814
 41
3.0
 42
3.0
 43
3.0
  0
ENDBLK
  5
239
100
AcDbEntity
  8
0
  6
BYBLOCK
 62
0
100
AcDbBlockEnd
  0
ENDSEC
  0
SECTION
  2
ENTITIES
  0
DIMENSION
  5
23A
100
AcDbEntity
  8
0
100
AcDbDimension
 62
7
  6
CONTINUOUS
  2
*D0
 10
10.7181229441
 20
33.8873489483
 11
-4.7747341988
 21
33.8873489483
 70
160
 71
2
 72
2
 41
0.9
 42
22.2
  3
DIMSTYLE_1
100
AcDbAlignedDimension
 13
-11.4818770559
 23
21.8136299601
 14
10.7181229441
 24
21.8136299601
100
AcDbRotatedDimension
  0
DIMENSION
  5
23B
100
AcDbEntity
  8
0
100
AcDbDimension
 62
7
  6
CONTINUOUS
  2
*D1
 10
18.7502616006
 20
-26.8926733578
 11
18.7502616006
 21
-4.8062580768
 70
160
 71
2
 72
2
 41
0.9
 42
52.7442591333
  3
DIMSTYLE_2
100
AcDbAlignedDimension
 13
10.1904238482
 23
25.8515857755
 14
10.1904238482
 24
-26.8926733578
 50
270.0
100
AcDbRotatedDimension
  0
DIMENSION
  5
23C
100
AcDbEntity
  8
0
100
AcDbDimension
 62
7
  6
CONTINUOUS
  2
*D2
 10
-29.4161065296
 20
33.8625655814
 11
-21.1495392449
 21
33.8625655814
 70
160
 71
1
 72
2
 41
0.9
 42
3.8
  3
DIMSTYLE_1
100
AcDbAlignedDimension
 13
-25.6161065296
 23
21.8136299601
 14
-29.4161065296
 24
17.0629333133
 50
180.0
100
AcDbRotatedDimension
  0
LWPOLYLINE
  5
23D
100
AcDbEntity
  8
ASSI
100
AcDbPolyline
 62
250
  6
CONTINUOUS
 90
16
 70
0
 10
10.1315380067
 20
-26.8337875162
 10
10.1826802692
 20
-26.8311291613
 10
10.2335399217
 20
-26.8231989893
 10
10.2835653953
 20
-26.8100021103
 10
10.3322308487
 20
-26.7915888432
 10
10.3789480584
 20
-26.7680898923
 10
10.4230885331
 20
-26.7397480173
 10
10.4641736157
 20
-26.7068023556
 10
10.5016760719
 20
-26.6696018869
 10
10.5350015831
 20
-26.6287178272
 10
10.5637429008
 20
-26.5847158925
 10
10.5876768529
 20
-26.5380139575
 10
10.6065903059
 20
-26.4890492608
 10
10.6202767384
 20
-26.4383295224
 10
10.6285676598
 20
-26.3864418635
 10
10.6313666691
 20
-26.3339588537
  0
LWPOLYLINE
  5
23E
100
AcDbEntity
  8
ASSI
100
AcDbPolyline
 62
250
  6
CONTINUOUS
 90
16
 70
0
 10
-10.8952921185
 20
-26.8337875162
 10
-10.9468124749
 20
-26.8310898665
 10
-10.9979816144
 20
-26.8230546803
 10
-11.0482404866
 20
-26.8097064411
 10
-11.0970910871
 20
-26.7911015463
 10
-11.1439106982
 20
-26.767398366
 10
-11.1879904014
 20
-26.7389205354
 10
-11.2287894669
 20
-26.7060316367
 10
-11.265924317
 20
-26.6690562372
 10
-11.2989989088
 20
-26.6283847754
 10
-11.3276515659
 20
-26.584449524
 10
-11.3515534146
 20
-26.5377403518
 10
-11.3704301559
 20
-26.4887868855
 10
-11.3840726035
 20
-26.4381344105
 10
-11.3923331222
 20
-26.386334946
 10
-11.395120781
 20
-26.3339588537
  0
LINE
  5
23F
100
AcDbEntity
  8
ASSI
100
AcDbLine
 62
7
  6
CONTINUOUS
 10
-10.9541779601
 20
-26.8926733578
 11
10.1904238482
 21
-26.8926733578
  0
LINE
  5
240
100
AcDbEntity
  8
ASSI
100
AcDbLine
 62
250
  6
CONTINUOUS
 10
-10.8952921185
 20
-26.8337875162
 11
10.1315380067
 21
-26.8337875162
  0
LINE
  5
241
100
AcDbEntity
  8
ASSI
100
AcDbLine
 62
250
  6
CONTINUOUS
 10
-11.395120781
 20
-26.3339588537
 11
10.6313666691
 21
-26.3339588537
  0
LWPOLYLINE
  5
242
100
AcDbEntity
  8
CURVE
100
AcDbPolyline
 62
250
  6
CONTINUOUS
 90
54
 70
0
 10
-3.3329588072
 20
-18.1024689857
 10
-3.274228516
 20
-18.099894381
 10
-3.2155877022
 20
-18.0958353799
 10
-3.1570737241
 20
-18.0901543862
 10
-3.1110744087
 20
-18.0844416464
 10
-3.0652312689
 20
-18.0775564104
 10
-3.0195984801
 20
-18.0694192678
 10
-2.9742302179
 20
-18.0599508086
 10
-2.9291806577
 20
-18.0490716225
 10
-2.8790276032
 20
-18.0350870865
 10
-2.8294352373
 20
-18.019209146
 10
-2.7804937799
 20
-18.0014245397
 10
-2.7322934507
 20
-17.9817200058
 10
-2.6881545899
 20
-17.9616201435
 10
-2.6448548342
 20
-17.9397771738
 10
-2.602512139
 20
-17.9161249261
 10
-2.5612444599
 20
-17.8905972302
 10
-2.5239147298
 20
-17.8651286419
 10
-2.4876705232
 20
-17.8380575428
 10
-2.4525648906
 20
-17.809461821
 10
-2.4186508825
 20
-17.7794193647
 10
-2.3859815496
 20
-17.7480080623
 10
-2.3546099424
 20
-17.7153058019
 10
-2.3245891115
 20
-17.6813904718
 10
-2.2959721075
 20
-17.6463399603
 10
-2.2686879887
 20
-17.6100875151
 10
-2.2428117531
 20
-17.5728532247
 10
-2.2182828055
 20
-17.5347209562
 10
-2.1950405508
 20
-17.4957745766
 10
-2.1730243937
 20
-17.4560979531
 10
-2.1521737391
 20
-17.4157749528
 10
-2.1324279917
 20
-17.3748894428
 10
-2.1137265564
 20
-17.3335252902
 10
-2.0915827689
 20
-17.280856042
 10
-2.0709867948
 20
-17.2276054199
 10
-2.0519259831
 20
-17.1738182799
 10
-2.0343876826
 20
-17.1195394782
 10
-2.018359242
 20
-17.0648138711
 10
-2.0038280104
 20
-17.0096863146
 10
-1.9890312935
 20
-16.9463281378
 10
-1.9760062039
 20
-16.8825707335
 10
-1.9645901954
 20
-16.8184801171
 10
-1.954620722
 20
-16.7541223039
 10
-1.9459352376
 20
-16.6895633093
 10
-1.9383711962
 20
-16.6248691489
 10
-1.9289748787
 20
-16.529429733
 10
-1.9214177752
 20
-16.4338661783
 10
-1.9154582444
 20
-16.3382044063
 10
-1.9108546453
 20
-16.2424703382
 10
-1.9073653368
 20
-16.1466898956
 10
-1.9035959735
 20
-15.9944502905
 10
-1.9015266671
 20
-15.8421765825
 10
-1.9006541478
 20
-15.6898863106
 10
-1.9004751458
 20
-15.5375970138
  0
LINE
  5
243
100
AcDbEntity
  8
CURVE
100
AcDbLine
 62
250
  6
CONTINUOUS
 10
2.5891729441
 20
-18.0077307911
 11
2.0041959441
 21
-18.0077307911
  0
LINE
  5
244
100
AcDbEntity
  8
CURVE
100
AcDbLine
 62
250
  6
CONTINUOUS
 10
-0.3660300559
 20
-18.0077307911
 11
-0.9510070559
 21
-18.0077307911
  0
LINE
  5
245
100
AcDbEntity
  8
CURVE
100
AcDbLine
 62
250
  6
CONTINUOUS
 10
4.0612629441
 20
-15.6754007911
 11
2.5891729441
 21
-15.6754007911
  0
LINE
  5
246
100
AcDbEntity
  8
CURVE
100
AcDbLine
 62
250
  6
CONTINUOUS
 10
1.1060599441
 20
-15.6754007911
 11
-0.3660300559
 21
-15.6754007911
  0
LINE
  5
247
100
AcDbEntity
  8
CURVE
100
AcDbLine
 62
7
  6
CONTINUOUS
 10
-4.0131256806
 20
15.557229861
 11
-2.5079745749
 21
17.0623809667
  0
LINE
  5
248
100
AcDbEntity
  8
CURVE
100
AcDbLine
 62
7
  6
CONTINUOUS
 10
-4.0472273683
 20
14.5275218254
 11
-3.4383903105
 21
15.1363588832
  0
LINE
  5
249
100
AcDbEntity
  8
CURVE
100
AcDbLine
 62
7
  6
CONTINUOUS
 10
-2.087288247
 20
16.4874609467
 11
-1.705840291
 21
16.8689089027
  0
LINE
  5
24A
100
AcDbEntity
  8
CURVE
100
AcDbLine
 62
250
  6
CONTINUOUS
 10
-0.3660300559
 20
-15.2072127911
 11
1.1060599441
 21
-15.2072127911
  0
LINE
  5
24B
100
AcDbEntity
  8
CURVE
100
AcDbLine
 62
250
  6
CONTINUOUS
 10
2.5891729441
 20
-15.2072127911
 11
4.0612629441
 21
-15.2072127911
  0
LWPOLYLINE
  5
24C
100
AcDbEntity
  8
CURVE
100
AcDbPolyline
 62
250
  6
CONTINUOUS
 90
31
 70
0
 10
-4.0061175064
 20
-17.4158630723
 10
-4.0188574038
 20
-17.3996514494
 10
-4.0312106648
 20
-17.3831375639
 10
-4.043183495
 20
-17.3663339977
 10
-4.0547821003
 20
-17.3492533325
 10
-4.0660126862
 20
-17.3319081504
 10
-4.0768814586
 20
-17.3143110332
 10
-4.0873946232
 20
-17.2964745627
 10
-4.0975583857
 20
-17.2784113209
 10
-4.1073789519
 20
-17.2601338895
 10
-4.1168625274
 20
-17.2416548506
 10
-4.126015318
 20
-17.2229867859
 10
-4.1348435295
 20
-17.2041422774
 10
-4.1433533676
 20
-17.1851339069
 10
-4.151551038
 20
-17.1659742563
 10
-4.1594427464
 20
-17.1466759075
 10
-4.1670346986
 20
-17.1272514423
 10
-4.1743331003
 20
-17.1077134427
 10
-4.1813441573
 20
-17.0880744905
 10
-4.1880740752
 20
-17.0683471675
 10
-4.1945290598
 20
-17.0485440557
 10
-4.2007153169
 20
-17.028677737
 10
-4.2066390521
 20
-17.0087607932
 10
-4.2123064712
 20
-16.9888058062
 10
-4.2193901054
 20
-16.9624844016
 10
-4.2260585
 20
-16.9361134193
 10
-4.2323301692
 20
-16.909687438
 10
-4.238223627
 20
-16.8832010363
 10
-4.2437573873
 20
-16.8566487928
 10
-4.2489499642
 20
-16.8300252862
 10
-4.2538198718
 20
-16.8033250951
  0
LINE
  5
24D
100
AcDbEntity
  8
ASSI
100
AcDbLine
 62
7
  6
CONTINUOUS
 10
-11.4814309241
 20
-22.9841270649
 11
-11.4574892329
 21
-26.3963273056
  0
LINE
  5
24E
100
AcDbEntity
  8
ASSI
100
AcDbLine
 62
7
  6
CONTINUOUS
 10
-11.4814309241
 20
21.9430394826
 11
-11.4574892329
 21
25.3552397234
  0
LWPOLYLINE
  5
24F
100
AcDbEntity
  8
CURVE
100
AcDbPolyline
 62
250
  6
CONTINUOUS
 90
56
 70
0
 10
-3.1393314823
 20
16.3504875669
 10
-3.1254325972
 20
16.3674677763
 10
-3.1108227863
 20
16.3839152987
 10
-3.0955388216
 20
16.3998144447
 10
-3.0796174747
 20
16.4151495248
 10
-3.0630955175
 20
16.4299048496
 10
-3.046009722
 20
16.4440647297
 10
-3.0283968597
 20
16.4576134757
 10
-3.0102937027
 20
16.470535398
 10
-2.9917370227
 20
16.4828148074
 10
-2.9727635916
 20
16.4944360143
 10
-2.9534101811
 20
16.5053833293
 10
-2.9337135632
 20
16.5156410631
 10
-2.9137105095
 20
16.5251935261
 10
-2.8934377921
 20
16.5340250289
 10
-2.8707798845
 20
16.5429307501
 10
-2.8478643712
 20
16.5509799285
 10
-2.8247175979
 20
16.5582141742
 10
-2.8013659103
 20
16.5646750973
 10
-2.7778356541
 20
16.5704043081
 10
-2.754153175
 20
16.5754434165
 10
-2.7303448186
 20
16.5798340329
 10
-2.7034673408
 20
16.5840419612
 10
-2.6764822124
 20
16.5875172517
 10
-2.6494074928
 20
16.5902937674
 10
-2.6222612411
 20
16.5924053715
 10
-2.5950615168
 20
16.5938859273
 10
-2.567826379
 20
16.5947692979
 10
-2.540573887
 20
16.5950893464
 10
-2.5095385069
 20
16.5947965644
 10
-2.4785277813
 20
16.5937810699
 10
-2.4475654497
 20
16.5920068595
 10
-2.4166752521
 20
16.5894379299
 10
-2.3858809283
 20
16.5860382775
 10
-2.355206218
 20
16.5817718991
 10
-2.3322277321
 20
16.5779646273
 10
-2.3093488853
 20
16.5735998428
 10
-2.2865882099
 20
16.5686307817
 10
-2.2639642381
 20
16.5630106802
 10
-2.2414955022
 20
16.5566927743
 10
-2.2192005344
 20
16.5496303001
 10
-2.1970978671
 20
16.5417764937
 10
-2.1780578688
 20
16.5342752992
 10
-2.1592170794
 20
16.5261458974
 10
-2.1406153614
 20
16.5173935094
 10
-2.1222925774
 20
16.5080233565
 10
-2.1042885901
 20
16.4980406599
 10
-2.086643262
 20
16.4874506409
 10
-2.0693964558
 20
16.4762585206
 10
-2.0525880341
 20
16.4644695203
 10
-2.0362578595
 20
16.4520888611
 10
-2.0204457945
 20
16.4391217644
 10
-2.0051917018
 20
16.4255734514
 10
-1.9905354441
 20
16.4114491432
 10
-1.9765168838
 20
16.3967540611
 10
-1.9631758837
 20
16.3814934263
  0
LINE
  5
250
100
AcDbEntity
  8
CURVE
100
AcDbLine
 62
7
  6
CONTINUOUS
 10
-4.030909892
 20
13.5482329538
 11
-3.4421553755
 21
14.1369874703
  0
LINE
  5
251
100
AcDbEntity
  8
CURVE
100
AcDbLine
 62
7
  6
CONTINUOUS
 10
-1.7242564632
 20
15.8548863826
 11
-1.2481247814
 21
16.3310180643
  0
LINE
  5
252
100
AcDbEntity
  8
CURVE
100
AcDbLine
 62
7
  6
CONTINUOUS
 10
-3.8737017524
 20
12.7098347455
 11
-3.3873783573
 21
13.1961581406
  0
LINE
  5
253
100
AcDbEntity
  8
CURVE
100
AcDbLine
 62
7
  6
CONTINUOUS
 10
-1.6489158047
 20
14.9346206932
 11
-1.0643533552
 21
15.5191831427
  0
LINE
  5
254
100
AcDbEntity
  8
CURVE
100
AcDbLine
 62
7
  6
CONTINUOUS
 10
-0.0845650559
 20
16.498971442
 11
0.382933711
 21
16.9664702089
  0
LWPOLYLINE
  5
255
100
AcDbEntity
  8
CURVE
100
AcDbPolyline
 62
250
  6
CONTINUOUS
 90
84
 70
0
 10
-3.4073599111
 20
-12.936894432
 10
-3.4763653472
 20
-12.9379279173
 10
-3.5455619682
 20
-12.9411187308
 10
-3.6147718416
 20
-12.9466024082
 10
-3.6838170347
 20
-12.9545144856
 10
-3.752519615
 20
-12.9649904987
 10
-3.8207016498
 20
-12.9781659837
 10
-3.8881852067
 20
-12.9941764764
 10
-3.954792353
 20
-13.0131575127
 10
-4.0203451561
 20
-13.0352446285
 10
-4.0846656835
 20
-13.0605733599
 10
-4.1387318706
 20
-13.0849933109
 10
-4.1915456362
 20
-13.1119546142
 10
-4.2428932231
 20
-13.1415112397
 10
-4.2925608742
 20
-13.1737171577
 10
-4.3403348322
 20
-13.2086263384
 10
-4.3831672291
 20
-13.243758783
 10
-4.4241159029
 20
-13.2811214239
 10
-4.4631433123
 20
-13.3205290484
 10
-4.500211916
 20
-13.3617964442
 10
-4.5352841729
 20
-13.4047383989
 10
-4.5775759777
 20
-13.4623543854
 10
-4.616628324
 20
-13.5221648378
 10
-4.6525896742
 20
-13.5838833641
 10
-4.6853127872
 20
-13.6467002256
 10
-4.7151204019
 20
-13.7109482298
 10
-4.7419899021
 20
-13.7764642017
 10
-4.7682303246
 20
-13.849958884
 10
-4.7911649255
 20
-13.9245948035
 10
-4.8110853517
 20
-14.0001708069
 10
-4.8282832503
 20
-14.0764857407
 10
-4.8430502684
 20
-14.1533384518
 10
-4.8556780531
 20
-14.2305277867
 10
-4.8680800136
 20
-14.3209157332
 10
-4.878236945
 20
-14.4114811554
 10
-4.8864255303
 20
-14.5022166294
 10
-4.8936097823
 20
-14.6041171857
 10
-4.8990730787
 20
-14.7061568358
 10
-4.9032203708
 20
-14.8082702995
 10
-4.9081751257
 20
-14.9811364813
 10
-4.9112732815
 20
-15.1540286952
 10
-4.9132488284
 20
-15.3436542868
 10
-4.9139001668
 20
-15.5444872047
 10
-4.913447998
 20
-15.7364597677
 10
-4.9120914916
 20
-15.9134138675
 10
-4.9099904714
 20
-16.0677814654
 10
-4.9066654662
 20
-16.2221374867
 10
-4.9024437058
 20
-16.3524878856
 10
-4.8958564792
 20
-16.4827158965
 10
-4.8874235699
 20
-16.5948966331
 10
-4.8760041164
 20
-16.7068624215
 10
-4.8640929761
 20
-16.7987742702
 10
-4.8495022375
 20
-16.8903023601
 10
-4.8317982348
 20
-16.9812332563
 10
-4.8105473022
 20
-17.0713535238
 10
-4.7887762905
 20
-17.1494513322
 10
-4.7642107679
 20
-17.2267273302
 10
-4.7467512552
 20
-17.2766440758
 10
-4.7279486782
 20
-17.3260667643
 10
-4.7075389472
 20
-17.3748664361
 10
-4.6776774834
 20
-17.4383409109
 10
-4.6445271568
 20
-17.5002386488
 10
-4.608083007
 20
-17.5603025781
 10
-4.5683400735
 20
-17.6182756271
 10
-4.525293396
 20
-17.6739007242
 10
-4.4874093396
 20
-17.7177188873
 10
-4.4473672997
 20
-17.7595928885
 10
-4.4052490984
 20
-17.7993420193
 10
-4.3611365575
 20
-17.836785571
 10
-4.3151114988
 20
-17.8717428349
 10
-4.2672557442
 20
-17.9040331026
 10
-4.2138343814
 20
-17.9356542246
 10
-4.1586638684
 20
-17.9641054114
 10
-4.102020352
 20
-17.9895145343
 10
-4.039016442
 20
-18.0138428961
 10
-3.9748198518
 20
-18.0348130209
 10
-3.9096548328
 20
-18.052516718
 10
-3.8351124985
 20
-18.0687590463
 10
-3.7598581646
 20
-18.0813876723
 10
-3.6841302696
 20
-18.0908434053
 10
-3.5966438942
 20
-18.0983203151
 10
-3.5089469271
 20
-18.1025359104
 10
-3.421140293
 20
-18.1038486407
 10
-3.3329588072
 20
-18.1024689857
  0
LINE
  5
256
100
AcDbEntity
  8
CURVE
100
AcDbLine
 62
250
  6
CONTINUOUS
 10
4.1504909441
 20
-13.5012007911
 11
2.5891729441
 21
-13.5012007911
  0
LINE
  5
257
100
AcDbEntity
  8
CURVE
100
AcDbLine
 62
250
  6
CONTINUOUS
 10
1.1952879441
 20
-13.5012007911
 11
-0.3660300559
 21
-13.5012007911
  0
LINE
  5
258
100
AcDbEntity
  8
CURVE
100
AcDbLine
 62
250
  6
CONTINUOUS
 10
-0.9510070559
 20
-13.0333567911
 11
1.1952879441
 21
-13.0333567911
  0
LINE
  5
259
100
AcDbEntity
  8
CURVE
100
AcDbLine
 62
250
  6
CONTINUOUS
 10
2.0041959441
 20
-13.0333567911
 11
4.1504909441
 21
-13.0333567911
  0
LWPOLYLINE
  5
25A
100
AcDbEntity
  8
CURVE
100
AcDbPolyline
 62
250
  6
CONTINUOUS
 90
29
 70
0
 10
-2.7124841517
 20
-13.0536831689
 10
-2.7331853369
 20
-13.0444949767
 10
-2.7540949427
 20
-13.0358016217
 10
-2.775201696
 20
-13.0275890411
 10
-2.7964943236
 20
-13.0198431723
 10
-2.8179615525
 20
-13.0125499524
 10
-2.8395921096
 20
-13.0056953188
 10
-2.8613747216
 20
-12.9992652088
 10
-2.8832981155
 20
-12.9932455595
 10
-2.9053510182
 20
-12.9876223084
 10
-2.9275221566
 20
-12.9823813926
 10
-2.9498002575
 20
-12.9775087494
 10
-2.9721740479
 20
-12.9729903161
 10
-2.9946322545
 20
-12.96881203
 10
-3.0171636044
 20
-12.9649598284
 10
-3.0397568243
 20
-12.9614196484
 10
-3.0624006412
 20
-12.9581774275
 10
-3.0850837819
 20
-12.9552191028
 10
-3.1077949733
 20
-12.9525306117
 10
-3.1305229423
 20
-12.9500978914
 10
-3.1532564159
 20
-12.9479068791
 10
-3.1759841208
 20
-12.9459435123
 10
-3.1986947839
 20
-12.944193728
 10
-3.2335315609
 20
-12.9418953933
 10
-3.2683200013
 20
-12.9400515309
 10
-3.3030785809
 20
-12.9386458222
 10
-3.3378257752
 20
-12.9376619485
 10
-3.37258006
 20
-12.9370835913
 10
-3.4073599111
 20
-12.936894432
  0
LWPOLYLINE
  5
25B
100
AcDbEntity
  8
ASSI
100
AcDbPolyline
 62
250
  6
CONTINUOUS
 90
16
 70
0
 10
-11.395120781
 20
0.2179335157
 10
-11.3923330443
 20
0.1654337892
 10
-11.3840516282
 20
0.1135286898
 10
-11.3703725202
 20
0.0627912045
 10
-11.3514639525
 20
0.0138091639
 10
-11.3275321067
 20
-0.0329094514
 10
-11.2987894613
 20
-0.076927474
 10
-11.2654576255
 20
-0.1178276716
 10
-11.2279446082
 20
-0.1550418703
 10
-11.1868486199
 20
-0.1879952004
 10
-11.142698866
 20
-0.2163385773
 10
-11.0959739695
 20
-0.239834279
 10
-11.0473044004
 20
-0.2582399479
 10
-10.9972794337
 20
-0.271426136
 10
-10.9464248039
 20
-0.2793441418
 10
-10.8952921185
 20
-0.2819903318
  0
LINE
  5
25C
100
AcDbEntity
  8
ASSI
100
AcDbLine
 62
7
  6
CONTINUOUS
 10
-11.4818770559
 20
21.8136299601
 11
-11.4818770559
 21
0.1601033413
  0
LINE
  5
25D
100
AcDbEntity
  8
ASSI
100
AcDbLine
 62
7
  6
CONTINUOUS
 10
-11.4818770559
 20
-1.2011909236
 11
-11.4818770559
 21
-22.8547175423
  0
LINE
  5
25E
100
AcDbEntity
  8
ASSI
100
AcDbLine
 62
250
  6
CONTINUOUS
 10
-11.395120781
 20
25.2928712715
 11
-11.395120781
 21
0.2179335157
  0
LINE
  5
25F
100
AcDbEntity
  8
ASSI
100
AcDbLine
 62
250
  6
CONTINUOUS
 10
-11.395120781
 20
-1.259021098
 11
-11.395120781
 21
-26.3339588537
  0
LINE
  5
260
100
AcDbEntity
  8
ASSI
100
AcDbLine
 62
250
  6
CONTINUOUS
 10
-10.8952921185
 20
-0.2819903318
 11
-10.8952921185
 21
25.7926999339
  0
LINE
  5
261
100
AcDbEntity
  8
ASSI
100
AcDbLine
 62
250
  6
CONTINUOUS
 10
-10.8952921185
 20
-0.7590972504
 11
-10.8952921185
 21
-26.8337875162
  0
LWPOLYLINE
  5
262
100
AcDbEntity
  8
0
100
AcDbPolyline
 62
7
  6
CONTINUOUS
 90
3
 70
0
 43
0.3500000019
 10
0.6538388672
 20
34.9230637207
 10
0.5824086914
 20
34.7087785645
 10
0.4395537109
 20
34.4230632324
  0
LWPOLYLINE
  5
263
100
AcDbEntity
  8
CURVE
100
AcDbPolyline
 62
250
  6
CONTINUOUS
 90
57
 70
0
 10
-1.9735111701
 20
12.5836201633
 10
-1.9864610826
 20
12.5681317042
 10
-2.0000934048
 20
12.553180604
 10
-2.0143696814
 20
12.5387758276
 10
-2.0292514569
 20
12.52492634
 10
-2.044700276
 20
12.5116411057
 10
-2.0606776832
 20
12.4989290898
 10
-2.0771452232
 20
12.486799257
 10
-2.0940644405
 20
12.4752605721
 10
-2.1113968797
 20
12.464322
 10
-2.1291040855
 20
12.4539925054
 10
-2.1471476023
 20
12.4442810532
 10
-2.1654889749
 20
12.4351966083
 10
-2.1840897479
 20
12.4267481353
 10
-2.2029114657
 20
12.4189445992
 10
-2.2245615325
 20
12.4108488529
 10
-2.2464265944
 20
12.4035567486
 10
-2.2684852007
 20
12.3970246901
 10
-2.2907159009
 20
12.3912090809
 10
-2.3130972444
 20
12.3860663246
 10
-2.3356077809
 20
12.3815528248
 10
-2.3582260595
 20
12.3776249852
 10
-2.384068297
 20
12.3738176837
 10
-2.4100062905
 20
12.3706784531
 10
-2.4360240769
 20
12.3681735706
 10
-2.4621056929
 20
12.3662693137
 10
-2.4882351754
 20
12.3649319599
 10
-2.5143965612
 20
12.3641277867
 10
-2.540573887
 20
12.3638230714
 10
-2.5731887867
 20
12.3641079997
 10
-2.6057785227
 20
12.3651515726
 10
-2.6383179669
 20
12.366989424
 10
-2.6707819916
 20
12.3696571874
 10
-2.7031454688
 20
12.3731904966
 10
-2.7353832707
 20
12.3776249852
 10
-2.7593204839
 20
12.381545099
 10
-2.7831555196
 20
12.3860385109
 10
-2.8068700262
 20
12.3911577798
 10
-2.8304456519
 20
12.3969554643
 10
-2.8538640453
 20
12.4034841232
 10
-2.8771068546
 20
12.4107963153
 10
-2.9001557283
 20
12.4189445992
 10
-2.9183865937
 20
12.4260743985
 10
-2.9364464699
 20
12.4337667568
 10
-2.9542994594
 20
12.4420187286
 10
-2.9719096647
 20
12.4508273687
 10
-2.9892411883
 20
12.4601897317
 10
-3.0062581327
 20
12.4701028725
 10
-3.0229246004
 20
12.4805638457
 10
-3.0392046939
 20
12.491569706
 10
-3.0550625157
 20
12.5031175081
 10
-3.0704621684
 20
12.5152043068
 10
-3.0853677545
 20
12.5278271567
 10
-3.0997433764
 20
12.5409831127
 10
-3.1135531366
 20
12.5546692293
 10
-3.1267611378
 20
12.5688825613
 10
-3.1393314823
 20
12.5836201633
  0
LINE
  5
264
100
AcDbEntity
  8
ASSI
100
AcDbLine
 62
250
  6
CONTINUOUS
 10
10.1315380067
 20
25.7926999339
 11
10.1904238482
 21
25.8515857755
  0
LINE
  5
265
100
AcDbEntity
  8
CURVE
100
AcDbLine
 62
7
  6
CONTINUOUS
 10
-3.4527063736
 20
12.1352237763
 11
-3.0711657036
 21
12.5167644463
  0
LINE
  5
266
100
AcDbEntity
  8
CURVE
100
AcDbLine
 62
7
  6
CONTINUOUS
 10
-1.648734648
 20
13.939195502
 11
-1.0344948868
 21
14.5534352632
  0
LINE
  5
267
100
AcDbEntity
  8
CURVE
100
AcDbLine
 62
7
  6
CONTINUOUS
 10
-0.0845650559
 20
15.503365094
 11
0.4587259441
 21
16.046656094
  0
LINE
  5
268
100
AcDbEntity
  8
CURVE
100
AcDbLine
 62
7
  6
CONTINUOUS
 10
0.5721265069
 20
16.1600566568
 11
0.9725399023
 21
16.5604700522
  0
LINE
  5
269
100
AcDbEntity
  8
ASSI
100
AcDbLine
 62
250
  6
CONTINUOUS
 10
10.6313666691
 20
25.2928712715
 11
10.6937351211
 21
25.3552397234
  0
LINE
  5
26A
100
AcDbEntity
  8
CURVE
100
AcDbLine
 62
7
  6
CONTINUOUS
 10
-2.6897544581
 20
11.902569344
 11
-2.1487404672
 21
12.4435833348
  0
LINE
  5
26B
100
AcDbEntity
  8
CURVE
100
AcDbLine
 62
7
  6
CONTINUOUS
 10
-1.8969238143
 20
12.6953999877
 11
-1.0585737235
 21
13.5337500786
  0
LINE
  5
26C
100
AcDbEntity
  8
CURVE
100
AcDbLine
 62
7
  6
CONTINUOUS
 10
-0.0845650559
 20
14.5077587461
 11
0.4587259441
 21
15.0510497461
  0
LINE
  5
26D
100
AcDbEntity
  8
CURVE
100
AcDbLine
 62
7
  6
CONTINUOUS
 10
0.8425381976
 20
15.4348619997
 11
1.242951593
 21
15.8352753951
  0
LINE
  5
26E
100
AcDbEntity
  8
CURVE
100
AcDbLine
 62
7
  6
CONTINUOUS
 10
-0.0845650559
 20
13.5121523982
 11
0.4587259441
 21
14.0554433982
  0
LINE
  5
26F
100
AcDbEntity
  8
CURVE
100
AcDbLine
 62
7
  6
CONTINUOUS
 10
1.1129498884
 20
14.7096673426
 11
1.5133632838
 21
15.1100807379
  0
LINE
  5
270
100
AcDbEntity
  8
CURVE
100
AcDbLine
 62
7
  6
CONTINUOUS
 10
2.4885769441
 20
16.0852943982
 11
3.0322129441
 21
16.6289303982
  0
LINE
  5
271
100
AcDbEntity
  8
ASSI
100
AcDbLine
 62
250
  6
CONTINUOUS
 10
10.1904238482
 20
-26.8926733578
 11
10.1315380067
 21
-26.8337875162
  0
LINE
  5
272
100
AcDbEntity
  8
ASSI
100
AcDbLine
 62
250
  6
CONTINUOUS
 10
10.6937351211
 20
-26.3963273056
 11
10.6313666691
 21
-26.3339588537
  0
LWPOLYLINE
  5
273
100
AcDbEntity
  8
CURVE
100
AcDbPolyline
 62
250
  6
CONTINUOUS
 90
30
 70
0
 10
-2.8292728886
 20
-13.6179898094
 10
-2.8069916143
 20
-13.6455876486
 10
-2.785685213
 20
-13.6740080346
 10
-2.7653762625
 20
-13.7031973629
 10
-2.7460873404
 20
-13.7331020291
 10
-2.7278410245
 20
-13.7636684287
 10
-2.7106598923
 20
-13.7948429573
 10
-2.6945665215
 20
-13.8265720105
 10
-2.6795834898
 20
-13.8588019838
 10
-2.6645155078
 20
-13.8944604054
 10
-2.6507001019
 20
-13.9305963564
 10
-2.6380425124
 20
-13.9671553903
 10
-2.6264479798
 20
-14.0040830607
 10
-2.6158217443
 20
-14.041324921
 10
-2.6060690462
 20
-14.0788265247
 10
-2.597095126
 20
-14.1165334254
 10
-2.5888052238
 20
-14.1543911764
 10
-2.5771562072
 20
-14.2131359239
 10
-2.5668333473
 20
-14.2720885222
 10
-2.5577536054
 20
-14.331226275
 10
-2.5498339433
 20
-14.3905264861
 10
-2.5429913224
 20
-14.449966459
 10
-2.5371427045
 20
-14.5095234974
 10
-2.5322050511
 20
-14.569174905
 10
-2.5280953237
 20
-14.6288979853
 10
-2.524730484
 20
-14.6886700421
 10
-2.5220274936
 20
-14.7484683789
 10
-2.5199033141
 20
-14.8082702995
 10
-2.5176669944
 20
-14.8956188257
 10
-2.516223163
 20
-14.9829405831
  0
LINE
  5
274
100
AcDbEntity
  8
CURVE
100
AcDbLine
 62
7
  6
CONTINUOUS
 10
-0.0845650559
 20
12.5165460503
 11
0.4587259441
 21
13.0598370503
  0
LINE
  5
275
100
AcDbEntity
  8
CURVE
100
AcDbLine
 62
7
  6
CONTINUOUS
 10
1.3833615792
 20
13.9844726854
 11
1.7837749745
 21
14.3848860808
  0
LINE
  5
276
100
AcDbEntity
  8
CURVE
100
AcDbLine
 62
7
  6
CONTINUOUS
 10
2.4885769441
 20
15.0896880503
 11
3.0322129441
 21
15.6333240503
  0
LINE
  5
277
100
AcDbEntity
  8
CURVE
100
AcDbLine
 62
7
  6
CONTINUOUS
 10
0.3869374506
 20
11.9924422089
 11
0.4587259441
 21
12.0642307024
  0
LINE
  5
278
100
AcDbEntity
  8
CURVE
100
AcDbLine
 62
7
  6
CONTINUOUS
 10
1.6537732699
 20
13.2592780283
 11
2.0541866653
 21
13.6596914236
  0
LINE
  5
279
100
AcDbEntity
  8
CURVE
100
AcDbLine
 62
7
  6
CONTINUOUS
 10
2.4885769441
 20
14.0940817024
 11
3.0322129441
 21
14.6377177024
  0
LINE
  5
27A
100
AcDbEntity
  8
CURVE
100
AcDbLine
 62
7
  6
CONTINUOUS
 10
1.9241849607
 20
12.5340833711
 11
2.3245983561
 21
12.9344967665
  0
LINE
  5
27B
100
AcDbEntity
  8
CURVE
100
AcDbLine
 62
7
  6
CONTINUOUS
 10
2.4885769441
 20
13.0984753545
 11
3.0322129441
 21
13.6421113545
  0
LINE
  5
27C
100
AcDbEntity
  8
ASSI
100
AcDbLine
 62
7
  6
CONTINUOUS
 10
-10.4733018399
 20
-0.3311691465
 11
-10.4626764845
 21
-0.3205437911
  0
LINE
  5
27D
100
AcDbEntity
  8
CURVE
100
AcDbLine
 62
7
  6
CONTINUOUS
 10
2.3781501464
 20
11.9924422089
 11
3.0322129441
 21
12.6465050066
  0
LINE
  5
27E
100
AcDbEntity
  8
ASSI
100
AcDbLine
 62
250
  6
CONTINUOUS
 10
-11.4818770559
 20
0.1601033413
 11
-11.395120781
 21
0.2179335157
  0
LINE
  5
27F
100
AcDbEntity
  8
ASSI
100
AcDbLine
 62
250
  6
CONTINUOUS
 10
-10.9819341633
 20
-0.3397443625
 11
-10.8952921185
 21
-0.2819903318
  0
LINE
  5
280
100
AcDbEntity
  8
ASSI
100
AcDbLine
 62
250
  6
CONTINUOUS
 10
-11.395120781
 20
-1.259021098
 11
-11.4818770559
 21
-1.2011909236
  0
LINE
  5
281
100
AcDbEntity
  8
ASSI
100
AcDbLine
 62
250
  6
CONTINUOUS
 10
-10.8952921185
 20
-0.7590972504
 11
-10.9819341633
 21
-0.7013432197
  0
LINE
  5
282
100
AcDbEntity
  8
ASSI
100
AcDbLine
 62
7
  6
CONTINUOUS
 10
-10.4733018399
 20
-0.7099184357
 11
-10.4626764845
 21
-0.7205437911
  0
LWPOLYLINE
  5
283
100
AcDbEntity
  8
CURVE
100
AcDbPolyline
 62
250
  6
CONTINUOUS
 90
10
 70
0
 10
-4.2538198718
 20
-16.8033250951
 10
-4.2667946157
 20
-16.72765693
 10
-4.2779733715
 20
-16.6516824395
 10
-4.2873137705
 20
-16.5754572621
 10
-4.2947734444
 20
-16.4990370363
 10
-4.3005867779
 20
-16.4188287622
 10
-4.304612952
 20
-16.3385084736
 10
-4.3071752337
 20
-16.258117146
 10
-4.30859689
 20
-16.1776957549
 10
-4.3092542673
 20
-16.0669267401
  0
LINE
  5
284
100
AcDbEntity
  8
CURVE
100
AcDbLine
 62
250
  6
CONTINUOUS
 10
-4.3092542673
 20
-16.0669267401
 11
-4.3074359478
 21
-15.0886760101
  0
LWPOLYLINE
  5
285
100
AcDbEntity
  8
CURVE
100
AcDbPolyline
 62
250
  6
CONTINUOUS
 90
25
 70
0
 10
-4.3074359478
 20
-15.0886760101
 10
-4.3067191634
 20
-14.9812056382
 10
-4.3051517945
 20
-14.8737271138
 10
-4.3031719546
 20
-14.7947669185
 10
-4.3002290812
 20
-14.7158391204
 10
-4.2960763846
 20
-14.6369841643
 10
-4.290467075
 20
-14.5582424947
 10
-4.2837029576
 20
-14.4846924846
 10
-4.2753831064
 20
-14.4112899515
 10
-4.2654434387
 20
-14.3380477517
 10
-4.2538198718
 20
-14.2649787415
 10
-4.2448990559
 20
-14.2154372862
 10
-4.2349884182
 20
-14.1660725508
 10
-4.2239055708
 20
-14.1169753163
 10
-4.2114681256
 20
-14.0682363639
 10
-4.197493695
 20
-14.0199464743
 10
-4.1817998909
 20
-13.9721964288
 10
-4.1642043255
 20
-13.9250770082
 10
-4.1465150746
 20
-13.8830568089
 10
-4.1271470369
 20
-13.8417284288
 10
-4.1061285683
 20
-13.8011927781
 10
-4.083488025
 20
-13.7615507667
 10
-4.0592537628
 20
-13.7229033046
 10
-4.033454138
 20
-13.685351302
 10
-4.0061175064
 20
-13.6489956688
  0
LWPOLYLINE
  5
286
100
AcDbEntity
  8
CURVE
100
AcDbPolyline
 62
250
  6
CONTINUOUS
 90
42
 70
0
 10
-1.9014019319
 20
-15.2429663314
 10
-1.9031055593
 20
-15.0956596912
 10
-1.9061205828
 20
-14.948351328
 10
-1.9108104323
 20
-14.801035599
 10
-1.9139369664
 20
-14.726862197
 10
-1.9177254132
 20
-14.652712892
 10
-1.9223209622
 20
-14.578615079
 10
-1.9278688026
 20
-14.5045961528
 10
-1.9345141237
 20
-14.4306835083
 10
-1.9424021149
 20
-14.3569045404
 10
-1.9516779654
 20
-14.2832866439
 10
-1.9624868646
 20
-14.2098572138
 10
-1.9725219837
 20
-14.1502521348
 10
-1.9837740386
 20
-14.0908495086
 10
-1.9963480058
 20
-14.0317087635
 10
-2.0103488614
 20
-13.9728893278
 10
-2.025881582
 20
-13.91445063
 10
-2.0430511439
 20
-13.8564520983
 10
-2.0619625234
 20
-13.7989531611
 10
-2.082720697
 20
-13.7420132469
 10
-2.0985678947
 20
-13.7021403377
 10
-2.1154355801
 20
-13.6626558607
 10
-2.1333688565
 20
-13.6236391814
 10
-2.152412827
 20
-13.5851696649
 10
-2.1726125951
 20
-13.5473266766
 10
-2.1940132639
 20
-13.5101895818
 10
-2.2166599368
 20
-13.4738377459
 10
-2.2405977169
 20
-13.438350534
 10
-2.2658717076
 20
-13.4038073116
 10
-2.292527012
 20
-13.370287444
 10
-2.321357695
 20
-13.3370075189
 10
-2.3516038611
 20
-13.3049112186
 10
-2.3831771788
 20
-13.274019614
 10
-2.4159893166
 20
-13.2443537758
 10
-2.4499519429
 20
-13.215934775
 10
-2.4849767261
 20
-13.1887836825
 10
-2.5209753346
 20
-13.162921569
 10
-2.5578594368
 20
-13.1383695056
 10
-2.5955407012
 20
-13.115148563
 10
-2.6339307962
 20
-13.0932798121
 10
-2.6729413903
 20
-13.0727843238
 10
-2.7124841517
 20
-13.0536831689
  0
LINE
  5
287
100
AcDbEntity
  8
CURVE
100
AcDbLine
 62
250
  6
CONTINUOUS
 10
-2.516223163
 20
-14.9829405831
 11
-2.5135269943
 21
-15.3305170027
  0
LINE
  5
288
100
AcDbEntity
  8
CURVE
100
AcDbLine
 62
250
  6
CONTINUOUS
 10
-2.5135269943
 20
-15.3305170027
 11
-2.5131583173
 21
-15.6279387011
  0
LINE
  5
289
100
AcDbEntity
  8
CURVE
100
AcDbLine
 62
250
  6
CONTINUOUS
 10
-3.4428033059
 20
13.932584996
 11
-3.4409947259
 21
14.9111805593
  0
LWPOLYLINE
  5
28A
100
AcDbEntity
  8
CURVE
100
AcDbPolyline
 62
250
  6
CONTINUOUS
 90
25
 70
0
 10
-3.4409947259
 20
14.9111805593
 10
-3.4402779847
 20
15.018636628
 10
-3.43871028
 20
15.1261006315
 10
-3.436730776
 20
15.2050175011
 10
-3.4337882301
 20
15.2839019952
 10
-3.4296355293
 20
15.3627138986
 10
-3.4240255605
 20
15.4414129958
 10
-3.4172603881
 20
15.5149211666
 10
-3.4089396013
 20
15.5882816228
 10
-3.3989999933
 20
15.6614806401
 10
-3.3873783573
 20
15.7345044942
 10
-3.3784513703
 20
15.7840616594
 10
-3.3685343835
 20
15.8334415222
 10
-3.3574451196
 20
15.8825542002
 10
-3.3450013013
 20
15.9313098112
 10
-3.3310206514
 20
15.9796184728
 10
-3.3153208924
 20
16.0273903027
 10
-3.2977197472
 20
16.0745354186
 10
-3.2800298464
 20
16.1165707429
 10
-3.2606566762
 20
16.1579127089
 10
-3.2396227996
 20
16.1984546138
 10
-3.2169507792
 20
16.2380897548
 10
-3.1926631777
 20
16.2767114292
 10
-3.1667825578
 20
16.3142129341
 10
-3.1393314823
 20
16.3504875669
  0
LINE
  5
28B
100
AcDbEntity
  8
CURVE
100
AcDbLine
 62
250
  6
CONTINUOUS
 10
-2.5131583173
 20
-15.6279387011
 11
-2.516113709
 21
-16.1776957549
  0
LWPOLYLINE
  5
28C
100
AcDbEntity
  8
CURVE
100
AcDbPolyline
 62
250
  6
CONTINUOUS
 90
34
 70
0
 10
-2.516113709
 20
-16.1776957549
 10
-2.5171505977
 20
-16.2356502956
 10
-2.5190920241
 20
-16.2935912255
 10
-2.5219454429
 20
-16.3515013655
 10
-2.5257183086
 20
-16.4093635363
 10
-2.5304180758
 20
-16.4671605583
 10
-2.5360521992
 20
-16.5248752525
 10
-2.541356972
 20
-16.5719238061
 10
-2.5473330694
 20
-16.6188895756
 10
-2.5540239712
 20
-16.6657561118
 10
-2.5614731575
 20
-16.7125069655
 10
-2.5697241083
 20
-16.7591256878
 10
-2.5788203038
 20
-16.8055958295
 10
-2.5888052238
 20
-16.8519009414
 10
-2.5962835007
 20
-16.88392992
 10
-2.6042432276
 20
-16.9158494978
 10
-2.6127168244
 20
-16.9476376896
 10
-2.621736711
 20
-16.9792725105
 10
-2.6313353073
 20
-17.0107319754
 10
-2.6415450332
 20
-17.0419940993
 10
-2.6523983085
 20
-17.0730368971
 10
-2.6639275531
 20
-17.1038383839
 10
-2.6761651869
 20
-17.1343765745
 10
-2.6891436298
 20
-17.1646294841
 10
-2.7013637015
 20
-17.1913435689
 10
-2.7142021552
 20
-17.2177835828
 10
-2.7276626295
 20
-17.2439197418
 10
-2.7417487633
 20
-17.2697222621
 10
-2.7564641949
 20
-17.2951613598
 10
-2.7718125632
 20
-17.3202072509
 10
-2.7877975067
 20
-17.3448301516
 10
-2.8044226641
 20
-17.369000278
 10
-2.821691674
 20
-17.3926878462
 10
-2.8396081751
 20
-17.4158630723
  0
LINE
  5
28D
100
AcDbEntity
  8
CURVE
100
AcDbLine
 62
250
  6
CONTINUOUS
 10
-1.6496214236
 20
15.0168184901
 11
-1.6465313984
 21
14.6116099615
  0
LWPOLYLINE
  5
28E
100
AcDbEntity
  8
CURVE
100
AcDbPolyline
 62
250
  6
CONTINUOUS
 90
43
 70
0
 10
-1.0342554756
 20
14.6097553189
 10
-1.0351263561
 20
14.7569223968
 10
-1.0369542941
 20
14.9040866754
 10
-1.0400473107
 20
15.0512583551
 10
-1.0447134273
 20
15.1984476367
 10
-1.0477776896
 20
15.2726237793
 10
-1.0514755631
 20
15.346778072
 10
-1.0559629797
 20
15.4208816047
 10
-1.0613958719
 20
15.4949054676
 10
-1.0679301719
 20
15.5688207507
 10
-1.0757218118
 20
15.6425985441
 10
-1.0849267239
 20
15.7162099378
 10
-1.0957008405
 20
15.7896260219
 10
-1.1057425784
 20
15.8492311447
 10
-1.1170258631
 20
15.9086300635
 10
-1.1296485719
 20
15.9677652193
 10
-1.1437085821
 20
16.0265790531
 10
-1.1593037709
 20
16.0850140059
 10
-1.1765320157
 20
16.1430125188
 10
-1.1954911938
 20
16.2005170328
 10
-1.2162791824
 20
16.2574699888
 10
-1.2321420994
 20
16.297378195
 10
-1.2490161707
 20
16.3369010777
 10
-1.2669486897
 20
16.3759580353
 10
-1.2859869497
 20
16.4144684662
 10
-1.3061782441
 20
16.4523517687
 10
-1.3275698661
 20
16.4895273414
 10
-1.3502091091
 20
16.5259145826
 10
-1.3741432665
 20
16.5614328907
 10
-1.3994196315
 20
16.5960016641
 10
-1.4260854975
 20
16.6295403012
 10
-1.4549047561
 20
16.6627957021
 10
-1.4851458392
 20
16.6948627744
 10
-1.5167191361
 20
16.7257216303
 10
-1.5495350358
 20
16.7553523817
 10
-1.5835039277
 20
16.7837351406
 10
-1.6185362007
 20
16.8108500188
 10
-1.6545422441
 20
16.8366771285
 10
-1.691432447
 20
16.8611965815
 10
-1.7291171986
 20
16.8843884899
 10
-1.767506888
 20
16.9062329656
 10
-1.8065119045
 20
16.9267101206
 10
-1.8460426372
 20
16.9458000668
  0
LINE
  5
28F
100
AcDbEntity
  8
CURVE
100
AcDbLine
 62
250
  6
CONTINUOUS
 10
-1.9004751458
 20
-15.5375970138
 11
-1.9014019319
 21
-15.2429663314
  0
LINE
  5
290
100
AcDbEntity
  8
CURVE
100
AcDbLine
 62
250
  6
CONTINUOUS
 10
-0.9510070559
 20
-18.0077307911
 11
-0.9510070559
 21
-13.0333567911
  0
LINE
  5
291
100
AcDbEntity
  8
CURVE
100
AcDbLine
 62
250
  6
CONTINUOUS
 10
-0.3660300559
 20
-13.5012007911
 11
-0.3660300559
 21
-15.2072127911
  0
LINE
  5
292
100
AcDbEntity
  8
CURVE
100
AcDbLine
 62
250
  6
CONTINUOUS
 10
-0.3660300559
 20
-15.6754007911
 11
-0.3660300559
 21
-18.0077307911
  0
LINE
  5
293
100
AcDbEntity
  8
CURVE
100
AcDbLine
 62
250
  6
CONTINUOUS
 10
-1.6465313984
 20
14.6116099615
 11
-1.6463756771
 21
14.3718525278
  0
LWPOLYLINE
  5
294
100
AcDbEntity
  8
CURVE
100
AcDbPolyline
 62
250
  6
CONTINUOUS
 90
3
 70
0
 10
-1.6463756771
 20
14.3718525278
 10
-1.6482618585
 20
13.998402454
 10
-1.6496721945
 20
13.8217874807
  0
LWPOLYLINE
  5
295
100
AcDbEntity
  8
CURVE
100
AcDbPolyline
 62
250
  6
CONTINUOUS
 90
33
 70
0
 10
-1.6496721945
 20
13.8217874807
 10
-1.6507828808
 20
13.7638629813
 10
-1.6527758943
 20
13.7059536281
 10
-1.6556575147
 20
13.6480750492
 10
-1.6594340214
 20
13.5902428725
 10
-1.664111694
 20
13.5324727261
 10
-1.669696812
 20
13.474780238
 10
-1.6749407527
 20
13.4277569196
 10
-1.6808440478
 20
13.3808136963
 10
-1.6874572218
 20
13.3339685053
 10
-1.6948307994
 20
13.2872392835
 10
-1.7030153051
 20
13.240643968
 10
-1.7120612637
 20
13.1942004957
 10
-1.7220191997
 20
13.1479268038
 10
-1.7303703184
 20
13.1123146482
 10
-1.7393371995
 20
13.076844299
 10
-1.7489613261
 20
13.0415455606
 10
-1.7592841817
 20
13.0064482376
 10
-1.7703472493
 20
12.9715821342
 10
-1.7821920124
 20
12.936977055
 10
-1.794859954
 20
12.9026628043
 10
-1.8083925576
 20
12.8686691866
 10
-1.8228313063
 20
12.8350260064
 10
-1.83509778
 20
12.8083053511
 10
-1.8479778099
 20
12.7818585223
 10
-1.8614747718
 20
12.7557145075
 10
-1.8755920415
 20
12.7299022945
 10
-1.890332995
 20
12.7044508709
 10
-1.9057010078
 20
12.6793892245
 10
-1.921699456
 20
12.6547463428
 10
-1.9383317152
 20
12.6305512136
 10
-1.9556011613
 20
12.6068328246
 10
-1.9735111701
 20
12.5836201633
  0
LWPOLYLINE
  5
296
100
AcDbEntity
  8
ASSI
100
AcDbPolyline
 62
250
  6
CONTINUOUS
 90
16
 70
0
 10
10.1315380067
 20
-0.2819903318
 10
10.1837691943
 20
-0.2792294216
 10
10.2354284587
 20
-0.2710246553
 10
10.2859501389
 20
-0.2574658737
 10
10.3347810305
 20
-0.2387015435
 10
10.3813864429
 20
-0.2149371311
 10
10.4252560542
 20
-0.1864328531
 10
10.465909499
 20
-0.1535008268
 10
10.5029016284
 20
-0.1165016528
 10
10.5358273844
 20
-0.0758404661
 10
10.5643262353
 20
-0.0319625005
 10
10.588086123
 20
0.0146517872
 10
10.6068468805
 20
0.0634919779
 10
10.6204030804
 20
0.1140232793
 10
10.6286062846
 20
0.1656923814
 10
10.6313666691
 20
0.2179335157
  0
LINE
  5
297
100
AcDbEntity
  8
ASSI
100
AcDbLine
 62
250
  6
CONTINUOUS
 10
-11.395120781
 20
-1.259021098
 11
10.6313666691
 21
-1.259021098
  0
LINE
  5
298
100
AcDbEntity
  8
ASSI
100
AcDbLine
 62
250
  6
CONTINUOUS
 10
10.1315380067
 20
-0.7590972504
 11
-10.8952921185
 21
-0.7590972504
  0
LINE
  5
299
100
AcDbEntity
  8
ASSI
100
AcDbLine
 62
7
  6
CONTINUOUS
 10
-10.4626764845
 20
-0.7205437911
 11
9.6989223727
 21
-0.7205437911
  0
LINE
  5
29A
100
AcDbEntity
  8
ASSI
100
AcDbLine
 62
7
  6
CONTINUOUS
 10
-10.9819341633
 20
-0.7013432197
 11
-10.9732256875
 21
-0.7013432197
  0
LINE
  5
29B
100
AcDbEntity
  8
ASSI
100
AcDbLine
 62
7
  6
CONTINUOUS
 10
10.2094715756
 20
-0.7013432197
 11
10.2181800515
 21
-0.7013432197
  0
LINE
  5
29C
100
AcDbEntity
  8
ASSI
100
AcDbLine
 62
7
  6
CONTINUOUS
 10
10.2181800515
 20
-0.3397443625
 11
10.2094715756
 21
-0.3397443625
  0
LINE
  5
29D
100
AcDbEntity
  8
ASSI
100
AcDbLine
 62
7
  6
CONTINUOUS
 10
-10.9732256875
 20
-0.3397443625
 11
-10.9819341633
 21
-0.3397443625
  0
LINE
  5
29E
100
AcDbEntity
  8
ASSI
100
AcDbLine
 62
7
  6
CONTINUOUS
 10
9.6989223727
 20
-0.3205437911
 11
-10.4626764845
 21
-0.3205437911
  0
LINE
  5
29F
100
AcDbEntity
  8
ASSI
100
AcDbLine
 62
250
  6
CONTINUOUS
 10
-10.8952921185
 20
-0.2819903318
 11
10.1315380067
 21
-0.2819903318
  0
LWPOLYLINE
  5
2A0
100
AcDbEntity
  8
CURVE
100
AcDbPolyline
 62
250
  6
CONTINUOUS
 90
10
 70
0
 10
-3.3873783573
 20
13.1961581406
 10
-3.4004573633
 20
13.2718775786
 10
-3.4116805798
 20
13.3479154088
 10
-3.421023376
 20
13.4242112152
 10
-3.4284611209
 20
13.5007045815
 10
-3.4342338929
 20
13.5808507149
 10
-3.4382228108
 20
13.6611066807
 10
-3.4407544474
 20
13.7414323217
 10
-3.4421553755
 20
13.8217874807
 10
-3.4428033059
 20
13.932584996
  0
LINE
  5
2A1
100
AcDbEntity
  8
CURVE
100
AcDbLine
 62
250
  6
CONTINUOUS
 10
-0.0845650559
 20
11.9924422089
 11
-0.0845650559
 21
16.9664702089
  0
LINE
  5
2A2
100
AcDbEntity
  8
CURVE
100
AcDbLine
 62
250
  6
CONTINUOUS
 10
0.4587259441
 20
16.4641762089
 11
0.4587259441
 21
11.9924422089
  0
LINE
  5
2A3
100
AcDbEntity
  8
CURVE
100
AcDbLine
 62
250
  6
CONTINUOUS
 10
1.1060599441
 20
-15.2072127911
 11
1.1060599441
 21
-15.6754007911
  0
LINE
  5
2A4
100
AcDbEntity
  8
CURVE
100
AcDbLine
 62
250
  6
CONTINUOUS
 10
1.1952879441
 20
-13.0333567911
 11
1.1952879441
 21
-13.5012007911
  0
LWPOLYLINE
  5
2A5
100
AcDbEntity
  8
ASSI
100
AcDbPolyline
 62
250
  6
CONTINUOUS
 90
16
 70
0
 10
-10.8952921185
 20
-0.7590972504
 10
-10.9475233062
 20
-0.7618581606
 10
-10.9991825705
 20
-0.770062927
 10
-11.0497042508
 20
-0.7836217085
 10
-11.0985351424
 20
-0.8023860387
 10
-11.1451405548
 20
-0.8261504511
 10
-11.1890101661
 20
-0.8546547292
 10
-11.2296636108
 20
-0.8875867555
 10
-11.2666557402
 20
-0.9245859295
 10
-11.2995814963
 20
-0.9652471161
 10
-11.3280803471
 20
-1.0091250817
 10
-11.3518402348
 20
-1.0557393694
 10
-11.3706009923
 20
-1.1045795602
 10
-11.3841571923
 20
-1.1551108615
 10
-11.3923603964
 20
-1.2067799636
 10
-11.395120781
 20
-1.259021098
  0
LINE
  5
2A6
100
AcDbEntity
  8
ASSI
100
AcDbLine
 62
250
  6
CONTINUOUS
 10
-11.395120781
 20
0.2179335157
 11
10.6313666691
 21
0.2179335157
  0
LWPOLYLINE
  5
2A7
100
AcDbEntity
  8
0
100
AcDbPolyline
 62
7
  6
CONTINUOUS
 90
4
 70
0
 43
0.3500000019
 10
15.6431166992
 20
1.4080276947
 10
15.0002612305
 20
1.4080276947
 10
15.0002612305
 20
2.9080276489
 10
18.0002641602
 20
2.0508848419
  0
LINE
  5
2A8
100
AcDbEntity
  8
CURVE
100
AcDbLine
 62
250
  6
CONTINUOUS
 10
2.0041959441
 20
-18.0077307911
 11
2.0041959441
 21
-13.0333567911
  0
LINE
  5
2A9
100
AcDbEntity
  8
CURVE
100
AcDbLine
 62
250
  6
CONTINUOUS
 10
2.4885769441
 20
12.4947362089
 11
2.4885769441
 21
16.9664702089
  0
LINE
  5
2AA
100
AcDbEntity
  8
CURVE
100
AcDbLine
 62
250
  6
CONTINUOUS
 10
2.5891729441
 20
-13.5012007911
 11
2.5891729441
 21
-15.2072127911
  0
LINE
  5
2AB
100
AcDbEntity
  8
CURVE
100
AcDbLine
 62
250
  6
CONTINUOUS
 10
2.5891729441
 20
-15.6754007911
 11
2.5891729441
 21
-18.0077307911
  0
LINE
  5
2AC
100
AcDbEntity
  8
CURVE
100
AcDbLine
 62
250
  6
CONTINUOUS
 10
3.0322129441
 20
16.9664702089
 11
3.0322129441
 21
11.9924422089
  0
LINE
  5
2AD
100
AcDbEntity
  8
CURVE
100
AcDbLine
 62
250
  6
CONTINUOUS
 10
4.0612629441
 20
-15.2072127911
 11
4.0612629441
 21
-15.6754007911
  0
LINE
  5
2AE
100
AcDbEntity
  8
CURVE
100
AcDbLine
 62
250
  6
CONTINUOUS
 10
4.1504909441
 20
-13.0333567911
 11
4.1504909441
 21
-13.5012007911
  0
LWPOLYLINE
  5
2AF
100
AcDbEntity
  8
CURVE
100
AcDbPolyline
 62
250
  6
CONTINUOUS
 90
56
 70
0
 10
-4.0061175064
 20
-13.6489956688
 10
-3.9921666445
 20
-13.6320631296
 10
-3.9775118681
 20
-13.6156617019
 10
-3.9621894857
 20
-13.5998068184
 10
-3.9462358053
 20
-13.5845139122
 10
-3.9296871354
 20
-13.5697984161
 10
-3.912579784
 20
-13.5556757632
 10
-3.8949500595
 20
-13.5421613863
 10
-3.8768342702
 20
-13.5292707183
 10
-3.8582687242
 20
-13.5170191923
 10
-3.8392897299
 20
-13.5054222412
 10
-3.8199335955
 20
-13.4944952978
 10
-3.8002366292
 20
-13.4842537951
 10
-3.7802351392
 20
-13.4747131661
 10
-3.759965434
 20
-13.4658888437
 10
-3.7373151138
 20
-13.4569867209
 10
-3.7144081913
 20
-13.44893603
 10
-3.6912707381
 20
-13.4416962774
 10
-3.6679288262
 20
-13.4352269693
 10
-3.6444085274
 20
-13.4294876122
 10
-3.6207359134
 20
-13.4244377123
 10
-3.5969370561
 20
-13.420036776
 10
-3.5700883665
 20
-13.4158215742
 10
-3.5431314935
 20
-13.4123397333
 10
-3.5160845952
 20
-13.4095571807
 10
-3.4889658298
 20
-13.4074398436
 10
-3.4617933552
 20
-13.4059536494
 10
-3.4345853296
 20
-13.4050645254
 10
-3.4073599111
 20
-13.4047383989
 10
-3.3762581893
 20
-13.4050254814
 10
-3.3451811618
 20
-13.4060381658
 10
-3.3141525239
 20
-13.4078117292
 10
-3.2831959711
 20
-13.4103814485
 10
-3.252335199
 20
-13.4137826008
 10
-3.2215939029
 20
-13.4180504631
 10
-3.1985876057
 20
-13.4218545447
 10
-3.1756806084
 20
-13.426214981
 10
-3.1528913647
 20
-13.4311787923
 10
-3.1302383283
 20
-13.4367929985
 10
-3.1077399528
 20
-13.4431046197
 10
-3.085414692
 20
-13.4501606761
 10
-3.0632809995
 20
-13.4580081878
 10
-3.0442420153
 20
-13.4654924335
 10
-3.0254011467
 20
-13.4736034474
 10
-3.0067982541
 20
-13.482336192
 10
-2.9884731976
 20
-13.4916856295
 10
-2.9704658377
 20
-13.501646722
 10
-2.9528160345
 20
-13.5122144319
 10
-2.9355636484
 20
-13.5233837215
 10
-2.9187485397
 20
-13.535149553
 10
-2.9024105686
 20
-13.5475068887
 10
-2.8865895955
 20
-13.5604506909
 10
-2.8713254807
 20
-13.5739759218
 10
-2.8566580844
 20
-13.5880775436
 10
-2.842627267
 20
-13.6027505187
 10
-2.8292728886
 20
-13.6179898094
  0
LWPOLYLINE
  5
2B0
100
AcDbEntity
  8
CURVE
100
AcDbPolyline
 62
250
  6
CONTINUOUS
 90
31
 70
0
 10
-3.1393314823
 20
12.5836201633
 10
-3.152103622
 20
12.5998181718
 10
-3.1644877696
 20
12.6163205614
 10
-3.1764901248
 20
12.6331146518
 10
-3.188116887
 20
12.6501877626
 10
-3.1993742557
 20
12.6675272136
 10
-3.2102684304
 20
12.6851203242
 10
-3.2208056106
 20
12.7029544142
 10
-3.2309919957
 20
12.7210168032
 10
-3.2408337853
 20
12.7392948109
 10
-3.2503371788
 20
12.7577757569
 10
-3.2595083757
 20
12.7764469608
 10
-3.2683535755
 20
12.7952957422
 10
-3.2768789778
 20
12.8143094209
 10
-3.285090782
 20
12.8334753165
 10
-3.2929951875
 20
12.8527807485
 10
-3.3005983939
 20
12.8722130367
 10
-3.3079066007
 20
12.8917595007
 10
-3.3149260073
 20
12.9114074601
 10
-3.3216628133
 20
12.9311442346
 10
-3.3281232181
 20
12.9509571438
 10
-3.3343134212
 20
12.9708335074
 10
-3.3402396221
 20
12.9907606449
 10
-3.3459080203
 20
13.0107258761
 10
-3.3529856706
 20
13.0370410672
 10
-3.3596468486
 20
13.0634056544
 10
-3.3659107745
 20
13.0898250266
 10
-3.3717966683
 20
13.1163045724
 10
-3.37732375
 20
13.1428496808
 10
-3.3825112396
 20
13.1694657406
 10
-3.3873783573
 20
13.1961581406
  0
LINE
  5
2B1
100
AcDbEntity
  8
CURVE
100
AcDbLine
 62
7
  6
CONTINUOUS
 10
-4.8967209888
 20
-14.6898315616
 11
-4.1810935596
 21
-13.9742041325
  0
LINE
  5
2B2
100
AcDbEntity
  8
CURVE
100
AcDbLine
 62
7
  6
CONTINUOUS
 10
-3.6346102162
 20
-13.427720789
 11
-3.1549068611
 21
-12.9480174339
  0
LINE
  5
2B3
100
AcDbEntity
  8
ASSI
100
AcDbLine
 62
7
  6
CONTINUOUS
 10
9.7095477281
 20
-0.7099184357
 11
9.6989223727
 21
-0.7205437911
  0
LINE
  5
2B4
100
AcDbEntity
  8
CURVE
100
AcDbLine
 62
7
  6
CONTINUOUS
 10
-4.9135285857
 20
-15.7022455064
 11
-4.3069601217
 21
-15.0956770425
  0
LINE
  5
2B5
100
AcDbEntity
  8
CURVE
100
AcDbLine
 62
7
  6
CONTINUOUS
 10
-2.8292728886
 20
-13.6179898094
 11
-2.4387619866
 21
-13.2274789073
  0
LINE
  5
2B6
100
AcDbEntity
  8
ASSI
100
AcDbLine
 62
250
  6
CONTINUOUS
 10
10.2181800515
 20
-0.7013432197
 11
10.1315380067
 21
-0.7590972504
  0
LINE
  5
2B7
100
AcDbEntity
  8
ASSI
100
AcDbLine
 62
250
  6
CONTINUOUS
 10
10.7181229441
 20
-1.2011909236
 11
10.6313666691
 21
-1.259021098
  0
LWPOLYLINE
  5
2B8
100
AcDbEntity
  8
0
100
AcDbPolyline
 62
7
  6
CONTINUOUS
 90
10
 70
0
 43
0.3500000019
 10
17.5002636719
 20
0.3365990601
 10
17.6431186523
 20
0.4080276413
 10
17.7145488281
 20
0.4080276413
 10
17.8574038086
 20
0.2651704998
 10
17.8574038086
 20
0.1937419186
 10
17.7859736328
 20
0.1223133478
 10
17.7145488281
 20
0.1223133478
 10
17.5716884766
 20
0.1937419186
 10
17.5002636719
 20
0.2651704998
 10
17.5002636719
 20
0.3365990601
  0
LWPOLYLINE
  5
2B9
100
AcDbEntity
  8
0
100
AcDbPolyline
 62
7
  6
CONTINUOUS
 90
3
 70
0
 43
0.3500000019
 10
17.7145488281
 20
0.4080276413
 10
17.9288339844
 20
0.3365990601
 10
18.2145493164
 20
0.1937419186
  0
LINE
  5
2BA
100
AcDbEntity
  8
ASSI
100
AcDbLine
 62
250
  6
CONTINUOUS
 10
10.1315380067
 20
-0.2819903318
 11
10.2181800515
 21
-0.3397443625
  0
LINE
  5
2BB
100
AcDbEntity
  8
ASSI
100
AcDbLine
 62
250
  6
CONTINUOUS
 10
10.6313666691
 20
0.2179335157
 11
10.7181229441
 21
0.1601033413
  0
LINE
  5
2BC
100
AcDbEntity
  8
ASSI
100
AcDbLine
 62
7
  6
CONTINUOUS
 10
9.7095477281
 20
-0.3311691465
 11
9.6989223727
 21
-0.3205437911
  0
LINE
  5
2BD
100
AcDbEntity
  8
CURVE
100
AcDbLine
 62
250
  6
CONTINUOUS
 10
2.1261529441
 20
11.9924422089
 11
0.4587259441
 21
16.4641762089
  0
LINE
  5
2BE
100
AcDbEntity
  8
CURVE
100
AcDbLine
 62
250
  6
CONTINUOUS
 10
0.8211499441
 20
16.9664702089
 11
2.4885769441
 21
12.4947362089
  0
LWPOLYLINE
  5
2BF
100
AcDbEntity
  8
CURVE
100
AcDbPolyline
 62
250
  6
CONTINUOUS
 90
57
 70
0
 10
-2.8396081751
 20
-17.4158630723
 10
-2.8525694161
 20
-17.4313920156
 10
-2.8662154088
 20
-17.4463834391
 10
-2.880507623
 20
-17.4608280439
 10
-2.8954075287
 20
-17.4747165317
 10
-2.9108765956
 20
-17.4880396038
 10
-2.9268762936
 20
-17.5007879614
 10
-2.9433680926
 20
-17.5129523062
 10
-2.9603134624
 20
-17.5245233394
 10
-2.9776738729
 20
-17.5354917624
 10
-2.9954107939
 20
-17.5458482766
 10
-3.0134856953
 20
-17.5555835834
 10
-3.0318600469
 20
-17.5646883842
 10
-3.0504953186
 20
-17.5731533805
 10
-3.0693529803
 20
-17.5809692735
 10
-3.0910214772
 20
-17.589065303
 10
-3.1129059453
 20
-17.5963544202
 10
-3.1349846609
 20
-17.6028808966
 10
-3.1572359008
 20
-17.6086890036
 10
-3.1796379414
 20
-17.6138230128
 10
-3.2021690593
 20
-17.6183271957
 10
-3.2248075311
 20
-17.6222458237
 10
-3.2506804266
 20
-17.6260445971
 10
-3.2766484085
 20
-17.6291759438
 10
-3.3026956282
 20
-17.6316736751
 10
-3.328806237
 20
-17.6335716025
 10
-3.3549643862
 20
-17.6349035372
 10
-3.3811542271
 20
-17.6357032905
 10
-3.4073599111
 20
-17.6360046738
 10
-3.4399415722
 20
-17.6357184643
 10
-3.4724982464
 20
-17.6346778335
 10
-3.5050049553
 20
-17.6328465177
 10
-3.5374367208
 20
-17.6301882533
 10
-3.5697685645
 20
-17.6266667766
 10
-3.6019755082
 20
-17.6222458237
 10
-3.6259040007
 20
-17.6183341369
 10
-3.6497305137
 20
-17.6138488661
 10
-3.6734364753
 20
-17.6087371692
 10
-3.6970033136
 20
-17.6029462037
 10
-3.7204124568
 20
-17.5964231275
 10
-3.7436453329
 20
-17.5891150982
 10
-3.7666833702
 20
-17.5809692735
 10
-3.784941229
 20
-17.5738252268
 10
-3.803026813
 20
-17.5661153576
 10
-3.8209041994
 20
-17.5578428876
 10
-3.8385374654
 20
-17.5490110384
 10
-3.855890688
 20
-17.5396230317
 10
-3.8729279445
 20
-17.5296820892
 10
-3.889613312
 20
-17.5191914326
 10
-3.9059108677
 20
-17.5081542835
 10
-3.9217846887
 20
-17.4965738636
 10
-3.9371988521
 20
-17.4844533947
 10
-3.9521174351
 20
-17.4717960983
 10
-3.9665045149
 20
-17.4586051962
 10
-3.9803241686
 20
-17.4448839101
 10
-3.9935404734
 20
-17.4306354616
 10
-4.0061175064
 20
-17.4158630723
  0
LINE
  5
2C0
100
AcDbEntity
  8
CURVE
100
AcDbLine
 62
7
  6
CONTINUOUS
 10
-4.8797903239
 20
-16.6641135926
 11
-4.30859689
 21
-16.0929201587
  0
LINE
  5
2C1
100
AcDbEntity
  8
CURVE
100
AcDbLine
 62
7
  6
CONTINUOUS
 10
-2.5568822918
 20
-14.3412055604
 11
-2.0513320474
 21
-13.835655316
  0
LINE
  5
2C2
100
AcDbEntity
  8
CURVE
100
AcDbLine
 62
7
  6
CONTINUOUS
 10
-4.6690534743
 20
-17.4489830909
 11
-4.211521545
 21
-16.9914511616
  0
LINE
  5
2C3
100
AcDbEntity
  8
CURVE
100
AcDbLine
 62
7
  6
CONTINUOUS
 10
-2.5140044275
 20
-15.293934044
 11
-1.9160593666
 21
-14.6959889832
  0
LINE
  5
2C4
100
AcDbEntity
  8
CURVE
100
AcDbLine
 62
7
  6
CONTINUOUS
 10
-0.9510070559
 20
-13.7309366725
 11
-0.2534271745
 21
-13.0333567911
  0
LINE
  5
2C5
100
AcDbEntity
  8
CURVE
100
AcDbLine
 62
7
  6
CONTINUOUS
 10
-4.1758066251
 20
-17.9513425895
 11
-3.7938472934
 21
-17.5693832579
  0
LINE
  5
2C6
100
AcDbEntity
  8
CURVE
100
AcDbLine
 62
7
  6
CONTINUOUS
 10
-2.5200699726
 20
-16.2956059371
 11
-1.9020588311
 21
-15.6775947956
  0
LINE
  5
2C7
100
AcDbEntity
  8
CURVE
100
AcDbLine
 62
7
  6
CONTINUOUS
 10
-0.9510070559
 20
-14.7265430204
 11
-0.3660300559
 21
-14.1415660204
  0
LINE
  5
2C8
100
AcDbEntity
  8
CURVE
100
AcDbLine
 62
7
  6
CONTINUOUS
 10
0.2743351734
 20
-13.5012007911
 11
0.7421791734
 21
-13.0333567911
  0
LWPOLYLINE
  5
2C9
100
AcDbEntity
  8
CURVE
100
AcDbPolyline
 62
250
  6
CONTINUOUS
 90
30
 70
0
 10
-1.9631758837
 20
16.3814934263
 10
-1.9407965603
 20
16.3539710834
 10
-1.9194174
 20
16.3256026747
 10
-1.8990561905
 20
16.296445855
 10
-1.8797307195
 20
16.266558279
 10
-1.8614587748
 20
16.2359976015
 10
-1.844258144
 20
16.2048214771
 10
-1.8281466149
 20
16.1730875606
 10
-1.8131419753
 20
16.1408535066
 10
-1.7980470176
 20
16.1052071145
 10
-1.784195981
 20
16.0690881619
 10
-1.7714961349
 20
16.0325499684
 10
-1.759854749
 20
15.9956458535
 10
-1.7491790929
 20
15.9584291366
 10
-1.7393764363
 20
15.9209531372
 10
-1.7303540487
 20
15.8832711748
 10
-1.7220191997
 20
15.8454365688
 10
-1.7103087661
 20
15.7867102507
 10
-1.699937951
 20
15.7277698497
 10
-1.6908233231
 20
15.6686389108
 10
-1.6828814512
 20
15.6093409791
 10
-1.676028904
 20
15.5498995998
 10
-1.6701822502
 20
15.4903383177
 10
-1.6652580587
 20
15.4306806781
 10
-1.6611728982
 20
15.3709502261
 10
-1.6578433374
 20
15.3111705066
 10
-1.6551859451
 20
15.2513650648
 10
-1.65311729
 20
15.1915574457
 10
-1.6509747178
 20
15.1041728622
 10
-1.6496214236
 20
15.0168184901
  0
LWPOLYLINE
  5
2CA
100
AcDbEntity
  8
ASSI
100
AcDbPolyline
 62
250
  6
CONTINUOUS
 90
16
 70
0
 10
10.6313666691
 20
-1.259021098
 10
10.6285789325
 20
-1.2065213715
 10
10.6202975164
 20
-1.1546162721
 10
10.6066184084
 20
-1.1038787867
 10
10.5877098407
 20
-1.0548967462
 10
10.5637779949
 20
-1.0081781308
 10
10.5350353495
 20
-0.9641601082
 10
10.5017035137
 20
-0.9232599107
 10
10.4641904963
 20
-0.886045712
 10
10.4230945081
 20
-0.8530923819
 10
10.3789447542
 20
-0.8247490049
 10
10.3322198577
 20
-0.8012533032
 10
10.2835502886
 20
-0.7828476344
 10
10.2335253219
 20
-0.7696614462
 10
10.1826706921
 20
-0.7617434404
 10
10.1315380067
 20
-0.7590972504
  0
LINE
  5
2CB
100
AcDbEntity
  8
ASSI
100
AcDbLine
 62
7
  6
CONTINUOUS
 10
10.7176768123
 20
21.9430394826
 11
10.6937351211
 21
25.3552397234
  0
LINE
  5
2CC
100
AcDbEntity
  8
ASSI
100
AcDbLine
 62
250
  6
CONTINUOUS
 10
10.1315380067
 20
-0.7590972504
 11
10.1315380067
 21
-26.8337875162
  0
LINE
  5
2CD
100
AcDbEntity
  8
ASSI
100
AcDbLine
 62
250
  6
CONTINUOUS
 10
10.1315380067
 20
-0.2819903318
 11
10.1315380067
 21
25.7926999339
  0
LINE
  5
2CE
100
AcDbEntity
  8
ASSI
100
AcDbLine
 62
250
  6
CONTINUOUS
 10
10.6313666691
 20
-26.3339588537
 11
10.6313666691
 21
-1.259021098
  0
LINE
  5
2CF
100
AcDbEntity
  8
ASSI
100
AcDbLine
 62
250
  6
CONTINUOUS
 10
10.6313666691
 20
0.2179335157
 11
10.6313666691
 21
25.2928712715
  0
LINE
  5
2D0
100
AcDbEntity
  8
ASSI
100
AcDbLine
 62
7
  6
CONTINUOUS
 10
10.7181229441
 20
-22.8547175423
 11
10.7181229441
 21
-1.2011909236
  0
LINE
  5
2D1
100
AcDbEntity
  8
ASSI
100
AcDbLine
 62
7
  6
CONTINUOUS
 10
10.7181229441
 20
0.1601033413
 11
10.7181229441
 21
21.8136299601
  0
LINE
  5
2D2
100
AcDbEntity
  8
ASSI
100
AcDbLine
 62
7
  6
CONTINUOUS
 10
10.7176768123
 20
-22.9841270649
 11
10.6937351211
 21
-26.3963273056
  0
LINE
  5
2D3
100
AcDbEntity
  8
CURVE
100
AcDbLine
 62
7
  6
CONTINUOUS
 10
-3.3278693829
 20
-18.0990116953
 11
-1.951629242
 21
-16.7227715544
  0
LINE
  5
2D4
100
AcDbEntity
  8
CURVE
100
AcDbLine
 62
7
  6
CONTINUOUS
 10
-0.9510070559
 20
-15.7221493683
 11
-0.3660300559
 21
-15.1371723683
  0
LINE
  5
2D5
100
AcDbEntity
  8
ASSI
100
AcDbLine
 62
250
  6
CONTINUOUS
 10
-11.395120781
 20
-26.3339588537
 11
-11.4574892329
 21
-26.3963273056
  0
LINE
  5
2D6
100
AcDbEntity
  8
CURVE
100
AcDbLine
 62
7
  6
CONTINUOUS
 10
-0.9510070559
 20
-16.7177557162
 11
-0.3660300559
 21
-16.1327787162
  0
LINE
  5
2D7
100
AcDbEntity
  8
CURVE
100
AcDbLine
 62
7
  6
CONTINUOUS
 10
0.0913478692
 20
-15.6754007911
 11
0.5595358692
 21
-15.2072127911
  0
LINE
  5
2D8
100
AcDbEntity
  8
CURVE
100
AcDbLine
 62
7
  6
CONTINUOUS
 10
2.0041959441
 20
-13.7625527162
 11
2.7333918692
 21
-13.0333567911
  0
LINE
  5
2D9
100
AcDbEntity
  8
ASSI
100
AcDbLine
 62
250
  6
CONTINUOUS
 10
-10.8952921185
 20
-26.8337875162
 11
-10.9541779601
 21
-26.8926733578
  0
LINE
  5
2DA
100
AcDbEntity
  8
ASSI
100
AcDbLine
 62
250
  6
CONTINUOUS
 10
-11.4574892329
 20
25.3552397234
 11
-11.395120781
 21
25.2928712715
  0
LINE
  5
2DB
100
AcDbEntity
  8
ASSI
100
AcDbLine
 62
250
  6
CONTINUOUS
 10
-10.9541779601
 20
25.8515857755
 11
-10.8952921185
 21
25.7926999339
  0
LINE
  5
2DC
100
AcDbEntity
  8
CURVE
100
AcDbLine
 62
7
  6
CONTINUOUS
 10
-0.9510070559
 20
-17.7133620641
 11
-0.3660300559
 21
-17.1283850641
  0
LINE
  5
2DD
100
AcDbEntity
  8
CURVE
100
AcDbLine
 62
7
  6
CONTINUOUS
 10
1.0869542171
 20
-15.6754007911
 11
1.1060599441
 21
-15.6562950641
  0
LINE
  5
2DE
100
AcDbEntity
  8
CURVE
100
AcDbLine
 62
7
  6
CONTINUOUS
 10
2.0041959441
 20
-14.7581590641
 11
2.5891729441
 21
-14.1731820641
  0
LINE
  5
2DF
100
AcDbEntity
  8
CURVE
100
AcDbLine
 62
7
  6
CONTINUOUS
 10
3.2611542171
 20
-13.5012007911
 11
3.7289982171
 21
-13.0333567911
  0
LINE
  5
2E0
100
AcDbEntity
  8
CURVE
100
AcDbLine
 62
7
  6
CONTINUOUS
 10
2.0041959441
 20
-15.753765412
 11
2.5891729441
 21
-15.168788412
  0
LINE
  5
2E1
100
AcDbEntity
  8
CURVE
100
AcDbLine
 62
7
  6
CONTINUOUS
 10
2.0041959441
 20
-16.74937176
 11
2.5891729441
 21
-16.16439476
  0
LINE
  5
2E2
100
AcDbEntity
  8
CURVE
100
AcDbLine
 62
7
  6
CONTINUOUS
 10
3.0781669129
 20
-15.6754007911
 11
3.5463549129
 21
-15.2072127911
  0
LWPOLYLINE
  5
2E3
100
AcDbEntity
  8
CURVE
100
AcDbPolyline
 62
250
  6
CONTINUOUS
 90
53
 70
0
 10
-2.4664774102
 20
11.8973825406
 10
-2.4077234255
 20
11.89998049
 10
-2.3490658717
 20
11.9040845037
 10
-2.2905460821
 20
11.9098456138
 10
-2.2331929917
 20
11.9172660321
 10
-2.1761041454
 20
11.9265429259
 10
-2.1193706601
 20
11.9377849183
 10
-2.0630836527
 20
11.9511006323
 10
-2.0128400519
 20
11.9649602833
 10
-1.9631409379
 20
11.9806594213
 10
-1.9140944861
 20
11.998266346
 10
-1.8658088725
 20
12.0178493573
 10
-1.8217431993
 20
12.0378643766
 10
-1.7785374955
 20
12.0596824418
 10
-1.7363021258
 20
12.0833431269
 10
-1.6951474549
 20
12.1088860055
 10
-1.657825555
 20
12.1344241795
 10
-1.6215909463
 20
12.1615567166
 10
-1.5864946769
 20
12.1902060137
 10
-1.5525877949
 20
12.2202944675
 10
-1.5199213483
 20
12.2517444747
 10
-1.4885463854
 20
12.2844784322
 10
-1.4585139541
 20
12.3184187367
 10
-1.4298751025
 20
12.3534877849
 10
-1.4025620141
 20
12.3897466846
 10
-1.3766469093
 20
12.4269824432
 10
-1.3520721292
 20
12.4651127647
 10
-1.328780015
 20
12.504055353
 10
-1.306712908
 20
12.5437279122
 10
-1.2858131493
 20
12.5840481463
 10
-1.2660230802
 20
12.6249337592
 10
-1.2472850418
 20
12.666302455
 10
-1.2251194677
 20
12.7189599487
 10
-1.2045142367
 20
12.7722059324
 10
-1.1854538364
 20
12.8259937393
 10
-1.1679227545
 20
12.8802767025
 10
-1.1519054784
 20
12.9350081552
 10
-1.1373864958
 20
12.9901414306
 10
-1.1225900518
 20
13.0535595061
 10
-1.1095657873
 20
13.1173754019
 10
-1.0981506602
 20
13.1815234139
 10
-1.0881816284
 20
13.245937838
 10
-1.0794956496
 20
13.31055297
 10
-1.0719296816
 20
13.3753031059
 10
-1.0625468921
 20
13.4706050255
 10
-1.0549930654
 20
13.5660308231
 10
-1.0490300474
 20
13.6615546841
 10
-1.0444196843
 20
13.7571507946
 10
-1.0409238222
 20
13.8527933401
 10
-1.0371428027
 20
14.0052048164
 10
-1.0350747915
 20
14.1576508254
 10
-1.0342087479
 20
14.310113567
 10
-1.0342554756
 20
14.6097553189
  0
LINE
  5
2E4
100
AcDbEntity
  8
CURVE
100
AcDbLine
 62
250
  6
CONTINUOUS
 10
3.0322129441
 20
11.9924422089
 11
2.1261529441
 21
11.9924422089
  0
LINE
  5
2E5
100
AcDbEntity
  8
CURVE
100
AcDbLine
 62
250
  6
CONTINUOUS
 10
0.4587259441
 20
11.9924422089
 11
-0.0845650559
 21
11.9924422089
  0
LINE
  5
2E6
100
AcDbEntity
  8
CURVE
100
AcDbLine
 62
7
  6
CONTINUOUS
 10
2.0041959441
 20
-17.7449781079
 11
2.5891729441
 21
-17.1600011079
  0
LWPOLYLINE
  5
2E7
100
AcDbEntity
  8
CURVE
100
AcDbPolyline
 62
250
  6
CONTINUOUS
 90
29
 70
0
 10
-1.8460426372
 20
16.9458000668
 10
-1.8667402451
 20
16.9549881139
 10
-1.8876455907
 20
16.9636838562
 10
-1.9087474598
 20
16.9719011674
 10
-1.9300346386
 20
16.9796539212
 10
-1.9514959131
 20
16.9869559913
 10
-1.9731200694
 20
16.9938212513
 10
-1.9948958936
 20
17.000263575
 10
-2.0168121718
 20
17.0062968362
 10
-2.0388576899
 20
17.0119349083
 10
-2.0610212342
 20
17.0171916653
 10
-2.0832915906
 20
17.0220809807
 10
-2.1056575452
 20
17.0266167283
 10
-2.1281078842
 20
17.0308127818
 10
-2.1506313935
 20
17.0346830148
 10
-2.1732168592
 20
17.0382413012
 10
-2.1958530674
 20
17.0415015144
 10
-2.2185288042
 20
17.0444775284
 10
-2.2412328557
 20
17.0471832167
 10
-2.2639540079
 20
17.0496324531
 10
-2.2866810468
 20
17.0518391112
 10
-2.3094027586
 20
17.0538170648
 10
-2.3321079294
 20
17.0555801876
 10
-2.3669098648
 20
17.0578946094
 10
-2.4016645598
 20
17.0597518281
 10
-2.4363901619
 20
17.0611680759
 10
-2.4711048188
 20
17.0621595847
 10
-2.5058266779
 20
17.0627425865
 10
-2.540573887
 20
17.0629333133
  0
LWPOLYLINE
  5
2E8
100
AcDbEntity
  8
0
100
AcDbPolyline
 62
7
  6
CONTINUOUS
 90
10
 70
0
 43
0.3500000019
 10
0.5824086914
 20
35.137348877
 10
0.6538388672
 20
34.9944912109
 10
0.6538388672
 20
34.9230637207
 10
0.5109785156
 20
34.7802060547
 10
0.4395537109
 20
34.7802060547
 10
0.3681235352
 20
34.8516335449
 10
0.3681235352
 20
34.9230637207
 10
0.4395537109
 20
35.0659213867
 10
0.5109785156
 20
35.137348877
 10
0.5824086914
 20
35.137348877
  0
LWPOLYLINE
  5
2E9
100
AcDbEntity
  8
0
100
AcDbPolyline
 62
7
  6
CONTINUOUS
 90
8
 70
0
 43
0.3500000019
 10
18.0002641602
 20
-4.8062581177
 10
18.0002641602
 20
-3.9491151428
 10
17.5716884766
 20
-3.5205438232
 10
16.7145478516
 20
-3.5205438232
 10
16.2859775391
 20
-3.9491151428
 10
16.2859775391
 20
-4.8062581177
 10
15.0002612305
 20
-4.8062581177
 10
15.0002612305
 20
-3.5205438232
  0
LWPOLYLINE
  5
2EA
100
AcDbEntity
  8
0
100
AcDbPolyline
 62
7
  6
CONTINUOUS
 90
7
 70
0
 43
0.3500000019
 10
18.0002641602
 20
-1.1634008942
 10
18.0002641602
 20
-2.6634010162
 10
15.8574018555
 20
-1.1634008942
 10
15.428831543
 20
-1.1634008942
 10
15.0002612305
 20
-1.5919723816
 10
15.0002612305
 20
-2.2348295288
 10
15.6431166992
 20
-2.6634010162
  0
LWPOLYLINE
  5
2EB
100
AcDbEntity
  8
CURVE
100
AcDbPolyline
 62
250
  6
CONTINUOUS
 90
85
 70
0
 10
-2.540573887
 20
17.0629333133
 10
-2.6096554037
 20
17.0618971051
 10
-2.6789311585
 20
17.0586978024
 10
-2.7482214755
 20
17.0531993875
 10
-2.8173466791
 20
17.0452658431
 10
-2.8861270936
 20
17.0347611516
 10
-2.9543830432
 20
17.0215492955
 10
-3.0219348522
 20
17.0054942573
 10
-3.0886028449
 20
16.9864600197
 10
-3.1542073456
 20
16.964310565
 10
-3.2185686785
 20
16.9389098758
 10
-3.2725276728
 20
16.9144856689
 10
-3.3252396278
 20
16.8875322939
 10
-3.3765002432
 20
16.85800295
 10
-3.4261052186
 20
16.8258508363
 10
-3.4738502539
 20
16.7910291521
 10
-3.5167731025
 20
16.7559402624
 10
-3.5578243405
 20
16.7186320878
 10
-3.5969478456
 20
16.6792743775
 10
-3.6340874955
 20
16.6380368806
 10
-3.6691871679
 20
16.5950893464
 10
-3.7011694579
 20
16.5520741038
 10
-3.7312746501
 20
16.5077566937
 10
-3.7595871152
 20
16.462276305
 10
-3.7861912234
 20
16.4157721264
 10
-3.8188687643
 20
16.3528796201
 10
-3.8486667864
 20
16.2885811203
 10
-3.8755483875
 20
16.223019034
 10
-3.9006230084
 20
16.1530312748
 10
-3.922669065
 20
16.082020543
 10
-3.9419095393
 20
16.0101982604
 10
-3.9601568928
 20
15.9303063089
 10
-3.975679574
 20
15.8498402559
 10
-3.988892029
 20
15.768955449
 10
-4.0013212473
 20
15.678645529
 10
-4.0116149913
 20
15.588075106
 10
-4.0199840157
 20
15.49730967
 10
-4.0273458766
 20
15.3954932246
 10
-4.0329336711
 20
15.2935604382
 10
-4.0371233658
 20
15.1915574457
 10
-4.0419527716
 20
15.0187194121
 10
-4.0448748306
 20
14.8458421137
 10
-4.0468126968
 20
14.6563187984
 10
-4.0474586522
 20
14.45568505
 10
-4.0470118664
 20
14.2634164242
 10
-4.0456930408
 20
14.0864569414
 10
-4.0437570833
 20
13.9320678865
 10
-4.0405684613
 20
13.7776902585
 10
-4.0363064998
 20
13.6471859917
 10
-4.0295872194
 20
13.5168104029
 10
-4.0210435223
 20
13.4046113959
 10
-4.0095626019
 20
13.2926208142
 10
-3.9976613989
 20
13.2007007814
 10
-3.9831025065
 20
13.1091621903
 10
-3.9654094583
 20
13.0182301357
 10
-3.9441057877
 20
12.9281297119
 10
-3.9222532659
 20
12.8501327881
 10
-3.897683126
 20
12.7729281603
 10
-3.8803388055
 20
12.7230781216
 10
-3.8616976911
 20
12.6737061991
 10
-3.8414419422
 20
12.6249613092
 10
-3.8116289461
 20
12.5614332837
 10
-3.7784355297
 20
12.499519826
 10
-3.7418896053
 20
12.4394669522
 10
-3.7020190852
 20
12.3815206785
 10
-3.6588518815
 20
12.3259270211
 10
-3.620913564
 20
12.2821526272
 10
-3.5808433069
 20
12.2403113904
 10
-3.5387196774
 20
12.2005791422
 10
-3.494621243
 20
12.1631317138
 10
-3.4486265713
 20
12.1281449368
 10
-3.4008142296
 20
12.0957946426
 10
-3.3474419474
 20
12.0640715765
 10
-3.2923187011
 20
12.0355095066
 10
-3.2357080285
 20
12.0100117651
 10
-3.1726787704
 20
11.9856266865
 10
-3.1084351511
 20
11.9646483963
 10
-3.0432133183
 20
11.9469665177
 10
-2.9686670028
 20
11.9307769101
 10
-2.8934127261
 20
11.91820655
 10
-2.8176887551
 20
11.9088120852
 10
-2.7302026453
 20
11.901404576
 10
-2.6425069543
 20
11.8972497164
 10
-2.5546987785
 20
11.8959791045
 10
-2.4664774102
 20
11.8973825406
  0
LINE
  5
2EC
100
AcDbEntity
  8
CURVE
100
AcDbLine
 62
250
  6
CONTINUOUS
 10
-0.0845650559
 20
16.9664702089
 11
0.8211499441
 21
16.9664702089
  0
LINE
  5
2ED
100
AcDbEntity
  8
CURVE
100
AcDbLine
 62
250
  6
CONTINUOUS
 10
2.4885769441
 20
16.9664702089
 11
3.0322129441
 21
16.9664702089
  0
LWPOLYLINE
  5
2EE
100
AcDbEntity
  8
ASSI
100
AcDbPolyline
 62
250
  6
CONTINUOUS
 90
16
 70
0
 10
-10.8952921185
 20
25.7926999339
 10
-10.946434381
 20
25.7900415791
 10
-10.9972940335
 20
25.782111407
 10
-11.0473195071
 20
25.7689145281
 10
-11.0959849606
 20
25.7505012609
 10
-11.1427021703
 20
25.7270023101
 10
-11.186842645
 20
25.6986604351
 10
-11.2279277276
 20
25.6657147733
 10
-11.2654301838
 20
25.6285143046
 10
-11.2987556949
 20
25.5876302449
 10
-11.3274970126
 20
25.5436283102
 10
-11.3514309647
 20
25.4969263752
 10
-11.3703444177
 20
25.4479616785
 10
-11.3840308503
 20
25.3972419402
 10
-11.3923217716
 20
25.3453542812
 10
-11.395120781
 20
25.2928712715
  0
LINE
  5
2EF
100
AcDbEntity
  8
ASSI
100
AcDbLine
 62
250
  6
CONTINUOUS
 10
-11.395120781
 20
25.2928712715
 11
10.6313666691
 21
25.2928712715
  0
LINE
  5
2F0
100
AcDbEntity
  8
ASSI
100
AcDbLine
 62
250
  6
CONTINUOUS
 10
10.1315380067
 20
25.7926999339
 11
-10.8952921185
 21
25.7926999339
  0
LINE
  5
2F1
100
AcDbEntity
  8
ASSI
100
AcDbLine
 62
7
  6
CONTINUOUS
 10
10.1904238482
 20
25.8515857755
 11
-10.9541779601
 21
25.8515857755
  0
LWPOLYLINE
  5
2F2
100
AcDbEntity
  8
0
100
AcDbPolyline
 62
7
  6
CONTINUOUS
 90
7
 70
0
 43
0.3500000019
 10
3.1538359375
 20
34.6373483887
 10
1.6538398438
 20
34.6373483887
 10
3.1538359375
 20
36.7802053223
 10
3.1538359375
 20
37.2087783203
 10
2.725265625
 20
37.6373486328
 10
2.0824101563
 20
37.6373486328
 10
1.6538398438
 20
36.9944904785
  0
LWPOLYLINE
  5
2F3
100
AcDbEntity
  8
0
100
AcDbPolyline
 62
7
  6
CONTINUOUS
 90
7
 70
0
 43
0.3500000019
 10
-0.9175927734
 20
34.6373483887
 10
-2.4175888672
 20
34.6373483887
 10
-0.9175927734
 20
36.7802053223
 10
-0.9175927734
 20
37.2087783203
 10
-1.3461630859
 20
37.6373486328
 10
-1.9890185547
 20
37.6373486328
 10
-2.4175888672
 20
36.9944904785
  0
LWPOLYLINE
  5
2F4
100
AcDbEntity
  8
0
100
AcDbPolyline
 62
7
  6
CONTINUOUS
 90
7
 70
0
 43
0.3500000019
 10
-3.2747348633
 20
34.6373483887
 10
-4.7747363281
 20
34.6373483887
 10
-3.2747348633
 20
36.7802053223
 10
-3.2747348633
 20
37.2087783203
 10
-3.7033051758
 20
37.6373486328
 10
-4.3461606445
 20
37.6373486328
 10
-4.7747363281
 20
36.9944904785
  0
LWPOLYLINE
  5
2F5
100
AcDbEntity
  8
ASSI
100
AcDbPolyline
 62
250
  6
CONTINUOUS
 90
16
 70
0
 10
10.1315380067
 20
25.7926999339
 10
10.183058363
 20
25.7900022842
 10
10.2342275026
 20
25.7819670981
 10
10.2844863748
 20
25.7686188588
 10
10.3333369752
 20
25.7500139641
 10
10.3801565864
 20
25.7263107837
 10
10.4242362895
 20
25.6978329531
 10
10.4650353551
 20
25.6649440545
 10
10.5021702051
 20
25.6279686549
 10
10.535244797
 20
25.5872971932
 10
10.5638974541
 20
25.5433619418
 10
10.5877993027
 20
25.4966527696
 10
10.606676044
 20
25.4476993033
 10
10.6203184917
 20
25.3970468282
 10
10.6285790104
 20
25.3452473637
 10
10.6313666691
 20
25.2928712715
  0
LWPOLYLINE
  5
2F6
100
AcDbEntity
  8
0
100
AcDbPolyline
 62
7
  6
CONTINUOUS
 90
5
 70
0
 43
0.3500000019
 10
-20.2923955078
 20
36.3268500977
 10
-19.9352553711
 20
36.5411379395
 10
-19.9352553711
 20
37.1839934082
 10
-20.2923955078
 20
37.6125664063
 10
-21.1495415039
 20
37.6125664063
  0
LINE
  5
2F7
100
AcDbEntity
  8
ASSI
100
AcDbLine
 62
7
  6
CONTINUOUS
 10
-26.6804354392
 20
-26.8926733578
 11
-28.9291950038
 21
-26.8337875162
  0
LINE
  5
2F8
100
AcDbEntity
  8
ASSI
100
AcDbLine
 62
250
  6
CONTINUOUS
 10
-29.4161065296
 20
-26.3339588537
 11
-28.9291950038
 21
-26.3339588537
  0
LINE
  5
2F9
100
AcDbEntity
  8
ASSI
100
AcDbLine
 62
250
  6
CONTINUOUS
 10
-26.5474399154
 20
-26.3963273056
 11
-28.9291950038
 21
-26.3339588537
  0
LWPOLYLINE
  5
2FA
100
AcDbEntity
  8
ASSI
100
AcDbPolyline
 62
250
  6
CONTINUOUS
 90
10
 70
0
 10
-28.9291950038
 20
25.7926999339
 10
-28.9304734713
 20
25.7900022842
 10
-28.9316029736
 20
25.7819670981
 10
-28.9325695126
 20
25.7686188588
 10
-28.9333615243
 20
25.7500139641
 10
-28.9339668493
 20
25.7263107837
 10
-28.9343753987
 20
25.6978329531
 10
-28.9345825337
 20
25.6649440545
 10
-28.9345867091
 20
25.6279686549
 10
-28.9339875892
 20
25.5433619418
  0
LWPOLYLINE
  5
2FB
100
AcDbEntity
  8
ASSI
100
AcDbPolyline
 62
250
  6
CONTINUOUS
 90
9
 70
0
 10
-28.9291950038
 20
-26.8337875162
 10
-28.9304645996
 20
-26.8311291613
 10
-28.9315887476
 20
-26.8231989893
 10
-28.9325531383
 20
-26.8100021103
 10
-28.9333453196
 20
-26.7915888432
 10
-28.9339533111
 20
-26.7680898923
 10
-28.934367012
 20
-26.7397480173
 10
-28.9345801503
 20
-26.7068023556
 10
-28.9345880581
 20
-26.6696018869
  0
LINE
  5
2FC
100
AcDbEntity
  8
ASSI
100
AcDbLine
 62
250
  6
CONTINUOUS
 10
-28.9326027717
 20
25.4476993033
 11
-28.9304935226
 21
25.3452473637
  0
LINE
  5
2FD
100
AcDbEntity
  8
ASSI
100
AcDbLine
 62
250
  6
CONTINUOUS
 10
-28.9291950038
 20
-1.259021098
 11
-28.9307275408
 21
-1.1546162721
  0
LINE
  5
2FE
100
AcDbEntity
  8
ASSI
100
AcDbLine
 62
250
  6
CONTINUOUS
 10
-28.9339875892
 20
25.5433619418
 11
-28.9326027717
 21
25.4476993033
  0
LINE
  5
2FF
100
AcDbEntity
  8
ASSI
100
AcDbLine
 62
250
  6
CONTINUOUS
 10
-28.9307275408
 20
-1.1546162721
 11
-28.9316148133
 21
-1.0548967462
  0
LWPOLYLINE
  5
300
100
AcDbEntity
  8
ASSI
100
AcDbPolyline
 62
250
  6
CONTINUOUS
 90
11
 70
0
 10
-28.9316148133
 20
-1.0548967462
 10
-28.9318192971
 20
-0.9641601082
 10
-28.9316603879
 20
-0.9232599107
 10
-28.9313276512
 20
-0.886045712
 10
-28.9308267174
 20
-0.8530923819
 10
-28.9301653509
 20
-0.8247490049
 10
-28.9293519354
 20
-0.8012533032
 10
-28.92839875
 20
-0.7828476344
 10
-28.9273189659
 20
-0.7696614462
 10
-28.9261254999
 20
-0.7617434404
 10
-28.9248327328
 20
-0.7590972504
  0
LINE
  5
301
100
AcDbEntity
  8
ASSI
100
AcDbLine
 62
7
  6
CONTINUOUS
 10
-29.4161065296
 20
-26.3339588537
 11
-29.4161065296
 21
-1.259021098
  0
LINE
  5
302
100
AcDbEntity
  8
ASSI
100
AcDbLine
 62
7
  6
CONTINUOUS
 10
-29.4161065296
 20
0.2179335157
 11
-29.4161065296
 21
25.2928712715
  0
LINE
  5
303
100
AcDbEntity
  8
ASSI
100
AcDbLine
 62
250
  6
CONTINUOUS
 10
-28.9291950038
 20
-26.3339588537
 11
-28.9291950038
 21
-1.259021098
  0
LINE
  5
304
100
AcDbEntity
  8
ASSI
100
AcDbLine
 62
250
  6
CONTINUOUS
 10
-28.9291950038
 20
0.2179335157
 11
-28.9291950038
 21
25.2928712715
  0
LINE
  5
305
100
AcDbEntity
  8
ASSI
100
AcDbLine
 62
250
  6
CONTINUOUS
 10
-28.9316686159
 20
-0.1165016528
 11
-28.9318014394
 21
-0.0319625005
  0
LINE
  5
306
100
AcDbEntity
  8
ASSI
100
AcDbLine
 62
250
  6
CONTINUOUS
 10
-28.9318014394
 20
-0.0319625005
 11
-28.9312487176
 21
0.0634919779
  0
LINE
  5
307
100
AcDbEntity
  8
ASSI
100
AcDbLine
 62
250
  6
CONTINUOUS
 10
-28.9345880581
 20
-26.6696018869
 11
-28.9339905172
 21
-26.5847158925
  0
LWPOLYLINE
  5
308
100
AcDbEntity
  8
ASSI
100
AcDbPolyline
 62
250
  6
CONTINUOUS
 90
3
 70
0
 10
-28.9312487176
 20
0.0634919779
 10
-28.9300345929
 20
0.1656923814
 10
-28.9291950038
 20
0.2179335157
  0
LINE
  5
309
100
AcDbEntity
  8
ASSI
100
AcDbLine
 62
250
  6
CONTINUOUS
 10
-28.9339905172
 20
-26.5847158925
 11
-28.9326073971
 21
-26.4890492608
  0
LWPOLYLINE
  5
30A
100
AcDbEntity
  8
ASSI
100
AcDbPolyline
 62
250
  6
CONTINUOUS
 90
3
 70
0
 10
-28.9326073971
 20
-26.4890492608
 10
-28.9304960251
 20
-26.3864418635
 10
-28.9291950038
 20
-26.3339588537
  0
LWPOLYLINE
  5
30B
100
AcDbEntity
  8
0
100
AcDbPolyline
 62
7
  6
CONTINUOUS
 90
3
 70
0
 43
0.3500000019
 10
-18.2923989258
 20
34.8982788086
 10
-18.3638237305
 20
34.6839936523
 10
-18.506684082
 20
34.3982810059
  0
LWPOLYLINE
  5
30C
100
AcDbEntity
  8
ASSI
100
AcDbPolyline
 62
250
  6
CONTINUOUS
 90
9
 70
0
 10
-28.9248327328
 20
-0.2819903318
 10
-28.9261522627
 20
-0.2792294216
 10
-28.9273617935
 20
-0.2710246553
 10
-28.9284480808
 20
-0.2574658737
 10
-28.9293992301
 20
-0.2387015435
 10
-28.9302048264
 20
-0.2149371311
 10
-28.9308560486
 20
-0.1864328531
 10
-28.9313457658
 20
-0.1535008268
 10
-28.9316686159
 20
-0.1165016528
  0
LINE
  5
30D
100
AcDbEntity
  8
ASSI
100
AcDbLine
 62
250
  6
CONTINUOUS
 10
-28.9304935226
 20
25.3452473637
 11
-28.9291950038
 21
25.2928712715
  0
LINE
  5
30E
100
AcDbEntity
  8
ASSI
100
AcDbLine
 62
250
  6
CONTINUOUS
 10
-25.6161065296
 20
-1.2011909236
 11
-28.9291950038
 21
-1.259021098
  0
LINE
  5
30F
100
AcDbEntity
  8
ASSI
100
AcDbLine
 62
7
  6
CONTINUOUS
 10
-25.6161065296
 20
-0.7013432197
 11
-28.9248327328
 21
-0.7590972504
  0
LINE
  5
310
100
AcDbEntity
  8
ASSI
100
AcDbLine
 62
250
  6
CONTINUOUS
 10
-29.4161065296
 20
-1.259021098
 11
-28.9291950038
 21
-1.259021098
  0
LINE
  5
311
100
AcDbEntity
  8
ASSI
100
AcDbLine
 62
7
  6
CONTINUOUS
 10
-28.9248327328
 20
-0.2819903318
 11
-25.6161065296
 21
-0.3397443625
  0
LINE
  5
312
100
AcDbEntity
  8
ASSI
100
AcDbLine
 62
7
  6
CONTINUOUS
 10
-25.6161065296
 20
-0.7013432197
 11
-25.6161065296
 21
-22.8547175423
  0
LINE
  5
313
100
AcDbEntity
  8
ASSI
100
AcDbLine
 62
7
  6
CONTINUOUS
 10
-25.6161065296
 20
-0.3397443625
 11
-25.6161065296
 21
21.8136299601
  0
LINE
  5
314
100
AcDbEntity
  8
ASSI
100
AcDbLine
 62
250
  6
CONTINUOUS
 10
-28.9291950038
 20
0.2179335157
 11
-29.4161065296
 21
0.2179335157
  0
LINE
  5
315
100
AcDbEntity
  8
ASSI
100
AcDbLine
 62
250
  6
CONTINUOUS
 10
-28.9291950038
 20
0.2179335157
 11
-25.6161065296
 21
0.1601033413
  0
LINE
  5
316
100
AcDbEntity
  8
ASSI
100
AcDbLine
 62
7
  6
CONTINUOUS
 10
-25.6331436165
 20
-22.9841270649
 11
-26.6804354392
 21
-26.8926733578
  0
LINE
  5
317
100
AcDbEntity
  8
ASSI
100
AcDbLine
 62
7
  6
CONTINUOUS
 10
-25.6331436165
 20
21.9430394826
 11
-26.6804354392
 21
25.8515857755
  0
LWPOLYLINE
  5
318
100
AcDbEntity
  8
0
100
AcDbPolyline
 62
7
  6
CONTINUOUS
 90
4
 70
0
 43
0.3500000019
 10
-17.2923979492
 20
35.0411364746
 10
-17.2923979492
 20
35.8982797852
 10
-16.8638276367
 20
36.3268500977
 10
-16.2209667969
 20
36.3268500977
  0
LINE
  5
319
100
AcDbEntity
  8
ASSI
100
AcDbLine
 62
250
  6
CONTINUOUS
 10
-28.9291950038
 20
25.2928712715
 11
-26.5474399154
 21
25.3552397234
  0
LINE
  5
31A
100
AcDbEntity
  8
ASSI
100
AcDbLine
 62
7
  6
CONTINUOUS
 10
-28.9291950038
 20
25.7926999339
 11
-26.6804354392
 21
25.8515857755
  0
LINE
  5
31B
100
AcDbEntity
  8
ASSI
100
AcDbLine
 62
250
  6
CONTINUOUS
 10
-29.4161065296
 20
25.2928712715
 11
-28.9291950038
 21
25.2928712715
  0
LWPOLYLINE
  5
31C
100
AcDbEntity
  8
0
100
AcDbPolyline
 62
7
  6
CONTINUOUS
 90
6
 70
0
 43
0.3500000019
 10
-21.1495415039
 20
34.6125661621
 10
-20.0781103516
 20
34.6125661621
 10
-19.8638251953
 20
34.8268513184
 10
-19.8638251953
 20
35.8982797852
 10
-20.2923955078
 20
36.3268500977
 10
-20.7209658203
 20
36.3268500977
  0
LWPOLYLINE
  5
31D
100
AcDbEntity
  8
0
100
AcDbPolyline
 62
7
  6
CONTINUOUS
 90
13
 70
0
 43
0.3500000019
 10
-16.8638276367
 20
36.3268500977
 10
-17.1495375977
 20
36.5411379395
 10
-17.1495375977
 20
37.1839934082
 10
-16.8638276367
 20
37.6125664063
 10
-16.2209667969
 20
37.6125664063
 10
-15.9352514648
 20
37.1839934082
 10
-15.9352514648
 20
36.5411379395
 10
-16.2209667969
 20
36.3268500977
 10
-15.7923964844
 20
35.8982797852
 10
-15.7923964844
 20
35.0411364746
 10
-16.2209667969
 20
34.6125661621
 10
-16.8638276367
 20
34.6125661621
 10
-17.2923979492
 20
35.0411364746
  0
LWPOLYLINE
  5
31E
100
AcDbEntity
  8
0
100
AcDbPolyline
 62
7
  6
CONTINUOUS
 90
10
 70
0
 43
0.3500000019
 10
-18.3638237305
 20
35.1125666504
 10
-18.2923989258
 20
34.9697089844
 10
-18.2923989258
 20
34.8982788086
 10
-18.4352539062
 20
34.7554238281
 10
-18.506684082
 20
34.7554238281
 10
-18.5781088867
 20
34.8268513184
 10
-18.5781088867
 20
34.8982788086
 10
-18.506684082
 20
35.0411364746
 10
-18.4352539062
 20
35.1125666504
 10
-18.3638237305
 20
35.1125666504
  0
ARC
  5
31F
100
AcDbEntity
  8
ASSI
100
AcDbCircle
 62
7
  6
CONTINUOUS
 10
-26.1161065296
 20
21.8136299601
 40
0.5
100
AcDbArc
 50
0.0
 51
15.0
  0
ARC
  5
320
100
AcDbEntity
  8
ASSI
100
AcDbCircle
 62
7
  6
CONTINUOUS
 10
-28.9161065296
 20
25.2928712715
 40
0.5
100
AcDbArc
 50
91.5
 51
180.0
  0
ARC
  5
321
100
AcDbEntity
  8
ASSI
100
AcDbCircle
 62
7
  6
CONTINUOUS
 10
-28.9161065296
 20
0.2179335157
 40
0.5
100
AcDbArc
 50
180.0
 51
269.0
  0
ARC
  5
322
100
AcDbEntity
  8
ASSI
100
AcDbCircle
 62
7
  6
CONTINUOUS
 10
-26.1161065296
 20
-22.8547175423
 40
0.5
100
AcDbArc
 50
345.0
 51
360.0
  0
ARC
  5
323
100
AcDbEntity
  8
ASSI
100
AcDbCircle
 62
7
  6
CONTINUOUS
 10
-28.9161065296
 20
-26.3339588537
 40
0.5
100
AcDbArc
 50
180.0
 51
268.5
  0
ARC
  5
324
100
AcDbEntity
  8
ASSI
100
AcDbCircle
 62
7
  6
CONTINUOUS
 10
-28.9161065296
 20
-1.259021098
 40
0.5
100
AcDbArc
 50
91.0
 51
180.0
  0
ELLIPSE
  5
325
100
AcDbEntity
  8
ASSI
100
AcDbEllipse
 62
7
  6
CONTINUOUS
 10
-10.9573202247
 20
25.3548993777
 30
0.0
 11
0.4677351297
 21
0.1788908786
 31
0.0
 40
0.9906298547
 41
1.202347637
 42
2.7724587311
  0
ELLIPSE
  5
326
100
AcDbEntity
  8
ASSI
100
AcDbEllipse
 62
7
  6
CONTINUOUS
 10
10.1935661129
 20
25.3548993777
 30
0.0
 11
0.4677351297
 21
-0.1788908786
 31
0.0
 40
0.9906298547
 41
0.3691339225
 42
1.9392450166
  0
ELLIPSE
  5
327
100
AcDbEntity
  8
ASSI
100
AcDbEllipse
 62
7
  6
CONTINUOUS
 10
10.7050299833
 20
21.8136299601
 30
0.0
 11
-0.0
 21
0.5
 31
0.0
 40
0.0261859216
 41
-1.5707963268
 42
-1.308996939
  0
ELLIPSE
  5
328
100
AcDbEntity
  8
ASSI
100
AcDbEllipse
 62
7
  6
CONTINUOUS
 10
-11.4687840951
 20
21.8136299601
 30
0.0
 11
0.0
 21
0.5
 31
0.0
 40
0.0261859216
 41
1.308996939
 42
1.5707963268
  0
ELLIPSE
  5
329
100
AcDbEntity
  8
ASSI
100
AcDbEllipse
 62
7
  6
CONTINUOUS
 10
10.2094715756
 20
-0.3310168301
 30
0.0
 11
0.5
 21
0.0
 31
0.0
 40
0.0174550649
 41
-3.1241393611
 42
-1.5707963268
  0
ELLIPSE
  5
32A
100
AcDbEntity
  8
ASSI
100
AcDbEllipse
 62
7
  6
CONTINUOUS
 10
-10.9732256875
 20
-0.3310168301
 30
0.0
 11
0.5
 21
0.0
 31
0.0
 40
0.0174550649
 41
-1.5707963268
 42
-0.0174532925
  0
ELLIPSE
  5
32B
100
AcDbEntity
  8
ASSI
100
AcDbEllipse
 62
7
  6
CONTINUOUS
 10
10.2179515478
 20
0.1603318015
 30
0.0
 11
0.416247366
 21
-0.2774630169
 31
0.0
 40
0.9995051766
 41
-0.9826238685
 42
0.5877156075
  0
ELLIPSE
  5
32C
100
AcDbEntity
  8
ASSI
100
AcDbEllipse
 62
7
  6
CONTINUOUS
 10
-10.9817056597
 20
0.1603318015
 30
0.0
 11
0.416247366
 21
0.2774630169
 31
0.0
 40
0.9995051766
 41
2.5538770461
 42
4.1242165221
  0
ELLIPSE
  5
32D
100
AcDbEntity
  8
ASSI
100
AcDbEllipse
 62
7
  6
CONTINUOUS
 10
10.1935661129
 20
-26.3959869599
 30
0.0
 11
0.4677351297
 21
0.1788908786
 31
0.0
 40
0.9906298547
 41
-1.9392450166
 42
-0.3691339225
  0
ELLIPSE
  5
32E
100
AcDbEntity
  8
ASSI
100
AcDbEllipse
 62
7
  6
CONTINUOUS
 10
-10.9573202247
 20
-26.3959869599
 30
0.0
 11
0.4677351297
 21
-0.1788908786
 31
0.0
 40
0.9906298547
 41
-2.7724587311
 42
-1.202347637
  0
ELLIPSE
  5
32F
100
AcDbEntity
  8
ASSI
100
AcDbEllipse
 62
7
  6
CONTINUOUS
 10
-11.4687840951
 20
-22.8547175423
 30
0.0
 11
0.0
 21
0.5
 31
0.0
 40
0.0261859216
 41
-4.7123889804
 42
-4.4505895926
  0
ELLIPSE
  5
330
100
AcDbEntity
  8
ASSI
100
AcDbEllipse
 62
7
  6
CONTINUOUS
 10
10.7050299833
 20
-22.8547175423
 30
0.0
 11
-0.0
 21
0.5
 31
0.0
 40
0.0261859216
 41
-1.8325957146
 42
-1.5707963268
  0
ELLIPSE
  5
331
100
AcDbEntity
  8
ASSI
100
AcDbEllipse
 62
7
  6
CONTINUOUS
 10
-10.9732256875
 20
-0.7100707522
 30
0.0
 11
0.5
 21
0.0
 31
0.0
 40
0.0174550649
 41
0.0174532925
 42
1.5707963268
  0
ELLIPSE
  5
332
100
AcDbEntity
  8
ASSI
100
AcDbEllipse
 62
7
  6
CONTINUOUS
 10
10.2094715756
 20
-0.7100707522
 30
0.0
 11
0.5
 21
0.0
 31
0.0
 40
0.0174550649
 41
1.5707963268
 42
3.1241393611
  0
ELLIPSE
  5
333
100
AcDbEntity
  8
ASSI
100
AcDbEllipse
 62
7
  6
CONTINUOUS
 10
-10.9817056597
 20
-1.2014193837
 30
0.0
 11
0.416247366
 21
-0.2774630169
 31
0.0
 40
0.9995051766
 41
2.1589687851
 42
3.7293082611
  0
ELLIPSE
  5
334
100
AcDbEntity
  8
ASSI
100
AcDbEllipse
 62
7
  6
CONTINUOUS
 10
10.2179515478
 20
-1.2014193837
 30
0.0
 11
0.416247366
 21
0.2774630169
 31
0.0
 40
0.9995051766
 41
-0.5877156075
 42
0.9826238685
  0
ENDSEC
  0
SECTION
  2
OBJECTS
  0
DICTIONARY
  5
C
100
AcDbDictionary
280
0
281
1
  3
ACAD_GROUP
350
D
  3
ACAD_MLINESTYLE
350
17
  3
ACAD_LAYOUT
350
1A
  3
ACAD_PLOTSETTINGS
350
19
  3
ACAD_PLOTSTYLENAME
350
E
  0
DICTIONARY
  5
D
102
{ACAD_REACTORS
330
C
102
}
100
AcDbDictionary
280
0
281
1
  0
ACDBDICTIONARYWDFLT
  5
E
102
{ACAD_REACTORS
330
C
102
}
100
AcDbDictionary
281
1
  3
Normal
350
F
100
AcDbDictionaryWithDefault
340
F
  0
DICTIONARY
  5
17
102
{ACAD_REACTORS
330
C
102
}
100
AcDbDictionary
280
0
281
1
  3
Standard
350
18
  0
DICTIONARY
  5
19
102
{ACAD_REACTORS
330
C
102
}
100
AcDbDictionary
281
1
  0
DICTIONARY
  5
1A
102
{ACAD_REACTORS
330
C
102
}
100
AcDbDictionary
281
1
  3
Model
350
335
  3
Layout1
350
336
  0
ACDBPLACEHOLDER
  5
F
102
{ACAD_REACTORS
330
E
102
}
  0
MLINESTYLE
  5
18
102
{ACAD_REACTORS
330
17
102
}
100
AcDbMlineStyle
  2
STANDARD
 70
0
  3

 62
256
 51
90.0
 52
90.0
 71
2
 49
0.5
 62
256
  6
BYLAYER
 49
-0.5
 62
256
  6
BYLAYER
  0
LAYOUT
  5
335
102
{ACAD_REACTORS
330
1A
102
}
100
AcDbPlotSettings
  1

  2
none_device
  4

  6

 40
0.0
 41
0.0
 42
0.0
 43
0.0
 44
210.0
 45
297.0
 46
0.0
 47
0.0
 48
0.0
 49
0.0
140
0.0
141
0.0
142
1.0
143
1.0
 70
1024
 72
1
 73
0
 74
0
  7

 75
0
147
1.0
148
0.0
149
0.0
100
AcDbLayout
  1
Model
 70
0
 71
0
 10
0.0
 20
0.0
 11
210.0
 21
297.0
 12
0.0
 22
0.0
 32
0.0
 14
0.0
 24
0.0
 34
0.0
 15
0.0
 25
0.0
 35
0.0
146
0.0
 13
0.0
 23
0.0
 33
0.0
 16
1.0
 26
0.0
 36
0.0
 17
0.0
 27
1.0
 37
0.0
 76
0
330
214
345
0
346
0
  0
LAYOUT
  5
336
102
{ACAD_REACTORS
330
1A
102
}
100
AcDbPlotSettings
  1

  2
none_device
  4

  6

 40
0.0
 41
0.0
 42
0.0
 43
0.0
 44
210.0
 45
297.0
 46
0.0
 47
0.0
 48
0.0
 49
0.0
140
0.0
141
0.0
142
1.0
143
1.0
 70
0
 72
1
 73
0
 74
0
  7

 75
0
147
1.0
148
0.0
149
0.0
100
AcDbLayout
  1
Layout1
 70
0
 71
1
 10
0.0
 20
0.0
 11
210.0
 21
297.0
 12
0.0
 22
0.0
 32
0.0
 14
0.0
 24
0.0
 34
0.0
 15
0.0
 25
0.0
 35
0.0
146
0.0
 13
0.0
 23
0.0
 33
0.0
 16
1.0
 26
0.0
 36
0.0
 17
0.0
 27
1.0
 37
0.0
 76
0
330
215
345
0
346
0
  0
ENDSEC
  0
EOF
