  0
SECTION
  2
HEADER
  9
$ACADVER
  1
AC1024
  9
$DWGCODEPAGE
  3
ANSI_1252
  9
$EXTMAX
 10
210.0
 20
297.0
 30
0.0
  9
$EXTMIN
 10
0.0
 20
0.0
 30
0.0
  9
$LIMMIN
 10
0.0
 20
0.0
  9
$LIMMAX
 10
210.0
 20
297.0
  9
$VIEWCTR
 10
105.0
 20
148.5
  9
$VIEWSIZE
 40
297.0
  9
$CLAYER
  8
0
  9
$LTSCALE
 40
19.36
  9
$CELTYPE
  6
BYLAYER
  9
$DIMSCALE
 40
1.0
  9
$DIMASZ
 40
3.0
  9
$DIMEXO
 40
0.5
  9
$DIMDLI
 40
13.376
  9
$DIMEXE
 40
1.5
  9
$DIMCEN
 40
3.168
  9
$DIMLFAC
 40
1.0
  9
$DIMBLK
  1
_FILLED
  9
$DIMALT
 70
0
  9
$DIMALTF
 40
0.0393700787
  9
$DIMTXT
 40
3.0
  9
$DIMTOL
 70
1
  9
$DIMLIM
 70
0
  9
$DIMTFAC
 40
1.0
  9
$DIMTP
 40
0.01
  9
$DIMTM
 40
0.01
  9
$DIMGAP
 40
0.625
  9
$DIMDSEP
 70
44
  9
$AUNITS
 70
0
  9
$PDMODE
 70
3
  9
$PDSIZE
 40
3.0
  9
$HANDSEED
  5
31A
  9
$TILEMODE
 70
1
  9
$MEASUREMENT
 70
1
  9
$INSUNITS
 70
4
  0
ENDSEC
  0
SECTION
  2
CLASSES
  0
CLASS
  1
ACDBDICTIONARYWDFLT
  2
AcDbDictionaryWithDefault
  3
AutoCAD 2000
 90
0
 91
1
280
0
281
0
  0
CLASS
  1
ACDBPLACEHOLDER
  2
AcDbPlaceHolder
  3
AutoCAD 2000
 90
0
 91
1
280
0
281
0
  0
CLASS
  1
LAYOUT
  2
AcDbLayout
  3
AutoCAD 2000
 90
0
 91
0
280
0
281
0
  0
ENDSEC
  0
SECTION
  2
TABLES
  0
TABLE
  2
VPORT
  5
8
100
AcDbSymbolTable
 70
2
  0
VPORT
  5
1F4
100
AcDbSymbolTableRecord
100
AcDbViewportTableRecord
  2
*ACTIVE
 70
0
 10
0.0
 20
0.0
 11
1.0
 21
1.0
 12
105.0
 22
148.5
 13
0.0
 23
0.0
 14
1.0
 24
1.0
 15
0.0
 25
0.0
 16
0.0
 26
0.0
 36
1.0
 17
0.0
 27
0.0
 37
0.0
 40
297.0
 41
0.7070707071
 42
50.0
 43
0.0
 44
0.0
 50
0.0
 51
0.0
 71
0
 72
100
 73
1
 74
1
 75
0
 76
0
 77
0
 78
0
  0
ENDTAB
  0
TABLE
  2
LTYPE
  5
5
100
AcDbSymbolTable
 70
6
  0
LTYPE
  5
14
100
AcDbSymbolTableRecord
100
AcDbLinetypeTableRecord
  2
BYBLOCK
 70
0
  3

 72
65
 73
0
 40
0.0
  0
LTYPE
  5
15
100
AcDbSymbolTableRecord
100
AcDbLinetypeTableRecord
  2
BYLAYER
 70
0
  3

 72
65
 73
0
 40
0.0
  0
LTYPE
  5
16
100
AcDbSymbolTableRecord
100
AcDbLinetypeTableRecord
  2
CONTINUOUS
 70
64
  3
Solid line
 72
65
 73
0
 40
0.0
  0
LTYPE
  5
1F5
100
AcDbSymbolTableRecord
100
AcDbLinetypeTableRecord
  2
CENTER
 70
64
  3
____ _ ____ _ ____ _ ____ _ ____ _ ____ _ ____
 72
65
 73
4
 40
0.6
 49
0.375
 74
0
 49
-0.075
 74
0
 49
0.075
 74
0
 49
-0.075
 74
0
  0
LTYPE
  5
1F6
100
AcDbSymbolTableRecord
100
AcDbLinetypeTableRecord
  2
HIDDEN
 70
64
  3
- - - - - - - - - - - - - - - - - - - -
 72
65
 73
2
 40
0.2
 49
0.1
 74
0
 49
-0.1
 74
0
  0
LTYPE
  5
1F7
100
AcDbSymbolTableRecord
100
AcDbLinetypeTableRecord
  2
PHANTOM
 70
64
  3
_____ _ _ _____ _ _ _____ _ _ _____
 72
65
 73
6
 40
0.8
 49
0.45
 74
0
 49
-0.05
 74
0
 49
0.1
 74
0
 49
-0.05
 74
0
 49
0.1
 74
0
 49
-0.05
 74
0
  0
LTYPE
  5
1F8
100
AcDbSymbolTableRecord
100
AcDbLinetypeTableRecord
  2
DOT
 70
64
  3
. . . . . . . . . . . . . . . . . . . .
 72
65
 73
2
 40
0.2
 49
0.1
 74
0
 49
-0.1
 74
0
  0
LTYPE
  5
1F9
100
AcDbSymbolTableRecord
100
AcDbLinetypeTableRecord
  2
DASHED
 70
64
  3
- - - - - - - - - - - - - - - - - - - -
 72
65
 73
2
 40
0.2
 49
0.1
 74
0
 49
-0.1
 74
0
  0
ENDTAB
  0
TABLE
  2
LAYER
  5
2
100
AcDbSymbolTable
 70
36
  0
LAYER
  5
10
100
AcDbSymbolTableRecord
100
AcDbLayerTableRecord
  2
0
 70
0
 62
7
  6
CONTINUOUS
370
-3
390
F
  0
LAYER
  5
1FA
100
AcDbSymbolTableRecord
100
AcDbLayerTableRecord
  2
DEFAULT_1
 70
0
 62
7
  6
CENTER
370
-3
390
F
  0
LAYER
  5
1FB
100
AcDbSymbolTableRecord
100
AcDbLayerTableRecord
  2
DEFAULT_2
 70
0
 62
7
  6
HIDDEN
370
-3
390
F
  0
LAYER
  5
1FC
100
AcDbSymbolTableRecord
100
AcDbLayerTableRecord
  2
DEFAULT_3
 70
0
 62
7
  6
PHANTOM
370
-3
390
F
  0
LAYER
  5
1FD
100
AcDbSymbolTableRecord
100
AcDbLayerTableRecord
  2
ASSI
 70
0
 62
7
  6
CONTINUOUS
370
-3
390
F
  0
LAYER
  5
1FE
100
AcDbSymbolTableRecord
100
AcDbLayerTableRecord
  2
COORDINATE
 70
0
 62
7
  6
CONTINUOUS
370
-3
390
F
  0
LAYER
  5
1FF
100
AcDbSymbolTableRecord
100
AcDbLayerTableRecord
  2
COPY_PUBLISH
 70
0
 62
7
  6
CONTINUOUS
370
-3
390
F
  0
LAYER
  5
200
100
AcDbSymbolTableRecord
100
AcDbLayerTableRecord
  2
COSMETICI
 70
0
 62
7
  6
CONTINUOUS
370
-3
390
F
  0
LAYER
  5
201
100
AcDbSymbolTableRecord
100
AcDbLayerTableRecord
  2
CURVE
 70
0
 62
7
  6
CONTINUOUS
370
-3
390
F
  0
LAYER
  5
202
100
AcDbSymbolTableRecord
100
AcDbLayerTableRecord
  2
DRAFT
 70
0
 62
7
  6
CONTINUOUS
370
-3
390
F
  0
LAYER
  5
203
100
AcDbSymbolTableRecord
100
AcDbLayerTableRecord
  2
IMPORT_IGES
 70
0
 62
7
  6
CONTINUOUS
370
-3
390
F
  0
LAYER
  5
204
100
AcDbSymbolTableRecord
100
AcDbLayerTableRecord
  2
INTF_1
 70
0
 62
7
  6
CONTINUOUS
370
-3
390
F
  0
LAYER
  5
205
100
AcDbSymbolTableRecord
100
AcDbLayerTableRecord
  2
INTF_2
 70
0
 62
7
  6
CONTINUOUS
370
-3
390
F
  0
LAYER
  5
206
100
AcDbSymbolTableRecord
100
AcDbLayerTableRecord
  2
INTF_4
 70
0
 62
7
  6
CONTINUOUS
370
-3
390
F
  0
LAYER
  5
207
100
AcDbSymbolTableRecord
100
AcDbLayerTableRecord
  2
INTF_9
 70
0
 62
7
  6
CONTINUOUS
370
-3
390
F
  0
LAYER
  5
208
100
AcDbSymbolTableRecord
100
AcDbLayerTableRecord
  2
NOTE
 70
0
 62
7
  6
CONTINUOUS
370
-3
390
F
  0
LAYER
  5
209
100
AcDbSymbolTableRecord
100
AcDbLayerTableRecord
  2
PIANI
 70
0
 62
7
  6
CONTINUOUS
370
-3
390
F
  0
LAYER
  5
20A
100
AcDbSymbolTableRecord
100
AcDbLayerTableRecord
  2
PUNTI
 70
0
 62
7
  6
CONTINUOUS
370
-3
390
F
  0
LAYER
  5
20B
100
AcDbSymbolTableRecord
100
AcDbLayerTableRecord
  2
RACCORDO
 70
0
 62
7
  6
CONTINUOUS
370
-3
390
F
  0
LAYER
  5
20C
100
AcDbSymbolTableRecord
100
AcDbLayerTableRecord
  2
SIMBOLI
 70
0
 62
7
  6
CONTINUOUS
370
-3
390
F
  0
LAYER
  5
20D
100
AcDbSymbolTableRecord
100
AcDbLayerTableRecord
  2
SMUSSO
 70
0
 62
7
  6
CONTINUOUS
370
-3
390
F
  0
LAYER
  5
20E
100
AcDbSymbolTableRecord
100
AcDbLayerTableRecord
  2
SNAPLINE
 70
0
 62
7
  6
CONTINUOUS
370
-3
390
F
  0
LAYER
  5
20F
100
AcDbSymbolTableRecord
100
AcDbLayerTableRecord
  2
SUPERFICI
 70
0
 62
7
  6
CONTINUOUS
370
-3
390
F
  0
LAYER
  5
210
100
AcDbSymbolTableRecord
100
AcDbLayerTableRecord
  2
TRASH
 70
0
 62
7
  6
CONTINUOUS
370
-3
390
F
  0
ENDTAB
  0
TABLE
  2
STYLE
  5
3
100
AcDbSymbolTable
 70
1
  0
STYLE
  5
11
100
AcDbSymbolTableRecord
100
AcDbTextStyleTableRecord
  2
STANDARD
 70
0
 40
0.0
 41
0.8
 50
0.0
 71
0
 42
0.2
  3
txt
  4

  0
STYLE
  5
211
100
AcDbSymbolTableRecord
100
AcDbTextStyleTableRecord
  2
TEXTSTYLE_1
 70
0
 40
0.0
 41
0.8
 50
0.0
 71
0
 42
0.2
  3
gdt
  4

  0
ENDTAB
  0
TABLE
  2
VIEW
  5
6
100
AcDbSymbolTable
 70
0
  0
ENDTAB
  0
TABLE
  2
UCS
  5
7
100
AcDbSymbolTable
 70
0
  0
ENDTAB
  0
TABLE
  2
APPID
  5
9
100
AcDbSymbolTable
 70
1
  0
APPID
  5
212
100
AcDbSymbolTableRecord
100
AcDbRegAppTableRecord
  2
ACAD
 70
0
  0
ENDTAB
  0
TABLE
  2
BLOCK_RECORD
  5
1
100
AcDbSymbolTable
 70
0
  0
BLOCK_RECORD
  5
213
100
AcDbSymbolTableRecord
100
AcDbBlockTableRecord
  2
*Model_Space
  0
BLOCK_RECORD
  5
214
100
AcDbSymbolTableRecord
100
AcDbBlockTableRecord
  2
*Paper_Space
  0
BLOCK_RECORD
  5
215
100
AcDbSymbolTableRecord
100
AcDbBlockTableRecord
  2
_FILLED
  0
BLOCK_RECORD
  5
216
100
AcDbSymbolTableRecord
100
AcDbBlockTableRecord
  2
*D0
  0
BLOCK_RECORD
  5
217
100
AcDbSymbolTableRecord
100
AcDbBlockTableRecord
  2
*D1
  0
BLOCK_RECORD
  5
218
100
AcDbSymbolTableRecord
100
AcDbBlockTableRecord
  2
*D2
  0
ENDTAB
  0
TABLE
  2
DIMSTYLE
  5
A
100
AcDbSymbolTable
 70
1
100
AcDbDimStyleTable
 71
0
  0
DIMSTYLE
105
219
100
AcDbSymbolTableRecord
100
AcDbDimStyleTableRecord
  2
STANDARD
 70
0
  3

  4

 40
1.0
 41
3.0
 42
0.5
 43
0.38
 44
1.5
 45
0.0
 46
0.0
 47
0.01
 48
0.01
140
3.0
141
0.09
142
0.0
143
25.4
144
1.0
145
0.0
146
1.0
147
0.625
 71
1
 72
0
 73
0
 74
0
 75
0
 76
0
 77
1
 78
8
 79
2
170
0
171
1
172
0
173
0
174
0
175
0
176
0
177
0
178
0
270
2
179
2
271
2
272
2
273
2
274
2
275
0
280
0
281
0
282
0
283
1
284
8
285
0
286
0
287
3
288
0
340
11
278
44
341
215
342
215
343
215
344
215
  0
DIMSTYLE
105
21A
100
AcDbSymbolTableRecord
100
AcDbDimStyleTableRecord
  2
DIMSTYLE_1
 70
0
  3

  4

 40
1.0
 41
3.0
 42
0.5
 43
0.38
 44
1.5
 45
0.0
 46
0.0
 47
0.0
 48
0.0
140
3.0
141
0.09
142
0.0
143
25.4
144
1.0
145
0.0
146
1.0
147
0.75
 71
0
 72
0
 73
0
 74
0
 75
0
 76
0
 77
1
 78
8
 79
2
170
0
171
1
172
0
173
0
174
0
175
0
176
0
177
0
178
0
270
2
179
2
271
2
272
2
273
2
274
2
275
0
280
0
281
0
282
0
283
1
284
8
285
0
286
0
287
3
288
0
340
11
278
44
341
215
342
215
343
215
344
215
  0
DIMSTYLE
105
21B
100
AcDbSymbolTableRecord
100
AcDbDimStyleTableRecord
  2
DIMSTYLE_2
 70
0
  3

  4

 40
1.0
 41
3.0
 42
0.5
 43
0.38
 44
1.5
 45
0.0
 46
0.0
 47
0.0
 48
0.0
140
3.0
141
0.09
142
0.0
143
25.4
144
1.0
145
0.0
146
1.0
147
0.75
 71
0
 72
0
 73
0
 74
0
 75
0
 76
0
 77
1
 78
8
 79
2
170
0
171
1
172
0
173
0
174
0
175
0
176
0
177
0
178
0
270
2
179
2
271
1
272
1
273
2
274
2
275
0
280
0
281
0
282
0
283
1
284
8
285
0
286
0
287
3
288
0
340
11
278
44
341
215
342
215
343
215
344
215
  0
ENDTAB
  0
ENDSEC
  0
SECTION
  2
BLOCKS
  0
BLOCK
  5
20
100
AcDbEntity
  8
0
100
AcDbBlockBegin
  2
*Model_Space
 70
0
 10
0.0
 20
0.0
 30
0.0
  3
*Model_Space
  1

  0
ENDBLK
  5
21
100
AcDbEntity
  8
0
100
AcDbBlockEnd
  0
BLOCK
  5
1C
100
AcDbEntity
  8
0
100
AcDbBlockBegin
  2
*Paper_Space
 70
0
 10
0.0
 20
0.0
 30
0.0
  3
*Paper_Space
  1

  0
ENDBLK
  5
1D
100
AcDbEntity
  8
0
100
AcDbBlockEnd
  0
BLOCK
  5
21C
100
AcDbEntity
  8
0
100
AcDbBlockBegin
  2
_FILLED
 70
64
 10
0.0
 20
0.0
  3
_FILLED
  1

  0
SOLID
  5
21D
100
AcDbEntity
  8
0
  6
BYBLOCK
 62
0
100
AcDbTrace
 10
0.0
 20
0.0
 11
-1.0
 21
0.3166666667
 12
-1.0
 22
-0.3166666667
 13
-1.0
 23
-0.3166666667
  0
ENDBLK
  5
21E
100
AcDbEntity
  8
0
  6
BYBLOCK
 62
0
100
AcDbBlockEnd
  0
BLOCK
  5
21F
100
AcDbEntity
  8
0
100
AcDbBlockBegin
 62
7
  6
CONTINUOUS
  2
*D0
 70
65
 10
0.0
 20
0.0
  3
*D0
  1

  0
LINE
  5
220
100
AcDbEntity
  8
0
100
AcDbLine
 62
7
  6
CONTINUOUS
 10
-11.5731019737
 20
22.9641112512
 11
-11.5731019737
 21
36.0438656974
  0
LINE
  5
221
100
AcDbEntity
  8
0
100
AcDbLine
 62
7
  6
CONTINUOUS
 10
10.6268980263
 20
22.9641112512
 11
10.6268980263
 21
36.0438656974
  0
LINE
  5
222
100
AcDbEntity
  8
0
100
AcDbLine
 62
7
  6
CONTINUOUS
 10
-11.5731019737
 20
34.5438656974
 11
-0.4731019737
 21
34.5438656974
  0
LINE
  5
223
100
AcDbEntity
  8
0
100
AcDbLine
 62
7
  6
CONTINUOUS
 10
10.6268980263
 20
34.5438656974
 11
-0.4731019737
 21
34.5438656974
  0
INSERT
  5
224
100
AcDbEntity
  8
0
100
AcDbBlockReference
 62
7
  6
CONTINUOUS
  2
_FILLED
 10
-11.5731019737
 20
34.5438656974
 41
3.0
 42
3.0
 43
3.0
 50
180.0
  0
INSERT
  5
225
100
AcDbEntity
  8
0
100
AcDbBlockReference
 62
7
  6
CONTINUOUS
  2
_FILLED
 10
10.6268980263
 20
34.5438656974
 41
3.0
 42
3.0
 43
3.0
  0
ENDBLK
  5
226
100
AcDbEntity
  8
0
  6
BYBLOCK
 62
0
100
AcDbBlockEnd
  0
BLOCK
  5
227
100
AcDbEntity
  8
0
100
AcDbBlockBegin
 62
7
  6
CONTINUOUS
  2
*D1
 70
65
 10
0.0
 20
0.0
  3
*D1
  1

  0
LINE
  5
228
100
AcDbEntity
  8
0
100
AcDbLine
 62
7
  6
CONTINUOUS
 10
10.5991989305
 20
26.5020670666
 11
20.1510401363
 21
26.5020670666
  0
LINE
  5
229
100
AcDbEntity
  8
0
100
AcDbLine
 62
7
  6
CONTINUOUS
 10
10.5991989305
 20
-26.2421920666
 11
20.1510401363
 21
-26.2421920666
  0
LINE
  5
22A
100
AcDbEntity
  8
0
100
AcDbLine
 62
7
  6
CONTINUOUS
 10
18.6510401363
 20
26.5020670666
 11
18.6510401363
 21
0.1299375
  0
LINE
  5
22B
100
AcDbEntity
  8
0
100
AcDbLine
 62
7
  6
CONTINUOUS
 10
18.6510401363
 20
-26.2421920666
 11
18.6510401363
 21
0.1299375
  0
INSERT
  5
22C
100
AcDbEntity
  8
0
100
AcDbBlockReference
 62
7
  6
CONTINUOUS
  2
_FILLED
 10
18.6510401363
 20
26.5020670666
 41
3.0
 42
3.0
 43
3.0
 50
90.0
  0
INSERT
  5
22D
100
AcDbEntity
  8
0
100
AcDbBlockReference
 62
7
  6
CONTINUOUS
  2
_FILLED
 10
18.6510401363
 20
-26.2421920666
 41
3.0
 42
3.0
 43
3.0
 50
270.0
  0
ENDBLK
  5
22E
100
AcDbEntity
  8
0
  6
BYBLOCK
 62
0
100
AcDbBlockEnd
  0
BLOCK
  5
22F
100
AcDbEntity
  8
0
100
AcDbBlockBegin
 62
7
  6
CONTINUOUS
  2
*D2
 70
65
 10
0.0
 20
0.0
  3
*D2
  1

  0
LINE
  5
230
100
AcDbEntity
  8
0
100
AcDbLine
 62
7
  6
CONTINUOUS
 10
-29.8359440789
 20
22.9641112512
 11
-29.8359440789
 21
36.0149705056
  0
LINE
  5
231
100
AcDbEntity
  8
0
100
AcDbLine
 62
7
  6
CONTINUOUS
 10
-33.6359440789
 20
26.4433525626
 11
-33.6359440789
 21
36.0149705056
  0
LINE
  5
232
100
AcDbEntity
  8
0
100
AcDbLine
 62
7
  6
CONTINUOUS
 10
-29.8359440789
 20
34.5149705056
 11
-18.1527512407
 21
34.5149705056
  0
LINE
  5
233
100
AcDbEntity
  8
0
100
AcDbLine
 62
7
  6
CONTINUOUS
 10
-18.1527512407
 20
34.5149705056
 11
-31.7359440789
 21
34.5149705056
  0
LINE
  5
234
100
AcDbEntity
  8
0
100
AcDbLine
 62
7
  6
CONTINUOUS
 10
-33.6359440789
 20
34.5149705056
 11
-37.6359440789
 21
34.5149705056
  0
LINE
  5
235
100
AcDbEntity
  8
0
100
AcDbLine
 62
7
  6
CONTINUOUS
 10
-37.6359440789
 20
34.5149705056
 11
-31.7359440789
 21
34.5149705056
  0
INSERT
  5
236
100
AcDbEntity
  8
0
100
AcDbBlockReference
 62
7
  6
CONTINUOUS
  2
_FILLED
 10
-29.8359440789
 20
34.5149705056
 41
3.0
 42
3.0
 43
3.0
 50
180.0
  0
INSERT
  5
237
100
AcDbEntity
  8
0
100
AcDbBlockReference
 62
7
  6
CONTINUOUS
  2
_FILLED
 10
-33.6359440789
 20
34.5149705056
 41
3.0
 42
3.0
 43
3.0
  0
ENDBLK
  5
238
100
AcDbEntity
  8
0
  6
BYBLOCK
 62
0
100
AcDbBlockEnd
  0
ENDSEC
  0
SECTION
  2
ENTITIES
  0
DIMENSION
  5
239
100
AcDbEntity
  8
0
100
AcDbDimension
 62
7
  6
CONTINUOUS
  2
*D0
 10
10.6268980263
 20
34.5438656974
 11
-4.8659591165
 21
34.5438656974
 70
160
 71
2
 72
2
 41
0.9
 42
22.2
  3
DIMSTYLE_1
100
AcDbAlignedDimension
 13
-11.5731019737
 23
22.4641112512
 14
10.6268980263
 24
22.4641112512
100
AcDbRotatedDimension
  0
DIMENSION
  5
23A
100
AcDbEntity
  8
0
100
AcDbDimension
 62
7
  6
CONTINUOUS
  2
*D1
 10
18.6510401363
 20
-26.2421920666
 11
18.6510401363
 21
-4.1557767857
 70
160
 71
2
 72
2
 41
0.9
 42
52.7442591333
  3
DIMSTYLE_2
100
AcDbAlignedDimension
 13
10.0991989305
 23
26.5020670666
 14
10.0991989305
 24
-26.2421920666
 50
270.0
100
AcDbRotatedDimension
  0
DIMENSION
  5
23B
100
AcDbEntity
  8
0
100
AcDbDimension
 62
7
  6
CONTINUOUS
  2
*D2
 10
-33.6359440789
 20
34.5149705056
 11
-24.367036955
 21
34.5149705056
 70
160
 71
1
 72
2
 41
0.9
 42
3.8
  3
DIMSTYLE_1
100
AcDbAlignedDimension
 13
-29.8359440789
 23
22.4641112512
 14
-33.6359440789
 24
25.9433525626
 50
180.0
100
AcDbRotatedDimension
  0
LWPOLYLINE
  5
23C
100
AcDbEntity
  8
ASSI
100
AcDbPolyline
 62
250
  6
CONTINUOUS
 90
16
 70
0
 10
10.0403130889
 20
-26.1833062251
 10
10.0914553514
 20
-26.1806478702
 10
10.1423150039
 20
-26.1727176982
 10
10.1923404775
 20
-26.1595208192
 10
10.241005931
 20
-26.141107552
 10
10.2877231406
 20
-26.1176086012
 10
10.3318636154
 20
-26.0892667262
 10
10.372948698
 20
-26.0563210645
 10
10.4104511542
 20
-26.0191205958
 10
10.4437766653
 20
-25.9782365361
 10
10.472517983
 20
-25.9342346013
 10
10.4964519351
 20
-25.8875326663
 10
10.5153653881
 20
-25.8385679696
 10
10.5290518207
 20
-25.7878482313
 10
10.537342742
 20
-25.7359605723
 10
10.5401417514
 20
-25.6834775626
  0
LWPOLYLINE
  5
23D
100
AcDbEntity
  8
ASSI
100
AcDbPolyline
 62
250
  6
CONTINUOUS
 90
16
 70
0
 10
-10.9865170363
 20
-26.1833062251
 10
-11.0380373926
 20
-26.1806085754
 10
-11.0892065322
 20
-26.1725733892
 10
-11.1394654044
 20
-26.1592251499
 10
-11.1883160048
 20
-26.1406202552
 10
-11.235135616
 20
-26.1169170748
 10
-11.2792153191
 20
-26.0884392443
 10
-11.3200143847
 20
-26.0555503456
 10
-11.3571492347
 20
-26.0185749461
 10
-11.3902238266
 20
-25.9779034843
 10
-11.4188764837
 20
-25.9339682329
 10
-11.4427783323
 20
-25.8872590607
 10
-11.4616550736
 20
-25.8383055944
 10
-11.4752975213
 20
-25.7876531194
 10
-11.48355804
 20
-25.7358536549
 10
-11.4863456987
 20
-25.6834775626
  0
LINE
  5
23E
100
AcDbEntity
  8
ASSI
100
AcDbLine
 62
7
  6
CONTINUOUS
 10
-11.0454028778
 20
-26.2421920666
 11
10.0991989305
 21
-26.2421920666
  0
LINE
  5
23F
100
AcDbEntity
  8
ASSI
100
AcDbLine
 62
250
  6
CONTINUOUS
 10
-10.9865170363
 20
-26.1833062251
 11
10.0403130889
 21
-26.1833062251
  0
LINE
  5
240
100
AcDbEntity
  8
ASSI
100
AcDbLine
 62
250
  6
CONTINUOUS
 10
-11.4863456987
 20
-25.6834775626
 11
10.5401417514
 21
-25.6834775626
  0
LINE
  5
241
100
AcDbEntity
  8
CURVE
100
AcDbLine
 62
250
  6
CONTINUOUS
 10
1.9980650179
 20
-16.4554954423
 11
2.4982928823
 21
-16.4554954423
  0
LINE
  5
242
100
AcDbEntity
  8
CURVE
100
AcDbLine
 62
7
  6
CONTINUOUS
 10
-4.0394261822
 20
16.5766914922
 11
-3.5506093999
 21
17.0655082745
  0
LINE
  5
243
100
AcDbEntity
  8
CURVE
100
AcDbLine
 62
7
  6
CONTINUOUS
 10
-4.4935021576
 20
15.1270091688
 11
-3.2194358731
 21
16.4010754534
  0
LINE
  5
244
100
AcDbEntity
  8
CURVE
100
AcDbLine
 62
7
  6
CONTINUOUS
 10
-1.750654897
 20
17.8698564294
 11
-1.1929550511
 21
18.4275562754
  0
LWPOLYLINE
  5
245
100
AcDbEntity
  8
CURVE
100
AcDbPolyline
 62
250
  6
CONTINUOUS
 90
64
 70
0
 10
-2.5594517996
 20
17.3187789166
 10
-2.4764197491
 20
17.3950998863
 10
-2.3904159758
 20
17.4684375141
 10
-2.3016068352
 20
17.5386714632
 10
-2.2101586831
 20
17.6056813969
 10
-2.1162378752
 20
17.6693469786
 10
-2.020010767
 20
17.7295478717
 10
-1.9216437142
 20
17.7861637394
 10
-1.8213030726
 20
17.8390742451
 10
-1.7191551978
 20
17.8881590521
 10
-1.6153664455
 20
17.9332978237
 10
-1.5075187438
 20
17.9753351495
 10
-1.3982499496
 20
18.0130858854
 10
-1.2876860468
 20
18.0465299012
 10
-1.1759530196
 20
18.075647067
 10
-1.0631768518
 20
18.1004172525
 10
-0.9461205489
 20
18.121359107
 10
-0.8282868188
 20
18.137664776
 10
-0.7098703995
 20
18.1493271122
 10
-0.5910660289
 20
18.156338968
 10
-0.472068445
 20
18.1586931959
 10
-0.3698622029
 20
18.1569936817
 10
-0.2677763463
 20
18.1518598785
 10
-0.1659301359
 20
18.143298236
 10
-0.0644428328
 20
18.1313152038
 10
0.0365663024
 20
18.1159172313
 10
0.1369780087
 20
18.0971107683
 10
0.2338041454
 20
18.0755943166
 10
0.3298630518
 20
18.0508883129
 10
0.4250633361
 20
18.0230113285
 10
0.5193136061
 20
17.9919819348
 10
0.6125224697
 20
17.957818703
 10
0.704598535
 20
17.9205402045
 10
0.8108777219
 20
17.872954998
 10
0.9153242072
 20
17.8212306219
 10
1.0177846476
 20
17.7654759883
 10
1.1181056999
 20
17.7058000097
 10
1.2161340208
 20
17.6423115983
 10
1.3117162671
 20
17.5751196664
 10
1.4046990955
 20
17.5043331265
 10
1.4949291628
 20
17.4300608907
 10
1.5822531258
 20
17.3524118715
 10
1.6665176411
 20
17.271494981
 10
1.747578862
 20
17.1874212718
 10
1.8253253098
 20
17.1003162581
 10
1.8996550767
 20
17.010307668
 10
1.9704662553
 20
16.9175232293
 10
2.0376569378
 20
16.82209067
 10
2.1011252166
 20
16.724137718
 10
2.1607691841
 20
16.6237921012
 10
2.2164869327
 20
16.5211815475
 10
2.2681765546
 20
16.4164337848
 10
2.3157361424
 20
16.3096765411
 10
2.356608933
 20
16.2075812004
 10
2.3937135029
 20
16.1039951282
 10
2.4270236352
 20
15.9990914929
 10
2.4565131132
 20
15.8930434629
 10
2.4821557198
 20
15.7860242064
 10
2.5039252384
 20
15.6782068918
 10
2.5217954521
 20
15.5697646876
 10
2.5357401438
 20
15.460870762
 10
2.5457330969
 20
15.3516982834
 10
2.5517480945
 20
15.2424204202
 10
2.5537589197
 20
15.1332103407
  0
LINE
  5
246
100
AcDbEntity
  8
CURVE
100
AcDbLine
 62
250
  6
CONTINUOUS
 10
2.4982928823
 20
-13.2846295577
 11
1.9980650179
 21
-13.2846295577
  0
LWPOLYLINE
  5
247
100
AcDbEntity
  8
CURVE
100
AcDbPolyline
 62
250
  6
CONTINUOUS
 90
60
 70
0
 10
-3.4658564217
 20
-13.2570687938
 10
-3.4671979905
 20
-13.2564293053
 10
-3.4685686812
 20
-13.2558372398
 10
-3.469966407
 20
-13.2552927296
 10
-3.4713890806
 20
-13.2547959067
 10
-3.4728346152
 20
-13.2543469034
 10
-3.4743009236
 20
-13.2539458517
 10
-3.4757859188
 20
-13.253592884
 10
-3.4772875137
 20
-13.2532881322
 10
-3.4788036213
 20
-13.2530317286
 10
-3.4803321546
 20
-13.2528238053
 10
-3.4818710265
 20
-13.2526644944
 10
-3.4834181499
 20
-13.2525539282
 10
-3.4849714378
 20
-13.2524922388
 10
-3.4865288032
 20
-13.2524795583
 10
-3.488088159
 20
-13.2525160188
 10
-3.4896474182
 20
-13.2526017527
 10
-3.4912044936
 20
-13.2527368919
 10
-3.4927572984
 20
-13.2529215687
 10
-3.4943037454
 20
-13.2531559152
 10
-3.4958417475
 20
-13.2534400635
 10
-3.4973692178
 20
-13.2537741459
 10
-3.4988840692
 20
-13.2541582944
 10
-3.5003842146
 20
-13.2545926413
 10
-3.501867567
 20
-13.2550773187
 10
-3.5033320393
 20
-13.2556124587
 10
-3.5047755445
 20
-13.2561981935
 10
-3.5061959956
 20
-13.2568346552
 10
-3.5075913055
 20
-13.2575219761
 10
-3.5089593871
 20
-13.2582602882
 10
-3.5102981535
 20
-13.2590497237
 10
-3.5116460301
 20
-13.2599171104
 10
-3.5129595705
 20
-13.2608368817
 10
-3.5142378321
 20
-13.2618069165
 10
-3.5154798727
 20
-13.2628250933
 10
-3.5166847495
 20
-13.263889291
 10
-3.5178515202
 20
-13.2649973882
 10
-3.5189792424
 20
-13.2661472636
 10
-3.5200669734
 20
-13.2673367959
 10
-3.5211137709
 20
-13.2685638639
 10
-3.5221186923
 20
-13.2698263462
 10
-3.5230807952
 20
-13.2711221216
 10
-3.5239991371
 20
-13.2724490688
 10
-3.5248727755
 20
-13.2738050664
 10
-3.525700768
 20
-13.2751879933
 10
-3.526482172
 20
-13.276595728
 10
-3.5272160452
 20
-13.2780261493
 10
-3.5279014449
 20
-13.279477136
 10
-3.5285374288
 20
-13.2809465667
 10
-3.5291230543
 20
-13.2824323201
 10
-3.529657379
 20
-13.283932275
 10
-3.5301394603
 20
-13.28544431
 10
-3.5305683559
 20
-13.2869663038
 10
-3.5309431233
 20
-13.2884961353
 10
-3.5312628199
 20
-13.290031683
 10
-3.5315265033
 20
-13.2915708257
 10
-3.5317332309
 20
-13.2931114421
 10
-3.5318820605
 20
-13.2946514109
 10
-3.5319720493
 20
-13.2961886108
 10
-3.532002255
 20
-13.2977209205
  0
LINE
  5
248
100
AcDbEntity
  8
CURVE
100
AcDbLine
 62
250
  6
CONTINUOUS
 10
-0.777303905
 20
-14.5972109376
 11
-3.4658564217
 21
-13.2570687938
  0
LINE
  5
249
100
AcDbEntity
  8
ASSI
100
AcDbLine
 62
7
  6
CONTINUOUS
 10
-11.5726558419
 20
-22.3336457738
 11
-11.5487141507
 21
-25.7458460145
  0
LINE
  5
24A
100
AcDbEntity
  8
ASSI
100
AcDbLine
 62
7
  6
CONTINUOUS
 10
-11.5726558419
 20
22.5935207738
 11
-11.5487141507
 21
26.0057210145
  0
LINE
  5
24B
100
AcDbEntity
  8
CURVE
100
AcDbLine
 62
7
  6
CONTINUOUS
 10
-3.8305501782
 20
14.7943548004
 11
-2.8882623463
 21
15.7366426323
  0
LINE
  5
24C
100
AcDbEntity
  8
CURVE
100
AcDbLine
 62
7
  6
CONTINUOUS
 10
-0.4664921987
 20
18.1584127798
 11
-0.1332262108
 21
18.4916787678
  0
LINE
  5
24D
100
AcDbEntity
  8
CURVE
100
AcDbLine
 62
7
  6
CONTINUOUS
 10
-3.6427626683
 20
13.9865359624
 11
-3.3681188938
 21
14.2611797369
  0
LINE
  5
24E
100
AcDbEntity
  8
CURVE
100
AcDbLine
 62
7
  6
CONTINUOUS
 10
0.40012673
 20
18.0294253606
 11
0.6745901064
 21
18.3038887371
  0
LINE
  5
24F
100
AcDbEntity
  8
CURVE
100
AcDbLine
 62
7
  6
CONTINUOUS
 10
-3.3147788977
 20
13.3189133851
 11
-3.0602420427
 21
13.5734502401
  0
LINE
  5
250
100
AcDbEntity
  8
CURVE
100
AcDbLine
 62
7
  6
CONTINUOUS
 10
-0.5788664051
 20
16.0548258777
 11
0.0147604042
 21
16.648452687
  0
LINE
  5
251
100
AcDbEntity
  8
CURVE
100
AcDbLine
 62
7
  6
CONTINUOUS
 10
1.0870668302
 20
17.720759113
 11
1.3414153213
 21
17.975107604
  0
LWPOLYLINE
  5
252
100
AcDbEntity
  8
CURVE
100
AcDbPolyline
 62
250
  6
CONTINUOUS
 90
61
 70
0
 10
-0.7111580717
 20
-13.2570687938
 10
-0.7125064405
 20
-13.2564330175
 10
-0.7138838636
 20
-13.2558439713
 10
-0.7152882427
 20
-13.255301834
 10
-0.7167174795
 20
-13.2548067846
 10
-0.718169476
 20
-13.2543590022
 10
-0.7196421339
 20
-13.2539586657
 10
-0.721133355
 20
-13.2536059541
 10
-0.722641041
 20
-13.2533010464
 10
-0.7241630938
 20
-13.2530441215
 10
-0.7256974151
 20
-13.2528353585
 10
-0.7272419068
 20
-13.2526749364
 10
-0.7287944706
 20
-13.252563034
 10
-0.7303530084
 20
-13.2524998305
 10
-0.7319154218
 20
-13.2524855048
 10
-0.7334796128
 20
-13.2525202358
 10
-0.735043483
 20
-13.2526042026
 10
-0.7366049343
 20
-13.2527375842
 10
-0.7381618685
 20
-13.2529205595
 10
-0.7397121874
 20
-13.2531533074
 10
-0.7412537927
 20
-13.2534360071
 10
-0.7427845863
 20
-13.2537688375
 10
-0.7443024699
 20
-13.2541519775
 10
-0.7458053453
 20
-13.2545856062
 10
-0.7472911143
 20
-13.2550699025
 10
-0.7487576787
 20
-13.2556050454
 10
-0.7502029403
 20
-13.2561912139
 10
-0.7516248009
 20
-13.256828587
 10
-0.7530211623
 20
-13.2575173437
 10
-0.7543899263
 20
-13.2582576629
 10
-0.7557289946
 20
-13.2590497237
 10
-0.7570268542
 20
-13.2598868723
 10
-0.758292561
 20
-13.2607732365
 10
-0.7595252837
 20
-13.2617068824
 10
-0.7607241912
 20
-13.2626858759
 10
-0.7618884524
 20
-13.263708283
 10
-0.7630172362
 20
-13.2647721697
 10
-0.7641097114
 20
-13.2658756021
 10
-0.765165047
 20
-13.267016646
 10
-0.7661824118
 20
-13.2681933676
 10
-0.7671609748
 20
-13.2694038327
 10
-0.7680999046
 20
-13.2706461075
 10
-0.7689983704
 20
-13.2719182578
 10
-0.7698555408
 20
-13.2732183497
 10
-0.7706705849
 20
-13.2745444492
 10
-0.7714426714
 20
-13.2758946222
 10
-0.7721709693
 20
-13.2772669348
 10
-0.7728546475
 20
-13.2786594529
 10
-0.7734928748
 20
-13.2800702425
 10
-0.77408482
 20
-13.2814973698
 10
-0.7746296522
 20
-13.2829389005
 10
-0.7751265401
 20
-13.2843929007
 10
-0.7755746526
 20
-13.2858574365
 10
-0.7759731586
 20
-13.2873305738
 10
-0.7763212271
 20
-13.2888103786
 10
-0.7766180268
 20
-13.2902949169
 10
-0.7768627266
 20
-13.2917822546
 10
-0.7770544955
 20
-13.2932704579
 10
-0.7771925023
 20
-13.2947575926
 10
-0.7772759158
 20
-13.2962417249
 10
-0.777303905
 20
-13.2977209205
  0
LINE
  5
253
100
AcDbEntity
  8
CURVE
100
AcDbLine
 62
250
  6
CONTINUOUS
 10
1.9980650179
 20
-14.607546224
 11
-0.7111580717
 21
-13.2570687938
  0
LWPOLYLINE
  5
254
100
AcDbEntity
  8
ASSI
100
AcDbPolyline
 62
250
  6
CONTINUOUS
 90
16
 70
0
 10
-11.4863456987
 20
0.8684148069
 10
-11.4835579621
 20
0.8159150803
 10
-11.475276546
 20
0.764009981
 10
-11.461597438
 20
0.7132724956
 10
-11.4426888703
 20
0.664290455
 10
-11.4187570245
 20
0.6175718397
 10
-11.3900143791
 20
0.5735538171
 10
-11.3566825433
 20
0.5326536195
 10
-11.3191695259
 20
0.4954394208
 10
-11.2780735377
 20
0.4624860908
 10
-11.2339237838
 20
0.4341427138
 10
-11.1871988873
 20
0.4106470121
 10
-11.1385293182
 20
0.3922413432
 10
-11.0885043515
 20
0.3790551551
 10
-11.0376497217
 20
0.3711371493
 10
-10.9865170363
 20
0.3684909593
  0
LINE
  5
255
100
AcDbEntity
  8
ASSI
100
AcDbLine
 62
7
  6
CONTINUOUS
 10
-11.5731019737
 20
22.4641112512
 11
-11.5731019737
 21
0.8105846324
  0
LINE
  5
256
100
AcDbEntity
  8
ASSI
100
AcDbLine
 62
7
  6
CONTINUOUS
 10
-11.5731019737
 20
-0.5507096324
 11
-11.5731019737
 21
-22.2042362512
  0
LINE
  5
257
100
AcDbEntity
  8
ASSI
100
AcDbLine
 62
250
  6
CONTINUOUS
 10
-11.4863456987
 20
25.9433525626
 11
-11.4863456987
 21
0.8684148069
  0
LINE
  5
258
100
AcDbEntity
  8
ASSI
100
AcDbLine
 62
250
  6
CONTINUOUS
 10
-11.4863456987
 20
-0.6085398069
 11
-11.4863456987
 21
-25.6834775626
  0
LINE
  5
259
100
AcDbEntity
  8
ASSI
100
AcDbLine
 62
250
  6
CONTINUOUS
 10
-10.9865170363
 20
0.3684909593
 11
-10.9865170363
 21
26.4431812251
  0
LINE
  5
25A
100
AcDbEntity
  8
ASSI
100
AcDbLine
 62
250
  6
CONTINUOUS
 10
-10.9865170363
 20
-0.1086159593
 11
-10.9865170363
 21
-26.1833062251
  0
LWPOLYLINE
  5
25B
100
AcDbEntity
  8
0
100
AcDbPolyline
 62
7
  6
CONTINUOUS
 90
3
 70
0
 43
0.3500000019
 10
0.5626108398
 20
35.5795805664
 10
0.4911860352
 20
35.3652954102
 10
0.3483256836
 20
35.0795800781
  0
LWPOLYLINE
  5
25C
100
AcDbEntity
  8
CURVE
100
AcDbPolyline
 62
250
  6
CONTINUOUS
 90
61
 70
0
 10
-4.7153925542
 20
15.2200267469
 10
-4.7162920261
 20
15.2181387908
 10
-4.7171240013
 20
15.2162095872
 10
-4.7178883332
 20
15.214242105
 10
-4.7185848756
 20
15.2122393127
 10
-4.719213482
 20
15.2102041791
 10
-4.719774006
 20
15.2081396728
 10
-4.7202663011
 20
15.2060487625
 10
-4.7206902209
 20
15.2039344168
 10
-4.7210456191
 20
15.2017996045
 10
-4.7213323491
 20
15.1996472941
 10
-4.7215502646
 20
15.1974804545
 10
-4.7216992192
 20
15.1953020542
 10
-4.7217790664
 20
15.1931150619
 10
-4.7217896597
 20
15.1909224463
 10
-4.7217308529
 20
15.1887271761
 10
-4.7216024995
 20
15.1865322199
 10
-4.721404453
 20
15.1843405464
 10
-4.721136567
 20
15.1821551244
 10
-4.7207986951
 20
15.1799789223
 10
-4.720390691
 20
15.177814909
 10
-4.719912408
 20
15.1756660531
 10
-4.7193637
 20
15.1735353233
 10
-4.7187444203
 20
15.1714256882
 10
-4.7180544227
 20
15.1693401165
 10
-4.7172935606
 20
15.1672815769
 10
-4.7164616877
 20
15.1652530381
 10
-4.7155586576
 20
15.1632574687
 10
-4.7145843237
 20
15.1612978374
 10
-4.7135385398
 20
15.1593771129
 10
-4.7124211594
 20
15.1574982639
 10
-4.7112285151
 20
15.1556580351
 10
-4.7099663917
 20
15.1538640746
 10
-4.7086375222
 20
15.1521175132
 10
-4.7072446399
 20
15.1504194818
 10
-4.7057904779
 20
15.148771111
 10
-4.7042777692
 20
15.1471735317
 10
-4.7027092471
 20
15.1456278748
 10
-4.7010876447
 20
15.144135271
 10
-4.6994156952
 20
15.1426968511
 10
-4.6976961316
 20
15.1413137459
 10
-4.6959316871
 20
15.1399870862
 10
-4.6941250949
 20
15.1387180029
 10
-4.6922790881
 20
15.1375076267
 10
-4.6903963998
 20
15.1363570884
 10
-4.6884797631
 20
15.1352675188
 10
-4.6865319113
 20
15.1342400488
 10
-4.6845555775
 20
15.1332758091
 10
-4.6825534947
 20
15.1323759306
 10
-4.6805283962
 20
15.131541544
 10
-4.678483015
 20
15.1307737801
 10
-4.6764200844
 20
15.1300737698
 10
-4.6743423374
 20
15.1294426438
 10
-4.6722525072
 20
15.128881533
 10
-4.670153327
 20
15.1283915682
 10
-4.6680475298
 20
15.12797388
 10
-4.6659378489
 20
15.1276295995
 10
-4.6638270173
 20
15.1273598573
 10
-4.6617177682
 20
15.1271657842
 10
-4.6596128347
 20
15.1270485112
 10
-4.6575149501
 20
15.1270091688
  0
LINE
  5
25D
100
AcDbEntity
  8
CURVE
100
AcDbLine
 62
250
  6
CONTINUOUS
 10
-3.7311287741
 20
17.1954444982
 11
-4.7153925542
 21
15.2200267469
  0
LINE
  5
25E
100
AcDbEntity
  8
ASSI
100
AcDbLine
 62
250
  6
CONTINUOUS
 10
10.0403130889
 20
26.4431812251
 11
10.0991989305
 21
26.5020670666
  0
LINE
  5
25F
100
AcDbEntity
  8
CURVE
100
AcDbLine
 62
7
  6
CONTINUOUS
 10
-2.8737093492
 20
12.7643765856
 11
-2.6263404306
 21
13.0117455043
  0
LINE
  5
260
100
AcDbEntity
  8
CURVE
100
AcDbLine
 62
7
  6
CONTINUOUS
 10
-1.8973261101
 20
13.7407598247
 11
-1.1215824574
 21
14.5165034774
  0
LINE
  5
261
100
AcDbEntity
  8
CURVE
100
AcDbLine
 62
7
  6
CONTINUOUS
 10
-0.5788664051
 20
15.0592195298
 11
-0.1385832021
 21
15.4995027328
  0
LINE
  5
262
100
AcDbEntity
  8
CURVE
100
AcDbLine
 62
7
  6
CONTINUOUS
 10
-0.0202290022
 20
15.6178569327
 11
0.5562365091
 21
16.194322444
  0
LINE
  5
263
100
AcDbEntity
  8
CURVE
100
AcDbLine
 62
7
  6
CONTINUOUS
 10
1.6491518884
 20
17.2872378232
 11
1.896509871
 21
17.5345958058
  0
LINE
  5
264
100
AcDbEntity
  8
ASSI
100
AcDbLine
 62
250
  6
CONTINUOUS
 10
10.5401417514
 20
25.9433525626
 11
10.6025102033
 21
26.0057210145
  0
LINE
  5
265
100
AcDbEntity
  8
CURVE
100
AcDbLine
 62
7
  6
CONTINUOUS
 10
-2.3268374835
 20
12.3156421034
 11
-2.0727894908
 21
12.5696900961
  0
LINE
  5
266
100
AcDbEntity
  8
CURVE
100
AcDbLine
 62
7
  6
CONTINUOUS
 10
-1.3969940019
 20
13.2454855851
 11
-0.1385832021
 21
14.5038963849
  0
LINE
  5
267
100
AcDbEntity
  8
CURVE
100
AcDbLine
 62
7
  6
CONTINUOUS
 10
0.5203052261
 20
15.162784813
 11
0.6903067717
 21
15.3327863586
  0
LINE
  5
268
100
AcDbEntity
  8
CURVE
100
AcDbLine
 62
7
  6
CONTINUOUS
 10
2.09130392
 20
16.733783507
 11
2.3457238769
 21
16.9882034638
  0
LINE
  5
269
100
AcDbEntity
  8
ASSI
100
AcDbLine
 62
250
  6
CONTINUOUS
 10
10.0991989305
 20
-26.2421920666
 11
10.0403130889
 21
-26.1833062251
  0
LINE
  5
26A
100
AcDbEntity
  8
ASSI
100
AcDbLine
 62
250
  6
CONTINUOUS
 10
10.6025102033
 20
-25.7458460145
 11
10.5401417514
 21
-25.6834775626
  0
LINE
  5
26B
100
AcDbEntity
  8
CURVE
100
AcDbLine
 62
7
  6
CONTINUOUS
 10
-1.6672685474
 20
11.9796046916
 11
-1.3942250236
 21
12.2526482154
  0
LINE
  5
26C
100
AcDbEntity
  8
CURVE
100
AcDbLine
 62
7
  6
CONTINUOUS
 10
2.4082580115
 20
16.0551312506
 11
2.6810440076
 21
16.3279172466
  0
LINE
  5
26D
100
AcDbEntity
  8
CURVE
100
AcDbLine
 62
7
  6
CONTINUOUS
 10
-0.8686759154
 20
11.7825909757
 11
-0.5407692168
 21
12.1104976743
  0
LINE
  5
26E
100
AcDbEntity
  8
CURVE
100
AcDbLine
 62
7
  6
CONTINUOUS
 10
1.9200077536
 20
14.5712746447
 11
2.4819434496
 21
15.1332103407
  0
LINE
  5
26F
100
AcDbEntity
  8
CURVE
100
AcDbLine
 62
7
  6
CONTINUOUS
 10
2.5503110204
 20
15.2015779115
 11
2.8777205978
 21
15.5289874889
  0
LINE
  5
270
100
AcDbEntity
  8
CURVE
100
AcDbLine
 62
7
  6
CONTINUOUS
 10
0.1616598671
 20
11.8173204103
 11
0.6820030682
 21
12.3376636114
  0
LINE
  5
271
100
AcDbEntity
  8
CURVE
100
AcDbLine
 62
7
  6
CONTINUOUS
 10
2.2511810376
 20
13.9068415808
 11
3.4775497975
 21
15.1332103407
  0
LWPOLYLINE
  5
272
100
AcDbEntity
  8
CURVE
100
AcDbPolyline
 62
250
  6
CONTINUOUS
 90
34
 70
0
 10
1.6125588331
 20
12.9455747076
 10
1.5610913009
 20
12.8976111145
 10
1.5084759597
 20
12.8507944026
 10
1.4547454023
 20
12.8051535366
 10
1.3999322212
 20
12.7607174812
 10
1.3440690091
 20
12.7175152012
 10
1.2871883588
 20
12.6755756612
 10
1.2293228628
 20
12.634927826
 10
1.1705051139
 20
12.5956006602
 10
1.1107677046
 20
12.5576231287
 10
1.0501432277
 20
12.5210241961
 10
0.9886642758
 20
12.4858328271
 10
0.9263634417
 20
12.4520779864
 10
0.8632733178
 20
12.4197886388
 10
0.799426497
 20
12.388993749
 10
0.7348555719
 20
12.3597222817
 10
0.6695931351
 20
12.3320032017
 10
0.6054307946
 20
12.3065346269
 10
0.5406857233
 20
12.282569756
 10
0.4753996117
 20
12.2601137319
 10
0.4096141504
 20
12.2391716978
 10
0.3433710301
 20
12.2197487968
 10
0.2767119413
 20
12.2018501721
 10
0.2096785747
 20
12.1854809667
 10
0.1423126207
 20
12.1706463239
 10
0.0746557701
 20
12.1573513867
 10
0.0067497133
 20
12.1456012982
 10
-0.061363859
 20
12.1354012016
 10
-0.1296432561
 20
12.12675624
 10
-0.1980467876
 20
12.1196715565
 10
-0.2665327629
 20
12.1141522943
 10
-0.3350594913
 20
12.1102035965
 10
-0.4035852822
 20
12.1078306062
 10
-0.472068445
 20
12.1070384665
  0
LINE
  5
273
100
AcDbEntity
  8
ASSI
100
AcDbLine
 62
7
  6
CONTINUOUS
 10
-10.5645267577
 20
0.3193121446
 11
-10.5539014023
 21
0.3299375
  0
LINE
  5
274
100
AcDbEntity
  8
CURVE
100
AcDbLine
 62
7
  6
CONTINUOUS
 10
2.5823543216
 20
13.2424085169
 11
3.1657605878
 21
13.8258147831
  0
LINE
  5
275
100
AcDbEntity
  8
ASSI
100
AcDbLine
 62
250
  6
CONTINUOUS
 10
-11.5731019737
 20
0.8105846324
 11
-11.4863456987
 21
0.8684148069
  0
LINE
  5
276
100
AcDbEntity
  8
ASSI
100
AcDbLine
 62
250
  6
CONTINUOUS
 10
-11.0731590811
 20
0.3107369286
 11
-10.9865170363
 21
0.3684909593
  0
LINE
  5
277
100
AcDbEntity
  8
ASSI
100
AcDbLine
 62
250
  6
CONTINUOUS
 10
-11.4863456987
 20
-0.6085398069
 11
-11.5731019737
 21
-0.5507096324
  0
LINE
  5
278
100
AcDbEntity
  8
ASSI
100
AcDbLine
 62
250
  6
CONTINUOUS
 10
-10.9865170363
 20
-0.1086159593
 11
-11.0731590811
 21
-0.0508619286
  0
LINE
  5
279
100
AcDbEntity
  8
ASSI
100
AcDbLine
 62
7
  6
CONTINUOUS
 10
-10.5645267577
 20
-0.0594371446
 11
-10.5539014023
 21
-0.0700625
  0
LWPOLYLINE
  5
27A
100
AcDbEntity
  8
CURVE
100
AcDbPolyline
 62
250
  6
CONTINUOUS
 90
64
 70
0
 10
-3.847917511
 20
15.1270091688
 10
-3.8454546941
 20
15.0053082016
 10
-3.8385366836
 20
14.8835403122
 10
-3.827192939
 20
14.7618977658
 10
-3.81145292
 20
14.6405728282
 10
-3.791346086
 20
14.5197577645
 10
-3.7669018967
 20
14.3996448404
 10
-3.7381498117
 20
14.2804263212
 10
-3.7051192905
 20
14.1622944725
 10
-3.6678397927
 20
14.0454415596
 10
-3.6263407778
 20
13.9300598479
 10
-3.5806517056
 20
13.8163416031
 10
-3.5275060845
 20
13.6974203389
 10
-3.4697672057
 20
13.5807402768
 10
-3.4075481994
 20
13.4664434503
 10
-3.3409621956
 20
13.3546718931
 10
-3.2701223248
 20
13.2455676388
 10
-3.195141717
 20
13.139272721
 10
-3.1161335025
 20
13.0359291732
 10
-3.0332108115
 20
12.9356790292
 10
-2.9464867742
 20
12.8386643224
 10
-2.8560745208
 20
12.7450270866
 10
-2.7620987834
 20
12.654907745
 10
-2.6647187799
 20
12.5684289944
 10
-2.5641051799
 20
12.485712069
 10
-2.4604286532
 20
12.406878203
 10
-2.3538598693
 20
12.3320486307
 10
-2.244569498
 20
12.2613445863
 10
-2.1327282088
 20
12.1948873041
 10
-2.0185066713
 20
12.1327980184
 10
-1.9020755553
 20
12.0751979633
 10
-1.7836055303
 20
12.0222083731
 10
-1.6809691414
 20
11.9806962971
 10
-1.5770722985
 20
11.9426539128
 10
-1.4720164676
 20
11.9081015703
 10
-1.3659031148
 20
11.8770596198
 10
-1.258833706
 20
11.8495484115
 10
-1.1509097073
 20
11.8255882956
 10
-1.0389858817
 20
11.8046444258
 10
-0.9263971332
 20
11.7874960727
 10
-0.8132772386
 20
11.7741511832
 10
-0.6997599746
 20
11.7646177042
 10
-0.5859791178
 20
11.7589035825
 10
-0.472068445
 20
11.7570167652
 10
-0.3450504978
 20
11.7594337943
 10
-0.2182273117
 20
11.7666167098
 10
-0.0917887223
 20
11.7785618919
 10
0.0340754348
 20
11.7952657207
 10
0.1591753241
 20
11.8167245763
 10
0.279836337
 20
11.8421261202
 10
0.399472033
 20
11.8719935266
 10
0.5179580417
 20
11.9063059705
 10
0.6351699928
 20
11.9450426273
 10
0.7509835159
 20
11.9881826722
 10
0.8625945384
 20
12.0345202554
 10
0.9725903774
 20
12.0849198991
 10
1.0808078023
 20
12.1392649905
 10
1.1870835828
 20
12.1974389168
 10
1.2912544886
 20
12.2593250653
 10
1.393157289
 20
12.3248068232
 10
1.4926287539
 20
12.3937675778
 10
1.5895056527
 20
12.4660907162
 10
1.683624755
 20
12.5416596258
 10
1.7748228304
 20
12.6203576938
  0
LWPOLYLINE
  5
27B
100
AcDbEntity
  8
CURVE
100
AcDbPolyline
 62
250
  6
CONTINUOUS
 90
60
 70
0
 10
-3.532002255
 20
-16.4417150604
 10
-3.5319720493
 20
-16.4432473701
 10
-3.5318820605
 20
-16.44478457
 10
-3.5317332309
 20
-16.4463245388
 10
-3.5315265033
 20
-16.4478651552
 10
-3.5312628199
 20
-16.4494042979
 10
-3.5309431233
 20
-16.4509398456
 10
-3.5305683559
 20
-16.4524696771
 10
-3.5301394603
 20
-16.4539916709
 10
-3.529657379
 20
-16.4555037059
 10
-3.5291230543
 20
-16.4570036608
 10
-3.5285374288
 20
-16.4584894142
 10
-3.5279014449
 20
-16.4599588449
 10
-3.5272160452
 20
-16.4614098316
 10
-3.526482172
 20
-16.4628402529
 10
-3.525700768
 20
-16.4642479876
 10
-3.5248727755
 20
-16.4656309145
 10
-3.5239991371
 20
-16.4669869121
 10
-3.5230807952
 20
-16.4683138593
 10
-3.5221186923
 20
-16.4696096347
 10
-3.5211137709
 20
-16.470872117
 10
-3.5200669734
 20
-16.472099185
 10
-3.5189792424
 20
-16.4732887173
 10
-3.5178515202
 20
-16.4744385927
 10
-3.5166847495
 20
-16.4755466899
 10
-3.5154798727
 20
-16.4766108876
 10
-3.5142378321
 20
-16.4776290644
 10
-3.5129595705
 20
-16.4785990992
 10
-3.5116460301
 20
-16.4795188705
 10
-3.5102981535
 20
-16.4803862572
 10
-3.5089593871
 20
-16.4811756927
 10
-3.5075913055
 20
-16.4819140048
 10
-3.5061959956
 20
-16.4826013257
 10
-3.5047755445
 20
-16.4832377874
 10
-3.5033320393
 20
-16.4838235222
 10
-3.501867567
 20
-16.4843586622
 10
-3.5003842146
 20
-16.4848433396
 10
-3.4988840692
 20
-16.4852776865
 10
-3.4973692178
 20
-16.485661835
 10
-3.4958417475
 20
-16.4859959174
 10
-3.4943037454
 20
-16.4862800657
 10
-3.4927572984
 20
-16.4865144122
 10
-3.4912044936
 20
-16.486699089
 10
-3.4896474182
 20
-16.4868342282
 10
-3.488088159
 20
-16.4869199621
 10
-3.4865288032
 20
-16.4869564227
 10
-3.4849714378
 20
-16.4869437421
 10
-3.4834181499
 20
-16.4868820527
 10
-3.4818710265
 20
-16.4867714865
 10
-3.4803321546
 20
-16.4866121756
 10
-3.4788036213
 20
-16.4864042523
 10
-3.4772875137
 20
-16.4861478487
 10
-3.4757859188
 20
-16.4858430969
 10
-3.4743009236
 20
-16.4854901292
 10
-3.4728346152
 20
-16.4850890775
 10
-3.4713890806
 20
-16.4846400742
 10
-3.469966407
 20
-16.4841432513
 10
-3.4685686812
 20
-16.4835987411
 10
-3.4671979905
 20
-16.4830066756
 10
-3.4658564217
 20
-16.4823671871
  0
LINE
  5
27C
100
AcDbEntity
  8
CURVE
100
AcDbLine
 62
250
  6
CONTINUOUS
 10
-3.532002255
 20
-13.2977209205
 11
-3.532002255
 21
-16.4417150604
  0
LWPOLYLINE
  5
27D
100
AcDbEntity
  8
CURVE
100
AcDbPolyline
 62
250
  6
CONTINUOUS
 90
60
 70
0
 10
3.7709111546
 20
15.0395037435
 10
3.7718457497
 20
15.0414679531
 10
3.7727082804
 20
15.0434761442
 10
3.7734985586
 20
15.0455250476
 10
3.7742163963
 20
15.0476113942
 10
3.7748616053
 20
15.0497319148
 10
3.7754339975
 20
15.0518833402
 10
3.7759333848
 20
15.0540624011
 10
3.7763595792
 20
15.0562658286
 10
3.7767123924
 20
15.0584903532
 10
3.7769916365
 20
15.060732706
 10
3.7771971233
 20
15.0629896177
 10
3.7773286646
 20
15.065257819
 10
3.7773860725
 20
15.067534041
 10
3.7773691588
 20
15.0698150143
 10
3.7772777354
 20
15.0720974697
 10
3.7771116142
 20
15.0743781382
 10
3.776870607
 20
15.0766537506
 10
3.7765545259
 20
15.0789210375
 10
3.7761631826
 20
15.08117673
 10
3.7756963891
 20
15.0834175587
 10
3.7751539573
 20
15.0856402546
 10
3.774535699
 20
15.0878415484
 10
3.7738414263
 20
15.0900181709
 10
3.7730709509
 20
15.092166853
 10
3.7722240847
 20
15.0942843256
 10
3.7713006398
 20
15.0963673193
 10
3.7703004279
 20
15.0984125651
 10
3.7692232609
 20
15.1004167938
 10
3.7680689508
 20
15.1023767361
 10
3.7668772355
 20
15.1042307372
 10
3.7656156562
 20
15.1060388989
 10
3.7642869489
 20
15.1078000275
 10
3.762893849
 20
15.1095129295
 10
3.7614390922
 20
15.1111764111
 10
3.7599254144
 20
15.1127892787
 10
3.758355551
 20
15.1143503385
 10
3.7567322378
 20
15.115858397
 10
3.7550582105
 20
15.1173122604
 10
3.7533362048
 20
15.1187107351
 10
3.7515689562
 20
15.1200526274
 10
3.7497592005
 20
15.1213367436
 10
3.7479096734
 20
15.12256189
 10
3.7460231106
 20
15.1237268731
 10
3.7441022476
 20
15.124830499
 10
3.7421498202
 20
15.1258715742
 10
3.7401685641
 20
15.126848905
 10
3.7381612149
 20
15.1277612977
 10
3.7361305083
 20
15.1286075585
 10
3.73407918
 20
15.129386494
 10
3.7320099657
 20
15.1300969103
 10
3.7299256009
 20
15.1307376138
 10
3.7278288215
 20
15.1313074108
 10
3.725722363
 20
15.1318051078
 10
3.7236089612
 20
15.1322295109
 10
3.7214913517
 20
15.1325794265
 10
3.7193722702
 20
15.1328536609
 10
3.7172544524
 20
15.1330510206
 10
3.7151406339
 20
15.1331703117
 10
3.7130335504
 20
15.1332103407
  0
LINE
  5
27E
100
AcDbEntity
  8
CURVE
100
AcDbLine
 62
250
  6
CONTINUOUS
 10
2.7863028649
 20
13.0647750114
 11
3.7709111546
 21
15.0395037435
  0
LWPOLYLINE
  5
27F
100
AcDbEntity
  8
CURVE
100
AcDbPolyline
 62
250
  6
CONTINUOUS
 90
61
 70
0
 10
-0.777303905
 20
-16.4417150604
 10
-0.7772759158
 20
-16.443194256
 10
-0.7771925023
 20
-16.4446783883
 10
-0.7770544955
 20
-16.446165523
 10
-0.7768627266
 20
-16.4476537263
 10
-0.7766180268
 20
-16.449141064
 10
-0.7763212271
 20
-16.4506256023
 10
-0.7759731586
 20
-16.4521054071
 10
-0.7755746526
 20
-16.4535785444
 10
-0.7751265401
 20
-16.4550430802
 10
-0.7746296522
 20
-16.4564970804
 10
-0.77408482
 20
-16.4579386111
 10
-0.7734928748
 20
-16.4593657384
 10
-0.7728546475
 20
-16.460776528
 10
-0.7721709693
 20
-16.4621690461
 10
-0.7714426714
 20
-16.4635413587
 10
-0.7706705849
 20
-16.4648915317
 10
-0.7698555408
 20
-16.4662176312
 10
-0.7689983704
 20
-16.4675177231
 10
-0.7680999046
 20
-16.4687898734
 10
-0.7671609748
 20
-16.4700321482
 10
-0.7661824118
 20
-16.4712426133
 10
-0.765165047
 20
-16.4724193349
 10
-0.7641097114
 20
-16.4735603788
 10
-0.7630172362
 20
-16.4746638112
 10
-0.7618884524
 20
-16.4757276979
 10
-0.7607241912
 20
-16.476750105
 10
-0.7595252837
 20
-16.4777290985
 10
-0.758292561
 20
-16.4786627444
 10
-0.7570268542
 20
-16.4795491086
 10
-0.7557289946
 20
-16.4803862572
 10
-0.7543899263
 20
-16.481178318
 10
-0.7530211623
 20
-16.4819186372
 10
-0.7516248009
 20
-16.4826073939
 10
-0.7502029403
 20
-16.483244767
 10
-0.7487576787
 20
-16.4838309355
 10
-0.7472911143
 20
-16.4843660784
 10
-0.7458053453
 20
-16.4848503747
 10
-0.7443024699
 20
-16.4852840034
 10
-0.7427845863
 20
-16.4856671434
 10
-0.7412537927
 20
-16.4859999738
 10
-0.7397121874
 20
-16.4862826735
 10
-0.7381618685
 20
-16.4865154214
 10
-0.7366049343
 20
-16.4866983967
 10
-0.735043483
 20
-16.4868317783
 10
-0.7334796128
 20
-16.4869157451
 10
-0.7319154218
 20
-16.4869504761
 10
-0.7303530084
 20
-16.4869361504
 10
-0.7287944706
 20
-16.4868729469
 10
-0.7272419068
 20
-16.4867610445
 10
-0.7256974151
 20
-16.4866006224
 10
-0.7241630938
 20
-16.4863918594
 10
-0.722641041
 20
-16.4861349345
 10
-0.721133355
 20
-16.4858300268
 10
-0.7196421339
 20
-16.4854773152
 10
-0.718169476
 20
-16.4850769787
 10
-0.7167174795
 20
-16.4846291963
 10
-0.7152882427
 20
-16.4841341469
 10
-0.7138838636
 20
-16.4835920096
 10
-0.7125064405
 20
-16.4830029634
 10
-0.7111580717
 20
-16.4823671871
  0
LINE
  5
280
100
AcDbEntity
  8
CURVE
100
AcDbLine
 62
250
  6
CONTINUOUS
 10
-0.777303905
 20
-13.2977209205
 11
-0.777303905
 21
-14.5972109376
  0
LINE
  5
281
100
AcDbEntity
  8
CURVE
100
AcDbLine
 62
250
  6
CONTINUOUS
 10
-0.777303905
 20
-15.1429140624
 11
-0.777303905
 21
-16.4417150604
  0
LINE
  5
282
100
AcDbEntity
  8
CURVE
100
AcDbLine
 62
250
  6
CONTINUOUS
 10
-0.5788664051
 20
16.9577329097
 11
-0.5788664051
 21
14.4979347332
  0
LWPOLYLINE
  5
283
100
AcDbEntity
  8
ASSI
100
AcDbPolyline
 62
250
  6
CONTINUOUS
 90
16
 70
0
 10
10.0403130889
 20
0.3684909593
 10
10.0925442766
 20
0.3712518695
 10
10.1442035409
 20
0.3794566358
 10
10.1947252211
 20
0.3930154174
 10
10.2435561128
 20
0.4117797476
 10
10.2901615252
 20
0.43554416
 10
10.3340311364
 20
0.464048438
 10
10.3746845812
 20
0.4969804643
 10
10.4116767106
 20
0.5339796384
 10
10.4446024667
 20
0.574640825
 10
10.4731013175
 20
0.6185187906
 10
10.4968612052
 20
0.6651330783
 10
10.5156219627
 20
0.7139732691
 10
10.5291781627
 20
0.7645045704
 10
10.5373813668
 20
0.8161736725
 10
10.5401417514
 20
0.8684148069
  0
LINE
  5
284
100
AcDbEntity
  8
ASSI
100
AcDbLine
 62
250
  6
CONTINUOUS
 10
-11.4863456987
 20
-0.6085398069
 11
10.5401417514
 21
-0.6085398069
  0
LINE
  5
285
100
AcDbEntity
  8
ASSI
100
AcDbLine
 62
250
  6
CONTINUOUS
 10
10.0403130889
 20
-0.1086159593
 11
-10.9865170363
 21
-0.1086159593
  0
LINE
  5
286
100
AcDbEntity
  8
ASSI
100
AcDbLine
 62
7
  6
CONTINUOUS
 10
-10.5539014023
 20
-0.0700625
 11
9.6076974549
 21
-0.0700625
  0
LINE
  5
287
100
AcDbEntity
  8
ASSI
100
AcDbLine
 62
7
  6
CONTINUOUS
 10
-11.0731590811
 20
-0.0508619286
 11
-11.0644506052
 21
-0.0508619286
  0
LINE
  5
288
100
AcDbEntity
  8
ASSI
100
AcDbLine
 62
7
  6
CONTINUOUS
 10
10.1182466579
 20
-0.0508619286
 11
10.1269551337
 21
-0.0508619286
  0
LINE
  5
289
100
AcDbEntity
  8
ASSI
100
AcDbLine
 62
7
  6
CONTINUOUS
 10
10.1269551337
 20
0.3107369286
 11
10.1182466579
 21
0.3107369286
  0
LINE
  5
28A
100
AcDbEntity
  8
ASSI
100
AcDbLine
 62
7
  6
CONTINUOUS
 10
-11.0644506052
 20
0.3107369286
 11
-11.0731590811
 21
0.3107369286
  0
LINE
  5
28B
100
AcDbEntity
  8
ASSI
100
AcDbLine
 62
7
  6
CONTINUOUS
 10
9.6076974549
 20
0.3299375
 11
-10.5539014023
 21
0.3299375
  0
LINE
  5
28C
100
AcDbEntity
  8
ASSI
100
AcDbLine
 62
250
  6
CONTINUOUS
 10
-10.9865170363
 20
0.3684909593
 11
10.0403130889
 21
0.3684909593
  0
LWPOLYLINE
  5
28D
100
AcDbEntity
  8
CURVE
100
AcDbPolyline
 62
250
  6
CONTINUOUS
 90
37
 70
0
 10
0.6903067717
 20
16.0413375106
 10
0.6902779056
 20
16.0433919644
 10
0.6901918419
 20
16.0454530286
 10
0.690049382
 20
16.047519122
 10
0.6898513276
 20
16.0495886633
 10
0.6895984803
 20
16.0516600713
 10
0.6892916416
 20
16.0537317647
 10
0.6889316132
 20
16.0558021623
 10
0.6885191966
 20
16.0578696829
 10
0.6880551935
 20
16.0599327452
 10
0.6875404054
 20
16.061989768
 10
0.6869756339
 20
16.0640391701
 10
0.6863616806
 20
16.0660793701
 10
0.6856993471
 20
16.068108787
 10
0.684989435
 20
16.0701258395
 10
0.6842327459
 20
16.0721289462
 10
0.6834300814
 20
16.074116526
 10
0.682582243
 20
16.0760869977
 10
0.6816900324
 20
16.0780387799
 10
0.6807542512
 20
16.0799702915
 10
0.6797757009
 20
16.0818799513
 10
0.6787551831
 20
16.0837661779
 10
0.6776934995
 20
16.0856273902
 10
0.6765914515
 20
16.0874620069
 10
0.6754498409
 20
16.0892684468
 10
0.6742694692
 20
16.0910451286
 10
0.6730511379
 20
16.0927904711
 10
0.6717956488
 20
16.0945028931
 10
0.6705038033
 20
16.0961808133
 10
0.6691764031
 20
16.0978226505
 10
0.6678142497
 20
16.0994268235
 10
0.6664181448
 20
16.100991751
 10
0.66498889
 20
16.1025158518
 10
0.6635272867
 20
16.1039975446
 10
0.6620341367
 20
16.1054352483
 10
0.6605102416
 20
16.1068273815
 10
0.6589564028
 20
16.108172363
  0
LINE
  5
28E
100
AcDbEntity
  8
CURVE
100
AcDbLine
 62
250
  6
CONTINUOUS
 10
-0.1385832021
 20
13.9818594295
 11
-0.1385832021
 21
15.717498535
  0
LINE
  5
28F
100
AcDbEntity
  8
CURVE
100
AcDbLine
 62
250
  6
CONTINUOUS
 10
0.6903067717
 20
15.2090024414
 11
0.6903067717
 21
16.0413375106
  0
LWPOLYLINE
  5
290
100
AcDbEntity
  8
ASSI
100
AcDbPolyline
 62
250
  6
CONTINUOUS
 90
16
 70
0
 10
-10.9865170363
 20
-0.1086159593
 10
-11.0387482239
 20
-0.1113768695
 10
-11.0904074883
 20
-0.1195816358
 10
-11.1409291685
 20
-0.1331404174
 10
-11.1897600601
 20
-0.1519047476
 10
-11.2363654725
 20
-0.17566916
 10
-11.2802350838
 20
-0.204173438
 10
-11.3208885286
 20
-0.2371054643
 10
-11.357880658
 20
-0.2741046384
 10
-11.3908064141
 20
-0.314765825
 10
-11.4193052649
 20
-0.3586437906
 10
-11.4430651526
 20
-0.4052580783
 10
-11.4618259101
 20
-0.4540982691
 10
-11.4753821101
 20
-0.5046295704
 10
-11.4835853142
 20
-0.5562986725
 10
-11.4863456987
 20
-0.6085398069
  0
LINE
  5
291
100
AcDbEntity
  8
ASSI
100
AcDbLine
 62
250
  6
CONTINUOUS
 10
-11.4863456987
 20
0.8684148069
 11
10.5401417514
 21
0.8684148069
  0
LWPOLYLINE
  5
292
100
AcDbEntity
  8
0
100
AcDbPolyline
 62
7
  6
CONTINUOUS
 90
4
 70
0
 43
0.3500000019
 10
15.5438964844
 20
2.0585089417
 10
14.9010410156
 20
2.0585089417
 10
14.9010410156
 20
3.5585090637
 10
17.9010385742
 20
2.7013660889
  0
LWPOLYLINE
  5
293
100
AcDbEntity
  8
CURVE
100
AcDbPolyline
 62
250
  6
CONTINUOUS
 90
64
 70
0
 10
2.903780621
 20
15.1332103407
 10
2.9015369426
 20
15.2550528488
 10
2.8948254597
 20
15.3769709156
 10
2.8836755006
 20
15.4987713474
 10
2.8681163937
 20
15.6202609508
 10
2.8481774675
 20
15.741246532
 10
2.8238880502
 20
15.8615348975
 10
2.7952774703
 20
15.9809328538
 10
2.762375056
 20
16.0992472071
 10
2.7252101359
 20
16.2162847639
 10
2.6838120383
 20
16.3318523307
 10
2.6382100914
 20
16.4457567137
 10
2.5851468324
 20
16.5648649773
 10
2.5274759424
 20
16.6817312403
 10
2.4653110997
 20
16.7962130319
 10
2.3987659825
 20
16.9081678816
 10
2.3279542691
 20
17.0174533184
 10
2.2529896377
 20
17.1239268719
 10
2.1739857665
 20
17.2274460711
 10
2.0910563339
 20
17.3278684455
 10
2.0043150179
 20
17.4250515243
 10
1.913875497
 20
17.5188528369
 10
1.8198626242
 20
17.6091319151
 10
1.7224364437
 20
17.6957653161
 10
1.6217680545
 20
17.7786314815
 10
1.5180285558
 20
17.8576088529
 10
1.4113890464
 20
17.932575872
 10
1.3020206254
 20
18.0034109805
 10
1.190094392
 20
18.0699926201
 10
1.075781445
 20
18.1321992324
 10
0.9592528835
 20
18.1899092591
 10
0.8406798067
 20
18.2430011419
 10
0.7379553723
 20
18.2845926602
 10
0.6339670449
 20
18.3227086668
 10
0.5288165182
 20
18.3573285543
 10
0.422605486
 20
18.3884317153
 10
0.3154356418
 20
18.4159975424
 10
0.2074086795
 20
18.4400054283
 10
0.0953824859
 20
18.4609900841
 10
-0.0173105942
 20
18.4781720991
 10
-0.130536394
 20
18.4915435306
 10
-0.2441607469
 20
18.501096436
 10
-0.3580494862
 20
18.5068228724
 10
-0.472068445
 20
18.5087148972
 10
-0.5992513351
 20
18.5062937339
 10
-0.7262388765
 20
18.4990951804
 10
-0.8528406324
 20
18.4871235083
 10
-0.9788661663
 20
18.4703829893
 10
-1.1041250414
 20
18.4488778949
 10
-1.2249493203
 20
18.4234200124
 10
-1.3447449925
 20
18.3934863401
 10
-1.4633873974
 20
18.3590970422
 10
-1.5807518744
 20
18.3202722827
 10
-1.6967137627
 20
18.2770322258
 10
-1.8084500534
 20
18.2305915312
 10
-1.9185657287
 20
18.1800777415
 10
-2.0268959746
 20
18.125607281
 10
-2.1332759769
 20
18.0672965738
 10
-2.2375409216
 20
18.0052620444
 10
-2.3395259946
 20
17.9396201168
 10
-2.4390663817
 20
17.8704872155
 10
-2.535997269
 20
17.7979797646
 10
-2.6301538422
 20
17.7222141884
 10
-2.7213712874
 20
17.6433069113
  0
LINE
  5
294
100
AcDbEntity
  8
CURVE
100
AcDbLine
 62
250
  6
CONTINUOUS
 10
1.9980650179
 20
-13.2846295577
 11
1.9980650179
 21
-14.607546224
  0
LINE
  5
295
100
AcDbEntity
  8
CURVE
100
AcDbLine
 62
250
  6
CONTINUOUS
 10
1.9980650179
 20
-15.132578776
 11
1.9980650179
 21
-16.4554954423
  0
LINE
  5
296
100
AcDbEntity
  8
CURVE
100
AcDbLine
 62
250
  6
CONTINUOUS
 10
2.4982928823
 20
-16.4554954423
 11
2.4982928823
 21
-13.2846295577
  0
LWPOLYLINE
  5
297
100
AcDbEntity
  8
CURVE
100
AcDbPolyline
 62
250
  6
CONTINUOUS
 90
63
 70
0
 10
-3.6153735658
 20
17.1954444982
 10
-3.616395006
 20
17.1973872442
 10
-3.6174992759
 20
17.1992976546
 10
-3.6186836098
 20
17.2011736088
 10
-3.6199452419
 20
17.2030129861
 10
-3.6212814064
 20
17.2048136659
 10
-3.6226893377
 20
17.2065735276
 10
-3.6241662699
 20
17.2082904504
 10
-3.6257094374
 20
17.2099623137
 10
-3.6273160742
 20
17.2115869968
 10
-3.6289834148
 20
17.2131623791
 10
-3.6307086934
 20
17.21468634
 10
-3.6324891441
 20
17.2161567587
 10
-3.6343220013
 20
17.2175715146
 10
-3.6362044993
 20
17.2189284871
 10
-3.6381338721
 20
17.2202255555
 10
-3.6401073542
 20
17.2214605992
 10
-3.6421221797
 20
17.2226314974
 10
-3.6441755829
 20
17.2237361296
 10
-3.6462647981
 20
17.224772375
 10
-3.6483870594
 20
17.2257381131
 10
-3.6505396013
 20
17.2266312231
 10
-3.6527196578
 20
17.2274495844
 10
-3.6549244632
 20
17.2281910764
 10
-3.6571512519
 20
17.2288535783
 10
-3.659397258
 20
17.2294349696
 10
-3.6616597158
 20
17.2299331296
 10
-3.6639358595
 20
17.2303459375
 10
-3.6662229234
 20
17.2306712729
 10
-3.6685181418
 20
17.2309070149
 10
-3.6708187489
 20
17.231051043
 10
-3.6731219789
 20
17.2311012365
 10
-3.6754325378
 20
17.231055883
 10
-3.6777402205
 20
17.2309161001
 10
-3.6800422942
 20
17.2306840365
 10
-3.6823360263
 20
17.230361841
 10
-3.6846186844
 20
17.2299516625
 10
-3.6868875356
 20
17.2294556498
 10
-3.6891398476
 20
17.2288759516
 10
-3.6913728876
 20
17.2282147169
 10
-3.6935839231
 20
17.2274740944
 10
-3.6957702214
 20
17.2266562329
 10
-3.6979290501
 20
17.2257632813
 10
-3.7000576763
 20
17.2247973883
 10
-3.7021533677
 20
17.2237607029
 10
-3.7042133915
 20
17.2226553737
 10
-3.7062350151
 20
17.2214835497
 10
-3.7082155061
 20
17.2202473796
 10
-3.7101521317
 20
17.2189490123
 10
-3.7120421593
 20
17.2175905966
 10
-3.7138828565
 20
17.2161742813
 10
-3.7156714905
 20
17.2147022152
 10
-3.7174053287
 20
17.2131765471
 10
-3.7190816387
 20
17.2115994259
 10
-3.7206976877
 20
17.2099730004
 10
-3.7222507431
 20
17.2082994193
 10
-3.7237380725
 20
17.2065808315
 10
-3.7251569431
 20
17.2048193859
 10
-3.7265046223
 20
17.2030172312
 10
-3.7277783777
 20
17.2011765163
 10
-3.7289754765
 20
17.1992993899
 10
-3.7300931861
 20
17.1973880009
 10
-3.7311287741
 20
17.1954444982
  0
LINE
  5
298
100
AcDbEntity
  8
CURVE
100
AcDbLine
 62
250
  6
CONTINUOUS
 10
-2.7213712874
 20
17.6433069113
 11
-2.5594517996
 21
17.3187789166
  0
LINE
  5
299
100
AcDbEntity
  8
CURVE
100
AcDbLine
 62
250
  6
CONTINUOUS
 10
-2.6307652761
 20
15.2200267469
 11
-3.6153735658
 21
17.1954444982
  0
LINE
  5
29A
100
AcDbEntity
  8
ASSI
100
AcDbLine
 62
7
  6
CONTINUOUS
 10
9.6183228103
 20
-0.0594371446
 11
9.6076974549
 21
-0.0700625
  0
LINE
  5
29B
100
AcDbEntity
  8
ASSI
100
AcDbLine
 62
250
  6
CONTINUOUS
 10
10.1269551337
 20
-0.0508619286
 11
10.0403130889
 21
-0.1086159593
  0
LINE
  5
29C
100
AcDbEntity
  8
ASSI
100
AcDbLine
 62
250
  6
CONTINUOUS
 10
10.6268980263
 20
-0.5507096324
 11
10.5401417514
 21
-0.6085398069
  0
LWPOLYLINE
  5
29D
100
AcDbEntity
  8
0
100
AcDbPolyline
 62
7
  6
CONTINUOUS
 90
10
 70
0
 43
0.3500000019
 10
17.4010380859
 20
0.9870803909
 10
17.5438984375
 20
1.0585088882
 10
17.6153232422
 20
1.0585088882
 10
17.7581835938
 20
0.9156518097
 10
17.7581835938
 20
0.8442232285
 10
17.686753418
 20
0.7727946472
 10
17.6153232422
 20
0.7727946472
 10
17.4724682617
 20
0.8442232285
 10
17.4010380859
 20
0.9156518097
 10
17.4010380859
 20
0.9870803909
  0
LWPOLYLINE
  5
29E
100
AcDbEntity
  8
0
100
AcDbPolyline
 62
7
  6
CONTINUOUS
 90
3
 70
0
 43
0.3500000019
 10
17.6153232422
 20
1.0585088882
 10
17.8296137695
 20
0.9870803909
 10
18.1153237305
 20
0.8442232285
  0
LINE
  5
29F
100
AcDbEntity
  8
ASSI
100
AcDbLine
 62
250
  6
CONTINUOUS
 10
10.0403130889
 20
0.3684909593
 11
10.1269551337
 21
0.3107369286
  0
LINE
  5
2A0
100
AcDbEntity
  8
ASSI
100
AcDbLine
 62
250
  6
CONTINUOUS
 10
10.5401417514
 20
0.8684148069
 11
10.6268980263
 21
0.8105846324
  0
LINE
  5
2A1
100
AcDbEntity
  8
ASSI
100
AcDbLine
 62
7
  6
CONTINUOUS
 10
9.6183228103
 20
0.3193121446
 11
9.6076974549
 21
0.3299375
  0
LINE
  5
2A2
100
AcDbEntity
  8
CURVE
100
AcDbLine
 62
250
  6
CONTINUOUS
 10
1.7748228304
 20
12.6203576938
 11
1.6125588331
 21
12.9455747076
  0
LINE
  5
2A3
100
AcDbEntity
  8
CURVE
100
AcDbLine
 62
7
  6
CONTINUOUS
 10
-3.532002255
 20
-14.0867002813
 11
-2.9563436763
 21
-13.5110417025
  0
LINE
  5
2A4
100
AcDbEntity
  8
CURVE
100
AcDbLine
 62
7
  6
CONTINUOUS
 10
-3.532002255
 20
-15.0823066292
 11
-2.2919250052
 21
-13.8422293794
  0
LINE
  5
2A5
100
AcDbEntity
  8
CURVE
100
AcDbLine
 62
7
  6
CONTINUOUS
 10
-3.532002255
 20
-16.0779129771
 11
-1.6275063342
 21
-14.1734170563
  0
LINE
  5
2A6
100
AcDbEntity
  8
CURVE
100
AcDbLine
 62
7
  6
CONTINUOUS
 10
-0.777303905
 20
-13.3232146271
 11
-0.7111580717
 21
-13.2570687938
  0
LWPOLYLINE
  5
2A7
100
AcDbEntity
  8
CURVE
100
AcDbPolyline
 62
250
  6
CONTINUOUS
 90
65
 70
0
 10
2.6708921662
 20
13.0647750114
 10
2.6718746545
 20
13.0628766907
 10
2.6729356366
 20
13.0610073278
 10
2.6740725847
 20
13.0591689811
 10
2.675282971
 20
13.057363709
 10
2.6765642677
 20
13.05559357
 10
2.6779139468
 20
13.0538606224
 10
2.6793294807
 20
13.0521669246
 10
2.6808083414
 20
13.050514535
 10
2.6823480012
 20
13.0489055121
 10
2.6839459322
 20
13.0473419142
 10
2.6855996065
 20
13.0458257998
 10
2.6873064965
 20
13.0443592272
 10
2.6890640741
 20
13.0429442549
 10
2.6908698116
 20
13.0415829412
 10
2.6927211813
 20
13.0402773446
 10
2.6946156551
 20
13.0390295235
 10
2.6965507054
 20
13.0378415363
 10
2.6985238042
 20
13.0367154413
 10
2.7005324239
 20
13.035653297
 10
2.7025740364
 20
13.0346571619
 10
2.7046461141
 20
13.0337290942
 10
2.706746129
 20
13.0328711525
 10
2.7088715534
 20
13.032085395
 10
2.7110198594
 20
13.0313738803
 10
2.7131885192
 20
13.0307386667
 10
2.715375005
 20
13.0301818126
 10
2.7175767889
 20
13.0297053764
 10
2.7197913431
 20
13.0293114166
 10
2.7220161398
 20
13.0290019915
 10
2.7242486512
 20
13.0287791596
 10
2.7264863494
 20
13.0286449792
 10
2.7287267066
 20
13.0286015088
 10
2.7309599981
 20
13.0286498194
 10
2.7331908624
 20
13.0287882711
 10
2.735416742
 20
13.0290148312
 10
2.7376350794
 20
13.0293274669
 10
2.739843317
 20
13.0297241455
 10
2.7420388974
 20
13.0302028342
 10
2.744219263
 20
13.0307615003
 10
2.7463818563
 20
13.031398111
 10
2.7485241199
 20
13.0321106337
 10
2.7506434961
 20
13.0328970354
 10
2.7527374274
 20
13.0337552836
 10
2.7548033564
 20
13.0346833453
 10
2.7568387256
 20
13.035679188
 10
2.7588409773
 20
13.0367407788
 10
2.7608075541
 20
13.037866085
 10
2.7627358985
 20
13.0390530739
 10
2.764623453
 20
13.0402997126
 10
2.76646766
 20
13.0416039685
 10
2.768265962
 20
13.0429638087
 10
2.7700158016
 20
13.0443772006
 10
2.7717146211
 20
13.0458421115
 10
2.7733598631
 20
13.0473565084
 10
2.77494897
 20
13.0489183588
 10
2.7764793844
 20
13.0505256298
 10
2.7779485487
 20
13.0521762887
 10
2.7793539053
 20
13.0538683027
 10
2.7806928969
 20
13.0555996392
 10
2.7819629659
 20
13.0573682653
 10
2.7831615546
 20
13.0591721484
 10
2.7842861058
 20
13.0610092555
 10
2.7853340617
 20
13.0628775541
 10
2.7863028649
 20
13.0647750114
  0
LINE
  5
2A8
100
AcDbEntity
  8
CURVE
100
AcDbLine
 62
250
  6
CONTINUOUS
 10
1.686628386
 20
15.0395037435
 11
2.6708921662
 21
13.0647750114
  0
LWPOLYLINE
  5
2A9
100
AcDbEntity
  8
ASSI
100
AcDbPolyline
 62
250
  6
CONTINUOUS
 90
16
 70
0
 10
10.5401417514
 20
-0.6085398069
 10
10.5373540147
 20
-0.5560400803
 10
10.5290725986
 20
-0.504134981
 10
10.5153934906
 20
-0.4533974956
 10
10.4964849229
 20
-0.404415455
 10
10.4725530771
 20
-0.3576968397
 10
10.4438104317
 20
-0.3136788171
 10
10.4104785959
 20
-0.2727786195
 10
10.3729655786
 20
-0.2355644208
 10
10.3318695903
 20
-0.2026110908
 10
10.2877198364
 20
-0.1742677138
 10
10.2409949399
 20
-0.1507720121
 10
10.1923253708
 20
-0.1323663432
 10
10.1423004041
 20
-0.1191801551
 10
10.0914457743
 20
-0.1112621493
 10
10.0403130889
 20
-0.1086159593
  0
LINE
  5
2AA
100
AcDbEntity
  8
ASSI
100
AcDbLine
 62
7
  6
CONTINUOUS
 10
10.6264518945
 20
22.5935207738
 11
10.6025102033
 21
26.0057210145
  0
LINE
  5
2AB
100
AcDbEntity
  8
ASSI
100
AcDbLine
 62
250
  6
CONTINUOUS
 10
10.0403130889
 20
-0.1086159593
 11
10.0403130889
 21
-26.1833062251
  0
LINE
  5
2AC
100
AcDbEntity
  8
ASSI
100
AcDbLine
 62
250
  6
CONTINUOUS
 10
10.0403130889
 20
0.3684909593
 11
10.0403130889
 21
26.4431812251
  0
LINE
  5
2AD
100
AcDbEntity
  8
ASSI
100
AcDbLine
 62
250
  6
CONTINUOUS
 10
10.5401417514
 20
-25.6834775626
 11
10.5401417514
 21
-0.6085398069
  0
LINE
  5
2AE
100
AcDbEntity
  8
ASSI
100
AcDbLine
 62
250
  6
CONTINUOUS
 10
10.5401417514
 20
0.8684148069
 11
10.5401417514
 21
25.9433525626
  0
LINE
  5
2AF
100
AcDbEntity
  8
ASSI
100
AcDbLine
 62
7
  6
CONTINUOUS
 10
10.6268980263
 20
-22.2042362512
 11
10.6268980263
 21
-0.5507096324
  0
LINE
  5
2B0
100
AcDbEntity
  8
ASSI
100
AcDbLine
 62
7
  6
CONTINUOUS
 10
10.6268980263
 20
0.8105846324
 11
10.6268980263
 21
22.4641112512
  0
LINE
  5
2B1
100
AcDbEntity
  8
ASSI
100
AcDbLine
 62
7
  6
CONTINUOUS
 10
10.6264518945
 20
-22.3336457738
 11
10.6025102033
 21
-25.7458460145
  0
LINE
  5
2B2
100
AcDbEntity
  8
CURVE
100
AcDbLine
 62
7
  6
CONTINUOUS
 10
-2.419597688
 20
-15.961114758
 11
-0.9630876632
 21
-14.5046047332
  0
LINE
  5
2B3
100
AcDbEntity
  8
CURVE
100
AcDbLine
 62
7
  6
CONTINUOUS
 10
-0.777303905
 20
-14.318820975
 11
-0.0467446026
 21
-13.5882616726
  0
LINE
  5
2B4
100
AcDbEntity
  8
ASSI
100
AcDbLine
 62
250
  6
CONTINUOUS
 10
-11.4863456987
 20
-25.6834775626
 11
-11.5487141507
 21
-25.7458460145
  0
LINE
  5
2B5
100
AcDbEntity
  8
CURVE
100
AcDbLine
 62
7
  6
CONTINUOUS
 10
-0.777303905
 20
-15.3144273229
 11
0.6176688665
 21
-13.9194545514
  0
LINE
  5
2B6
100
AcDbEntity
  8
ASSI
100
AcDbLine
 62
250
  6
CONTINUOUS
 10
-10.9865170363
 20
-26.1833062251
 11
-11.0454028778
 21
-26.2421920666
  0
LINE
  5
2B7
100
AcDbEntity
  8
CURVE
100
AcDbLine
 62
7
  6
CONTINUOUS
 10
-0.777303905
 20
-16.3100336709
 11
1.2820823356
 21
-14.2506474302
  0
LINE
  5
2B8
100
AcDbEntity
  8
CURVE
100
AcDbLine
 62
7
  6
CONTINUOUS
 10
1.9980650179
 20
-13.5346647479
 11
2.2481002081
 21
-13.2846295577
  0
LINE
  5
2B9
100
AcDbEntity
  8
ASSI
100
AcDbLine
 62
250
  6
CONTINUOUS
 10
-11.5487141507
 20
26.0057210145
 11
-11.4863456987
 21
25.9433525626
  0
LINE
  5
2BA
100
AcDbEntity
  8
ASSI
100
AcDbLine
 62
250
  6
CONTINUOUS
 10
-11.0454028778
 20
26.5020670666
 11
-10.9865170363
 21
26.4431812251
  0
LINE
  5
2BB
100
AcDbEntity
  8
CURVE
100
AcDbLine
 62
7
  6
CONTINUOUS
 10
0.7977235084
 20
-15.7306126054
 11
1.9464958047
 21
-14.581840309
  0
LINE
  5
2BC
100
AcDbEntity
  8
CURVE
100
AcDbLine
 62
7
  6
CONTINUOUS
 10
1.9980650179
 20
-14.5302710958
 11
2.4982928823
 21
-14.0300432314
  0
LINE
  5
2BD
100
AcDbEntity
  8
CURVE
100
AcDbLine
 62
7
  6
CONTINUOUS
 10
1.9980650179
 20
-15.5258774438
 11
2.4982928823
 21
-15.0256495793
  0
LINE
  5
2BE
100
AcDbEntity
  8
CURVE
100
AcDbLine
 62
7
  6
CONTINUOUS
 10
2.0640533672
 20
-16.4554954423
 11
2.4982928823
 21
-16.0212559272
  0
LINE
  5
2BF
100
AcDbEntity
  8
CURVE
100
AcDbLine
 62
250
  6
CONTINUOUS
 10
-3.4658564217
 20
-16.4823671871
 11
-0.777303905
 21
-15.1429140624
  0
LWPOLYLINE
  5
2C0
100
AcDbEntity
  8
CURVE
100
AcDbPolyline
 62
250
  6
CONTINUOUS
 90
51
 70
0
 10
-0.472068445
 20
12.1070384665
 10
-0.5643853617
 20
12.108474788
 10
-0.6567688165
 20
12.1127736788
 10
-0.7491144245
 20
12.1199200278
 10
-0.8413178009
 20
12.1298987241
 10
-0.9332745608
 20
12.1426946567
 10
-1.0248803192
 20
12.1582927147
 10
-1.1160306914
 20
12.1766777871
 10
-1.2066212923
 20
12.197834763
 10
-1.2965477373
 20
12.2217485313
 10
-1.3857056412
 20
12.2484039812
 10
-1.4739906194
 20
12.2777860017
 10
-1.5612982868
 20
12.3098794818
 10
-1.6475242587
 20
12.3446693105
 10
-1.736541377
 20
12.3839614487
 10
-1.824184093
 20
12.4261308141
 10
-1.9103783048
 20
12.4711151931
 10
-1.9950499101
 20
12.5188523719
 10
-2.0781248068
 20
12.5692801366
 10
-2.1595288928
 20
12.6223362736
 10
-2.239188066
 20
12.6779585691
 10
-2.3170282242
 20
12.7360848094
 10
-2.3929752653
 20
12.7966527806
 10
-2.4669550872
 20
12.859600269
 10
-2.5388935878
 20
12.9248650609
 10
-2.608716665
 20
12.9923849425
 10
-2.6763488467
 20
13.0620921517
 10
-2.741729602
 20
13.1339180058
 10
-2.8047968086
 20
13.2077884958
 10
-2.8654883444
 20
13.2836296125
 10
-2.9237420869
 20
13.3613673467
 10
-2.9794959139
 20
13.4409276895
 10
-3.0326877032
 20
13.5222366315
 10
-3.0832553323
 20
13.6052201637
 10
-3.1311366791
 20
13.689804277
 10
-3.1762696213
 20
13.7759149623
 10
-3.2185920365
 20
13.8634782103
 10
-3.2580418025
 20
13.952420012
 10
-3.2929767719
 20
14.0385530076
 10
-3.3252208768
 20
14.125771141
 10
-3.3547586865
 20
14.2139702844
 10
-3.3815747704
 20
14.3030463102
 10
-3.4056536979
 20
14.3928950906
 10
-3.4269800383
 20
14.4834124978
 10
-3.445538361
 20
14.5744944041
 10
-3.4613132353
 20
14.6660366817
 10
-3.4742892307
 20
14.7579352029
 10
-3.4844509165
 20
14.85008584
 10
-3.491782862
 20
14.9423844652
 10
-3.4962696366
 20
15.0347269507
 10
-3.4978958097
 20
15.1270091688
  0
LWPOLYLINE
  5
2C1
100
AcDbEntity
  8
CURVE
100
AcDbPolyline
 62
250
  6
CONTINUOUS
 90
58
 70
0
 10
-1.4467630424
 20
13.257498472
 10
-1.4169892679
 20
13.2494976875
 10
-1.3869739588
 20
13.2424985507
 10
-1.356749601
 20
13.2364795171
 10
-1.3263486805
 20
13.2314190421
 10
-1.295803683
 20
13.2272955812
 10
-1.2651470946
 20
13.22408759
 10
-1.2344114011
 20
13.2217735239
 10
-1.2036290884
 20
13.2203318384
 10
-1.1683500295
 20
13.2197273237
 10
-1.1330795177
 20
13.2202228829
 10
-1.0978446439
 20
13.2218022198
 10
-1.0626724993
 20
13.2244490382
 10
-1.0275901749
 20
13.2281470419
 10
-0.9926247618
 20
13.2328799347
 10
-0.9578033511
 20
13.2386314205
 10
-0.9231530338
 20
13.2453852029
 10
-0.888700901
 20
13.2531249859
 10
-0.8544740439
 20
13.2618344731
 10
-0.8212144819
 20
13.2712849762
 10
-0.7882282752
 20
13.2816408918
 10
-0.7555469477
 20
13.2928940249
 10
-0.7232020233
 20
13.3050361804
 10
-0.6912250257
 20
13.3180591631
 10
-0.6596474789
 20
13.331954778
 10
-0.6285009066
 20
13.34671483
 10
-0.5978168327
 20
13.362331124
 10
-0.5676267811
 20
13.3787954648
 10
-0.5405227471
 20
13.3945671095
 10
-0.513882364
 20
13.411072738
 10
-0.4877312383
 20
13.4283463148
 10
-0.4620949765
 20
13.4464218047
 10
-0.4369991851
 20
13.4653331722
 10
-0.4124694708
 20
13.4851143819
 10
-0.3885314399
 20
13.5057993984
 10
-0.3652106991
 20
13.5274221864
 10
-0.3425328548
 20
13.5500167105
 10
-0.326540716
 20
13.5669881426
 10
-0.31093661
 20
13.5844634856
 10
-0.2957584303
 20
13.6024198984
 10
-0.2810440705
 20
13.62083454
 10
-0.2668314239
 20
13.6396845691
 10
-0.2531583843
 20
13.6589471447
 10
-0.2400628449
 20
13.6785994258
 10
-0.2275826995
 20
13.6986185713
 10
-0.2157558415
 20
13.7189817401
 10
-0.2046201643
 20
13.7396660911
 10
-0.1942135616
 20
13.7606487833
 10
-0.1845739269
 20
13.7819069755
 10
-0.1757391536
 20
13.8034178267
 10
-0.1677471353
 20
13.8251584957
 10
-0.1606357655
 20
13.8471061416
 10
-0.1544429377
 20
13.8692379232
 10
-0.1492065455
 20
13.8915309995
 10
-0.1449644823
 20
13.9139625294
 10
-0.1417546416
 20
13.9365096717
 10
-0.139614917
 20
13.9591495855
 10
-0.1385832021
 20
13.9818594295
  0
LWPOLYLINE
  5
2C2
100
AcDbEntity
  8
CURVE
100
AcDbPolyline
 62
250
  6
CONTINUOUS
 90
65
 70
0
 10
0.5456127613
 20
15.1414785699
 10
0.5479165332
 20
15.1396176156
 10
0.5503059332
 20
15.1378408607
 10
0.5527764278
 20
15.1361493909
 10
0.5553234838
 20
15.134544292
 10
0.5579425676
 20
15.1330266496
 10
0.5606291459
 20
15.1315975496
 10
0.5633786853
 20
15.1302580776
 10
0.5661866524
 20
15.1290093195
 10
0.5690485139
 20
15.127852361
 10
0.5719597363
 20
15.1267882879
 10
0.5749157862
 20
15.1258181858
 10
0.5779121303
 20
15.1249431405
 10
0.5809442351
 20
15.1241642379
 10
0.5840075673
 20
15.1234825636
 10
0.5870975934
 20
15.1228992033
 10
0.5902097802
 20
15.1224152429
 10
0.5933395941
 20
15.1220317681
 10
0.5964825018
 20
15.1217498647
 10
0.5996339699
 20
15.1215706183
 10
0.602789465
 20
15.1214951147
 10
0.6059444538
 20
15.1215244398
 10
0.6090944027
 20
15.1216596791
 10
0.6122347785
 20
15.1219019186
 10
0.6153610478
 20
15.1222522439
 10
0.618468677
 20
15.1227117408
 10
0.621553133
 20
15.123281495
 10
0.6246098822
 20
15.1239625922
 10
0.6276343913
 20
15.1247561184
 10
0.6306221268
 20
15.1256631591
 10
0.6335685555
 20
15.1266848001
 10
0.6364691438
 20
15.1278221272
 10
0.6393193585
 20
15.1290762261
 10
0.6421233008
 20
15.1304515538
 10
0.6448699304
 20
15.1319412452
 10
0.6475571682
 20
15.1335411049
 10
0.6501829353
 20
15.1352469378
 10
0.6527451527
 20
15.1370545484
 10
0.6552417416
 20
15.1389597415
 10
0.6576706229
 20
15.1409583218
 10
0.6600297177
 20
15.1430460941
 10
0.6623169471
 20
15.1452188629
 10
0.664530232
 20
15.1474724331
 10
0.6666674936
 20
15.1498026094
 10
0.6687266529
 20
15.1522051963
 10
0.670705631
 20
15.1546759988
 10
0.6726023488
 20
15.1572108213
 10
0.6744147275
 20
15.1598054688
 10
0.6761406881
 20
15.1624557458
 10
0.6777781516
 20
15.1651574571
 10
0.6793250392
 20
15.1679064074
 10
0.6807792717
 20
15.1706984014
 10
0.6821387704
 20
15.1735292438
 10
0.6834014562
 20
15.1763947393
 10
0.6845652502
 20
15.1792906926
 10
0.6856280735
 20
15.1822129085
 10
0.686587847
 20
15.1851571915
 10
0.6874424919
 20
15.1881193466
 10
0.6881899291
 20
15.1910951782
 10
0.6888280798
 20
15.1940804912
 10
0.689354865
 20
15.1970710903
 10
0.6897682058
 20
15.2000627802
 10
0.6900660231
 20
15.2030513655
 10
0.690246238
 20
15.206032651
 10
0.6903067717
 20
15.2090024414
  0
LWPOLYLINE
  5
2C3
100
AcDbEntity
  8
CURVE
100
AcDbPolyline
 62
250
  6
CONTINUOUS
 90
65
 70
0
 10
-0.4345169042
 20
17.0252567812
 10
-0.4368208628
 20
17.0271178737
 10
-0.4392107986
 20
17.0288950257
 10
-0.4416821421
 20
17.0305871245
 10
-0.4442303239
 20
17.0321930576
 10
-0.4468507744
 20
17.0337117127
 10
-0.4495389241
 20
17.035141977
 10
-0.4522902035
 20
17.0364827382
 10
-0.455100043
 20
17.0377328837
 10
-0.4579638732
 20
17.0388913009
 10
-0.4608771245
 20
17.0399568775
 10
-0.4638352275
 20
17.0409285007
 10
-0.4668336125
 20
17.0418050583
 10
-0.4698677101
 20
17.0425854375
 10
-0.4729329508
 20
17.043268526
 10
-0.4760247651
 20
17.0438532111
 10
-0.4791385834
 20
17.0443383805
 10
-0.4822698363
 20
17.0447229214
 10
-0.4854139541
 20
17.0450057216
 10
-0.4885663674
 20
17.0451856683
 10
-0.4917225068
 20
17.0452616492
 10
-0.4948778025
 20
17.0452325517
 10
-0.4980276853
 20
17.0450972632
 10
-0.5011675855
 20
17.0448546714
 10
-0.5042929335
 20
17.0445036636
 10
-0.50739916
 20
17.0440431273
 10
-0.5104816954
 20
17.04347195
 10
-0.5135359702
 20
17.0427890192
 10
-0.5165574148
 20
17.0419932225
 10
-0.5195414597
 20
17.0410834472
 10
-0.5224835355
 20
17.0400585808
 10
-0.5253790726
 20
17.0389175109
 10
-0.5282235014
 20
17.037659125
 10
-0.5310154823
 20
17.0362817403
 10
-0.5337496509
 20
17.0347899037
 10
-0.5364239861
 20
17.0331878326
 10
-0.5390364665
 20
17.0314797444
 10
-0.5415850708
 20
17.0296698564
 10
-0.5440677778
 20
17.0277623861
 10
-0.5464825661
 20
17.0257615509
 10
-0.5488274144
 20
17.023671568
 10
-0.5511003014
 20
17.021496655
 10
-0.5532992058
 20
17.0192410291
 10
-0.5554221064
 20
17.0169089078
 10
-0.5574669819
 20
17.0145045085
 10
-0.5594318108
 20
17.0120320486
 10
-0.561314572
 20
17.0094957453
 10
-0.5631132441
 20
17.0068998162
 10
-0.5648258059
 20
17.0042484786
 10
-0.566450236
 20
17.0015459499
 10
-0.5679845131
 20
16.9987964475
 10
-0.569426616
 20
16.9960041888
 10
-0.5707745234
 20
16.9931733911
 10
-0.5720262138
 20
16.9903082718
 10
-0.5731796662
 20
16.9874130484
 10
-0.574232859
 20
16.9844919382
 10
-0.5751837711
 20
16.9815491586
 10
-0.5760303812
 20
16.978588927
 10
-0.5767706679
 20
16.9756154607
 10
-0.57740261
 20
16.9726329772
 10
-0.5779241861
 20
16.9696456939
 10
-0.5783333749
 20
16.9666578281
 10
-0.5786281553
 20
16.9636735972
 10
-0.5788065057
 20
16.9606972186
 10
-0.5788664051
 20
16.9577329097
  0
LINE
  5
2C4
100
AcDbEntity
  8
CURVE
100
AcDbLine
 62
250
  6
CONTINUOUS
 10
0.6589564028
 20
16.108172363
 11
-0.4345169042
 21
17.0252567812
  0
LINE
  5
2C5
100
AcDbEntity
  8
CURVE
100
AcDbLine
 62
250
  6
CONTINUOUS
 10
-0.1385832021
 20
15.717498535
 11
0.5456127613
 21
15.1414785699
  0
LINE
  5
2C6
100
AcDbEntity
  8
CURVE
100
AcDbLine
 62
250
  6
CONTINUOUS
 10
-0.7111580717
 20
-16.4823671871
 11
1.9980650179
 21
-15.132578776
  0
LWPOLYLINE
  5
2C7
100
AcDbEntity
  8
CURVE
100
AcDbPolyline
 62
250
  6
CONTINUOUS
 90
60
 70
0
 10
1.7445059902
 20
15.1332103407
 10
1.7423989067
 20
15.1331703117
 10
1.7402850882
 20
15.1330510206
 10
1.7381672704
 20
15.1328536609
 10
1.7360481889
 20
15.1325794265
 10
1.7339305794
 20
15.1322295109
 10
1.7318171776
 20
15.1318051078
 10
1.7297107191
 20
15.1313074108
 10
1.7276139397
 20
15.1307376138
 10
1.725529575
 20
15.1300969103
 10
1.7234603606
 20
15.129386494
 10
1.7214090323
 20
15.1286075585
 10
1.7193783257
 20
15.1277612977
 10
1.7173709765
 20
15.126848905
 10
1.7153897204
 20
15.1258715742
 10
1.713437293
 20
15.124830499
 10
1.71151643
 20
15.1237268731
 10
1.7096298672
 20
15.12256189
 10
1.7077803401
 20
15.1213367436
 10
1.7059705844
 20
15.1200526274
 10
1.7042033358
 20
15.1187107351
 10
1.7024813301
 20
15.1173122604
 10
1.7008073028
 20
15.115858397
 10
1.6991839896
 20
15.1143503385
 10
1.6976141262
 20
15.1127892787
 10
1.6961004484
 20
15.1111764111
 10
1.6946456916
 20
15.1095129295
 10
1.6932525918
 20
15.1078000275
 10
1.6919238844
 20
15.1060388989
 10
1.6906623052
 20
15.1042307372
 10
1.6894705898
 20
15.1023767361
 10
1.6883162797
 20
15.1004167938
 10
1.6872391127
 20
15.0984125651
 10
1.6862389008
 20
15.0963673193
 10
1.6853154559
 20
15.0942843256
 10
1.6844685897
 20
15.092166853
 10
1.6836981143
 20
15.0900181709
 10
1.6830038416
 20
15.0878415484
 10
1.6823855833
 20
15.0856402546
 10
1.6818431515
 20
15.0834175587
 10
1.681376358
 20
15.08117673
 10
1.6809850148
 20
15.0789210375
 10
1.6806689336
 20
15.0766537506
 10
1.6804279265
 20
15.0743781382
 10
1.6802618052
 20
15.0720974697
 10
1.6801703818
 20
15.0698150143
 10
1.6801534681
 20
15.067534041
 10
1.680210876
 20
15.065257819
 10
1.6803424173
 20
15.0629896177
 10
1.6805479041
 20
15.060732706
 10
1.6808271482
 20
15.0584903532
 10
1.6811799615
 20
15.0562658286
 10
1.6816061558
 20
15.0540624011
 10
1.6821055431
 20
15.0518833402
 10
1.6826779353
 20
15.0497319148
 10
1.6833231443
 20
15.0476113942
 10
1.684040982
 20
15.0455250476
 10
1.6848312602
 20
15.0434761442
 10
1.6856937909
 20
15.0414679531
 10
1.686628386
 20
15.0395037435
  0
LWPOLYLINE
  5
2C8
100
AcDbEntity
  8
CURVE
100
AcDbPolyline
 62
250
  6
CONTINUOUS
 90
61
 70
0
 10
-2.6889873898
 20
15.1270091688
 10
-2.6868805206
 20
15.1270483408
 10
-2.6847662353
 20
15.1271651262
 10
-2.6826472986
 20
15.1273584297
 10
-2.680526475
 20
15.1276271555
 10
-2.6784065292
 20
15.1279702082
 10
-2.6762902259
 20
15.1283864922
 10
-2.6741803296
 20
15.128874912
 10
-2.672079605
 20
15.129434372
 10
-2.6699908168
 20
15.1300637766
 10
-2.6679167296
 20
15.1307620303
 10
-2.6658601081
 20
15.1315280376
 10
-2.6638237167
 20
15.1323607028
 10
-2.6618103203
 20
15.1332589305
 10
-2.6598226834
 20
15.1342216251
 10
-2.6578635707
 20
15.135247691
 10
-2.6559357468
 20
15.1363360327
 10
-2.6540419764
 20
15.1374855546
 10
-2.652185024
 20
15.1386951612
 10
-2.6503676544
 20
15.1399637569
 10
-2.6485926322
 20
15.1412902462
 10
-2.6468627219
 20
15.1426735335
 10
-2.6451806883
 20
15.1441125233
 10
-2.6435492959
 20
15.14560612
 10
-2.6419713095
 20
15.147153228
 10
-2.6404494936
 20
15.1487527519
 10
-2.6389866129
 20
15.150403596
 10
-2.637585432
 20
15.1521046648
 10
-2.6362487156
 20
15.1538548627
 10
-2.6349792282
 20
15.1556530943
 10
-2.6337797346
 20
15.1574982639
 10
-2.632660579
 20
15.1593748165
 10
-2.6316129715
 20
15.161293552
 10
-2.6306367735
 20
15.1632514855
 10
-2.6297318462
 20
15.1652456326
 10
-2.6288980509
 20
15.1672730086
 10
-2.6281352489
 20
15.1693306289
 10
-2.6274433014
 20
15.1714155087
 10
-2.6268220698
 20
15.1735246636
 10
-2.6262714152
 20
15.1756551088
 10
-2.625791199
 20
15.1778038597
 10
-2.6253812823
 20
15.1799679318
 10
-2.6250415266
 20
15.1821443403
 10
-2.6247717929
 20
15.1843301006
 10
-2.6245719427
 20
15.1865222281
 10
-2.6244418372
 20
15.1887177382
 10
-2.6243813376
 20
15.1909136462
 10
-2.6243903052
 20
15.1931069675
 10
-2.6244686012
 20
15.1952947175
 10
-2.624616087
 20
15.1974739115
 10
-2.6248326239
 20
15.1996415649
 10
-2.6251180729
 20
15.2017946931
 10
-2.6254722956
 20
15.2039303114
 10
-2.625895153
 20
15.2060454352
 10
-2.6263865065
 20
15.2081370799
 10
-2.6269462174
 20
15.2102022608
 10
-2.6275741468
 20
15.2122379934
 10
-2.6282701562
 20
15.2142412929
 10
-2.6290341067
 20
15.2162091747
 10
-2.6298658595
 20
15.2181386543
 10
-2.6307652761
 20
15.2200267469
  0
LINE
  5
2C9
100
AcDbEntity
  8
CURVE
100
AcDbLine
 62
250
  6
CONTINUOUS
 10
-4.6575149501
 20
15.1270091688
 11
-3.847917511
 21
15.1270091688
  0
LINE
  5
2CA
100
AcDbEntity
  8
CURVE
100
AcDbLine
 62
250
  6
CONTINUOUS
 10
-3.4978958097
 20
15.1270091688
 11
-2.6889873898
 21
15.1270091688
  0
LINE
  5
2CB
100
AcDbEntity
  8
CURVE
100
AcDbLine
 62
250
  6
CONTINUOUS
 10
3.7130335504
 20
15.1332103407
 11
2.903780621
 21
15.1332103407
  0
LINE
  5
2CC
100
AcDbEntity
  8
CURVE
100
AcDbLine
 62
250
  6
CONTINUOUS
 10
2.5537589197
 20
15.1332103407
 11
1.7445059902
 21
15.1332103407
  0
LWPOLYLINE
  5
2CD
100
AcDbEntity
  8
CURVE
100
AcDbPolyline
 62
250
  6
CONTINUOUS
 90
81
 70
0
 10
-0.5788664051
 20
14.4979347332
 10
-0.6139669694
 20
14.5080838113
 10
-0.6494813343
 20
14.5168766011
 10
-0.6853443414
 20
14.5243334428
 10
-0.7214908325
 20
14.5304746767
 10
-0.7578556492
 20
14.5353206429
 10
-0.7943736333
 20
14.5388916817
 10
-0.8309796265
 20
14.5412081332
 10
-0.8676084704
 20
14.5422903376
 10
-0.9070318519
 20
14.5420980772
 10
-0.9463774872
 20
14.5405201329
 10
-0.9856167398
 20
14.5375799045
 10
-1.0247209735
 20
14.5333007916
 10
-1.0655395034
 20
14.5274039656
 10
-1.1061447039
 20
14.5200954698
 10
-1.146503108
 20
14.5114093941
 10
-1.1865812487
 20
14.5013798287
 10
-1.2242261361
 20
14.4906743156
 10
-1.261541246
 20
14.4787948337
 10
-1.2984779013
 20
14.4657406286
 10
-1.334987425
 20
14.451510946
 10
-1.3710211402
 20
14.4361050316
 10
-1.4065303699
 20
14.4195221311
 10
-1.4414664371
 20
14.4017614901
 10
-1.475780665
 20
14.3828223543
 10
-1.5094243764
 20
14.3627039695
 10
-1.5390363412
 20
14.3436216549
 10
-1.568011328
 20
14.3235834387
 10
-1.5962929101
 20
14.3025859486
 10
-1.6238246606
 20
14.2806258118
 10
-1.6505501529
 20
14.2576996559
 10
-1.6764129601
 20
14.2338041082
 10
-1.7013566555
 20
14.2089357961
 10
-1.7253248123
 20
14.183091347
 10
-1.7482610039
 20
14.1562673885
 10
-1.7642146999
 20
14.1361979627
 10
-1.77954268
 20
14.1156231858
 10
-1.7941918671
 20
14.0945548335
 10
-1.8081091844
 20
14.0730046815
 10
-1.8212415549
 20
14.0509845054
 10
-1.8335359016
 20
14.028506081
 10
-1.8449391475
 20
14.0055811838
 10
-1.8553982159
 20
13.9822215896
 10
-1.8648600295
 20
13.958439074
 10
-1.8732715117
 20
13.9342454127
 10
-1.8805795853
 20
13.9096523814
 10
-1.8863212253
 20
13.8865353985
 10
-1.8910465734
 20
13.8631466282
 10
-1.8947315508
 20
13.839546822
 10
-1.8973520787
 20
13.8157967312
 10
-1.8988840785
 20
13.7919571072
 10
-1.8993034714
 20
13.7680887013
 10
-1.8985861785
 20
13.7442522651
 10
-1.8967081212
 20
13.7205085499
 10
-1.8936452207
 20
13.696918307
 10
-1.8893733982
 20
13.6735422879
 10
-1.8838685749
 20
13.6504412439
 10
-1.8771122669
 20
13.6276512886
 10
-1.8691477868
 20
13.6052385105
 10
-1.8600264136
 20
13.5832437272
 10
-1.8497994264
 20
13.5617077559
 10
-1.8385181041
 20
13.540671414
 10
-1.8262337258
 20
13.520175519
 10
-1.8129975705
 20
13.5002608881
 10
-1.7988609172
 20
13.4809683388
 10
-1.7838750449
 20
13.4623386885
 10
-1.7680912326
 20
13.4444127545
 10
-1.7515607594
 20
13.4272313542
 10
-1.7329497861
 20
13.4095688492
 10
-1.7135815259
 20
13.3928040281
 10
-1.693507778
 20
13.3769208088
 10
-1.6727803415
 20
13.3619031089
 10
-1.6514510154
 20
13.3477348461
 10
-1.629571599
 20
13.3343999382
 10
-1.6071938911
 20
13.3218823029
 10
-1.5843696911
 20
13.3101658579
 10
-1.5611507979
 20
13.299234521
 10
-1.5375890108
 20
13.2890722099
 10
-1.5137361287
 20
13.2796628423
 10
-1.4804527838
 20
13.2678963702
 10
-1.4467630424
 20
13.257498472
  0
LWPOLYLINE
  5
2CE
100
AcDbEntity
  8
0
100
AcDbPolyline
 62
7
  6
CONTINUOUS
 90
10
 70
0
 43
0.3500000019
 10
0.4911860352
 20
35.7938657227
 10
0.5626108398
 20
35.6510080566
 10
0.5626108398
 20
35.5795805664
 10
0.4197558594
 20
35.4367229004
 10
0.3483256836
 20
35.4367229004
 10
0.2768955078
 20
35.5081503906
 10
0.2768955078
 20
35.5795805664
 10
0.3483256836
 20
35.7224382324
 10
0.4197558594
 20
35.7938657227
 10
0.4911860352
 20
35.7938657227
  0
LWPOLYLINE
  5
2CF
100
AcDbEntity
  8
0
100
AcDbPolyline
 62
7
  6
CONTINUOUS
 90
8
 70
0
 43
0.3500000019
 10
17.9010385742
 20
-4.1557767029
 10
17.9010385742
 20
-3.2986340637
 10
17.4724682617
 20
-2.8700624084
 10
16.6153276367
 20
-2.8700624084
 10
16.1867519531
 20
-3.2986340637
 10
16.1867519531
 20
-4.1557767029
 10
14.9010410156
 20
-4.1557767029
 10
14.9010410156
 20
-2.8700624084
  0
LWPOLYLINE
  5
2D0
100
AcDbEntity
  8
0
100
AcDbPolyline
 62
7
  6
CONTINUOUS
 90
7
 70
0
 43
0.3500000019
 10
17.9010385742
 20
-0.5129196472
 10
17.9010385742
 20
-2.0129196014
 10
15.7581816406
 20
-0.5129196472
 10
15.3296113281
 20
-0.5129196472
 10
14.9010410156
 20
-0.9414910507
 10
14.9010410156
 20
-1.5843482819
 10
15.5438964844
 20
-2.0129196014
  0
LWPOLYLINE
  5
2D1
100
AcDbEntity
  8
ASSI
100
AcDbPolyline
 62
250
  6
CONTINUOUS
 90
16
 70
0
 10
-10.9865170363
 20
26.4431812251
 10
-11.0376592988
 20
26.4405228702
 10
-11.0885189513
 20
26.4325926982
 10
-11.1385444249
 20
26.4193958192
 10
-11.1872098783
 20
26.400982552
 10
-11.233927088
 20
26.3774836012
 10
-11.2780675627
 20
26.3491417262
 10
-11.3191526454
 20
26.3161960645
 10
-11.3566551016
 20
26.2789955958
 10
-11.3899806127
 20
26.2381115361
 10
-11.4187219304
 20
26.1941096013
 10
-11.4426558825
 20
26.1474076663
 10
-11.4615693355
 20
26.0984429696
 10
-11.475255768
 20
26.0477232313
 10
-11.4835466894
 20
25.9958355723
 10
-11.4863456987
 20
25.9433525626
  0
LINE
  5
2D2
100
AcDbEntity
  8
ASSI
100
AcDbLine
 62
250
  6
CONTINUOUS
 10
-11.4863456987
 20
25.9433525626
 11
10.5401417514
 21
25.9433525626
  0
LINE
  5
2D3
100
AcDbEntity
  8
ASSI
100
AcDbLine
 62
250
  6
CONTINUOUS
 10
10.0403130889
 20
26.4431812251
 11
-10.9865170363
 21
26.4431812251
  0
LINE
  5
2D4
100
AcDbEntity
  8
ASSI
100
AcDbLine
 62
7
  6
CONTINUOUS
 10
10.0991989305
 20
26.5020670666
 11
-11.0454028778
 21
26.5020670666
  0
LWPOLYLINE
  5
2D5
100
AcDbEntity
  8
0
100
AcDbPolyline
 62
7
  6
CONTINUOUS
 90
7
 70
0
 43
0.3500000019
 10
3.0626132813
 20
35.2938652344
 10
1.5626118164
 20
35.2938652344
 10
3.0626132813
 20
37.436722168
 10
3.0626132813
 20
37.865295166
 10
2.6340429688
 20
38.2938654785
 10
1.9911821289
 20
38.2938654785
 10
1.5626118164
 20
37.6510073242
  0
LWPOLYLINE
  5
2D6
100
AcDbEntity
  8
0
100
AcDbPolyline
 62
7
  6
CONTINUOUS
 90
7
 70
0
 43
0.3500000019
 10
-1.0088154297
 20
35.2938652344
 10
-2.5088168945
 20
35.2938652344
 10
-1.0088154297
 20
37.436722168
 10
-1.0088154297
 20
37.865295166
 10
-1.4373857422
 20
38.2938654785
 10
-2.080246582
 20
38.2938654785
 10
-2.5088168945
 20
37.6510073242
  0
LWPOLYLINE
  5
2D7
100
AcDbEntity
  8
0
100
AcDbPolyline
 62
7
  6
CONTINUOUS
 90
7
 70
0
 43
0.3500000019
 10
-3.3659575195
 20
35.2938652344
 10
-4.8659589844
 20
35.2938652344
 10
-3.3659575195
 20
37.436722168
 10
-3.3659575195
 20
37.865295166
 10
-3.7945332031
 20
38.2938654785
 10
-4.4373886719
 20
38.2938654785
 10
-4.8659589844
 20
37.6510073242
  0
LWPOLYLINE
  5
2D8
100
AcDbEntity
  8
ASSI
100
AcDbPolyline
 62
250
  6
CONTINUOUS
 90
16
 70
0
 10
10.0403130889
 20
26.4431812251
 10
10.0918334453
 20
26.4404835754
 10
10.1430025848
 20
26.4324483892
 10
10.193261457
 20
26.4191001499
 10
10.2421120575
 20
26.4004952552
 10
10.2889316686
 20
26.3767920748
 10
10.3330113718
 20
26.3483142443
 10
10.3738104373
 20
26.3154253456
 10
10.4109452874
 20
26.2784499461
 10
10.4440198792
 20
26.2377784843
 10
10.4726725363
 20
26.1938432329
 10
10.496574385
 20
26.1471340607
 10
10.5154511263
 20
26.0981805944
 10
10.5290935739
 20
26.0475281194
 10
10.5373540926
 20
25.9957286549
 10
10.5401417514
 20
25.9433525626
  0
LWPOLYLINE
  5
2D9
100
AcDbEntity
  8
0
100
AcDbPolyline
 62
7
  6
CONTINUOUS
 90
5
 70
0
 43
0.3500000019
 10
-23.5098955078
 20
36.9792553711
 10
-23.15275
 20
37.1935432129
 10
-23.15275
 20
37.8363986816
 10
-23.5098955078
 20
38.2649716797
 10
-24.3670361328
 20
38.2649716797
  0
LINE
  5
2DA
100
AcDbEntity
  8
ASSI
100
AcDbLine
 62
7
  6
CONTINUOUS
 10
-30.9002729886
 20
-26.2421920666
 11
-33.1490325531
 21
-26.1833062251
  0
LINE
  5
2DB
100
AcDbEntity
  8
ASSI
100
AcDbLine
 62
250
  6
CONTINUOUS
 10
-33.6359440789
 20
-25.6834775626
 11
-33.1490325531
 21
-25.6834775626
  0
LINE
  5
2DC
100
AcDbEntity
  8
ASSI
100
AcDbLine
 62
250
  6
CONTINUOUS
 10
-30.7672774647
 20
-25.7458460145
 11
-33.1490325531
 21
-25.6834775626
  0
LWPOLYLINE
  5
2DD
100
AcDbEntity
  8
ASSI
100
AcDbPolyline
 62
250
  6
CONTINUOUS
 90
10
 70
0
 10
-33.1490325531
 20
26.4431812251
 10
-33.1503110207
 20
26.4404835754
 10
-33.151440523
 20
26.4324483892
 10
-33.1524070619
 20
26.4191001499
 10
-33.1531990736
 20
26.4004952552
 10
-33.1538043986
 20
26.3767920748
 10
-33.1542129481
 20
26.3483142443
 10
-33.1544200831
 20
26.3154253456
 10
-33.1544242584
 20
26.2784499461
 10
-33.1538251386
 20
26.1938432329
  0
LWPOLYLINE
  5
2DE
100
AcDbEntity
  8
ASSI
100
AcDbPolyline
 62
250
  6
CONTINUOUS
 90
9
 70
0
 10
-33.1490325531
 20
-26.1833062251
 10
-33.1503021489
 20
-26.1806478702
 10
-33.1514262969
 20
-26.1727176982
 10
-33.1523906876
 20
-26.1595208192
 10
-33.153182869
 20
-26.141107552
 10
-33.1537908605
 20
-26.1176086012
 10
-33.1542045614
 20
-26.0892667262
 10
-33.1544176996
 20
-26.0563210645
 10
-33.1544256074
 20
-26.0191205958
  0
LINE
  5
2DF
100
AcDbEntity
  8
ASSI
100
AcDbLine
 62
250
  6
CONTINUOUS
 10
-33.152440321
 20
26.0981805944
 11
-33.1503310719
 21
25.9957286549
  0
LINE
  5
2E0
100
AcDbEntity
  8
ASSI
100
AcDbLine
 62
250
  6
CONTINUOUS
 10
-33.1490325531
 20
-0.6085398069
 11
-33.1505650902
 21
-0.504134981
  0
LINE
  5
2E1
100
AcDbEntity
  8
ASSI
100
AcDbLine
 62
250
  6
CONTINUOUS
 10
-33.1538251386
 20
26.1938432329
 11
-33.152440321
 21
26.0981805944
  0
LINE
  5
2E2
100
AcDbEntity
  8
ASSI
100
AcDbLine
 62
250
  6
CONTINUOUS
 10
-33.1505650902
 20
-0.504134981
 11
-33.1514523626
 21
-0.404415455
  0
LWPOLYLINE
  5
2E3
100
AcDbEntity
  8
ASSI
100
AcDbPolyline
 62
250
  6
CONTINUOUS
 90
11
 70
0
 10
-33.1514523626
 20
-0.404415455
 10
-33.1516568464
 20
-0.3136788171
 10
-33.1514979372
 20
-0.2727786195
 10
-33.1511652005
 20
-0.2355644208
 10
-33.1506642667
 20
-0.2026110908
 10
-33.1500029002
 20
-0.1742677138
 10
-33.1491894847
 20
-0.1507720121
 10
-33.1482362994
 20
-0.1323663432
 10
-33.1471565153
 20
-0.1191801551
 10
-33.1459630492
 20
-0.1112621493
 10
-33.1446702822
 20
-0.1086159593
  0
LINE
  5
2E4
100
AcDbEntity
  8
ASSI
100
AcDbLine
 62
7
  6
CONTINUOUS
 10
-33.6359440789
 20
-25.6834775626
 11
-33.6359440789
 21
-0.6085398069
  0
LINE
  5
2E5
100
AcDbEntity
  8
ASSI
100
AcDbLine
 62
7
  6
CONTINUOUS
 10
-33.6359440789
 20
0.8684148069
 11
-33.6359440789
 21
25.9433525626
  0
LINE
  5
2E6
100
AcDbEntity
  8
ASSI
100
AcDbLine
 62
250
  6
CONTINUOUS
 10
-33.1490325531
 20
-25.6834775626
 11
-33.1490325531
 21
-0.6085398069
  0
LINE
  5
2E7
100
AcDbEntity
  8
ASSI
100
AcDbLine
 62
250
  6
CONTINUOUS
 10
-33.1490325531
 20
0.8684148069
 11
-33.1490325531
 21
25.9433525626
  0
LINE
  5
2E8
100
AcDbEntity
  8
ASSI
100
AcDbLine
 62
250
  6
CONTINUOUS
 10
-33.1515061652
 20
0.5339796384
 11
-33.1516389887
 21
0.6185187906
  0
LINE
  5
2E9
100
AcDbEntity
  8
ASSI
100
AcDbLine
 62
250
  6
CONTINUOUS
 10
-33.1516389887
 20
0.6185187906
 11
-33.1510862669
 21
0.7139732691
  0
LINE
  5
2EA
100
AcDbEntity
  8
ASSI
100
AcDbLine
 62
250
  6
CONTINUOUS
 10
-33.1544256074
 20
-26.0191205958
 11
-33.1538280666
 21
-25.9342346013
  0
LWPOLYLINE
  5
2EB
100
AcDbEntity
  8
ASSI
100
AcDbPolyline
 62
250
  6
CONTINUOUS
 90
3
 70
0
 10
-33.1510862669
 20
0.7139732691
 10
-33.1498721423
 20
0.8161736725
 10
-33.1490325531
 20
0.8684148069
  0
LINE
  5
2EC
100
AcDbEntity
  8
ASSI
100
AcDbLine
 62
250
  6
CONTINUOUS
 10
-33.1538280666
 20
-25.9342346013
 11
-33.1524449464
 21
-25.8385679696
  0
LWPOLYLINE
  5
2ED
100
AcDbEntity
  8
ASSI
100
AcDbPolyline
 62
250
  6
CONTINUOUS
 90
3
 70
0
 10
-33.1524449464
 20
-25.8385679696
 10
-33.1503335744
 20
-25.7359605723
 10
-33.1490325531
 20
-25.6834775626
  0
LWPOLYLINE
  5
2EE
100
AcDbEntity
  8
0
100
AcDbPolyline
 62
7
  6
CONTINUOUS
 90
3
 70
0
 43
0.3500000019
 10
-21.5098935547
 20
35.550684082
 10
-21.5813237305
 20
35.3363989258
 10
-21.7241787109
 20
35.0506835938
  0
LWPOLYLINE
  5
2EF
100
AcDbEntity
  8
ASSI
100
AcDbPolyline
 62
250
  6
CONTINUOUS
 90
9
 70
0
 10
-33.1446702822
 20
0.3684909593
 10
-33.1459898121
 20
0.3712518695
 10
-33.1471993428
 20
0.3794566358
 10
-33.1482856301
 20
0.3930154174
 10
-33.1492367794
 20
0.4117797476
 10
-33.1500423758
 20
0.43554416
 10
-33.1506935979
 20
0.464048438
 10
-33.1511833152
 20
0.4969804643
 10
-33.1515061652
 20
0.5339796384
  0
LINE
  5
2F0
100
AcDbEntity
  8
ASSI
100
AcDbLine
 62
250
  6
CONTINUOUS
 10
-33.1503310719
 20
25.9957286549
 11
-33.1490325531
 21
25.9433525626
  0
LINE
  5
2F1
100
AcDbEntity
  8
ASSI
100
AcDbLine
 62
250
  6
CONTINUOUS
 10
-29.8359440789
 20
-0.5507096324
 11
-33.1490325531
 21
-0.6085398069
  0
LINE
  5
2F2
100
AcDbEntity
  8
ASSI
100
AcDbLine
 62
7
  6
CONTINUOUS
 10
-29.8359440789
 20
-0.0508619286
 11
-33.1446702822
 21
-0.1086159593
  0
LINE
  5
2F3
100
AcDbEntity
  8
ASSI
100
AcDbLine
 62
250
  6
CONTINUOUS
 10
-33.6359440789
 20
-0.6085398069
 11
-33.1490325531
 21
-0.6085398069
  0
LINE
  5
2F4
100
AcDbEntity
  8
ASSI
100
AcDbLine
 62
7
  6
CONTINUOUS
 10
-33.1446702822
 20
0.3684909593
 11
-29.8359440789
 21
0.3107369286
  0
LINE
  5
2F5
100
AcDbEntity
  8
ASSI
100
AcDbLine
 62
7
  6
CONTINUOUS
 10
-29.8359440789
 20
-0.0508619286
 11
-29.8359440789
 21
-22.2042362512
  0
LINE
  5
2F6
100
AcDbEntity
  8
ASSI
100
AcDbLine
 62
7
  6
CONTINUOUS
 10
-29.8359440789
 20
0.3107369286
 11
-29.8359440789
 21
22.4641112512
  0
LINE
  5
2F7
100
AcDbEntity
  8
ASSI
100
AcDbLine
 62
250
  6
CONTINUOUS
 10
-33.1490325531
 20
0.8684148069
 11
-33.6359440789
 21
0.8684148069
  0
LINE
  5
2F8
100
AcDbEntity
  8
ASSI
100
AcDbLine
 62
250
  6
CONTINUOUS
 10
-33.1490325531
 20
0.8684148069
 11
-29.8359440789
 21
0.8105846324
  0
LINE
  5
2F9
100
AcDbEntity
  8
ASSI
100
AcDbLine
 62
7
  6
CONTINUOUS
 10
-29.8529811658
 20
-22.3336457738
 11
-30.9002729886
 21
-26.2421920666
  0
LINE
  5
2FA
100
AcDbEntity
  8
ASSI
100
AcDbLine
 62
7
  6
CONTINUOUS
 10
-29.8529811658
 20
22.5935207738
 11
-30.9002729886
 21
26.5020670666
  0
LWPOLYLINE
  5
2FB
100
AcDbEntity
  8
0
100
AcDbPolyline
 62
7
  6
CONTINUOUS
 90
4
 70
0
 43
0.3500000019
 10
-20.5098925781
 20
35.693541748
 10
-20.5098925781
 20
36.5506850586
 10
-20.0813222656
 20
36.9792553711
 10
-19.4384667969
 20
36.9792553711
  0
LINE
  5
2FC
100
AcDbEntity
  8
ASSI
100
AcDbLine
 62
250
  6
CONTINUOUS
 10
-33.1490325531
 20
25.9433525626
 11
-30.7672774647
 21
26.0057210145
  0
LINE
  5
2FD
100
AcDbEntity
  8
ASSI
100
AcDbLine
 62
7
  6
CONTINUOUS
 10
-33.1490325531
 20
26.4431812251
 11
-30.9002729886
 21
26.5020670666
  0
LINE
  5
2FE
100
AcDbEntity
  8
ASSI
100
AcDbLine
 62
250
  6
CONTINUOUS
 10
-33.6359440789
 20
25.9433525626
 11
-33.1490325531
 21
25.9433525626
  0
LWPOLYLINE
  5
2FF
100
AcDbEntity
  8
0
100
AcDbPolyline
 62
7
  6
CONTINUOUS
 90
6
 70
0
 43
0.3500000019
 10
-24.3670361328
 20
35.2649714355
 10
-23.2956103516
 20
35.2649714355
 10
-23.0813251953
 20
35.4792565918
 10
-23.0813251953
 20
36.5506850586
 10
-23.5098955078
 20
36.9792553711
 10
-23.9384658203
 20
36.9792553711
  0
LWPOLYLINE
  5
300
100
AcDbEntity
  8
0
100
AcDbPolyline
 62
7
  6
CONTINUOUS
 90
13
 70
0
 43
0.3500000019
 10
-20.0813222656
 20
36.9792553711
 10
-20.3670375977
 20
37.1935432129
 10
-20.3670375977
 20
37.8363986816
 10
-20.0813222656
 20
38.2649716797
 10
-19.4384667969
 20
38.2649716797
 10
-19.1527514648
 20
37.8363986816
 10
-19.1527514648
 20
37.1935432129
 10
-19.4384667969
 20
36.9792553711
 10
-19.0098964844
 20
36.5506850586
 10
-19.0098964844
 20
35.693541748
 10
-19.4384667969
 20
35.2649714355
 10
-20.0813222656
 20
35.2649714355
 10
-20.5098925781
 20
35.693541748
  0
LWPOLYLINE
  5
301
100
AcDbEntity
  8
0
100
AcDbPolyline
 62
7
  6
CONTINUOUS
 90
10
 70
0
 43
0.3500000019
 10
-21.5813237305
 20
35.7649692383
 10
-21.5098935547
 20
35.6221142578
 10
-21.5098935547
 20
35.550684082
 10
-21.6527539062
 20
35.407826416
 10
-21.7241787109
 20
35.407826416
 10
-21.7956088867
 20
35.4792565918
 10
-21.7956088867
 20
35.550684082
 10
-21.7241787109
 20
35.693541748
 10
-21.6527539062
 20
35.7649692383
 10
-21.5813237305
 20
35.7649692383
  0
ARC
  5
302
100
AcDbEntity
  8
ASSI
100
AcDbCircle
 62
7
  6
CONTINUOUS
 10
-30.3359440789
 20
22.4641112512
 40
0.5
100
AcDbArc
 50
0.0
 51
15.0
  0
ARC
  5
303
100
AcDbEntity
  8
ASSI
100
AcDbCircle
 62
7
  6
CONTINUOUS
 10
-33.1359440789
 20
25.9433525626
 40
0.5
100
AcDbArc
 50
91.5
 51
180.0
  0
ARC
  5
304
100
AcDbEntity
  8
ASSI
100
AcDbCircle
 62
7
  6
CONTINUOUS
 10
-33.1359440789
 20
0.8684148069
 40
0.5
100
AcDbArc
 50
180.0
 51
269.0
  0
ARC
  5
305
100
AcDbEntity
  8
ASSI
100
AcDbCircle
 62
7
  6
CONTINUOUS
 10
-30.3359440789
 20
-22.2042362512
 40
0.5
100
AcDbArc
 50
345.0
 51
360.0
  0
ARC
  5
306
100
AcDbEntity
  8
ASSI
100
AcDbCircle
 62
7
  6
CONTINUOUS
 10
-33.1359440789
 20
-25.6834775626
 40
0.5
100
AcDbArc
 50
180.0
 51
268.5
  0
ARC
  5
307
100
AcDbEntity
  8
ASSI
100
AcDbCircle
 62
7
  6
CONTINUOUS
 10
-33.1359440789
 20
-0.6085398069
 40
0.5
100
AcDbArc
 50
91.0
 51
180.0
  0
ELLIPSE
  5
308
100
AcDbEntity
  8
ASSI
100
AcDbEllipse
 62
7
  6
CONTINUOUS
 10
-11.0485451425
 20
26.0053806688
 30
0.0
 11
0.4677351297
 21
0.1788908786
 31
0.0
 40
0.9906298547
 41
1.202347637
 42
2.7724587311
  0
ELLIPSE
  5
309
100
AcDbEntity
  8
ASSI
100
AcDbEllipse
 62
7
  6
CONTINUOUS
 10
10.1023411951
 20
26.0053806688
 30
0.0
 11
0.4677351297
 21
-0.1788908786
 31
0.0
 40
0.9906298547
 41
0.3691339225
 42
1.9392450166
  0
ELLIPSE
  5
30A
100
AcDbEntity
  8
ASSI
100
AcDbEllipse
 62
7
  6
CONTINUOUS
 10
10.6138050655
 20
22.4641112512
 30
0.0
 11
-0.0
 21
0.5
 31
0.0
 40
0.0261859216
 41
-1.5707963268
 42
-1.308996939
  0
ELLIPSE
  5
30B
100
AcDbEntity
  8
ASSI
100
AcDbEllipse
 62
7
  6
CONTINUOUS
 10
-11.5600090129
 20
22.4641112512
 30
0.0
 11
0.0
 21
0.5
 31
0.0
 40
0.0261859216
 41
1.308996939
 42
1.5707963268
  0
ELLIPSE
  5
30C
100
AcDbEntity
  8
ASSI
100
AcDbEllipse
 62
7
  6
CONTINUOUS
 10
10.1182466579
 20
0.319464461
 30
0.0
 11
0.5
 21
0.0
 31
0.0
 40
0.0174550649
 41
-3.1241393611
 42
-1.5707963268
  0
ELLIPSE
  5
30D
100
AcDbEntity
  8
ASSI
100
AcDbEllipse
 62
7
  6
CONTINUOUS
 10
-11.0644506052
 20
0.319464461
 30
0.0
 11
0.5
 21
0.0
 31
0.0
 40
0.0174550649
 41
-1.5707963268
 42
-0.0174532925
  0
ELLIPSE
  5
30E
100
AcDbEntity
  8
ASSI
100
AcDbEllipse
 62
7
  6
CONTINUOUS
 10
10.1267266301
 20
0.8108130926
 30
0.0
 11
0.416247366
 21
-0.2774630169
 31
0.0
 40
0.9995051766
 41
-0.9826238685
 42
0.5877156075
  0
ELLIPSE
  5
30F
100
AcDbEntity
  8
ASSI
100
AcDbEllipse
 62
7
  6
CONTINUOUS
 10
-11.0729305774
 20
0.8108130926
 30
0.0
 11
0.416247366
 21
0.2774630169
 31
0.0
 40
0.9995051766
 41
2.5538770461
 42
4.1242165221
  0
ELLIPSE
  5
310
100
AcDbEntity
  8
ASSI
100
AcDbEllipse
 62
7
  6
CONTINUOUS
 10
10.1023411951
 20
-25.7455056688
 30
0.0
 11
0.4677351297
 21
0.1788908786
 31
0.0
 40
0.9906298547
 41
-1.9392450166
 42
-0.3691339225
  0
ELLIPSE
  5
311
100
AcDbEntity
  8
ASSI
100
AcDbEllipse
 62
7
  6
CONTINUOUS
 10
-11.0485451425
 20
-25.7455056688
 30
0.0
 11
0.4677351297
 21
-0.1788908786
 31
0.0
 40
0.9906298547
 41
-2.7724587311
 42
-1.202347637
  0
ELLIPSE
  5
312
100
AcDbEntity
  8
ASSI
100
AcDbEllipse
 62
7
  6
CONTINUOUS
 10
-11.5600090129
 20
-22.2042362512
 30
0.0
 11
0.0
 21
0.5
 31
0.0
 40
0.0261859216
 41
-4.7123889804
 42
-4.4505895926
  0
ELLIPSE
  5
313
100
AcDbEntity
  8
ASSI
100
AcDbEllipse
 62
7
  6
CONTINUOUS
 10
10.6138050655
 20
-22.2042362512
 30
0.0
 11
0.0
 21
0.5
 31
0.0
 40
0.0261859216
 41
-1.8325957146
 42
-1.5707963268
  0
ELLIPSE
  5
314
100
AcDbEntity
  8
ASSI
100
AcDbEllipse
 62
7
  6
CONTINUOUS
 10
-11.0644506052
 20
-0.059589461
 30
0.0
 11
0.5
 21
0.0
 31
0.0
 40
0.0174550649
 41
0.0174532925
 42
1.5707963268
  0
ELLIPSE
  5
315
100
AcDbEntity
  8
ASSI
100
AcDbEllipse
 62
7
  6
CONTINUOUS
 10
10.1182466579
 20
-0.059589461
 30
0.0
 11
0.5
 21
0.0
 31
0.0
 40
0.0174550649
 41
1.5707963268
 42
3.1241393611
  0
ELLIPSE
  5
316
100
AcDbEntity
  8
ASSI
100
AcDbEllipse
 62
7
  6
CONTINUOUS
 10
-11.0729305774
 20
-0.5509380926
 30
0.0
 11
0.416247366
 21
-0.2774630169
 31
0.0
 40
0.9995051766
 41
2.1589687851
 42
3.7293082611
  0
ELLIPSE
  5
317
100
AcDbEntity
  8
ASSI
100
AcDbEllipse
 62
7
  6
CONTINUOUS
 10
10.1267266301
 20
-0.5509380926
 30
0.0
 11
0.416247366
 21
0.2774630169
 31
0.0
 40
0.9995051766
 41
-0.5877156075
 42
0.9826238685
  0
ENDSEC
  0
SECTION
  2
OBJECTS
  0
DICTIONARY
  5
C
100
AcDbDictionary
280
0
281
1
  3
ACAD_GROUP
350
D
  3
ACAD_MLINESTYLE
350
17
  3
ACAD_LAYOUT
350
1A
  3
ACAD_PLOTSETTINGS
350
19
  3
ACAD_PLOTSTYLENAME
350
E
  0
DICTIONARY
  5
D
102
{ACAD_REACTORS
330
C
102
}
100
AcDbDictionary
280
0
281
1
  0
ACDBDICTIONARYWDFLT
  5
E
102
{ACAD_REACTORS
330
C
102
}
100
AcDbDictionary
281
1
  3
Normal
350
F
100
AcDbDictionaryWithDefault
340
F
  0
DICTIONARY
  5
17
102
{ACAD_REACTORS
330
C
102
}
100
AcDbDictionary
280
0
281
1
  3
Standard
350
18
  0
DICTIONARY
  5
19
102
{ACAD_REACTORS
330
C
102
}
100
AcDbDictionary
281
1
  0
DICTIONARY
  5
1A
102
{ACAD_REACTORS
330
C
102
}
100
AcDbDictionary
281
1
  3
Model
350
318
  3
Layout1
350
319
  0
ACDBPLACEHOLDER
  5
F
102
{ACAD_REACTORS
330
E
102
}
  0
MLINESTYLE
  5
18
102
{ACAD_REACTORS
330
17
102
}
100
AcDbMlineStyle
  2
STANDARD
 70
0
  3

 62
256
 51
90.0
 52
90.0
 71
2
 49
0.5
 62
256
  6
BYLAYER
 49
-0.5
 62
256
  6
BYLAYER
  0
LAYOUT
  5
318
102
{ACAD_REACTORS
330
1A
102
}
100
AcDbPlotSettings
  1

  2
none_device
  4

  6

 40
0.0
 41
0.0
 42
0.0
 43
0.0
 44
210.0
 45
297.0
 46
0.0
 47
0.0
 48
0.0
 49
0.0
140
0.0
141
0.0
142
1.0
143
1.0
 70
1024
 72
1
 73
0
 74
0
  7

 75
0
147
1.0
148
0.0
149
0.0
100
AcDbLayout
  1
Model
 70
0
 71
0
 10
0.0
 20
0.0
 11
210.0
 21
297.0
 12
0.0
 22
0.0
 32
0.0
 14
0.0
 24
0.0
 34
0.0
 15
0.0
 25
0.0
 35
0.0
146
0.0
 13
0.0
 23
0.0
 33
0.0
 16
1.0
 26
0.0
 36
0.0
 17
0.0
 27
1.0
 37
0.0
 76
0
330
213
345
0
346
0
  0
LAYOUT
  5
319
102
{ACAD_REACTORS
330
1A
102
}
100
AcDbPlotSettings
  1

  2
none_device
  4

  6

 40
0.0
 41
0.0
 42
0.0
 43
0.0
 44
210.0
 45
297.0
 46
0.0
 47
0.0
 48
0.0
 49
0.0
140
0.0
141
0.0
142
1.0
143
1.0
 70
0
 72
1
 73
0
 74
0
  7

 75
0
147
1.0
148
0.0
149
0.0
100
AcDbLayout
  1
Layout1
 70
0
 71
1
 10
0.0
 20
0.0
 11
210.0
 21
297.0
 12
0.0
 22
0.0
 32
0.0
 14
0.0
 24
0.0
 34
0.0
 15
0.0
 25
0.0
 35
0.0
146
0.0
 13
0.0
 23
0.0
 33
0.0
 16
1.0
 26
0.0
 36
0.0
 17
0.0
 27
1.0
 37
0.0
 76
0
330
214
345
0
346
0
  0
ENDSEC
  0
EOF
