  0
SECTION
  2
HEADER
  9
$ACADVER
  1
AC1024
  9
$DWGCODEPAGE
  3
ANSI_1252
  9
$EXTMAX
 10
210.0
 20
297.0
 30
0.0
  9
$EXTMIN
 10
0.0
 20
0.0
 30
0.0
  9
$LIMMIN
 10
0.0
 20
0.0
  9
$LIMMAX
 10
210.0
 20
297.0
  9
$VIEWCTR
 10
105.0
 20
148.5
  9
$VIEWSIZE
 40
297.0
  9
$CLAYER
  8
0
  9
$LTSCALE
 40
19.36
  9
$CELTYPE
  6
BYLAYER
  9
$DIMSCALE
 40
1.0
  9
$DIMASZ
 40
3.0
  9
$DIMEXO
 40
0.5
  9
$DIMDLI
 40
13.376
  9
$DIMEXE
 40
1.5
  9
$DIMCEN
 40
3.168
  9
$DIMLFAC
 40
1.0
  9
$DIMBLK
  1
_FILLED
  9
$DIMALT
 70
0
  9
$DIMALTF
 40
0.0393700787
  9
$DIMTXT
 40
3.0
  9
$DIMTOL
 70
1
  9
$DIMLIM
 70
0
  9
$DIMTFAC
 40
1.0
  9
$DIMTP
 40
0.01
  9
$DIMTM
 40
0.01
  9
$DIMGAP
 40
0.625
  9
$DIMDSEP
 70
44
  9
$AUNITS
 70
0
  9
$PDMODE
 70
3
  9
$PDSIZE
 40
3.0
  9
$HANDSEED
  5
2DA
  9
$TILEMODE
 70
1
  9
$MEASUREMENT
 70
1
  9
$INSUNITS
 70
4
  0
ENDSEC
  0
SECTION
  2
CLASSES
  0
CLASS
  1
ACDBDICTIONARYWDFLT
  2
AcDbDictionaryWithDefault
  3
AutoCAD 2000
 90
0
 91
1
280
0
281
0
  0
CLASS
  1
ACDBPLACEHOLDER
  2
AcDbPlaceHolder
  3
AutoCAD 2000
 90
0
 91
1
280
0
281
0
  0
CLASS
  1
LAYOUT
  2
AcDbLayout
  3
AutoCAD 2000
 90
0
 91
0
280
0
281
0
  0
ENDSEC
  0
SECTION
  2
TABLES
  0
TABLE
  2
VPORT
  5
8
100
AcDbSymbolTable
 70
2
  0
VPORT
  5
1F4
100
AcDbSymbolTableRecord
100
AcDbViewportTableRecord
  2
*ACTIVE
 70
0
 10
0.0
 20
0.0
 11
1.0
 21
1.0
 12
105.0
 22
148.5
 13
0.0
 23
0.0
 14
1.0
 24
1.0
 15
0.0
 25
0.0
 16
0.0
 26
0.0
 36
1.0
 17
0.0
 27
0.0
 37
0.0
 40
297.0
 41
0.7070707071
 42
50.0
 43
0.0
 44
0.0
 50
0.0
 51
0.0
 71
0
 72
100
 73
1
 74
1
 75
0
 76
0
 77
0
 78
0
  0
ENDTAB
  0
TABLE
  2
LTYPE
  5
5
100
AcDbSymbolTable
 70
6
  0
LTYPE
  5
14
100
AcDbSymbolTableRecord
100
AcDbLinetypeTableRecord
  2
BYBLOCK
 70
0
  3

 72
65
 73
0
 40
0.0
  0
LTYPE
  5
15
100
AcDbSymbolTableRecord
100
AcDbLinetypeTableRecord
  2
BYLAYER
 70
0
  3

 72
65
 73
0
 40
0.0
  0
LTYPE
  5
16
100
AcDbSymbolTableRecord
100
AcDbLinetypeTableRecord
  2
CONTINUOUS
 70
64
  3
Solid line
 72
65
 73
0
 40
0.0
  0
LTYPE
  5
1F5
100
AcDbSymbolTableRecord
100
AcDbLinetypeTableRecord
  2
CENTER
 70
64
  3
____ _ ____ _ ____ _ ____ _ ____ _ ____ _ ____
 72
65
 73
4
 40
0.6
 49
0.375
 74
0
 49
-0.075
 74
0
 49
0.075
 74
0
 49
-0.075
 74
0
  0
LTYPE
  5
1F6
100
AcDbSymbolTableRecord
100
AcDbLinetypeTableRecord
  2
HIDDEN
 70
64
  3
- - - - - - - - - - - - - - - - - - - -
 72
65
 73
2
 40
0.2
 49
0.1
 74
0
 49
-0.1
 74
0
  0
LTYPE
  5
1F7
100
AcDbSymbolTableRecord
100
AcDbLinetypeTableRecord
  2
PHANTOM
 70
64
  3
_____ _ _ _____ _ _ _____ _ _ _____
 72
65
 73
6
 40
0.8
 49
0.45
 74
0
 49
-0.05
 74
0
 49
0.1
 74
0
 49
-0.05
 74
0
 49
0.1
 74
0
 49
-0.05
 74
0
  0
LTYPE
  5
1F8
100
AcDbSymbolTableRecord
100
AcDbLinetypeTableRecord
  2
DOT
 70
64
  3
. . . . . . . . . . . . . . . . . . . .
 72
65
 73
2
 40
0.2
 49
0.1
 74
0
 49
-0.1
 74
0
  0
LTYPE
  5
1F9
100
AcDbSymbolTableRecord
100
AcDbLinetypeTableRecord
  2
DASHED
 70
64
  3
- - - - - - - - - - - - - - - - - - - -
 72
65
 73
2
 40
0.2
 49
0.1
 74
0
 49
-0.1
 74
0
  0
ENDTAB
  0
TABLE
  2
LAYER
  5
2
100
AcDbSymbolTable
 70
36
  0
LAYER
  5
10
100
AcDbSymbolTableRecord
100
AcDbLayerTableRecord
  2
0
 70
0
 62
7
  6
CONTINUOUS
370
-3
390
F
  0
LAYER
  5
1FA
100
AcDbSymbolTableRecord
100
AcDbLayerTableRecord
  2
DEFAULT_1
 70
0
 62
7
  6
CENTER
370
-3
390
F
  0
LAYER
  5
1FB
100
AcDbSymbolTableRecord
100
AcDbLayerTableRecord
  2
DEFAULT_2
 70
0
 62
7
  6
HIDDEN
370
-3
390
F
  0
LAYER
  5
1FC
100
AcDbSymbolTableRecord
100
AcDbLayerTableRecord
  2
DEFAULT_3
 70
0
 62
7
  6
PHANTOM
370
-3
390
F
  0
LAYER
  5
1FD
100
AcDbSymbolTableRecord
100
AcDbLayerTableRecord
  2
ASSI
 70
0
 62
7
  6
CONTINUOUS
370
-3
390
F
  0
LAYER
  5
1FE
100
AcDbSymbolTableRecord
100
AcDbLayerTableRecord
  2
COORDINATE
 70
0
 62
7
  6
CONTINUOUS
370
-3
390
F
  0
LAYER
  5
1FF
100
AcDbSymbolTableRecord
100
AcDbLayerTableRecord
  2
COPY_PUBLISH
 70
0
 62
7
  6
CONTINUOUS
370
-3
390
F
  0
LAYER
  5
200
100
AcDbSymbolTableRecord
100
AcDbLayerTableRecord
  2
COSMETICI
 70
0
 62
7
  6
CONTINUOUS
370
-3
390
F
  0
LAYER
  5
201
100
AcDbSymbolTableRecord
100
AcDbLayerTableRecord
  2
CURVE
 70
0
 62
7
  6
CONTINUOUS
370
-3
390
F
  0
LAYER
  5
202
100
AcDbSymbolTableRecord
100
AcDbLayerTableRecord
  2
DRAFT
 70
0
 62
7
  6
CONTINUOUS
370
-3
390
F
  0
LAYER
  5
203
100
AcDbSymbolTableRecord
100
AcDbLayerTableRecord
  2
IMPORT_IGES
 70
0
 62
7
  6
CONTINUOUS
370
-3
390
F
  0
LAYER
  5
204
100
AcDbSymbolTableRecord
100
AcDbLayerTableRecord
  2
INTF_1
 70
0
 62
7
  6
CONTINUOUS
370
-3
390
F
  0
LAYER
  5
205
100
AcDbSymbolTableRecord
100
AcDbLayerTableRecord
  2
INTF_2
 70
0
 62
7
  6
CONTINUOUS
370
-3
390
F
  0
LAYER
  5
206
100
AcDbSymbolTableRecord
100
AcDbLayerTableRecord
  2
INTF_4
 70
0
 62
7
  6
CONTINUOUS
370
-3
390
F
  0
LAYER
  5
207
100
AcDbSymbolTableRecord
100
AcDbLayerTableRecord
  2
NOTE
 70
0
 62
7
  6
CONTINUOUS
370
-3
390
F
  0
LAYER
  5
208
100
AcDbSymbolTableRecord
100
AcDbLayerTableRecord
  2
PIANI
 70
0
 62
7
  6
CONTINUOUS
370
-3
390
F
  0
LAYER
  5
209
100
AcDbSymbolTableRecord
100
AcDbLayerTableRecord
  2
PUNTI
 70
0
 62
7
  6
CONTINUOUS
370
-3
390
F
  0
LAYER
  5
20A
100
AcDbSymbolTableRecord
100
AcDbLayerTableRecord
  2
RACCORDO
 70
0
 62
7
  6
CONTINUOUS
370
-3
390
F
  0
LAYER
  5
20B
100
AcDbSymbolTableRecord
100
AcDbLayerTableRecord
  2
SIMBOLI
 70
0
 62
7
  6
CONTINUOUS
370
-3
390
F
  0
LAYER
  5
20C
100
AcDbSymbolTableRecord
100
AcDbLayerTableRecord
  2
SMUSSO
 70
0
 62
7
  6
CONTINUOUS
370
-3
390
F
  0
LAYER
  5
20D
100
AcDbSymbolTableRecord
100
AcDbLayerTableRecord
  2
SNAPLINE
 70
0
 62
7
  6
CONTINUOUS
370
-3
390
F
  0
LAYER
  5
20E
100
AcDbSymbolTableRecord
100
AcDbLayerTableRecord
  2
SUPERFICI
 70
0
 62
7
  6
CONTINUOUS
370
-3
390
F
  0
LAYER
  5
20F
100
AcDbSymbolTableRecord
100
AcDbLayerTableRecord
  2
TRASH
 70
0
 62
7
  6
CONTINUOUS
370
-3
390
F
  0
ENDTAB
  0
TABLE
  2
STYLE
  5
3
100
AcDbSymbolTable
 70
1
  0
STYLE
  5
11
100
AcDbSymbolTableRecord
100
AcDbTextStyleTableRecord
  2
STANDARD
 70
0
 40
0.0
 41
0.8
 50
0.0
 71
0
 42
0.2
  3
txt
  4

  0
STYLE
  5
210
100
AcDbSymbolTableRecord
100
AcDbTextStyleTableRecord
  2
TEXTSTYLE_1
 70
0
 40
0.0
 41
0.8
 50
0.0
 71
0
 42
0.2
  3
gdt
  4

  0
ENDTAB
  0
TABLE
  2
VIEW
  5
6
100
AcDbSymbolTable
 70
0
  0
ENDTAB
  0
TABLE
  2
UCS
  5
7
100
AcDbSymbolTable
 70
0
  0
ENDTAB
  0
TABLE
  2
APPID
  5
9
100
AcDbSymbolTable
 70
1
  0
APPID
  5
211
100
AcDbSymbolTableRecord
100
AcDbRegAppTableRecord
  2
ACAD
 70
0
  0
ENDTAB
  0
TABLE
  2
BLOCK_RECORD
  5
1
100
AcDbSymbolTable
 70
0
  0
BLOCK_RECORD
  5
212
100
AcDbSymbolTableRecord
100
AcDbBlockTableRecord
  2
*Model_Space
  0
BLOCK_RECORD
  5
213
100
AcDbSymbolTableRecord
100
AcDbBlockTableRecord
  2
*Paper_Space
  0
BLOCK_RECORD
  5
214
100
AcDbSymbolTableRecord
100
AcDbBlockTableRecord
  2
_FILLED
  0
BLOCK_RECORD
  5
215
100
AcDbSymbolTableRecord
100
AcDbBlockTableRecord
  2
*D0
  0
BLOCK_RECORD
  5
216
100
AcDbSymbolTableRecord
100
AcDbBlockTableRecord
  2
*D1
  0
BLOCK_RECORD
  5
217
100
AcDbSymbolTableRecord
100
AcDbBlockTableRecord
  2
*D2
  0
ENDTAB
  0
TABLE
  2
DIMSTYLE
  5
A
100
AcDbSymbolTable
 70
1
100
AcDbDimStyleTable
 71
0
  0
DIMSTYLE
105
218
100
AcDbSymbolTableRecord
100
AcDbDimStyleTableRecord
  2
STANDARD
 70
0
  3

  4

 40
1.0
 41
3.0
 42
0.5
 43
0.38
 44
1.5
 45
0.0
 46
0.0
 47
0.01
 48
0.01
140
3.0
141
0.09
142
0.0
143
25.4
144
1.0
145
0.0
146
1.0
147
0.625
 71
1
 72
0
 73
0
 74
0
 75
0
 76
0
 77
1
 78
8
 79
2
170
0
171
1
172
0
173
0
174
0
175
0
176
0
177
0
178
0
270
2
179
2
271
2
272
2
273
2
274
2
275
0
280
0
281
0
282
0
283
1
284
8
285
0
286
0
287
3
288
0
340
11
278
44
341
214
342
214
343
214
344
214
  0
DIMSTYLE
105
219
100
AcDbSymbolTableRecord
100
AcDbDimStyleTableRecord
  2
DIMSTYLE_1
 70
0
  3

  4

 40
1.0
 41
3.0
 42
0.5
 43
0.38
 44
1.5
 45
0.0
 46
0.0
 47
0.0
 48
0.0
140
3.0
141
0.09
142
0.0
143
25.4
144
1.0
145
0.0
146
1.0
147
0.75
 71
0
 72
0
 73
0
 74
0
 75
0
 76
0
 77
1
 78
8
 79
2
170
0
171
1
172
0
173
0
174
0
175
0
176
0
177
0
178
0
270
2
179
2
271
2
272
2
273
2
274
2
275
0
280
0
281
0
282
0
283
1
284
8
285
0
286
0
287
3
288
0
340
11
278
44
341
214
342
214
343
214
344
214
  0
DIMSTYLE
105
21A
100
AcDbSymbolTableRecord
100
AcDbDimStyleTableRecord
  2
DIMSTYLE_2
 70
0
  3

  4

 40
1.0
 41
3.0
 42
0.5
 43
0.38
 44
1.5
 45
0.0
 46
0.0
 47
0.0
 48
0.0
140
3.0
141
0.09
142
0.0
143
25.4
144
1.0
145
0.0
146
1.0
147
0.75
 71
0
 72
0
 73
0
 74
0
 75
0
 76
0
 77
1
 78
8
 79
2
170
0
171
1
172
0
173
0
174
0
175
0
176
0
177
0
178
0
270
2
179
2
271
1
272
1
273
2
274
2
275
0
280
0
281
0
282
0
283
1
284
8
285
0
286
0
287
3
288
0
340
11
278
44
341
214
342
214
343
214
344
214
  0
ENDTAB
  0
ENDSEC
  0
SECTION
  2
BLOCKS
  0
BLOCK
  5
20
100
AcDbEntity
  8
0
100
AcDbBlockBegin
  2
*Model_Space
 70
0
 10
0.0
 20
0.0
 30
0.0
  3
*Model_Space
  1

  0
ENDBLK
  5
21
100
AcDbEntity
  8
0
100
AcDbBlockEnd
  0
BLOCK
  5
1C
100
AcDbEntity
  8
0
100
AcDbBlockBegin
  2
*Paper_Space
 70
0
 10
0.0
 20
0.0
 30
0.0
  3
*Paper_Space
  1

  0
ENDBLK
  5
1D
100
AcDbEntity
  8
0
100
AcDbBlockEnd
  0
BLOCK
  5
21B
100
AcDbEntity
  8
0
100
AcDbBlockBegin
  2
_FILLED
 70
64
 10
0.0
 20
0.0
  3
_FILLED
  1

  0
SOLID
  5
21C
100
AcDbEntity
  8
0
  6
BYBLOCK
 62
0
100
AcDbTrace
 10
0.0
 20
0.0
 11
-1.0
 21
0.3166666667
 12
-1.0
 22
-0.3166666667
 13
-1.0
 23
-0.3166666667
  0
ENDBLK
  5
21D
100
AcDbEntity
  8
0
  6
BYBLOCK
 62
0
100
AcDbBlockEnd
  0
BLOCK
  5
21E
100
AcDbEntity
  8
0
100
AcDbBlockBegin
 62
7
  6
CONTINUOUS
  2
*D0
 70
65
 10
0.0
 20
0.0
  3
*D0
  1

  0
LINE
  5
21F
100
AcDbEntity
  8
0
100
AcDbLine
 62
7
  6
CONTINUOUS
 10
-11.3657633686
 20
22.796223074
 11
-11.3657633686
 21
35.7664512314
  0
LINE
  5
220
100
AcDbEntity
  8
0
100
AcDbLine
 62
7
  6
CONTINUOUS
 10
10.8342366314
 20
22.796223074
 11
10.8342366314
 21
35.7664512314
  0
LINE
  5
221
100
AcDbEntity
  8
0
100
AcDbLine
 62
7
  6
CONTINUOUS
 10
-11.3657633686
 20
34.2664512314
 11
-0.2657633686
 21
34.2664512314
  0
LINE
  5
222
100
AcDbEntity
  8
0
100
AcDbLine
 62
7
  6
CONTINUOUS
 10
10.8342366314
 20
34.2664512314
 11
-0.2657633686
 21
34.2664512314
  0
INSERT
  5
223
100
AcDbEntity
  8
0
100
AcDbBlockReference
 62
7
  6
CONTINUOUS
  2
_FILLED
 10
-11.3657633686
 20
34.2664512314
 41
3.0
 42
3.0
 43
3.0
 50
180.0
  0
INSERT
  5
224
100
AcDbEntity
  8
0
100
AcDbBlockReference
 62
7
  6
CONTINUOUS
  2
_FILLED
 10
10.8342366314
 20
34.2664512314
 41
3.0
 42
3.0
 43
3.0
  0
ENDBLK
  5
225
100
AcDbEntity
  8
0
  6
BYBLOCK
 62
0
100
AcDbBlockEnd
  0
BLOCK
  5
226
100
AcDbEntity
  8
0
100
AcDbBlockBegin
 62
7
  6
CONTINUOUS
  2
*D1
 70
65
 10
0.0
 20
0.0
  3
*D1
  1

  0
LINE
  5
227
100
AcDbEntity
  8
0
100
AcDbLine
 62
7
  6
CONTINUOUS
 10
10.8065375355
 20
26.3341788894
 11
20.3632129094
 21
26.3341788894
  0
LINE
  5
228
100
AcDbEntity
  8
0
100
AcDbLine
 62
7
  6
CONTINUOUS
 10
10.8065375355
 20
-26.4100802439
 11
20.3632129094
 21
-26.4100802439
  0
LINE
  5
229
100
AcDbEntity
  8
0
100
AcDbLine
 62
7
  6
CONTINUOUS
 10
18.8632129094
 20
26.3341788894
 11
18.8632129094
 21
-0.0379506772
  0
LINE
  5
22A
100
AcDbEntity
  8
0
100
AcDbLine
 62
7
  6
CONTINUOUS
 10
18.8632129094
 20
-26.4100802439
 11
18.8632129094
 21
-0.0379506772
  0
INSERT
  5
22B
100
AcDbEntity
  8
0
100
AcDbBlockReference
 62
7
  6
CONTINUOUS
  2
_FILLED
 10
18.8632129094
 20
26.3341788894
 41
3.0
 42
3.0
 43
3.0
 50
90.0
  0
INSERT
  5
22C
100
AcDbEntity
  8
0
100
AcDbBlockReference
 62
7
  6
CONTINUOUS
  2
_FILLED
 10
18.8632129094
 20
-26.4100802439
 41
3.0
 42
3.0
 43
3.0
 50
270.0
  0
ENDBLK
  5
22D
100
AcDbEntity
  8
0
  6
BYBLOCK
 62
0
100
AcDbBlockEnd
  0
BLOCK
  5
22E
100
AcDbEntity
  8
0
100
AcDbBlockBegin
 62
7
  6
CONTINUOUS
  2
*D2
 70
65
 10
0.0
 20
0.0
  3
*D2
  1

  0
LINE
  5
22F
100
AcDbEntity
  8
0
100
AcDbLine
 62
7
  6
CONTINUOUS
 10
-28.4080917897
 20
22.796223074
 11
-28.4080917897
 21
35.8684883815
  0
LINE
  5
230
100
AcDbEntity
  8
0
100
AcDbLine
 62
7
  6
CONTINUOUS
 10
-32.2080917897
 20
26.2754643854
 11
-32.2080917897
 21
35.8684883815
  0
LINE
  5
231
100
AcDbEntity
  8
0
100
AcDbLine
 62
7
  6
CONTINUOUS
 10
-28.4080917897
 20
34.3684883815
 11
-18.4846257686
 21
34.3684883815
  0
LINE
  5
232
100
AcDbEntity
  8
0
100
AcDbLine
 62
7
  6
CONTINUOUS
 10
-18.4846257686
 20
34.3684883815
 11
-30.3080917897
 21
34.3684883815
  0
LINE
  5
233
100
AcDbEntity
  8
0
100
AcDbLine
 62
7
  6
CONTINUOUS
 10
-32.2080917897
 20
34.3684883815
 11
-36.2080917897
 21
34.3684883815
  0
LINE
  5
234
100
AcDbEntity
  8
0
100
AcDbLine
 62
7
  6
CONTINUOUS
 10
-36.2080917897
 20
34.3684883815
 11
-30.3080917897
 21
34.3684883815
  0
INSERT
  5
235
100
AcDbEntity
  8
0
100
AcDbBlockReference
 62
7
  6
CONTINUOUS
  2
_FILLED
 10
-28.4080917897
 20
34.3684883815
 41
3.0
 42
3.0
 43
3.0
 50
180.0
  0
INSERT
  5
236
100
AcDbEntity
  8
0
100
AcDbBlockReference
 62
7
  6
CONTINUOUS
  2
_FILLED
 10
-32.2080917897
 20
34.3684883815
 41
3.0
 42
3.0
 43
3.0
  0
ENDBLK
  5
237
100
AcDbEntity
  8
0
  6
BYBLOCK
 62
0
100
AcDbBlockEnd
  0
ENDSEC
  0
SECTION
  2
ENTITIES
  0
DIMENSION
  5
238
100
AcDbEntity
  8
0
100
AcDbDimension
 62
7
  6
CONTINUOUS
  2
*D0
 10
10.8342366314
 20
34.2664512314
 11
-4.6586205115
 21
34.2664512314
 70
160
 71
2
 72
2
 41
0.9
 42
22.2
  3
DIMSTYLE_1
100
AcDbAlignedDimension
 13
-11.3657633686
 23
22.296223074
 14
10.8342366314
 24
22.296223074
100
AcDbRotatedDimension
  0
DIMENSION
  5
239
100
AcDbEntity
  8
0
100
AcDbDimension
 62
7
  6
CONTINUOUS
  2
*D1
 10
18.8632129094
 20
-26.4100802439
 11
18.8632129094
 21
-4.3236649629
 70
160
 71
2
 72
2
 41
0.9
 42
52.7442591333
  3
DIMSTYLE_2
100
AcDbAlignedDimension
 13
10.3065375355
 23
26.3341788894
 14
10.3065375355
 24
-26.4100802439
 50
270.0
100
AcDbRotatedDimension
  0
DIMENSION
  5
23A
100
AcDbEntity
  8
0
100
AcDbDimension
 62
7
  6
CONTINUOUS
  2
*D2
 10
-32.2080917897
 20
34.3684883815
 11
-24.6989114829
 21
34.3684883815
 70
160
 71
1
 72
2
 41
0.9
 42
3.8
  3
DIMSTYLE_1
100
AcDbAlignedDimension
 13
-28.4080917897
 23
22.296223074
 14
-32.2080917897
 24
25.7754643854
 50
180.0
100
AcDbRotatedDimension
  0
LWPOLYLINE
  5
23B
100
AcDbEntity
  8
ASSI
100
AcDbPolyline
 62
250
  6
CONTINUOUS
 90
16
 70
0
 10
10.2476516939
 20
-26.3511944023
 10
10.2987939565
 20
-26.3485360474
 10
10.3496536089
 20
-26.3406058754
 10
10.3996790826
 20
-26.3274089964
 10
10.448344536
 20
-26.3089957293
 10
10.4950617457
 20
-26.2854967784
 10
10.5392022204
 20
-26.2571549034
 10
10.580287303
 20
-26.2242092417
 10
10.6177897592
 20
-26.187008773
 10
10.6511152704
 20
-26.1461247133
 10
10.6798565881
 20
-26.1021227785
 10
10.7037905402
 20
-26.0554208436
 10
10.7227039932
 20
-26.0064561468
 10
10.7363904257
 20
-25.9557364085
 10
10.7446813471
 20
-25.9038487496
 10
10.7474803564
 20
-25.8513657398
  0
LWPOLYLINE
  5
23C
100
AcDbEntity
  8
ASSI
100
AcDbPolyline
 62
250
  6
CONTINUOUS
 90
16
 70
0
 10
-10.7791784312
 20
-26.3511944023
 10
-10.8306987876
 20
-26.3484967526
 10
-10.8818679271
 20
-26.3404615664
 10
-10.9321267993
 20
-26.3271133272
 10
-10.9809773998
 20
-26.3085084324
 10
-11.0277970109
 20
-26.2848052521
 10
-11.0718767141
 20
-26.2563274215
 10
-11.1126757796
 20
-26.2234385228
 10
-11.1498106297
 20
-26.1864631233
 10
-11.1828852215
 20
-26.1457916615
 10
-11.2115378786
 20
-26.1018564101
 10
-11.2354397273
 20
-26.0551472379
 10
-11.2543164686
 20
-26.0061937716
 10
-11.2679589162
 20
-25.9555412966
 10
-11.2762194349
 20
-25.9037418321
 10
-11.2790070937
 20
-25.8513657398
  0
LINE
  5
23D
100
AcDbEntity
  8
ASSI
100
AcDbLine
 62
7
  6
CONTINUOUS
 10
-10.8380642728
 20
-26.4100802439
 11
10.3065375355
 21
-26.4100802439
  0
LINE
  5
23E
100
AcDbEntity
  8
ASSI
100
AcDbLine
 62
250
  6
CONTINUOUS
 10
-10.7791784312
 20
-26.3511944023
 11
10.2476516939
 21
-26.3511944023
  0
LINE
  5
23F
100
AcDbEntity
  8
ASSI
100
AcDbLine
 62
250
  6
CONTINUOUS
 10
-11.2790070937
 20
-25.8513657398
 11
10.7474803564
 21
-25.8513657398
  0
LINE
  5
240
100
AcDbEntity
  8
CURVE
100
AcDbLine
 62
250
  6
CONTINUOUS
 10
0.6330620435
 20
-15.9867299738
 11
-1.1645887807
 21
-15.9867299738
  0
LWPOLYLINE
  5
241
100
AcDbEntity
  8
CURVE
100
AcDbPolyline
 62
250
  6
CONTINUOUS
 90
55
 70
0
 10
-1.1645887807
 20
-15.9867299738
 10
-1.1658997834
 20
-15.9867029936
 10
-1.1672155494
 20
-15.9866227963
 10
-1.1685349639
 20
-15.986490497
 10
-1.1698569117
 20
-15.9863072105
 10
-1.171180278
 20
-15.986074052
 10
-1.1725039476
 20
-15.9857921365
 10
-1.1738268055
 20
-15.9854625789
 10
-1.1751477368
 20
-15.9850864943
 10
-1.1764656265
 20
-15.9846649977
 10
-1.1777793594
 20
-15.9841992041
 10
-1.1790878207
 20
-15.9836902284
 10
-1.1803898953
 20
-15.9831391858
 10
-1.1816844683
 20
-15.9825471912
 10
-1.1829704245
 20
-15.9819153597
 10
-1.184246649
 20
-15.9812448061
 10
-1.1855120267
 20
-15.9805366456
 10
-1.1867654428
 20
-15.9797919932
 10
-1.1880057821
 20
-15.9790119639
 10
-1.1892319296
 20
-15.9781976726
 10
-1.1904427704
 20
-15.9773502344
 10
-1.1916371894
 20
-15.9764707643
 10
-1.1928140716
 20
-15.9755603773
 10
-1.193972302
 20
-15.9746201884
 10
-1.1951107656
 20
-15.9736513126
 10
-1.1962283475
 20
-15.972654865
 10
-1.1973239325
 20
-15.9716319605
 10
-1.1983964056
 20
-15.9705837142
 10
-1.199444652
 20
-15.969511241
 10
-1.2004675564
 20
-15.968415656
 10
-1.2014640041
 20
-15.9672980742
 10
-1.2024328798
 20
-15.9661596106
 10
-1.2033730687
 20
-15.9650013802
 10
-1.2042834557
 20
-15.9638244979
 10
-1.2051629258
 20
-15.9626300789
 10
-1.206010364
 20
-15.9614192382
 10
-1.2068246553
 20
-15.9601930906
 10
-1.2076046846
 20
-15.9589527513
 10
-1.2083493371
 20
-15.9576993353
 10
-1.2090574975
 20
-15.9564339575
 10
-1.2097280511
 20
-15.9551577331
 10
-1.2103598826
 20
-15.9538717768
 10
-1.2109518772
 20
-15.9525772039
 10
-1.2115029199
 20
-15.9512751293
 10
-1.2120118955
 20
-15.949966668
 10
-1.2124776891
 20
-15.948652935
 10
-1.2128991857
 20
-15.9473350454
 10
-1.2132752703
 20
-15.9460141141
 10
-1.2136048279
 20
-15.9446912561
 10
-1.2138867435
 20
-15.9433675865
 10
-1.214119902
 20
-15.9420442203
 10
-1.2143031884
 20
-15.9407222725
 10
-1.2144354878
 20
-15.939402858
 10
-1.2145156851
 20
-15.938087092
 10
-1.2145426653
 20
-15.9367760893
  0
LINE
  5
242
100
AcDbEntity
  8
CURVE
100
AcDbLine
 62
250
  6
CONTINUOUS
 10
-1.1645887807
 20
-14.0891713806
 11
0.6330620435
 21
-14.0891713806
  0
LWPOLYLINE
  5
243
100
AcDbEntity
  8
CURVE
100
AcDbPolyline
 62
250
  6
CONTINUOUS
 90
55
 70
0
 10
0.6330620435
 20
-14.0891713806
 10
0.6343730461
 20
-14.0891983608
 10
0.6356888122
 20
-14.0892785581
 10
0.6370082266
 20
-14.0894108575
 10
0.6383301745
 20
-14.0895941439
 10
0.6396535407
 20
-14.0898273024
 10
0.6409772103
 20
-14.0901092179
 10
0.6423000683
 20
-14.0904387755
 10
0.6436209996
 20
-14.0908148601
 10
0.6449388892
 20
-14.0912363567
 10
0.6462526222
 20
-14.0917021503
 10
0.6475610835
 20
-14.092211126
 10
0.6488631581
 20
-14.0927621686
 10
0.650157731
 20
-14.0933541632
 10
0.6514436872
 20
-14.0939859948
 10
0.6527199117
 20
-14.0946565483
 10
0.6539852895
 20
-14.0953647088
 10
0.6552387055
 20
-14.0961093612
 10
0.6564790448
 20
-14.0968893906
 10
0.6577051923
 20
-14.0977036818
 10
0.6589160331
 20
-14.09855112
 10
0.6601104521
 20
-14.0994305901
 10
0.6612873343
 20
-14.1003409771
 10
0.6624455648
 20
-14.101281166
 10
0.6635840284
 20
-14.1022500418
 10
0.6647016102
 20
-14.1032464894
 10
0.6657971952
 20
-14.1042693939
 10
0.6668696684
 20
-14.1053176402
 10
0.6679179147
 20
-14.1063901134
 10
0.6689408192
 20
-14.1074856984
 10
0.6699372668
 20
-14.1086032802
 10
0.6709061426
 20
-14.1097417438
 10
0.6718463314
 20
-14.1108999743
 10
0.6727567184
 20
-14.1120768565
 10
0.6736361885
 20
-14.1132712755
 10
0.6744836267
 20
-14.1144821162
 10
0.675297918
 20
-14.1157082638
 10
0.6760779474
 20
-14.1169486031
 10
0.6768225998
 20
-14.1182020191
 10
0.6775307603
 20
-14.1194673969
 10
0.6782013138
 20
-14.1207436214
 10
0.6788331454
 20
-14.1220295776
 10
0.67942514
 20
-14.1233241505
 10
0.6799761826
 20
-14.1246262251
 10
0.6804851582
 20
-14.1259346864
 10
0.6809509519
 20
-14.1272484194
 10
0.6813724485
 20
-14.128566309
 10
0.6817485331
 20
-14.1298872403
 10
0.6820780907
 20
-14.1312100983
 10
0.6823600062
 20
-14.1325337679
 10
0.6825931647
 20
-14.1338571341
 10
0.6827764511
 20
-14.1351790819
 10
0.6829087505
 20
-14.1364984964
 10
0.6829889478
 20
-14.1378142625
 10
0.683015928
 20
-14.1391252651
  0
LINE
  5
244
100
AcDbEntity
  8
ASSI
100
AcDbLine
 62
7
  6
CONTINUOUS
 10
-11.3653172368
 20
-22.501533951
 11
-11.3413755456
 21
-25.9137341917
  0
LINE
  5
245
100
AcDbEntity
  8
ASSI
100
AcDbLine
 62
7
  6
CONTINUOUS
 10
-11.3653172368
 20
22.4256325965
 11
-11.3413755456
 21
25.8378328373
  0
LINE
  5
246
100
AcDbEntity
  8
CURVE
100
AcDbLine
 62
7
  6
CONTINUOUS
 10
-1.2145426653
 20
15.8608747349
 11
-1.1645887807
 21
15.9108286194
  0
LINE
  5
247
100
AcDbEntity
  8
CURVE
100
AcDbLine
 62
7
  6
CONTINUOUS
 10
-1.2145426653
 20
14.865268387
 11
-0.1689824328
 21
15.9108286194
  0
LWPOLYLINE
  5
248
100
AcDbEntity
  8
ASSI
100
AcDbPolyline
 62
250
  6
CONTINUOUS
 90
16
 70
0
 10
-11.2790070937
 20
0.7005266297
 10
-11.2762193571
 20
0.6480269031
 10
-11.2679379409
 20
0.5961218037
 10
-11.2542588329
 20
0.5453843184
 10
-11.2353502652
 20
0.4964022778
 10
-11.2114184194
 20
0.4496836625
 10
-11.182675774
 20
0.4056656399
 10
-11.1493439382
 20
0.3647654423
 10
-11.1118309209
 20
0.3275512436
 10
-11.0707349326
 20
0.2945979135
 10
-11.0265851787
 20
0.2662545366
 10
-10.9798602822
 20
0.2427588349
 10
-10.9311907131
 20
0.224353166
 10
-10.8811657464
 20
0.2111669779
 10
-10.8303111166
 20
0.2032489721
 10
-10.7791784312
 20
0.2006027821
  0
LINE
  5
249
100
AcDbEntity
  8
ASSI
100
AcDbLine
 62
7
  6
CONTINUOUS
 10
-11.3657633686
 20
22.296223074
 11
-11.3657633686
 21
0.6426964552
  0
LINE
  5
24A
100
AcDbEntity
  8
ASSI
100
AcDbLine
 62
7
  6
CONTINUOUS
 10
-11.3657633686
 20
-0.7185978096
 11
-11.3657633686
 21
-22.3721244284
  0
LINE
  5
24B
100
AcDbEntity
  8
ASSI
100
AcDbLine
 62
250
  6
CONTINUOUS
 10
-11.2790070937
 20
25.7754643854
 11
-11.2790070937
 21
0.7005266297
  0
LINE
  5
24C
100
AcDbEntity
  8
ASSI
100
AcDbLine
 62
250
  6
CONTINUOUS
 10
-11.2790070937
 20
-0.7764279841
 11
-11.2790070937
 21
-25.8513657398
  0
LINE
  5
24D
100
AcDbEntity
  8
ASSI
100
AcDbLine
 62
250
  6
CONTINUOUS
 10
-10.7791784312
 20
0.2006027821
 11
-10.7791784312
 21
26.2752930479
  0
LINE
  5
24E
100
AcDbEntity
  8
ASSI
100
AcDbLine
 62
250
  6
CONTINUOUS
 10
-10.7791784312
 20
-0.2765041365
 11
-10.7791784312
 21
-26.3511944023
  0
LWPOLYLINE
  5
24F
100
AcDbEntity
  8
0
100
AcDbPolyline
 62
7
  6
CONTINUOUS
 90
3
 70
0
 43
0.3500000019
 10
0.7699511719
 20
35.3021662598
 10
0.6985209961
 20
35.0878811035
 10
0.5556660156
 20
34.8021657715
  0
LINE
  5
250
100
AcDbEntity
  8
ASSI
100
AcDbLine
 62
250
  6
CONTINUOUS
 10
10.2476516939
 20
26.2752930479
 11
10.3065375355
 21
26.3341788894
  0
LINE
  5
251
100
AcDbEntity
  8
CURVE
100
AcDbLine
 62
7
  6
CONTINUOUS
 10
-1.0709346782
 20
14.0132700262
 11
0.683015928
 21
15.7672206323
  0
LINE
  5
252
100
AcDbEntity
  8
ASSI
100
AcDbLine
 62
250
  6
CONTINUOUS
 10
10.7474803564
 20
25.7754643854
 11
10.8098488084
 21
25.8378328373
  0
LINE
  5
253
100
AcDbEntity
  8
CURVE
100
AcDbLine
 62
7
  6
CONTINUOUS
 10
-0.0753283303
 20
14.0132700262
 11
0.683015928
 21
14.7716142844
  0
LINE
  5
254
100
AcDbEntity
  8
ASSI
100
AcDbLine
 62
250
  6
CONTINUOUS
 10
10.3065375355
 20
-26.4100802439
 11
10.2476516939
 21
-26.3511944023
  0
LINE
  5
255
100
AcDbEntity
  8
ASSI
100
AcDbLine
 62
250
  6
CONTINUOUS
 10
10.8098488084
 20
-25.9137341917
 11
10.7474803564
 21
-25.8513657398
  0
LINE
  5
256
100
AcDbEntity
  8
ASSI
100
AcDbLine
 62
7
  6
CONTINUOUS
 10
-10.3571881526
 20
0.1514239674
 11
-10.3465627972
 21
0.1620493228
  0
LINE
  5
257
100
AcDbEntity
  8
ASSI
100
AcDbLine
 62
250
  6
CONTINUOUS
 10
-11.3657633686
 20
0.6426964552
 11
-11.2790070937
 21
0.7005266297
  0
LINE
  5
258
100
AcDbEntity
  8
ASSI
100
AcDbLine
 62
250
  6
CONTINUOUS
 10
-10.8658204761
 20
0.1428487514
 11
-10.7791784312
 21
0.2006027821
  0
LINE
  5
259
100
AcDbEntity
  8
ASSI
100
AcDbLine
 62
250
  6
CONTINUOUS
 10
-11.2790070937
 20
-0.7764279841
 11
-11.3657633686
 21
-0.7185978096
  0
LINE
  5
25A
100
AcDbEntity
  8
ASSI
100
AcDbLine
 62
250
  6
CONTINUOUS
 10
-10.7791784312
 20
-0.2765041365
 11
-10.8658204761
 21
-0.2187501058
  0
LINE
  5
25B
100
AcDbEntity
  8
ASSI
100
AcDbLine
 62
7
  6
CONTINUOUS
 10
-10.3571881526
 20
-0.2273253218
 11
-10.3465627972
 21
-0.2379506772
  0
LINE
  5
25C
100
AcDbEntity
  8
CURVE
100
AcDbLine
 62
250
  6
CONTINUOUS
 10
-1.2145426653
 20
-15.9367760893
 11
-1.2145426653
 21
-14.1391252651
  0
LINE
  5
25D
100
AcDbEntity
  8
CURVE
100
AcDbLine
 62
250
  6
CONTINUOUS
 10
-1.2145426653
 20
14.0632239107
 11
-1.2145426653
 21
15.8608747349
  0
LWPOLYLINE
  5
25E
100
AcDbEntity
  8
CURVE
100
AcDbPolyline
 62
250
  6
CONTINUOUS
 90
55
 70
0
 10
-1.2145426653
 20
15.8608747349
 10
-1.2145156851
 20
15.8621857375
 10
-1.2144354878
 20
15.8635015036
 10
-1.2143031884
 20
15.8648209181
 10
-1.214119902
 20
15.8661428659
 10
-1.2138867435
 20
15.8674662321
 10
-1.2136048279
 20
15.8687899017
 10
-1.2132752703
 20
15.8701127597
 10
-1.2128991857
 20
15.871433691
 10
-1.2124776891
 20
15.8727515806
 10
-1.2120118955
 20
15.8740653136
 10
-1.2115029199
 20
15.8753737749
 10
-1.2109518772
 20
15.8766758495
 10
-1.2103598826
 20
15.8779704224
 10
-1.2097280511
 20
15.8792563786
 10
-1.2090574975
 20
15.8805326031
 10
-1.2083493371
 20
15.8817979809
 10
-1.2076046846
 20
15.8830513969
 10
-1.2068246553
 20
15.8842917362
 10
-1.206010364
 20
15.8855178838
 10
-1.2051629258
 20
15.8867287245
 10
-1.2042834557
 20
15.8879231435
 10
-1.2033730687
 20
15.8891000257
 10
-1.2024328798
 20
15.8902582562
 10
-1.2014640041
 20
15.8913967198
 10
-1.2004675564
 20
15.8925143016
 10
-1.199444652
 20
15.8936098866
 10
-1.1983964056
 20
15.8946823598
 10
-1.1973239325
 20
15.8957306061
 10
-1.1962283475
 20
15.8967535106
 10
-1.1951107656
 20
15.8977499582
 10
-1.193972302
 20
15.898718834
 10
-1.1928140716
 20
15.8996590229
 10
-1.1916371894
 20
15.9005694099
 10
-1.1904427704
 20
15.90144888
 10
-1.1892319296
 20
15.9022963182
 10
-1.1880057821
 20
15.9031106094
 10
-1.1867654428
 20
15.9038906388
 10
-1.1855120267
 20
15.9046352912
 10
-1.184246649
 20
15.9053434517
 10
-1.1829704245
 20
15.9060140052
 10
-1.1816844683
 20
15.9066458368
 10
-1.1803898953
 20
15.9072378314
 10
-1.1790878207
 20
15.907788874
 10
-1.1777793594
 20
15.9082978497
 10
-1.1764656265
 20
15.9087636433
 10
-1.1751477368
 20
15.9091851399
 10
-1.1738268055
 20
15.9095612245
 10
-1.1725039476
 20
15.9098907821
 10
-1.171180278
 20
15.9101726976
 10
-1.1698569117
 20
15.9104058561
 10
-1.1685349639
 20
15.9105891425
 10
-1.1672155494
 20
15.9107214419
 10
-1.1658997834
 20
15.9108016392
 10
-1.1645887807
 20
15.9108286194
  0
LWPOLYLINE
  5
25F
100
AcDbEntity
  8
CURVE
100
AcDbPolyline
 62
250
  6
CONTINUOUS
 90
55
 70
0
 10
-1.2145426653
 20
-14.1391252651
 10
-1.2145156851
 20
-14.1378142625
 10
-1.2144354878
 20
-14.1364984964
 10
-1.2143031884
 20
-14.1351790819
 10
-1.214119902
 20
-14.1338571341
 10
-1.2138867435
 20
-14.1325337679
 10
-1.2136048279
 20
-14.1312100983
 10
-1.2132752703
 20
-14.1298872403
 10
-1.2128991857
 20
-14.128566309
 10
-1.2124776891
 20
-14.1272484194
 10
-1.2120118955
 20
-14.1259346864
 10
-1.2115029199
 20
-14.1246262251
 10
-1.2109518772
 20
-14.1233241505
 10
-1.2103598826
 20
-14.1220295776
 10
-1.2097280511
 20
-14.1207436214
 10
-1.2090574975
 20
-14.1194673969
 10
-1.2083493371
 20
-14.1182020191
 10
-1.2076046846
 20
-14.1169486031
 10
-1.2068246553
 20
-14.1157082638
 10
-1.206010364
 20
-14.1144821162
 10
-1.2051629258
 20
-14.1132712755
 10
-1.2042834557
 20
-14.1120768565
 10
-1.2033730687
 20
-14.1108999743
 10
-1.2024328798
 20
-14.1097417438
 10
-1.2014640041
 20
-14.1086032802
 10
-1.2004675564
 20
-14.1074856984
 10
-1.199444652
 20
-14.1063901134
 10
-1.1983964056
 20
-14.1053176402
 10
-1.1973239325
 20
-14.1042693939
 10
-1.1962283475
 20
-14.1032464894
 10
-1.1951107656
 20
-14.1022500418
 10
-1.193972302
 20
-14.101281166
 10
-1.1928140716
 20
-14.1003409771
 10
-1.1916371894
 20
-14.0994305901
 10
-1.1904427704
 20
-14.09855112
 10
-1.1892319296
 20
-14.0977036818
 10
-1.1880057821
 20
-14.0968893906
 10
-1.1867654428
 20
-14.0961093612
 10
-1.1855120267
 20
-14.0953647088
 10
-1.184246649
 20
-14.0946565483
 10
-1.1829704245
 20
-14.0939859948
 10
-1.1816844683
 20
-14.0933541632
 10
-1.1803898953
 20
-14.0927621686
 10
-1.1790878207
 20
-14.092211126
 10
-1.1777793594
 20
-14.0917021503
 10
-1.1764656265
 20
-14.0912363567
 10
-1.1751477368
 20
-14.0908148601
 10
-1.1738268055
 20
-14.0904387755
 10
-1.1725039476
 20
-14.0901092179
 10
-1.171180278
 20
-14.0898273024
 10
-1.1698569117
 20
-14.0895941439
 10
-1.1685349639
 20
-14.0894108575
 10
-1.1672155494
 20
-14.0892785581
 10
-1.1658997834
 20
-14.0891983608
 10
-1.1645887807
 20
-14.0891713806
  0
LWPOLYLINE
  5
260
100
AcDbEntity
  8
ASSI
100
AcDbPolyline
 62
250
  6
CONTINUOUS
 90
16
 70
0
 10
10.2476516939
 20
0.2006027821
 10
10.2998828816
 20
0.2033636923
 10
10.351542146
 20
0.2115684586
 10
10.4020638262
 20
0.2251272402
 10
10.4508947178
 20
0.2438915704
 10
10.4975001302
 20
0.2676559828
 10
10.5413697415
 20
0.2961602608
 10
10.5820231863
 20
0.3290922871
 10
10.6190153157
 20
0.3660914612
 10
10.6519410717
 20
0.4067526478
 10
10.6804399226
 20
0.4506306134
 10
10.7041998103
 20
0.4972449011
 10
10.7229605678
 20
0.5460850919
 10
10.7365167677
 20
0.5966163932
 10
10.7447199719
 20
0.6482854953
 10
10.7474803564
 20
0.7005266297
  0
LINE
  5
261
100
AcDbEntity
  8
ASSI
100
AcDbLine
 62
250
  6
CONTINUOUS
 10
-11.2790070937
 20
-0.7764279841
 11
10.7474803564
 21
-0.7764279841
  0
LINE
  5
262
100
AcDbEntity
  8
ASSI
100
AcDbLine
 62
250
  6
CONTINUOUS
 10
10.2476516939
 20
-0.2765041365
 11
-10.7791784312
 21
-0.2765041365
  0
LINE
  5
263
100
AcDbEntity
  8
ASSI
100
AcDbLine
 62
7
  6
CONTINUOUS
 10
-10.3465627972
 20
-0.2379506772
 11
9.81503606
 21
-0.2379506772
  0
LINE
  5
264
100
AcDbEntity
  8
ASSI
100
AcDbLine
 62
7
  6
CONTINUOUS
 10
-10.8658204761
 20
-0.2187501058
 11
-10.8571120002
 21
-0.2187501058
  0
LINE
  5
265
100
AcDbEntity
  8
ASSI
100
AcDbLine
 62
7
  6
CONTINUOUS
 10
10.3255852629
 20
-0.2187501058
 11
10.3342937388
 21
-0.2187501058
  0
LINE
  5
266
100
AcDbEntity
  8
ASSI
100
AcDbLine
 62
7
  6
CONTINUOUS
 10
10.3342937388
 20
0.1428487514
 11
10.3255852629
 21
0.1428487514
  0
LINE
  5
267
100
AcDbEntity
  8
ASSI
100
AcDbLine
 62
7
  6
CONTINUOUS
 10
-10.8571120002
 20
0.1428487514
 11
-10.8658204761
 21
0.1428487514
  0
LINE
  5
268
100
AcDbEntity
  8
ASSI
100
AcDbLine
 62
7
  6
CONTINUOUS
 10
9.81503606
 20
0.1620493228
 11
-10.3465627972
 21
0.1620493228
  0
LINE
  5
269
100
AcDbEntity
  8
ASSI
100
AcDbLine
 62
250
  6
CONTINUOUS
 10
-10.7791784312
 20
0.2006027821
 11
10.2476516939
 21
0.2006027821
  0
LINE
  5
26A
100
AcDbEntity
  8
CURVE
100
AcDbLine
 62
250
  6
CONTINUOUS
 10
0.683015928
 20
15.8608747349
 11
0.683015928
 21
14.0632239107
  0
LINE
  5
26B
100
AcDbEntity
  8
CURVE
100
AcDbLine
 62
250
  6
CONTINUOUS
 10
0.683015928
 20
-14.1391252651
 11
0.683015928
 21
-15.9367760893
  0
LWPOLYLINE
  5
26C
100
AcDbEntity
  8
CURVE
100
AcDbPolyline
 62
250
  6
CONTINUOUS
 90
55
 70
0
 10
0.683015928
 20
14.0632239107
 10
0.6829889478
 20
14.061912908
 10
0.6829087505
 20
14.060597142
 10
0.6827764511
 20
14.0592777275
 10
0.6825931647
 20
14.0579557797
 10
0.6823600062
 20
14.0566324135
 10
0.6820780907
 20
14.0553087439
 10
0.6817485331
 20
14.0539858859
 10
0.6813724485
 20
14.0526649546
 10
0.6809509519
 20
14.051347065
 10
0.6804851582
 20
14.050033332
 10
0.6799761826
 20
14.0487248707
 10
0.67942514
 20
14.0474227961
 10
0.6788331454
 20
14.0461282232
 10
0.6782013138
 20
14.0448422669
 10
0.6775307603
 20
14.0435660425
 10
0.6768225998
 20
14.0423006647
 10
0.6760779474
 20
14.0410472487
 10
0.675297918
 20
14.0398069094
 10
0.6744836267
 20
14.0385807618
 10
0.6736361885
 20
14.0373699211
 10
0.6727567184
 20
14.0361755021
 10
0.6718463314
 20
14.0349986198
 10
0.6709061426
 20
14.0338403894
 10
0.6699372668
 20
14.0327019258
 10
0.6689408192
 20
14.031584344
 10
0.6679179147
 20
14.030488759
 10
0.6668696684
 20
14.0294162858
 10
0.6657971952
 20
14.0283680395
 10
0.6647016102
 20
14.027345135
 10
0.6635840284
 20
14.0263486874
 10
0.6624455648
 20
14.0253798116
 10
0.6612873343
 20
14.0244396227
 10
0.6601104521
 20
14.0235292357
 10
0.6589160331
 20
14.0226497656
 10
0.6577051923
 20
14.0218023274
 10
0.6564790448
 20
14.0209880361
 10
0.6552387055
 20
14.0202080068
 10
0.6539852895
 20
14.0194633544
 10
0.6527199117
 20
14.0187551939
 10
0.6514436872
 20
14.0180846403
 10
0.650157731
 20
14.0174528088
 10
0.6488631581
 20
14.0168608142
 10
0.6475610835
 20
14.0163097716
 10
0.6462526222
 20
14.0158007959
 10
0.6449388892
 20
14.0153350023
 10
0.6436209996
 20
14.0149135057
 10
0.6423000683
 20
14.0145374211
 10
0.6409772103
 20
14.0142078635
 10
0.6396535407
 20
14.013925948
 10
0.6383301745
 20
14.0136927895
 10
0.6370082266
 20
14.013509503
 10
0.6356888122
 20
14.0133772037
 10
0.6343730461
 20
14.0132970064
 10
0.6330620435
 20
14.0132700262
  0
LWPOLYLINE
  5
26D
100
AcDbEntity
  8
CURVE
100
AcDbPolyline
 62
250
  6
CONTINUOUS
 90
55
 70
0
 10
0.683015928
 20
-15.9367760893
 10
0.6829889478
 20
-15.938087092
 10
0.6829087505
 20
-15.939402858
 10
0.6827764511
 20
-15.9407222725
 10
0.6825931647
 20
-15.9420442203
 10
0.6823600062
 20
-15.9433675865
 10
0.6820780907
 20
-15.9446912561
 10
0.6817485331
 20
-15.9460141141
 10
0.6813724485
 20
-15.9473350454
 10
0.6809509519
 20
-15.948652935
 10
0.6804851582
 20
-15.949966668
 10
0.6799761826
 20
-15.9512751293
 10
0.67942514
 20
-15.9525772039
 10
0.6788331454
 20
-15.9538717768
 10
0.6782013138
 20
-15.9551577331
 10
0.6775307603
 20
-15.9564339575
 10
0.6768225998
 20
-15.9576993353
 10
0.6760779474
 20
-15.9589527513
 10
0.675297918
 20
-15.9601930906
 10
0.6744836267
 20
-15.9614192382
 10
0.6736361885
 20
-15.9626300789
 10
0.6727567184
 20
-15.9638244979
 10
0.6718463314
 20
-15.9650013802
 10
0.6709061426
 20
-15.9661596106
 10
0.6699372668
 20
-15.9672980742
 10
0.6689408192
 20
-15.968415656
 10
0.6679179147
 20
-15.969511241
 10
0.6668696684
 20
-15.9705837142
 10
0.6657971952
 20
-15.9716319605
 10
0.6647016102
 20
-15.972654865
 10
0.6635840284
 20
-15.9736513126
 10
0.6624455648
 20
-15.9746201884
 10
0.6612873343
 20
-15.9755603773
 10
0.6601104521
 20
-15.9764707643
 10
0.6589160331
 20
-15.9773502344
 10
0.6577051923
 20
-15.9781976726
 10
0.6564790448
 20
-15.9790119639
 10
0.6552387055
 20
-15.9797919932
 10
0.6539852895
 20
-15.9805366456
 10
0.6527199117
 20
-15.9812448061
 10
0.6514436872
 20
-15.9819153597
 10
0.650157731
 20
-15.9825471912
 10
0.6488631581
 20
-15.9831391858
 10
0.6475610835
 20
-15.9836902284
 10
0.6462526222
 20
-15.9841992041
 10
0.6449388892
 20
-15.9846649977
 10
0.6436209996
 20
-15.9850864943
 10
0.6423000683
 20
-15.9854625789
 10
0.6409772103
 20
-15.9857921365
 10
0.6396535407
 20
-15.986074052
 10
0.6383301745
 20
-15.9863072105
 10
0.6370082266
 20
-15.986490497
 10
0.6356888122
 20
-15.9866227963
 10
0.6343730461
 20
-15.9867029936
 10
0.6330620435
 20
-15.9867299738
  0
LWPOLYLINE
  5
26E
100
AcDbEntity
  8
ASSI
100
AcDbPolyline
 62
250
  6
CONTINUOUS
 90
16
 70
0
 10
-10.7791784312
 20
-0.2765041365
 10
-10.8314096189
 20
-0.2792650467
 10
-10.8830688832
 20
-0.287469813
 10
-10.9335905635
 20
-0.3010285946
 10
-10.9824214551
 20
-0.3197929248
 10
-11.0290268675
 20
-0.3435573372
 10
-11.0728964788
 20
-0.3720616153
 10
-11.1135499235
 20
-0.4049936415
 10
-11.1505420529
 20
-0.4419928156
 10
-11.183467809
 20
-0.4826540022
 10
-11.2119666598
 20
-0.5265319678
 10
-11.2357265475
 20
-0.5731462555
 10
-11.254487305
 20
-0.6219864463
 10
-11.268043505
 20
-0.6725177476
 10
-11.2762467091
 20
-0.7241868497
 10
-11.2790070937
 20
-0.7764279841
  0
LINE
  5
26F
100
AcDbEntity
  8
ASSI
100
AcDbLine
 62
250
  6
CONTINUOUS
 10
-11.2790070937
 20
0.7005266297
 11
10.7474803564
 21
0.7005266297
  0
LWPOLYLINE
  5
270
100
AcDbEntity
  8
0
100
AcDbPolyline
 62
7
  6
CONTINUOUS
 90
4
 70
0
 43
0.3500000019
 10
15.7560708008
 20
1.8906208038
 10
15.113215332
 20
1.8906208038
 10
15.113215332
 20
3.3906207581
 10
18.1132128906
 20
2.533477951
  0
LINE
  5
271
100
AcDbEntity
  8
ASSI
100
AcDbLine
 62
7
  6
CONTINUOUS
 10
9.8256614154
 20
-0.2273253218
 11
9.81503606
 21
-0.2379506772
  0
LINE
  5
272
100
AcDbEntity
  8
ASSI
100
AcDbLine
 62
250
  6
CONTINUOUS
 10
10.3342937388
 20
-0.2187501058
 11
10.2476516939
 21
-0.2765041365
  0
LINE
  5
273
100
AcDbEntity
  8
ASSI
100
AcDbLine
 62
250
  6
CONTINUOUS
 10
10.8342366314
 20
-0.7185978096
 11
10.7474803564
 21
-0.7764279841
  0
LWPOLYLINE
  5
274
100
AcDbEntity
  8
0
100
AcDbPolyline
 62
7
  6
CONTINUOUS
 90
10
 70
0
 43
0.3500000019
 10
17.6132124023
 20
0.8191921692
 10
17.7560673828
 20
0.8906207504
 10
17.8274975586
 20
0.8906207504
 10
17.9703579102
 20
0.747763588
 10
17.9703579102
 20
0.6763350487
 10
17.8989277344
 20
0.6049064674
 10
17.8274975586
 20
0.6049064674
 10
17.6846425781
 20
0.6763350487
 10
17.6132124023
 20
0.747763588
 10
17.6132124023
 20
0.8191921692
  0
LWPOLYLINE
  5
275
100
AcDbEntity
  8
0
100
AcDbPolyline
 62
7
  6
CONTINUOUS
 90
3
 70
0
 43
0.3500000019
 10
17.8274975586
 20
0.8906207504
 10
18.0417827148
 20
0.8191921692
 10
18.3274980469
 20
0.6763350487
  0
LINE
  5
276
100
AcDbEntity
  8
ASSI
100
AcDbLine
 62
250
  6
CONTINUOUS
 10
10.2476516939
 20
0.2006027821
 11
10.3342937388
 21
0.1428487514
  0
LINE
  5
277
100
AcDbEntity
  8
ASSI
100
AcDbLine
 62
250
  6
CONTINUOUS
 10
10.7474803564
 20
0.7005266297
 11
10.8342366314
 21
0.6426964552
  0
LINE
  5
278
100
AcDbEntity
  8
ASSI
100
AcDbLine
 62
7
  6
CONTINUOUS
 10
9.8256614154
 20
0.1514239674
 11
9.81503606
 21
0.1620493228
  0
LWPOLYLINE
  5
279
100
AcDbEntity
  8
ASSI
100
AcDbPolyline
 62
250
  6
CONTINUOUS
 90
16
 70
0
 10
10.7474803564
 20
-0.7764279841
 10
10.7446926198
 20
-0.7239282575
 10
10.7364112037
 20
-0.6720231582
 10
10.7227320957
 20
-0.6212856728
 10
10.7038235279
 20
-0.5723036323
 10
10.6798916822
 20
-0.5255850169
 10
10.6511490368
 20
-0.4815669943
 10
10.617817201
 20
-0.4406667967
 10
10.5803041836
 20
-0.4034525981
 10
10.5392081953
 20
-0.370499268
 10
10.4950584415
 20
-0.342155891
 10
10.448333545
 20
-0.3186601893
 10
10.3996639759
 20
-0.3002545204
 10
10.3496390092
 20
-0.2870683323
 10
10.2987843793
 20
-0.2791503265
 10
10.2476516939
 20
-0.2765041365
  0
LINE
  5
27A
100
AcDbEntity
  8
ASSI
100
AcDbLine
 62
7
  6
CONTINUOUS
 10
10.8337904996
 20
22.4256325965
 11
10.8098488084
 21
25.8378328373
  0
LINE
  5
27B
100
AcDbEntity
  8
ASSI
100
AcDbLine
 62
250
  6
CONTINUOUS
 10
10.2476516939
 20
-0.2765041365
 11
10.2476516939
 21
-26.3511944023
  0
LINE
  5
27C
100
AcDbEntity
  8
ASSI
100
AcDbLine
 62
250
  6
CONTINUOUS
 10
10.2476516939
 20
0.2006027821
 11
10.2476516939
 21
26.2752930479
  0
LINE
  5
27D
100
AcDbEntity
  8
ASSI
100
AcDbLine
 62
250
  6
CONTINUOUS
 10
10.7474803564
 20
-25.8513657398
 11
10.7474803564
 21
-0.7764279841
  0
LINE
  5
27E
100
AcDbEntity
  8
ASSI
100
AcDbLine
 62
250
  6
CONTINUOUS
 10
10.7474803564
 20
0.7005266297
 11
10.7474803564
 21
25.7754643854
  0
LINE
  5
27F
100
AcDbEntity
  8
ASSI
100
AcDbLine
 62
7
  6
CONTINUOUS
 10
10.8342366314
 20
-22.3721244284
 11
10.8342366314
 21
-0.7185978096
  0
LINE
  5
280
100
AcDbEntity
  8
ASSI
100
AcDbLine
 62
7
  6
CONTINUOUS
 10
10.8342366314
 20
0.6426964552
 11
10.8342366314
 21
22.296223074
  0
LINE
  5
281
100
AcDbEntity
  8
ASSI
100
AcDbLine
 62
7
  6
CONTINUOUS
 10
10.8337904996
 20
-22.501533951
 11
10.8098488084
 21
-25.9137341917
  0
LINE
  5
282
100
AcDbEntity
  8
CURVE
100
AcDbLine
 62
7
  6
CONTINUOUS
 10
-0.456198407
 20
-14.0891713806
 11
-1.2145426653
 21
-14.8475156389
  0
LINE
  5
283
100
AcDbEntity
  8
ASSI
100
AcDbLine
 62
250
  6
CONTINUOUS
 10
-11.2790070937
 20
-25.8513657398
 11
-11.3413755456
 21
-25.9137341917
  0
LINE
  5
284
100
AcDbEntity
  8
CURVE
100
AcDbLine
 62
7
  6
CONTINUOUS
 10
0.5394079409
 20
-14.0891713806
 11
-1.2145426653
 21
-15.8431219868
  0
LINE
  5
285
100
AcDbEntity
  8
ASSI
100
AcDbLine
 62
250
  6
CONTINUOUS
 10
-10.7791784312
 20
-26.3511944023
 11
-10.8380642728
 21
-26.4100802439
  0
LINE
  5
286
100
AcDbEntity
  8
CURVE
100
AcDbLine
 62
7
  6
CONTINUOUS
 10
0.683015928
 20
-14.9411697414
 11
-0.3625443044
 21
-15.9867299738
  0
LINE
  5
287
100
AcDbEntity
  8
ASSI
100
AcDbLine
 62
250
  6
CONTINUOUS
 10
-11.3413755456
 20
25.8378328373
 11
-11.2790070937
 21
25.7754643854
  0
LINE
  5
288
100
AcDbEntity
  8
ASSI
100
AcDbLine
 62
250
  6
CONTINUOUS
 10
-10.8380642728
 20
26.3341788894
 11
-10.7791784312
 21
26.2752930479
  0
LINE
  5
289
100
AcDbEntity
  8
CURVE
100
AcDbLine
 62
7
  6
CONTINUOUS
 10
0.683015928
 20
-15.9367760893
 11
0.6330620435
 21
-15.9867299738
  0
LINE
  5
28A
100
AcDbEntity
  8
CURVE
100
AcDbLine
 62
250
  6
CONTINUOUS
 10
0.6330620435
 20
14.0132700262
 11
-1.1645887807
 21
14.0132700262
  0
LWPOLYLINE
  5
28B
100
AcDbEntity
  8
CURVE
100
AcDbPolyline
 62
250
  6
CONTINUOUS
 90
55
 70
0
 10
-1.1645887807
 20
14.0132700262
 10
-1.1658997834
 20
14.0132970064
 10
-1.1672155494
 20
14.0133772037
 10
-1.1685349639
 20
14.013509503
 10
-1.1698569117
 20
14.0136927895
 10
-1.171180278
 20
14.013925948
 10
-1.1725039476
 20
14.0142078635
 10
-1.1738268055
 20
14.0145374211
 10
-1.1751477368
 20
14.0149135057
 10
-1.1764656265
 20
14.0153350023
 10
-1.1777793594
 20
14.0158007959
 10
-1.1790878207
 20
14.0163097716
 10
-1.1803898953
 20
14.0168608142
 10
-1.1816844683
 20
14.0174528088
 10
-1.1829704245
 20
14.0180846403
 10
-1.184246649
 20
14.0187551939
 10
-1.1855120267
 20
14.0194633544
 10
-1.1867654428
 20
14.0202080068
 10
-1.1880057821
 20
14.0209880361
 10
-1.1892319296
 20
14.0218023274
 10
-1.1904427704
 20
14.0226497656
 10
-1.1916371894
 20
14.0235292357
 10
-1.1928140716
 20
14.0244396227
 10
-1.193972302
 20
14.0253798116
 10
-1.1951107656
 20
14.0263486874
 10
-1.1962283475
 20
14.027345135
 10
-1.1973239325
 20
14.0283680395
 10
-1.1983964056
 20
14.0294162858
 10
-1.199444652
 20
14.030488759
 10
-1.2004675564
 20
14.031584344
 10
-1.2014640041
 20
14.0327019258
 10
-1.2024328798
 20
14.0338403894
 10
-1.2033730687
 20
14.0349986198
 10
-1.2042834557
 20
14.0361755021
 10
-1.2051629258
 20
14.0373699211
 10
-1.206010364
 20
14.0385807618
 10
-1.2068246553
 20
14.0398069094
 10
-1.2076046846
 20
14.0410472487
 10
-1.2083493371
 20
14.0423006647
 10
-1.2090574975
 20
14.0435660425
 10
-1.2097280511
 20
14.0448422669
 10
-1.2103598826
 20
14.0461282232
 10
-1.2109518772
 20
14.0474227961
 10
-1.2115029199
 20
14.0487248707
 10
-1.2120118955
 20
14.050033332
 10
-1.2124776891
 20
14.051347065
 10
-1.2128991857
 20
14.0526649546
 10
-1.2132752703
 20
14.0539858859
 10
-1.2136048279
 20
14.0553087439
 10
-1.2138867435
 20
14.0566324135
 10
-1.214119902
 20
14.0579557797
 10
-1.2143031884
 20
14.0592777275
 10
-1.2144354878
 20
14.060597142
 10
-1.2145156851
 20
14.061912908
 10
-1.2145426653
 20
14.0632239107
  0
LINE
  5
28C
100
AcDbEntity
  8
CURVE
100
AcDbLine
 62
250
  6
CONTINUOUS
 10
-1.1645887807
 20
15.9108286194
 11
0.6330620435
 21
15.9108286194
  0
LWPOLYLINE
  5
28D
100
AcDbEntity
  8
CURVE
100
AcDbPolyline
 62
250
  6
CONTINUOUS
 90
55
 70
0
 10
0.6330620435
 20
15.9108286194
 10
0.6343730461
 20
15.9108016392
 10
0.6356888122
 20
15.9107214419
 10
0.6370082266
 20
15.9105891425
 10
0.6383301745
 20
15.9104058561
 10
0.6396535407
 20
15.9101726976
 10
0.6409772103
 20
15.9098907821
 10
0.6423000683
 20
15.9095612245
 10
0.6436209996
 20
15.9091851399
 10
0.6449388892
 20
15.9087636433
 10
0.6462526222
 20
15.9082978497
 10
0.6475610835
 20
15.907788874
 10
0.6488631581
 20
15.9072378314
 10
0.650157731
 20
15.9066458368
 10
0.6514436872
 20
15.9060140052
 10
0.6527199117
 20
15.9053434517
 10
0.6539852895
 20
15.9046352912
 10
0.6552387055
 20
15.9038906388
 10
0.6564790448
 20
15.9031106094
 10
0.6577051923
 20
15.9022963182
 10
0.6589160331
 20
15.90144888
 10
0.6601104521
 20
15.9005694099
 10
0.6612873343
 20
15.8996590229
 10
0.6624455648
 20
15.898718834
 10
0.6635840284
 20
15.8977499582
 10
0.6647016102
 20
15.8967535106
 10
0.6657971952
 20
15.8957306061
 10
0.6668696684
 20
15.8946823598
 10
0.6679179147
 20
15.8936098866
 10
0.6689408192
 20
15.8925143016
 10
0.6699372668
 20
15.8913967198
 10
0.6709061426
 20
15.8902582562
 10
0.6718463314
 20
15.8891000257
 10
0.6727567184
 20
15.8879231435
 10
0.6736361885
 20
15.8867287245
 10
0.6744836267
 20
15.8855178838
 10
0.675297918
 20
15.8842917362
 10
0.6760779474
 20
15.8830513969
 10
0.6768225998
 20
15.8817979809
 10
0.6775307603
 20
15.8805326031
 10
0.6782013138
 20
15.8792563786
 10
0.6788331454
 20
15.8779704224
 10
0.67942514
 20
15.8766758495
 10
0.6799761826
 20
15.8753737749
 10
0.6804851582
 20
15.8740653136
 10
0.6809509519
 20
15.8727515806
 10
0.6813724485
 20
15.871433691
 10
0.6817485331
 20
15.8701127597
 10
0.6820780907
 20
15.8687899017
 10
0.6823600062
 20
15.8674662321
 10
0.6825931647
 20
15.8661428659
 10
0.6827764511
 20
15.8648209181
 10
0.6829087505
 20
15.8635015036
 10
0.6829889478
 20
15.8621857375
 10
0.683015928
 20
15.8608747349
  0
LWPOLYLINE
  5
28E
100
AcDbEntity
  8
0
100
AcDbPolyline
 62
7
  6
CONTINUOUS
 90
10
 70
0
 43
0.3500000019
 10
0.6985209961
 20
35.516451416
 10
0.7699511719
 20
35.37359375
 10
0.7699511719
 20
35.3021662598
 10
0.6270961914
 20
35.1593085938
 10
0.5556660156
 20
35.1593085938
 10
0.4842358398
 20
35.230736084
 10
0.4842358398
 20
35.3021662598
 10
0.5556660156
 20
35.4450239258
 10
0.6270961914
 20
35.516451416
 10
0.6985209961
 20
35.516451416
  0
LWPOLYLINE
  5
28F
100
AcDbEntity
  8
0
100
AcDbPolyline
 62
7
  6
CONTINUOUS
 90
8
 70
0
 43
0.3500000019
 10
18.1132128906
 20
-4.3236650085
 10
18.1132128906
 20
-3.4665220337
 10
17.6846425781
 20
-3.0379507141
 10
16.827496582
 20
-3.0379507141
 10
16.3989262695
 20
-3.4665220337
 10
16.3989262695
 20
-4.3236650085
 10
15.113215332
 20
-4.3236650085
 10
15.113215332
 20
-3.0379507141
  0
LWPOLYLINE
  5
290
100
AcDbEntity
  8
0
100
AcDbPolyline
 62
7
  6
CONTINUOUS
 90
7
 70
0
 43
0.3500000019
 10
18.1132128906
 20
-0.680807827
 10
18.1132128906
 20
-2.1808077393
 10
15.970355957
 20
-0.680807827
 10
15.5417856445
 20
-0.680807827
 10
15.113215332
 20
-1.1093792725
 10
15.113215332
 20
-1.7522364197
 10
15.7560708008
 20
-2.1808077393
  0
LWPOLYLINE
  5
291
100
AcDbEntity
  8
ASSI
100
AcDbPolyline
 62
250
  6
CONTINUOUS
 90
16
 70
0
 10
-10.7791784312
 20
26.2752930479
 10
-10.8303206937
 20
26.272634693
 10
-10.8811803462
 20
26.2647045209
 10
-10.9312058198
 20
26.251507642
 10
-10.9798712733
 20
26.2330943748
 10
-11.026588483
 20
26.209595424
 10
-11.0707289577
 20
26.181253549
 10
-11.1118140403
 20
26.1483078873
 10
-11.1493164965
 20
26.1111074186
 10
-11.1826420076
 20
26.0702233588
 10
-11.2113833253
 20
26.0262214241
 10
-11.2353172774
 20
25.9795194891
 10
-11.2542307304
 20
25.9305547924
 10
-11.267917163
 20
25.8798350541
 10
-11.2762080843
 20
25.8279473951
 10
-11.2790070937
 20
25.7754643854
  0
LINE
  5
292
100
AcDbEntity
  8
ASSI
100
AcDbLine
 62
250
  6
CONTINUOUS
 10
-11.2790070937
 20
25.7754643854
 11
10.7474803564
 21
25.7754643854
  0
LINE
  5
293
100
AcDbEntity
  8
ASSI
100
AcDbLine
 62
250
  6
CONTINUOUS
 10
10.2476516939
 20
26.2752930479
 11
-10.7791784312
 21
26.2752930479
  0
LINE
  5
294
100
AcDbEntity
  8
ASSI
100
AcDbLine
 62
7
  6
CONTINUOUS
 10
10.3065375355
 20
26.3341788894
 11
-10.8380642728
 21
26.3341788894
  0
LWPOLYLINE
  5
295
100
AcDbEntity
  8
0
100
AcDbPolyline
 62
7
  6
CONTINUOUS
 90
7
 70
0
 43
0.3500000019
 10
3.2699482422
 20
35.0164509277
 10
1.7699521484
 20
35.0164509277
 10
3.2699482422
 20
37.1593078613
 10
3.2699482422
 20
37.5878808594
 10
2.8413779297
 20
38.0164511719
 10
2.1985224609
 20
38.0164511719
 10
1.7699521484
 20
37.3735930176
  0
LWPOLYLINE
  5
296
100
AcDbEntity
  8
0
100
AcDbPolyline
 62
7
  6
CONTINUOUS
 90
7
 70
0
 43
0.3500000019
 10
-0.8014750977
 20
35.0164509277
 10
-2.3014765625
 20
35.0164509277
 10
-0.8014750977
 20
37.1593078613
 10
-0.8014750977
 20
37.5878808594
 10
-1.2300507813
 20
38.0164511719
 10
-1.87290625
 20
38.0164511719
 10
-2.3014765625
 20
37.3735930176
  0
LWPOLYLINE
  5
297
100
AcDbEntity
  8
0
100
AcDbPolyline
 62
7
  6
CONTINUOUS
 90
7
 70
0
 43
0.3500000019
 10
-3.1586225586
 20
35.0164509277
 10
-4.6586186523
 20
35.0164509277
 10
-3.1586225586
 20
37.1593078613
 10
-3.1586225586
 20
37.5878808594
 10
-3.5871928711
 20
38.0164511719
 10
-4.2300483398
 20
38.0164511719
 10
-4.6586186523
 20
37.3735930176
  0
LWPOLYLINE
  5
298
100
AcDbEntity
  8
ASSI
100
AcDbPolyline
 62
250
  6
CONTINUOUS
 90
16
 70
0
 10
10.2476516939
 20
26.2752930479
 10
10.2991720503
 20
26.2725953981
 10
10.3503411899
 20
26.264560212
 10
10.4006000621
 20
26.2512119727
 10
10.4494506625
 20
26.232607078
 10
10.4962702737
 20
26.2089038976
 10
10.5403499768
 20
26.180426067
 10
10.5811490424
 20
26.1475371684
 10
10.6182838924
 20
26.1105617688
 10
10.6513584843
 20
26.0698903071
 10
10.6800111414
 20
26.0259550557
 10
10.70391299
 20
25.9792458835
 10
10.7227897313
 20
25.9302924172
 10
10.736432179
 20
25.8796399422
 10
10.7446926977
 20
25.8278404777
 10
10.7474803564
 20
25.7754643854
  0
LWPOLYLINE
  5
299
100
AcDbEntity
  8
0
100
AcDbPolyline
 62
7
  6
CONTINUOUS
 90
5
 70
0
 43
0.3500000019
 10
-23.8417700195
 20
36.8327749023
 10
-23.4846245117
 20
37.0470600586
 10
-23.4846245117
 20
37.6899182129
 10
-23.8417700195
 20
38.1184885254
 10
-24.6989106445
 20
38.1184885254
  0
LINE
  5
29A
100
AcDbEntity
  8
ASSI
100
AcDbLine
 62
7
  6
CONTINUOUS
 10
-29.4724206993
 20
-26.4100802439
 11
-31.7211802638
 21
-26.3511944023
  0
LINE
  5
29B
100
AcDbEntity
  8
ASSI
100
AcDbLine
 62
250
  6
CONTINUOUS
 10
-32.2080917897
 20
-25.8513657398
 11
-31.7211802638
 21
-25.8513657398
  0
LINE
  5
29C
100
AcDbEntity
  8
ASSI
100
AcDbLine
 62
250
  6
CONTINUOUS
 10
-29.3394251755
 20
-25.9137341917
 11
-31.7211802638
 21
-25.8513657398
  0
LWPOLYLINE
  5
29D
100
AcDbEntity
  8
ASSI
100
AcDbPolyline
 62
250
  6
CONTINUOUS
 90
10
 70
0
 10
-31.7211802638
 20
26.2752930479
 10
-31.7224587314
 20
26.2725953981
 10
-31.7235882337
 20
26.264560212
 10
-31.7245547727
 20
26.2512119727
 10
-31.7253467843
 20
26.232607078
 10
-31.7259521094
 20
26.2089038976
 10
-31.7263606588
 20
26.180426067
 10
-31.7265677938
 20
26.1475371684
 10
-31.7265719692
 20
26.1105617688
 10
-31.7259728493
 20
26.0259550557
  0
LWPOLYLINE
  5
29E
100
AcDbEntity
  8
ASSI
100
AcDbPolyline
 62
250
  6
CONTINUOUS
 90
9
 70
0
 10
-31.7211802638
 20
-26.3511944023
 10
-31.7224498596
 20
-26.3485360474
 10
-31.7235740076
 20
-26.3406058754
 10
-31.7245383983
 20
-26.3274089964
 10
-31.7253305797
 20
-26.3089957293
 10
-31.7259385712
 20
-26.2854967784
 10
-31.7263522721
 20
-26.2571549034
 10
-31.7265654103
 20
-26.2242092417
 10
-31.7265733182
 20
-26.187008773
  0
LWPOLYLINE
  5
29F
100
AcDbEntity
  8
0
100
AcDbPolyline
 62
7
  6
CONTINUOUS
 90
3
 70
0
 43
0.3500000019
 10
-21.8417680664
 20
35.4042036133
 10
-21.9131982422
 20
35.1899157715
 10
-22.0560532227
 20
34.904203125
  0
LINE
  5
2A0
100
AcDbEntity
  8
ASSI
100
AcDbLine
 62
250
  6
CONTINUOUS
 10
-31.7245880318
 20
25.9302924172
 11
-31.7224787827
 21
25.8278404777
  0
LINE
  5
2A1
100
AcDbEntity
  8
ASSI
100
AcDbLine
 62
250
  6
CONTINUOUS
 10
-31.7211802638
 20
-0.7764279841
 11
-31.7227128009
 21
-0.6720231582
  0
LINE
  5
2A2
100
AcDbEntity
  8
ASSI
100
AcDbLine
 62
250
  6
CONTINUOUS
 10
-31.7259728493
 20
26.0259550557
 11
-31.7245880318
 21
25.9302924172
  0
LINE
  5
2A3
100
AcDbEntity
  8
ASSI
100
AcDbLine
 62
250
  6
CONTINUOUS
 10
-31.7227128009
 20
-0.6720231582
 11
-31.7236000734
 21
-0.5723036323
  0
LWPOLYLINE
  5
2A4
100
AcDbEntity
  8
ASSI
100
AcDbPolyline
 62
250
  6
CONTINUOUS
 90
11
 70
0
 10
-31.7236000734
 20
-0.5723036323
 10
-31.7238045572
 20
-0.4815669943
 10
-31.7236456479
 20
-0.4406667967
 10
-31.7233129113
 20
-0.4034525981
 10
-31.7228119775
 20
-0.370499268
 10
-31.7221506109
 20
-0.342155891
 10
-31.7213371955
 20
-0.3186601893
 10
-31.7203840101
 20
-0.3002545204
 10
-31.719304226
 20
-0.2870683323
 10
-31.71811076
 20
-0.2791503265
 10
-31.7168179929
 20
-0.2765041365
  0
LINE
  5
2A5
100
AcDbEntity
  8
ASSI
100
AcDbLine
 62
7
  6
CONTINUOUS
 10
-32.2080917897
 20
-25.8513657398
 11
-32.2080917897
 21
-0.7764279841
  0
LINE
  5
2A6
100
AcDbEntity
  8
ASSI
100
AcDbLine
 62
7
  6
CONTINUOUS
 10
-32.2080917897
 20
0.7005266297
 11
-32.2080917897
 21
25.7754643854
  0
LINE
  5
2A7
100
AcDbEntity
  8
ASSI
100
AcDbLine
 62
250
  6
CONTINUOUS
 10
-31.7211802638
 20
-25.8513657398
 11
-31.7211802638
 21
-0.7764279841
  0
LINE
  5
2A8
100
AcDbEntity
  8
ASSI
100
AcDbLine
 62
250
  6
CONTINUOUS
 10
-31.7211802638
 20
0.7005266297
 11
-31.7211802638
 21
25.7754643854
  0
LINE
  5
2A9
100
AcDbEntity
  8
ASSI
100
AcDbLine
 62
250
  6
CONTINUOUS
 10
-31.7236538759
 20
0.3660914612
 11
-31.7237866995
 21
0.4506306134
  0
LINE
  5
2AA
100
AcDbEntity
  8
ASSI
100
AcDbLine
 62
250
  6
CONTINUOUS
 10
-31.7237866995
 20
0.4506306134
 11
-31.7232339776
 21
0.5460850919
  0
LINE
  5
2AB
100
AcDbEntity
  8
ASSI
100
AcDbLine
 62
250
  6
CONTINUOUS
 10
-31.7265733182
 20
-26.187008773
 11
-31.7259757773
 21
-26.1021227785
  0
LWPOLYLINE
  5
2AC
100
AcDbEntity
  8
ASSI
100
AcDbPolyline
 62
250
  6
CONTINUOUS
 90
3
 70
0
 10
-31.7232339776
 20
0.5460850919
 10
-31.722019853
 20
0.6482854953
 10
-31.7211802638
 20
0.7005266297
  0
LINE
  5
2AD
100
AcDbEntity
  8
ASSI
100
AcDbLine
 62
250
  6
CONTINUOUS
 10
-31.7259757773
 20
-26.1021227785
 11
-31.7245926572
 21
-26.0064561468
  0
LWPOLYLINE
  5
2AE
100
AcDbEntity
  8
ASSI
100
AcDbPolyline
 62
250
  6
CONTINUOUS
 90
3
 70
0
 10
-31.7245926572
 20
-26.0064561468
 10
-31.7224812852
 20
-25.9038487496
 10
-31.7211802638
 20
-25.8513657398
  0
LWPOLYLINE
  5
2AF
100
AcDbEntity
  8
ASSI
100
AcDbPolyline
 62
250
  6
CONTINUOUS
 90
9
 70
0
 10
-31.7168179929
 20
0.2006027821
 10
-31.7181375228
 20
0.2033636923
 10
-31.7193470535
 20
0.2115684586
 10
-31.7204333409
 20
0.2251272402
 10
-31.7213844902
 20
0.2438915704
 10
-31.7221900865
 20
0.2676559828
 10
-31.7228413087
 20
0.2961602608
 10
-31.7233310259
 20
0.3290922871
 10
-31.7236538759
 20
0.3660914612
  0
LINE
  5
2B0
100
AcDbEntity
  8
ASSI
100
AcDbLine
 62
250
  6
CONTINUOUS
 10
-31.7224787827
 20
25.8278404777
 11
-31.7211802638
 21
25.7754643854
  0
LINE
  5
2B1
100
AcDbEntity
  8
ASSI
100
AcDbLine
 62
250
  6
CONTINUOUS
 10
-28.4080917897
 20
-0.7185978096
 11
-31.7211802638
 21
-0.7764279841
  0
LINE
  5
2B2
100
AcDbEntity
  8
ASSI
100
AcDbLine
 62
7
  6
CONTINUOUS
 10
-28.4080917897
 20
-0.2187501058
 11
-31.7168179929
 21
-0.2765041365
  0
LINE
  5
2B3
100
AcDbEntity
  8
ASSI
100
AcDbLine
 62
250
  6
CONTINUOUS
 10
-32.2080917897
 20
-0.7764279841
 11
-31.7211802638
 21
-0.7764279841
  0
LINE
  5
2B4
100
AcDbEntity
  8
ASSI
100
AcDbLine
 62
7
  6
CONTINUOUS
 10
-31.7168179929
 20
0.2006027821
 11
-28.4080917897
 21
0.1428487514
  0
LINE
  5
2B5
100
AcDbEntity
  8
ASSI
100
AcDbLine
 62
7
  6
CONTINUOUS
 10
-28.4080917897
 20
-0.2187501058
 11
-28.4080917897
 21
-22.3721244284
  0
LINE
  5
2B6
100
AcDbEntity
  8
ASSI
100
AcDbLine
 62
7
  6
CONTINUOUS
 10
-28.4080917897
 20
0.1428487514
 11
-28.4080917897
 21
22.296223074
  0
LINE
  5
2B7
100
AcDbEntity
  8
ASSI
100
AcDbLine
 62
250
  6
CONTINUOUS
 10
-31.7211802638
 20
0.7005266297
 11
-32.2080917897
 21
0.7005266297
  0
LINE
  5
2B8
100
AcDbEntity
  8
ASSI
100
AcDbLine
 62
250
  6
CONTINUOUS
 10
-31.7211802638
 20
0.7005266297
 11
-28.4080917897
 21
0.6426964552
  0
LINE
  5
2B9
100
AcDbEntity
  8
ASSI
100
AcDbLine
 62
7
  6
CONTINUOUS
 10
-28.4251288765
 20
-22.501533951
 11
-29.4724206993
 21
-26.4100802439
  0
LINE
  5
2BA
100
AcDbEntity
  8
ASSI
100
AcDbLine
 62
7
  6
CONTINUOUS
 10
-28.4251288765
 20
22.4256325965
 11
-29.4724206993
 21
26.3341788894
  0
LWPOLYLINE
  5
2BB
100
AcDbEntity
  8
0
100
AcDbPolyline
 62
7
  6
CONTINUOUS
 90
4
 70
0
 43
0.3500000019
 10
-20.8417670898
 20
35.5470585938
 10
-20.8417670898
 20
36.4042019043
 10
-20.4131967773
 20
36.8327749023
 10
-19.7703413086
 20
36.8327749023
  0
LWPOLYLINE
  5
2BC
100
AcDbEntity
  8
0
100
AcDbPolyline
 62
7
  6
CONTINUOUS
 90
10
 70
0
 43
0.3500000019
 10
-21.9131982422
 20
35.6184887695
 10
-21.8417680664
 20
35.4756311035
 10
-21.8417680664
 20
35.4042036133
 10
-21.984628418
 20
35.2613459473
 10
-22.0560532227
 20
35.2613459473
 10
-22.1274833984
 20
35.3327734375
 10
-22.1274833984
 20
35.4042036133
 10
-22.0560532227
 20
35.5470585938
 10
-21.984628418
 20
35.6184887695
 10
-21.9131982422
 20
35.6184887695
  0
LINE
  5
2BD
100
AcDbEntity
  8
ASSI
100
AcDbLine
 62
250
  6
CONTINUOUS
 10
-31.7211802638
 20
25.7754643854
 11
-29.3394251755
 21
25.8378328373
  0
LINE
  5
2BE
100
AcDbEntity
  8
ASSI
100
AcDbLine
 62
7
  6
CONTINUOUS
 10
-31.7211802638
 20
26.2752930479
 11
-29.4724206993
 21
26.3341788894
  0
LINE
  5
2BF
100
AcDbEntity
  8
ASSI
100
AcDbLine
 62
250
  6
CONTINUOUS
 10
-32.2080917897
 20
25.7754643854
 11
-31.7211802638
 21
25.7754643854
  0
LWPOLYLINE
  5
2C0
100
AcDbEntity
  8
0
100
AcDbPolyline
 62
7
  6
CONTINUOUS
 90
6
 70
0
 43
0.3500000019
 10
-24.6989106445
 20
35.1184882813
 10
-23.6274848633
 20
35.1184882813
 10
-23.413199707
 20
35.3327734375
 10
-23.413199707
 20
36.4042019043
 10
-23.8417700195
 20
36.8327749023
 10
-24.270340332
 20
36.8327749023
  0
LWPOLYLINE
  5
2C1
100
AcDbEntity
  8
0
100
AcDbPolyline
 62
7
  6
CONTINUOUS
 90
13
 70
0
 43
0.3500000019
 10
-20.4131967773
 20
36.8327749023
 10
-20.6989121094
 20
37.0470600586
 10
-20.6989121094
 20
37.6899182129
 10
-20.4131967773
 20
38.1184885254
 10
-19.7703413086
 20
38.1184885254
 10
-19.4846259766
 20
37.6899182129
 10
-19.4846259766
 20
37.0470600586
 10
-19.7703413086
 20
36.8327749023
 10
-19.3417709961
 20
36.4042019043
 10
-19.3417709961
 20
35.5470585938
 10
-19.7703413086
 20
35.1184882813
 10
-20.4131967773
 20
35.1184882813
 10
-20.8417670898
 20
35.5470585938
  0
ARC
  5
2C2
100
AcDbEntity
  8
ASSI
100
AcDbCircle
 62
7
  6
CONTINUOUS
 10
-28.9080917897
 20
22.296223074
 40
0.5
100
AcDbArc
 50
0.0
 51
15.0
  0
ARC
  5
2C3
100
AcDbEntity
  8
ASSI
100
AcDbCircle
 62
7
  6
CONTINUOUS
 10
-31.7080917897
 20
25.7754643854
 40
0.5
100
AcDbArc
 50
91.5
 51
180.0
  0
ARC
  5
2C4
100
AcDbEntity
  8
ASSI
100
AcDbCircle
 62
7
  6
CONTINUOUS
 10
-31.7080917897
 20
0.7005266297
 40
0.5
100
AcDbArc
 50
180.0
 51
269.0
  0
ARC
  5
2C5
100
AcDbEntity
  8
ASSI
100
AcDbCircle
 62
7
  6
CONTINUOUS
 10
-28.9080917897
 20
-22.3721244284
 40
0.5
100
AcDbArc
 50
345.0
 51
360.0
  0
ARC
  5
2C6
100
AcDbEntity
  8
ASSI
100
AcDbCircle
 62
7
  6
CONTINUOUS
 10
-31.7080917897
 20
-25.8513657398
 40
0.5
100
AcDbArc
 50
180.0
 51
268.5
  0
ARC
  5
2C7
100
AcDbEntity
  8
ASSI
100
AcDbCircle
 62
7
  6
CONTINUOUS
 10
-31.7080917897
 20
-0.7764279841
 40
0.5
100
AcDbArc
 50
91.0
 51
180.0
  0
ELLIPSE
  5
2C8
100
AcDbEntity
  8
ASSI
100
AcDbEllipse
 62
7
  6
CONTINUOUS
 10
-10.8412065374
 20
25.8374924916
 30
0.0
 11
0.4677351297
 21
0.1788908786
 31
0.0
 40
0.9906298547
 41
1.202347637
 42
2.7724587311
  0
ELLIPSE
  5
2C9
100
AcDbEntity
  8
ASSI
100
AcDbEllipse
 62
7
  6
CONTINUOUS
 10
10.3096798002
 20
25.8374924916
 30
0.0
 11
0.4677351297
 21
-0.1788908786
 31
0.0
 40
0.9906298547
 41
0.3691339225
 42
1.9392450166
  0
ELLIPSE
  5
2CA
100
AcDbEntity
  8
ASSI
100
AcDbEllipse
 62
7
  6
CONTINUOUS
 10
10.8211436706
 20
22.296223074
 30
0.0
 11
-0.0
 21
0.5
 31
0.0
 40
0.0261859216
 41
-1.5707963268
 42
-1.308996939
  0
ELLIPSE
  5
2CB
100
AcDbEntity
  8
ASSI
100
AcDbEllipse
 62
7
  6
CONTINUOUS
 10
-11.3526704078
 20
22.296223074
 30
0.0
 11
0.0
 21
0.5
 31
0.0
 40
0.0261859216
 41
1.308996939
 42
1.5707963268
  0
ELLIPSE
  5
2CC
100
AcDbEntity
  8
ASSI
100
AcDbEllipse
 62
7
  6
CONTINUOUS
 10
10.3255852629
 20
0.1515762838
 30
0.0
 11
0.5
 21
0.0
 31
0.0
 40
0.0174550649
 41
-3.1241393611
 42
-1.5707963268
  0
ELLIPSE
  5
2CD
100
AcDbEntity
  8
ASSI
100
AcDbEllipse
 62
7
  6
CONTINUOUS
 10
-10.8571120002
 20
0.1515762838
 30
0.0
 11
0.5
 21
0.0
 31
0.0
 40
0.0174550649
 41
-1.5707963268
 42
-0.0174532925
  0
ELLIPSE
  5
2CE
100
AcDbEntity
  8
ASSI
100
AcDbEllipse
 62
7
  6
CONTINUOUS
 10
10.3340652351
 20
0.6429249154
 30
0.0
 11
0.416247366
 21
-0.2774630169
 31
0.0
 40
0.9995051766
 41
-0.9826238685
 42
0.5877156075
  0
ELLIPSE
  5
2CF
100
AcDbEntity
  8
ASSI
100
AcDbEllipse
 62
7
  6
CONTINUOUS
 10
-10.8655919724
 20
0.6429249154
 30
0.0
 11
0.416247366
 21
0.2774630169
 31
0.0
 40
0.9995051766
 41
2.5538770461
 42
4.1242165221
  0
ELLIPSE
  5
2D0
100
AcDbEntity
  8
ASSI
100
AcDbEllipse
 62
7
  6
CONTINUOUS
 10
10.3096798002
 20
-25.913393846
 30
0.0
 11
0.4677351297
 21
0.1788908786
 31
0.0
 40
0.9906298547
 41
-1.9392450166
 42
-0.3691339225
  0
ELLIPSE
  5
2D1
100
AcDbEntity
  8
ASSI
100
AcDbEllipse
 62
7
  6
CONTINUOUS
 10
-10.8412065374
 20
-25.913393846
 30
0.0
 11
0.4677351297
 21
-0.1788908786
 31
0.0
 40
0.9906298547
 41
-2.7724587311
 42
-1.202347637
  0
ELLIPSE
  5
2D2
100
AcDbEntity
  8
ASSI
100
AcDbEllipse
 62
7
  6
CONTINUOUS
 10
-11.3526704078
 20
-22.3721244284
 30
0.0
 11
0.0
 21
0.5
 31
0.0
 40
0.0261859216
 41
1.5707963268
 42
1.8325957146
  0
ELLIPSE
  5
2D3
100
AcDbEntity
  8
ASSI
100
AcDbEllipse
 62
7
  6
CONTINUOUS
 10
10.8211436706
 20
-22.3721244284
 30
0.0
 11
0.0
 21
0.5
 31
0.0
 40
0.0261859216
 41
-1.8325957146
 42
-1.5707963268
  0
ELLIPSE
  5
2D4
100
AcDbEntity
  8
ASSI
100
AcDbEllipse
 62
7
  6
CONTINUOUS
 10
-10.8571120002
 20
-0.2274776383
 30
0.0
 11
0.5
 21
0.0
 31
0.0
 40
0.0174550649
 41
0.0174532925
 42
1.5707963268
  0
ELLIPSE
  5
2D5
100
AcDbEntity
  8
ASSI
100
AcDbEllipse
 62
7
  6
CONTINUOUS
 10
10.3255852629
 20
-0.2274776383
 30
0.0
 11
0.5
 21
0.0
 31
0.0
 40
0.0174550649
 41
1.5707963268
 42
3.1241393611
  0
ELLIPSE
  5
2D6
100
AcDbEntity
  8
ASSI
100
AcDbEllipse
 62
7
  6
CONTINUOUS
 10
-10.8655919724
 20
-0.7188262698
 30
0.0
 11
0.416247366
 21
-0.2774630169
 31
0.0
 40
0.9995051766
 41
2.1589687851
 42
3.7293082611
  0
ELLIPSE
  5
2D7
100
AcDbEntity
  8
ASSI
100
AcDbEllipse
 62
7
  6
CONTINUOUS
 10
10.3340652351
 20
-0.7188262698
 30
0.0
 11
0.416247366
 21
0.2774630169
 31
0.0
 40
0.9995051766
 41
-0.5877156075
 42
0.9826238685
  0
ENDSEC
  0
SECTION
  2
OBJECTS
  0
DICTIONARY
  5
C
100
AcDbDictionary
280
0
281
1
  3
ACAD_GROUP
350
D
  3
ACAD_MLINESTYLE
350
17
  3
ACAD_LAYOUT
350
1A
  3
ACAD_PLOTSETTINGS
350
19
  3
ACAD_PLOTSTYLENAME
350
E
  0
DICTIONARY
  5
D
102
{ACAD_REACTORS
330
C
102
}
100
AcDbDictionary
280
0
281
1
  0
ACDBDICTIONARYWDFLT
  5
E
102
{ACAD_REACTORS
330
C
102
}
100
AcDbDictionary
281
1
  3
Normal
350
F
100
AcDbDictionaryWithDefault
340
F
  0
DICTIONARY
  5
17
102
{ACAD_REACTORS
330
C
102
}
100
AcDbDictionary
280
0
281
1
  3
Standard
350
18
  0
DICTIONARY
  5
19
102
{ACAD_REACTORS
330
C
102
}
100
AcDbDictionary
281
1
  0
DICTIONARY
  5
1A
102
{ACAD_REACTORS
330
C
102
}
100
AcDbDictionary
281
1
  3
Model
350
2D8
  3
Layout1
350
2D9
  0
ACDBPLACEHOLDER
  5
F
102
{ACAD_REACTORS
330
E
102
}
  0
MLINESTYLE
  5
18
102
{ACAD_REACTORS
330
17
102
}
100
AcDbMlineStyle
  2
STANDARD
 70
0
  3

 62
256
 51
90.0
 52
90.0
 71
2
 49
0.5
 62
256
  6
BYLAYER
 49
-0.5
 62
256
  6
BYLAYER
  0
LAYOUT
  5
2D8
102
{ACAD_REACTORS
330
1A
102
}
100
AcDbPlotSettings
  1

  2
none_device
  4

  6

 40
0.0
 41
0.0
 42
0.0
 43
0.0
 44
210.0
 45
297.0
 46
0.0
 47
0.0
 48
0.0
 49
0.0
140
0.0
141
0.0
142
1.0
143
1.0
 70
1024
 72
1
 73
0
 74
0
  7

 75
0
147
1.0
148
0.0
149
0.0
100
AcDbLayout
  1
Model
 70
0
 71
0
 10
0.0
 20
0.0
 11
210.0
 21
297.0
 12
0.0
 22
0.0
 32
0.0
 14
0.0
 24
0.0
 34
0.0
 15
0.0
 25
0.0
 35
0.0
146
0.0
 13
0.0
 23
0.0
 33
0.0
 16
1.0
 26
0.0
 36
0.0
 17
0.0
 27
1.0
 37
0.0
 76
0
330
212
345
0
346
0
  0
LAYOUT
  5
2D9
102
{ACAD_REACTORS
330
1A
102
}
100
AcDbPlotSettings
  1

  2
none_device
  4

  6

 40
0.0
 41
0.0
 42
0.0
 43
0.0
 44
210.0
 45
297.0
 46
0.0
 47
0.0
 48
0.0
 49
0.0
140
0.0
141
0.0
142
1.0
143
1.0
 70
0
 72
1
 73
0
 74
0
  7

 75
0
147
1.0
148
0.0
149
0.0
100
AcDbLayout
  1
Layout1
 70
0
 71
1
 10
0.0
 20
0.0
 11
210.0
 21
297.0
 12
0.0
 22
0.0
 32
0.0
 14
0.0
 24
0.0
 34
0.0
 15
0.0
 25
0.0
 35
0.0
146
0.0
 13
0.0
 23
0.0
 33
0.0
 16
1.0
 26
0.0
 36
0.0
 17
0.0
 27
1.0
 37
0.0
 76
0
330
213
345
0
346
0
  0
ENDSEC
  0
EOF
