  0
SECTION
  2
HEADER
  9
$ACADVER
  1
AC1024
  9
$DWGCODEPAGE
  3
ANSI_1252
  9
$EXTMAX
 10
210.0
 20
297.0
 30
0.0
  9
$EXTMIN
 10
0.0
 20
0.0
 30
0.0
  9
$LIMMIN
 10
0.0
 20
0.0
  9
$LIMMAX
 10
210.0
 20
297.0
  9
$VIEWCTR
 10
105.0
 20
148.5
  9
$VIEWSIZE
 40
297.0
  9
$CLAYER
  8
0
  9
$LTSCALE
 40
19.36
  9
$CELTYPE
  6
BYLAYER
  9
$DIMSCALE
 40
1.0
  9
$DIMASZ
 40
3.0
  9
$DIMEXO
 40
0.5
  9
$DIMDLI
 40
13.376
  9
$DIMEXE
 40
1.5
  9
$DIMCEN
 40
3.168
  9
$DIMLFAC
 40
1.0
  9
$DIMBLK
  1
_FILLED
  9
$DIMALT
 70
0
  9
$DIMALTF
 40
0.0393700787
  9
$DIMTXT
 40
3.0
  9
$DIMTOL
 70
1
  9
$DIMLIM
 70
0
  9
$DIMTFAC
 40
1.0
  9
$DIMTP
 40
0.01
  9
$DIMTM
 40
0.01
  9
$DIMGAP
 40
0.625
  9
$DIMDSEP
 70
44
  9
$AUNITS
 70
0
  9
$PDMODE
 70
3
  9
$PDSIZE
 40
3.0
  9
$HANDSEED
  5
33B
  9
$TILEMODE
 70
1
  9
$MEASUREMENT
 70
1
  9
$INSUNITS
 70
4
  0
ENDSEC
  0
SECTION
  2
CLASSES
  0
CLASS
  1
ACDBDICTIONARYWDFLT
  2
AcDbDictionaryWithDefault
  3
AutoCAD 2000
 90
0
 91
1
280
0
281
0
  0
CLASS
  1
ACDBPLACEHOLDER
  2
AcDbPlaceHolder
  3
AutoCAD 2000
 90
0
 91
1
280
0
281
0
  0
CLASS
  1
LAYOUT
  2
AcDbLayout
  3
AutoCAD 2000
 90
0
 91
0
280
0
281
0
  0
ENDSEC
  0
SECTION
  2
TABLES
  0
TABLE
  2
VPORT
  5
8
100
AcDbSymbolTable
 70
2
  0
VPORT
  5
1F4
100
AcDbSymbolTableRecord
100
AcDbViewportTableRecord
  2
*ACTIVE
 70
0
 10
0.0
 20
0.0
 11
1.0
 21
1.0
 12
105.0
 22
148.5
 13
0.0
 23
0.0
 14
1.0
 24
1.0
 15
0.0
 25
0.0
 16
0.0
 26
0.0
 36
1.0
 17
0.0
 27
0.0
 37
0.0
 40
297.0
 41
0.7070707071
 42
50.0
 43
0.0
 44
0.0
 50
0.0
 51
0.0
 71
0
 72
100
 73
1
 74
1
 75
0
 76
0
 77
0
 78
0
  0
ENDTAB
  0
TABLE
  2
LTYPE
  5
5
100
AcDbSymbolTable
 70
6
  0
LTYPE
  5
14
100
AcDbSymbolTableRecord
100
AcDbLinetypeTableRecord
  2
BYBLOCK
 70
0
  3

 72
65
 73
0
 40
0.0
  0
LTYPE
  5
15
100
AcDbSymbolTableRecord
100
AcDbLinetypeTableRecord
  2
BYLAYER
 70
0
  3

 72
65
 73
0
 40
0.0
  0
LTYPE
  5
16
100
AcDbSymbolTableRecord
100
AcDbLinetypeTableRecord
  2
CONTINUOUS
 70
64
  3
Solid line
 72
65
 73
0
 40
0.0
  0
LTYPE
  5
1F5
100
AcDbSymbolTableRecord
100
AcDbLinetypeTableRecord
  2
CENTER
 70
64
  3
____ _ ____ _ ____ _ ____ _ ____ _ ____ _ ____
 72
65
 73
4
 40
0.6
 49
0.375
 74
0
 49
-0.075
 74
0
 49
0.075
 74
0
 49
-0.075
 74
0
  0
LTYPE
  5
1F6
100
AcDbSymbolTableRecord
100
AcDbLinetypeTableRecord
  2
HIDDEN
 70
64
  3
- - - - - - - - - - - - - - - - - - - -
 72
65
 73
2
 40
0.2
 49
0.1
 74
0
 49
-0.1
 74
0
  0
LTYPE
  5
1F7
100
AcDbSymbolTableRecord
100
AcDbLinetypeTableRecord
  2
PHANTOM
 70
64
  3
_____ _ _ _____ _ _ _____ _ _ _____
 72
65
 73
6
 40
0.8
 49
0.45
 74
0
 49
-0.05
 74
0
 49
0.1
 74
0
 49
-0.05
 74
0
 49
0.1
 74
0
 49
-0.05
 74
0
  0
LTYPE
  5
1F8
100
AcDbSymbolTableRecord
100
AcDbLinetypeTableRecord
  2
DOT
 70
64
  3
. . . . . . . . . . . . . . . . . . . .
 72
65
 73
2
 40
0.2
 49
0.1
 74
0
 49
-0.1
 74
0
  0
LTYPE
  5
1F9
100
AcDbSymbolTableRecord
100
AcDbLinetypeTableRecord
  2
DASHED
 70
64
  3
- - - - - - - - - - - - - - - - - - - -
 72
65
 73
2
 40
0.2
 49
0.1
 74
0
 49
-0.1
 74
0
  0
ENDTAB
  0
TABLE
  2
LAYER
  5
2
100
AcDbSymbolTable
 70
36
  0
LAYER
  5
10
100
AcDbSymbolTableRecord
100
AcDbLayerTableRecord
  2
0
 70
0
 62
7
  6
CONTINUOUS
370
-3
390
F
  0
LAYER
  5
1FA
100
AcDbSymbolTableRecord
100
AcDbLayerTableRecord
  2
DEFAULT_1
 70
0
 62
7
  6
CENTER
370
-3
390
F
  0
LAYER
  5
1FB
100
AcDbSymbolTableRecord
100
AcDbLayerTableRecord
  2
DEFAULT_2
 70
0
 62
7
  6
HIDDEN
370
-3
390
F
  0
LAYER
  5
1FC
100
AcDbSymbolTableRecord
100
AcDbLayerTableRecord
  2
DEFAULT_3
 70
0
 62
7
  6
PHANTOM
370
-3
390
F
  0
LAYER
  5
1FD
100
AcDbSymbolTableRecord
100
AcDbLayerTableRecord
  2
ASSI
 70
0
 62
7
  6
CONTINUOUS
370
-3
390
F
  0
LAYER
  5
1FE
100
AcDbSymbolTableRecord
100
AcDbLayerTableRecord
  2
COORDINATE
 70
0
 62
7
  6
CONTINUOUS
370
-3
390
F
  0
LAYER
  5
1FF
100
AcDbSymbolTableRecord
100
AcDbLayerTableRecord
  2
COPY_PUBLISH
 70
0
 62
7
  6
CONTINUOUS
370
-3
390
F
  0
LAYER
  5
200
100
AcDbSymbolTableRecord
100
AcDbLayerTableRecord
  2
COSMETICI
 70
0
 62
7
  6
CONTINUOUS
370
-3
390
F
  0
LAYER
  5
201
100
AcDbSymbolTableRecord
100
AcDbLayerTableRecord
  2
CURVE
 70
0
 62
7
  6
CONTINUOUS
370
-3
390
F
  0
LAYER
  5
202
100
AcDbSymbolTableRecord
100
AcDbLayerTableRecord
  2
DRAFT
 70
0
 62
7
  6
CONTINUOUS
370
-3
390
F
  0
LAYER
  5
203
100
AcDbSymbolTableRecord
100
AcDbLayerTableRecord
  2
IMPORT_IGES
 70
0
 62
7
  6
CONTINUOUS
370
-3
390
F
  0
LAYER
  5
204
100
AcDbSymbolTableRecord
100
AcDbLayerTableRecord
  2
INTF_1
 70
0
 62
7
  6
CONTINUOUS
370
-3
390
F
  0
LAYER
  5
205
100
AcDbSymbolTableRecord
100
AcDbLayerTableRecord
  2
INTF_2
 70
0
 62
7
  6
CONTINUOUS
370
-3
390
F
  0
LAYER
  5
206
100
AcDbSymbolTableRecord
100
AcDbLayerTableRecord
  2
INTF_4
 70
0
 62
7
  6
CONTINUOUS
370
-3
390
F
  0
LAYER
  5
207
100
AcDbSymbolTableRecord
100
AcDbLayerTableRecord
  2
INTF_8
 70
0
 62
7
  6
CONTINUOUS
370
-3
390
F
  0
LAYER
  5
208
100
AcDbSymbolTableRecord
100
AcDbLayerTableRecord
  2
INTF_9
 70
0
 62
7
  6
CONTINUOUS
370
-3
390
F
  0
LAYER
  5
209
100
AcDbSymbolTableRecord
100
AcDbLayerTableRecord
  2
NOTE
 70
0
 62
7
  6
CONTINUOUS
370
-3
390
F
  0
LAYER
  5
20A
100
AcDbSymbolTableRecord
100
AcDbLayerTableRecord
  2
PIANI
 70
0
 62
7
  6
CONTINUOUS
370
-3
390
F
  0
LAYER
  5
20B
100
AcDbSymbolTableRecord
100
AcDbLayerTableRecord
  2
PUNTI
 70
0
 62
7
  6
CONTINUOUS
370
-3
390
F
  0
LAYER
  5
20C
100
AcDbSymbolTableRecord
100
AcDbLayerTableRecord
  2
RACCORDO
 70
0
 62
7
  6
CONTINUOUS
370
-3
390
F
  0
LAYER
  5
20D
100
AcDbSymbolTableRecord
100
AcDbLayerTableRecord
  2
SIMBOLI
 70
0
 62
7
  6
CONTINUOUS
370
-3
390
F
  0
LAYER
  5
20E
100
AcDbSymbolTableRecord
100
AcDbLayerTableRecord
  2
SMUSSO
 70
0
 62
7
  6
CONTINUOUS
370
-3
390
F
  0
LAYER
  5
20F
100
AcDbSymbolTableRecord
100
AcDbLayerTableRecord
  2
SNAPLINE
 70
0
 62
7
  6
CONTINUOUS
370
-3
390
F
  0
LAYER
  5
210
100
AcDbSymbolTableRecord
100
AcDbLayerTableRecord
  2
SUPERFICI
 70
0
 62
7
  6
CONTINUOUS
370
-3
390
F
  0
LAYER
  5
211
100
AcDbSymbolTableRecord
100
AcDbLayerTableRecord
  2
TRASH
 70
0
 62
7
  6
CONTINUOUS
370
-3
390
F
  0
ENDTAB
  0
TABLE
  2
STYLE
  5
3
100
AcDbSymbolTable
 70
1
  0
STYLE
  5
11
100
AcDbSymbolTableRecord
100
AcDbTextStyleTableRecord
  2
STANDARD
 70
0
 40
0.0
 41
0.8
 50
0.0
 71
0
 42
0.2
  3
txt
  4

  0
STYLE
  5
212
100
AcDbSymbolTableRecord
100
AcDbTextStyleTableRecord
  2
TEXTSTYLE_1
 70
0
 40
0.0
 41
0.8
 50
0.0
 71
0
 42
0.2
  3
gdt
  4

  0
ENDTAB
  0
TABLE
  2
VIEW
  5
6
100
AcDbSymbolTable
 70
0
  0
ENDTAB
  0
TABLE
  2
UCS
  5
7
100
AcDbSymbolTable
 70
0
  0
ENDTAB
  0
TABLE
  2
APPID
  5
9
100
AcDbSymbolTable
 70
1
  0
APPID
  5
213
100
AcDbSymbolTableRecord
100
AcDbRegAppTableRecord
  2
ACAD
 70
0
  0
ENDTAB
  0
TABLE
  2
BLOCK_RECORD
  5
1
100
AcDbSymbolTable
 70
0
  0
BLOCK_RECORD
  5
214
100
AcDbSymbolTableRecord
100
AcDbBlockTableRecord
  2
*Model_Space
  0
BLOCK_RECORD
  5
215
100
AcDbSymbolTableRecord
100
AcDbBlockTableRecord
  2
*Paper_Space
  0
BLOCK_RECORD
  5
216
100
AcDbSymbolTableRecord
100
AcDbBlockTableRecord
  2
_FILLED
  0
BLOCK_RECORD
  5
217
100
AcDbSymbolTableRecord
100
AcDbBlockTableRecord
  2
*D0
  0
BLOCK_RECORD
  5
218
100
AcDbSymbolTableRecord
100
AcDbBlockTableRecord
  2
*D1
  0
BLOCK_RECORD
  5
219
100
AcDbSymbolTableRecord
100
AcDbBlockTableRecord
  2
*D2
  0
ENDTAB
  0
TABLE
  2
DIMSTYLE
  5
A
100
AcDbSymbolTable
 70
1
100
AcDbDimStyleTable
 71
0
  0
DIMSTYLE
105
21A
100
AcDbSymbolTableRecord
100
AcDbDimStyleTableRecord
  2
STANDARD
 70
0
  3

  4

 40
1.0
 41
3.0
 42
0.5
 43
0.38
 44
1.5
 45
0.0
 46
0.0
 47
0.01
 48
0.01
140
3.0
141
0.09
142
0.0
143
25.4
144
1.0
145
0.0
146
1.0
147
0.625
 71
1
 72
0
 73
0
 74
0
 75
0
 76
0
 77
1
 78
8
 79
2
170
0
171
1
172
0
173
0
174
0
175
0
176
0
177
0
178
0
270
2
179
2
271
2
272
2
273
2
274
2
275
0
280
0
281
0
282
0
283
1
284
8
285
0
286
0
287
3
288
0
340
11
278
44
341
216
342
216
343
216
344
216
  0
DIMSTYLE
105
21B
100
AcDbSymbolTableRecord
100
AcDbDimStyleTableRecord
  2
DIMSTYLE_1
 70
0
  3

  4

 40
1.0
 41
3.0
 42
0.5
 43
0.38
 44
1.5
 45
0.0
 46
0.0
 47
0.0
 48
0.0
140
3.0
141
0.09
142
0.0
143
25.4
144
1.0
145
0.0
146
1.0
147
0.75
 71
0
 72
0
 73
0
 74
0
 75
0
 76
0
 77
1
 78
8
 79
2
170
0
171
1
172
0
173
0
174
0
175
0
176
0
177
0
178
0
270
2
179
2
271
2
272
2
273
2
274
2
275
0
280
0
281
0
282
0
283
1
284
8
285
0
286
0
287
3
288
0
340
11
278
44
341
216
342
216
343
216
344
216
  0
DIMSTYLE
105
21C
100
AcDbSymbolTableRecord
100
AcDbDimStyleTableRecord
  2
DIMSTYLE_2
 70
0
  3

  4

 40
1.0
 41
3.0
 42
0.5
 43
0.38
 44
1.5
 45
0.0
 46
0.0
 47
0.0
 48
0.0
140
3.0
141
0.09
142
0.0
143
25.4
144
1.0
145
0.0
146
1.0
147
0.75
 71
0
 72
0
 73
0
 74
0
 75
0
 76
0
 77
1
 78
8
 79
2
170
0
171
1
172
0
173
0
174
0
175
0
176
0
177
0
178
0
270
2
179
2
271
1
272
1
273
2
274
2
275
0
280
0
281
0
282
0
283
1
284
8
285
0
286
0
287
3
288
0
340
11
278
44
341
216
342
216
343
216
344
216
  0
ENDTAB
  0
ENDSEC
  0
SECTION
  2
BLOCKS
  0
BLOCK
  5
20
100
AcDbEntity
  8
0
100
AcDbBlockBegin
  2
*Model_Space
 70
0
 10
0.0
 20
0.0
 30
0.0
  3
*Model_Space
  1

  0
ENDBLK
  5
21
100
AcDbEntity
  8
0
100
AcDbBlockEnd
  0
BLOCK
  5
1C
100
AcDbEntity
  8
0
100
AcDbBlockBegin
  2
*Paper_Space
 70
0
 10
0.0
 20
0.0
 30
0.0
  3
*Paper_Space
  1

  0
ENDBLK
  5
1D
100
AcDbEntity
  8
0
100
AcDbBlockEnd
  0
BLOCK
  5
21D
100
AcDbEntity
  8
0
100
AcDbBlockBegin
  2
_FILLED
 70
64
 10
0.0
 20
0.0
  3
_FILLED
  1

  0
SOLID
  5
21E
100
AcDbEntity
  8
0
  6
BYBLOCK
 62
0
100
AcDbTrace
 10
0.0
 20
0.0
 11
-1.0
 21
0.3166666667
 12
-1.0
 22
-0.3166666667
 13
-1.0
 23
-0.3166666667
  0
ENDBLK
  5
21F
100
AcDbEntity
  8
0
  6
BYBLOCK
 62
0
100
AcDbBlockEnd
  0
BLOCK
  5
220
100
AcDbEntity
  8
0
100
AcDbBlockBegin
 62
7
  6
CONTINUOUS
  2
*D0
 70
65
 10
0.0
 20
0.0
  3
*D0
  1

  0
LINE
  5
221
100
AcDbEntity
  8
0
100
AcDbLine
 62
7
  6
CONTINUOUS
 10
-22.5934486776
 20
22.9710204091
 11
-22.5934486776
 21
36.0414201772
  0
LINE
  5
222
100
AcDbEntity
  8
0
100
AcDbLine
 62
7
  6
CONTINUOUS
 10
22.1065513224
 20
22.9710204091
 11
22.1065513224
 21
36.0414201772
  0
LINE
  5
223
100
AcDbEntity
  8
0
100
AcDbLine
 62
7
  6
CONTINUOUS
 10
-22.5934486776
 20
34.5414201772
 11
-0.2434486776
 21
34.5414201772
  0
LINE
  5
224
100
AcDbEntity
  8
0
100
AcDbLine
 62
7
  6
CONTINUOUS
 10
22.1065513224
 20
34.5414201772
 11
-0.2434486776
 21
34.5414201772
  0
INSERT
  5
225
100
AcDbEntity
  8
0
100
AcDbBlockReference
 62
7
  6
CONTINUOUS
  2
_FILLED
 10
-22.5934486776
 20
34.5414201772
 41
3.0
 42
3.0
 43
3.0
 50
180.0
  0
INSERT
  5
226
100
AcDbEntity
  8
0
100
AcDbBlockReference
 62
7
  6
CONTINUOUS
  2
_FILLED
 10
22.1065513224
 20
34.5414201772
 41
3.0
 42
3.0
 43
3.0
  0
ENDBLK
  5
227
100
AcDbEntity
  8
0
  6
BYBLOCK
 62
0
100
AcDbBlockEnd
  0
BLOCK
  5
228
100
AcDbEntity
  8
0
100
AcDbBlockBegin
 62
7
  6
CONTINUOUS
  2
*D1
 70
65
 10
0.0
 20
0.0
  3
*D1
  1

  0
LINE
  5
229
100
AcDbEntity
  8
0
100
AcDbLine
 62
7
  6
CONTINUOUS
 10
22.0788522265
 20
26.5089762245
 11
31.670778882
 21
26.5089762245
  0
LINE
  5
22A
100
AcDbEntity
  8
0
100
AcDbLine
 62
7
  6
CONTINUOUS
 10
22.0788522265
 20
-26.2352829088
 11
31.670778882
 21
-26.2352829088
  0
LINE
  5
22B
100
AcDbEntity
  8
0
100
AcDbLine
 62
7
  6
CONTINUOUS
 10
30.170778882
 20
26.5089762245
 11
30.170778882
 21
0.1368466579
  0
LINE
  5
22C
100
AcDbEntity
  8
0
100
AcDbLine
 62
7
  6
CONTINUOUS
 10
30.170778882
 20
-26.2352829088
 11
30.170778882
 21
0.1368466579
  0
INSERT
  5
22D
100
AcDbEntity
  8
0
100
AcDbBlockReference
 62
7
  6
CONTINUOUS
  2
_FILLED
 10
30.170778882
 20
26.5089762245
 41
3.0
 42
3.0
 43
3.0
 50
90.0
  0
INSERT
  5
22E
100
AcDbEntity
  8
0
100
AcDbBlockReference
 62
7
  6
CONTINUOUS
  2
_FILLED
 10
30.170778882
 20
-26.2352829088
 41
3.0
 42
3.0
 43
3.0
 50
270.0
  0
ENDBLK
  5
22F
100
AcDbEntity
  8
0
  6
BYBLOCK
 62
0
100
AcDbBlockEnd
  0
BLOCK
  5
230
100
AcDbEntity
  8
0
100
AcDbBlockBegin
 62
7
  6
CONTINUOUS
  2
*D2
 70
65
 10
0.0
 20
0.0
  3
*D2
  1

  0
LINE
  5
231
100
AcDbEntity
  8
0
100
AcDbLine
 62
7
  6
CONTINUOUS
 10
-43.710627625
 20
26.4502617205
 11
-43.710627625
 21
36.0406722891
  0
LINE
  5
232
100
AcDbEntity
  8
0
100
AcDbLine
 62
7
  6
CONTINUOUS
 10
-39.910627625
 20
22.9710204091
 11
-39.910627625
 21
36.0406722891
  0
LINE
  5
233
100
AcDbEntity
  8
0
100
AcDbLine
 62
7
  6
CONTINUOUS
 10
-43.710627625
 20
34.5406722891
 11
-47.710627625
 21
34.5406722891
  0
LINE
  5
234
100
AcDbEntity
  8
0
100
AcDbLine
 62
7
  6
CONTINUOUS
 10
-47.710627625
 20
34.5406722891
 11
-41.810627625
 21
34.5406722891
  0
LINE
  5
235
100
AcDbEntity
  8
0
100
AcDbLine
 62
7
  6
CONTINUOUS
 10
-39.910627625
 20
34.5406722891
 11
-28.3582034539
 21
34.5406722891
  0
LINE
  5
236
100
AcDbEntity
  8
0
100
AcDbLine
 62
7
  6
CONTINUOUS
 10
-28.3582034539
 20
34.5406722891
 11
-41.810627625
 21
34.5406722891
  0
INSERT
  5
237
100
AcDbEntity
  8
0
100
AcDbBlockReference
 62
7
  6
CONTINUOUS
  2
_FILLED
 10
-43.710627625
 20
34.5406722891
 41
3.0
 42
3.0
 43
3.0
  0
INSERT
  5
238
100
AcDbEntity
  8
0
100
AcDbBlockReference
 62
7
  6
CONTINUOUS
  2
_FILLED
 10
-39.910627625
 20
34.5406722891
 41
3.0
 42
3.0
 43
3.0
 50
180.0
  0
ENDBLK
  5
239
100
AcDbEntity
  8
0
  6
BYBLOCK
 62
0
100
AcDbBlockEnd
  0
ENDSEC
  0
SECTION
  2
ENTITIES
  0
DIMENSION
  5
23A
100
AcDbEntity
  8
0
100
AcDbDimension
 62
7
  6
CONTINUOUS
  2
*D0
 10
22.1065513224
 20
34.5414201772
 11
-4.6363058205
 21
34.5414201772
 70
160
 71
2
 72
2
 41
0.9
 42
44.7
  3
DIMSTYLE_1
100
AcDbAlignedDimension
 13
-22.5934486776
 23
22.4710204091
 14
22.1065513224
 24
22.4710204091
100
AcDbRotatedDimension
  0
DIMENSION
  5
23B
100
AcDbEntity
  8
0
100
AcDbDimension
 62
7
  6
CONTINUOUS
  2
*D1
 10
30.170778882
 20
-26.2352829088
 11
30.170778882
 21
-4.1488676278
 70
160
 71
2
 72
2
 41
0.9
 42
52.7442591333
  3
DIMSTYLE_2
100
AcDbAlignedDimension
 13
21.5788522265
 23
26.5089762245
 14
21.5788522265
 24
-26.2352829088
 50
270.0
100
AcDbRotatedDimension
  0
DIMENSION
  5
23C
100
AcDbEntity
  8
0
100
AcDbDimension
 62
7
  6
CONTINUOUS
  2
*D2
 10
-39.910627625
 20
34.5406722891
 11
-34.5724891682
 21
34.5406722891
 70
160
 71
1
 72
2
 41
0.9
 42
3.8
  3
DIMSTYLE_1
100
AcDbAlignedDimension
 13
-43.710627625
 23
25.9502617205
 14
-39.910627625
 24
22.4710204091
100
AcDbRotatedDimension
  0
LWPOLYLINE
  5
23D
100
AcDbEntity
  8
ASSI
100
AcDbPolyline
 62
250
  6
CONTINUOUS
 90
16
 70
0
 10
21.5199663849
 20
-26.1763970672
 10
21.5714667331
 20
-26.1737015042
 10
21.6226209105
 20
-26.1656715952
 10
21.6728701487
 20
-26.152330357
 10
21.721716962
 20
-26.1337324827
 10
21.7685377387
 20
-26.1100350238
 10
21.8126215278
 20
-26.0815612777
 10
21.8534273743
 20
-26.0486737789
 10
21.8905706426
 20
-26.0116966851
 10
21.9236527003
 20
-25.9710223867
 10
21.9523111664
 20
-25.9270843677
 10
21.9762178877
 20
-25.8803718014
 10
21.9950986834
 20
-25.831414014
 10
22.0087442406
 20
-25.7807562598
 10
22.0170067123
 20
-25.7289508738
 10
22.0197950474
 20
-25.6765684047
  0
LWPOLYLINE
  5
23E
100
AcDbEntity
  8
ASSI
100
AcDbPolyline
 62
250
  6
CONTINUOUS
 90
16
 70
0
 10
-22.0068637402
 20
-26.1763970672
 10
-22.0583754578
 20
-26.1737003185
 10
-22.1095382348
 20
-26.1656673906
 10
-22.1597931344
 20
-26.1523221032
 10
-22.2086425263
 20
-26.1337200172
 10
-22.2554631052
 20
-26.1100189467
 10
-22.2995446081
 20
-26.0815426787
 10
-22.3403459399
 20
-26.0486547674
 10
-22.3774835682
 20
-26.0116794681
 10
-22.4105609472
 20
-25.9710074606
 10
-22.4392162268
 20
-25.9270710799
 10
-22.4631204595
 20
-25.8803601373
 10
-22.4819991489
 20
-25.831404488
 10
-22.4956430289
 20
-25.780749557
 10
-22.5039044382
 20
-25.7289473795
 10
-22.5066924027
 20
-25.6765684047
  0
LINE
  5
23F
100
AcDbEntity
  8
ASSI
100
AcDbLine
 62
7
  6
CONTINUOUS
 10
-22.0657495818
 20
-26.2352829088
 11
21.5788522265
 21
-26.2352829088
  0
LINE
  5
240
100
AcDbEntity
  8
ASSI
100
AcDbLine
 62
250
  6
CONTINUOUS
 10
-22.0068637402
 20
-26.1763970672
 11
21.5199663849
 21
-26.1763970672
  0
LINE
  5
241
100
AcDbEntity
  8
ASSI
100
AcDbLine
 62
250
  6
CONTINUOUS
 10
-22.5066924027
 20
-25.6765684047
 11
22.0197950474
 21
-25.6765684047
  0
LWPOLYLINE
  5
242
100
AcDbEntity
  8
ASSI
100
AcDbPolyline
 62
250
  6
CONTINUOUS
 90
16
 70
0
 10
-22.5066924027
 20
0.8753239648
 10
-22.5039148799
 20
0.8229206515
 10
-22.4956608234
 20
0.7710948977
 10
-22.4820212318
 20
0.7204177133
 10
-22.4631438874
 20
0.6714417351
 10
-22.4392381863
 20
0.6247127989
 10
-22.4105786867
 20
0.5807610083
 10
-22.3774940033
 20
0.5400760182
 10
-22.3403466528
 20
0.5030912458
 10
-22.299535231
 20
0.4701989621
 10
-22.2554433664
 20
0.4417227835
 10
-22.2086133728
 20
0.418026336
 10
-22.1597602134
 20
0.3994341435
 10
-22.1095094109
 20
0.386102323
 10
-22.0583576277
 20
0.3780837579
 10
-22.0068637402
 20
0.3754001172
  0
LINE
  5
243
100
AcDbEntity
  8
ASSI
100
AcDbLine
 62
7
  6
CONTINUOUS
 10
-22.5930025458
 20
-22.3267366159
 11
-22.5690608546
 21
-25.7389368566
  0
LINE
  5
244
100
AcDbEntity
  8
ASSI
100
AcDbLine
 62
7
  6
CONTINUOUS
 10
-22.5934486776
 20
22.4710204091
 11
-22.5934486776
 21
0.8174937903
  0
LINE
  5
245
100
AcDbEntity
  8
ASSI
100
AcDbLine
 62
7
  6
CONTINUOUS
 10
-22.5934486776
 20
-0.5438004745
 11
-22.5934486776
 21
-22.1973270933
  0
LINE
  5
246
100
AcDbEntity
  8
ASSI
100
AcDbLine
 62
250
  6
CONTINUOUS
 10
-22.5066924027
 20
25.9502617205
 11
-22.5066924027
 21
0.8753239648
  0
LINE
  5
247
100
AcDbEntity
  8
ASSI
100
AcDbLine
 62
250
  6
CONTINUOUS
 10
-22.5066924027
 20
-0.601630649
 11
-22.5066924027
 21
-25.6765684047
  0
LINE
  5
248
100
AcDbEntity
  8
ASSI
100
AcDbLine
 62
250
  6
CONTINUOUS
 10
-22.0068637402
 20
0.3754001172
 11
-22.0068637402
 21
26.450090383
  0
LINE
  5
249
100
AcDbEntity
  8
ASSI
100
AcDbLine
 62
250
  6
CONTINUOUS
 10
-22.0068637402
 20
-0.1017068014
 11
-22.0068637402
 21
-26.1763970672
  0
LINE
  5
24A
100
AcDbEntity
  8
ASSI
100
AcDbLine
 62
7
  6
CONTINUOUS
 10
-22.5930025458
 20
22.6004299317
 11
-22.5690608546
 21
26.0126301724
  0
LWPOLYLINE
  5
24B
100
AcDbEntity
  8
CURVE
100
AcDbPolyline
 62
250
  6
CONTINUOUS
 90
56
 70
0
 10
-14.250903104
 20
17.0078780159
 10
-14.2370042189
 20
17.0248582253
 10
-14.2223944081
 20
17.0413057477
 10
-14.2071104433
 20
17.0572048937
 10
-14.1911890964
 20
17.0725399738
 10
-14.1746671393
 20
17.0872952986
 10
-14.1575813437
 20
17.1014551787
 10
-14.1399684814
 20
17.1150039247
 10
-14.1218653244
 20
17.1279258471
 10
-14.1033086444
 20
17.1402052564
 10
-14.0843352133
 20
17.1518264633
 10
-14.0649818028
 20
17.1627737783
 10
-14.0452851849
 20
17.1730315121
 10
-14.0252821312
 20
17.1825839751
 10
-14.0050094138
 20
17.1914154779
 10
-13.9823515062
 20
17.2003211991
 10
-13.9594359929
 20
17.2083703775
 10
-13.9362892196
 20
17.2156046232
 10
-13.912937532
 20
17.2220655463
 10
-13.8894072758
 20
17.2277947571
 10
-13.8657247967
 20
17.2328338656
 10
-13.8419164403
 20
17.2372244819
 10
-13.8150389625
 20
17.2414324102
 10
-13.7880538341
 20
17.2449077007
 10
-13.7609791145
 20
17.2476842164
 10
-13.7338328628
 20
17.2497958205
 10
-13.7066331385
 20
17.2512763763
 10
-13.6793980007
 20
17.2521597469
 10
-13.6521455087
 20
17.2524797954
 10
-13.6211101287
 20
17.2521870134
 10
-13.590099403
 20
17.2511715189
 10
-13.5591370714
 20
17.2493973085
 10
-13.5282468739
 20
17.2468283789
 10
-13.49745255
 20
17.2434287266
 10
-13.4667778397
 20
17.2391623482
 10
-13.4437993538
 20
17.2353550763
 10
-13.420920507
 20
17.2309902918
 10
-13.3981598316
 20
17.2260212307
 10
-13.3755358598
 20
17.2204011292
 10
-13.3530671239
 20
17.2140832233
 10
-13.3307721561
 20
17.2070207491
 10
-13.3086694888
 20
17.1991669428
 10
-13.2896294905
 20
17.1916657483
 10
-13.2707887011
 20
17.1835363464
 10
-13.2521869831
 20
17.1747839584
 10
-13.2338641991
 20
17.1654138055
 10
-13.2158602118
 20
17.1554311089
 10
-13.1982148838
 20
17.1448410899
 10
-13.1809680776
 20
17.1336489696
 10
-13.1641596558
 20
17.1218599693
 10
-13.1478294812
 20
17.1094793102
 10
-13.1320174162
 20
17.0965122135
 10
-13.1167633235
 20
17.0829639004
 10
-13.1021070658
 20
17.0688395922
 10
-13.0880885055
 20
17.0541445101
 10
-13.0747475054
 20
17.0388838753
  0
LINE
  5
24C
100
AcDbEntity
  8
CURVE
100
AcDbLine
 62
7
  6
CONTINUOUS
 10
-15.0488980592
 20
16.6822867554
 11
-14.0524318761
 21
17.6787529385
  0
LINE
  5
24D
100
AcDbEntity
  8
CURVE
100
AcDbLine
 62
7
  6
CONTINUOUS
 10
-15.1547056392
 20
15.5808728275
 11
-14.5240147428
 21
16.2115637239
  0
LINE
  5
24E
100
AcDbEntity
  8
CURVE
100
AcDbLine
 62
7
  6
CONTINUOUS
 10
-13.4934593566
 20
17.2421191102
 11
-13.0845978334
 21
17.6509806333
  0
LINE
  5
24F
100
AcDbEntity
  8
CURVE
100
AcDbLine
 62
7
  6
CONTINUOUS
 10
-15.1546338967
 20
14.5853382221
 11
-14.5536257092
 21
15.1863464096
  0
LINE
  5
250
100
AcDbEntity
  8
CURVE
100
AcDbLine
 62
7
  6
CONTINUOUS
 10
-12.9303899803
 20
16.8095821386
 11
-12.5021655699
 21
17.2378065489
  0
LWPOLYLINE
  5
251
100
AcDbEntity
  8
CURVE
100
AcDbPolyline
 62
250
  6
CONTINUOUS
 90
31
 70
0
 10
-15.1176891281
 20
-16.7584726233
 10
-15.1304290256
 20
-16.7422610004
 10
-15.1427822865
 20
-16.7257471149
 10
-15.1547551168
 20
-16.7089435487
 10
-15.166353722
 20
-16.6918628835
 10
-15.1775843079
 20
-16.6745177014
 10
-15.1884530803
 20
-16.6569205842
 10
-15.1989662449
 20
-16.6390841137
 10
-15.2091300074
 20
-16.6210208718
 10
-15.2189505736
 20
-16.6027434405
 10
-15.2284341491
 20
-16.5842644016
 10
-15.2375869398
 20
-16.5655963369
 10
-15.2464151513
 20
-16.5467518284
 10
-15.2549249893
 20
-16.5277434579
 10
-15.2631226597
 20
-16.5085838073
 10
-15.2710143681
 20
-16.4892854585
 10
-15.2786063203
 20
-16.4698609933
 10
-15.2859047221
 20
-16.4503229937
 10
-15.292915779
 20
-16.4306840414
 10
-15.2996456969
 20
-16.4109567185
 10
-15.3061006815
 20
-16.3911536067
 10
-15.3122869386
 20
-16.371287288
 10
-15.3182106738
 20
-16.3513703442
 10
-15.3238780929
 20
-16.3314153572
 10
-15.3309617271
 20
-16.3050939526
 10
-15.3376301218
 20
-16.2787229703
 10
-15.3439017909
 20
-16.252296989
 10
-15.3497952487
 20
-16.2258105873
 10
-15.355329009
 20
-16.1992583438
 10
-15.3605215859
 20
-16.1726348372
 10
-15.3653914935
 20
-16.145934646
  0
LWPOLYLINE
  5
252
100
AcDbEntity
  8
CURVE
100
AcDbPolyline
 62
250
  6
CONTINUOUS
 90
57
 70
0
 10
-13.0850827918
 20
13.2410106124
 10
-13.0980327043
 20
13.2255221532
 10
-13.1116650265
 20
13.210571053
 10
-13.1259413031
 20
13.1961662767
 10
-13.1408230787
 20
13.182316789
 10
-13.1562718977
 20
13.1690315548
 10
-13.1722493049
 20
13.1563195388
 10
-13.1887168449
 20
13.144189706
 10
-13.2056360622
 20
13.1326510211
 10
-13.2229685014
 20
13.121712449
 10
-13.2406757072
 20
13.1113829544
 10
-13.2587192241
 20
13.1016715023
 10
-13.2770605967
 20
13.0925870573
 10
-13.2956613696
 20
13.0841385843
 10
-13.3144830874
 20
13.0763350482
 10
-13.3361331543
 20
13.0682393019
 10
-13.3579982161
 20
13.0609471977
 10
-13.3800568224
 20
13.0544151391
 10
-13.4022875226
 20
13.0485995299
 10
-13.4246688662
 20
13.0434567736
 10
-13.4471794026
 20
13.0389432738
 10
-13.4697976812
 20
13.0350154342
 10
-13.4956399187
 20
13.0312081328
 10
-13.5215779122
 20
13.0280689021
 10
-13.5475956986
 20
13.0255640196
 10
-13.5736773146
 20
13.0236597627
 10
-13.5998067971
 20
13.022322409
 10
-13.6259681829
 20
13.0215182357
 10
-13.6521455087
 20
13.0212135204
 10
-13.6847604084
 20
13.0214984487
 10
-13.7173501444
 20
13.0225420217
 10
-13.7498895886
 20
13.024379873
 10
-13.7823536133
 20
13.0270476364
 10
-13.8147170906
 20
13.0305809456
 10
-13.8469548925
 20
13.0350154342
 10
-13.8708921056
 20
13.038935548
 10
-13.8947271413
 20
13.04342896
 10
-13.9184416479
 20
13.0485482288
 10
-13.9420172736
 20
13.0543459133
 10
-13.965435667
 20
13.0608745722
 10
-13.9886784763
 20
13.0681867643
 10
-14.01172735
 20
13.0763350482
 10
-14.0299582154
 20
13.0834648475
 10
-14.0480180916
 20
13.0911572058
 10
-14.0658710811
 20
13.0994091776
 10
-14.0834812864
 20
13.1082178177
 10
-14.10081281
 20
13.1175801807
 10
-14.1178297544
 20
13.1274933215
 10
-14.1344962221
 20
13.1379542947
 10
-14.1507763156
 20
13.148960155
 10
-14.1666341374
 20
13.1605079571
 10
-14.1820337901
 20
13.1725947558
 10
-14.1969393762
 20
13.1852176058
 10
-14.2113149981
 20
13.1983735617
 10
-14.2251247584
 20
13.2120596783
 10
-14.2383327595
 20
13.2262730103
 10
-14.250903104
 20
13.2410106124
  0
LINE
  5
253
100
AcDbEntity
  8
CURVE
100
AcDbLine
 62
7
  6
CONTINUOUS
 10
-15.0739623523
 20
13.6704034186
 11
-14.5426852517
 21
14.2016805192
  0
LINE
  5
254
100
AcDbEntity
  8
CURVE
100
AcDbLine
 62
7
  6
CONTINUOUS
 10
-12.7701400199
 20
15.974225751
 11
-12.2214442872
 21
16.5229214837
  0
LINE
  5
255
100
AcDbEntity
  8
CURVE
100
AcDbLine
 62
7
  6
CONTINUOUS
 10
-11.1961366776
 20
17.5482290933
 11
-11.120505113
 21
17.6238606579
  0
LINE
  5
256
100
AcDbEntity
  8
CURVE
100
AcDbLine
 62
7
  6
CONTINUOUS
 10
-14.7679856492
 20
12.9807737738
 11
-14.3521601528
 21
13.3965992702
  0
LINE
  5
257
100
AcDbEntity
  8
CURVE
100
AcDbLine
 62
7
  6
CONTINUOUS
 10
-12.7584665803
 20
14.9902928427
 11
-12.1501251972
 21
15.5986342258
  0
LINE
  5
258
100
AcDbEntity
  8
CURVE
100
AcDbLine
 62
7
  6
CONTINUOUS
 10
-11.1961366776
 20
16.5526227454
 11
-10.6528456776
 21
17.0959137454
  0
LINE
  5
259
100
AcDbEntity
  8
CURVE
100
AcDbLine
 62
7
  6
CONTINUOUS
 10
-10.6458782176
 20
17.1028812054
 11
-10.2454648222
 21
17.5032946008
  0
LINE
  5
25A
100
AcDbEntity
  8
CURVE
100
AcDbLine
 62
7
  6
CONTINUOUS
 10
-14.1496626942
 20
12.6034903809
 11
-13.7294357889
 21
13.0237172862
  0
LINE
  5
25B
100
AcDbEntity
  8
CURVE
100
AcDbLine
 62
7
  6
CONTINUOUS
 10
-12.8065417001
 20
13.946611375
 11
-12.1514614572
 21
14.6016916179
  0
LINE
  5
25C
100
AcDbEntity
  8
CURVE
100
AcDbLine
 62
7
  6
CONTINUOUS
 10
-11.1961366776
 20
15.5570163974
 11
-10.6528456776
 21
16.1003073974
  0
LINE
  5
25D
100
AcDbEntity
  8
CURVE
100
AcDbLine
 62
7
  6
CONTINUOUS
 10
-10.3754665268
 20
16.3776865483
 11
-9.9750531314
 21
16.7780999436
  0
LWPOLYLINE
  5
25E
100
AcDbEntity
  8
CURVE
100
AcDbPolyline
 62
250
  6
CONTINUOUS
 90
31
 70
0
 10
-13.9408445104
 20
-12.9605993604
 10
-13.918563236
 20
-12.9881971996
 10
-13.8972568347
 20
-13.0166175856
 10
-13.8769478842
 20
-13.0458069139
 10
-13.8576589622
 20
-13.0757115801
 10
-13.8394126462
 20
-13.1062779797
 10
-13.822231514
 20
-13.1374525083
 10
-13.8061381432
 20
-13.1691815615
 10
-13.7911551115
 20
-13.2014115348
 10
-13.7760871295
 20
-13.2370699564
 10
-13.7622717236
 20
-13.2732059074
 10
-13.7496141341
 20
-13.3097649413
 10
-13.7380196015
 20
-13.3466926117
 10
-13.727393366
 20
-13.383934472
 10
-13.717640668
 20
-13.4214360757
 10
-13.7086667477
 20
-13.4591429764
 10
-13.7003768455
 20
-13.4970007274
 10
-13.688727829
 20
-13.5557454748
 10
-13.678404969
 20
-13.6146980732
 10
-13.6693252271
 20
-13.673835826
 10
-13.661405565
 20
-13.7331360371
 10
-13.6545629441
 20
-13.79257601
 10
-13.6487143262
 20
-13.8521330484
 10
-13.6437766728
 20
-13.911784456
 10
-13.6396669454
 20
-13.9715075363
 10
-13.6363021058
 20
-14.0312795931
 10
-13.6335991153
 20
-14.0910779299
 10
-13.6314749358
 20
-14.1508798505
 10
-13.6292386161
 20
-14.2382283767
 10
-13.6277947847
 20
-14.3255501341
 10
-13.6268775862
 20
-14.4128591543
  0
LINE
  5
25F
100
AcDbEntity
  8
CURVE
100
AcDbLine
 62
7
  6
CONTINUOUS
 10
-13.1359644469
 20
12.6215822803
 11
-12.3114709999
 21
13.4460757273
  0
LINE
  5
260
100
AcDbEntity
  8
CURVE
100
AcDbLine
 62
7
  6
CONTINUOUS
 10
-11.1961366776
 20
14.5614100495
 11
-10.6528456776
 21
15.1047010495
  0
LINE
  5
261
100
AcDbEntity
  8
CURVE
100
AcDbLine
 62
7
  6
CONTINUOUS
 10
-10.1050548361
 20
15.6524918911
 11
-9.7046414407
 21
16.0529052865
  0
LINE
  5
262
100
AcDbEntity
  8
CURVE
100
AcDbLine
 62
7
  6
CONTINUOUS
 10
-8.6229946776
 20
17.1345520495
 11
-8.1336860693
 21
17.6238606579
  0
LINE
  5
263
100
AcDbEntity
  8
CURVE
100
AcDbLine
 62
7
  6
CONTINUOUS
 10
-11.1961366776
 20
13.5658037016
 11
-10.6528456776
 21
14.1090947016
  0
LINE
  5
264
100
AcDbEntity
  8
CURVE
100
AcDbLine
 62
7
  6
CONTINUOUS
 10
-9.8346431453
 20
14.927297234
 11
-9.4342297499
 21
15.3277106293
  0
LINE
  5
265
100
AcDbEntity
  8
CURVE
100
AcDbLine
 62
7
  6
CONTINUOUS
 10
-8.6229946776
 20
16.1389457016
 11
-8.0793586776
 21
16.6825817016
  0
LINE
  5
266
100
AcDbEntity
  8
CURVE
100
AcDbLine
 62
7
  6
CONTINUOUS
 10
-11.1165013735
 20
12.6498326579
 11
-10.6528456776
 21
13.1134883537
  0
LINE
  5
267
100
AcDbEntity
  8
CURVE
100
AcDbLine
 62
7
  6
CONTINUOUS
 10
-9.5642314545
 20
14.2021025768
 11
-9.1638180592
 21
14.6025159722
  0
LINE
  5
268
100
AcDbEntity
  8
CURVE
100
AcDbLine
 62
7
  6
CONTINUOUS
 10
-8.6229946776
 20
15.1433393537
 11
-8.0793586776
 21
15.6869753537
  0
LINE
  5
269
100
AcDbEntity
  8
CURVE
100
AcDbLine
 62
7
  6
CONTINUOUS
 10
-9.2938197638
 20
13.4769079197
 11
-8.8934063684
 21
13.877321315
  0
LINE
  5
26A
100
AcDbEntity
  8
CURVE
100
AcDbLine
 62
7
  6
CONTINUOUS
 10
-8.6229946776
 20
14.1477330058
 11
-8.0793586776
 21
14.6913690058
  0
LWPOLYLINE
  5
26B
100
AcDbEntity
  8
CURVE
100
AcDbPolyline
 62
250
  6
CONTINUOUS
 90
54
 70
0
 10
-14.4445304289
 20
-17.4450785367
 10
-14.3858001377
 20
-17.442503932
 10
-14.3271593239
 20
-17.4384449309
 10
-14.2686453458
 20
-17.4327639372
 10
-14.2226460304
 20
-17.4270511974
 10
-14.1768028906
 20
-17.4201659613
 10
-14.1311701018
 20
-17.4120288188
 10
-14.0858018396
 20
-17.4025603596
 10
-14.0407522794
 20
-17.3916811735
 10
-13.9905992249
 20
-17.3776966375
 10
-13.941006859
 20
-17.361818697
 10
-13.8920654016
 20
-17.3440340906
 10
-13.8438650724
 20
-17.3243295568
 10
-13.7997262116
 20
-17.3042296945
 10
-13.7564264559
 20
-17.2823867247
 10
-13.7140837607
 20
-17.2587344771
 10
-13.6728160816
 20
-17.2332067812
 10
-13.6354863515
 20
-17.2077381929
 10
-13.5992421449
 20
-17.1806670938
 10
-13.5641365123
 20
-17.1520713719
 10
-13.5302225042
 20
-17.1220289157
 10
-13.4975531713
 20
-17.0906176133
 10
-13.4661815641
 20
-17.0579153529
 10
-13.4361607332
 20
-17.0240000228
 10
-13.4075437292
 20
-16.9889495113
 10
-13.3802596104
 20
-16.9526970661
 10
-13.3543833748
 20
-16.9154627757
 10
-13.3298544272
 20
-16.8773305071
 10
-13.3066121725
 20
-16.8383841276
 10
-13.2845960154
 20
-16.7987075041
 10
-13.2637453608
 20
-16.7583845038
 10
-13.2439996134
 20
-16.7174989938
 10
-13.2252981781
 20
-16.6761348412
 10
-13.2031543906
 20
-16.623465593
 10
-13.1825584166
 20
-16.5702149708
 10
-13.1634976048
 20
-16.5164278308
 10
-13.1459593043
 20
-16.4621490292
 10
-13.1299308637
 20
-16.4074234221
 10
-13.1153996321
 20
-16.3522958656
 10
-13.1006029152
 20
-16.2889376888
 10
-13.0875778256
 20
-16.2251802845
 10
-13.0761618171
 20
-16.161089668
 10
-13.0661923437
 20
-16.0967318548
 10
-13.0575068593
 20
-16.0321728603
 10
-13.0499428179
 20
-15.9674786999
 10
-13.0405465005
 20
-15.872039284
 10
-13.0329893969
 20
-15.7764757293
 10
-13.0270298661
 20
-15.6808139572
 10
-13.022426267
 20
-15.5850798892
 10
-13.0189369585
 20
-15.4892994465
 10
-13.0151675952
 20
-15.3370598415
 10
-13.0130982888
 20
-15.1847861335
 10
-13.0122257695
 20
-15.0324958616
 10
-13.0120467675
 20
-14.8802065648
  0
LINE
  5
26C
100
AcDbEntity
  8
CURVE
100
AcDbLine
 62
250
  6
CONTINUOUS
 10
-8.5223986776
 20
-17.3503403421
 11
-9.1073756776
 21
-17.3503403421
  0
LINE
  5
26D
100
AcDbEntity
  8
CURVE
100
AcDbLine
 62
250
  6
CONTINUOUS
 10
-11.4776016776
 20
-17.3503403421
 11
-12.0625786776
 21
-17.3503403421
  0
LWPOLYLINE
  5
26E
100
AcDbEntity
  8
CURVE
100
AcDbPolyline
 62
250
  6
CONTINUOUS
 90
29
 70
0
 10
-13.8240557734
 20
-12.3962927199
 10
-13.8447569586
 20
-12.3871045277
 10
-13.8656665644
 20
-12.3784111727
 10
-13.8867733177
 20
-12.3701985921
 10
-13.9080659453
 20
-12.3624527233
 10
-13.9295331742
 20
-12.3551595034
 10
-13.9511637313
 20
-12.3483048698
 10
-13.9729463433
 20
-12.3418747598
 10
-13.9948697372
 20
-12.3358551105
 10
-14.01692264
 20
-12.3302318594
 10
-14.0390937783
 20
-12.3249909435
 10
-14.0613718792
 20
-12.3201183004
 10
-14.0837456696
 20
-12.3155998671
 10
-14.1062038762
 20
-12.311421581
 10
-14.1287352261
 20
-12.3075693793
 10
-14.151328446
 20
-12.3040291994
 10
-14.1739722629
 20
-12.3007869785
 10
-14.1966554036
 20
-12.2978286538
 10
-14.219366595
 20
-12.2951401627
 10
-14.242094564
 20
-12.2927074424
 10
-14.2648280376
 20
-12.2905164301
 10
-14.2875557425
 20
-12.2885530632
 10
-14.3102664056
 20
-12.286803279
 10
-14.3451031826
 20
-12.2845049443
 10
-14.3798916231
 20
-12.2826610819
 10
-14.4146502026
 20
-12.2812553732
 10
-14.4493973969
 20
-12.2802714995
 10
-14.4841516817
 20
-12.2796931423
 10
-14.5189315328
 20
-12.2795039829
  0
LWPOLYLINE
  5
26F
100
AcDbEntity
  8
CURVE
100
AcDbPolyline
 62
250
  6
CONTINUOUS
 90
10
 70
0
 10
-15.3653914935
 20
-16.145934646
 10
-15.3783662375
 20
-16.070266481
 10
-15.3895449932
 20
-15.9942919904
 10
-15.3988853923
 20
-15.9180668131
 10
-15.4063450661
 20
-15.8416465873
 10
-15.4121583996
 20
-15.7614383132
 10
-15.4161845737
 20
-15.6811180246
 10
-15.4187468554
 20
-15.600726697
 10
-15.4201685117
 20
-15.5203053059
 10
-15.420825889
 20
-15.4095362911
  0
LINE
  5
270
100
AcDbEntity
  8
CURVE
100
AcDbLine
 62
250
  6
CONTINUOUS
 10
-14.5543749276
 20
14.589975445
 11
-14.5525663476
 21
15.5685710083
  0
LINE
  5
271
100
AcDbEntity
  8
CURVE
100
AcDbLine
 62
250
  6
CONTINUOUS
 10
-15.420825889
 20
-15.4095362911
 11
-15.4190075695
 21
-14.4312855611
  0
LWPOLYLINE
  5
272
100
AcDbEntity
  8
CURVE
100
AcDbPolyline
 62
250
  6
CONTINUOUS
 90
25
 70
0
 10
-15.4190075695
 20
-14.4312855611
 10
-15.4182907851
 20
-14.3238151892
 10
-15.4167234162
 20
-14.2163366647
 10
-15.4147435763
 20
-14.1373764695
 10
-15.4118007029
 20
-14.0584486714
 10
-15.4076480063
 20
-13.9795937153
 10
-15.4020386967
 20
-13.9008520457
 10
-15.3952745793
 20
-13.8273020356
 10
-15.3869547281
 20
-13.7538995025
 10
-15.3770150604
 20
-13.6806573027
 10
-15.3653914935
 20
-13.6075882925
 10
-15.3564706776
 20
-13.5580468372
 10
-15.3465600399
 20
-13.5086821018
 10
-15.3354771925
 20
-13.4595848673
 10
-15.3230397473
 20
-13.4108459149
 10
-15.3090653167
 20
-13.3625560253
 10
-15.2933715126
 20
-13.3148059798
 10
-15.2757759472
 20
-13.2676865592
 10
-15.2580866963
 20
-13.2256663598
 10
-15.2387186586
 20
-13.1843379798
 10
-15.21770019
 20
-13.1438023291
 10
-15.1950596467
 20
-13.1041603177
 10
-15.1708253845
 20
-13.0655128556
 10
-15.1450257597
 20
-13.027960853
 10
-15.1176891281
 20
-12.9916052197
  0
LWPOLYLINE
  5
273
100
AcDbEntity
  8
CURVE
100
AcDbPolyline
 62
250
  6
CONTINUOUS
 90
25
 70
0
 10
-14.5525663476
 20
15.5685710083
 10
-14.5518496064
 20
15.676027077
 10
-14.5502819017
 20
15.7834910805
 10
-14.5483023978
 20
15.8624079501
 10
-14.5453598518
 20
15.9412924443
 10
-14.541207151
 20
16.0201043476
 10
-14.5355971822
 20
16.0988034448
 10
-14.5288320098
 20
16.1723116156
 10
-14.520511223
 20
16.2456720718
 10
-14.510571615
 20
16.3188710891
 10
-14.498949979
 20
16.3918949432
 10
-14.490022992
 20
16.4414521084
 10
-14.4801060052
 20
16.4908319712
 10
-14.4690167413
 20
16.5399446492
 10
-14.456572923
 20
16.5887002602
 10
-14.4425922731
 20
16.6370089218
 10
-14.4268925141
 20
16.6847807517
 10
-14.409291369
 20
16.7319258676
 10
-14.3916014681
 20
16.7739611919
 10
-14.372228298
 20
16.8153031579
 10
-14.3511944213
 20
16.8558450628
 10
-14.3285224009
 20
16.8954802038
 10
-14.3042347994
 20
16.9341018782
 10
-14.2783541795
 20
16.9716033831
 10
-14.250903104
 20
17.0078780159
  0
LINE
  5
274
100
AcDbEntity
  8
ASSI
100
AcDbLine
 62
7
  6
CONTINUOUS
 10
-21.5848734616
 20
0.3262213025
 11
-21.5742481062
 21
0.3368466579
  0
LINE
  5
275
100
AcDbEntity
  8
CURVE
100
AcDbLine
 62
7
  6
CONTINUOUS
 10
-9.023408073
 20
12.7517132625
 11
-8.0793586776
 21
13.6957626579
  0
LINE
  5
276
100
AcDbEntity
  8
CURVE
100
AcDbLine
 62
7
  6
CONTINUOUS
 10
-8.1296823297
 20
12.6498326579
 11
-8.0793586776
 21
12.70015631
  0
LINE
  5
277
100
AcDbEntity
  8
CURVE
100
AcDbLine
 62
250
  6
CONTINUOUS
 10
-7.0503086776
 20
-15.0180103421
 11
-8.5223986776
 21
-15.0180103421
  0
LINE
  5
278
100
AcDbEntity
  8
CURVE
100
AcDbLine
 62
250
  6
CONTINUOUS
 10
-10.0055116776
 20
-15.0180103421
 11
-11.4776016776
 21
-15.0180103421
  0
LINE
  5
279
100
AcDbEntity
  8
CURVE
100
AcDbLine
 62
250
  6
CONTINUOUS
 10
-11.4776016776
 20
-14.5498223421
 11
-10.0055116776
 21
-14.5498223421
  0
LINE
  5
27A
100
AcDbEntity
  8
CURVE
100
AcDbLine
 62
250
  6
CONTINUOUS
 10
-8.5223986776
 20
-14.5498223421
 11
-7.0503086776
 21
-14.5498223421
  0
LINE
  5
27B
100
AcDbEntity
  8
ASSI
100
AcDbLine
 62
7
  6
CONTINUOUS
 10
-21.5848734616
 20
-0.0525279867
 11
-21.5742481062
 21
-0.0631533421
  0
LWPOLYLINE
  5
27C
100
AcDbEntity
  8
CURVE
100
AcDbPolyline
 62
250
  6
CONTINUOUS
 90
42
 70
0
 10
-13.0129735536
 20
-14.5855758824
 10
-13.014677181
 20
-14.4382692422
 10
-13.0176922045
 20
-14.290960879
 10
-13.022382054
 20
-14.14364515
 10
-13.0255085881
 20
-14.069471748
 10
-13.0292970349
 20
-13.995322443
 10
-13.0338925839
 20
-13.92122463
 10
-13.0394404243
 20
-13.8472057038
 10
-13.0460857454
 20
-13.7732930593
 10
-13.0539737366
 20
-13.6995140913
 10
-13.0632495871
 20
-13.6258961949
 10
-13.0740584863
 20
-13.5524667647
 10
-13.0840936054
 20
-13.4928616858
 10
-13.0953456603
 20
-13.4334590596
 10
-13.1079196275
 20
-13.3743183145
 10
-13.1219204831
 20
-13.3154988788
 10
-13.1374532037
 20
-13.257060181
 10
-13.1546227656
 20
-13.1990616493
 10
-13.1735341451
 20
-13.1415627121
 10
-13.1942923187
 20
-13.0846227978
 10
-13.2101395164
 20
-13.0447498887
 10
-13.2270072018
 20
-13.0052654117
 10
-13.2449404782
 20
-12.9662487324
 10
-13.2639844487
 20
-12.9277792159
 10
-13.2841842168
 20
-12.8899362276
 10
-13.3055848856
 20
-12.8527991328
 10
-13.3282315585
 20
-12.8164472969
 10
-13.3521693386
 20
-12.780960085
 10
-13.3774433293
 20
-12.7464168626
 10
-13.4040986338
 20
-12.712896995
 10
-13.4329293167
 20
-12.6796170699
 10
-13.4631754828
 20
-12.6475207696
 10
-13.4947488005
 20
-12.616629165
 10
-13.5275609383
 20
-12.5869633268
 10
-13.5615235646
 20
-12.558544326
 10
-13.5965483478
 20
-12.5313932335
 10
-13.6325469563
 20
-12.50553112
 10
-13.6694310585
 20
-12.4809790566
 10
-13.707112323
 20
-12.4577581139
 10
-13.745502418
 20
-12.435889363
 10
-13.784513012
 20
-12.4153938747
 10
-13.8240557734
 20
-12.3962927199
  0
LINE
  5
27D
100
AcDbEntity
  8
CURVE
100
AcDbLine
 62
250
  6
CONTINUOUS
 10
-13.6268775862
 20
-14.4128591543
 11
-13.625098616
 21
-14.6731265537
  0
LINE
  5
27E
100
AcDbEntity
  8
CURVE
100
AcDbLine
 62
250
  6
CONTINUOUS
 10
-12.7611930453
 20
15.6742089391
 11
-12.7581030201
 21
15.2690004105
  0
LWPOLYLINE
  5
27F
100
AcDbEntity
  8
CURVE
100
AcDbPolyline
 62
250
  6
CONTINUOUS
 90
43
 70
0
 10
-12.1458270973
 20
15.2671457679
 10
-12.1466979778
 20
15.4143128458
 10
-12.1485259158
 20
15.5614771244
 10
-12.1516189324
 20
15.7086488041
 10
-12.156285049
 20
15.8558380857
 10
-12.1593493114
 20
15.9300142283
 10
-12.1630471848
 20
16.004168521
 10
-12.1675346015
 20
16.0782720538
 10
-12.1729674937
 20
16.1522959166
 10
-12.1795017936
 20
16.2262111997
 10
-12.1872934335
 20
16.2999889931
 10
-12.1964983456
 20
16.3736003868
 10
-12.2072724622
 20
16.4470164709
 10
-12.2173142001
 20
16.5066215937
 10
-12.2285974848
 20
16.5660205125
 10
-12.2412201936
 20
16.6251556683
 10
-12.2552802038
 20
16.6839695021
 10
-12.2708753926
 20
16.7424044549
 10
-12.2881036374
 20
16.8004029678
 10
-12.3070628155
 20
16.8579074818
 10
-12.3278508042
 20
16.9148604378
 10
-12.3437137211
 20
16.954768644
 10
-12.3605877924
 20
16.9942915267
 10
-12.3785203114
 20
17.0333484843
 10
-12.3975585714
 20
17.0718589152
 10
-12.4177498658
 20
17.1097422177
 10
-12.4391414878
 20
17.1469177904
 10
-12.4617807308
 20
17.1833050316
 10
-12.4857148882
 20
17.2188233397
 10
-12.5109912532
 20
17.2533921131
 10
-12.5376571192
 20
17.2869307502
 10
-12.5664763778
 20
17.3201861511
 10
-12.5967174609
 20
17.3522532234
 10
-12.6282907578
 20
17.3831120793
 10
-12.6611066576
 20
17.4127428307
 10
-12.6950755494
 20
17.4411255896
 10
-12.7301078224
 20
17.4682404678
 10
-12.7661138658
 20
17.4940675775
 10
-12.8030040687
 20
17.5185870305
 10
-12.8406888203
 20
17.5417789389
 10
-12.8790785098
 20
17.5636234146
 10
-12.9180835262
 20
17.5841005696
 10
-12.9576142589
 20
17.6031905158
  0
LINE
  5
280
100
AcDbEntity
  8
CURVE
100
AcDbLine
 62
250
  6
CONTINUOUS
 10
-13.0120467675
 20
-14.8802065648
 11
-13.0129735536
 21
-14.5855758824
  0
LINE
  5
281
100
AcDbEntity
  8
CURVE
100
AcDbLine
 62
250
  6
CONTINUOUS
 10
-12.0625786776
 20
-17.3503403421
 11
-12.0625786776
 21
-12.3759663421
  0
LINE
  5
282
100
AcDbEntity
  8
CURVE
100
AcDbLine
 62
250
  6
CONTINUOUS
 10
-11.4776016776
 20
-12.8438103421
 11
-11.4776016776
 21
-14.5498223421
  0
LINE
  5
283
100
AcDbEntity
  8
CURVE
100
AcDbLine
 62
250
  6
CONTINUOUS
 10
-11.4776016776
 20
-15.0180103421
 11
-11.4776016776
 21
-17.3503403421
  0
LINE
  5
284
100
AcDbEntity
  8
CURVE
100
AcDbLine
 62
250
  6
CONTINUOUS
 10
-13.625098616
 20
-14.6731265537
 11
-13.624729939
 21
-14.9705482521
  0
LINE
  5
285
100
AcDbEntity
  8
CURVE
100
AcDbLine
 62
250
  6
CONTINUOUS
 10
-12.7581030201
 20
15.2690004105
 11
-12.7579472988
 21
15.0292429768
  0
LWPOLYLINE
  5
286
100
AcDbEntity
  8
CURVE
100
AcDbPolyline
 62
250
  6
CONTINUOUS
 90
3
 70
0
 10
-12.7579472988
 20
15.0292429768
 10
-12.7598334802
 20
14.655792903
 10
-12.7612438162
 20
14.4791779298
  0
LINE
  5
287
100
AcDbEntity
  8
CURVE
100
AcDbLine
 62
250
  6
CONTINUOUS
 10
-13.624729939
 20
-14.9705482521
 11
-13.6276853307
 21
-15.5203053059
  0
LWPOLYLINE
  5
288
100
AcDbEntity
  8
CURVE
100
AcDbPolyline
 62
250
  6
CONTINUOUS
 90
34
 70
0
 10
-13.6276853307
 20
-15.5203053059
 10
-13.6287222194
 20
-15.5782598465
 10
-13.6306636459
 20
-15.6362007765
 10
-13.6335170646
 20
-15.6941109165
 10
-13.6372899303
 20
-15.7519730872
 10
-13.6419896975
 20
-15.8097701093
 10
-13.6476238209
 20
-15.8674848034
 10
-13.6529285937
 20
-15.9145333571
 10
-13.6589046911
 20
-15.9614991266
 10
-13.6655955929
 20
-16.0083656627
 10
-13.6730447792
 20
-16.0551165165
 10
-13.6812957301
 20
-16.1017352388
 10
-13.6903919255
 20
-16.1482053804
 10
-13.7003768455
 20
-16.1945104924
 10
-13.7078551224
 20
-16.226539471
 10
-13.7158148493
 20
-16.2584590488
 10
-13.7242884461
 20
-16.2902472406
 10
-13.7333083327
 20
-16.3218820615
 10
-13.7429069291
 20
-16.3533415264
 10
-13.7531166549
 20
-16.3846036503
 10
-13.7639699302
 20
-16.4156464481
 10
-13.7754991748
 20
-16.4464479349
 10
-13.7877368086
 20
-16.4769861255
 10
-13.8007152515
 20
-16.5072390351
 10
-13.8129353232
 20
-16.5339531199
 10
-13.8257737769
 20
-16.5603931338
 10
-13.8392342513
 20
-16.5865292928
 10
-13.853320385
 20
-16.6123318131
 10
-13.8680358166
 20
-16.6377709108
 10
-13.8833841849
 20
-16.6628168019
 10
-13.8993691284
 20
-16.6874397026
 10
-13.9159942858
 20
-16.711609829
 10
-13.9332632957
 20
-16.7352973972
 10
-13.9511797968
 20
-16.7584726233
  0
LWPOLYLINE
  5
289
100
AcDbEntity
  8
CURVE
100
AcDbPolyline
 62
250
  6
CONTINUOUS
 90
33
 70
0
 10
-12.7612438162
 20
14.4791779298
 10
-12.7623545025
 20
14.4212534303
 10
-12.764347516
 20
14.3633440771
 10
-12.7672291364
 20
14.3054654982
 10
-12.7710056431
 20
14.2476333216
 10
-12.7756833157
 20
14.1898631752
 10
-12.7812684337
 20
14.132170687
 10
-12.7865123744
 20
14.0851473686
 10
-12.7924156695
 20
14.0382041453
 10
-12.7990288435
 20
13.9913589543
 10
-12.8064024211
 20
13.9446297325
 10
-12.8145869268
 20
13.898034417
 10
-12.8236328854
 20
13.8515909447
 10
-12.8335908214
 20
13.8053172528
 10
-12.8419419401
 20
13.7697050972
 10
-12.8509088212
 20
13.734234748
 10
-12.8605329478
 20
13.6989360096
 10
-12.8708558034
 20
13.6638386866
 10
-12.881918871
 20
13.6289725832
 10
-12.8937636341
 20
13.594367504
 10
-12.9064315757
 20
13.5600532533
 10
-12.9199641793
 20
13.5260596356
 10
-12.934402928
 20
13.4924164554
 10
-12.9466694017
 20
13.4656958002
 10
-12.9595494316
 20
13.4392489713
 10
-12.9730463935
 20
13.4131049565
 10
-12.9871636633
 20
13.3872927435
 10
-13.0019046167
 20
13.3618413199
 10
-13.0172726295
 20
13.3367796735
 10
-13.0332710777
 20
13.3121367918
 10
-13.0499033369
 20
13.2879416626
 10
-13.067172783
 20
13.2642232736
 10
-13.0850827918
 20
13.2410106124
  0
LINE
  5
28A
100
AcDbEntity
  8
ASSI
100
AcDbLine
 62
250
  6
CONTINUOUS
 10
-22.5934486776
 20
0.8174937903
 11
-22.5066924027
 21
0.8753239648
  0
LINE
  5
28B
100
AcDbEntity
  8
ASSI
100
AcDbLine
 62
250
  6
CONTINUOUS
 10
-22.0935057851
 20
0.3176460865
 11
-22.0068637402
 21
0.3754001172
  0
LWPOLYLINE
  5
28C
100
AcDbEntity
  8
CURVE
100
AcDbPolyline
 62
250
  6
CONTINUOUS
 90
84
 70
0
 10
-14.5189315328
 20
-12.2795039829
 10
-14.5879369689
 20
-12.2805374683
 10
-14.6571335899
 20
-12.2837282818
 10
-14.7263434633
 20
-12.2892119592
 10
-14.7953886564
 20
-12.2971240365
 10
-14.8640912367
 20
-12.3076000497
 10
-14.9322732715
 20
-12.3207755347
 10
-14.9997568284
 20
-12.3367860274
 10
-15.0663639747
 20
-12.3557670637
 10
-15.1319167778
 20
-12.3778541795
 10
-15.1962373052
 20
-12.4031829109
 10
-15.2503034923
 20
-12.4276028619
 10
-15.3031172579
 20
-12.4545641651
 10
-15.3544648448
 20
-12.4841207907
 10
-15.4041324959
 20
-12.5163267087
 10
-15.4519064539
 20
-12.5512358893
 10
-15.4947388508
 20
-12.586368334
 10
-15.5356875246
 20
-12.6237309749
 10
-15.574714934
 20
-12.6631385994
 10
-15.6117835377
 20
-12.7044059952
 10
-15.6468557946
 20
-12.7473479498
 10
-15.6891475994
 20
-12.8049639363
 10
-15.7281999457
 20
-12.8647743888
 10
-15.7641612959
 20
-12.9264929151
 10
-15.7968844089
 20
-12.9893097766
 10
-15.8266920236
 20
-13.0535577808
 10
-15.8535615238
 20
-13.1190737527
 10
-15.8798019463
 20
-13.192568435
 10
-15.9027365472
 20
-13.2672043545
 10
-15.9226569734
 20
-13.3427803579
 10
-15.939854872
 20
-13.4190952917
 10
-15.9546218901
 20
-13.4959480028
 10
-15.9672496748
 20
-13.5731373377
 10
-15.9796516353
 20
-13.6635252842
 10
-15.9898085667
 20
-13.7540907064
 10
-15.997997152
 20
-13.8448261804
 10
-16.005181404
 20
-13.9467267367
 10
-16.0106447004
 20
-14.0487663868
 10
-16.0147919925
 20
-14.1508798505
 10
-16.0197467475
 20
-14.3237460323
 10
-16.0228449032
 20
-14.4966382462
 10
-16.0248204501
 20
-14.6862638378
 10
-16.0254717885
 20
-14.8870967557
 10
-16.0250196197
 20
-15.0790693187
 10
-16.0236631133
 20
-15.2560234185
 10
-16.0215620931
 20
-15.4103910164
 10
-16.018237088
 20
-15.5647470377
 10
-16.0140153275
 20
-15.6950974366
 10
-16.0074281009
 20
-15.8253254474
 10
-15.9989951916
 20
-15.9375061841
 10
-15.9875757381
 20
-16.0494719725
 10
-15.9756645978
 20
-16.1413838212
 10
-15.9610738592
 20
-16.2329119111
 10
-15.9433698565
 20
-16.3238428072
 10
-15.9221189239
 20
-16.4139630748
 10
-15.9003479122
 20
-16.4920608831
 10
-15.8757823896
 20
-16.5693368812
 10
-15.8583228769
 20
-16.6192536268
 10
-15.8395203
 20
-16.6686763152
 10
-15.8191105689
 20
-16.717475987
 10
-15.7892491052
 20
-16.7809504619
 10
-15.7560987786
 20
-16.8428481998
 10
-15.7196546287
 20
-16.9029121291
 10
-15.6799116952
 20
-16.9608851781
 10
-15.6368650177
 20
-17.0165102752
 10
-15.5989809613
 20
-17.0603284383
 10
-15.5589389215
 20
-17.1022024395
 10
-15.5168207201
 20
-17.1419515703
 10
-15.4727081792
 20
-17.179395122
 10
-15.4266831205
 20
-17.2143523859
 10
-15.3788273659
 20
-17.2466426536
 10
-15.3254060031
 20
-17.2782637756
 10
-15.2702354901
 20
-17.3067149624
 10
-15.2135919737
 20
-17.3321240853
 10
-15.1505880637
 20
-17.3564524471
 10
-15.0863914736
 20
-17.3774225719
 10
-15.0212264545
 20
-17.395126269
 10
-14.9466841202
 20
-17.4113685973
 10
-14.8714297863
 20
-17.4239972233
 10
-14.7957018913
 20
-17.4334529563
 10
-14.708215516
 20
-17.4409298661
 10
-14.6205185488
 20
-17.4451454614
 10
-14.5327119147
 20
-17.4464581917
 10
-14.4445304289
 20
-17.4450785367
  0
LINE
  5
28D
100
AcDbEntity
  8
CURVE
100
AcDbLine
 62
250
  6
CONTINUOUS
 10
-6.9610806776
 20
-12.8438103421
 11
-8.5223986776
 21
-12.8438103421
  0
LINE
  5
28E
100
AcDbEntity
  8
CURVE
100
AcDbLine
 62
250
  6
CONTINUOUS
 10
-9.9162836776
 20
-12.8438103421
 11
-11.4776016776
 21
-12.8438103421
  0
LINE
  5
28F
100
AcDbEntity
  8
CURVE
100
AcDbLine
 62
250
  6
CONTINUOUS
 10
-12.0625786776
 20
-12.3759663421
 11
-9.9162836776
 21
-12.3759663421
  0
LINE
  5
290
100
AcDbEntity
  8
CURVE
100
AcDbLine
 62
250
  6
CONTINUOUS
 10
-9.1073756776
 20
-12.3759663421
 11
-6.9610806776
 21
-12.3759663421
  0
LINE
  5
291
100
AcDbEntity
  8
ASSI
100
AcDbLine
 62
250
  6
CONTINUOUS
 10
-22.5066924027
 20
-0.601630649
 11
-22.5934486776
 21
-0.5438004745
  0
LINE
  5
292
100
AcDbEntity
  8
ASSI
100
AcDbLine
 62
250
  6
CONTINUOUS
 10
-22.0068637402
 20
-0.1017068014
 11
-22.0935057851
 21
-0.0439527707
  0
LWPOLYLINE
  5
293
100
AcDbEntity
  8
CURVE
100
AcDbPolyline
 62
250
  6
CONTINUOUS
 90
10
 70
0
 10
-14.498949979
 20
13.8535485896
 10
-14.512028985
 20
13.9292680276
 10
-14.5232522015
 20
14.0053058578
 10
-14.5325949977
 20
14.0816016642
 10
-14.5400327426
 20
14.1580950305
 10
-14.5458055147
 20
14.238241164
 10
-14.5497944326
 20
14.3184971297
 10
-14.5523260691
 20
14.3988227707
 10
-14.5537269972
 20
14.4791779298
 10
-14.5543749276
 20
14.589975445
  0
LINE
  5
294
100
AcDbEntity
  8
CURVE
100
AcDbLine
 62
250
  6
CONTINUOUS
 10
-11.1961366776
 20
12.6498326579
 11
-11.1961366776
 21
17.6238606579
  0
LINE
  5
295
100
AcDbEntity
  8
CURVE
100
AcDbLine
 62
250
  6
CONTINUOUS
 10
-10.6528456776
 20
17.1215666579
 11
-10.6528456776
 21
12.6498326579
  0
LINE
  5
296
100
AcDbEntity
  8
CURVE
100
AcDbLine
 62
250
  6
CONTINUOUS
 10
-10.0055116776
 20
-14.5498223421
 11
-10.0055116776
 21
-15.0180103421
  0
LINE
  5
297
100
AcDbEntity
  8
CURVE
100
AcDbLine
 62
250
  6
CONTINUOUS
 10
-9.9162836776
 20
-12.3759663421
 11
-9.9162836776
 21
-12.8438103421
  0
LWPOLYLINE
  5
298
100
AcDbEntity
  8
0
100
AcDbPolyline
 62
7
  6
CONTINUOUS
 90
3
 70
0
 43
0.3500000019
 10
0.7922680664
 20
35.5771340332
 10
0.7208378906
 20
35.362848877
 10
0.5779775391
 20
35.0771335449
  0
LINE
  5
299
100
AcDbEntity
  8
CURVE
100
AcDbLine
 62
250
  6
CONTINUOUS
 10
-9.1073756776
 20
-17.3503403421
 11
-9.1073756776
 21
-12.3759663421
  0
LINE
  5
29A
100
AcDbEntity
  8
CURVE
100
AcDbLine
 62
250
  6
CONTINUOUS
 10
-8.6229946776
 20
13.1521266579
 11
-8.6229946776
 21
17.6238606579
  0
LINE
  5
29B
100
AcDbEntity
  8
CURVE
100
AcDbLine
 62
250
  6
CONTINUOUS
 10
-8.5223986776
 20
-12.8438103421
 11
-8.5223986776
 21
-14.5498223421
  0
LINE
  5
29C
100
AcDbEntity
  8
CURVE
100
AcDbLine
 62
250
  6
CONTINUOUS
 10
-8.5223986776
 20
-15.0180103421
 11
-8.5223986776
 21
-17.3503403421
  0
LINE
  5
29D
100
AcDbEntity
  8
CURVE
100
AcDbLine
 62
250
  6
CONTINUOUS
 10
-8.0793586776
 20
17.6238606579
 11
-8.0793586776
 21
12.6498326579
  0
LINE
  5
29E
100
AcDbEntity
  8
CURVE
100
AcDbLine
 62
250
  6
CONTINUOUS
 10
-7.0503086776
 20
-14.5498223421
 11
-7.0503086776
 21
-15.0180103421
  0
LINE
  5
29F
100
AcDbEntity
  8
CURVE
100
AcDbLine
 62
250
  6
CONTINUOUS
 10
-6.9610806776
 20
-12.3759663421
 11
-6.9610806776
 21
-12.8438103421
  0
LWPOLYLINE
  5
2A0
100
AcDbEntity
  8
0
100
AcDbPolyline
 62
7
  6
CONTINUOUS
 90
2
 70
0
 43
0.3500000019
 10
-3.6363061523
 20
35.2914213867
 10
-3.6363061523
 20
36.791420166
  0
LWPOLYLINE
  5
2A1
100
AcDbEntity
  8
CURVE
100
AcDbPolyline
 62
250
  6
CONTINUOUS
 90
56
 70
0
 10
-15.1176891281
 20
-12.9916052197
 10
-15.1037382662
 20
-12.9746726806
 10
-15.0890834899
 20
-12.9582712528
 10
-15.0737611074
 20
-12.9424163694
 10
-15.0578074271
 20
-12.9271234632
 10
-15.0412587571
 20
-12.9124079671
 10
-15.0241514057
 20
-12.8982853142
 10
-15.0065216813
 20
-12.8847709373
 10
-14.9884058919
 20
-12.8718802693
 10
-14.9698403459
 20
-12.8596287433
 10
-14.9508613516
 20
-12.8480317922
 10
-14.9315052172
 20
-12.8371048488
 10
-14.9118082509
 20
-12.8268633461
 10
-14.891806761
 20
-12.8173227171
 10
-14.8715370557
 20
-12.8084983947
 10
-14.8488867355
 20
-12.7995962719
 10
-14.825979813
 20
-12.791545581
 10
-14.8028423598
 20
-12.7843058284
 10
-14.779500448
 20
-12.7778365203
 10
-14.7559801491
 20
-12.7720971632
 10
-14.7323075351
 20
-12.7670472633
 10
-14.7085086778
 20
-12.762646327
 10
-14.6816599882
 20
-12.7584311252
 10
-14.6547031152
 20
-12.7549492843
 10
-14.627656217
 20
-12.7521667317
 10
-14.6005374515
 20
-12.7500493946
 10
-14.5733649769
 20
-12.7485632004
 10
-14.5461569513
 20
-12.7476740764
 10
-14.5189315328
 20
-12.7473479498
 10
-14.4878298111
 20
-12.7476350324
 10
-14.4567527835
 20
-12.7486477168
 10
-14.4257241456
 20
-12.7504212802
 10
-14.3947675928
 20
-12.7529909995
 10
-14.3639068207
 20
-12.7563921518
 10
-14.3331655247
 20
-12.7606600141
 10
-14.3101592274
 20
-12.7644640957
 10
-14.2872522301
 20
-12.768824532
 10
-14.2644629864
 20
-12.7737883432
 10
-14.24180995
 20
-12.7794025495
 10
-14.2193115745
 20
-12.7857141707
 10
-14.1969863137
 20
-12.7927702271
 10
-14.1748526212
 20
-12.8006177388
 10
-14.155813637
 20
-12.8081019844
 10
-14.1369727685
 20
-12.8162129984
 10
-14.1183698758
 20
-12.824945743
 10
-14.1000448193
 20
-12.8342951804
 10
-14.0820374594
 20
-12.844256273
 10
-14.0643876562
 20
-12.8548239829
 10
-14.0471352701
 20
-12.8659932725
 10
-14.0303201614
 20
-12.877759104
 10
-14.0139821903
 20
-12.8901164397
 10
-13.9981612172
 20
-12.9030602419
 10
-13.9828971024
 20
-12.9165854728
 10
-13.9682297061
 20
-12.9306870946
 10
-13.9541988887
 20
-12.9453600697
 10
-13.9408445104
 20
-12.9605993604
  0
LINE
  5
2A2
100
AcDbEntity
  8
ASSI
100
AcDbLine
 62
250
  6
CONTINUOUS
 10
21.5199663849
 20
26.450090383
 11
21.5788522265
 21
26.5089762245
  0
LINE
  5
2A3
100
AcDbEntity
  8
ASSI
100
AcDbLine
 62
250
  6
CONTINUOUS
 10
22.0197950474
 20
25.9502617205
 11
22.0821634994
 21
26.0126301724
  0
LINE
  5
2A4
100
AcDbEntity
  8
ASSI
100
AcDbLine
 62
250
  6
CONTINUOUS
 10
21.5788522265
 20
-26.2352829088
 11
21.5199663849
 21
-26.1763970672
  0
LINE
  5
2A5
100
AcDbEntity
  8
ASSI
100
AcDbLine
 62
250
  6
CONTINUOUS
 10
22.0821634994
 20
-25.7389368566
 11
22.0197950474
 21
-25.6765684047
  0
LWPOLYLINE
  5
2A6
100
AcDbEntity
  8
CURVE
100
AcDbPolyline
 62
250
  6
CONTINUOUS
 90
31
 70
0
 10
-14.250903104
 20
13.2410106124
 10
-14.2636752437
 20
13.2572086208
 10
-14.2760593914
 20
13.2737110104
 10
-14.2880617466
 20
13.2905051008
 10
-14.2996885088
 20
13.3075782116
 10
-14.3109458775
 20
13.3249176626
 10
-14.3218400521
 20
13.3425107732
 10
-14.3323772323
 20
13.3603448632
 10
-14.3425636174
 20
13.3784072522
 10
-14.352405407
 20
13.3966852599
 10
-14.3619088005
 20
13.4151662059
 10
-14.3710799974
 20
13.4338374098
 10
-14.3799251973
 20
13.4526861912
 10
-14.3884505995
 20
13.4716998699
 10
-14.3966624037
 20
13.4908657655
 10
-14.4045668092
 20
13.5101711975
 10
-14.4121700156
 20
13.5296034857
 10
-14.4194782224
 20
13.5491499497
 10
-14.426497629
 20
13.5687979092
 10
-14.433234435
 20
13.5885346836
 10
-14.4396948398
 20
13.6083475928
 10
-14.4458850429
 20
13.6282239564
 10
-14.4518112438
 20
13.648151094
 10
-14.4574796421
 20
13.6681163251
 10
-14.4645572923
 20
13.6944315163
 10
-14.4712184703
 20
13.7207961035
 10
-14.4774823962
 20
13.7472154756
 10
-14.48336829
 20
13.7736950214
 10
-14.4888953717
 20
13.8002401298
 10
-14.4940828613
 20
13.8268561896
 10
-14.498949979
 20
13.8535485896
  0
LINE
  5
2A7
100
AcDbEntity
  8
CURVE
100
AcDbLine
 62
250
  6
CONTINUOUS
 10
-8.9854186776
 20
12.6498326579
 11
-10.6528456776
 21
17.1215666579
  0
LINE
  5
2A8
100
AcDbEntity
  8
CURVE
100
AcDbLine
 62
250
  6
CONTINUOUS
 10
-10.2904216776
 20
17.6238606579
 11
-8.6229946776
 21
13.1521266579
  0
LWPOLYLINE
  5
2A9
100
AcDbEntity
  8
0
100
AcDbPolyline
 62
7
  6
CONTINUOUS
 90
2
 70
0
 43
0.3500000019
 10
-1.2791640625
 20
35.2914213867
 10
-1.2791640625
 20
36.791420166
  0
LWPOLYLINE
  5
2AA
100
AcDbEntity
  8
CURVE
100
AcDbPolyline
 62
250
  6
CONTINUOUS
 90
57
 70
0
 10
-13.9511797968
 20
-16.7584726233
 10
-13.9641410378
 20
-16.7740015666
 10
-13.9777870305
 20
-16.78899299
 10
-13.9920792447
 20
-16.8034375949
 10
-14.0069791504
 20
-16.8173260827
 10
-14.0224482173
 20
-16.8306491547
 10
-14.0384479153
 20
-16.8433975124
 10
-14.0549397143
 20
-16.8555618572
 10
-14.0718850841
 20
-16.8671328903
 10
-14.0892454946
 20
-16.8781013133
 10
-14.1069824156
 20
-16.8884578276
 10
-14.125057317
 20
-16.8981931344
 10
-14.1434316686
 20
-16.9072979352
 10
-14.1620669403
 20
-16.9157629314
 10
-14.180924602
 20
-16.9235788244
 10
-14.202593099
 20
-16.931674854
 10
-14.224477567
 20
-16.9389639712
 10
-14.2465562826
 20
-16.9454904475
 10
-14.2688075225
 20
-16.9512985546
 10
-14.2912095631
 20
-16.9564325638
 10
-14.313740681
 20
-16.9609367467
 10
-14.3363791528
 20
-16.9648553747
 10
-14.3622520483
 20
-16.9686541481
 10
-14.3882200302
 20
-16.9717854948
 10
-14.4142672499
 20
-16.9742832261
 10
-14.4403778587
 20
-16.9761811535
 10
-14.4665360079
 20
-16.9775130882
 10
-14.4927258488
 20
-16.9783128415
 10
-14.5189315328
 20
-16.9786142248
 10
-14.5515131939
 20
-16.9783280152
 10
-14.5840698681
 20
-16.9772873844
 10
-14.6165765771
 20
-16.9754560687
 10
-14.6490083425
 20
-16.9727978043
 10
-14.6813401862
 20
-16.9692763276
 10
-14.7135471299
 20
-16.9648553747
 10
-14.7374756224
 20
-16.9609436879
 10
-14.7613021354
 20
-16.9564584171
 10
-14.785008097
 20
-16.9513467202
 10
-14.8085749353
 20
-16.9455557547
 10
-14.8319840785
 20
-16.9390326785
 10
-14.8552169546
 20
-16.9317246492
 10
-14.8782549919
 20
-16.9235788244
 10
-14.8965128507
 20
-16.9164347778
 10
-14.9145984347
 20
-16.9087249086
 10
-14.9324758211
 20
-16.9004524386
 10
-14.9501090871
 20
-16.8916205894
 10
-14.9674623098
 20
-16.8822325827
 10
-14.9844995663
 20
-16.8722916402
 10
-15.0011849338
 20
-16.8618009836
 10
-15.0174824894
 20
-16.8507638345
 10
-15.0333563104
 20
-16.8391834146
 10
-15.0487704738
 20
-16.8270629457
 10
-15.0636890568
 20
-16.8144056493
 10
-15.0780761366
 20
-16.8012147472
 10
-15.0918957903
 20
-16.7874934611
 10
-15.1051120951
 20
-16.7732450125
 10
-15.1176891281
 20
-16.7584726233
  0
LINE
  5
2AB
100
AcDbEntity
  8
CURVE
100
AcDbLine
 62
7
  6
CONTINUOUS
 10
-16.0082926105
 20
-14.0324411126
 11
-15.2926651813
 21
-13.3168136834
  0
LINE
  5
2AC
100
AcDbEntity
  8
CURVE
100
AcDbLine
 62
7
  6
CONTINUOUS
 10
-14.7461818379
 20
-12.77033034
 11
-14.2664784828
 21
-12.2906269849
  0
LINE
  5
2AD
100
AcDbEntity
  8
CURVE
100
AcDbLine
 62
7
  6
CONTINUOUS
 10
-16.0251002074
 20
-15.0448550574
 11
-15.4185317434
 21
-14.4382865934
  0
LINE
  5
2AE
100
AcDbEntity
  8
CURVE
100
AcDbLine
 62
7
  6
CONTINUOUS
 10
-13.9408445104
 20
-12.9605993604
 11
-13.5503336083
 21
-12.5700884583
  0
LINE
  5
2AF
100
AcDbEntity
  8
CURVE
100
AcDbLine
 62
7
  6
CONTINUOUS
 10
-15.9913619457
 20
-16.0067231436
 11
-15.4201685117
 21
-15.4355297097
  0
LINE
  5
2B0
100
AcDbEntity
  8
CURVE
100
AcDbLine
 62
7
  6
CONTINUOUS
 10
-13.6684539135
 20
-13.6838151114
 11
-13.1629036691
 21
-13.178264867
  0
LWPOLYLINE
  5
2B1
100
AcDbEntity
  8
ASSI
100
AcDbPolyline
 62
250
  6
CONTINUOUS
 90
16
 70
0
 10
21.5199663849
 20
0.3754001172
 10
21.5721975726
 20
0.3781610274
 10
21.623856837
 20
0.3863657937
 10
21.6743785172
 20
0.3999245753
 10
21.7232094088
 20
0.4186889055
 10
21.7698148212
 20
0.4424533179
 10
21.8136844325
 20
0.4709575959
 10
21.8543378773
 20
0.5038896222
 10
21.8913300067
 20
0.5408887963
 10
21.9242557627
 20
0.5815499829
 10
21.9527546136
 20
0.6254279485
 10
21.9765145013
 20
0.6720422362
 10
21.9952752588
 20
0.720882427
 10
22.0088314587
 20
0.7714137283
 10
22.0170346629
 20
0.8230828304
 10
22.0197950474
 20
0.8753239648
  0
LINE
  5
2B2
100
AcDbEntity
  8
ASSI
100
AcDbLine
 62
250
  6
CONTINUOUS
 10
-22.5066924027
 20
-0.601630649
 11
22.0197950474
 21
-0.601630649
  0
LINE
  5
2B3
100
AcDbEntity
  8
ASSI
100
AcDbLine
 62
250
  6
CONTINUOUS
 10
21.5199663849
 20
-0.1017068014
 11
-22.0068637402
 21
-0.1017068014
  0
LINE
  5
2B4
100
AcDbEntity
  8
ASSI
100
AcDbLine
 62
7
  6
CONTINUOUS
 10
-21.5742481062
 20
-0.0631533421
 11
21.0873507509
 21
-0.0631533421
  0
LINE
  5
2B5
100
AcDbEntity
  8
ASSI
100
AcDbLine
 62
7
  6
CONTINUOUS
 10
-22.0935057851
 20
-0.0439527707
 11
-22.0847973092
 21
-0.0439527707
  0
LINE
  5
2B6
100
AcDbEntity
  8
ASSI
100
AcDbLine
 62
7
  6
CONTINUOUS
 10
21.5978999539
 20
-0.0439527707
 11
21.6066084298
 21
-0.0439527707
  0
LINE
  5
2B7
100
AcDbEntity
  8
ASSI
100
AcDbLine
 62
7
  6
CONTINUOUS
 10
21.6066084298
 20
0.3176460865
 11
21.5978999539
 21
0.3176460865
  0
LINE
  5
2B8
100
AcDbEntity
  8
ASSI
100
AcDbLine
 62
7
  6
CONTINUOUS
 10
-22.0847973092
 20
0.3176460865
 11
-22.0935057851
 21
0.3176460865
  0
LINE
  5
2B9
100
AcDbEntity
  8
ASSI
100
AcDbLine
 62
7
  6
CONTINUOUS
 10
21.0873507509
 20
0.3368466579
 11
-21.5742481062
 21
0.3368466579
  0
LINE
  5
2BA
100
AcDbEntity
  8
ASSI
100
AcDbLine
 62
250
  6
CONTINUOUS
 10
-22.0068637402
 20
0.3754001172
 11
21.5199663849
 21
0.3754001172
  0
LWPOLYLINE
  5
2BB
100
AcDbEntity
  8
0
100
AcDbPolyline
 62
7
  6
CONTINUOUS
 90
4
 70
0
 43
0.3500000019
 10
1.7922636719
 20
37.6485634766
 10
1.7922636719
 20
38.2914189453
 10
3.2922651367
 20
38.2914189453
 10
2.4351245117
 20
35.2914213867
  0
LINE
  5
2BC
100
AcDbEntity
  8
CURVE
100
AcDbLine
 62
7
  6
CONTINUOUS
 10
-15.780625096
 20
-16.7915926418
 11
-15.3230931668
 21
-16.3340607126
  0
LINE
  5
2BD
100
AcDbEntity
  8
CURVE
100
AcDbLine
 62
7
  6
CONTINUOUS
 10
-13.6255760492
 20
-14.636543595
 11
-13.0276309883
 21
-14.0385985342
  0
LINE
  5
2BE
100
AcDbEntity
  8
CURVE
100
AcDbLine
 62
7
  6
CONTINUOUS
 10
-12.0625786776
 20
-13.0735462235
 11
-11.3649987963
 21
-12.3759663421
  0
LINE
  5
2BF
100
AcDbEntity
  8
CURVE
100
AcDbLine
 62
7
  6
CONTINUOUS
 10
-15.2873782468
 20
-17.2939521405
 11
-14.9054189151
 21
-16.9119928089
  0
LINE
  5
2C0
100
AcDbEntity
  8
CURVE
100
AcDbLine
 62
7
  6
CONTINUOUS
 10
-13.6316415943
 20
-15.6382154881
 11
-13.0136304528
 21
-15.0202043466
  0
LINE
  5
2C1
100
AcDbEntity
  8
CURVE
100
AcDbLine
 62
7
  6
CONTINUOUS
 10
-12.0625786776
 20
-14.0691525714
 11
-11.4776016776
 21
-13.4841755714
  0
LINE
  5
2C2
100
AcDbEntity
  8
CURVE
100
AcDbLine
 62
7
  6
CONTINUOUS
 10
-10.8372364483
 20
-12.8438103421
 11
-10.3693924483
 21
-12.3759663421
  0
LINE
  5
2C3
100
AcDbEntity
  8
CURVE
100
AcDbLine
 62
7
  6
CONTINUOUS
 10
-14.4394410046
 20
-17.4416212463
 11
-13.0632008637
 21
-16.0653811054
  0
LINE
  5
2C4
100
AcDbEntity
  8
CURVE
100
AcDbLine
 62
7
  6
CONTINUOUS
 10
-12.0625786776
 20
-15.0647589193
 11
-11.4776016776
 21
-14.4797819193
  0
LINE
  5
2C5
100
AcDbEntity
  8
ASSI
100
AcDbLine
 62
250
  6
CONTINUOUS
 10
-22.5066924027
 20
-25.6765684047
 11
-22.5690608546
 21
-25.7389368566
  0
LWPOLYLINE
  5
2C6
100
AcDbEntity
  8
ASSI
100
AcDbPolyline
 62
250
  6
CONTINUOUS
 90
16
 70
0
 10
-22.0068637402
 20
-0.1017068014
 10
-22.0590949279
 20
-0.1044677116
 10
-22.1107541922
 20
-0.1126724779
 10
-22.1612758725
 20
-0.1262312595
 10
-22.2101067641
 20
-0.1449955897
 10
-22.2567121765
 20
-0.1687600021
 10
-22.3005817878
 20
-0.1972642802
 10
-22.3412352325
 20
-0.2301963064
 10
-22.3782273619
 20
-0.2671954805
 10
-22.411153118
 20
-0.3078566671
 10
-22.4396519688
 20
-0.3517346327
 10
-22.4634118565
 20
-0.3983489204
 10
-22.482172614
 20
-0.4471891112
 10
-22.495728814
 20
-0.4977204125
 10
-22.5039320181
 20
-0.5493895146
 10
-22.5066924027
 20
-0.601630649
  0
LINE
  5
2C7
100
AcDbEntity
  8
ASSI
100
AcDbLine
 62
250
  6
CONTINUOUS
 10
-22.5066924027
 20
0.8753239648
 11
22.0197950474
 21
0.8753239648
  0
LWPOLYLINE
  5
2C8
100
AcDbEntity
  8
0
100
AcDbPolyline
 62
7
  6
CONTINUOUS
 90
4
 70
0
 43
0.3500000019
 10
27.0636357422
 20
2.0654180145
 10
26.4207802734
 20
2.0654180145
 10
26.4207802734
 20
3.5654179688
 10
29.4207832031
 20
2.7082751617
  0
LINE
  5
2C9
100
AcDbEntity
  8
ASSI
100
AcDbLine
 62
250
  6
CONTINUOUS
 10
-22.5690608546
 20
26.0126301724
 11
-22.5066924027
 21
25.9502617205
  0
LWPOLYLINE
  5
2CA
100
AcDbEntity
  8
CURVE
100
AcDbPolyline
 62
250
  6
CONTINUOUS
 90
30
 70
0
 10
-13.0747475054
 20
17.0388838753
 10
-13.052368182
 20
17.0113615324
 10
-13.0309890218
 20
16.9829931237
 10
-13.0106278123
 20
16.953836304
 10
-12.9913023413
 20
16.923948728
 10
-12.9730303965
 20
16.8933880505
 10
-12.9558297657
 20
16.8622119261
 10
-12.9397182366
 20
16.8304780096
 10
-12.924713597
 20
16.7982439557
 10
-12.9096186393
 20
16.7625975635
 10
-12.8957676027
 20
16.7264786109
 10
-12.8830677566
 20
16.6899404174
 10
-12.8714263707
 20
16.6530363025
 10
-12.8607507146
 20
16.6158195856
 10
-12.850948058
 20
16.5783435862
 10
-12.8419256704
 20
16.5406616238
 10
-12.8335908214
 20
16.5028270178
 10
-12.8218803878
 20
16.4441006997
 10
-12.8115095727
 20
16.3851602987
 10
-12.8023949448
 20
16.3260293598
 10
-12.7944530729
 20
16.2667314282
 10
-12.7876005257
 20
16.2072900488
 10
-12.781753872
 20
16.1477287667
 10
-12.7768296804
 20
16.0880711272
 10
-12.7727445199
 20
16.0283406751
 10
-12.7694149591
 20
15.9685609556
 10
-12.7667575668
 20
15.9087555138
 10
-12.7646889117
 20
15.8489478947
 10
-12.7625463395
 20
15.7615633112
 10
-12.7611930453
 20
15.6742089391
  0
LINE
  5
2CB
100
AcDbEntity
  8
CURVE
100
AcDbLine
 62
7
  6
CONTINUOUS
 10
-12.0625786776
 20
-16.0603652672
 11
-11.4776016776
 21
-15.4753882672
  0
LINE
  5
2CC
100
AcDbEntity
  8
CURVE
100
AcDbLine
 62
7
  6
CONTINUOUS
 10
-11.0202237525
 20
-15.0180103421
 11
-10.5520357525
 21
-14.5498223421
  0
LINE
  5
2CD
100
AcDbEntity
  8
CURVE
100
AcDbLine
 62
7
  6
CONTINUOUS
 10
-9.1073756776
 20
-13.1051622672
 11
-8.3781797525
 21
-12.3759663421
  0
LINE
  5
2CE
100
AcDbEntity
  8
ASSI
100
AcDbLine
 62
250
  6
CONTINUOUS
 10
-22.0068637402
 20
-26.1763970672
 11
-22.0657495818
 21
-26.2352829088
  0
LINE
  5
2CF
100
AcDbEntity
  8
CURVE
100
AcDbLine
 62
7
  6
CONTINUOUS
 10
-12.0625786776
 20
-17.0559716151
 11
-11.4776016776
 21
-16.4709946151
  0
LINE
  5
2D0
100
AcDbEntity
  8
CURVE
100
AcDbLine
 62
7
  6
CONTINUOUS
 10
-10.0246174046
 20
-15.0180103421
 11
-10.0055116776
 21
-14.9989046151
  0
LINE
  5
2D1
100
AcDbEntity
  8
CURVE
100
AcDbLine
 62
7
  6
CONTINUOUS
 10
-9.1073756776
 20
-14.1007686151
 11
-8.5223986776
 21
-13.5157916151
  0
LINE
  5
2D2
100
AcDbEntity
  8
CURVE
100
AcDbLine
 62
7
  6
CONTINUOUS
 10
-7.8504174046
 20
-12.8438103421
 11
-7.3825734046
 21
-12.3759663421
  0
LINE
  5
2D3
100
AcDbEntity
  8
CURVE
100
AcDbLine
 62
7
  6
CONTINUOUS
 10
-9.1073756776
 20
-15.096374963
 11
-8.5223986776
 21
-14.511397963
  0
LINE
  5
2D4
100
AcDbEntity
  8
ASSI
100
AcDbLine
 62
250
  6
CONTINUOUS
 10
-22.0657495818
 20
26.5089762245
 11
-22.0068637402
 21
26.450090383
  0
LINE
  5
2D5
100
AcDbEntity
  8
CURVE
100
AcDbLine
 62
7
  6
CONTINUOUS
 10
-9.1073756776
 20
-16.0919813109
 11
-8.5223986776
 21
-15.5070043109
  0
LINE
  5
2D6
100
AcDbEntity
  8
CURVE
100
AcDbLine
 62
7
  6
CONTINUOUS
 10
-8.0334047088
 20
-15.0180103421
 11
-7.5652167088
 21
-14.5498223421
  0
LINE
  5
2D7
100
AcDbEntity
  8
CURVE
100
AcDbLine
 62
7
  6
CONTINUOUS
 10
-9.1073756776
 20
-17.0875876589
 11
-8.5223986776
 21
-16.5026106589
  0
LWPOLYLINE
  5
2D8
100
AcDbEntity
  8
0
100
AcDbPolyline
 62
7
  6
CONTINUOUS
 90
3
 70
0
 43
0.3500000019
 10
29.1350625
 20
1.065418045
 10
29.3493476563
 20
0.9939895477
 10
29.6350683594
 20
0.8511323853
  0
LWPOLYLINE
  5
2D9
100
AcDbEntity
  8
CURVE
100
AcDbPolyline
 62
250
  6
CONTINUOUS
 90
29
 70
0
 10
-12.9576142589
 20
17.6031905158
 10
-12.9783118669
 20
17.6123785629
 10
-12.9992172124
 20
17.6210743052
 10
-13.0203190815
 20
17.6292916164
 10
-13.0416062603
 20
17.6370443702
 10
-13.0630675348
 20
17.6443464403
 10
-13.0846916911
 20
17.6512117003
 10
-13.1064675153
 20
17.6576540241
 10
-13.1283837935
 20
17.6636872852
 10
-13.1504293116
 20
17.6693253573
 10
-13.1725928559
 20
17.6745821143
 10
-13.1948632123
 20
17.6794714297
 10
-13.2172291669
 20
17.6840071773
 10
-13.2396795059
 20
17.6882032308
 10
-13.2622030152
 20
17.6920734639
 10
-13.2847884809
 20
17.6956317502
 10
-13.3074246891
 20
17.6988919635
 10
-13.330100426
 20
17.7018679774
 10
-13.3528044774
 20
17.7045736657
 10
-13.3755256296
 20
17.7070229021
 10
-13.3982526685
 20
17.7092295602
 10
-13.4209743804
 20
17.7112075138
 10
-13.4436795511
 20
17.7129706366
 10
-13.4784814865
 20
17.7152850584
 10
-13.5132361815
 20
17.7171422771
 10
-13.5479617837
 20
17.7185585249
 10
-13.5826764405
 20
17.7195500337
 10
-13.6173982997
 20
17.7201330355
 10
-13.6521455087
 20
17.7203237623
  0
LINE
  5
2DA
100
AcDbEntity
  8
ASSI
100
AcDbLine
 62
250
  6
CONTINUOUS
 10
21.6066084298
 20
-0.0439527707
 11
21.5199663849
 21
-0.1017068014
  0
LINE
  5
2DB
100
AcDbEntity
  8
ASSI
100
AcDbLine
 62
250
  6
CONTINUOUS
 10
22.1065513224
 20
-0.5438004745
 11
22.0197950474
 21
-0.601630649
  0
LWPOLYLINE
  5
2DC
100
AcDbEntity
  8
0
100
AcDbPolyline
 62
7
  6
CONTINUOUS
 90
10
 70
0
 43
0.3500000019
 10
28.9207773438
 20
0.9939895477
 10
29.0636376953
 20
1.065418045
 10
29.1350625
 20
1.065418045
 10
29.2779228516
 20
0.9225609665
 10
29.2779228516
 20
0.8511323853
 10
29.2064980469
 20
0.779703804
 10
29.1350625
 20
0.779703804
 10
28.9922021484
 20
0.8511323853
 10
28.9207773438
 20
0.9225609665
 10
28.9207773438
 20
0.9939895477
  0
LWPOLYLINE
  5
2DD
100
AcDbEntity
  8
CURVE
100
AcDbPolyline
 62
250
  6
CONTINUOUS
 90
53
 70
0
 10
-13.5780490319
 20
12.5547729896
 10
-13.5192950472
 20
12.557370939
 10
-13.4606374934
 20
12.5614749528
 10
-13.4021177038
 20
12.5672360628
 10
-13.3447646134
 20
12.5746564811
 10
-13.2876757672
 20
12.5839333749
 10
-13.2309422818
 20
12.5951753673
 10
-13.1746552744
 20
12.6084910813
 10
-13.1244116737
 20
12.6223507323
 10
-13.0747125596
 20
12.6380498703
 10
-13.0256661078
 20
12.655656795
 10
-12.9773804942
 20
12.6752398063
 10
-12.933314821
 20
12.6952548256
 10
-12.8901091172
 20
12.7170728909
 10
-12.8478737475
 20
12.7407335759
 10
-12.8067190766
 20
12.7662764545
 10
-12.7693971767
 20
12.7918146285
 10
-12.733162568
 20
12.8189471656
 10
-12.6980662986
 20
12.8475964627
 10
-12.6641594166
 20
12.8776849165
 10
-12.63149297
 20
12.9091349237
 10
-12.6001180071
 20
12.9418688812
 10
-12.5700855758
 20
12.9758091857
 10
-12.5414467242
 20
13.0108782339
 10
-12.5141336359
 20
13.0471371337
 10
-12.488218531
 20
13.0843728922
 10
-12.4636437509
 20
13.1225032137
 10
-12.4403516367
 20
13.161445802
 10
-12.4182845297
 20
13.2011183612
 10
-12.397384771
 20
13.2414385953
 10
-12.3775947019
 20
13.2823242082
 10
-12.3588566635
 20
13.323692904
 10
-12.3366910894
 20
13.3763503977
 10
-12.3160858584
 20
13.4295963814
 10
-12.2970254581
 20
13.4833841883
 10
-12.2794943762
 20
13.5376671515
 10
-12.2634771001
 20
13.5923986042
 10
-12.2489581175
 20
13.6475318796
 10
-12.2341616735
 20
13.7109499551
 10
-12.221137409
 20
13.7747658509
 10
-12.2097222819
 20
13.8389138629
 10
-12.1997532501
 20
13.903328287
 10
-12.1910672713
 20
13.967943419
 10
-12.1835013033
 20
14.0326935549
 10
-12.1741185139
 20
14.1279954746
 10
-12.1665646871
 20
14.2234212721
 10
-12.1606016691
 20
14.3189451332
 10
-12.155991306
 20
14.4145412436
 10
-12.152495444
 20
14.5101837891
 10
-12.1487144244
 20
14.6625952654
 10
-12.1466464132
 20
14.8150412744
 10
-12.1457803696
 20
14.967504016
 10
-12.1458270973
 20
15.2671457679
  0
LINE
  5
2DE
100
AcDbEntity
  8
CURVE
100
AcDbLine
 62
250
  6
CONTINUOUS
 10
-8.0793586776
 20
12.6498326579
 11
-8.9854186776
 21
12.6498326579
  0
LINE
  5
2DF
100
AcDbEntity
  8
CURVE
100
AcDbLine
 62
250
  6
CONTINUOUS
 10
-10.6528456776
 20
12.6498326579
 11
-11.1961366776
 21
12.6498326579
  0
LINE
  5
2E0
100
AcDbEntity
  8
ASSI
100
AcDbLine
 62
250
  6
CONTINUOUS
 10
21.5199663849
 20
0.3754001172
 11
21.6066084298
 21
0.3176460865
  0
LINE
  5
2E1
100
AcDbEntity
  8
ASSI
100
AcDbLine
 62
250
  6
CONTINUOUS
 10
22.0197950474
 20
0.8753239648
 11
22.1065513224
 21
0.8174937903
  0
LINE
  5
2E2
100
AcDbEntity
  8
ASSI
100
AcDbLine
 62
7
  6
CONTINUOUS
 10
21.0979761063
 20
-0.0525279867
 11
21.0873507509
 21
-0.0631533421
  0
LINE
  5
2E3
100
AcDbEntity
  8
ASSI
100
AcDbLine
 62
7
  6
CONTINUOUS
 10
21.0979761063
 20
0.3262213025
 11
21.0873507509
 21
0.3368466579
  0
LWPOLYLINE
  5
2E4
100
AcDbEntity
  8
CURVE
100
AcDbPolyline
 62
250
  6
CONTINUOUS
 90
85
 70
0
 10
-13.6521455087
 20
17.7203237623
 10
-13.7212270254
 20
17.7192875541
 10
-13.7905027802
 20
17.7160882514
 10
-13.8597930972
 20
17.7105898365
 10
-13.9289183009
 20
17.7026562921
 10
-13.9976987153
 20
17.6921516006
 10
-14.0659546649
 20
17.6789397445
 10
-14.1335064739
 20
17.6628847064
 10
-14.2001744666
 20
17.6438504687
 10
-14.2657789673
 20
17.621701014
 10
-14.3301403002
 20
17.5963003248
 10
-14.3840992945
 20
17.5718761179
 10
-14.4368112495
 20
17.5449227429
 10
-14.4880718649
 20
17.515393399
 10
-14.5376768403
 20
17.4832412853
 10
-14.5854218756
 20
17.4484196011
 10
-14.6283447242
 20
17.4133307114
 10
-14.6693959622
 20
17.3760225368
 10
-14.7085194673
 20
17.3366648265
 10
-14.7456591172
 20
17.2954273297
 10
-14.7807587897
 20
17.2524797954
 10
-14.8127410796
 20
17.2094645528
 10
-14.8428462719
 20
17.1651471428
 10
-14.8711587369
 20
17.119666754
 10
-14.8977628451
 20
17.0731625754
 10
-14.930440386
 20
17.0102700692
 10
-14.9602384081
 20
16.9459715693
 10
-14.9871200092
 20
16.880409483
 10
-15.0121946302
 20
16.8104217238
 10
-15.0342406867
 20
16.739410992
 10
-15.053481161
 20
16.6675887094
 10
-15.0717285145
 20
16.5876967579
 10
-15.0872511958
 20
16.5072307049
 10
-15.1004636507
 20
16.426345898
 10
-15.112892869
 20
16.336035978
 10
-15.123186613
 20
16.245465555
 10
-15.1315556374
 20
16.154700119
 10
-15.1389174983
 20
16.0528836736
 10
-15.1445052928
 20
15.9509508872
 10
-15.1486949875
 20
15.8489478947
 10
-15.1535243933
 20
15.6761098611
 10
-15.1564464523
 20
15.5032325628
 10
-15.1583843185
 20
15.3137092474
 10
-15.1590302739
 20
15.113075499
 10
-15.1585834881
 20
14.9208068732
 10
-15.1572646625
 20
14.7438473904
 10
-15.1553287051
 20
14.5894583355
 10
-15.152140083
 20
14.4350807075
 10
-15.1478781215
 20
14.3045764408
 10
-15.1411588411
 20
14.1742008519
 10
-15.132615144
 20
14.0620018449
 10
-15.1211342236
 20
13.9500112632
 10
-15.1092330206
 20
13.8580912304
 10
-15.0946741282
 20
13.7665526394
 10
-15.07698108
 20
13.6756205847
 10
-15.0556774094
 20
13.5855201609
 10
-15.0338248877
 20
13.5075232372
 10
-15.0092547477
 20
13.4303186093
 10
-14.9919104272
 20
13.3804685706
 10
-14.9732693128
 20
13.3310966481
 10
-14.9530135639
 20
13.2823517582
 10
-14.9232005678
 20
13.2188237327
 10
-14.8900071514
 20
13.156910275
 10
-14.853461227
 20
13.0968574013
 10
-14.8135907069
 20
13.0389111275
 10
-14.7704235032
 20
12.9833174701
 10
-14.7324851858
 20
12.9395430762
 10
-14.6924149286
 20
12.8977018394
 10
-14.6502912991
 20
12.8579695912
 10
-14.6061928647
 20
12.8205221628
 10
-14.560198193
 20
12.7855353859
 10
-14.5123858514
 20
12.7531850917
 10
-14.4590135691
 20
12.7214620255
 10
-14.4038903228
 20
12.6928999556
 10
-14.3472796502
 20
12.6674022141
 10
-14.2842503921
 20
12.6430171356
 10
-14.2200067728
 20
12.6220388453
 10
-14.15478494
 20
12.6043569667
 10
-14.0802386245
 20
12.5881673591
 10
-14.0049843478
 20
12.575596999
 10
-13.9292603768
 20
12.5662025342
 10
-13.841774267
 20
12.558795025
 10
-13.754078576
 20
12.5546401654
 10
-13.6662704002
 20
12.5533695535
 10
-13.5780490319
 20
12.5547729896
  0
LINE
  5
2E5
100
AcDbEntity
  8
CURVE
100
AcDbLine
 62
250
  6
CONTINUOUS
 10
-11.1961366776
 20
17.6238606579
 11
-10.2904216776
 21
17.6238606579
  0
LINE
  5
2E6
100
AcDbEntity
  8
CURVE
100
AcDbLine
 62
250
  6
CONTINUOUS
 10
-8.6229946776
 20
17.6238606579
 11
-8.0793586776
 21
17.6238606579
  0
LWPOLYLINE
  5
2E7
100
AcDbEntity
  8
0
100
AcDbPolyline
 62
7
  6
CONTINUOUS
 90
10
 70
0
 43
0.3500000019
 10
0.7208378906
 20
35.7914191895
 10
0.7922680664
 20
35.648564209
 10
0.7922680664
 20
35.5771340332
 10
0.6494077148
 20
35.4342763672
 10
0.5779775391
 20
35.4342763672
 10
0.5065527344
 20
35.505706543
 10
0.5065527344
 20
35.5771340332
 10
0.5779775391
 20
35.7199916992
 10
0.6494077148
 20
35.7914191895
 10
0.7208378906
 20
35.7914191895
  0
LWPOLYLINE
  5
2E8
100
AcDbEntity
  8
ASSI
100
AcDbPolyline
 62
250
  6
CONTINUOUS
 90
16
 70
0
 10
22.0197950474
 20
-0.601630649
 10
22.0170175246
 20
-0.5492273357
 10
22.0087634681
 20
-0.4974015819
 10
21.9951238765
 20
-0.4467243976
 10
21.9762465321
 20
-0.3977484194
 10
21.9523408311
 20
-0.3510194832
 10
21.9236813314
 20
-0.3070676925
 10
21.890596648
 20
-0.2663827024
 10
21.8534492975
 20
-0.22939793
 10
21.8126378757
 20
-0.1965056463
 10
21.7685460111
 20
-0.1680294677
 10
21.7217160175
 20
-0.1443330202
 10
21.6728628582
 20
-0.1257408277
 10
21.6226120556
 20
-0.1124090072
 10
21.5714602724
 20
-0.1043904421
 10
21.5199663849
 20
-0.1017068014
  0
LINE
  5
2E9
100
AcDbEntity
  8
ASSI
100
AcDbLine
 62
7
  6
CONTINUOUS
 10
22.1061051905
 20
22.6004299317
 11
22.0821634994
 21
26.0126301724
  0
LINE
  5
2EA
100
AcDbEntity
  8
ASSI
100
AcDbLine
 62
250
  6
CONTINUOUS
 10
21.5199663849
 20
-0.1017068014
 11
21.5199663849
 21
-26.1763970672
  0
LINE
  5
2EB
100
AcDbEntity
  8
ASSI
100
AcDbLine
 62
250
  6
CONTINUOUS
 10
21.5199663849
 20
0.3754001172
 11
21.5199663849
 21
26.450090383
  0
LINE
  5
2EC
100
AcDbEntity
  8
ASSI
100
AcDbLine
 62
250
  6
CONTINUOUS
 10
22.0197950474
 20
-25.6765684047
 11
22.0197950474
 21
-0.601630649
  0
LINE
  5
2ED
100
AcDbEntity
  8
ASSI
100
AcDbLine
 62
250
  6
CONTINUOUS
 10
22.0197950474
 20
0.8753239648
 11
22.0197950474
 21
25.9502617205
  0
LINE
  5
2EE
100
AcDbEntity
  8
ASSI
100
AcDbLine
 62
7
  6
CONTINUOUS
 10
22.1065513224
 20
-22.1973270933
 11
22.1065513224
 21
-0.5438004745
  0
LINE
  5
2EF
100
AcDbEntity
  8
ASSI
100
AcDbLine
 62
7
  6
CONTINUOUS
 10
22.1065513224
 20
0.8174937903
 11
22.1065513224
 21
22.4710204091
  0
LINE
  5
2F0
100
AcDbEntity
  8
ASSI
100
AcDbLine
 62
7
  6
CONTINUOUS
 10
22.1061051905
 20
-22.3267366159
 11
22.0821634994
 21
-25.7389368566
  0
LWPOLYLINE
  5
2F1
100
AcDbEntity
  8
ASSI
100
AcDbPolyline
 62
250
  6
CONTINUOUS
 90
16
 70
0
 10
-22.0068637402
 20
26.450090383
 10
-22.0583640884
 20
26.44739482
 10
-22.1095182658
 20
26.439364911
 10
-22.1597675039
 20
26.4260236728
 10
-22.2086143173
 20
26.4074257985
 10
-22.255435094
 20
26.3837283396
 10
-22.299518883
 20
26.3552545935
 10
-22.3403247295
 20
26.3223670947
 10
-22.3774679979
 20
26.2853900009
 10
-22.4105500555
 20
26.2447157025
 10
-22.4392085216
 20
26.2007776835
 10
-22.463115243
 20
26.1540651172
 10
-22.4819960387
 20
26.1051073298
 10
-22.4956415958
 20
26.0544495755
 10
-22.5039040676
 20
26.0026441896
 10
-22.5066924027
 20
25.9502617205
  0
LINE
  5
2F2
100
AcDbEntity
  8
ASSI
100
AcDbLine
 62
250
  6
CONTINUOUS
 10
-22.5066924027
 20
25.9502617205
 11
22.0197950474
 21
25.9502617205
  0
LINE
  5
2F3
100
AcDbEntity
  8
ASSI
100
AcDbLine
 62
250
  6
CONTINUOUS
 10
21.5199663849
 20
26.450090383
 11
-22.0068637402
 21
26.450090383
  0
LINE
  5
2F4
100
AcDbEntity
  8
ASSI
100
AcDbLine
 62
7
  6
CONTINUOUS
 10
21.5788522265
 20
26.5089762245
 11
-22.0657495818
 21
26.5089762245
  0
LWPOLYLINE
  5
2F5
100
AcDbEntity
  8
ASSI
100
AcDbPolyline
 62
250
  6
CONTINUOUS
 90
16
 70
0
 10
21.5199663849
 20
26.450090383
 10
21.5714781025
 20
26.4473936343
 10
21.6226408795
 20
26.4393607064
 10
21.6728957791
 20
26.426015419
 10
21.721745171
 20
26.407413333
 10
21.76856575
 20
26.3837122625
 10
21.8126472529
 20
26.3552359944
 10
21.8534485846
 20
26.3223480831
 10
21.8905862129
 20
26.2853727839
 10
21.9236635919
 20
26.2447007764
 10
21.9523188716
 20
26.2007643957
 10
21.9762231042
 20
26.1540534531
 10
21.9951017937
 20
26.1050978038
 10
22.0087456737
 20
26.0544428728
 10
22.017007083
 20
26.0026406953
 10
22.0197950474
 20
25.9502617205
  0
LWPOLYLINE
  5
2F6
100
AcDbEntity
  8
0
100
AcDbPolyline
 62
7
  6
CONTINUOUS
 90
8
 70
0
 43
0.3500000019
 10
29.4207832031
 20
-4.1488674622
 10
29.4207832031
 20
-3.291724823
 10
28.9922021484
 20
-2.8631535034
 10
28.1350615234
 20
-2.8631535034
 10
27.7064912109
 20
-3.291724823
 10
27.7064912109
 20
-4.1488674622
 10
26.4207802734
 20
-4.1488674622
 10
26.4207802734
 20
-2.8631535034
  0
LWPOLYLINE
  5
2F7
100
AcDbEntity
  8
0
100
AcDbPolyline
 62
7
  6
CONTINUOUS
 90
7
 70
0
 43
0.3500000019
 10
29.4207832031
 20
-0.5060104904
 10
29.4207832031
 20
-2.0060105286
 10
27.2779208984
 20
-0.5060104904
 10
26.8493505859
 20
-0.5060104904
 10
26.4207802734
 20
-0.9345818939
 10
26.4207802734
 20
-1.5774390411
 10
27.0636357422
 20
-2.0060105286
  0
LWPOLYLINE
  5
2F8
100
AcDbEntity
  8
0
100
AcDbPolyline
 62
7
  6
CONTINUOUS
 90
3
 70
0
 43
0.3500000019
 10
-0.7791635742
 20
35.9342768555
 10
-2.2791650391
 20
35.9342768555
 10
-1.6363041992
 20
38.2914189453
  0
LWPOLYLINE
  5
2F9
100
AcDbEntity
  8
0
100
AcDbPolyline
 62
7
  6
CONTINUOUS
 90
3
 70
0
 43
0.3500000019
 10
-3.1363056641
 20
35.9342768555
 10
-4.6363071289
 20
35.9342768555
 10
-3.9934462891
 20
38.2914189453
  0
LWPOLYLINE
  5
2FA
100
AcDbEntity
  8
0
100
AcDbPolyline
 62
7
  6
CONTINUOUS
 90
5
 70
0
 43
0.3500000019
 10
-33.7153469238
 20
37.0049587402
 10
-33.3582041016
 20
37.2192438965
 10
-33.3582041016
 20
37.8621020508
 10
-33.7153469238
 20
38.2906723633
 10
-34.5724902344
 20
38.2906723633
  0
LINE
  5
2FB
100
AcDbEntity
  8
ASSI
100
AcDbLine
 62
7
  6
CONTINUOUS
 10
-40.9749565346
 20
-26.2352829088
 11
-43.2237160992
 21
-26.1763970672
  0
LINE
  5
2FC
100
AcDbEntity
  8
ASSI
100
AcDbLine
 62
250
  6
CONTINUOUS
 10
-43.710627625
 20
-25.6765684047
 11
-43.2237160992
 21
-25.6765684047
  0
LINE
  5
2FD
100
AcDbEntity
  8
ASSI
100
AcDbLine
 62
250
  6
CONTINUOUS
 10
-40.8419610108
 20
-25.7389368566
 11
-43.2237160992
 21
-25.6765684047
  0
LWPOLYLINE
  5
2FE
100
AcDbEntity
  8
ASSI
100
AcDbPolyline
 62
250
  6
CONTINUOUS
 90
10
 70
0
 10
-43.2237160992
 20
26.450090383
 10
-43.2249943641
 20
26.4473936343
 10
-43.2261237589
 20
26.4393607064
 10
-43.2270902712
 20
26.426015419
 10
-43.2278823247
 20
26.407413333
 10
-43.2284877304
 20
26.3837122625
 10
-43.2288963678
 20
26.3552359944
 10
-43.229103588
 20
26.3223480831
 10
-43.2291078388
 20
26.2853727839
 10
-43.2285088167
 20
26.2007643957
  0
LWPOLYLINE
  5
2FF
100
AcDbEntity
  8
ASSI
100
AcDbPolyline
 62
250
  6
CONTINUOUS
 90
9
 70
0
 10
-43.2237160992
 20
-26.1763970672
 10
-43.2249940974
 20
-26.1737015042
 10
-43.2261233461
 20
-26.1656715952
 10
-43.2270898161
 20
-26.152330357
 10
-43.2278819125
 20
-26.1337324827
 10
-43.2284874179
 20
-26.1100350238
 10
-43.2288961812
 20
-26.0815612777
 10
-43.2291035305
 20
-26.0486737789
 10
-43.2291078819
 20
-26.0116966851
  0
LINE
  5
300
100
AcDbEntity
  8
ASSI
100
AcDbLine
 62
250
  6
CONTINUOUS
 10
-43.2271240091
 20
26.1050978038
 11
-43.2250146855
 21
26.0026406953
  0
LINE
  5
301
100
AcDbEntity
  8
ASSI
100
AcDbLine
 62
250
  6
CONTINUOUS
 10
-43.2237160992
 20
-0.601630649
 11
-43.2252465522
 21
-0.4974015819
  0
LINE
  5
302
100
AcDbEntity
  8
ASSI
100
AcDbLine
 62
250
  6
CONTINUOUS
 10
-43.2285088167
 20
26.2007643957
 11
-43.2271240091
 21
26.1050978038
  0
LINE
  5
303
100
AcDbEntity
  8
ASSI
100
AcDbLine
 62
250
  6
CONTINUOUS
 10
-43.2252465522
 20
-0.4974015819
 11
-43.2261345187
 21
-0.3977484194
  0
LWPOLYLINE
  5
304
100
AcDbEntity
  8
ASSI
100
AcDbPolyline
 62
250
  6
CONTINUOUS
 90
11
 70
0
 10
-43.2261345187
 20
-0.3977484194
 10
-43.2263408885
 20
-0.3070676925
 10
-43.2261846947
 20
-0.2663827024
 10
-43.2258575287
 20
-0.22939793
 10
-43.2253629809
 20
-0.1965056463
 10
-43.2247054484
 20
-0.1680294677
 10
-43.2238927849
 20
-0.1443330202
 10
-43.2229380478
 20
-0.1257408277
 10
-43.221854892
 20
-0.1124090072
 10
-43.2206554
 20
-0.1043904421
 10
-43.2193538282
 20
-0.1017068014
  0
LINE
  5
305
100
AcDbEntity
  8
ASSI
100
AcDbLine
 62
7
  6
CONTINUOUS
 10
-43.710627625
 20
-25.6765684047
 11
-43.710627625
 21
-0.601630649
  0
LINE
  5
306
100
AcDbEntity
  8
ASSI
100
AcDbLine
 62
7
  6
CONTINUOUS
 10
-43.710627625
 20
0.8753239648
 11
-43.710627625
 21
25.9502617205
  0
LINE
  5
307
100
AcDbEntity
  8
ASSI
100
AcDbLine
 62
250
  6
CONTINUOUS
 10
-43.2237160992
 20
-25.6765684047
 11
-43.2237160992
 21
-0.601630649
  0
LINE
  5
308
100
AcDbEntity
  8
ASSI
100
AcDbLine
 62
250
  6
CONTINUOUS
 10
-43.2237160992
 20
0.8753239648
 11
-43.2237160992
 21
25.9502617205
  0
LINE
  5
309
100
AcDbEntity
  8
ASSI
100
AcDbLine
 62
250
  6
CONTINUOUS
 10
-43.2261897113
 20
0.5408887963
 11
-43.2263225348
 21
0.6254279485
  0
LINE
  5
30A
100
AcDbEntity
  8
ASSI
100
AcDbLine
 62
250
  6
CONTINUOUS
 10
-43.2263225348
 20
0.6254279485
 11
-43.225769813
 21
0.720882427
  0
LINE
  5
30B
100
AcDbEntity
  8
ASSI
100
AcDbLine
 62
250
  6
CONTINUOUS
 10
-43.2291078819
 20
-26.0116966851
 11
-43.2285089629
 21
-25.9270843677
  0
LWPOLYLINE
  5
30C
100
AcDbEntity
  8
ASSI
100
AcDbPolyline
 62
250
  6
CONTINUOUS
 90
3
 70
0
 10
-43.225769813
 20
0.720882427
 10
-43.2245556883
 20
0.8230828304
 10
-43.2237160992
 20
0.8753239648
  0
LINE
  5
30D
100
AcDbEntity
  8
ASSI
100
AcDbLine
 62
250
  6
CONTINUOUS
 10
-43.2285089629
 20
-25.9270843677
 11
-43.2271241771
 21
-25.831414014
  0
LWPOLYLINE
  5
30E
100
AcDbEntity
  8
ASSI
100
AcDbPolyline
 62
250
  6
CONTINUOUS
 90
3
 70
0
 10
-43.2271241771
 20
-25.831414014
 10
-43.2250147673
 20
-25.7289508738
 10
-43.2237160992
 20
-25.6765684047
  0
LWPOLYLINE
  5
30F
100
AcDbEntity
  8
0
100
AcDbPolyline
 62
7
  6
CONTINUOUS
 90
3
 70
0
 43
0.3500000019
 10
-31.7153449707
 20
35.5763874512
 10
-31.7867751465
 20
35.3620996094
 10
-31.9296328125
 20
35.0763869629
  0
LWPOLYLINE
  5
310
100
AcDbEntity
  8
ASSI
100
AcDbPolyline
 62
250
  6
CONTINUOUS
 90
9
 70
0
 10
-43.2193538282
 20
0.3754001172
 10
-43.2206733581
 20
0.3781610274
 10
-43.2218828889
 20
0.3863657937
 10
-43.2229691762
 20
0.3999245753
 10
-43.2239203255
 20
0.4186889055
 10
-43.2247259218
 20
0.4424533179
 10
-43.225377144
 20
0.4709575959
 10
-43.2258668612
 20
0.5038896222
 10
-43.2261897113
 20
0.5408887963
  0
LINE
  5
311
100
AcDbEntity
  8
ASSI
100
AcDbLine
 62
250
  6
CONTINUOUS
 10
-43.2250146855
 20
26.0026406953
 11
-43.2237160992
 21
25.9502617205
  0
LINE
  5
312
100
AcDbEntity
  8
ASSI
100
AcDbLine
 62
250
  6
CONTINUOUS
 10
-39.910627625
 20
-0.5438004745
 11
-43.2237160992
 21
-0.601630649
  0
LINE
  5
313
100
AcDbEntity
  8
ASSI
100
AcDbLine
 62
7
  6
CONTINUOUS
 10
-39.910627625
 20
-0.0439527707
 11
-43.2193538282
 21
-0.1017068014
  0
LINE
  5
314
100
AcDbEntity
  8
ASSI
100
AcDbLine
 62
250
  6
CONTINUOUS
 10
-43.710627625
 20
-0.601630649
 11
-43.2237160992
 21
-0.601630649
  0
LINE
  5
315
100
AcDbEntity
  8
ASSI
100
AcDbLine
 62
7
  6
CONTINUOUS
 10
-43.2193538282
 20
0.3754001172
 11
-39.910627625
 21
0.3176460865
  0
LINE
  5
316
100
AcDbEntity
  8
ASSI
100
AcDbLine
 62
7
  6
CONTINUOUS
 10
-39.910627625
 20
-0.0439527707
 11
-39.910627625
 21
-22.1973270933
  0
LINE
  5
317
100
AcDbEntity
  8
ASSI
100
AcDbLine
 62
7
  6
CONTINUOUS
 10
-39.910627625
 20
0.3176460865
 11
-39.910627625
 21
22.4710204091
  0
LINE
  5
318
100
AcDbEntity
  8
ASSI
100
AcDbLine
 62
250
  6
CONTINUOUS
 10
-43.2237160992
 20
0.8753239648
 11
-43.710627625
 21
0.8753239648
  0
LINE
  5
319
100
AcDbEntity
  8
ASSI
100
AcDbLine
 62
250
  6
CONTINUOUS
 10
-43.2237160992
 20
0.8753239648
 11
-39.910627625
 21
0.8174937903
  0
LINE
  5
31A
100
AcDbEntity
  8
ASSI
100
AcDbLine
 62
7
  6
CONTINUOUS
 10
-39.9276647119
 20
-22.3267366159
 11
-40.9749565346
 21
-26.2352829088
  0
LINE
  5
31B
100
AcDbEntity
  8
ASSI
100
AcDbLine
 62
7
  6
CONTINUOUS
 10
-39.9276647119
 20
22.6004299317
 11
-40.9749565346
 21
26.5089762245
  0
LWPOLYLINE
  5
31C
100
AcDbEntity
  8
0
100
AcDbPolyline
 62
7
  6
CONTINUOUS
 90
4
 70
0
 43
0.3500000019
 10
-30.7153466797
 20
35.7192424316
 10
-30.7153466797
 20
36.5763857422
 10
-30.2867736816
 20
37.0049587402
 10
-29.6439182129
 20
37.0049587402
  0
LINE
  5
31D
100
AcDbEntity
  8
ASSI
100
AcDbLine
 62
250
  6
CONTINUOUS
 10
-43.2237160992
 20
25.9502617205
 11
-40.8419610108
 21
26.0126301724
  0
LINE
  5
31E
100
AcDbEntity
  8
ASSI
100
AcDbLine
 62
7
  6
CONTINUOUS
 10
-43.2237160992
 20
26.450090383
 11
-40.9749565346
 21
26.5089762245
  0
LINE
  5
31F
100
AcDbEntity
  8
ASSI
100
AcDbLine
 62
250
  6
CONTINUOUS
 10
-43.710627625
 20
25.9502617205
 11
-43.2237160992
 21
25.9502617205
  0
LWPOLYLINE
  5
320
100
AcDbEntity
  8
0
100
AcDbPolyline
 62
7
  6
CONTINUOUS
 90
6
 70
0
 43
0.3500000019
 10
-34.5724902344
 20
35.2906721191
 10
-33.5010617676
 20
35.2906721191
 10
-33.2867739258
 20
35.5049572754
 10
-33.2867739258
 20
36.5763857422
 10
-33.7153469238
 20
37.0049587402
 10
-34.1439172363
 20
37.0049587402
  0
LWPOLYLINE
  5
321
100
AcDbEntity
  8
0
100
AcDbPolyline
 62
7
  6
CONTINUOUS
 90
13
 70
0
 43
0.3500000019
 10
-30.2867736816
 20
37.0049587402
 10
-30.5724890137
 20
37.2192438965
 10
-30.5724890137
 20
37.8621020508
 10
-30.2867736816
 20
38.2906723633
 10
-29.6439182129
 20
38.2906723633
 10
-29.3582028809
 20
37.8621020508
 10
-29.3582028809
 20
37.2192438965
 10
-29.6439182129
 20
37.0049587402
 10
-29.2153452148
 20
36.5763857422
 10
-29.2153452148
 20
35.7192424316
 10
-29.6439182129
 20
35.2906721191
 10
-30.2867736816
 20
35.2906721191
 10
-30.7153466797
 20
35.7192424316
  0
LWPOLYLINE
  5
322
100
AcDbEntity
  8
0
100
AcDbPolyline
 62
7
  6
CONTINUOUS
 90
10
 70
0
 43
0.3500000019
 10
-31.7867751465
 20
35.7906726074
 10
-31.7153449707
 20
35.6478149414
 10
-31.7153449707
 20
35.5763874512
 10
-31.8582026367
 20
35.4335297852
 10
-31.9296328125
 20
35.4335297852
 10
-32.0010603027
 20
35.5049572754
 10
-32.0010603027
 20
35.5763874512
 10
-31.9296328125
 20
35.7192424316
 10
-31.8582026367
 20
35.7906726074
 10
-31.7867751465
 20
35.7906726074
  0
ARC
  5
323
100
AcDbEntity
  8
ASSI
100
AcDbCircle
 62
7
  6
CONTINUOUS
 10
-40.410627625
 20
22.4710204091
 40
0.5
100
AcDbArc
 50
0.0
 51
15.0
  0
ARC
  5
324
100
AcDbEntity
  8
ASSI
100
AcDbCircle
 62
7
  6
CONTINUOUS
 10
-43.210627625
 20
25.9502617205
 40
0.5
100
AcDbArc
 50
91.5
 51
180.0
  0
ARC
  5
325
100
AcDbEntity
  8
ASSI
100
AcDbCircle
 62
7
  6
CONTINUOUS
 10
-43.210627625
 20
0.8753239648
 40
0.5
100
AcDbArc
 50
180.0
 51
269.0
  0
ARC
  5
326
100
AcDbEntity
  8
ASSI
100
AcDbCircle
 62
7
  6
CONTINUOUS
 10
-40.410627625
 20
-22.1973270933
 40
0.5
100
AcDbArc
 50
345.0
 51
360.0
  0
ARC
  5
327
100
AcDbEntity
  8
ASSI
100
AcDbCircle
 62
7
  6
CONTINUOUS
 10
-43.210627625
 20
-25.6765684047
 40
0.5
100
AcDbArc
 50
180.0
 51
268.5
  0
ARC
  5
328
100
AcDbEntity
  8
ASSI
100
AcDbCircle
 62
7
  6
CONTINUOUS
 10
-43.210627625
 20
-0.601630649
 40
0.5
100
AcDbArc
 50
91.0
 51
180.0
  0
ELLIPSE
  5
329
100
AcDbEntity
  8
ASSI
100
AcDbEllipse
 62
7
  6
CONTINUOUS
 10
-22.0932772814
 20
0.8177222505
 30
0.0
 11
0.416247366
 21
0.2774630169
 31
0.0
 40
0.9995051766
 41
2.5538770461
 42
4.1242165221
  0
ELLIPSE
  5
32A
100
AcDbEntity
  8
ASSI
100
AcDbEllipse
 62
7
  6
CONTINUOUS
 10
21.6063799261
 20
0.8177222505
 30
0.0
 11
0.416247366
 21
-0.2774630169
 31
0.0
 40
0.9995051766
 41
-0.9826238685
 42
0.5877156075
  0
ELLIPSE
  5
32B
100
AcDbEntity
  8
ASSI
100
AcDbEllipse
 62
7
  6
CONTINUOUS
 10
-22.0688918464
 20
26.0122898267
 30
0.0
 11
0.4677351297
 21
0.1788908786
 31
0.0
 40
0.9906298547
 41
1.202347637
 42
2.7724587311
  0
ELLIPSE
  5
32C
100
AcDbEntity
  8
ASSI
100
AcDbEllipse
 62
7
  6
CONTINUOUS
 10
21.5819944912
 20
26.0122898267
 30
0.0
 11
0.4677351297
 21
-0.1788908786
 31
0.0
 40
0.9906298547
 41
0.3691339225
 42
1.9392450166
  0
ELLIPSE
  5
32D
100
AcDbEntity
  8
ASSI
100
AcDbEllipse
 62
7
  6
CONTINUOUS
 10
22.0934583616
 20
22.4710204091
 30
0.0
 11
0.0
 21
0.5
 31
0.0
 40
0.0261859216
 41
-1.5707963268
 42
-1.308996939
  0
ELLIPSE
  5
32E
100
AcDbEntity
  8
ASSI
100
AcDbEllipse
 62
7
  6
CONTINUOUS
 10
-22.5803557168
 20
22.4710204091
 30
0.0
 11
0.0
 21
0.5
 31
0.0
 40
0.0261859216
 41
1.308996939
 42
1.5707963268
  0
ELLIPSE
  5
32F
100
AcDbEntity
  8
ASSI
100
AcDbEllipse
 62
7
  6
CONTINUOUS
 10
21.5978999539
 20
0.3263736189
 30
0.0
 11
0.5
 21
0.0
 31
0.0
 40
0.0174550649
 41
-3.1241393611
 42
-1.5707963268
  0
ELLIPSE
  5
330
100
AcDbEntity
  8
ASSI
100
AcDbEllipse
 62
7
  6
CONTINUOUS
 10
-22.0847973092
 20
0.3263736189
 30
0.0
 11
0.5
 21
0.0
 31
0.0
 40
0.0174550649
 41
-1.5707963268
 42
-0.0174532925
  0
ELLIPSE
  5
331
100
AcDbEntity
  8
ASSI
100
AcDbEllipse
 62
7
  6
CONTINUOUS
 10
21.6063799261
 20
-0.5440289347
 30
0.0
 11
0.416247366
 21
0.2774630169
 31
0.0
 40
0.9995051766
 41
-0.5877156075
 42
0.9826238685
  0
ELLIPSE
  5
332
100
AcDbEntity
  8
ASSI
100
AcDbEllipse
 62
7
  6
CONTINUOUS
 10
-22.0932772814
 20
-0.5440289347
 30
0.0
 11
0.416247366
 21
-0.2774630169
 31
0.0
 40
0.9995051766
 41
2.1589687851
 42
3.7293082611
  0
ELLIPSE
  5
333
100
AcDbEntity
  8
ASSI
100
AcDbEllipse
 62
7
  6
CONTINUOUS
 10
21.5819944912
 20
-25.7385965109
 30
0.0
 11
0.4677351297
 21
0.1788908786
 31
0.0
 40
0.9906298547
 41
-1.9392450166
 42
-0.3691339225
  0
ELLIPSE
  5
334
100
AcDbEntity
  8
ASSI
100
AcDbEllipse
 62
7
  6
CONTINUOUS
 10
-22.0688918464
 20
-25.7385965109
 30
0.0
 11
0.4677351297
 21
-0.1788908786
 31
0.0
 40
0.9906298547
 41
-2.7724587311
 42
-1.202347637
  0
ELLIPSE
  5
335
100
AcDbEntity
  8
ASSI
100
AcDbEllipse
 62
7
  6
CONTINUOUS
 10
-22.5803557168
 20
-22.1973270933
 30
0.0
 11
0.0
 21
0.5
 31
0.0
 40
0.0261859216
 41
-4.7123889804
 42
-4.4505895926
  0
ELLIPSE
  5
336
100
AcDbEntity
  8
ASSI
100
AcDbEllipse
 62
7
  6
CONTINUOUS
 10
22.0934583616
 20
-22.1973270933
 30
0.0
 11
0.0
 21
0.5
 31
0.0
 40
0.0261859216
 41
-1.8325957146
 42
-1.5707963268
  0
ELLIPSE
  5
337
100
AcDbEntity
  8
ASSI
100
AcDbEllipse
 62
7
  6
CONTINUOUS
 10
-22.0847973092
 20
-0.0526803031
 30
0.0
 11
0.5
 21
0.0
 31
0.0
 40
0.0174550649
 41
0.0174532925
 42
1.5707963268
  0
ELLIPSE
  5
338
100
AcDbEntity
  8
ASSI
100
AcDbEllipse
 62
7
  6
CONTINUOUS
 10
21.5978999539
 20
-0.0526803031
 30
0.0
 11
0.5
 21
0.0
 31
0.0
 40
0.0174550649
 41
1.5707963268
 42
3.1241393611
  0
ENDSEC
  0
SECTION
  2
OBJECTS
  0
DICTIONARY
  5
C
100
AcDbDictionary
280
0
281
1
  3
ACAD_GROUP
350
D
  3
ACAD_MLINESTYLE
350
17
  3
ACAD_LAYOUT
350
1A
  3
ACAD_PLOTSETTINGS
350
19
  3
ACAD_PLOTSTYLENAME
350
E
  0
DICTIONARY
  5
D
102
{ACAD_REACTORS
330
C
102
}
100
AcDbDictionary
280
0
281
1
  0
ACDBDICTIONARYWDFLT
  5
E
102
{ACAD_REACTORS
330
C
102
}
100
AcDbDictionary
281
1
  3
Normal
350
F
100
AcDbDictionaryWithDefault
340
F
  0
DICTIONARY
  5
17
102
{ACAD_REACTORS
330
C
102
}
100
AcDbDictionary
280
0
281
1
  3
Standard
350
18
  0
DICTIONARY
  5
19
102
{ACAD_REACTORS
330
C
102
}
100
AcDbDictionary
281
1
  0
DICTIONARY
  5
1A
102
{ACAD_REACTORS
330
C
102
}
100
AcDbDictionary
281
1
  3
Model
350
339
  3
Layout1
350
33A
  0
ACDBPLACEHOLDER
  5
F
102
{ACAD_REACTORS
330
E
102
}
  0
MLINESTYLE
  5
18
102
{ACAD_REACTORS
330
17
102
}
100
AcDbMlineStyle
  2
STANDARD
 70
0
  3

 62
256
 51
90.0
 52
90.0
 71
2
 49
0.5
 62
256
  6
BYLAYER
 49
-0.5
 62
256
  6
BYLAYER
  0
LAYOUT
  5
339
102
{ACAD_REACTORS
330
1A
102
}
100
AcDbPlotSettings
  1

  2
none_device
  4

  6

 40
0.0
 41
0.0
 42
0.0
 43
0.0
 44
210.0
 45
297.0
 46
0.0
 47
0.0
 48
0.0
 49
0.0
140
0.0
141
0.0
142
1.0
143
1.0
 70
1024
 72
1
 73
0
 74
0
  7

 75
0
147
1.0
148
0.0
149
0.0
100
AcDbLayout
  1
Model
 70
0
 71
0
 10
0.0
 20
0.0
 11
210.0
 21
297.0
 12
0.0
 22
0.0
 32
0.0
 14
0.0
 24
0.0
 34
0.0
 15
0.0
 25
0.0
 35
0.0
146
0.0
 13
0.0
 23
0.0
 33
0.0
 16
1.0
 26
0.0
 36
0.0
 17
0.0
 27
1.0
 37
0.0
 76
0
330
214
345
0
346
0
  0
LAYOUT
  5
33A
102
{ACAD_REACTORS
330
1A
102
}
100
AcDbPlotSettings
  1

  2
none_device
  4

  6

 40
0.0
 41
0.0
 42
0.0
 43
0.0
 44
210.0
 45
297.0
 46
0.0
 47
0.0
 48
0.0
 49
0.0
140
0.0
141
0.0
142
1.0
143
1.0
 70
0
 72
1
 73
0
 74
0
  7

 75
0
147
1.0
148
0.0
149
0.0
100
AcDbLayout
  1
Layout1
 70
0
 71
1
 10
0.0
 20
0.0
 11
210.0
 21
297.0
 12
0.0
 22
0.0
 32
0.0
 14
0.0
 24
0.0
 34
0.0
 15
0.0
 25
0.0
 35
0.0
146
0.0
 13
0.0
 23
0.0
 33
0.0
 16
1.0
 26
0.0
 36
0.0
 17
0.0
 27
1.0
 37
0.0
 76
0
330
215
345
0
346
0
  0
ENDSEC
  0
EOF
