  0
SECTION
  2
HEADER
  9
$ACADVER
  1
AC1024
  9
$DWGCODEPAGE
  3
ANSI_1252
  9
$EXTMAX
 10
210.0
 20
297.0
 30
0.0
  9
$EXTMIN
 10
0.0
 20
0.0
 30
0.0
  9
$LIMMIN
 10
0.0
 20
0.0
  9
$LIMMAX
 10
210.0
 20
297.0
  9
$VIEWCTR
 10
105.0
 20
148.5
  9
$VIEWSIZE
 40
297.0
  9
$CLAYER
  8
0
  9
$LTSCALE
 40
19.36
  9
$CELTYPE
  6
BYLAYER
  9
$DIMSCALE
 40
1.0
  9
$DIMASZ
 40
3.0
  9
$DIMEXO
 40
0.5
  9
$DIMDLI
 40
13.376
  9
$DIMEXE
 40
1.5
  9
$DIMCEN
 40
3.168
  9
$DIMLFAC
 40
1.0
  9
$DIMBLK
  1
_FILLED
  9
$DIMALT
 70
0
  9
$DIMALTF
 40
0.0393700787
  9
$DIMTXT
 40
3.0
  9
$DIMTOL
 70
1
  9
$DIMLIM
 70
0
  9
$DIMTFAC
 40
1.0
  9
$DIMTP
 40
0.01
  9
$DIMTM
 40
0.01
  9
$DIMGAP
 40
0.625
  9
$DIMDSEP
 70
44
  9
$AUNITS
 70
0
  9
$PDMODE
 70
3
  9
$PDSIZE
 40
3.0
  9
$HANDSEED
  5
321
  9
$TILEMODE
 70
1
  9
$MEASUREMENT
 70
1
  9
$INSUNITS
 70
4
  0
ENDSEC
  0
SECTION
  2
CLASSES
  0
CLASS
  1
ACDBDICTIONARYWDFLT
  2
AcDbDictionaryWithDefault
  3
AutoCAD 2000
 90
0
 91
1
280
0
281
0
  0
CLASS
  1
ACDBPLACEHOLDER
  2
AcDbPlaceHolder
  3
AutoCAD 2000
 90
0
 91
1
280
0
281
0
  0
CLASS
  1
LAYOUT
  2
AcDbLayout
  3
AutoCAD 2000
 90
0
 91
0
280
0
281
0
  0
ENDSEC
  0
SECTION
  2
TABLES
  0
TABLE
  2
VPORT
  5
8
100
AcDbSymbolTable
 70
2
  0
VPORT
  5
1F4
100
AcDbSymbolTableRecord
100
AcDbViewportTableRecord
  2
*ACTIVE
 70
0
 10
0.0
 20
0.0
 11
1.0
 21
1.0
 12
105.0
 22
148.5
 13
0.0
 23
0.0
 14
1.0
 24
1.0
 15
0.0
 25
0.0
 16
0.0
 26
0.0
 36
1.0
 17
0.0
 27
0.0
 37
0.0
 40
297.0
 41
0.7070707071
 42
50.0
 43
0.0
 44
0.0
 50
0.0
 51
0.0
 71
0
 72
100
 73
1
 74
1
 75
0
 76
0
 77
0
 78
0
  0
ENDTAB
  0
TABLE
  2
LTYPE
  5
5
100
AcDbSymbolTable
 70
6
  0
LTYPE
  5
14
100
AcDbSymbolTableRecord
100
AcDbLinetypeTableRecord
  2
BYBLOCK
 70
0
  3

 72
65
 73
0
 40
0.0
  0
LTYPE
  5
15
100
AcDbSymbolTableRecord
100
AcDbLinetypeTableRecord
  2
BYLAYER
 70
0
  3

 72
65
 73
0
 40
0.0
  0
LTYPE
  5
16
100
AcDbSymbolTableRecord
100
AcDbLinetypeTableRecord
  2
CONTINUOUS
 70
64
  3
Solid line
 72
65
 73
0
 40
0.0
  0
LTYPE
  5
1F5
100
AcDbSymbolTableRecord
100
AcDbLinetypeTableRecord
  2
CENTER
 70
64
  3
____ _ ____ _ ____ _ ____ _ ____ _ ____ _ ____
 72
65
 73
4
 40
0.6
 49
0.375
 74
0
 49
-0.075
 74
0
 49
0.075
 74
0
 49
-0.075
 74
0
  0
LTYPE
  5
1F6
100
AcDbSymbolTableRecord
100
AcDbLinetypeTableRecord
  2
HIDDEN
 70
64
  3
- - - - - - - - - - - - - - - - - - - -
 72
65
 73
2
 40
0.2
 49
0.1
 74
0
 49
-0.1
 74
0
  0
LTYPE
  5
1F7
100
AcDbSymbolTableRecord
100
AcDbLinetypeTableRecord
  2
PHANTOM
 70
64
  3
_____ _ _ _____ _ _ _____ _ _ _____
 72
65
 73
6
 40
0.8
 49
0.45
 74
0
 49
-0.05
 74
0
 49
0.1
 74
0
 49
-0.05
 74
0
 49
0.1
 74
0
 49
-0.05
 74
0
  0
LTYPE
  5
1F8
100
AcDbSymbolTableRecord
100
AcDbLinetypeTableRecord
  2
DOT
 70
64
  3
. . . . . . . . . . . . . . . . . . . .
 72
65
 73
2
 40
0.2
 49
0.1
 74
0
 49
-0.1
 74
0
  0
LTYPE
  5
1F9
100
AcDbSymbolTableRecord
100
AcDbLinetypeTableRecord
  2
DASHED
 70
64
  3
- - - - - - - - - - - - - - - - - - - -
 72
65
 73
2
 40
0.2
 49
0.1
 74
0
 49
-0.1
 74
0
  0
ENDTAB
  0
TABLE
  2
LAYER
  5
2
100
AcDbSymbolTable
 70
36
  0
LAYER
  5
10
100
AcDbSymbolTableRecord
100
AcDbLayerTableRecord
  2
0
 70
0
 62
7
  6
CONTINUOUS
370
-3
390
F
  0
LAYER
  5
1FA
100
AcDbSymbolTableRecord
100
AcDbLayerTableRecord
  2
DEFAULT_1
 70
0
 62
7
  6
CENTER
370
-3
390
F
  0
LAYER
  5
1FB
100
AcDbSymbolTableRecord
100
AcDbLayerTableRecord
  2
DEFAULT_2
 70
0
 62
7
  6
HIDDEN
370
-3
390
F
  0
LAYER
  5
1FC
100
AcDbSymbolTableRecord
100
AcDbLayerTableRecord
  2
DEFAULT_3
 70
0
 62
7
  6
PHANTOM
370
-3
390
F
  0
LAYER
  5
1FD
100
AcDbSymbolTableRecord
100
AcDbLayerTableRecord
  2
ASSI
 70
0
 62
7
  6
CONTINUOUS
370
-3
390
F
  0
LAYER
  5
1FE
100
AcDbSymbolTableRecord
100
AcDbLayerTableRecord
  2
COORDINATE
 70
0
 62
7
  6
CONTINUOUS
370
-3
390
F
  0
LAYER
  5
1FF
100
AcDbSymbolTableRecord
100
AcDbLayerTableRecord
  2
COPY_PUBLISH
 70
0
 62
7
  6
CONTINUOUS
370
-3
390
F
  0
LAYER
  5
200
100
AcDbSymbolTableRecord
100
AcDbLayerTableRecord
  2
COSMETICI
 70
0
 62
7
  6
CONTINUOUS
370
-3
390
F
  0
LAYER
  5
201
100
AcDbSymbolTableRecord
100
AcDbLayerTableRecord
  2
CURVE
 70
0
 62
7
  6
CONTINUOUS
370
-3
390
F
  0
LAYER
  5
202
100
AcDbSymbolTableRecord
100
AcDbLayerTableRecord
  2
DRAFT
 70
0
 62
7
  6
CONTINUOUS
370
-3
390
F
  0
LAYER
  5
203
100
AcDbSymbolTableRecord
100
AcDbLayerTableRecord
  2
IMPORT_IGES
 70
0
 62
7
  6
CONTINUOUS
370
-3
390
F
  0
LAYER
  5
204
100
AcDbSymbolTableRecord
100
AcDbLayerTableRecord
  2
INTF_1
 70
0
 62
7
  6
CONTINUOUS
370
-3
390
F
  0
LAYER
  5
205
100
AcDbSymbolTableRecord
100
AcDbLayerTableRecord
  2
INTF_2
 70
0
 62
7
  6
CONTINUOUS
370
-3
390
F
  0
LAYER
  5
206
100
AcDbSymbolTableRecord
100
AcDbLayerTableRecord
  2
INTF_4
 70
0
 62
7
  6
CONTINUOUS
370
-3
390
F
  0
LAYER
  5
207
100
AcDbSymbolTableRecord
100
AcDbLayerTableRecord
  2
NOTE
 70
0
 62
7
  6
CONTINUOUS
370
-3
390
F
  0
LAYER
  5
208
100
AcDbSymbolTableRecord
100
AcDbLayerTableRecord
  2
PIANI
 70
0
 62
7
  6
CONTINUOUS
370
-3
390
F
  0
LAYER
  5
209
100
AcDbSymbolTableRecord
100
AcDbLayerTableRecord
  2
PUNTI
 70
0
 62
7
  6
CONTINUOUS
370
-3
390
F
  0
LAYER
  5
20A
100
AcDbSymbolTableRecord
100
AcDbLayerTableRecord
  2
RACCORDO
 70
0
 62
7
  6
CONTINUOUS
370
-3
390
F
  0
LAYER
  5
20B
100
AcDbSymbolTableRecord
100
AcDbLayerTableRecord
  2
SIMBOLI
 70
0
 62
7
  6
CONTINUOUS
370
-3
390
F
  0
LAYER
  5
20C
100
AcDbSymbolTableRecord
100
AcDbLayerTableRecord
  2
SMUSSO
 70
0
 62
7
  6
CONTINUOUS
370
-3
390
F
  0
LAYER
  5
20D
100
AcDbSymbolTableRecord
100
AcDbLayerTableRecord
  2
SNAPLINE
 70
0
 62
7
  6
CONTINUOUS
370
-3
390
F
  0
LAYER
  5
20E
100
AcDbSymbolTableRecord
100
AcDbLayerTableRecord
  2
SUPERFICI
 70
0
 62
7
  6
CONTINUOUS
370
-3
390
F
  0
LAYER
  5
20F
100
AcDbSymbolTableRecord
100
AcDbLayerTableRecord
  2
TRASH
 70
0
 62
7
  6
CONTINUOUS
370
-3
390
F
  0
ENDTAB
  0
TABLE
  2
STYLE
  5
3
100
AcDbSymbolTable
 70
1
  0
STYLE
  5
11
100
AcDbSymbolTableRecord
100
AcDbTextStyleTableRecord
  2
STANDARD
 70
0
 40
0.0
 41
0.8
 50
0.0
 71
0
 42
0.2
  3
txt
  4

  0
STYLE
  5
210
100
AcDbSymbolTableRecord
100
AcDbTextStyleTableRecord
  2
TEXTSTYLE_1
 70
0
 40
0.0
 41
0.8
 50
0.0
 71
0
 42
0.2
  3
gdt
  4

  0
ENDTAB
  0
TABLE
  2
VIEW
  5
6
100
AcDbSymbolTable
 70
0
  0
ENDTAB
  0
TABLE
  2
UCS
  5
7
100
AcDbSymbolTable
 70
0
  0
ENDTAB
  0
TABLE
  2
APPID
  5
9
100
AcDbSymbolTable
 70
1
  0
APPID
  5
211
100
AcDbSymbolTableRecord
100
AcDbRegAppTableRecord
  2
ACAD
 70
0
  0
ENDTAB
  0
TABLE
  2
BLOCK_RECORD
  5
1
100
AcDbSymbolTable
 70
0
  0
BLOCK_RECORD
  5
212
100
AcDbSymbolTableRecord
100
AcDbBlockTableRecord
  2
*Model_Space
  0
BLOCK_RECORD
  5
213
100
AcDbSymbolTableRecord
100
AcDbBlockTableRecord
  2
*Paper_Space
  0
BLOCK_RECORD
  5
214
100
AcDbSymbolTableRecord
100
AcDbBlockTableRecord
  2
_FILLED
  0
BLOCK_RECORD
  5
215
100
AcDbSymbolTableRecord
100
AcDbBlockTableRecord
  2
*D0
  0
BLOCK_RECORD
  5
216
100
AcDbSymbolTableRecord
100
AcDbBlockTableRecord
  2
*D1
  0
BLOCK_RECORD
  5
217
100
AcDbSymbolTableRecord
100
AcDbBlockTableRecord
  2
*D2
  0
ENDTAB
  0
TABLE
  2
DIMSTYLE
  5
A
100
AcDbSymbolTable
 70
1
100
AcDbDimStyleTable
 71
0
  0
DIMSTYLE
105
218
100
AcDbSymbolTableRecord
100
AcDbDimStyleTableRecord
  2
STANDARD
 70
0
  3

  4

 40
1.0
 41
3.0
 42
0.5
 43
0.38
 44
1.5
 45
0.0
 46
0.0
 47
0.01
 48
0.01
140
3.0
141
0.09
142
0.0
143
25.4
144
1.0
145
0.0
146
1.0
147
0.625
 71
1
 72
0
 73
0
 74
0
 75
0
 76
0
 77
1
 78
8
 79
2
170
0
171
1
172
0
173
0
174
0
175
0
176
0
177
0
178
0
270
2
179
2
271
2
272
2
273
2
274
2
275
0
280
0
281
0
282
0
283
1
284
8
285
0
286
0
287
3
288
0
340
11
278
44
341
214
342
214
343
214
344
214
  0
DIMSTYLE
105
219
100
AcDbSymbolTableRecord
100
AcDbDimStyleTableRecord
  2
DIMSTYLE_1
 70
0
  3

  4

 40
1.0
 41
3.0
 42
0.5
 43
0.38
 44
1.5
 45
0.0
 46
0.0
 47
0.0
 48
0.0
140
3.0
141
0.09
142
0.0
143
25.4
144
1.0
145
0.0
146
1.0
147
0.75
 71
0
 72
0
 73
0
 74
0
 75
0
 76
0
 77
1
 78
8
 79
2
170
0
171
1
172
0
173
0
174
0
175
0
176
0
177
0
178
0
270
2
179
2
271
2
272
2
273
2
274
2
275
0
280
0
281
0
282
0
283
1
284
8
285
0
286
0
287
3
288
0
340
11
278
44
341
214
342
214
343
214
344
214
  0
DIMSTYLE
105
21A
100
AcDbSymbolTableRecord
100
AcDbDimStyleTableRecord
  2
DIMSTYLE_2
 70
0
  3

  4

 40
1.0
 41
3.0
 42
0.5
 43
0.38
 44
1.5
 45
0.0
 46
0.0
 47
0.0
 48
0.0
140
3.0
141
0.09
142
0.0
143
25.4
144
1.0
145
0.0
146
1.0
147
0.75
 71
0
 72
0
 73
0
 74
0
 75
0
 76
0
 77
1
 78
8
 79
2
170
0
171
1
172
0
173
0
174
0
175
0
176
0
177
0
178
0
270
2
179
2
271
1
272
1
273
2
274
2
275
0
280
0
281
0
282
0
283
1
284
8
285
0
286
0
287
3
288
0
340
11
278
44
341
214
342
214
343
214
344
214
  0
ENDTAB
  0
ENDSEC
  0
SECTION
  2
BLOCKS
  0
BLOCK
  5
20
100
AcDbEntity
  8
0
100
AcDbBlockBegin
  2
*Model_Space
 70
0
 10
0.0
 20
0.0
 30
0.0
  3
*Model_Space
  1

  0
ENDBLK
  5
21
100
AcDbEntity
  8
0
100
AcDbBlockEnd
  0
BLOCK
  5
1C
100
AcDbEntity
  8
0
100
AcDbBlockBegin
  2
*Paper_Space
 70
0
 10
0.0
 20
0.0
 30
0.0
  3
*Paper_Space
  1

  0
ENDBLK
  5
1D
100
AcDbEntity
  8
0
100
AcDbBlockEnd
  0
BLOCK
  5
21B
100
AcDbEntity
  8
0
100
AcDbBlockBegin
  2
_FILLED
 70
64
 10
0.0
 20
0.0
  3
_FILLED
  1

  0
SOLID
  5
21C
100
AcDbEntity
  8
0
  6
BYBLOCK
 62
0
100
AcDbTrace
 10
0.0
 20
0.0
 11
-1.0
 21
0.3166666667
 12
-1.0
 22
-0.3166666667
 13
-1.0
 23
-0.3166666667
  0
ENDBLK
  5
21D
100
AcDbEntity
  8
0
  6
BYBLOCK
 62
0
100
AcDbBlockEnd
  0
BLOCK
  5
21E
100
AcDbEntity
  8
0
100
AcDbBlockBegin
 62
7
  6
CONTINUOUS
  2
*D0
 70
65
 10
0.0
 20
0.0
  3
*D0
  1

  0
LINE
  5
21F
100
AcDbEntity
  8
0
100
AcDbLine
 62
7
  6
CONTINUOUS
 10
-22.4872594207
 20
22.9128615012
 11
-22.4872594207
 21
36.0401480447
  0
LINE
  5
220
100
AcDbEntity
  8
0
100
AcDbLine
 62
7
  6
CONTINUOUS
 10
22.2127405793
 20
22.9128615012
 11
22.2127405793
 21
36.0401480447
  0
LINE
  5
221
100
AcDbEntity
  8
0
100
AcDbLine
 62
7
  6
CONTINUOUS
 10
-22.4872594207
 20
34.5401480447
 11
-0.1372594207
 21
34.5401480447
  0
LINE
  5
222
100
AcDbEntity
  8
0
100
AcDbLine
 62
7
  6
CONTINUOUS
 10
22.2127405793
 20
34.5401480447
 11
-0.1372594207
 21
34.5401480447
  0
INSERT
  5
223
100
AcDbEntity
  8
0
100
AcDbBlockReference
 62
7
  6
CONTINUOUS
  2
_FILLED
 10
-22.4872594207
 20
34.5401480447
 41
3.0
 42
3.0
 43
3.0
 50
180.0
  0
INSERT
  5
224
100
AcDbEntity
  8
0
100
AcDbBlockReference
 62
7
  6
CONTINUOUS
  2
_FILLED
 10
22.2127405793
 20
34.5401480447
 41
3.0
 42
3.0
 43
3.0
  0
ENDBLK
  5
225
100
AcDbEntity
  8
0
  6
BYBLOCK
 62
0
100
AcDbBlockEnd
  0
BLOCK
  5
226
100
AcDbEntity
  8
0
100
AcDbBlockBegin
 62
7
  6
CONTINUOUS
  2
*D1
 70
65
 10
0.0
 20
0.0
  3
*D1
  1

  0
LINE
  5
227
100
AcDbEntity
  8
0
100
AcDbLine
 62
7
  6
CONTINUOUS
 10
22.1850414835
 20
26.4508173166
 11
31.7671072835
 21
26.4508173166
  0
LINE
  5
228
100
AcDbEntity
  8
0
100
AcDbLine
 62
7
  6
CONTINUOUS
 10
22.1850414835
 20
-26.2934418167
 11
31.7671072835
 21
-26.2934418167
  0
LINE
  5
229
100
AcDbEntity
  8
0
100
AcDbLine
 62
7
  6
CONTINUOUS
 10
30.2671072835
 20
26.4508173166
 11
30.2671072835
 21
0.0786877499
  0
LINE
  5
22A
100
AcDbEntity
  8
0
100
AcDbLine
 62
7
  6
CONTINUOUS
 10
30.2671072835
 20
-26.2934418167
 11
30.2671072835
 21
0.0786877499
  0
INSERT
  5
22B
100
AcDbEntity
  8
0
100
AcDbBlockReference
 62
7
  6
CONTINUOUS
  2
_FILLED
 10
30.2671072835
 20
26.4508173166
 41
3.0
 42
3.0
 43
3.0
 50
90.0
  0
INSERT
  5
22C
100
AcDbEntity
  8
0
100
AcDbBlockReference
 62
7
  6
CONTINUOUS
  2
_FILLED
 10
30.2671072835
 20
-26.2934418167
 41
3.0
 42
3.0
 43
3.0
 50
270.0
  0
ENDBLK
  5
22D
100
AcDbEntity
  8
0
  6
BYBLOCK
 62
0
100
AcDbBlockEnd
  0
BLOCK
  5
22E
100
AcDbEntity
  8
0
100
AcDbBlockBegin
 62
7
  6
CONTINUOUS
  2
*D2
 70
65
 10
0.0
 20
0.0
  3
*D2
  1

  0
LINE
  5
22F
100
AcDbEntity
  8
0
100
AcDbLine
 62
7
  6
CONTINUOUS
 10
-39.3882632101
 20
22.9128615012
 11
-39.3882632101
 21
35.9608803229
  0
LINE
  5
230
100
AcDbEntity
  8
0
100
AcDbLine
 62
7
  6
CONTINUOUS
 10
-43.1882632101
 20
26.3921028125
 11
-43.1882632101
 21
35.9608803229
  0
LINE
  5
231
100
AcDbEntity
  8
0
100
AcDbLine
 62
7
  6
CONTINUOUS
 10
-39.3882632101
 20
34.4608803229
 11
-29.5626303611
 21
34.4608803229
  0
LINE
  5
232
100
AcDbEntity
  8
0
100
AcDbLine
 62
7
  6
CONTINUOUS
 10
-29.5626303611
 20
34.4608803229
 11
-41.2882632101
 21
34.4608803229
  0
LINE
  5
233
100
AcDbEntity
  8
0
100
AcDbLine
 62
7
  6
CONTINUOUS
 10
-43.1882632101
 20
34.4608803229
 11
-47.1882632101
 21
34.4608803229
  0
LINE
  5
234
100
AcDbEntity
  8
0
100
AcDbLine
 62
7
  6
CONTINUOUS
 10
-47.1882632101
 20
34.4608803229
 11
-41.2882632101
 21
34.4608803229
  0
INSERT
  5
235
100
AcDbEntity
  8
0
100
AcDbBlockReference
 62
7
  6
CONTINUOUS
  2
_FILLED
 10
-39.3882632101
 20
34.4608803229
 41
3.0
 42
3.0
 43
3.0
 50
180.0
  0
INSERT
  5
236
100
AcDbEntity
  8
0
100
AcDbBlockReference
 62
7
  6
CONTINUOUS
  2
_FILLED
 10
-43.1882632101
 20
34.4608803229
 41
3.0
 42
3.0
 43
3.0
  0
ENDBLK
  5
237
100
AcDbEntity
  8
0
  6
BYBLOCK
 62
0
100
AcDbBlockEnd
  0
ENDSEC
  0
SECTION
  2
ENTITIES
  0
DIMENSION
  5
238
100
AcDbEntity
  8
0
100
AcDbDimension
 62
7
  6
CONTINUOUS
  2
*D0
 10
22.2127405793
 20
34.5401480447
 11
-4.5301165635
 21
34.5401480447
 70
160
 71
2
 72
2
 41
0.9
 42
44.7
  3
DIMSTYLE_1
100
AcDbAlignedDimension
 13
-22.4872594207
 23
22.4128615012
 14
22.2127405793
 24
22.4128615012
100
AcDbRotatedDimension
  0
DIMENSION
  5
239
100
AcDbEntity
  8
0
100
AcDbDimension
 62
7
  6
CONTINUOUS
  2
*D1
 10
30.2671072835
 20
-26.2934418167
 11
30.2671072835
 21
-4.2070265358
 70
160
 71
2
 72
2
 41
0.9
 42
52.7442591333
  3
DIMSTYLE_2
100
AcDbAlignedDimension
 13
21.6850414835
 23
26.4508173166
 14
21.6850414835
 24
-26.2934418167
 50
270.0
100
AcDbRotatedDimension
  0
DIMENSION
  5
23A
100
AcDbEntity
  8
0
100
AcDbDimension
 62
7
  6
CONTINUOUS
  2
*D2
 10
-43.1882632101
 20
34.4608803229
 11
-35.7769160754
 21
34.4608803229
 70
160
 71
1
 72
2
 41
0.9
 42
3.8
  3
DIMSTYLE_1
100
AcDbAlignedDimension
 13
-39.3882632101
 23
22.4128615012
 14
-43.1882632101
 24
25.8921028125
 50
180.0
100
AcDbRotatedDimension
  0
LWPOLYLINE
  5
23B
100
AcDbEntity
  8
ASSI
100
AcDbPolyline
 62
250
  6
CONTINUOUS
 90
16
 70
0
 10
21.6261556419
 20
-26.2345559751
 10
21.6776559901
 20
-26.2318604121
 10
21.7288101675
 20
-26.2238305032
 10
21.7790594057
 20
-26.210489265
 10
21.827906219
 20
-26.1918913906
 10
21.8747269957
 20
-26.1681939317
 10
21.9188107847
 20
-26.1397201857
 10
21.9596166312
 20
-26.1068326869
 10
21.9967598996
 20
-26.069855593
 10
22.0298419572
 20
-26.0291812946
 10
22.0585004234
 20
-25.9852432756
 10
22.0824071447
 20
-25.9385307094
 10
22.1012879404
 20
-25.8895729219
 10
22.1149334975
 20
-25.8389151677
 10
22.1231959693
 20
-25.7871097818
 10
22.1259843044
 20
-25.7347273126
  0
LWPOLYLINE
  5
23C
100
AcDbEntity
  8
ASSI
100
AcDbPolyline
 62
250
  6
CONTINUOUS
 90
16
 70
0
 10
-21.9006744832
 20
-26.2345559751
 10
-21.9521862008
 20
-26.2318592265
 10
-22.0033489778
 20
-26.2238262985
 10
-22.0536038774
 20
-26.2104810112
 10
-22.1024532693
 20
-26.1918789252
 10
-22.1492738483
 20
-26.1681778546
 10
-22.1933553512
 20
-26.1397015866
 10
-22.2341566829
 20
-26.1068136753
 10
-22.2712943112
 20
-26.069838376
 10
-22.3043716902
 20
-26.0291663686
 10
-22.3330269698
 20
-25.9852299879
 10
-22.3569312025
 20
-25.9385190452
 10
-22.3758098919
 20
-25.8895633959
 10
-22.3894537719
 20
-25.838908465
 10
-22.3977151813
 20
-25.7871062875
 10
-22.4005031457
 20
-25.7347273126
  0
LINE
  5
23D
100
AcDbEntity
  8
ASSI
100
AcDbLine
 62
7
  6
CONTINUOUS
 10
-21.9595603248
 20
-26.2934418167
 11
21.6850414835
 21
-26.2934418167
  0
LINE
  5
23E
100
AcDbEntity
  8
ASSI
100
AcDbLine
 62
250
  6
CONTINUOUS
 10
-21.9006744832
 20
-26.2345559751
 11
21.6261556419
 21
-26.2345559751
  0
LINE
  5
23F
100
AcDbEntity
  8
ASSI
100
AcDbLine
 62
250
  6
CONTINUOUS
 10
-22.4005031457
 20
-25.7347273126
 11
22.1259843044
 21
-25.7347273126
  0
LWPOLYLINE
  5
240
100
AcDbEntity
  8
ASSI
100
AcDbPolyline
 62
250
  6
CONTINUOUS
 90
16
 70
0
 10
-22.4005031457
 20
0.8171650568
 10
-22.3977256229
 20
0.7647617435
 10
-22.3894715664
 20
0.7129359897
 10
-22.3758319748
 20
0.6622588054
 10
-22.3569546304
 20
0.6132828272
 10
-22.3330489293
 20
0.566553891
 10
-22.3043894297
 20
0.5226021003
 10
-22.2713047463
 20
0.4819171103
 10
-22.2341573958
 20
0.4449323379
 10
-22.193345974
 20
0.4120400542
 10
-22.1492541094
 20
0.3835638756
 10
-22.1024241158
 20
0.359867428
 10
-22.0535709564
 20
0.3412752356
 10
-22.0033201539
 20
0.327943415
 10
-21.9521683707
 20
0.31992485
 10
-21.9006744832
 20
0.3172412092
  0
LINE
  5
241
100
AcDbEntity
  8
ASSI
100
AcDbLine
 62
7
  6
CONTINUOUS
 10
-22.4868132888
 20
-22.3848955238
 11
-22.4628715977
 21
-25.7970957646
  0
LINE
  5
242
100
AcDbEntity
  8
ASSI
100
AcDbLine
 62
7
  6
CONTINUOUS
 10
-22.4872594207
 20
22.4128615012
 11
-22.4872594207
 21
0.7593348824
  0
LINE
  5
243
100
AcDbEntity
  8
ASSI
100
AcDbLine
 62
7
  6
CONTINUOUS
 10
-22.4872594207
 20
-0.6019593825
 11
-22.4872594207
 21
-22.2554860013
  0
LINE
  5
244
100
AcDbEntity
  8
ASSI
100
AcDbLine
 62
250
  6
CONTINUOUS
 10
-22.4005031457
 20
25.8921028125
 11
-22.4005031457
 21
0.8171650568
  0
LINE
  5
245
100
AcDbEntity
  8
ASSI
100
AcDbLine
 62
250
  6
CONTINUOUS
 10
-22.4005031457
 20
-0.6597895569
 11
-22.4005031457
 21
-25.7347273126
  0
LINE
  5
246
100
AcDbEntity
  8
ASSI
100
AcDbLine
 62
250
  6
CONTINUOUS
 10
-21.9006744832
 20
0.3172412092
 11
-21.9006744832
 21
26.391931475
  0
LINE
  5
247
100
AcDbEntity
  8
ASSI
100
AcDbLine
 62
250
  6
CONTINUOUS
 10
-21.9006744832
 20
-0.1598657093
 11
-21.9006744832
 21
-26.2345559751
  0
LINE
  5
248
100
AcDbEntity
  8
ASSI
100
AcDbLine
 62
7
  6
CONTINUOUS
 10
-22.4868132888
 20
22.5422710237
 11
-22.4628715977
 21
25.9544712645
  0
LINE
  5
249
100
AcDbEntity
  8
CURVE
100
AcDbLine
 62
250
  6
CONTINUOUS
 10
-14.0389494207
 20
18.0834997499
 11
-14.3924164207
 21
17.7300327499
  0
LINE
  5
24A
100
AcDbEntity
  8
CURVE
100
AcDbLine
 62
7
  6
CONTINUOUS
 10
-14.0507981484
 20
17.3883313808
 11
-13.6973311484
 21
17.7417983808
  0
LINE
  5
24B
100
AcDbEntity
  8
CURVE
100
AcDbLine
 62
7
  6
CONTINUOUS
 10
-15.3873594207
 20
15.0561637606
 11
-15.1150664313
 21
15.3284567499
  0
LINE
  5
24C
100
AcDbEntity
  8
CURVE
100
AcDbLine
 62
7
  6
CONTINUOUS
 10
-13.5530555111
 20
16.8904676701
 11
-13.1995885111
 21
17.2439346701
  0
LINE
  5
24D
100
AcDbEntity
  8
CURVE
100
AcDbLine
 62
7
  6
CONTINUOUS
 10
-11.6372014207
 20
18.8063217606
 11
-11.3654244313
 21
19.0780987499
  0
LINE
  5
24E
100
AcDbEntity
  8
CURVE
100
AcDbLine
 62
7
  6
CONTINUOUS
 10
-14.6193430834
 20
14.8285737499
 11
-14.1194600834
 21
15.3284567499
  0
LINE
  5
24F
100
AcDbEntity
  8
CURVE
100
AcDbLine
 62
7
  6
CONTINUOUS
 10
-13.0553128739
 20
16.3926039594
 11
-12.7018458739
 21
16.7460709594
  0
LINE
  5
250
100
AcDbEntity
  8
CURVE
100
AcDbLine
 62
7
  6
CONTINUOUS
 10
-11.6372014207
 20
17.8107154127
 11
-11.1373174207
 21
18.3105994127
  0
LINE
  5
251
100
AcDbEntity
  8
CURVE
100
AcDbLine
 62
250
  6
CONTINUOUS
 10
-12.9782044207
 20
16.3154767499
 11
-12.6247374207
 21
16.6689437499
  0
LINE
  5
252
100
AcDbEntity
  8
CURVE
100
AcDbLine
 62
7
  6
CONTINUOUS
 10
-13.6237367355
 20
14.8285737499
 11
-13.3871374207
 21
15.0651730648
  0
LINE
  5
253
100
AcDbEntity
  8
CURVE
100
AcDbLine
 62
7
  6
CONTINUOUS
 10
-11.3737447355
 20
17.0785657499
 11
-11.1373174207
 21
17.3149930648
  0
LINE
  5
254
100
AcDbEntity
  8
CURVE
100
AcDbLine
 62
7
  6
CONTINUOUS
 10
-12.3869411049
 20
15.0697630326
 11
-11.3790175634
 21
16.0776865741
  0
LINE
  5
255
100
AcDbEntity
  8
CURVE
100
AcDbLine
 62
250
  6
CONTINUOUS
 10
-8.7355694207
 20
18.0834997499
 11
-10.1497814207
 21
16.6689437499
  0
LINE
  5
256
100
AcDbEntity
  8
CURVE
100
AcDbLine
 62
7
  6
CONTINUOUS
 10
-14.213430477
 20
12.2476673126
 11
-12.7993907302
 21
13.6617070594
  0
LINE
  5
257
100
AcDbEntity
  8
CURVE
100
AcDbLine
 62
7
  6
CONTINUOUS
 10
-12.0922001071
 20
14.3688976825
 11
-10.6781520542
 21
15.7829457354
  0
LINE
  5
258
100
AcDbEntity
  8
CURVE
100
AcDbLine
 62
7
  6
CONTINUOUS
 10
-9.9709677302
 20
16.4901300594
 11
-8.5565837302
 21
17.9045140594
  0
LINE
  5
259
100
AcDbEntity
  8
CURVE
100
AcDbLine
 62
250
  6
CONTINUOUS
 10
-9.7963144207
 20
16.3154767499
 11
-8.3821024207
 21
17.7300327499
  0
LINE
  5
25A
100
AcDbEntity
  8
CURVE
100
AcDbLine
 62
250
  6
CONTINUOUS
 10
-12.9782044207
 20
13.8405207499
 11
-14.3924164207
 21
12.4266527499
  0
LINE
  5
25B
100
AcDbEntity
  8
CURVE
100
AcDbLine
 62
250
  6
CONTINUOUS
 10
-14.0389494207
 20
12.0731867499
 11
-12.6247374207
 21
13.4870537499
  0
LINE
  5
25C
100
AcDbEntity
  8
CURVE
100
AcDbLine
 62
250
  6
CONTINUOUS
 10
-13.6150304207
 20
-13.9229232501
 11
-12.6628064207
 21
-14.4727612501
  0
LINE
  5
25D
100
AcDbEntity
  8
CURVE
100
AcDbLine
 62
250
  6
CONTINUOUS
 10
-10.3616544207
 20
-15.8011892501
 11
-9.4094304207
 21
-16.3510272501
  0
LINE
  5
25E
100
AcDbEntity
  8
CURVE
100
AcDbLine
 62
250
  6
CONTINUOUS
 10
-12.4128644207
 20
-14.0400572501
 11
-13.3649164207
 21
-13.4902192501
  0
LINE
  5
25F
100
AcDbEntity
  8
CURVE
100
AcDbLine
 62
250
  6
CONTINUOUS
 10
-9.1593164207
 20
-15.9183232501
 11
-10.1115404207
 21
-15.3684852501
  0
LINE
  5
260
100
AcDbEntity
  8
CURVE
100
AcDbLine
 62
250
  6
CONTINUOUS
 10
-13.6150304207
 20
-15.9183232501
 11
-13.3649164207
 21
-16.3510272501
  0
LINE
  5
261
100
AcDbEntity
  8
CURVE
100
AcDbLine
 62
250
  6
CONTINUOUS
 10
-12.4128644207
 20
-15.8011892501
 11
-12.6628064207
 21
-15.3684852501
  0
LINE
  5
262
100
AcDbEntity
  8
CURVE
100
AcDbLine
 62
7
  6
CONTINUOUS
 10
-11.3872594207
 20
14.078232021
 11
-10.3871482013
 21
15.0783432404
  0
LINE
  5
263
100
AcDbEntity
  8
CURVE
100
AcDbLine
 62
7
  6
CONTINUOUS
 10
-11.6372014207
 20
12.8326836731
 11
-11.3917643438
 21
13.0781207499
  0
LINE
  5
264
100
AcDbEntity
  8
CURVE
100
AcDbLine
 62
7
  6
CONTINUOUS
 10
-9.3873814207
 20
15.0825036731
 11
-9.1414283438
 21
15.3284567499
  0
LINE
  5
265
100
AcDbEntity
  8
CURVE
100
AcDbLine
 62
250
  6
CONTINUOUS
 10
-9.7963144207
 20
13.8405207499
 11
-10.1497814207
 21
13.4870537499
  0
LINE
  5
266
100
AcDbEntity
  8
CURVE
100
AcDbLine
 62
7
  6
CONTINUOUS
 10
-11.6372014207
 20
11.8370773252
 11
-11.1373174207
 21
12.3369613252
  0
LINE
  5
267
100
AcDbEntity
  8
CURVE
100
AcDbLine
 62
7
  6
CONTINUOUS
 10
-10.0684932931
 20
13.4057854528
 11
-9.7150263218
 21
13.759252424
  0
LINE
  5
268
100
AcDbEntity
  8
CURVE
100
AcDbLine
 62
7
  6
CONTINUOUS
 10
-8.6457049959
 20
14.8285737499
 11
-8.1458219959
 21
15.3284567499
  0
LINE
  5
269
100
AcDbEntity
  8
CURVE
100
AcDbLine
 62
250
  6
CONTINUOUS
 10
-11.6370284207
 20
-17.3487262501
 11
-11.1371454207
 21
-17.3487262501
  0
LINE
  5
26A
100
AcDbEntity
  8
CURVE
100
AcDbLine
 62
250
  6
CONTINUOUS
 10
-11.1371454207
 20
-16.2490522501
 11
-11.6370284207
 21
-16.2490522501
  0
LINE
  5
26B
100
AcDbEntity
  8
CURVE
100
AcDbLine
 62
250
  6
CONTINUOUS
 10
-10.3616544207
 20
-14.0400572501
 11
-10.1115404207
 21
-14.4727612501
  0
LINE
  5
26C
100
AcDbEntity
  8
CURVE
100
AcDbLine
 62
250
  6
CONTINUOUS
 10
-15.3873594207
 20
15.3284567499
 11
-15.3873594207
 21
14.8285737499
  0
LINE
  5
26D
100
AcDbEntity
  8
CURVE
100
AcDbLine
 62
7
  6
CONTINUOUS
 10
-11.400084648
 20
11.0785877499
 11
-11.1373174207
 21
11.3413549773
  0
LINE
  5
26E
100
AcDbEntity
  8
CURVE
100
AcDbLine
 62
7
  6
CONTINUOUS
 10
-9.5706293917
 20
12.9080430063
 11
-9.2171625964
 21
13.2615098015
  0
LINE
  5
26F
100
AcDbEntity
  8
CURVE
100
AcDbLine
 62
7
  6
CONTINUOUS
 10
-7.650098648
 20
14.8285737499
 11
-7.3871594207
 21
15.0915129773
  0
LINE
  5
270
100
AcDbEntity
  8
ASSI
100
AcDbLine
 62
7
  6
CONTINUOUS
 10
-21.4786842046
 20
0.2680623945
 11
-21.4680588492
 21
0.2786877499
  0
LINE
  5
271
100
AcDbEntity
  8
CURVE
100
AcDbLine
 62
7
  6
CONTINUOUS
 10
-9.0727654902
 20
12.4103005598
 11
-8.7192988711
 21
12.763767179
  0
LINE
  5
272
100
AcDbEntity
  8
CURVE
100
AcDbLine
 62
250
  6
CONTINUOUS
 10
-8.7355694207
 20
12.0731867499
 11
-8.3821024207
 21
12.4266527499
  0
LINE
  5
273
100
AcDbEntity
  8
CURVE
100
AcDbLine
 62
250
  6
CONTINUOUS
 10
-11.6370284207
 20
-13.5921942501
 11
-11.1371454207
 21
-13.5921942501
  0
LINE
  5
274
100
AcDbEntity
  8
ASSI
100
AcDbLine
 62
7
  6
CONTINUOUS
 10
-21.4786842046
 20
-0.1106868947
 11
-21.4680588492
 21
-0.1213122501
  0
LINE
  5
275
100
AcDbEntity
  8
CURVE
100
AcDbLine
 62
250
  6
CONTINUOUS
 10
-9.1593164207
 20
-13.9229232501
 11
-9.4094304207
 21
-13.4902192501
  0
LINE
  5
276
100
AcDbEntity
  8
CURVE
100
AcDbLine
 62
250
  6
CONTINUOUS
 10
-13.3871374207
 20
14.8285737499
 11
-13.3871374207
 21
15.3284567499
  0
LINE
  5
277
100
AcDbEntity
  8
CURVE
100
AcDbLine
 62
250
  6
CONTINUOUS
 10
-11.6372014207
 20
19.0780987499
 11
-11.6372014207
 21
17.0785657499
  0
LINE
  5
278
100
AcDbEntity
  8
CURVE
100
AcDbLine
 62
250
  6
CONTINUOUS
 10
-11.6372014207
 20
13.0781207499
 11
-11.6372014207
 21
11.0785877499
  0
LINE
  5
279
100
AcDbEntity
  8
CURVE
100
AcDbLine
 62
250
  6
CONTINUOUS
 10
-11.6370284207
 20
-12.4925202501
 11
-11.6370284207
 21
-13.5921942501
  0
LINE
  5
27A
100
AcDbEntity
  8
CURVE
100
AcDbLine
 62
250
  6
CONTINUOUS
 10
-11.6370284207
 20
-16.2490522501
 11
-11.6370284207
 21
-17.3487262501
  0
LINE
  5
27B
100
AcDbEntity
  8
ASSI
100
AcDbLine
 62
250
  6
CONTINUOUS
 10
-22.4872594207
 20
0.7593348824
 11
-22.4005031457
 21
0.8171650568
  0
LINE
  5
27C
100
AcDbEntity
  8
ASSI
100
AcDbLine
 62
250
  6
CONTINUOUS
 10
-21.9873165281
 20
0.2594871785
 11
-21.9006744832
 21
0.3172412092
  0
LINE
  5
27D
100
AcDbEntity
  8
CURVE
100
AcDbLine
 62
250
  6
CONTINUOUS
 10
-11.1371454207
 20
-12.4925202501
 11
-11.6370284207
 21
-12.4925202501
  0
LINE
  5
27E
100
AcDbEntity
  8
ASSI
100
AcDbLine
 62
250
  6
CONTINUOUS
 10
-22.4005031457
 20
-0.6597895569
 11
-22.4872594207
 21
-0.6019593825
  0
LINE
  5
27F
100
AcDbEntity
  8
ASSI
100
AcDbLine
 62
250
  6
CONTINUOUS
 10
-21.9006744832
 20
-0.1598657093
 11
-21.9873165281
 21
-0.1021116786
  0
LINE
  5
280
100
AcDbEntity
  8
CURVE
100
AcDbLine
 62
250
  6
CONTINUOUS
 10
-11.1373174207
 20
11.0785877499
 11
-11.1373174207
 21
13.0781207499
  0
LINE
  5
281
100
AcDbEntity
  8
CURVE
100
AcDbLine
 62
250
  6
CONTINUOUS
 10
-11.1373174207
 20
17.0785657499
 11
-11.1373174207
 21
19.0780987499
  0
LINE
  5
282
100
AcDbEntity
  8
CURVE
100
AcDbLine
 62
250
  6
CONTINUOUS
 10
-11.1371454207
 20
-17.3487262501
 11
-11.1371454207
 21
-16.2490522501
  0
LINE
  5
283
100
AcDbEntity
  8
CURVE
100
AcDbLine
 62
250
  6
CONTINUOUS
 10
-11.1371454207
 20
-13.5921942501
 11
-11.1371454207
 21
-12.4925202501
  0
LINE
  5
284
100
AcDbEntity
  8
CURVE
100
AcDbLine
 62
250
  6
CONTINUOUS
 10
-9.3873814207
 20
15.3284567499
 11
-9.3873814207
 21
14.8285737499
  0
LWPOLYLINE
  5
285
100
AcDbEntity
  8
0
100
AcDbPolyline
 62
7
  6
CONTINUOUS
 90
3
 70
0
 43
0.3500000019
 10
0.8984545898
 20
35.575861084
 10
0.8270244141
 20
35.3615759277
 10
0.6841694336
 20
35.0758632813
  0
LINE
  5
286
100
AcDbEntity
  8
CURVE
100
AcDbLine
 62
250
  6
CONTINUOUS
 10
-7.3871594207
 20
14.8285737499
 11
-7.3871594207
 21
15.3284567499
  0
LINE
  5
287
100
AcDbEntity
  8
CURVE
100
AcDbLine
 62
250
  6
CONTINUOUS
 10
-13.3649164207
 20
-13.4902192501
 11
-13.6150304207
 21
-13.9229232501
  0
LWPOLYLINE
  5
288
100
AcDbEntity
  8
0
100
AcDbPolyline
 62
7
  6
CONTINUOUS
 90
2
 70
0
 43
0.3500000019
 10
-3.5301142578
 20
35.2901484375
 10
-3.5301142578
 20
36.7901472168
  0
LINE
  5
289
100
AcDbEntity
  8
CURVE
100
AcDbLine
 62
250
  6
CONTINUOUS
 10
-12.6628064207
 20
-14.4727612501
 11
-12.4128644207
 21
-14.0400572501
  0
LINE
  5
28A
100
AcDbEntity
  8
ASSI
100
AcDbLine
 62
250
  6
CONTINUOUS
 10
21.6261556419
 20
26.391931475
 11
21.6850414835
 21
26.4508173166
  0
LINE
  5
28B
100
AcDbEntity
  8
ASSI
100
AcDbLine
 62
250
  6
CONTINUOUS
 10
22.1259843044
 20
25.8921028125
 11
22.1883527563
 21
25.9544712645
  0
LINE
  5
28C
100
AcDbEntity
  8
ASSI
100
AcDbLine
 62
250
  6
CONTINUOUS
 10
21.6850414835
 20
-26.2934418167
 11
21.6261556419
 21
-26.2345559751
  0
LINE
  5
28D
100
AcDbEntity
  8
ASSI
100
AcDbLine
 62
250
  6
CONTINUOUS
 10
22.1883527563
 20
-25.7970957646
 11
22.1259843044
 21
-25.7347273126
  0
LWPOLYLINE
  5
28E
100
AcDbEntity
  8
0
100
AcDbPolyline
 62
7
  6
CONTINUOUS
 90
2
 70
0
 43
0.3500000019
 10
-1.172972168
 20
35.2901484375
 10
-1.172972168
 20
36.7901472168
  0
LINE
  5
28F
100
AcDbEntity
  8
CURVE
100
AcDbLine
 62
250
  6
CONTINUOUS
 10
-10.1115404207
 20
-15.3684852501
 11
-10.3616544207
 21
-15.8011892501
  0
LINE
  5
290
100
AcDbEntity
  8
CURVE
100
AcDbLine
 62
250
  6
CONTINUOUS
 10
-9.4094304207
 20
-16.3510272501
 11
-9.1593164207
 21
-15.9183232501
  0
LINE
  5
291
100
AcDbEntity
  8
CURVE
100
AcDbLine
 62
7
  6
CONTINUOUS
 10
-13.4691161244
 20
-13.6704875622
 11
-13.3166963308
 21
-13.5180677686
  0
LWPOLYLINE
  5
292
100
AcDbEntity
  8
ASSI
100
AcDbPolyline
 62
250
  6
CONTINUOUS
 90
16
 70
0
 10
21.6261556419
 20
0.3172412092
 10
21.6783868296
 20
0.3200021195
 10
21.730046094
 20
0.3282068858
 10
21.7805677742
 20
0.3417656673
 10
21.8293986658
 20
0.3605299975
 10
21.8760040782
 20
0.38429441
 10
21.9198736895
 20
0.412798688
 10
21.9605271342
 20
0.4457307143
 10
21.9975192637
 20
0.4827298883
 10
22.0304450197
 20
0.5233910749
 10
22.0589438706
 20
0.5672690405
 10
22.0827037583
 20
0.6138833283
 10
22.1014645158
 20
0.662723519
 10
22.1150207157
 20
0.7132548204
 10
22.1232239199
 20
0.7649239225
 10
22.1259843044
 20
0.8171650568
  0
LINE
  5
293
100
AcDbEntity
  8
ASSI
100
AcDbLine
 62
250
  6
CONTINUOUS
 10
-22.4005031457
 20
-0.6597895569
 11
22.1259843044
 21
-0.6597895569
  0
LINE
  5
294
100
AcDbEntity
  8
ASSI
100
AcDbLine
 62
250
  6
CONTINUOUS
 10
21.6261556419
 20
-0.1598657093
 11
-21.9006744832
 21
-0.1598657093
  0
LINE
  5
295
100
AcDbEntity
  8
ASSI
100
AcDbLine
 62
7
  6
CONTINUOUS
 10
-21.4680588492
 20
-0.1213122501
 11
21.1935400079
 21
-0.1213122501
  0
LINE
  5
296
100
AcDbEntity
  8
ASSI
100
AcDbLine
 62
7
  6
CONTINUOUS
 10
-21.9873165281
 20
-0.1021116786
 11
-21.9786080522
 21
-0.1021116786
  0
LINE
  5
297
100
AcDbEntity
  8
ASSI
100
AcDbLine
 62
7
  6
CONTINUOUS
 10
21.7040892109
 20
-0.1021116786
 11
21.7127976868
 21
-0.1021116786
  0
LINE
  5
298
100
AcDbEntity
  8
ASSI
100
AcDbLine
 62
7
  6
CONTINUOUS
 10
21.7127976868
 20
0.2594871785
 11
21.7040892109
 21
0.2594871785
  0
LINE
  5
299
100
AcDbEntity
  8
ASSI
100
AcDbLine
 62
7
  6
CONTINUOUS
 10
-21.9786080522
 20
0.2594871785
 11
-21.9873165281
 21
0.2594871785
  0
LINE
  5
29A
100
AcDbEntity
  8
ASSI
100
AcDbLine
 62
7
  6
CONTINUOUS
 10
21.1935400079
 20
0.2786877499
 11
-21.4680588492
 21
0.2786877499
  0
LINE
  5
29B
100
AcDbEntity
  8
ASSI
100
AcDbLine
 62
250
  6
CONTINUOUS
 10
-21.9006744832
 20
0.3172412092
 11
21.6261556419
 21
0.3172412092
  0
LINE
  5
29C
100
AcDbEntity
  8
CURVE
100
AcDbLine
 62
250
  6
CONTINUOUS
 10
-14.3924164207
 20
12.4266527499
 11
-14.0389494207
 21
12.0731867499
  0
LWPOLYLINE
  5
29D
100
AcDbEntity
  8
0
100
AcDbPolyline
 62
7
  6
CONTINUOUS
 90
4
 70
0
 43
0.3500000019
 10
1.8984555664
 20
37.6472905273
 10
1.8984555664
 20
38.2901486816
 10
3.3984570313
 20
38.2901486816
 10
2.5413110352
 20
35.2901484375
  0
LINE
  5
29E
100
AcDbEntity
  8
CURVE
100
AcDbLine
 62
7
  6
CONTINUOUS
 10
-13.0513998692
 20
-14.2483776549
 11
-12.6855788623
 21
-13.882556648
  0
LINE
  5
29F
100
AcDbEntity
  8
CURVE
100
AcDbLine
 62
7
  6
CONTINUOUS
 10
-11.6370284207
 20
-12.8340062063
 11
-11.2955424644
 21
-12.4925202501
  0
LINE
  5
2A0
100
AcDbEntity
  8
CURVE
100
AcDbLine
 62
7
  6
CONTINUOUS
 10
-11.3996101165
 20
-13.5921942501
 11
-11.1371454207
 21
-13.3297295542
  0
LINE
  5
2A1
100
AcDbEntity
  8
CURVE
100
AcDbLine
 62
7
  6
CONTINUOUS
 10
-12.8865881254
 20
-16.0747786069
 11
-12.4861410226
 21
-15.674331504
  0
LINE
  5
2A2
100
AcDbEntity
  8
CURVE
100
AcDbLine
 62
7
  6
CONTINUOUS
 10
-11.9860020081
 20
-15.1741924896
 11
-11.1340341811
 21
-14.3222246626
  0
LINE
  5
2A3
100
AcDbEntity
  8
ASSI
100
AcDbLine
 62
250
  6
CONTINUOUS
 10
-22.4005031457
 20
-25.7347273126
 11
-22.4628715977
 21
-25.7970957646
  0
LWPOLYLINE
  5
2A4
100
AcDbEntity
  8
ASSI
100
AcDbPolyline
 62
250
  6
CONTINUOUS
 90
16
 70
0
 10
-21.9006744832
 20
-0.1598657093
 10
-21.9529056709
 20
-0.1626266196
 10
-22.0045649353
 20
-0.1708313859
 10
-22.0550866155
 20
-0.1843901674
 10
-22.1039175071
 20
-0.2031544976
 10
-22.1505229195
 20
-0.2269189101
 10
-22.1943925308
 20
-0.2554231881
 10
-22.2350459755
 20
-0.2883552144
 10
-22.272038105
 20
-0.3253543884
 10
-22.304963861
 20
-0.366015575
 10
-22.3334627119
 20
-0.4098935406
 10
-22.3572225996
 20
-0.4565078284
 10
-22.3759833571
 20
-0.5053480191
 10
-22.389539557
 20
-0.5558793205
 10
-22.3977427612
 20
-0.6075484226
 10
-22.4005031457
 20
-0.6597895569
  0
LINE
  5
2A5
100
AcDbEntity
  8
ASSI
100
AcDbLine
 62
250
  6
CONTINUOUS
 10
-22.4005031457
 20
0.8171650568
 11
22.1259843044
 21
0.8171650568
  0
LWPOLYLINE
  5
2A6
100
AcDbEntity
  8
0
100
AcDbPolyline
 62
7
  6
CONTINUOUS
 90
4
 70
0
 43
0.3500000019
 10
27.1599609375
 20
2.00725914
 10
26.5171054688
 20
2.00725914
 10
26.5171054688
 20
3.5072590942
 10
29.5171083984
 20
2.6501162872
  0
LINE
  5
2A7
100
AcDbEntity
  8
CURVE
100
AcDbLine
 62
250
  6
CONTINUOUS
 10
-12.6247374207
 20
13.4870537499
 11
-12.9782044207
 21
13.8405207499
  0
LINE
  5
2A8
100
AcDbEntity
  8
CURVE
100
AcDbLine
 62
250
  6
CONTINUOUS
 10
-10.1497814207
 20
13.4870537499
 11
-8.7355694207
 21
12.0731867499
  0
LINE
  5
2A9
100
AcDbEntity
  8
ASSI
100
AcDbLine
 62
250
  6
CONTINUOUS
 10
-22.4628715977
 20
25.9544712645
 11
-22.4005031457
 21
25.8921028125
  0
LINE
  5
2AA
100
AcDbEntity
  8
CURVE
100
AcDbLine
 62
250
  6
CONTINUOUS
 10
-14.3924164207
 20
17.7300327499
 11
-12.9782044207
 21
16.3154767499
  0
LINE
  5
2AB
100
AcDbEntity
  8
CURVE
100
AcDbLine
 62
7
  6
CONTINUOUS
 10
-11.3872594207
 20
-15.5710562501
 11
-10.7371704207
 21
-14.9209672501
  0
LINE
  5
2AC
100
AcDbEntity
  8
CURVE
100
AcDbLine
 62
7
  6
CONTINUOUS
 10
-10.1765302515
 20
-14.3603270809
 11
-9.3716989272
 21
-13.5554957566
  0
LINE
  5
2AD
100
AcDbEntity
  8
ASSI
100
AcDbLine
 62
250
  6
CONTINUOUS
 10
-21.9006744832
 20
-26.2345559751
 11
-21.9595603248
 21
-26.2934418167
  0
LINE
  5
2AE
100
AcDbEntity
  8
CURVE
100
AcDbLine
 62
7
  6
CONTINUOUS
 10
-11.6370284207
 20
-16.816431598
 11
-11.1371454207
 21
-16.316548598
  0
LINE
  5
2AF
100
AcDbEntity
  8
CURVE
100
AcDbLine
 62
7
  6
CONTINUOUS
 10
-11.1737167248
 20
-17.3487262501
 11
-11.1371454207
 21
-17.3121549459
  0
LINE
  5
2B0
100
AcDbEntity
  8
CURVE
100
AcDbLine
 62
7
  6
CONTINUOUS
 10
-9.8954042547
 20
-16.0704137799
 11
-9.5295383216
 21
-15.7045478468
  0
LINE
  5
2B1
100
AcDbEntity
  8
CURVE
100
AcDbLine
 62
250
  6
CONTINUOUS
 10
-8.3821024207
 20
12.4266527499
 11
-9.7963144207
 21
13.8405207499
  0
LINE
  5
2B2
100
AcDbEntity
  8
ASSI
100
AcDbLine
 62
250
  6
CONTINUOUS
 10
-21.9595603248
 20
26.4508173166
 11
-21.9006744832
 21
26.391931475
  0
LINE
  5
2B3
100
AcDbEntity
  8
CURVE
100
AcDbLine
 62
250
  6
CONTINUOUS
 10
-10.1497814207
 20
16.6689437499
 11
-9.7963144207
 21
16.3154767499
  0
LINE
  5
2B4
100
AcDbEntity
  8
CURVE
100
AcDbLine
 62
250
  6
CONTINUOUS
 10
-12.6247374207
 20
16.6689437499
 11
-14.0389494207
 21
18.0834997499
  0
LINE
  5
2B5
100
AcDbEntity
  8
CURVE
100
AcDbLine
 62
250
  6
CONTINUOUS
 10
-12.6628064207
 20
-15.3684852501
 11
-13.6150304207
 21
-15.9183232501
  0
LINE
  5
2B6
100
AcDbEntity
  8
CURVE
100
AcDbLine
 62
250
  6
CONTINUOUS
 10
-9.4094304207
 20
-13.4902192501
 11
-10.3616544207
 21
-14.0400572501
  0
LINE
  5
2B7
100
AcDbEntity
  8
CURVE
100
AcDbLine
 62
250
  6
CONTINUOUS
 10
-8.3821024207
 20
17.7300327499
 11
-8.7355694207
 21
18.0834997499
  0
LINE
  5
2B8
100
AcDbEntity
  8
CURVE
100
AcDbLine
 62
250
  6
CONTINUOUS
 10
-13.3649164207
 20
-16.3510272501
 11
-12.4128644207
 21
-15.8011892501
  0
LINE
  5
2B9
100
AcDbEntity
  8
CURVE
100
AcDbLine
 62
250
  6
CONTINUOUS
 10
-10.1115404207
 20
-14.4727612501
 11
-9.1593164207
 21
-13.9229232501
  0
LINE
  5
2BA
100
AcDbEntity
  8
CURVE
100
AcDbLine
 62
250
  6
CONTINUOUS
 10
-11.6372014207
 20
11.0785877499
 11
-11.1373174207
 21
11.0785877499
  0
LWPOLYLINE
  5
2BB
100
AcDbEntity
  8
0
100
AcDbPolyline
 62
7
  6
CONTINUOUS
 90
3
 70
0
 43
0.3500000019
 10
29.2313876953
 20
1.0072591705
 10
29.4456835938
 20
0.9358305893
 10
29.7313935547
 20
0.7929734268
  0
LINE
  5
2BC
100
AcDbEntity
  8
ASSI
100
AcDbLine
 62
250
  6
CONTINUOUS
 10
21.7127976868
 20
-0.1021116786
 11
21.6261556419
 21
-0.1598657093
  0
LINE
  5
2BD
100
AcDbEntity
  8
ASSI
100
AcDbLine
 62
250
  6
CONTINUOUS
 10
22.2127405793
 20
-0.6019593825
 11
22.1259843044
 21
-0.6597895569
  0
LWPOLYLINE
  5
2BE
100
AcDbEntity
  8
0
100
AcDbPolyline
 62
7
  6
CONTINUOUS
 90
10
 70
0
 43
0.3500000019
 10
29.0171025391
 20
0.9358305893
 10
29.1599628906
 20
1.0072591705
 10
29.2313876953
 20
1.0072591705
 10
29.3742480469
 20
0.8644020081
 10
29.3742480469
 20
0.7929734268
 10
29.3028232422
 20
0.7215449295
 10
29.2313876953
 20
0.7215449295
 10
29.0885380859
 20
0.7929734268
 10
29.0171025391
 20
0.8644020081
 10
29.0171025391
 20
0.9358305893
  0
LINE
  5
2BF
100
AcDbEntity
  8
CURVE
100
AcDbLine
 62
250
  6
CONTINUOUS
 10
-11.1373174207
 20
13.0781207499
 11
-11.6372014207
 21
13.0781207499
  0
LINE
  5
2C0
100
AcDbEntity
  8
ASSI
100
AcDbLine
 62
250
  6
CONTINUOUS
 10
21.6261556419
 20
0.3172412092
 11
21.7127976868
 21
0.2594871785
  0
LINE
  5
2C1
100
AcDbEntity
  8
ASSI
100
AcDbLine
 62
250
  6
CONTINUOUS
 10
22.1259843044
 20
0.8171650568
 11
22.2127405793
 21
0.7593348824
  0
LINE
  5
2C2
100
AcDbEntity
  8
ASSI
100
AcDbLine
 62
7
  6
CONTINUOUS
 10
21.2041653633
 20
-0.1106868947
 11
21.1935400079
 21
-0.1213122501
  0
LWPOLYLINE
  5
2C3
100
AcDbEntity
  8
CURVE
100
AcDbPolyline
 62
250
  6
CONTINUOUS
 90
81
 70
0
 10
-11.3872594207
 20
14.078232021
 10
-11.3467013905
 20
14.0790484397
 10
-11.3062113686
 20
14.0814885674
 10
-11.2658573181
 20
14.0855517965
 10
-11.225707202
 20
14.0912375191
 10
-11.1858289834
 20
14.0985451274
 10
-11.1474454426
 20
14.1071866237
 10
-11.1094342979
 20
14.1173437306
 10
-11.071847767
 20
14.129004673
 10
-11.0347380676
 20
14.1421576759
 10
-10.9981574174
 20
14.156790964
 10
-10.9630321865
 20
14.1724775342
 10
-10.9285112837
 20
14.1895284046
 10
-10.8946458745
 20
14.2079103665
 10
-10.8614871238
 20
14.2275902114
 10
-10.8290861969
 20
14.2485347305
 10
-10.7974942589
 20
14.2707107152
 10
-10.766762475
 20
14.2940849569
 10
-10.7369420104
 20
14.3186242469
 10
-10.7080840303
 20
14.3442953766
 10
-10.6802396997
 20
14.3710651373
 10
-10.6534528632
 20
14.3989020262
 10
-10.6277645285
 20
14.4277535187
 10
-10.6032080301
 20
14.4575684427
 10
-10.5798167021
 20
14.4882956264
 10
-10.557623879
 20
14.519883898
 10
-10.5366628951
 20
14.5522820855
 10
-10.5169670847
 20
14.585439017
 10
-10.4985697821
 20
14.6193035208
 10
-10.4815043216
 20
14.6538244248
 10
-10.4658040376
 20
14.6889505573
 10
-10.4511521789
 20
14.7255476399
 10
-10.4379826982
 20
14.762675007
 10
-10.4263072462
 20
14.800280276
 10
-10.4161374734
 20
14.8383110645
 10
-10.4074850306
 20
14.8767149899
 10
-10.4001651474
 20
14.916631721
 10
-10.3944705639
 20
14.9568210615
 10
-10.3904022391
 20
14.9972148615
 10
-10.3879611318
 20
15.0377449711
 10
-10.3871482013
 20
15.0783432404
 10
-10.3879632403
 20
15.1189188422
 10
-10.3904050197
 20
15.1594262753
 10
-10.3944729624
 20
15.199797361
 10
-10.4001664916
 20
15.2399639207
 10
-10.4074850306
 20
15.2798577758
 10
-10.4161375005
 20
15.3182448784
 10
-10.4263075561
 20
15.3562586728
 10
-10.4379832775
 20
15.3938468137
 10
-10.4511527446
 20
15.4309569559
 10
-10.4658040376
 20
15.467536754
 10
-10.4815061973
 20
15.5026527739
 10
-10.4985732462
 20
15.5371633867
 10
-10.5169718014
 20
15.5710174778
 10
-10.5366684799
 20
15.6041639327
 10
-10.5576298989
 20
15.6365516372
 10
-10.5798226755
 20
15.6681294768
 10
-10.6032134268
 20
15.6988463371
 10
-10.6277687698
 20
15.7286511036
 10
-10.6534553218
 20
15.7574926619
 10
-10.6802396997
 20
15.7853198977
 10
-10.7080855747
 20
15.8120847086
 10
-10.7369447363
 20
15.8377509485
 10
-10.7667660267
 20
15.8622854848
 10
-10.7974982883
 20
15.8856551848
 10
-10.8290903632
 20
15.9078269158
 10
-10.8614910938
 20
15.9287675449
 10
-10.8946493222
 20
15.9484439397
 10
-10.9285138908
 20
15.9668229673
 10
-10.9630336418
 20
15.983871495
 10
-10.9981574174
 20
15.9995563902
 10
-11.0347382963
 20
16.0141894377
 10
-11.0718480439
 20
16.0273425618
 10
-11.1094345098
 20
16.0390037285
 10
-11.1474455433
 20
16.049160904
 10
-11.185828994
 20
16.0578020544
 10
-11.2257501802
 20
16.065115677
 10
-11.2659438499
 20
16.0708035497
 10
-11.3063418018
 20
16.0748654006
 10
-11.3468758348
 20
16.0773009581
 10
-11.3874777476
 20
16.0781099502
  0
LWPOLYLINE
  5
2C4
100
AcDbEntity
  8
CURVE
100
AcDbPolyline
 62
250
  6
CONTINUOUS
 90
81
 70
0
 10
-11.3874777476
 20
16.0781099502
 10
-11.4280512442
 20
16.0772934543
 10
-11.4685566488
 20
16.0748534004
 10
-11.5089261885
 20
16.0707908049
 10
-11.5490920908
 20
16.0651066841
 10
-11.5889865831
 20
16.0578020544
 10
-11.6273978744
 20
16.0491621652
 10
-11.665437021
 20
16.0390066597
 10
-11.703051608
 20
16.0273465323
 10
-11.7401892205
 20
16.0141927776
 10
-11.7767974438
 20
15.9995563902
 10
-11.8119198876
 20
15.9838776052
 10
-11.8464381796
 20
15.9668338138
 10
-11.880300917
 20
15.9484581547
 10
-11.9134566969
 20
15.9287837667
 10
-11.9458541166
 20
15.9078437884
 10
-11.9774417733
 20
15.8856713586
 10
-12.0081682643
 20
15.8622996159
 10
-12.0379821867
 20
15.837761699
 10
-12.0668321378
 20
15.8120907467
 10
-12.0946667149
 20
15.7853198977
 10
-12.121431021
 20
15.7574923938
 10
-12.1470959388
 20
15.7286500093
 10
-12.1716283252
 20
15.6988440903
 10
-12.1949950373
 20
15.6681259826
 10
-12.2171629321
 20
15.6365470324
 10
-12.2380988667
 20
15.6041585857
 10
-12.2577696981
 20
15.5710119884
 10
-12.2761422834
 20
15.5371585867
 10
-12.2931834796
 20
15.5026497266
 10
-12.3088601437
 20
15.467536754
 10
-12.3234887116
 20
15.4309543181
 10
-12.3366360104
 20
15.3938428848
 10
-12.3482906309
 20
15.3562547717
 10
-12.3584411643
 20
15.3182422962
 10
-12.3670762016
 20
15.2798577758
 10
-12.3743803336
 20
15.2399624554
 10
-12.3800621012
 20
15.1997954073
 10
-12.3841212467
 20
15.1594245658
 10
-12.3865575122
 20
15.1189178654
 10
-12.38737064
 20
15.0783432404
 10
-12.3865596155
 20
15.0377459476
 10
-12.3841240204
 20
14.9972165703
 10
-12.3800644936
 20
14.9568230144
 10
-12.3743816743
 20
14.9166331857
 10
-12.3670762016
 20
14.8767149899
 10
-12.3584411914
 20
14.8383136464
 10
-12.3482909404
 20
14.800284177
 10
-12.3366365886
 20
14.7626789361
 10
-12.3234892764
 20
14.725550278
 10
-12.3088601437
 20
14.6889505573
 10
-12.2931853525
 20
14.653827473
 10
-12.2761457433
 20
14.6193083221
 10
-12.2577744101
 20
14.5854445081
 10
-12.2381044471
 20
14.5522874345
 10
-12.2171689485
 20
14.5198885048
 10
-12.1950010083
 20
14.4882991225
 10
-12.1716337207
 20
14.4575706911
 10
-12.1471001798
 20
14.4277546141
 10
-12.1214334798
 20
14.398902295
 10
-12.0946667149
 20
14.3710651373
 10
-12.0668336827
 20
14.3442893401
 10
-12.0379849133
 20
14.3186134992
 10
-12.0081718169
 20
14.2940708293
 10
-11.9774458036
 20
14.2706945451
 10
-11.9458582837
 20
14.2485178612
 10
-11.9134606675
 20
14.2275739926
 10
-11.8803043652
 20
14.2078961538
 10
-11.8464407869
 20
14.1895175596
 10
-11.8119213431
 20
14.1724714248
 10
-11.7767974438
 20
14.156790964
 10
-11.7401894497
 20
14.1421543351
 10
-11.7030518855
 20
14.1290007014
 10
-11.6654372334
 20
14.1173407986
 10
-11.6273979755
 20
14.1071853621
 10
-11.5889865936
 20
14.0985451275
 10
-11.5490489079
 20
14.0912325346
 10
-11.5088393745
 20
14.0855435702
 10
-11.4684259667
 20
14.0814795915
 10
-11.4278766576
 20
14.079041956
 10
-11.3872594207
 20
14.078232021
  0
LINE
  5
2C5
100
AcDbEntity
  8
CURVE
100
AcDbLine
 62
250
  6
CONTINUOUS
 10
-15.3873594207
 20
14.8285737499
 11
-13.3871374207
 21
14.8285737499
  0
LINE
  5
2C6
100
AcDbEntity
  8
CURVE
100
AcDbLine
 62
250
  6
CONTINUOUS
 10
-9.3873814207
 20
14.8285737499
 11
-7.3871594207
 21
14.8285737499
  0
LINE
  5
2C7
100
AcDbEntity
  8
CURVE
100
AcDbLine
 62
250
  6
CONTINUOUS
 10
-7.3871594207
 20
15.3284567499
 11
-9.3873814207
 21
15.3284567499
  0
LINE
  5
2C8
100
AcDbEntity
  8
CURVE
100
AcDbLine
 62
250
  6
CONTINUOUS
 10
-13.3871374207
 20
15.3284567499
 11
-15.3873594207
 21
15.3284567499
  0
LINE
  5
2C9
100
AcDbEntity
  8
ASSI
100
AcDbLine
 62
7
  6
CONTINUOUS
 10
21.2041653633
 20
0.2680623945
 11
21.1935400079
 21
0.2786877499
  0
LINE
  5
2CA
100
AcDbEntity
  8
CURVE
100
AcDbLine
 62
250
  6
CONTINUOUS
 10
-11.6372014207
 20
17.0785657499
 11
-11.1373174207
 21
17.0785657499
  0
LWPOLYLINE
  5
2CB
100
AcDbEntity
  8
0
100
AcDbPolyline
 62
7
  6
CONTINUOUS
 90
10
 70
0
 43
0.3500000019
 10
0.8270244141
 20
35.7901489258
 10
0.8984545898
 20
35.6472912598
 10
0.8984545898
 20
35.575861084
 10
0.7555996094
 20
35.4330061035
 10
0.6841694336
 20
35.4330061035
 10
0.6127392578
 20
35.5044335938
 10
0.6127392578
 20
35.575861084
 10
0.6841694336
 20
35.71871875
 10
0.7555996094
 20
35.7901489258
 10
0.8270244141
 20
35.7901489258
  0
LINE
  5
2CC
100
AcDbEntity
  8
CURVE
100
AcDbLine
 62
250
  6
CONTINUOUS
 10
-11.1373174207
 20
19.0780987499
 11
-11.6372014207
 21
19.0780987499
  0
LWPOLYLINE
  5
2CD
100
AcDbEntity
  8
ASSI
100
AcDbPolyline
 62
250
  6
CONTINUOUS
 90
16
 70
0
 10
22.1259843044
 20
-0.6597895569
 10
22.1232067816
 20
-0.6073862436
 10
22.1149527251
 20
-0.5555604899
 10
22.1013131335
 20
-0.5048833055
 10
22.0824357891
 20
-0.4559073273
 10
22.058530088
 20
-0.4091783911
 10
22.0298705884
 20
-0.3652266004
 10
21.996785905
 20
-0.3245416104
 10
21.9596385545
 20
-0.287556838
 10
21.9188271327
 20
-0.2546645543
 10
21.8747352681
 20
-0.2261883757
 10
21.8279052745
 20
-0.2024919281
 10
21.7790521151
 20
-0.1838997357
 10
21.7288013126
 20
-0.1705679152
 10
21.6776495294
 20
-0.1625493501
 10
21.6261556419
 20
-0.1598657093
  0
LINE
  5
2CE
100
AcDbEntity
  8
ASSI
100
AcDbLine
 62
7
  6
CONTINUOUS
 10
22.2122944475
 20
22.5422710237
 11
22.1883527563
 21
25.9544712645
  0
LINE
  5
2CF
100
AcDbEntity
  8
ASSI
100
AcDbLine
 62
250
  6
CONTINUOUS
 10
21.6261556419
 20
-0.1598657093
 11
21.6261556419
 21
-26.2345559751
  0
LINE
  5
2D0
100
AcDbEntity
  8
ASSI
100
AcDbLine
 62
250
  6
CONTINUOUS
 10
21.6261556419
 20
0.3172412092
 11
21.6261556419
 21
26.391931475
  0
LINE
  5
2D1
100
AcDbEntity
  8
ASSI
100
AcDbLine
 62
250
  6
CONTINUOUS
 10
22.1259843044
 20
-25.7347273126
 11
22.1259843044
 21
-0.6597895569
  0
LINE
  5
2D2
100
AcDbEntity
  8
ASSI
100
AcDbLine
 62
250
  6
CONTINUOUS
 10
22.1259843044
 20
0.8171650568
 11
22.1259843044
 21
25.8921028125
  0
LINE
  5
2D3
100
AcDbEntity
  8
ASSI
100
AcDbLine
 62
7
  6
CONTINUOUS
 10
22.2127405793
 20
-22.2554860013
 11
22.2127405793
 21
-0.6019593825
  0
LINE
  5
2D4
100
AcDbEntity
  8
ASSI
100
AcDbLine
 62
7
  6
CONTINUOUS
 10
22.2127405793
 20
0.7593348824
 11
22.2127405793
 21
22.4128615012
  0
LINE
  5
2D5
100
AcDbEntity
  8
ASSI
100
AcDbLine
 62
7
  6
CONTINUOUS
 10
22.2122944475
 20
-22.3848955238
 11
22.1883527563
 21
-25.7970957646
  0
LWPOLYLINE
  5
2D6
100
AcDbEntity
  8
ASSI
100
AcDbPolyline
 62
250
  6
CONTINUOUS
 90
16
 70
0
 10
-21.9006744832
 20
26.391931475
 10
-21.9521748314
 20
26.389235912
 10
-22.0033290088
 20
26.3812060031
 10
-22.053578247
 20
26.3678647649
 10
-22.1024250603
 20
26.3492668905
 10
-22.149245837
 20
26.3255694316
 10
-22.1933296261
 20
26.2970956856
 10
-22.2341354725
 20
26.2642081868
 10
-22.2712787409
 20
26.2272310929
 10
-22.3043607986
 20
26.1865567945
 10
-22.3330192647
 20
26.1426187755
 10
-22.356925986
 20
26.0959062093
 10
-22.3758067817
 20
26.0469484218
 10
-22.3894523389
 20
25.9962906676
 10
-22.3977148106
 20
25.9444852817
 10
-22.4005031457
 20
25.8921028125
  0
LINE
  5
2D7
100
AcDbEntity
  8
ASSI
100
AcDbLine
 62
250
  6
CONTINUOUS
 10
-22.4005031457
 20
25.8921028125
 11
22.1259843044
 21
25.8921028125
  0
LINE
  5
2D8
100
AcDbEntity
  8
ASSI
100
AcDbLine
 62
250
  6
CONTINUOUS
 10
21.6261556419
 20
26.391931475
 11
-21.9006744832
 21
26.391931475
  0
LINE
  5
2D9
100
AcDbEntity
  8
ASSI
100
AcDbLine
 62
7
  6
CONTINUOUS
 10
21.6850414835
 20
26.4508173166
 11
-21.9595603248
 21
26.4508173166
  0
LWPOLYLINE
  5
2DA
100
AcDbEntity
  8
ASSI
100
AcDbPolyline
 62
250
  6
CONTINUOUS
 90
16
 70
0
 10
21.6261556419
 20
26.391931475
 10
21.6776673595
 20
26.3892347264
 10
21.7288301365
 20
26.3812017984
 10
21.7790850361
 20
26.3678565111
 10
21.827934428
 20
26.3492544251
 10
21.8747550069
 20
26.3255533545
 10
21.9188365099
 20
26.2970770865
 10
21.9596378416
 20
26.2641891752
 10
21.9967754699
 20
26.2272138759
 10
22.0298528489
 20
26.1865418685
 10
22.0585081285
 20
26.1426054878
 10
22.0824123612
 20
26.0958945451
 10
22.1012910506
 20
26.0469388958
 10
22.1149349306
 20
25.9962839649
 10
22.1231963399
 20
25.9444817874
 10
22.1259843044
 20
25.8921028125
  0
LWPOLYLINE
  5
2DB
100
AcDbEntity
  8
0
100
AcDbPolyline
 62
7
  6
CONTINUOUS
 90
8
 70
0
 43
0.3500000019
 10
29.5171083984
 20
-4.2070266724
 10
29.5171083984
 20
-3.3498836975
 10
29.0885380859
 20
-2.9213123779
 10
28.2313974609
 20
-2.9213123779
 10
27.8028164063
 20
-3.3498836975
 10
27.8028164063
 20
-4.2070266724
 10
26.5171054688
 20
-4.2070266724
 10
26.5171054688
 20
-2.9213123779
  0
LWPOLYLINE
  5
2DC
100
AcDbEntity
  8
0
100
AcDbPolyline
 62
7
  6
CONTINUOUS
 90
7
 70
0
 43
0.3500000019
 10
29.5171083984
 20
-0.5641694069
 10
29.5171083984
 20
-2.0641694031
 10
27.3742460938
 20
-0.5641694069
 10
26.9456757813
 20
-0.5641694069
 10
26.5171054688
 20
-0.9927408524
 10
26.5171054688
 20
-1.6355979156
 10
27.1599609375
 20
-2.0641694031
  0
LWPOLYLINE
  5
2DD
100
AcDbEntity
  8
0
100
AcDbPolyline
 62
7
  6
CONTINUOUS
 90
3
 70
0
 43
0.3500000019
 10
-0.6729716797
 20
35.9330039063
 10
-2.1729731445
 20
35.9330039063
 10
-1.5301176758
 20
38.2901486816
  0
LWPOLYLINE
  5
2DE
100
AcDbEntity
  8
0
100
AcDbPolyline
 62
7
  6
CONTINUOUS
 90
3
 70
0
 43
0.3500000019
 10
-3.0301191406
 20
35.9330039063
 10
-4.5301152344
 20
35.9330039063
 10
-3.8872597656
 20
38.2901486816
  0
LWPOLYLINE
  5
2DF
100
AcDbEntity
  8
0
100
AcDbPolyline
 62
7
  6
CONTINUOUS
 90
5
 70
0
 43
0.3500000019
 10
-34.9197744141
 20
36.9251657715
 10
-34.5626315918
 20
37.1394509277
 10
-34.5626315918
 20
37.782309082
 10
-34.9197744141
 20
38.2108793945
 10
-35.7769150391
 20
38.2108793945
  0
LINE
  5
2E0
100
AcDbEntity
  8
ASSI
100
AcDbLine
 62
7
  6
CONTINUOUS
 10
-40.4525921197
 20
-26.2934418167
 11
-42.7013516843
 21
-26.2345559751
  0
LINE
  5
2E1
100
AcDbEntity
  8
ASSI
100
AcDbLine
 62
250
  6
CONTINUOUS
 10
-43.1882632101
 20
-25.7347273126
 11
-42.7013516843
 21
-25.7347273126
  0
LINE
  5
2E2
100
AcDbEntity
  8
ASSI
100
AcDbLine
 62
250
  6
CONTINUOUS
 10
-40.3195965959
 20
-25.7970957646
 11
-42.7013516843
 21
-25.7347273126
  0
LWPOLYLINE
  5
2E3
100
AcDbEntity
  8
ASSI
100
AcDbPolyline
 62
250
  6
CONTINUOUS
 90
10
 70
0
 10
-42.7013516843
 20
26.391931475
 10
-42.7026299492
 20
26.3892347264
 10
-42.7037593441
 20
26.3812017984
 10
-42.7047258563
 20
26.3678565111
 10
-42.7055179099
 20
26.3492544251
 10
-42.7061233155
 20
26.3255533545
 10
-42.706531953
 20
26.2970770865
 10
-42.7067391732
 20
26.2641891752
 10
-42.7067434239
 20
26.2272138759
 10
-42.7061444018
 20
26.1426054878
  0
LWPOLYLINE
  5
2E4
100
AcDbEntity
  8
ASSI
100
AcDbPolyline
 62
250
  6
CONTINUOUS
 90
9
 70
0
 10
-42.7013516843
 20
-26.2345559751
 10
-42.7026296826
 20
-26.2318604121
 10
-42.7037589313
 20
-26.2238305032
 10
-42.7047254013
 20
-26.210489265
 10
-42.7055174976
 20
-26.1918913906
 10
-42.706123003
 20
-26.1681939317
 10
-42.7065317664
 20
-26.1397201857
 10
-42.7067391156
 20
-26.1068326869
 10
-42.706743467
 20
-26.069855593
  0
LWPOLYLINE
  5
2E5
100
AcDbEntity
  8
0
100
AcDbPolyline
 62
7
  6
CONTINUOUS
 90
3
 70
0
 43
0.3500000019
 10
-32.9197724609
 20
35.4965944824
 10
-32.9912026367
 20
35.2823093262
 10
-33.1340576172
 20
34.9965939941
  0
LINE
  5
2E6
100
AcDbEntity
  8
ASSI
100
AcDbLine
 62
250
  6
CONTINUOUS
 10
-42.7047595942
 20
26.0469388958
 11
-42.7026502706
 21
25.9444817874
  0
LINE
  5
2E7
100
AcDbEntity
  8
ASSI
100
AcDbLine
 62
250
  6
CONTINUOUS
 10
-42.7013516843
 20
-0.6597895569
 11
-42.7028821373
 21
-0.5555604899
  0
LINE
  5
2E8
100
AcDbEntity
  8
ASSI
100
AcDbLine
 62
250
  6
CONTINUOUS
 10
-42.7061444018
 20
26.1426054878
 11
-42.7047595942
 21
26.0469388958
  0
LINE
  5
2E9
100
AcDbEntity
  8
ASSI
100
AcDbLine
 62
250
  6
CONTINUOUS
 10
-42.7028821373
 20
-0.5555604899
 11
-42.7037701038
 21
-0.4559073273
  0
LWPOLYLINE
  5
2EA
100
AcDbEntity
  8
ASSI
100
AcDbPolyline
 62
250
  6
CONTINUOUS
 90
11
 70
0
 10
-42.7037701038
 20
-0.4559073273
 10
-42.7039764736
 20
-0.3652266004
 10
-42.7038202798
 20
-0.3245416104
 10
-42.7034931138
 20
-0.287556838
 10
-42.7029985661
 20
-0.2546645543
 10
-42.7023410335
 20
-0.2261883757
 10
-42.70152837
 20
-0.2024919281
 10
-42.7005736329
 20
-0.1838997357
 10
-42.6994904771
 20
-0.1705679152
 10
-42.6982909851
 20
-0.1625493501
 10
-42.6969894133
 20
-0.1598657093
  0
LINE
  5
2EB
100
AcDbEntity
  8
ASSI
100
AcDbLine
 62
7
  6
CONTINUOUS
 10
-43.1882632101
 20
-25.7347273126
 11
-43.1882632101
 21
-0.6597895569
  0
LINE
  5
2EC
100
AcDbEntity
  8
ASSI
100
AcDbLine
 62
7
  6
CONTINUOUS
 10
-43.1882632101
 20
0.8171650568
 11
-43.1882632101
 21
25.8921028125
  0
LINE
  5
2ED
100
AcDbEntity
  8
ASSI
100
AcDbLine
 62
250
  6
CONTINUOUS
 10
-42.7013516843
 20
-25.7347273126
 11
-42.7013516843
 21
-0.6597895569
  0
LINE
  5
2EE
100
AcDbEntity
  8
ASSI
100
AcDbLine
 62
250
  6
CONTINUOUS
 10
-42.7013516843
 20
0.8171650568
 11
-42.7013516843
 21
25.8921028125
  0
LINE
  5
2EF
100
AcDbEntity
  8
ASSI
100
AcDbLine
 62
250
  6
CONTINUOUS
 10
-42.7038252964
 20
0.4827298883
 11
-42.7039581199
 21
0.5672690405
  0
LINE
  5
2F0
100
AcDbEntity
  8
ASSI
100
AcDbLine
 62
250
  6
CONTINUOUS
 10
-42.7039581199
 20
0.5672690405
 11
-42.7034053981
 21
0.662723519
  0
LINE
  5
2F1
100
AcDbEntity
  8
ASSI
100
AcDbLine
 62
250
  6
CONTINUOUS
 10
-42.706743467
 20
-26.069855593
 11
-42.706144548
 21
-25.9852432756
  0
LWPOLYLINE
  5
2F2
100
AcDbEntity
  8
ASSI
100
AcDbPolyline
 62
250
  6
CONTINUOUS
 90
3
 70
0
 10
-42.7034053981
 20
0.662723519
 10
-42.7021912735
 20
0.7649239225
 10
-42.7013516843
 20
0.8171650568
  0
LINE
  5
2F3
100
AcDbEntity
  8
ASSI
100
AcDbLine
 62
250
  6
CONTINUOUS
 10
-42.706144548
 20
-25.9852432756
 11
-42.7047597622
 21
-25.8895729219
  0
LWPOLYLINE
  5
2F4
100
AcDbEntity
  8
ASSI
100
AcDbPolyline
 62
250
  6
CONTINUOUS
 90
3
 70
0
 10
-42.7047597622
 20
-25.8895729219
 10
-42.7026503524
 20
-25.7871097818
 10
-42.7013516843
 20
-25.7347273126
  0
LWPOLYLINE
  5
2F5
100
AcDbEntity
  8
ASSI
100
AcDbPolyline
 62
250
  6
CONTINUOUS
 90
9
 70
0
 10
-42.6969894133
 20
0.3172412092
 10
-42.6983089433
 20
0.3200021195
 10
-42.699518474
 20
0.3282068858
 10
-42.7006047613
 20
0.3417656673
 10
-42.7015559106
 20
0.3605299975
 10
-42.7023615069
 20
0.38429441
 10
-42.7030127291
 20
0.412798688
 10
-42.7035024464
 20
0.4457307143
 10
-42.7038252964
 20
0.4827298883
  0
LINE
  5
2F6
100
AcDbEntity
  8
ASSI
100
AcDbLine
 62
250
  6
CONTINUOUS
 10
-42.7026502706
 20
25.9444817874
 11
-42.7013516843
 21
25.8921028125
  0
LINE
  5
2F7
100
AcDbEntity
  8
ASSI
100
AcDbLine
 62
250
  6
CONTINUOUS
 10
-39.3882632101
 20
-0.6019593825
 11
-42.7013516843
 21
-0.6597895569
  0
LINE
  5
2F8
100
AcDbEntity
  8
ASSI
100
AcDbLine
 62
7
  6
CONTINUOUS
 10
-39.3882632101
 20
-0.1021116786
 11
-42.6969894133
 21
-0.1598657093
  0
LINE
  5
2F9
100
AcDbEntity
  8
ASSI
100
AcDbLine
 62
250
  6
CONTINUOUS
 10
-43.1882632101
 20
-0.6597895569
 11
-42.7013516843
 21
-0.6597895569
  0
LINE
  5
2FA
100
AcDbEntity
  8
ASSI
100
AcDbLine
 62
7
  6
CONTINUOUS
 10
-42.6969894133
 20
0.3172412092
 11
-39.3882632101
 21
0.2594871785
  0
LINE
  5
2FB
100
AcDbEntity
  8
ASSI
100
AcDbLine
 62
7
  6
CONTINUOUS
 10
-39.3882632101
 20
-0.1021116786
 11
-39.3882632101
 21
-22.2554860013
  0
LINE
  5
2FC
100
AcDbEntity
  8
ASSI
100
AcDbLine
 62
7
  6
CONTINUOUS
 10
-39.3882632101
 20
0.2594871785
 11
-39.3882632101
 21
22.4128615012
  0
LINE
  5
2FD
100
AcDbEntity
  8
ASSI
100
AcDbLine
 62
250
  6
CONTINUOUS
 10
-42.7013516843
 20
0.8171650568
 11
-43.1882632101
 21
0.8171650568
  0
LINE
  5
2FE
100
AcDbEntity
  8
ASSI
100
AcDbLine
 62
250
  6
CONTINUOUS
 10
-42.7013516843
 20
0.8171650568
 11
-39.3882632101
 21
0.7593348824
  0
LINE
  5
2FF
100
AcDbEntity
  8
ASSI
100
AcDbLine
 62
7
  6
CONTINUOUS
 10
-39.405300297
 20
-22.3848955238
 11
-40.4525921197
 21
-26.2934418167
  0
LINE
  5
300
100
AcDbEntity
  8
ASSI
100
AcDbLine
 62
7
  6
CONTINUOUS
 10
-39.405300297
 20
22.5422710237
 11
-40.4525921197
 21
26.4508173166
  0
LWPOLYLINE
  5
301
100
AcDbEntity
  8
0
100
AcDbPolyline
 62
7
  6
CONTINUOUS
 90
4
 70
0
 43
0.3500000019
 10
-31.9197741699
 20
35.6394521484
 10
-31.9197741699
 20
36.496595459
 10
-31.4912011719
 20
36.9251657715
 10
-30.8483457031
 20
36.9251657715
  0
LWPOLYLINE
  5
302
100
AcDbEntity
  8
0
100
AcDbPolyline
 62
7
  6
CONTINUOUS
 90
10
 70
0
 43
0.3500000019
 10
-32.9912026367
 20
35.7108796387
 10
-32.9197724609
 20
35.5680219727
 10
-32.9197724609
 20
35.4965944824
 10
-33.062630127
 20
35.3537368164
 10
-33.1340576172
 20
35.3537368164
 10
-33.205487793
 20
35.4251669922
 10
-33.205487793
 20
35.4965944824
 10
-33.1340576172
 20
35.6394521484
 10
-33.062630127
 20
35.7108796387
 10
-32.9912026367
 20
35.7108796387
  0
LINE
  5
303
100
AcDbEntity
  8
ASSI
100
AcDbLine
 62
250
  6
CONTINUOUS
 10
-42.7013516843
 20
25.8921028125
 11
-40.3195965959
 21
25.9544712645
  0
LINE
  5
304
100
AcDbEntity
  8
ASSI
100
AcDbLine
 62
7
  6
CONTINUOUS
 10
-42.7013516843
 20
26.391931475
 11
-40.4525921197
 21
26.4508173166
  0
LINE
  5
305
100
AcDbEntity
  8
ASSI
100
AcDbLine
 62
250
  6
CONTINUOUS
 10
-43.1882632101
 20
25.8921028125
 11
-42.7013516843
 21
25.8921028125
  0
LWPOLYLINE
  5
306
100
AcDbEntity
  8
0
100
AcDbPolyline
 62
7
  6
CONTINUOUS
 90
6
 70
0
 43
0.3500000019
 10
-35.7769150391
 20
35.2108791504
 10
-34.7054865723
 20
35.2108791504
 10
-34.491201416
 20
35.4251669922
 10
-34.491201416
 20
36.496595459
 10
-34.9197744141
 20
36.9251657715
 10
-35.3483447266
 20
36.9251657715
  0
LWPOLYLINE
  5
307
100
AcDbEntity
  8
0
100
AcDbPolyline
 62
7
  6
CONTINUOUS
 90
13
 70
0
 43
0.3500000019
 10
-31.4912011719
 20
36.9251657715
 10
-31.7769165039
 20
37.1394509277
 10
-31.7769165039
 20
37.782309082
 10
-31.4912011719
 20
38.2108793945
 10
-30.8483457031
 20
38.2108793945
 10
-30.5626303711
 20
37.782309082
 10
-30.5626303711
 20
37.1394509277
 10
-30.8483457031
 20
36.9251657715
 10
-30.4197727051
 20
36.496595459
 10
-30.4197727051
 20
35.6394521484
 10
-30.8483457031
 20
35.2108791504
 10
-31.4912011719
 20
35.2108791504
 10
-31.9197741699
 20
35.6394521484
  0
CIRCLE
  5
308
100
AcDbEntity
  8
CURVE
100
AcDbCircle
 62
250
  6
CONTINUOUS
 10
-11.3872594207
 20
-14.9209672501
 40
0.650089
  0
ARC
  5
309
100
AcDbEntity
  8
ASSI
100
AcDbCircle
 62
7
  6
CONTINUOUS
 10
-39.8882632101
 20
22.4128615012
 40
0.5
100
AcDbArc
 50
0.0
 51
15.0
  0
ARC
  5
30A
100
AcDbEntity
  8
ASSI
100
AcDbCircle
 62
7
  6
CONTINUOUS
 10
-42.6882632101
 20
25.8921028125
 40
0.5
100
AcDbArc
 50
91.5
 51
180.0
  0
ARC
  5
30B
100
AcDbEntity
  8
ASSI
100
AcDbCircle
 62
7
  6
CONTINUOUS
 10
-42.6882632101
 20
0.8171650568
 40
0.5
100
AcDbArc
 50
180.0
 51
269.0
  0
ARC
  5
30C
100
AcDbEntity
  8
ASSI
100
AcDbCircle
 62
7
  6
CONTINUOUS
 10
-39.8882632101
 20
-22.2554860013
 40
0.5
100
AcDbArc
 50
345.0
 51
360.0
  0
ARC
  5
30D
100
AcDbEntity
  8
ASSI
100
AcDbCircle
 62
7
  6
CONTINUOUS
 10
-42.6882632101
 20
-25.7347273126
 40
0.5
100
AcDbArc
 50
180.0
 51
268.5
  0
ARC
  5
30E
100
AcDbEntity
  8
ASSI
100
AcDbCircle
 62
7
  6
CONTINUOUS
 10
-42.6882632101
 20
-0.6597895569
 40
0.5
100
AcDbArc
 50
91.0
 51
180.0
  0
ELLIPSE
  5
30F
100
AcDbEntity
  8
ASSI
100
AcDbEllipse
 62
7
  6
CONTINUOUS
 10
-21.9870880244
 20
0.7595633425
 30
0.0
 11
0.416247366
 21
0.2774630169
 31
0.0
 40
0.9995051766
 41
2.5538770461
 42
4.1242165221
  0
ELLIPSE
  5
310
100
AcDbEntity
  8
ASSI
100
AcDbEllipse
 62
7
  6
CONTINUOUS
 10
21.7125691831
 20
0.7595633425
 30
0.0
 11
0.416247366
 21
-0.2774630169
 31
0.0
 40
0.9995051766
 41
-0.9826238685
 42
0.5877156075
  0
ELLIPSE
  5
311
100
AcDbEntity
  8
ASSI
100
AcDbEllipse
 62
7
  6
CONTINUOUS
 10
-21.9627025895
 20
25.9541309187
 30
0.0
 11
0.4677351297
 21
0.1788908786
 31
0.0
 40
0.9906298547
 41
1.202347637
 42
2.7724587311
  0
ELLIPSE
  5
312
100
AcDbEntity
  8
ASSI
100
AcDbEllipse
 62
7
  6
CONTINUOUS
 10
21.6881837481
 20
25.9541309187
 30
0.0
 11
0.4677351297
 21
-0.1788908786
 31
0.0
 40
0.9906298547
 41
0.3691339225
 42
1.9392450166
  0
ELLIPSE
  5
313
100
AcDbEntity
  8
ASSI
100
AcDbEllipse
 62
7
  6
CONTINUOUS
 10
22.1996476186
 20
22.4128615012
 30
0.0
 11
0.0
 21
0.5
 31
0.0
 40
0.0261859216
 41
-1.5707963268
 42
-1.308996939
  0
ELLIPSE
  5
314
100
AcDbEntity
  8
ASSI
100
AcDbEllipse
 62
7
  6
CONTINUOUS
 10
-22.4741664599
 20
22.4128615012
 30
0.0
 11
0.0
 21
0.5
 31
0.0
 40
0.0261859216
 41
1.308996939
 42
1.5707963268
  0
ELLIPSE
  5
315
100
AcDbEntity
  8
ASSI
100
AcDbEllipse
 62
7
  6
CONTINUOUS
 10
21.7040892109
 20
0.268214711
 30
0.0
 11
0.5
 21
0.0
 31
0.0
 40
0.0174550649
 41
-3.1241393611
 42
-1.5707963268
  0
ELLIPSE
  5
316
100
AcDbEntity
  8
ASSI
100
AcDbEllipse
 62
7
  6
CONTINUOUS
 10
-21.9786080522
 20
0.268214711
 30
0.0
 11
0.5
 21
0.0
 31
0.0
 40
0.0174550649
 41
-1.5707963268
 42
-0.0174532925
  0
ELLIPSE
  5
317
100
AcDbEntity
  8
ASSI
100
AcDbEllipse
 62
7
  6
CONTINUOUS
 10
21.7125691831
 20
-0.6021878427
 30
0.0
 11
0.416247366
 21
0.2774630169
 31
0.0
 40
0.9995051766
 41
-0.5877156075
 42
0.9826238685
  0
ELLIPSE
  5
318
100
AcDbEntity
  8
ASSI
100
AcDbEllipse
 62
7
  6
CONTINUOUS
 10
-21.9870880244
 20
-0.6021878427
 30
0.0
 11
0.416247366
 21
-0.2774630169
 31
0.0
 40
0.9995051766
 41
2.1589687851
 42
3.7293082611
  0
ELLIPSE
  5
319
100
AcDbEntity
  8
ASSI
100
AcDbEllipse
 62
7
  6
CONTINUOUS
 10
21.6881837481
 20
-25.7967554188
 30
0.0
 11
0.4677351297
 21
0.1788908786
 31
0.0
 40
0.9906298547
 41
-1.9392450166
 42
-0.3691339225
  0
ELLIPSE
  5
31A
100
AcDbEntity
  8
ASSI
100
AcDbEllipse
 62
7
  6
CONTINUOUS
 10
-21.9627025895
 20
-25.7967554188
 30
0.0
 11
0.4677351297
 21
-0.1788908786
 31
0.0
 40
0.9906298547
 41
-2.7724587311
 42
-1.202347637
  0
ELLIPSE
  5
31B
100
AcDbEntity
  8
ASSI
100
AcDbEllipse
 62
7
  6
CONTINUOUS
 10
-22.4741664599
 20
-22.2554860013
 30
0.0
 11
0.0
 21
0.5
 31
0.0
 40
0.0261859216
 41
-4.7123889804
 42
-4.4505895926
  0
ELLIPSE
  5
31C
100
AcDbEntity
  8
ASSI
100
AcDbEllipse
 62
7
  6
CONTINUOUS
 10
22.1996476186
 20
-22.2554860013
 30
0.0
 11
0.0
 21
0.5
 31
0.0
 40
0.0261859216
 41
-1.8325957146
 42
-1.5707963268
  0
ELLIPSE
  5
31D
100
AcDbEntity
  8
ASSI
100
AcDbEllipse
 62
7
  6
CONTINUOUS
 10
-21.9786080522
 20
-0.1108392111
 30
0.0
 11
0.5
 21
0.0
 31
0.0
 40
0.0174550649
 41
0.0174532925
 42
1.5707963268
  0
ELLIPSE
  5
31E
100
AcDbEntity
  8
ASSI
100
AcDbEllipse
 62
7
  6
CONTINUOUS
 10
21.7040892109
 20
-0.1108392111
 30
0.0
 11
0.5
 21
0.0
 31
0.0
 40
0.0174550649
 41
1.5707963268
 42
3.1241393611
  0
ENDSEC
  0
SECTION
  2
OBJECTS
  0
DICTIONARY
  5
C
100
AcDbDictionary
280
0
281
1
  3
ACAD_GROUP
350
D
  3
ACAD_MLINESTYLE
350
17
  3
ACAD_LAYOUT
350
1A
  3
ACAD_PLOTSETTINGS
350
19
  3
ACAD_PLOTSTYLENAME
350
E
  0
DICTIONARY
  5
D
102
{ACAD_REACTORS
330
C
102
}
100
AcDbDictionary
280
0
281
1
  0
ACDBDICTIONARYWDFLT
  5
E
102
{ACAD_REACTORS
330
C
102
}
100
AcDbDictionary
281
1
  3
Normal
350
F
100
AcDbDictionaryWithDefault
340
F
  0
DICTIONARY
  5
17
102
{ACAD_REACTORS
330
C
102
}
100
AcDbDictionary
280
0
281
1
  3
Standard
350
18
  0
DICTIONARY
  5
19
102
{ACAD_REACTORS
330
C
102
}
100
AcDbDictionary
281
1
  0
DICTIONARY
  5
1A
102
{ACAD_REACTORS
330
C
102
}
100
AcDbDictionary
281
1
  3
Model
350
31F
  3
Layout1
350
320
  0
ACDBPLACEHOLDER
  5
F
102
{ACAD_REACTORS
330
E
102
}
  0
MLINESTYLE
  5
18
102
{ACAD_REACTORS
330
17
102
}
100
AcDbMlineStyle
  2
STANDARD
 70
0
  3

 62
256
 51
90.0
 52
90.0
 71
2
 49
0.5
 62
256
  6
BYLAYER
 49
-0.5
 62
256
  6
BYLAYER
  0
LAYOUT
  5
31F
102
{ACAD_REACTORS
330
1A
102
}
100
AcDbPlotSettings
  1

  2
none_device
  4

  6

 40
0.0
 41
0.0
 42
0.0
 43
0.0
 44
210.0
 45
297.0
 46
0.0
 47
0.0
 48
0.0
 49
0.0
140
0.0
141
0.0
142
1.0
143
1.0
 70
1024
 72
1
 73
0
 74
0
  7

 75
0
147
1.0
148
0.0
149
0.0
100
AcDbLayout
  1
Model
 70
0
 71
0
 10
0.0
 20
0.0
 11
210.0
 21
297.0
 12
0.0
 22
0.0
 32
0.0
 14
0.0
 24
0.0
 34
0.0
 15
0.0
 25
0.0
 35
0.0
146
0.0
 13
0.0
 23
0.0
 33
0.0
 16
1.0
 26
0.0
 36
0.0
 17
0.0
 27
1.0
 37
0.0
 76
0
330
212
345
0
346
0
  0
LAYOUT
  5
320
102
{ACAD_REACTORS
330
1A
102
}
100
AcDbPlotSettings
  1

  2
none_device
  4

  6

 40
0.0
 41
0.0
 42
0.0
 43
0.0
 44
210.0
 45
297.0
 46
0.0
 47
0.0
 48
0.0
 49
0.0
140
0.0
141
0.0
142
1.0
143
1.0
 70
0
 72
1
 73
0
 74
0
  7

 75
0
147
1.0
148
0.0
149
0.0
100
AcDbLayout
  1
Layout1
 70
0
 71
1
 10
0.0
 20
0.0
 11
210.0
 21
297.0
 12
0.0
 22
0.0
 32
0.0
 14
0.0
 24
0.0
 34
0.0
 15
0.0
 25
0.0
 35
0.0
146
0.0
 13
0.0
 23
0.0
 33
0.0
 16
1.0
 26
0.0
 36
0.0
 17
0.0
 27
1.0
 37
0.0
 76
0
330
213
345
0
346
0
  0
ENDSEC
  0
EOF
