  0
SECTION
  2
HEADER
  9
$ACADVER
  1
AC1024
  9
$DWGCODEPAGE
  3
ANSI_1252
  9
$EXTMAX
 10
297.0
 20
210.0
 30
0.0
  9
$EXTMIN
 10
0.0
 20
0.0
 30
0.0
  9
$LIMMIN
 10
0.0
 20
0.0
  9
$LIMMAX
 10
297.0
 20
210.0
  9
$VIEWCTR
 10
148.5
 20
105.0
  9
$VIEWSIZE
 40
210.0
  9
$CLAYER
  8
0
  9
$LTSCALE
 40
16.335
  9
$CELTYPE
  6
BYLAYER
  9
$DIMSCALE
 40
1.0
  9
$DIMASZ
 40
3.0
  9
$DIMEXO
 40
0.5
  9
$DIMDLI
 40
11.286
  9
$DIMEXE
 40
1.5
  9
$DIMCEN
 40
2.673
  9
$DIMLFAC
 40
1.0
  9
$DIMBLK
  1
_FILLED
  9
$DIMALT
 70
0
  9
$DIMALTF
 40
0.0393700787
  9
$DIMTXT
 40
3.0
  9
$DIMTOL
 70
1
  9
$DIMLIM
 70
0
  9
$DIMTFAC
 40
1.0
  9
$DIMTP
 40
0.01
  9
$DIMTM
 40
0.01
  9
$DIMGAP
 40
0.625
  9
$DIMDSEP
 70
44
  9
$AUNITS
 70
0
  9
$PDMODE
 70
3
  9
$PDSIZE
 40
3.0
  9
$HANDSEED
  5
3EA
  9
$TILEMODE
 70
1
  9
$MEASUREMENT
 70
1
  9
$INSUNITS
 70
4
  0
ENDSEC
  0
SECTION
  2
CLASSES
  0
CLASS
  1
ACDBDICTIONARYWDFLT
  2
AcDbDictionaryWithDefault
  3
AutoCAD 2000
 90
0
 91
1
280
0
281
0
  0
CLASS
  1
ACDBPLACEHOLDER
  2
AcDbPlaceHolder
  3
AutoCAD 2000
 90
0
 91
1
280
0
281
0
  0
CLASS
  1
LAYOUT
  2
AcDbLayout
  3
AutoCAD 2000
 90
0
 91
0
280
0
281
0
  0
ENDSEC
  0
SECTION
  2
TABLES
  0
TABLE
  2
VPORT
  5
8
100
AcDbSymbolTable
 70
2
  0
VPORT
  5
1F4
100
AcDbSymbolTableRecord
100
AcDbViewportTableRecord
  2
*ACTIVE
 70
0
 10
0.0
 20
0.0
 11
1.0
 21
1.0
 12
148.5
 22
105.0
 13
0.0
 23
0.0
 14
1.0
 24
1.0
 15
0.0
 25
0.0
 16
0.0
 26
0.0
 36
1.0
 17
0.0
 27
0.0
 37
0.0
 40
210.0
 41
1.4142857143
 42
50.0
 43
0.0
 44
0.0
 50
0.0
 51
0.0
 71
0
 72
100
 73
1
 74
1
 75
0
 76
0
 77
0
 78
0
  0
ENDTAB
  0
TABLE
  2
LTYPE
  5
5
100
AcDbSymbolTable
 70
6
  0
LTYPE
  5
14
100
AcDbSymbolTableRecord
100
AcDbLinetypeTableRecord
  2
BYBLOCK
 70
0
  3

 72
65
 73
0
 40
0.0
  0
LTYPE
  5
15
100
AcDbSymbolTableRecord
100
AcDbLinetypeTableRecord
  2
BYLAYER
 70
0
  3

 72
65
 73
0
 40
0.0
  0
LTYPE
  5
16
100
AcDbSymbolTableRecord
100
AcDbLinetypeTableRecord
  2
CONTINUOUS
 70
64
  3
Solid line
 72
65
 73
0
 40
0.0
  0
LTYPE
  5
1F5
100
AcDbSymbolTableRecord
100
AcDbLinetypeTableRecord
  2
CENTER
 70
64
  3
____ _ ____ _ ____ _ ____ _ ____ _ ____ _ ____
 72
65
 73
4
 40
0.6
 49
0.375
 74
0
 49
-0.075
 74
0
 49
0.075
 74
0
 49
-0.075
 74
0
  0
LTYPE
  5
1F6
100
AcDbSymbolTableRecord
100
AcDbLinetypeTableRecord
  2
HIDDEN
 70
64
  3
- - - - - - - - - - - - - - - - - - - -
 72
65
 73
2
 40
0.2
 49
0.1
 74
0
 49
-0.1
 74
0
  0
LTYPE
  5
1F7
100
AcDbSymbolTableRecord
100
AcDbLinetypeTableRecord
  2
PHANTOM
 70
64
  3
_____ _ _ _____ _ _ _____ _ _ _____
 72
65
 73
6
 40
0.8
 49
0.45
 74
0
 49
-0.05
 74
0
 49
0.1
 74
0
 49
-0.05
 74
0
 49
0.1
 74
0
 49
-0.05
 74
0
  0
LTYPE
  5
1F8
100
AcDbSymbolTableRecord
100
AcDbLinetypeTableRecord
  2
DOT
 70
64
  3
. . . . . . . . . . . . . . . . . . . .
 72
65
 73
2
 40
0.2
 49
0.1
 74
0
 49
-0.1
 74
0
  0
LTYPE
  5
1F9
100
AcDbSymbolTableRecord
100
AcDbLinetypeTableRecord
  2
DASHED
 70
64
  3
- - - - - - - - - - - - - - - - - - - -
 72
65
 73
2
 40
0.2
 49
0.1
 74
0
 49
-0.1
 74
0
  0
ENDTAB
  0
TABLE
  2
LAYER
  5
2
100
AcDbSymbolTable
 70
36
  0
LAYER
  5
10
100
AcDbSymbolTableRecord
100
AcDbLayerTableRecord
  2
0
 70
0
 62
7
  6
CONTINUOUS
370
-3
390
F
  0
LAYER
  5
1FA
100
AcDbSymbolTableRecord
100
AcDbLayerTableRecord
  2
DEFAULT_1
 70
0
 62
7
  6
CENTER
370
-3
390
F
  0
LAYER
  5
1FB
100
AcDbSymbolTableRecord
100
AcDbLayerTableRecord
  2
DEFAULT_2
 70
0
 62
7
  6
HIDDEN
370
-3
390
F
  0
LAYER
  5
1FC
100
AcDbSymbolTableRecord
100
AcDbLayerTableRecord
  2
DEFAULT_3
 70
0
 62
7
  6
PHANTOM
370
-3
390
F
  0
LAYER
  5
1FD
100
AcDbSymbolTableRecord
100
AcDbLayerTableRecord
  2
ASSI
 70
0
 62
7
  6
CONTINUOUS
370
-3
390
F
  0
LAYER
  5
1FE
100
AcDbSymbolTableRecord
100
AcDbLayerTableRecord
  2
COORDINATE
 70
0
 62
7
  6
CONTINUOUS
370
-3
390
F
  0
LAYER
  5
1FF
100
AcDbSymbolTableRecord
100
AcDbLayerTableRecord
  2
COPY_PUBLISH
 70
0
 62
7
  6
CONTINUOUS
370
-3
390
F
  0
LAYER
  5
200
100
AcDbSymbolTableRecord
100
AcDbLayerTableRecord
  2
COSMETICI
 70
0
 62
7
  6
CONTINUOUS
370
-3
390
F
  0
LAYER
  5
201
100
AcDbSymbolTableRecord
100
AcDbLayerTableRecord
  2
CURVE
 70
0
 62
7
  6
CONTINUOUS
370
-3
390
F
  0
LAYER
  5
202
100
AcDbSymbolTableRecord
100
AcDbLayerTableRecord
  2
DRAFT
 70
0
 62
7
  6
CONTINUOUS
370
-3
390
F
  0
LAYER
  5
203
100
AcDbSymbolTableRecord
100
AcDbLayerTableRecord
  2
IMPORT_IGES
 70
0
 62
7
  6
CONTINUOUS
370
-3
390
F
  0
LAYER
  5
204
100
AcDbSymbolTableRecord
100
AcDbLayerTableRecord
  2
INTF_1
 70
0
 62
7
  6
CONTINUOUS
370
-3
390
F
  0
LAYER
  5
205
100
AcDbSymbolTableRecord
100
AcDbLayerTableRecord
  2
INTF_10
 70
0
 62
7
  6
CONTINUOUS
370
-3
390
F
  0
LAYER
  5
206
100
AcDbSymbolTableRecord
100
AcDbLayerTableRecord
  2
INTF_2
 70
0
 62
7
  6
CONTINUOUS
370
-3
390
F
  0
LAYER
  5
207
100
AcDbSymbolTableRecord
100
AcDbLayerTableRecord
  2
INTF_3
 70
0
 62
7
  6
CONTINUOUS
370
-3
390
F
  0
LAYER
  5
208
100
AcDbSymbolTableRecord
100
AcDbLayerTableRecord
  2
INTF_4
 70
0
 62
7
  6
CONTINUOUS
370
-3
390
F
  0
LAYER
  5
209
100
AcDbSymbolTableRecord
100
AcDbLayerTableRecord
  2
INTF_5
 70
0
 62
7
  6
CONTINUOUS
370
-3
390
F
  0
LAYER
  5
20A
100
AcDbSymbolTableRecord
100
AcDbLayerTableRecord
  2
INTF_6
 70
0
 62
7
  6
CONTINUOUS
370
-3
390
F
  0
LAYER
  5
20B
100
AcDbSymbolTableRecord
100
AcDbLayerTableRecord
  2
INTF_7
 70
0
 62
7
  6
CONTINUOUS
370
-3
390
F
  0
LAYER
  5
20C
100
AcDbSymbolTableRecord
100
AcDbLayerTableRecord
  2
INTF_9
 70
0
 62
7
  6
CONTINUOUS
370
-3
390
F
  0
LAYER
  5
20D
100
AcDbSymbolTableRecord
100
AcDbLayerTableRecord
  2
INTF_BLANK
 70
0
 62
7
  6
CONTINUOUS
370
-3
390
F
  0
LAYER
  5
20E
100
AcDbSymbolTableRecord
100
AcDbLayerTableRecord
  2
INTF_RED
 70
0
 62
7
  6
CONTINUOUS
370
-3
390
F
  0
LAYER
  5
20F
100
AcDbSymbolTableRecord
100
AcDbLayerTableRecord
  2
NOTE
 70
0
 62
7
  6
CONTINUOUS
370
-3
390
F
  0
LAYER
  5
210
100
AcDbSymbolTableRecord
100
AcDbLayerTableRecord
  2
PIANI
 70
0
 62
7
  6
CONTINUOUS
370
-3
390
F
  0
LAYER
  5
211
100
AcDbSymbolTableRecord
100
AcDbLayerTableRecord
  2
PUNTI
 70
0
 62
7
  6
CONTINUOUS
370
-3
390
F
  0
LAYER
  5
212
100
AcDbSymbolTableRecord
100
AcDbLayerTableRecord
  2
RACCORDO
 70
0
 62
7
  6
CONTINUOUS
370
-3
390
F
  0
LAYER
  5
213
100
AcDbSymbolTableRecord
100
AcDbLayerTableRecord
  2
RGB____0____0____0__
 70
0
 62
7
  6
CONTINUOUS
370
-3
390
F
  0
LAYER
  5
214
100
AcDbSymbolTableRecord
100
AcDbLayerTableRecord
  2
SIMBOLI
 70
0
 62
7
  6
CONTINUOUS
370
-3
390
F
  0
LAYER
  5
215
100
AcDbSymbolTableRecord
100
AcDbLayerTableRecord
  2
SMUSSO
 70
0
 62
7
  6
CONTINUOUS
370
-3
390
F
  0
LAYER
  5
216
100
AcDbSymbolTableRecord
100
AcDbLayerTableRecord
  2
SNAPLINE
 70
0
 62
7
  6
CONTINUOUS
370
-3
390
F
  0
LAYER
  5
217
100
AcDbSymbolTableRecord
100
AcDbLayerTableRecord
  2
SUPERFICI
 70
0
 62
7
  6
CONTINUOUS
370
-3
390
F
  0
LAYER
  5
218
100
AcDbSymbolTableRecord
100
AcDbLayerTableRecord
  2
TRASH
 70
0
 62
7
  6
CONTINUOUS
370
-3
390
F
  0
ENDTAB
  0
TABLE
  2
STYLE
  5
3
100
AcDbSymbolTable
 70
1
  0
STYLE
  5
11
100
AcDbSymbolTableRecord
100
AcDbTextStyleTableRecord
  2
STANDARD
 70
0
 40
0.0
 41
0.8
 50
0.0
 71
0
 42
0.2
  3
txt
  4

  0
STYLE
  5
219
100
AcDbSymbolTableRecord
100
AcDbTextStyleTableRecord
  2
TEXTSTYLE_1
 70
0
 40
0.0
 41
0.8
 50
0.0
 71
0
 42
0.2
  3
gdt
  4

  0
ENDTAB
  0
TABLE
  2
VIEW
  5
6
100
AcDbSymbolTable
 70
0
  0
ENDTAB
  0
TABLE
  2
UCS
  5
7
100
AcDbSymbolTable
 70
0
  0
ENDTAB
  0
TABLE
  2
APPID
  5
9
100
AcDbSymbolTable
 70
1
  0
APPID
  5
21A
100
AcDbSymbolTableRecord
100
AcDbRegAppTableRecord
  2
ACAD
 70
0
  0
ENDTAB
  0
TABLE
  2
BLOCK_RECORD
  5
1
100
AcDbSymbolTable
 70
0
  0
BLOCK_RECORD
  5
21B
100
AcDbSymbolTableRecord
100
AcDbBlockTableRecord
  2
*Model_Space
  0
BLOCK_RECORD
  5
21C
100
AcDbSymbolTableRecord
100
AcDbBlockTableRecord
  2
*Paper_Space
  0
BLOCK_RECORD
  5
21D
100
AcDbSymbolTableRecord
100
AcDbBlockTableRecord
  2
_FILLED
  0
BLOCK_RECORD
  5
21E
100
AcDbSymbolTableRecord
100
AcDbBlockTableRecord
  2
*D0
  0
BLOCK_RECORD
  5
21F
100
AcDbSymbolTableRecord
100
AcDbBlockTableRecord
  2
*D1
  0
BLOCK_RECORD
  5
220
100
AcDbSymbolTableRecord
100
AcDbBlockTableRecord
  2
*D2
  0
BLOCK_RECORD
  5
221
100
AcDbSymbolTableRecord
100
AcDbBlockTableRecord
  2
*D3
  0
ENDTAB
  0
TABLE
  2
DIMSTYLE
  5
A
100
AcDbSymbolTable
 70
1
100
AcDbDimStyleTable
 71
0
  0
DIMSTYLE
105
222
100
AcDbSymbolTableRecord
100
AcDbDimStyleTableRecord
  2
STANDARD
 70
0
  3

  4

 40
1.0
 41
3.0
 42
0.5
 43
0.38
 44
1.5
 45
0.0
 46
0.0
 47
0.01
 48
0.01
140
3.0
141
0.09
142
0.0
143
25.4
144
1.0
145
0.0
146
1.0
147
0.625
 71
1
 72
0
 73
0
 74
0
 75
0
 76
0
 77
1
 78
8
 79
2
170
0
171
1
172
0
173
0
174
0
175
0
176
0
177
0
178
0
270
2
179
2
271
2
272
2
273
2
274
2
275
0
280
0
281
0
282
0
283
1
284
8
285
0
286
0
287
3
288
0
340
11
278
44
341
21D
342
21D
343
21D
344
21D
  0
DIMSTYLE
105
223
100
AcDbSymbolTableRecord
100
AcDbDimStyleTableRecord
  2
DIMSTYLE_1
 70
0
  3

  4

 40
1.0
 41
3.0
 42
0.5
 43
0.38
 44
1.5
 45
0.0
 46
0.0
 47
0.0
 48
0.0
140
3.0
141
0.09
142
0.0
143
25.4
144
1.0
145
0.0
146
1.0
147
0.75
 71
0
 72
0
 73
0
 74
0
 75
0
 76
0
 77
1
 78
8
 79
2
170
0
171
1
172
0
173
0
174
0
175
0
176
0
177
0
178
0
270
2
179
2
271
1
272
1
273
2
274
2
275
0
280
0
281
0
282
0
283
1
284
8
285
0
286
0
287
3
288
0
340
11
278
44
341
21D
342
21D
343
21D
344
21D
  0
ENDTAB
  0
ENDSEC
  0
SECTION
  2
BLOCKS
  0
BLOCK
  5
20
100
AcDbEntity
  8
0
100
AcDbBlockBegin
  2
*Model_Space
 70
0
 10
0.0
 20
0.0
 30
0.0
  3
*Model_Space
  1

  0
ENDBLK
  5
21
100
AcDbEntity
  8
0
100
AcDbBlockEnd
  0
BLOCK
  5
1C
100
AcDbEntity
  8
0
100
AcDbBlockBegin
  2
*Paper_Space
 70
0
 10
0.0
 20
0.0
 30
0.0
  3
*Paper_Space
  1

  0
ENDBLK
  5
1D
100
AcDbEntity
  8
0
100
AcDbBlockEnd
  0
BLOCK
  5
224
100
AcDbEntity
  8
0
100
AcDbBlockBegin
  2
_FILLED
 70
64
 10
0.0
 20
0.0
  3
_FILLED
  1

  0
SOLID
  5
225
100
AcDbEntity
  8
0
  6
BYBLOCK
 62
0
100
AcDbTrace
 10
0.0
 20
0.0
 11
-1.0
 21
0.3166666667
 12
-1.0
 22
-0.3166666667
 13
-1.0
 23
-0.3166666667
  0
ENDBLK
  5
226
100
AcDbEntity
  8
0
  6
BYBLOCK
 62
0
100
AcDbBlockEnd
  0
BLOCK
  5
227
100
AcDbEntity
  8
0
100
AcDbBlockBegin
 62
7
  6
CONTINUOUS
  2
*D0
 70
65
 10
0.0
 20
0.0
  3
*D0
  1

  0
MTEXT
  5
228
100
AcDbEntity
  8
0
100
AcDbMText
 62
7
  6
CONTINUOUS
  7
STANDARD
 71
2
 72
1
 10
41.030080454
 20
41.9207396974
 30
0.0
 11
1.0
 21
0.0
 31
0.0
 73
2
 44
0.9
  1
{\ftxt;\W0.0001;\H0.0001;\~}{\ftxt;\W2.9285714286;\H3.0; }{\ftxt;\W0.0001;\H0.0001;\~}
 40
3.0
 41
13.1785714286
  0
LINE
  5
229
100
AcDbEntity
  8
0
100
AcDbLine
 62
7
  6
CONTINUOUS
 10
18.7272151129
 20
29.9929252521
 11
18.7272151129
 21
39.6707396974
  0
LINE
  5
22A
100
AcDbEntity
  8
0
100
AcDbLine
 62
7
  6
CONTINUOUS
 10
63.3329457952
 20
29.9929252521
 11
63.3329457952
 21
39.6707396974
  0
LINE
  5
22B
100
AcDbEntity
  8
0
100
AcDbLine
 62
7
  6
CONTINUOUS
 10
18.7272151129
 20
38.1707396974
 11
41.030080454
 21
38.1707396974
  0
LINE
  5
22C
100
AcDbEntity
  8
0
100
AcDbLine
 62
7
  6
CONTINUOUS
 10
63.3329457952
 20
38.1707396974
 11
41.030080454
 21
38.1707396974
  0
INSERT
  5
22D
100
AcDbEntity
  8
0
100
AcDbBlockReference
 62
7
  6
CONTINUOUS
  2
_FILLED
 10
18.7272151129
 20
38.1707396974
 41
3.0
 42
3.0
 43
3.0
 50
180.0
  0
INSERT
  5
22E
100
AcDbEntity
  8
0
100
AcDbBlockReference
 62
7
  6
CONTINUOUS
  2
_FILLED
 10
63.3329457952
 20
38.1707396974
 41
3.0
 42
3.0
 43
3.0
  0
ENDBLK
  5
22F
100
AcDbEntity
  8
0
  6
BYBLOCK
 62
0
100
AcDbBlockEnd
  0
BLOCK
  5
230
100
AcDbEntity
  8
0
100
AcDbBlockBegin
 62
7
  6
CONTINUOUS
  2
*D1
 70
65
 10
0.0
 20
0.0
  3
*D1
  1

  0
MTEXT
  5
231
100
AcDbEntity
  8
0
100
AcDbMText
 62
7
  6
CONTINUOUS
  7
STANDARD
 71
2
 72
1
 10
67.760931578
 20
3.6398885734
 30
0.0
 11
0.0
 21
1.0
 31
0.0
 73
2
 44
0.9
  1
{\ftxt;\W0.0001;\H0.0001;\~}{\ftxt;\W2.8571428571;\H3.0; }{\ftxt;\W0.0001;\H0.0001;\~}
 40
3.0
 41
12.8571428571
  0
LINE
  5
232
100
AcDbEntity
  8
0
100
AcDbLine
 62
7
  6
CONTINUOUS
 10
63.3331171327
 20
29.9927539146
 11
73.010931578
 21
29.9927539146
  0
LINE
  5
233
100
AcDbEntity
  8
0
100
AcDbLine
 62
7
  6
CONTINUOUS
 10
63.3331171327
 20
-22.7129767678
 11
73.010931578
 21
-22.7129767678
  0
LINE
  5
234
100
AcDbEntity
  8
0
100
AcDbLine
 62
7
  6
CONTINUOUS
 10
71.510931578
 20
29.9927539146
 11
71.510931578
 21
3.6398885734
  0
LINE
  5
235
100
AcDbEntity
  8
0
100
AcDbLine
 62
7
  6
CONTINUOUS
 10
71.510931578
 20
-22.7129767678
 11
71.510931578
 21
3.6398885734
  0
INSERT
  5
236
100
AcDbEntity
  8
0
100
AcDbBlockReference
 62
7
  6
CONTINUOUS
  2
_FILLED
 10
71.510931578
 20
29.9927539146
 41
3.0
 42
3.0
 43
3.0
 50
90.0
  0
INSERT
  5
237
100
AcDbEntity
  8
0
100
AcDbBlockReference
 62
7
  6
CONTINUOUS
  2
_FILLED
 10
71.510931578
 20
-22.7129767678
 41
3.0
 42
3.0
 43
3.0
 50
270.0
  0
ENDBLK
  5
238
100
AcDbEntity
  8
0
  6
BYBLOCK
 62
0
100
AcDbBlockEnd
  0
BLOCK
  5
239
100
AcDbEntity
  8
0
100
AcDbBlockBegin
 62
7
  6
CONTINUOUS
  2
*D2
 70
65
 10
0.0
 20
0.0
  3
*D2
  1

  0
MTEXT
  5
23A
100
AcDbEntity
  8
0
100
AcDbMText
 62
7
  6
CONTINUOUS
  7
STANDARD
 71
3
 72
1
 10
-10.0969056575
 20
41.9207396974
 30
0.0
 11
1.0
 21
0.0
 31
0.0
 73
2
 44
0.9
  1
{\ftxt;\W0.0001;\H0.0001;\~}{\ftxt;\W2.1428571429;\H3.0; }{\ftxt;\W0.0001;\H0.0001;\~}
 40
3.0
 41
9.6428571429
  0
LINE
  5
23B
100
AcDbEntity
  8
0
100
AcDbLine
 62
7
  6
CONTINUOUS
 10
-0.6819902928
 20
29.9929252521
 11
-0.6819902928
 21
39.6707396974
  0
LINE
  5
23C
100
AcDbEntity
  8
0
100
AcDbLine
 62
7
  6
CONTINUOUS
 10
-5.3517378214
 20
-21.0645332428
 11
-5.3517378214
 21
39.6707396974
  0
LINE
  5
23D
100
AcDbEntity
  8
0
100
AcDbLine
 62
7
  6
CONTINUOUS
 10
-0.6819902928
 20
38.1707396974
 11
3.3180097072
 21
38.1707396974
  0
LINE
  5
23E
100
AcDbEntity
  8
0
100
AcDbLine
 62
7
  6
CONTINUOUS
 10
3.3180097072
 20
38.1707396974
 11
-3.0168640571
 21
38.1707396974
  0
LINE
  5
23F
100
AcDbEntity
  8
0
100
AcDbLine
 62
7
  6
CONTINUOUS
 10
-5.3517378214
 20
38.1707396974
 11
-16.5254770861
 21
38.1707396974
  0
LINE
  5
240
100
AcDbEntity
  8
0
100
AcDbLine
 62
7
  6
CONTINUOUS
 10
-16.5254770861
 20
38.1707396974
 11
-3.0168640571
 21
38.1707396974
  0
INSERT
  5
241
100
AcDbEntity
  8
0
100
AcDbBlockReference
 62
7
  6
CONTINUOUS
  2
_FILLED
 10
-0.6819902928
 20
38.1707396974
 41
3.0
 42
3.0
 43
3.0
 50
180.0
  0
INSERT
  5
242
100
AcDbEntity
  8
0
100
AcDbBlockReference
 62
7
  6
CONTINUOUS
  2
_FILLED
 10
-5.3517378214
 20
38.1707396974
 41
3.0
 42
3.0
 43
3.0
  0
ENDBLK
  5
243
100
AcDbEntity
  8
0
  6
BYBLOCK
 62
0
100
AcDbBlockEnd
  0
BLOCK
  5
244
100
AcDbEntity
  8
0
100
AcDbBlockBegin
 62
7
  6
CONTINUOUS
  2
*D3
 70
65
 10
0.0
 20
0.0
  3
*D3
  1

  0
MTEXT
  5
245
100
AcDbEntity
  8
0
100
AcDbMText
 62
7
  6
CONTINUOUS
  7
STANDARD
 71
3
 72
1
 10
-9.685375302
 20
51.9201685542
 30
0.0
 11
0.9998476952
 21
-0.0174524064
 31
0.0
 73
2
 44
0.9
  1
{\ftxt;\W0.0001;\H0.0001;\~}{\ftxt;\W2.1428571429;\H3.0; }{\ftxt;\W0.0001;\H0.0001;\~}
 40
3.0
 41
9.6428571429
  0
LINE
  5
246
100
AcDbEntity
  8
0
100
AcDbLine
 62
7
  6
CONTINUOUS
 10
2.6315688683
 20
-7.7993229977
 11
3.6306394782
 21
49.4373939135
  0
LINE
  5
247
100
AcDbEntity
  8
0
100
AcDbLine
 62
7
  6
CONTINUOUS
 10
-5.3429354658
 20
-21.055883192
 11
-4.1101122901
 21
49.5725092382
  0
LINE
  5
248
100
AcDbEntity
  8
0
100
AcDbLine
 62
7
  6
CONTINUOUS
 10
3.6044608686
 20
47.9376223708
 11
-0.2659150156
 21
48.0051800332
  0
LINE
  5
249
100
AcDbEntity
  8
0
100
AcDbLine
 62
7
  6
CONTINUOUS
 10
-4.1362908998
 20
48.0727376955
 11
-0.2659150156
 21
48.0051800332
  0
LINE
  5
24A
100
AcDbEntity
  8
0
100
AcDbLine
 62
7
  6
CONTINUOUS
 10
-0.2659150156
 20
48.0051800332
 11
-16.1784141522
 21
48.2829337388
  0
INSERT
  5
24B
100
AcDbEntity
  8
0
100
AcDbBlockReference
 62
7
  6
CONTINUOUS
  2
_FILLED
 10
3.6044608686
 20
47.9376223708
 41
3.0
 42
3.0
 43
3.0
 50
359.0
  0
INSERT
  5
24C
100
AcDbEntity
  8
0
100
AcDbBlockReference
 62
7
  6
CONTINUOUS
  2
_FILLED
 10
-4.1362908998
 20
48.0727376955
 41
3.0
 42
3.0
 43
3.0
 50
179.0
  0
ENDBLK
  5
24D
100
AcDbEntity
  8
0
  6
BYBLOCK
 62
0
100
AcDbBlockEnd
  0
ENDSEC
  0
SECTION
  2
ENTITIES
  0
DIMENSION
  5
24E
100
AcDbEntity
  8
0
100
AcDbDimension
 62
7
  6
CONTINUOUS
  2
*D0
 10
63.3329457952
 20
38.1707396974
 11
40.6015079041
 21
38.1707396974
 70
160
 71
2
 72
2
 41
0.9
 42
44.6057306824
  1
{\ftxt;\W0.0001;\H0.0001;\~}{\ftxt;\W2.9285714286;\H3.0; }{\ftxt;\W0.0001;\H0.0001;\~}
  3
DIMSTYLE_1
100
AcDbAlignedDimension
 13
18.7272151129
 23
29.4929252521
 14
63.3329457952
 24
29.4929252521
100
AcDbRotatedDimension
  0
DIMENSION
  5
24F
100
AcDbEntity
  8
0
100
AcDbDimension
 62
7
  6
CONTINUOUS
  2
*D1
 10
71.510931578
 20
-22.7129767678
 11
71.510931578
 21
3.2113158756
 70
160
 71
2
 72
2
 41
0.9
 42
52.7057306824
  1
{\ftxt;\W0.0001;\H0.0001;\~}{\ftxt;\W2.8571428571;\H3.0; }{\ftxt;\W0.0001;\H0.0001;\~}
  3
DIMSTYLE_1
100
AcDbAlignedDimension
 13
62.8331171327
 23
29.9927539146
 14
62.8331171327
 24
-22.7129767678
 50
270.0
100
AcDbRotatedDimension
  0
DIMENSION
  5
250
100
AcDbEntity
  8
0
100
AcDbDimension
 62
7
  6
CONTINUOUS
  2
*D2
 10
-5.3517378214
 20
38.1707396974
 11
-13.7397627583
 21
38.1707396974
 70
160
 71
3
 72
2
 41
0.9
 42
4.6697475287
  1
{\ftxt;\W0.0001;\H0.0001;\~}{\ftxt;\W2.1428571429;\H3.0; }{\ftxt;\W0.0001;\H0.0001;\~}
  3
DIMSTYLE_1
100
AcDbAlignedDimension
 13
-0.6819902928
 23
29.4929252521
 14
-5.3517378214
 24
-21.5645332428
 50
180.0
100
AcDbRotatedDimension
  0
DIMENSION
  5
251
100
AcDbEntity
  8
0
100
AcDbDimension
 62
7
  6
CONTINUOUS
  2
*D3
 10
-4.1362908998
 20
48.0727376955
 11
-13.3931243004
 21
48.2343163235
 70
160
 71
3
 72
2
 41
0.9
 42
7.7419309019
  1
{\ftxt;\W0.0001;\H0.0001;\~}{\ftxt;\W2.1428571429;\H3.0; }{\ftxt;\W0.0001;\H0.0001;\~}
  3
DIMSTYLE_1
100
AcDbAlignedDimension
 13
2.622842665
 23
-8.2992468453
 14
-5.351661669
 24
-21.5558070396
 50
179.0
100
AcDbRotatedDimension
  0
LINE
  5
252
100
AcDbEntity
  8
0
100
AcDbLine
 62
7
  6
CONTINUOUS
 10
19.2270437753
 20
-22.7129767678
 11
62.8331171327
 21
-22.7129767678
  0
LINE
  5
253
100
AcDbEntity
  8
RACCORDO
100
AcDbLine
 62
250
  6
CONTINUOUS
 10
62.8006312311
 20
-22.6804908662
 11
19.259529677
 21
-22.6804908662
  0
LINE
  5
254
100
AcDbEntity
  8
RACCORDO
100
AcDbLine
 62
250
  6
CONTINUOUS
 10
62.7982548188
 20
-22.6590303608
 11
19.2619060893
 21
-22.6590303608
  0
LINE
  5
255
100
AcDbEntity
  8
RACCORDO
100
AcDbLine
 62
7
  6
CONTINUOUS
 10
35.7950482444
 20
-22.5033871683
 11
46.2651126636
 21
-22.5033871683
  0
LINE
  5
256
100
AcDbEntity
  8
RACCORDO
100
AcDbLine
 62
7
  6
CONTINUOUS
 10
35.8976110115
 20
-22.2560594906
 11
46.1625498965
 21
-22.2560594906
  0
LINE
  5
257
100
AcDbEntity
  8
RACCORDO
100
AcDbLine
 62
250
  6
CONTINUOUS
 10
62.7235857172
 20
-22.0536316526
 11
19.3365751908
 21
-22.0536316526
  0
LWPOLYLINE
  5
258
100
AcDbEntity
  8
RACCORDO
100
AcDbPolyline
 62
250
  6
CONTINUOUS
 90
16
 70
0
 10
18.7620774268
 20
-22.169931951
 10
18.7650796956
 20
-22.2208811127
 10
18.7734877195
 20
-22.2712759184
 10
18.7872100142
 20
-22.3205680438
 10
18.8060972735
 20
-22.3682211624
 10
18.8299439931
 20
-22.4137167812
 10
18.8584907071
 20
-22.4565598817
 10
18.8914268109
 20
-22.4962843066
 10
18.928393941
 20
-22.5324578314
 10
18.9689898737
 20
-22.5646868675
 10
19.0127729022
 20
-22.5926207446
 10
19.0592666422
 20
-22.6159555261
 10
19.1079652151
 20
-22.6344373163
 10
19.1583387527
 20
-22.6478650227
 10
19.209839162
 20
-22.6560925443
 10
19.2619060893
 20
-22.6590303608
  0
LWPOLYLINE
  5
259
100
AcDbEntity
  8
RACCORDO
100
AcDbPolyline
 62
250
  6
CONTINUOUS
 90
16
 70
0
 10
18.7597010145
 20
-22.1806622037
 10
18.76247252
 20
-22.2328857601
 10
18.7706851295
 20
-22.2845376553
 10
18.7842489459
 20
-22.3350524739
 10
18.8030154945
 20
-22.3838772479
 10
18.8267793475
 20
-22.4304775083
 10
18.8552803732
 20
-22.4743431362
 10
18.8882065834
 20
-22.5149939483
 10
18.9251975487
 20
-22.5519849518
 10
18.9658483422
 20
-22.5849112152
 10
19.0097139754
 20
-22.6134123038
 10
19.0563142667
 20
-22.637176223
 10
19.1051390969
 20
-22.6559428339
 10
19.1556539962
 20
-22.6695067023
 10
19.2073059954
 20
-22.6777193475
 10
19.259529677
 20
-22.6804908662
  0
LWPOLYLINE
  5
25A
100
AcDbEntity
  8
RACCORDO
100
AcDbPolyline
 62
250
  6
CONTINUOUS
 90
19
 70
0
 10
18.8367465284
 20
-21.5645332428
 10
18.838880592
 20
-21.6071113957
 10
18.8447944759
 20
-21.6493716506
 10
18.8544447095
 20
-21.6909928721
 10
18.8677620258
 20
-21.7316655234
 10
18.8846452346
 20
-21.7710727365
 10
18.9049558828
 20
-21.8088951351
 10
18.9285249022
 20
-21.8448323609
 10
18.9551777938
 20
-21.8786308055
 10
18.9847328797
 20
-21.9100602103
 10
19.0169946551
 20
-21.9389002533
 10
19.0516993274
 20
-21.964903723
 10
19.0885282286
 20
-21.9878371393
 10
19.1271963672
 20
-22.0075377229
 10
19.1674036916
 20
-22.0238665603
 10
19.2087731765
 20
-22.036693851
 10
19.2509614631
 20
-22.0459481992
 10
19.2936691446
 20
-22.0515981005
 10
19.3365751908
 20
-22.0536316526
  0
LWPOLYLINE
  5
25B
100
AcDbEntity
  8
RACCORDO
100
AcDbPolyline
 62
250
  6
CONTINUOUS
 90
19
 70
0
 10
18.766836729
 20
29.453303636
 10
18.7687727944
 20
29.4969143699
 10
18.7745065264
 20
29.5401928632
 10
18.7839942946
 20
29.5828089965
 10
18.7971638809
 20
29.6244378221
 10
18.8139149048
 20
29.6647616305
 10
18.8341194712
 20
29.7034724218
 10
18.8576251829
 20
29.7402773791
 10
18.884251434
 20
29.7748929966
 10
18.9137883909
 20
29.8070485176
 10
18.9460040416
 20
29.8364962697
 10
18.9806553825
 20
29.8630186246
 10
19.0174855561
 20
29.8864204741
 10
19.0562501694
 20
29.9065402495
 10
19.0966208385
 20
29.9232015363
 10
19.1381837644
 20
29.9362488984
 10
19.1805789201
 20
29.9456040833
 10
19.2235147556
 20
29.9512366319
 10
19.2666653915
 20
29.9531322985
  0
LINE
  5
25C
100
AcDbEntity
  8
ASSI
100
AcDbLine
 62
7
  6
CONTINUOUS
 10
18.7369994347
 20
17.7307728284
 11
18.7272151129
 21
17.6648885734
  0
LWPOLYLINE
  5
25D
100
AcDbEntity
  8
0
100
AcDbPolyline
 62
7
  6
CONTINUOUS
 90
10
 70
0
 43
0.3500000006
 10
44.1372245636
 20
41.9207411957
 10
43.4943665771
 20
41.2778832092
 10
43.0657930756
 20
40.4207407379
 10
43.0657930756
 20
39.3493092499
 10
43.4943665771
 20
38.9207402802
 10
44.1372245636
 20
38.9207402802
 10
44.5657935333
 20
39.3493092499
 10
44.5657935333
 20
40.2064517212
 10
44.1372245636
 20
40.6350252228
 10
43.2086509094
 20
40.6350252228
  0
LINE
  5
25E
100
AcDbEntity
  8
RACCORDO
100
AcDbLine
 62
250
  6
CONTINUOUS
 10
62.7235857172
 20
-21.5122690112
 11
19.3365751908
 21
-21.5122690112
  0
LINE
  5
25F
100
AcDbEntity
  8
RACCORDO
100
AcDbLine
 62
250
  6
CONTINUOUS
 10
18.8367465284
 20
-21.5645332428
 11
18.7811705862
 21
-0.8782753967
  0
LINE
  5
260
100
AcDbEntity
  8
RACCORDO
100
AcDbLine
 62
250
  6
CONTINUOUS
 10
18.7811705862
 20
-0.8782753967
 11
18.7729580114
 21
3.6001731017
  0
LINE
  5
261
100
AcDbEntity
  8
RACCORDO
100
AcDbLine
 62
250
  6
CONTINUOUS
 10
19.2809992487
 20
-0.8364602128
 11
19.2727866739
 21
3.6273080919
  0
LINE
  5
262
100
AcDbEntity
  8
RACCORDO
100
AcDbLine
 62
250
  6
CONTINUOUS
 10
18.7729580114
 20
3.6001731017
 11
18.7678538993
 21
9.244073111
  0
LINE
  5
263
100
AcDbEntity
  8
RACCORDO
100
AcDbLine
 62
250
  6
CONTINUOUS
 10
19.2727866739
 20
3.6273080919
 11
19.2676825618
 21
9.2528645944
  0
LINE
  5
264
100
AcDbEntity
  8
ASSI
100
AcDbLine
 62
7
  6
CONTINUOUS
 10
18.7272151129
 20
29.4929252521
 11
18.7272151129
 21
27.6148885734
  0
LINE
  5
265
100
AcDbEntity
  8
ASSI
100
AcDbLine
 62
7
  6
CONTINUOUS
 10
18.7272151129
 20
17.6648885734
 11
18.7272151129
 21
-22.2131481053
  0
LINE
  5
266
100
AcDbEntity
  8
ASSI
100
AcDbLine
 62
7
  6
CONTINUOUS
 10
18.7586382187
 20
26.5641965654
 11
18.7586382187
 21
18.7155805814
  0
LINE
  5
267
100
AcDbEntity
  8
RACCORDO
100
AcDbLine
 62
250
  6
CONTINUOUS
 10
18.7678538993
 20
9.244073111
 11
18.766836729
 21
29.453303636
  0
LINE
  5
268
100
AcDbEntity
  8
RACCORDO
100
AcDbLine
 62
250
  6
CONTINUOUS
 10
19.2676825618
 20
9.2528645944
 11
19.2666653915
 21
29.9531322985
  0
LINE
  5
269
100
AcDbEntity
  8
RACCORDO
100
AcDbLine
 62
250
  6
CONTINUOUS
 10
19.3365751908
 20
-22.0536316526
 11
19.2809992487
 21
-0.8364602128
  0
LINE
  5
26A
100
AcDbEntity
  8
RACCORDO
100
AcDbLine
 62
250
  6
CONTINUOUS
 10
18.7620774268
 20
-22.169931951
 11
18.8367465284
 21
-21.5645332428
  0
LINE
  5
26B
100
AcDbEntity
  8
RACCORDO
100
AcDbLine
 62
250
  6
CONTINUOUS
 10
19.2619060893
 20
-22.6590303608
 11
19.3365751908
 21
-22.0536316526
  0
LINE
  5
26C
100
AcDbEntity
  8
ASSI
100
AcDbLine
 62
7
  6
CONTINUOUS
 10
18.7272151129
 20
27.6148885734
 11
18.7369994347
 21
27.5490043184
  0
LWPOLYLINE
  5
26D
100
AcDbEntity
  8
RACCORDO
100
AcDbPolyline
 62
250
  6
CONTINUOUS
 90
10
 70
0
 10
19.259529677
 20
-22.6804908662
 10
19.2597959493
 20
-22.679751872
 10
19.2600617168
 20
-22.67859993
 10
19.2603269795
 20
-22.6770356458
 10
19.2605918063
 20
-22.675060095
 10
19.2608561283
 20
-22.6726740358
 10
19.2611197383
 20
-22.669877344
 10
19.2613825673
 20
-22.666670328
 10
19.2616446843
 20
-22.6630542934
 10
19.2619060893
 20
-22.6590303608
  0
LWPOLYLINE
  5
26E
100
AcDbEntity
  8
RACCORDO
100
AcDbPolyline
 62
250
  6
CONTINUOUS
 90
16
 70
0
 10
18.7956882237
 20
-6.6464531932
 10
18.7996745484
 20
-6.6410785739
 10
18.8089149873
 20
-6.6357608968
 10
18.8233116242
 20
-6.6305565107
 10
18.8427119062
 20
-6.6255205637
 10
18.8669102601
 20
-6.6207064186
 10
18.8956502714
 20
-6.6161650868
 10
18.9286274002
 20
-6.6119446896
 10
18.9654922091
 20
-6.6080899482
 10
19.0058540663
 20
-6.6046417085
 10
19.0492852837
 20
-6.6016365086
 10
19.0953256495
 20
-6.5991061928
 10
19.1434873055
 20
-6.5970775736
 10
19.1932599153
 20
-6.5955721467
 10
19.2441160717
 20
-6.5946058633
 10
19.2955168862
 20
-6.5941889615
  0
LWPOLYLINE
  5
26F
100
AcDbEntity
  8
0
100
AcDbPolyline
 62
7
  6
CONTINUOUS
 90
3
 70
0
 43
0.3500000006
 10
42.0657927704
 20
39.2064559479
 10
41.9943661194
 20
38.9921669312
 10
41.8515082855
 20
38.7064557953
  0
LINE
  5
270
100
AcDbEntity
  8
RACCORDO
100
AcDbLine
 62
250
  6
CONTINUOUS
 10
19.2955168862
 20
-6.5941889615
 11
62.7646440218
 21
-6.5941889615
  0
LINE
  5
271
100
AcDbEntity
  8
RACCORDO
100
AcDbLine
 62
7
  6
CONTINUOUS
 10
46.4613790284
 20
-22.4555144084
 11
46.3621483492
 21
-22.2929867945
  0
LINE
  5
272
100
AcDbEntity
  8
0
100
AcDbLine
 62
7
  6
CONTINUOUS
 10
35.260080454
 20
-22.7129767678
 11
35.260080454
 21
-22.7116679204
  0
LWPOLYLINE
  5
273
100
AcDbEntity
  8
RACCORDO
100
AcDbPolyline
 62
250
  6
CONTINUOUS
 90
19
 70
0
 10
18.8367465284
 20
-21.5645332428
 10
18.8397078293
 20
-21.5600462502
 10
18.8463354826
 20
-21.5555924358
 10
18.8565804159
 20
-21.5512046618
 10
18.8703667638
 20
-21.5469153298
 10
18.8875927025
 20
-21.5427560527
 10
18.9081314361
 20
-21.5387574314
 10
18.9318330133
 20
-21.5349487456
 10
18.9585214296
 20
-21.531358353
 10
18.9879947868
 20
-21.5280132737
 10
19.0200307866
 20
-21.5249383819
 10
19.0543951229
 20
-21.5221558399
 10
19.0908395761
 20
-21.5196856377
 10
19.1291236242
 20
-21.5175445744
 10
19.168939236
 20
-21.5157503499
 10
19.2099097897
 20
-21.5143187045
 10
19.2516995099
 20
-21.5132585786
 10
19.2940250079
 20
-21.5125744364
 10
19.3365751908
 20
-21.5122690112
  0
LWPOLYLINE
  5
274
100
AcDbEntity
  8
0
100
AcDbPolyline
 62
7
  6
CONTINUOUS
 90
2
 70
0
 43
0.3500000006
 10
37.63722258
 20
38.9207402802
 10
37.63722258
 20
40.4207407379
  0
LINE
  5
275
100
AcDbEntity
  8
RACCORDO
100
AcDbLine
 62
250
  6
CONTINUOUS
 10
35.806083249
 20
-22.2607305189
 11
35.7950482444
 21
-22.5033871683
  0
LWPOLYLINE
  5
276
100
AcDbEntity
  8
RACCORDO
100
AcDbPolyline
 62
250
  6
CONTINUOUS
 90
10
 70
0
 10
18.7597010145
 20
-22.1806622037
 10
18.7599672745
 20
-22.1802920604
 10
18.7602330358
 20
-22.1797161903
 10
18.7604982985
 20
-22.1789345935
 10
18.7607631356
 20
-22.1779470033
 10
18.761027474
 20
-22.1767536863
 10
18.7612910943
 20
-22.1753554426
 10
18.7615539232
 20
-22.1737525388
 10
18.7618160341
 20
-22.1719447083
 10
18.7620774268
 20
-22.169931951
  0
LINE
  5
277
100
AcDbEntity
  8
RACCORDO
100
AcDbLine
 62
250
  6
CONTINUOUS
 10
62.8331171327
 20
29.9927539146
 11
62.7934955166
 21
29.9531322985
  0
LINE
  5
278
100
AcDbEntity
  8
RACCORDO
100
AcDbLine
 62
250
  6
CONTINUOUS
 10
63.3329457952
 20
29.4929252521
 11
63.2933241791
 21
29.453303636
  0
LINE
  5
279
100
AcDbEntity
  8
RACCORDO
100
AcDbLine
 62
250
  6
CONTINUOUS
 10
62.8006312311
 20
-22.6804908662
 11
62.8331171327
 21
-22.7129767678
  0
LINE
  5
27A
100
AcDbEntity
  8
RACCORDO
100
AcDbLine
 62
250
  6
CONTINUOUS
 10
63.3004598936
 20
-22.1806622037
 11
63.3329457952
 21
-22.2131481053
  0
LINE
  5
27B
100
AcDbEntity
  8
RACCORDO
100
AcDbLine
 62
7
  6
CONTINUOUS
 10
46.4613790284
 20
-22.4555144084
 11
46.4629390296
 21
-22.4606502369
  0
LWPOLYLINE
  5
27C
100
AcDbEntity
  8
0
100
AcDbPolyline
 62
7
  6
CONTINUOUS
 90
2
 70
0
 43
0.3500000006
 10
39.994365509
 20
38.9207402802
 10
39.994365509
 20
40.4207407379
  0
LINE
  5
27D
100
AcDbEntity
  8
RACCORDO
100
AcDbLine
 62
7
  6
CONTINUOUS
 10
35.5972218784
 20
-22.4606502369
 11
35.5987818797
 21
-22.4555144084
  0
LINE
  5
27E
100
AcDbEntity
  8
RACCORDO
100
AcDbLine
 62
250
  6
CONTINUOUS
 10
18.7272151129
 20
-22.2131481053
 11
18.7597010145
 21
-22.1806622037
  0
LWPOLYLINE
  5
27F
100
AcDbEntity
  8
0
100
AcDbPolyline
 62
7
  6
CONTINUOUS
 90
4
 70
0
 43
0.3500000006
 10
68.40378685
 20
5.5684596405
 10
67.7609333954
 20
5.5684596405
 10
67.7609333954
 20
7.0684600983
 10
70.7609297791
 20
6.211317627
  0
LINE
  5
280
100
AcDbEntity
  8
RACCORDO
100
AcDbLine
 62
250
  6
CONTINUOUS
 10
18.766836729
 20
29.453303636
 11
18.7272151129
 21
29.4929252521
  0
LINE
  5
281
100
AcDbEntity
  8
RACCORDO
100
AcDbLine
 62
250
  6
CONTINUOUS
 10
46.2651126636
 20
-22.5033871683
 11
46.254077659
 21
-22.2607305189
  0
LINE
  5
282
100
AcDbEntity
  8
RACCORDO
100
AcDbLine
 62
250
  6
CONTINUOUS
 10
19.2270437753
 20
-22.7129767678
 11
19.259529677
 21
-22.6804908662
  0
LINE
  5
283
100
AcDbEntity
  8
RACCORDO
100
AcDbLine
 62
250
  6
CONTINUOUS
 10
19.2666653915
 20
29.9531322985
 11
19.2270437753
 21
29.9927539146
  0
LWPOLYLINE
  5
284
100
AcDbEntity
  8
RACCORDO
100
AcDbPolyline
 62
250
  6
CONTINUOUS
 90
19
 70
0
 10
63.2234143797
 20
-21.5645332428
 10
63.2204484415
 20
-21.560041928
 10
63.2138079048
 20
-21.5555832589
 10
63.2035404949
 20
-21.5511902275
 10
63.1897181988
 20
-21.546894653
 10
63.1724434114
 20
-21.5427291138
 10
63.1518538814
 20
-21.5387264673
 10
63.1281160536
 20
-21.5349176628
 10
63.1014008656
 20
-21.5313289081
 10
63.0718858532
 20
-21.5279840439
 10
63.0397614232
 20
-21.5249058886
 10
63.0052835129
 20
-21.5221201071
 10
62.9687604819
 20
-21.5196510767
 10
62.9304670764
 20
-21.5175158878
 10
62.8906928285
 20
-21.5157292729
 10
62.8498019276
 20
-21.5143052091
 10
62.8081251643
 20
-21.5132516217
 10
62.7659501683
 20
-21.5125722763
 10
62.7235857172
 20
-21.5122690112
  0
LINE
  5
285
100
AcDbEntity
  8
0
100
AcDbLine
 62
7
  6
CONTINUOUS
 10
46.800080454
 20
-22.7129767678
 11
46.800080454
 21
-22.7116679204
  0
LINE
  5
286
100
AcDbEntity
  8
RACCORDO
100
AcDbLine
 62
7
  6
CONTINUOUS
 10
35.5987818797
 20
-22.4555144084
 11
35.6980125589
 21
-22.2929867945
  0
LINE
  5
287
100
AcDbEntity
  8
RACCORDO
100
AcDbLine
 62
250
  6
CONTINUOUS
 10
18.766836729
 20
14.3770312683
 11
63.2933241791
 21
14.3770312683
  0
LWPOLYLINE
  5
288
100
AcDbEntity
  8
0
100
AcDbPolyline
 62
7
  6
CONTINUOUS
 90
3
 70
0
 43
0.3500000006
 10
70.4752186432
 20
4.5684593353
 10
70.6895031281
 20
4.4970304184
 10
70.9752187958
 20
4.3541748505
  0
LWPOLYLINE
  5
289
100
AcDbEntity
  8
RACCORDO
100
AcDbPolyline
 62
250
  6
CONTINUOUS
 90
16
 70
0
 10
63.2644726843
 20
-6.6464531932
 10
63.2604863631
 20
-6.6410785014
 10
63.2512459318
 20
-6.6357607616
 10
63.2368493052
 20
-6.6305563224
 10
63.2174490346
 20
-6.6255203318
 10
63.1932506919
 20
-6.6207061526
 10
63.1645106906
 20
-6.6161647977
 10
63.1315335693
 20
-6.6119443886
 10
63.0946687647
 20
-6.6080896463
 10
63.0543069083
 20
-6.6046414169
 10
63.0108756878
 20
-6.6016362389
 10
62.9648353149
 20
-6.5991059563
 10
62.9166736486
 20
-6.5970773807
 10
62.8669010258
 20
-6.5955720076
 10
62.816044854
 20
-6.5946057884
 10
62.7646440218
 20
-6.5941889615
  0
LWPOLYLINE
  5
28A
100
AcDbEntity
  8
0
100
AcDbPolyline
 62
7
  6
CONTINUOUS
 90
10
 70
0
 43
0.3500000006
 10
70.2609296265
 20
4.4970304184
 10
70.4037874603
 20
4.5684593353
 10
70.4752186432
 20
4.5684593353
 10
70.6180764771
 20
4.4256037674
 10
70.6180764771
 20
4.3541748505
 10
70.5466452942
 20
4.2827459335
 10
70.4752186432
 20
4.2827459335
 10
70.3323608093
 20
4.3541748505
 10
70.2609296265
 20
4.4256037674
 10
70.2609296265
 20
4.4970304184
  0
LWPOLYLINE
  5
28B
100
AcDbEntity
  8
0
100
AcDbPolyline
 62
7
  6
CONTINUOUS
 90
10
 70
0
 43
0.3500000006
 10
41.9943661194
 20
39.4207404327
 10
42.0657927704
 20
39.2778825989
 10
42.0657927704
 20
39.2064559479
 10
41.9229394684
 20
39.063598114
 10
41.8515082855
 20
39.063598114
 10
41.7800816345
 20
39.135024765
 10
41.7800816345
 20
39.2064559479
 10
41.8515082855
 20
39.3493092499
 10
41.9229394684
 20
39.4207404327
 10
41.9943661194
 20
39.4207404327
  0
LWPOLYLINE
  5
28C
100
AcDbEntity
  8
RACCORDO
100
AcDbPolyline
 62
250
  6
CONTINUOUS
 90
10
 70
0
 10
63.2980834813
 20
-22.169931951
 10
63.2983445824
 20
-22.1719428727
 10
63.2986064743
 20
-22.1737494549
 10
63.2988691569
 20
-22.1753516977
 10
63.2991327031
 20
-22.1767500389
 10
63.2993970401
 20
-22.1779440407
 10
63.2996619494
 20
-22.1789323894
 10
63.2999273584
 20
-22.1797146472
 10
63.3001933398
 20
-22.180291252
 10
63.3004598936
 20
-22.1806622037
  0
LINE
  5
28D
100
AcDbEntity
  8
RACCORDO
100
AcDbLine
 62
250
  6
CONTINUOUS
 10
62.7235857172
 20
-22.0536316526
 11
62.7982548188
 21
-22.6590303608
  0
LWPOLYLINE
  5
28E
100
AcDbEntity
  8
RACCORDO
100
AcDbPolyline
 62
250
  6
CONTINUOUS
 90
10
 70
0
 10
62.7982548188
 20
-22.6590303608
 10
62.7985159321
 20
-22.6630500583
 10
62.7987778302
 20
-22.6666637082
 10
62.7990405128
 20
-22.6698698542
 10
62.7993040487
 20
-22.6726668536
 10
62.7995683693
 20
-22.6750540551
 10
62.7998332684
 20
-22.6770312377
 10
62.8000986774
 20
-22.6785973005
 10
62.800364665
 20
-22.6797508264
 10
62.8006312311
 20
-22.6804908662
  0
LINE
  5
28F
100
AcDbEntity
  8
RACCORDO
100
AcDbLine
 62
250
  6
CONTINUOUS
 10
63.2234143797
 20
-21.5645332428
 11
63.2980834813
 21
-22.169931951
  0
LWPOLYLINE
  5
290
100
AcDbEntity
  8
RACCORDO
100
AcDbPolyline
 62
250
  6
CONTINUOUS
 90
19
 70
0
 10
63.2933241791
 20
29.453303636
 10
63.2913833125
 20
29.4969687276
 10
63.2856342438
 20
29.5403064246
 10
63.2761192372
 20
29.582985024
 10
63.2629062052
 20
29.6246863798
 10
63.2460963001
 20
29.665081497
 10
63.225830718
 20
29.7038361187
 10
63.2022827669
 20
29.7406374196
 10
63.1756271707
 20
29.7752283157
 10
63.146042437
 20
29.8073774825
 10
63.1137196228
 20
29.8368618282
 10
63.0789287283
 20
29.8634208696
 10
63.0420025191
 20
29.8868071806
 10
63.0032305547
 20
29.9068557709
 10
62.9629164766
 20
29.923427103
 10
62.921453177
 20
29.9363883227
 10
62.8791922025
 20
29.9456723433
 10
62.8364319821
 20
29.9512552911
 10
62.7934955165
 20
29.9531322984
  0
LINE
  5
291
100
AcDbEntity
  8
RACCORDO
100
AcDbLine
 62
7
  6
CONTINUOUS
 10
63.3329457952
 20
29.4929252521
 11
63.3329457952
 21
-22.2131481053
  0
LINE
  5
292
100
AcDbEntity
  8
RACCORDO
100
AcDbLine
 62
250
  6
CONTINUOUS
 10
62.7934955166
 20
29.9531322985
 11
62.7931866015
 21
11.3586430541
  0
LINE
  5
293
100
AcDbEntity
  8
RACCORDO
100
AcDbLine
 62
250
  6
CONTINUOUS
 10
63.2933241791
 20
29.453303636
 11
63.293015264
 21
11.3543904384
  0
LINE
  5
294
100
AcDbEntity
  8
RACCORDO
100
AcDbLine
 62
250
  6
CONTINUOUS
 10
62.7931866015
 20
11.3586430541
 11
62.7905286464
 21
6.3509947711
  0
LINE
  5
295
100
AcDbEntity
  8
RACCORDO
100
AcDbLine
 62
250
  6
CONTINUOUS
 10
63.293015264
 20
11.3543904384
 11
63.2903573089
 21
6.333810864
  0
LINE
  5
296
100
AcDbEntity
  8
RACCORDO
100
AcDbLine
 62
250
  6
CONTINUOUS
 10
62.7905286464
 20
6.3509947711
 11
62.7799851919
 21
-0.4585323995
  0
LINE
  5
297
100
AcDbEntity
  8
RACCORDO
100
AcDbLine
 62
250
  6
CONTINUOUS
 10
63.2903573089
 20
6.333810864
 11
63.2798138544
 21
-0.499325196
  0
LINE
  5
298
100
AcDbEntity
  8
RACCORDO
100
AcDbLine
 62
250
  6
CONTINUOUS
 10
62.7799851919
 20
-0.4585323995
 11
62.7646440218
 21
-6.5941889615
  0
LINE
  5
299
100
AcDbEntity
  8
RACCORDO
100
AcDbLine
 62
250
  6
CONTINUOUS
 10
62.7646440218
 20
-6.5941889615
 11
62.7235857172
 21
-22.0536316526
  0
LINE
  5
29A
100
AcDbEntity
  8
RACCORDO
100
AcDbLine
 62
250
  6
CONTINUOUS
 10
63.2798138544
 20
-0.499325196
 11
63.2644726843
 21
-6.6464531932
  0
LINE
  5
29B
100
AcDbEntity
  8
RACCORDO
100
AcDbLine
 62
250
  6
CONTINUOUS
 10
63.2644726843
 20
-6.6464531932
 11
63.2234143797
 21
-21.5645332428
  0
LWPOLYLINE
  5
29C
100
AcDbEntity
  8
RACCORDO
100
AcDbPolyline
 62
250
  6
CONTINUOUS
 90
19
 70
0
 10
63.2234143797
 20
-21.5645332428
 10
63.2212841829
 20
-21.6070706114
 10
63.2153825078
 20
-21.6492849656
 10
63.2057542537
 20
-21.6908564343
 10
63.1924726427
 20
-21.7314698088
 10
63.1756384383
 20
-21.7708176485
 10
63.155378974
 20
-21.8086025283
 10
63.1318461621
 20
-21.8445403343
 10
63.1052194849
 20
-21.8783562919
 10
63.0757059843
 20
-21.9097889743
 10
63.0435345106
 20
-21.9385983591
 10
63.008946684
 20
-21.9645714779
 10
62.9721988189
 20
-21.9875169896
 10
62.9335396298
 20
-22.0072746299
 10
62.8932887045
 20
-22.0236763413
 10
62.8518376185
 20
-22.0365748087
 10
62.8095356001
 20
-22.0458891092
 10
62.7666771536
 20
-22.0515814505
 10
62.7235857172
 20
-22.0536316526
  0
LWPOLYLINE
  5
29D
100
AcDbEntity
  8
RACCORDO
100
AcDbPolyline
 62
250
  6
CONTINUOUS
 90
16
 70
0
 10
63.3004598936
 20
-22.1806622037
 10
63.2976883807
 20
-22.2328858297
 10
63.2894757517
 20
-22.2845377814
 10
63.2759119074
 20
-22.3350526423
 10
63.2571453265
 20
-22.3838774434
 10
63.2333814405
 20
-22.4304777161
 10
63.2048803846
 20
-22.4743433431
 10
63.1719541501
 20
-22.5149941421
 10
63.1349631696
 20
-22.5519851227
 10
63.0943123705
 20
-22.5849113571
 10
63.0504467435
 20
-22.6134124131
 10
63.0038464708
 20
-22.6371762991
 10
62.9550216697
 20
-22.6559428799
 10
62.9045068088
 20
-22.6695067243
 10
62.8528548571
 20
-22.6777193533
 10
62.8006312311
 20
-22.6804908662
  0
LWPOLYLINE
  5
29E
100
AcDbEntity
  8
RACCORDO
100
AcDbPolyline
 62
250
  6
CONTINUOUS
 90
16
 70
0
 10
63.2980834813
 20
-22.169931951
 10
63.2950812149
 20
-22.2208810906
 10
63.2866731975
 20
-22.2712758782
 10
63.2729509118
 20
-22.3205679902
 10
63.2540636631
 20
-22.3682211002
 10
63.2302169542
 20
-22.413716715
 10
63.2016702501
 20
-22.4565598157
 10
63.1687341541
 20
-22.4962842447
 10
63.1317670291
 20
-22.5324577767
 10
63.0911710981
 20
-22.564686822
 10
63.0473880676
 20
-22.5926207095
 10
63.0008943216
 20
-22.6159555016
 10
62.9521957392
 20
-22.6344373014
 10
62.9018221891
 20
-22.6478650156
 10
62.8503217642
 20
-22.6560925423
 10
62.7982548188
 20
-22.6590303608
  0
LINE
  5
29F
100
AcDbEntity
  8
RACCORDO
100
AcDbLine
 62
250
  6
CONTINUOUS
 10
18.766836729
 20
29.453303636
 11
63.2933241791
 21
29.453303636
  0
LINE
  5
2A0
100
AcDbEntity
  8
RACCORDO
100
AcDbLine
 62
250
  6
CONTINUOUS
 10
62.7934955166
 20
29.9531322985
 11
19.2666653915
 21
29.9531322985
  0
LINE
  5
2A1
100
AcDbEntity
  8
RACCORDO
100
AcDbLine
 62
7
  6
CONTINUOUS
 10
19.2270437753
 20
29.9927539146
 11
62.8331171327
 21
29.9927539146
  0
LWPOLYLINE
  5
2A2
100
AcDbEntity
  8
0
100
AcDbPolyline
 62
7
  6
CONTINUOUS
 90
7
 70
0
 43
0.3500000006
 10
70.7609297791
 20
2.9970322266
 10
70.7609297791
 20
1.4970317688
 10
68.6180758667
 20
2.9970322266
 10
68.1895023651
 20
2.9970322266
 10
67.7609333954
 20
2.5684609909
 10
67.7609333954
 20
1.9256030045
 10
68.40378685
 20
1.4970317688
  0
LWPOLYLINE
  5
2A3
100
AcDbEntity
  8
0
100
AcDbPolyline
 62
7
  6
CONTINUOUS
 90
8
 70
0
 43
0.3500000006
 10
70.7609297791
 20
-0.6458266754
 10
70.7609297791
 20
0.2113180618
 10
70.3323608093
 20
0.6398892975
 10
69.475218338
 20
0.6398892975
 10
69.0466448364
 20
0.2113180618
 10
69.0466448364
 20
-0.6458266754
 10
67.7609333954
 20
-0.6458266754
 10
67.7609333954
 20
0.6398892975
  0
LWPOLYLINE
  5
2A4
100
AcDbEntity
  8
0
100
AcDbPolyline
 62
7
  6
CONTINUOUS
 90
3
 70
0
 43
0.3500000006
 10
40.4943656616
 20
39.5635982666
 10
38.9943652039
 20
39.5635982666
 10
39.6372231903
 20
41.9207411957
  0
LWPOLYLINE
  5
2A5
100
AcDbEntity
  8
0
100
AcDbPolyline
 62
7
  6
CONTINUOUS
 90
3
 70
0
 43
0.3500000006
 10
38.1372227325
 20
39.5635982666
 10
36.6372222748
 20
39.5635982666
 10
37.2800802612
 20
41.9207411957
  0
LWPOLYLINE
  5
2A6
100
AcDbEntity
  8
0
100
AcDbPolyline
 62
7
  6
CONTINUOUS
 90
3
 70
0
 43
0.3500000006
 10
-13.0893779182
 20
49.2648882751
 10
-13.1645354233
 20
49.0518817749
 10
-13.3123567772
 20
48.768703949
  0
LINE
  5
2A7
100
AcDbEntity
  8
RACCORDO
100
AcDbLine
 62
7
  6
CONTINUOUS
 10
-1.9225768245
 20
-22.6804908662
 11
-0.6819902928
 21
-22.7129767678
  0
LINE
  5
2A8
100
AcDbEntity
  8
RACCORDO
100
AcDbLine
 62
250
  6
CONTINUOUS
 10
-1.9225768245
 20
-22.1806622037
 11
-0.6819902928
 21
-22.2131481053
  0
LINE
  5
2A9
100
AcDbEntity
  8
RACCORDO
100
AcDbLine
 62
250
  6
CONTINUOUS
 10
-4.8648262956
 20
-21.5645332428
 11
-5.2851832343
 21
-21.5196510767
  0
LWPOLYLINE
  5
2AA
100
AcDbEntity
  8
RACCORDO
100
AcDbPolyline
 62
250
  6
CONTINUOUS
 90
5
 70
0
 10
-5.2851832343
 20
-21.5196510767
 10
-5.3329307275
 20
-21.5143052091
 10
-5.3418635984
 20
-21.5132516217
 10
-5.3472227468
 20
-21.5125722763
 10
-5.3489987691
 20
-21.5122690112
  0
LWPOLYLINE
  5
2AB
100
AcDbEntity
  8
RACCORDO
100
AcDbPolyline
 62
250
  6
CONTINUOUS
 90
10
 70
0
 10
-2.0133283499
 20
-22.169931951
 10
-2.0033573004
 20
-22.1719428727
 10
-1.9933560529
 20
-22.1737494549
 10
-1.9833246074
 20
-22.1753516977
 10
-1.9732601842
 20
-22.1767500389
 10
-1.963165563
 20
-22.1779440407
 10
-1.9530490825
 20
-22.1789323894
 10
-1.9429135224
 20
-22.1797146472
 10
-1.9327561031
 20
-22.180291252
 10
-1.9225768245
 20
-22.1806622037
  0
LINE
  5
2AC
100
AcDbEntity
  8
RACCORDO
100
AcDbLine
 62
7
  6
CONTINUOUS
 10
-4.955577821
 20
-22.0536316526
 11
-2.1040798754
 21
-22.6590303608
  0
LINE
  5
2AD
100
AcDbEntity
  8
RACCORDO
100
AcDbLine
 62
250
  6
CONTINUOUS
 10
-4.8648262956
 20
-21.5645332428
 11
-2.0133283499
 21
-22.169931951
  0
LWPOLYLINE
  5
2AE
100
AcDbEntity
  8
0
100
AcDbPolyline
 62
7
  6
CONTINUOUS
 90
3
 70
0
 43
0.3500000006
 10
-13.45404879
 20
39.2064559479
 10
-13.5254765739
 20
38.9921669312
 10
-13.6683344078
 20
38.7064557953
  0
LWPOLYLINE
  5
2AF
100
AcDbEntity
  8
0
100
AcDbPolyline
 62
7
  6
CONTINUOUS
 90
4
 70
0
 43
0.3500000006
 10
-16.1241869202
 20
51.3896011505
 10
-16.1129671669
 20
52.0323639679
 10
-14.6131955681
 20
52.0061834106
 10
-15.522565464
 20
49.021599884
  0
LWPOLYLINE
  5
2B0
100
AcDbEntity
  8
0
100
AcDbPolyline
 62
7
  6
CONTINUOUS
 90
2
 70
0
 43
0.3500000006
 10
-15.5254771843
 20
38.9207402802
 10
-15.5254771843
 20
40.4207407379
  0
LINE
  5
2B1
100
AcDbEntity
  8
RACCORDO
100
AcDbLine
 62
250
  6
CONTINUOUS
 10
0.647521441
 20
25.0583356061
 11
0.6200921256
 21
25.0308008581
  0
LINE
  5
2B2
100
AcDbEntity
  8
RACCORDO
100
AcDbLine
 62
250
  6
CONTINUOUS
 10
0.8589639917
 20
24.8431690095
 11
0.8315340227
 21
24.8156336383
  0
LINE
  5
2B3
100
AcDbEntity
  8
RACCORDO
100
AcDbLine
 62
250
  6
CONTINUOUS
 10
0.6200921256
 20
25.0308008581
 11
0.5332093032
 21
24.9446099612
  0
LINE
  5
2B4
100
AcDbEntity
  8
RACCORDO
100
AcDbLine
 62
250
  6
CONTINUOUS
 10
0.8315340227
 20
24.8156336383
 11
0.7446509024
 21
24.7294424385
  0
LINE
  5
2B5
100
AcDbEntity
  8
RACCORDO
100
AcDbLine
 62
250
  6
CONTINUOUS
 10
0.5332093032
 20
24.9446099612
 11
0.4518346333
 21
24.8644428877
  0
LINE
  5
2B6
100
AcDbEntity
  8
RACCORDO
100
AcDbLine
 62
250
  6
CONTINUOUS
 10
0.7446509024
 20
24.7294424385
 11
0.6632777577
 21
24.649276801
  0
LWPOLYLINE
  5
2B7
100
AcDbEntity
  8
RACCORDO
100
AcDbPolyline
 62
7
  6
CONTINUOUS
 90
13
 70
0
 10
0.8693186876
 20
24.0805265409
 10
0.8898331408
 20
24.0961743534
 10
0.9097051091
 20
24.1100884952
 10
0.9285900053
 20
24.1223701021
 10
0.9461670234
 20
24.1331122953
 10
0.9621894792
 20
24.1424901614
 10
0.976473929
 20
24.1507457474
 10
0.9888029238
 20
24.1580528189
 10
0.9990669091
 20
24.1645666369
 10
1.0072335419
 20
24.1704816406
 10
1.0131870559
 20
24.1759629719
 10
1.0167989502
 20
24.1811694134
 10
1.0180097072
 20
24.1862756333
  0
LINE
  5
2B8
100
AcDbEntity
  8
DRAFT
100
AcDbLine
 62
7
  6
CONTINUOUS
 10
-0.6819902928
 20
-11.4101114266
 11
0.5180097072
 21
-11.1330695973
  0
LWPOLYLINE
  5
2B9
100
AcDbEntity
  8
RACCORDO
100
AcDbPolyline
 62
250
  6
CONTINUOUS
 90
13
 70
0
 10
2.1285213531
 20
-10.9642235189
 10
2.1414822725
 20
-10.9619276998
 10
2.1540414086
 20
-10.9573611921
 10
2.166004938
 20
-10.9505944702
 10
2.1771882291
 20
-10.9417319639
 10
2.187418692
 20
-10.9309104471
 10
2.1965384413
 20
-10.9182969266
 10
2.2044067334
 20
-10.904086065
 10
2.2109021379
 20
-10.8884971766
 10
2.2159244123
 20
-10.8717708425
 10
2.2193960484
 20
-10.8541651978
 10
2.221263469
 20
-10.8359519478
 10
2.2214978545
 20
-10.8174121751
  0
LWPOLYLINE
  5
2BA
100
AcDbEntity
  8
RACCORDO
100
AcDbPolyline
 62
250
  6
CONTINUOUS
 90
13
 70
0
 10
1.9603685307
 20
-10.9789349846
 10
1.9733304472
 20
-10.9766388973
 10
1.9858904617
 20
-10.972071791
 10
1.9978547132
 20
-10.9653041818
 10
2.009038546
 20
-10.9564405437
 10
2.0192693394
 20
-10.9456177102
 10
2.0283891778
 20
-10.9330027724
 10
2.0362574913
 20
-10.9187901023
 10
2.0427526152
 20
-10.9031993836
 10
2.0477740012
 20
-10.8864725604
 10
2.051244449
 20
-10.8688684573
 10
2.0531109292
 20
-10.8506584718
 10
2.0533450321
 20
-10.8321236408
  0
LWPOLYLINE
  5
2BB
100
AcDbEntity
  8
RACCORDO
100
AcDbPolyline
 62
250
  6
CONTINUOUS
 90
5
 70
0
 10
2.5848673293
 20
-10.4748523731
 10
2.5842950634
 20
-10.474937329
 10
2.5825859798
 20
-10.475001612
 10
2.5797531485
 20
-10.4750447366
 10
2.5758181944
 20
-10.4750663771
  0
LINE
  5
2BC
100
AcDbEntity
  8
DRAFT
100
AcDbLine
 62
7
  6
CONTINUOUS
 10
1.4983359466
 20
-11.0193575979
 11
-0.6819902928
 21
-11.2101114266
  0
LINE
  5
2BD
100
AcDbEntity
  8
RACCORDO
100
AcDbLine
 62
7
  6
CONTINUOUS
 10
1.4983359466
 20
-11.0193575979
 11
2.1285213531
 21
-10.9642235189
  0
LINE
  5
2BE
100
AcDbEntity
  8
RACCORDO
100
AcDbLine
 62
250
  6
CONTINUOUS
 10
2.2214978545
 20
-10.8174121751
 11
2.0533450321
 21
-10.8321236408
  0
LINE
  5
2BF
100
AcDbEntity
  8
RACCORDO
100
AcDbLine
 62
250
  6
CONTINUOUS
 10
1.8174872421
 20
-10.8434803629
 11
1.9472951693
 21
-10.8321236408
  0
LINE
  5
2C0
100
AcDbEntity
  8
RACCORDO
100
AcDbLine
 62
250
  6
CONTINUOUS
 10
2.0334377832
 20
-10.8322715123
 11
2.0533450321
 21
-10.8321236408
  0
LINE
  5
2C1
100
AcDbEntity
  8
RACCORDO
100
AcDbLine
 62
250
  6
CONTINUOUS
 10
1.9987087114
 20
-10.8323366661
 11
2.0334377832
 21
-10.8322715123
  0
LWPOLYLINE
  5
2C2
100
AcDbEntity
  8
RACCORDO
100
AcDbPolyline
 62
250
  6
CONTINUOUS
 90
3
 70
0
 10
1.9472951693
 20
-10.8321236408
 10
1.9603953946
 20
-10.8322083249
 10
1.9987087114
 20
-10.8323366661
  0
LWPOLYLINE
  5
2C3
100
AcDbEntity
  8
0
100
AcDbPolyline
 62
7
  6
CONTINUOUS
 90
4
 70
0
 43
0.3500000006
 10
-12.4540484848
 20
41.2778832092
 10
-12.4540484848
 20
41.9207411957
 10
-10.954048027
 20
41.9207411957
 10
-11.8111916313
 20
38.9207402802
  0
LWPOLYLINE
  5
2C4
100
AcDbEntity
  8
0
100
AcDbPolyline
 62
7
  6
CONTINUOUS
 90
4
 70
0
 43
0.3500000006
 10
-12.0533787804
 20
51.3185461121
 10
-12.0421590271
 20
51.9613043976
 10
-10.5423874283
 20
51.9351283722
 10
-11.4517573242
 20
48.9505448456
  0
LWPOLYLINE
  5
2C5
100
AcDbEntity
  8
RACCORDO
100
AcDbPolyline
 62
250
  6
CONTINUOUS
 90
4
 70
0
 10
0.6631918073
 20
25.074715667
 10
0.6615428947
 20
25.0727608017
 10
0.6562897147
 20
25.0672697107
 10
0.647521441
 20
25.0583356061
  0
LWPOLYLINE
  5
2C6
100
AcDbEntity
  8
RACCORDO
100
AcDbPolyline
 62
250
  6
CONTINUOUS
 90
4
 70
0
 10
0.8746349318
 20
24.8595495803
 10
0.8729859346
 20
24.8575946534
 10
0.8677325499
 20
24.8521033792
 10
0.8589639917
 20
24.8431690095
  0
LINE
  5
2C7
100
AcDbEntity
  8
RACCORDO
100
AcDbLine
 62
250
  6
CONTINUOUS
 10
2.5758181944
 20
-10.4750663771
 11
2.5647700434
 21
-10.4750447221
  0
LINE
  5
2C8
100
AcDbEntity
  8
RACCORDO
100
AcDbLine
 62
250
  6
CONTINUOUS
 10
2.5647700434
 20
-10.4750447221
 11
2.5409400378
 21
-10.4748523731
  0
LINE
  5
2C9
100
AcDbEntity
  8
DRAFT
100
AcDbLine
 62
7
  6
CONTINUOUS
 10
1.7911139332
 20
-8.2264800101
 11
-0.6819902928
 21
-8.0101114266
  0
LINE
  5
2CA
100
AcDbEntity
  8
RACCORDO
100
AcDbLine
 62
7
  6
CONTINUOUS
 10
1.7911139332
 20
-8.2264800101
 11
2.622842665
 21
-8.2992468453
  0
LINE
  5
2CB
100
AcDbEntity
  8
RACCORDO
100
AcDbLine
 62
250
  6
CONTINUOUS
 10
-3.398258236
 20
-6.6357607616
 11
-3.7166370654
 21
-6.6016362389
  0
LWPOLYLINE
  5
2CC
100
AcDbEntity
  8
RACCORDO
100
AcDbPolyline
 62
250
  6
CONTINUOUS
 90
5
 70
0
 10
-3.7166370654
 20
-6.6016362389
 10
-3.7575449371
 20
-6.5970773807
 10
-3.7705642636
 20
-6.5955720076
 10
-3.7784255093
 20
-6.5946057884
 10
-3.7810453739
 20
-6.5941889615
  0
LINE
  5
2CD
100
AcDbEntity
  8
DRAFT
100
AcDbLine
 62
7
  6
CONTINUOUS
 10
-0.6819902928
 20
-7.8101114266
 11
0.5180097072
 21
-8.087153256
  0
LINE
  5
2CE
100
AcDbEntity
  8
RACCORDO
100
AcDbLine
 62
250
  6
CONTINUOUS
 10
-3.2968729003
 20
-6.6464531932
 11
-3.398258236
 21
-6.6357607616
  0
LWPOLYLINE
  5
2CF
100
AcDbEntity
  8
0
100
AcDbPolyline
 62
7
  6
CONTINUOUS
 90
3
 70
0
 10
-0.4124779086
 20
9.5725785219
 10
-0.5737951958
 20
9.4894033377
 10
-0.6819902928
 20
9.4329212192
  0
LWPOLYLINE
  5
2D0
100
AcDbEntity
  8
0
100
AcDbPolyline
 62
7
  6
CONTINUOUS
 90
8
 70
0
 10
0.3025218293
 20
-1.9916636659
 10
0.3084957917
 20
-1.9904717705
 10
0.3143749862
 20
-1.9886555944
 10
0.3200753658
 20
-1.9862151377
 10
0.3255209167
 20
-1.9830918015
 10
0.3306282563
 20
-1.9793441846
 10
0.3353114404
 20
-1.9751480835
 10
0.3394835582
 20
-1.9705203218
  0
LWPOLYLINE
  5
2D1
100
AcDbEntity
  8
0
100
AcDbPolyline
 62
7
  6
CONTINUOUS
 90
7
 70
0
 10
0.3025218293
 20
-1.9916636658
 10
0.3015201204
 20
-1.991783918
 10
0.300512612
 20
-1.9918841006
 10
0.2994993041
 20
-1.9919642135
 10
0.2984801967
 20
-1.9920242567
 10
0.2974552898
 20
-1.9920642302
 10
0.2964245833
 20
-1.9920841341
  0
LWPOLYLINE
  5
2D2
100
AcDbEntity
  8
0
100
AcDbPolyline
 62
7
  6
CONTINUOUS
 90
7
 70
0
 10
-0.0521459108
 20
-1.9951260627
 10
-0.0493627668
 20
-1.995028065
 10
-0.0465927909
 20
-1.9947779265
 10
-0.0438359832
 20
-1.9943756471
 10
-0.0410923435
 20
-1.9938212269
 10
-0.038361872
 20
-1.9931146658
 10
-0.0356445686
 20
-1.9922559639
  0
LINE
  5
2D3
100
AcDbEntity
  8
0
100
AcDbLine
 62
7
  6
CONTINUOUS
 10
0.2964245833
 20
-1.9920841341
 11
-0.1319902928
 21
-1.9958228541
  0
LINE
  5
2D4
100
AcDbEntity
  8
0
100
AcDbLine
 62
250
  6
CONTINUOUS
 10
0.3517227581
 20
-1.9420328281
 11
-0.0019890876
 21
-1.9451175909
  0
LINE
  5
2D5
100
AcDbEntity
  8
0
100
AcDbLine
 62
250
  6
CONTINUOUS
 10
0.3025223222
 20
-2.4797758063
 11
0.3517227618
 21
-2.4797758146
  0
LINE
  5
2D6
100
AcDbEntity
  8
0
100
AcDbLine
 62
7
  6
CONTINUOUS
 10
-0.1319902928
 20
-1.9958228541
 11
-0.6819902928
 21
-1.9387890943
  0
LINE
  5
2D7
100
AcDbEntity
  8
0
100
AcDbLine
 62
7
  6
CONTINUOUS
 10
-0.0356445686
 20
-1.9922559639
 11
-0.6819902928
 21
-1.9252313698
  0
LINE
  5
2D8
100
AcDbEntity
  8
0
100
AcDbLine
 62
250
  6
CONTINUOUS
 10
0.302522801
 20
-2.4797758477
 11
0.3368574607
 21
-2.4960802144
  0
LWPOLYLINE
  5
2D9
100
AcDbEntity
  8
0
100
AcDbPolyline
 62
250
  6
CONTINUOUS
 90
4
 70
0
 10
0.3368574607
 20
-2.4960802144
 10
0.3446176783
 20
-2.4998103292
 10
0.3466243373
 20
-2.50079343
 10
0.3472905108
 20
-2.5011439332
  0
LWPOLYLINE
  5
2DA
100
AcDbEntity
  8
RACCORDO
100
AcDbPolyline
 62
250
  6
CONTINUOUS
 90
5
 70
0
 10
0.4944473195
 20
27.2520071634
 10
0.4962544061
 20
27.2634160103
 10
0.4975024115
 20
27.2717187787
 10
0.4981700234
 20
27.2767736794
 10
0.4982458405
 20
27.2784943881
  0
LWPOLYLINE
  5
2DB
100
AcDbEntity
  8
RACCORDO
100
AcDbPolyline
 62
250
  6
CONTINUOUS
 90
5
 70
0
 10
0.4944473195
 20
26.8520071634
 10
0.4962544061
 20
26.8634160103
 10
0.4975024115
 20
26.8717187787
 10
0.4981700234
 20
26.8767736794
 10
0.4982458405
 20
26.8784943881
  0
LINE
  5
2DC
100
AcDbEntity
  8
RACCORDO
100
AcDbLine
 62
250
  6
CONTINUOUS
 10
0.4892883648
 20
27.2207002809
 11
0.4944473195
 21
27.2520071634
  0
LINE
  5
2DD
100
AcDbEntity
  8
RACCORDO
100
AcDbLine
 62
250
  6
CONTINUOUS
 10
0.4892883648
 20
26.8207002809
 11
0.4944473195
 21
26.8520071634
  0
LINE
  5
2DE
100
AcDbEntity
  8
RACCORDO
100
AcDbLine
 62
250
  6
CONTINUOUS
 10
0.4784062152
 20
27.1568379035
 11
0.4892883648
 21
27.2207002809
  0
LINE
  5
2DF
100
AcDbEntity
  8
RACCORDO
100
AcDbLine
 62
250
  6
CONTINUOUS
 10
0.4784062152
 20
26.7568379035
 11
0.4892883648
 21
26.8207002809
  0
LINE
  5
2E0
100
AcDbEntity
  8
RACCORDO
100
AcDbLine
 62
250
  6
CONTINUOUS
 10
0.4652615121
 20
27.0815328375
 11
0.4784062152
 21
27.1568379035
  0
LINE
  5
2E1
100
AcDbEntity
  8
RACCORDO
100
AcDbLine
 62
250
  6
CONTINUOUS
 10
0.4652615121
 20
26.6815328375
 11
0.4784062152
 21
26.7568379035
  0
LINE
  5
2E2
100
AcDbEntity
  8
DRAFT
100
AcDbLine
 62
7
  6
CONTINUOUS
 10
0.2580006381
 20
9.0398885734
 11
0.7982652422
 21
9.6319520169
  0
LINE
  5
2E3
100
AcDbEntity
  8
0
100
AcDbLine
 62
250
  6
CONTINUOUS
 10
-0.5015195213
 20
8.1058976585
 11
-0.6819902928
 21
8.0128017976
  0
LINE
  5
2E4
100
AcDbEntity
  8
0
100
AcDbLine
 62
250
  6
CONTINUOUS
 10
-0.5299928303
 20
8.1930013978
 11
-0.6819902928
 21
8.114748091
  0
LINE
  5
2E5
100
AcDbEntity
  8
0
100
AcDbLine
 62
250
  6
CONTINUOUS
 10
-0.3780418619
 20
8.1688394258
 11
-0.5015195213
 21
8.1058976585
  0
LINE
  5
2E6
100
AcDbEntity
  8
0
100
AcDbLine
 62
250
  6
CONTINUOUS
 10
-0.3997212498
 20
8.2592281848
 11
-0.5299928303
 21
8.1930013978
  0
LINE
  5
2E7
100
AcDbEntity
  8
0
100
AcDbLine
 62
250
  6
CONTINUOUS
 10
-0.2950270935
 20
8.2105723947
 11
-0.3780418619
 21
8.1688394258
  0
LINE
  5
2E8
100
AcDbEntity
  8
0
100
AcDbLine
 62
250
  6
CONTINUOUS
 10
-0.3118172868
 20
8.3031978001
 11
-0.3997212498
 21
8.2592281848
  0
LINE
  5
2E9
100
AcDbEntity
  8
0
100
AcDbLine
 62
250
  6
CONTINUOUS
 10
-0.2114856501
 20
8.2518869564
 11
-0.2950270935
 21
8.2105723947
  0
LWPOLYLINE
  5
2EA
100
AcDbEntity
  8
0
100
AcDbPolyline
 62
250
  6
CONTINUOUS
 90
4
 70
0
 10
-0.0707423673
 20
7.3196334144
 10
-0.1590867876
 20
7.2759565801
 10
-0.2027184079
 20
7.2547337263
 10
-0.2456896118
 20
7.2341135432
  0
LINE
  5
2EB
100
AcDbEntity
  8
0
100
AcDbLine
 62
250
  6
CONTINUOUS
 10
-0.2232994221
 20
8.3466927202
 11
-0.3118172868
 21
8.3031978001
  0
LINE
  5
2EC
100
AcDbEntity
  8
0
100
AcDbLine
 62
250
  6
CONTINUOUS
 10
-0.1275738436
 20
8.2926314439
 11
-0.2114856501
 21
8.2518869564
  0
LINE
  5
2ED
100
AcDbEntity
  8
0
100
AcDbLine
 62
7
  6
CONTINUOUS
 10
-0.6819902928
 20
7.1377984762
 11
-0.6231836095
 21
7.1661348977
  0
LINE
  5
2EE
100
AcDbEntity
  8
0
100
AcDbLine
 62
250
  6
CONTINUOUS
 10
-0.1344498943
 20
8.3894467973
 11
-0.2232994221
 21
8.3466927202
  0
LWPOLYLINE
  5
2EF
100
AcDbEntity
  8
0
100
AcDbPolyline
 62
250
  6
CONTINUOUS
 90
3
 70
0
 10
-0.5578341446
 20
7.0870201065
 10
-0.6048406001
 20
7.0645364089
 10
-0.6819902928
 20
7.0269984037
  0
LINE
  5
2F0
100
AcDbEntity
  8
0
100
AcDbLine
 62
7
  6
CONTINUOUS
 10
-0.5508817978
 20
7.200442011
 11
-0.6526477664
 21
7.1520127709
  0
LWPOLYLINE
  5
2F1
100
AcDbEntity
  8
0
100
AcDbPolyline
 62
250
  6
CONTINUOUS
 90
3
 70
0
 10
-0.2456896118
 20
7.2341135432
 10
-0.3753909703
 20
7.1728694291
 10
-0.5578341446
 20
7.0870201065
  0
LINE
  5
2F2
100
AcDbEntity
  8
0
100
AcDbLine
 62
7
  6
CONTINUOUS
 10
-0.4519907659
 20
7.2469102018
 11
-0.5809524785
 21
7.1862241294
  0
LWPOLYLINE
  5
2F3
100
AcDbEntity
  8
0
100
AcDbPolyline
 62
250
  6
CONTINUOUS
 90
3
 70
0
 10
-0.0019902928
 20
8.3521166906
 10
-0.0438318113
 20
8.3324946759
 10
-0.1275738436
 20
8.2926314439
  0
LWPOLYLINE
  5
2F4
100
AcDbEntity
  8
0
100
AcDbPolyline
 62
250
  6
CONTINUOUS
 90
3
 70
0
 10
-0.0019902671
 20
8.4516041358
 10
-0.0460621632
 20
8.4311239831
 10
-0.1344498943
 20
8.3894467973
  0
LWPOLYLINE
  5
2F5
100
AcDbEntity
  8
0
100
AcDbPolyline
 62
250
  6
CONTINUOUS
 90
4
 70
0
 10
-0.0655771828
 20
7.9014217194
 10
-0.1528171677
 20
7.862460966
 10
-0.1957697188
 20
7.8435985738
 10
-0.237980312
 20
7.8253188388
  0
LINE
  5
2F6
100
AcDbEntity
  8
0
100
AcDbLine
 62
250
  6
CONTINUOUS
 10
-0.5903646358
 20
7.6756483163
 11
-0.6819902928
 21
7.6356878925
  0
LINE
  5
2F7
100
AcDbEntity
  8
0
100
AcDbLine
 62
7
  6
CONTINUOUS
 10
-0.6819902928
 20
7.7444475555
 11
-0.6154121427
 21
7.7732824487
  0
LINE
  5
2F8
100
AcDbEntity
  8
0
100
AcDbLine
 62
7
  6
CONTINUOUS
 10
-0.6466997691
 20
7.759806437
 11
-0.5340766971
 21
7.8079485854
  0
LINE
  5
2F9
100
AcDbEntity
  8
0
100
AcDbLine
 62
250
  6
CONTINUOUS
 10
-0.4975313202
 20
7.7152577024
 11
-0.5903646358
 21
7.6756483163
  0
LWPOLYLINE
  5
2FA
100
AcDbEntity
  8
0
100
AcDbPolyline
 62
250
  6
CONTINUOUS
 90
3
 70
0
 10
-0.237980312
 20
7.8253188388
 10
-0.3647645781
 20
7.7713524619
 10
-0.4975313202
 20
7.7152577024
  0
LINE
  5
2FB
100
AcDbEntity
  8
0
100
AcDbLine
 62
7
  6
CONTINUOUS
 10
-0.4519903779
 20
7.84263706
 11
-0.5479817641
 21
7.8020510618
  0
LINE
  5
2FC
100
AcDbEntity
  8
0
100
AcDbLine
 62
250
  6
CONTINUOUS
 10
-0.1003443527
 20
8.5502474353
 11
-0.1760347489
 21
8.5193851582
  0
LINE
  5
2FD
100
AcDbEntity
  8
0
100
AcDbLine
 62
7
  6
CONTINUOUS
 10
-0.1773677275
 20
8.5280186706
 11
-0.2796370258
 21
8.4874936511
  0
LINE
  5
2FE
100
AcDbEntity
  8
0
100
AcDbLine
 62
250
  6
CONTINUOUS
 10
-0.1760347489
 20
8.5193851582
 11
-0.2523744897
 21
8.4889957682
  0
LINE
  5
2FF
100
AcDbEntity
  8
0
100
AcDbLine
 62
7
  6
CONTINUOUS
 10
-0.6033689158
 20
8.362606489
 11
-0.6819902928
 21
8.331582607
  0
LINE
  5
300
100
AcDbEntity
  8
0
100
AcDbLine
 62
250
  6
CONTINUOUS
 10
-0.5975529245
 20
8.3559092395
 11
-0.6819902928
 21
8.3228441596
  0
LWPOLYLINE
  5
301
100
AcDbEntity
  8
0
100
AcDbPolyline
 62
7
  6
CONTINUOUS
 90
10
 70
0
 10
-0.1773677309
 20
8.528018679
 10
-0.1699902574
 20
8.5308914344
 10
-0.1623324859
 20
8.5336787844
 10
-0.1543871841
 20
8.5363756601
 10
-0.1461430364
 20
8.5389815852
 10
-0.1375974743
 20
8.5414892752
 10
-0.1287538148
 20
8.5438793874
 10
-0.1196054824
 20
8.5461382857
 10
-0.1101389995
 20
8.5482634508
 10
-0.1003448317
 20
8.5502484292
  0
LINE
  5
302
100
AcDbEntity
  8
0
100
AcDbLine
 62
250
  6
CONTINUOUS
 10
-0.2523744897
 20
8.4889957682
 11
-0.3304087123
 21
8.4585784807
  0
LINE
  5
303
100
AcDbEntity
  8
0
100
AcDbLine
 62
7
  6
CONTINUOUS
 10
-0.2796370258
 20
8.4874936511
 11
-0.6033689158
 21
8.362606489
  0
LINE
  5
304
100
AcDbEntity
  8
0
100
AcDbLine
 62
250
  6
CONTINUOUS
 10
-0.3304087123
 20
8.4585784807
 11
-0.5975529245
 21
8.3559092395
  0
LINE
  5
305
100
AcDbEntity
  8
RACCORDO
100
AcDbLine
 62
250
  6
CONTINUOUS
 10
-2.1950787669
 20
29.453303636
 11
-2.1971556471
 21
29.5403064246
  0
LINE
  5
306
100
AcDbEntity
  8
RACCORDO
100
AcDbLine
 62
250
  6
CONTINUOUS
 10
-2.1971556471
 20
29.5403064246
 11
-2.1987700593
 21
29.6246863798
  0
LINE
  5
307
100
AcDbEntity
  8
RACCORDO
100
AcDbLine
 62
250
  6
CONTINUOUS
 10
-2.1987700593
 20
29.6246863798
 11
-2.1998718124
 21
29.7038361187
  0
LWPOLYLINE
  5
308
100
AcDbEntity
  8
RACCORDO
100
AcDbPolyline
 62
250
  6
CONTINUOUS
 90
12
 70
0
 10
-2.1998718124
 20
29.7038361187
 10
-2.2004266567
 20
29.7752283157
 10
-2.2004938087
 20
29.8073774825
 10
-2.2004194808
 20
29.8368618282
 10
-2.2002039222
 20
29.8634208696
 10
-2.1998493674
 20
29.8868071806
 10
-2.1993590786
 20
29.9068557709
 10
-2.1987373528
 20
29.923427103
 10
-2.1979909997
 20
29.9363883227
 10
-2.1971274683
 20
29.9456723433
 10
-2.1961539478
 20
29.9512552911
 10
-2.195078769
 20
29.9531322984
  0
LWPOLYLINE
  5
309
100
AcDbEntity
  8
RACCORDO
100
AcDbPolyline
 62
250
  6
CONTINUOUS
 90
9
 70
0
 10
-1.9279665731
 20
-22.5149941421
 10
-1.9279665731
 20
-22.5519851227
 10
-1.9277642983
 20
-22.5849113571
 10
-1.9273619628
 20
-22.6134124131
 10
-1.926763971
 20
-22.6371762991
 10
-1.9259768688
 20
-22.6559428799
 10
-1.9250092724
 20
-22.6695067243
 10
-1.9238717737
 20
-22.6777193533
 10
-1.9225768245
 20
-22.6804908662
  0
LINE
  5
30A
100
AcDbEntity
  8
RACCORDO
100
AcDbLine
 62
7
  6
CONTINUOUS
 10
-2.6819902928
 20
29.453303636
 11
-2.6832577588
 21
13.3344106588
  0
LINE
  5
30B
100
AcDbEntity
  8
RACCORDO
100
AcDbLine
 62
250
  6
CONTINUOUS
 10
-2.1950787669
 20
29.453303636
 11
-2.1963258974
 21
13.3331712803
  0
LINE
  5
30C
100
AcDbEntity
  8
RACCORDO
100
AcDbLine
 62
250
  6
CONTINUOUS
 10
-2.1963258974
 20
13.3331712803
 11
-2.2002240662
 21
12.3263746455
  0
LINE
  5
30D
100
AcDbEntity
  8
RACCORDO
100
AcDbLine
 62
7
  6
CONTINUOUS
 10
-2.6826212291
 20
13.6357557741
 11
-2.6900816899
 21
11.8403912526
  0
LINE
  5
30E
100
AcDbEntity
  8
RACCORDO
100
AcDbLine
 62
250
  6
CONTINUOUS
 10
-2.2002240662
 20
12.3263746455
 11
-2.2068757574
 21
11.3543904384
  0
LINE
  5
30F
100
AcDbEntity
  8
RACCORDO
100
AcDbLine
 62
250
  6
CONTINUOUS
 10
-1.9273619628
 20
-22.4304777161
 11
-1.9279665731
 21
-22.5149941421
  0
LINE
  5
310
100
AcDbEntity
  8
RACCORDO
100
AcDbLine
 62
7
  6
CONTINUOUS
 10
-2.6875993211
 20
12.2423100306
 11
-2.6982294203
 21
10.8837880414
  0
LINE
  5
311
100
AcDbEntity
  8
RACCORDO
100
AcDbLine
 62
250
  6
CONTINUOUS
 10
-2.2068757574
 20
11.3543904384
 11
-2.2166060666
 21
10.40971278
  0
LINE
  5
312
100
AcDbEntity
  8
RACCORDO
100
AcDbLine
 62
7
  6
CONTINUOUS
 10
-2.6973397469
 20
10.9715966958
 11
-2.7166436758
 21
9.4938011985
  0
LINE
  5
313
100
AcDbEntity
  8
RACCORDO
100
AcDbLine
 62
250
  6
CONTINUOUS
 10
-2.2166060666
 20
10.40971278
 11
-2.2298083695
 21
9.4856043517
  0
LINE
  5
314
100
AcDbEntity
  8
RACCORDO
100
AcDbLine
 62
250
  6
CONTINUOUS
 10
-1.9259768688
 20
-22.3350526423
 11
-1.9273619628
 21
-22.4304777161
  0
LINE
  5
315
100
AcDbEntity
  8
RACCORDO
100
AcDbLine
 62
7
  6
CONTINUOUS
 10
-2.7118164738
 20
9.8019795173
 11
-2.7335530636
 21
8.5880795918
  0
LINE
  5
316
100
AcDbEntity
  8
RACCORDO
100
AcDbLine
 62
250
  6
CONTINUOUS
 10
-2.2298083695
 20
9.4856043517
 11
-2.246751972
 21
8.5775714023
  0
LINE
  5
317
100
AcDbEntity
  8
RACCORDO
100
AcDbLine
 62
7
  6
CONTINUOUS
 10
-2.7307937186
 20
8.7216083478
 11
-2.7546105545
 21
7.6918728564
  0
LINE
  5
318
100
AcDbEntity
  8
RACCORDO
100
AcDbLine
 62
250
  6
CONTINUOUS
 10
-2.246751972
 20
8.5775714023
 11
-2.2678440639
 21
7.6788545604
  0
LWPOLYLINE
  5
319
100
AcDbEntity
  8
RACCORDO
100
AcDbPolyline
 62
250
  6
CONTINUOUS
 90
3
 70
0
 10
-1.9225768245
 20
-22.1806622037
 10
-1.9238717737
 20
-22.2328858297
 10
-1.9259768688
 20
-22.3350526423
  0
LINE
  5
31A
100
AcDbEntity
  8
RACCORDO
100
AcDbLine
 62
250
  6
CONTINUOUS
 10
-2.2678440639
 20
7.6788545604
 11
-2.2936453108
 21
6.7822368978
  0
LINE
  5
31B
100
AcDbEntity
  8
RACCORDO
100
AcDbLine
 62
7
  6
CONTINUOUS
 10
-2.7815810488
 20
6.7573247685
 11
-2.7540704711
 21
7.7126579553
  0
LINE
  5
31C
100
AcDbEntity
  8
RACCORDO
100
AcDbLine
 62
7
  6
CONTINUOUS
 10
-2.7802954616
 20
6.7979760948
 11
-2.8110640652
 21
5.9036891608
  0
LINE
  5
31D
100
AcDbEntity
  8
RACCORDO
100
AcDbLine
 62
250
  6
CONTINUOUS
 10
-2.2936453108
 20
6.7822368978
 11
-2.3245016654
 21
5.885007505
  0
LWPOLYLINE
  5
31E
100
AcDbEntity
  8
RACCORDO
100
AcDbPolyline
 62
7
  6
CONTINUOUS
 90
7
 70
0
 10
-0.6325137669
 20
20.6486126202
 10
-0.6324184079
 20
20.6512307367
 10
-0.6332235047
 20
20.6588442509
 10
-0.6349175253
 20
20.6713228354
 10
-0.6374764787
 20
20.6884526565
 10
-0.6408566323
 20
20.7099413935
 10
-0.649807852
 20
20.7644703004
  0
LINE
  5
31F
100
AcDbEntity
  8
RACCORDO
100
AcDbLine
 62
7
  6
CONTINUOUS
 10
-2.830944211
 20
5.3958848743
 11
-2.7968630173
 21
6.297536326
  0
LWPOLYLINE
  5
320
100
AcDbEntity
  8
RACCORDO
100
AcDbPolyline
 62
250
  6
CONTINUOUS
 90
7
 70
0
 10
-2.3245016654
 20
5.885007505
 10
-2.3609994107
 20
4.984614402
 10
-2.3813721225
 20
4.5358422381
 10
-2.4031649419
 20
4.0898938079
 10
-2.4263870792
 20
3.6455584278
 10
-2.4511064391
 20
3.201194423
 10
-2.477245262
 20
2.7581641575
  0
LINE
  5
321
100
AcDbEntity
  8
RACCORDO
100
AcDbLine
 62
7
  6
CONTINUOUS
 10
-2.8285270896
 20
5.4552416959
 11
-2.8677303991
 21
4.5593569799
  0
LINE
  5
322
100
AcDbEntity
  8
RACCORDO
100
AcDbLine
 62
7
  6
CONTINUOUS
 10
-2.8917025564
 20
4.0697304316
 11
-2.8497338103
 21
4.9540213607
  0
LINE
  5
323
100
AcDbEntity
  8
RACCORDO
100
AcDbLine
 62
7
  6
CONTINUOUS
 10
-2.8894024291
 20
4.1151132595
 11
-2.9371955319
 21
3.2298607196
  0
LINE
  5
324
100
AcDbEntity
  8
RACCORDO
100
AcDbLine
 62
7
  6
CONTINUOUS
 10
-2.914978552
 20
3.6273080919
 11
-2.9632775578
 21
2.7884703826
  0
LINE
  5
325
100
AcDbEntity
  8
RACCORDO
100
AcDbLine
 62
7
  6
CONTINUOUS
 10
-2.99455402
 20
2.2885172109
 11
-2.9398729828
 21
3.1833803303
  0
LINE
  5
326
100
AcDbEntity
  8
RACCORDO
100
AcDbLine
 62
250
  6
CONTINUOUS
 10
-2.477245262
 20
2.7581641575
 11
-2.5343157597
 21
1.8662889853
  0
LINE
  5
327
100
AcDbEntity
  8
RACCORDO
100
AcDbLine
 62
7
  6
CONTINUOUS
 10
-2.9908017263
 20
2.3470095474
 11
-3.0511924768
 21
1.4467668802
  0
LINE
  5
328
100
AcDbEntity
  8
RACCORDO
100
AcDbLine
 62
250
  6
CONTINUOUS
 10
-2.5343157597
 20
1.8662889853
 11
-2.598450319
 21
0.9515050884
  0
LINE
  5
329
100
AcDbEntity
  8
RACCORDO
100
AcDbLine
 62
7
  6
CONTINUOUS
 10
-3.0869761243
 20
0.9482934815
 11
-3.0240737549
 21
1.8407858523
  0
LINE
  5
32A
100
AcDbEntity
  8
RACCORDO
100
AcDbLine
 62
7
  6
CONTINUOUS
 10
-3.0840677728
 20
0.9879855049
 11
-3.1565781768
 21
0.0353335777
  0
LINE
  5
32B
100
AcDbEntity
  8
RACCORDO
100
AcDbLine
 62
250
  6
CONTINUOUS
 10
-2.598450319
 20
0.9515050884
 11
-2.6712170274
 21
-0.0040453759
  0
LINE
  5
32C
100
AcDbEntity
  8
RACCORDO
100
AcDbLine
 62
7
  6
CONTINUOUS
 10
-3.1548856682
 20
0.0567748049
 11
-3.2388811887
 21
-0.9699915355
  0
LINE
  5
32D
100
AcDbEntity
  8
RACCORDO
100
AcDbLine
 62
250
  6
CONTINUOUS
 10
-2.6712170274
 20
-0.0040453759
 11
-2.753751161
 21
-1.0121617193
  0
LINE
  5
32E
100
AcDbEntity
  8
RACCORDO
100
AcDbLine
 62
7
  6
CONTINUOUS
 10
-3.2276266388
 20
-0.8364602128
 11
-3.332898443
 21
-2.0456738363
  0
LINE
  5
32F
100
AcDbEntity
  8
RACCORDO
100
AcDbLine
 62
250
  6
CONTINUOUS
 10
-2.753751161
 20
-1.0121617193
 11
-2.8479855029
 21
-2.0905202602
  0
LINE
  5
330
100
AcDbEntity
  8
RACCORDO
100
AcDbLine
 62
7
  6
CONTINUOUS
 10
-3.3887414116
 20
-2.6564158143
 11
-3.305472225
 21
-1.7386020977
  0
LINE
  5
331
100
AcDbEntity
  8
RACCORDO
100
AcDbLine
 62
250
  6
CONTINUOUS
 10
-2.8479855029
 20
-2.0905202602
 11
-2.9560407628
 21
-3.2567094255
  0
LINE
  5
332
100
AcDbEntity
  8
RACCORDO
100
AcDbLine
 62
7
  6
CONTINUOUS
 10
-3.3849757972
 20
-2.6157931492
 11
-3.5000712102
 21
-3.8264961578
  0
LINE
  5
333
100
AcDbEntity
  8
RACCORDO
100
AcDbLine
 62
250
  6
CONTINUOUS
 10
-2.9560407628
 20
-3.2567094255
 11
-3.0792651772
 21
-4.5224460538
  0
LINE
  5
334
100
AcDbEntity
  8
RACCORDO
100
AcDbLine
 62
7
  6
CONTINUOUS
 10
-3.5723227471
 20
-4.5592752572
 11
-3.477569843
 21
-3.5943948282
  0
LINE
  5
335
100
AcDbEntity
  8
RACCORDO
100
AcDbLine
 62
7
  6
CONTINUOUS
 10
-3.5637192856
 20
-4.4729346555
 11
-3.7042765331
 21
-5.857760415
  0
LINE
  5
336
100
AcDbEntity
  8
RACCORDO
100
AcDbLine
 62
250
  6
CONTINUOUS
 10
-3.0792651772
 20
-4.5224460538
 11
-3.2200550737
 21
-5.9091772714
  0
LINE
  5
337
100
AcDbEntity
  8
RACCORDO
100
AcDbLine
 62
7
  6
CONTINUOUS
 10
-3.6734573973
 20
-5.5584637482
 11
-5.3489987691
 21
-21.5122690112
  0
LINE
  5
338
100
AcDbEntity
  8
RACCORDO
100
AcDbLine
 62
250
  6
CONTINUOUS
 10
-3.2200550737
 20
-5.9091772714
 11
-4.8648262956
 21
-21.5645332428
  0
LWPOLYLINE
  5
339
100
AcDbEntity
  8
0
100
AcDbPolyline
 62
250
  6
CONTINUOUS
 90
3
 70
0
 10
-0.444912314
 20
5.8688188353
 10
-0.5313052029
 20
5.8122477399
 10
-0.5742997621
 20
5.7843981565
  0
LINE
  5
33A
100
AcDbEntity
  8
0
100
AcDbLine
 62
250
  6
CONTINUOUS
 10
-0.5742997621
 20
5.7843981565
 11
-0.6819902928
 21
5.7156652448
  0
LWPOLYLINE
  5
33B
100
AcDbEntity
  8
0
100
AcDbPolyline
 62
250
  6
CONTINUOUS
 90
3
 70
0
 10
-0.0846011006
 20
6.7126883594
 10
-0.156405975
 20
6.6727585102
 10
-0.1912727207
 20
6.6536288345
  0
LINE
  5
33C
100
AcDbEntity
  8
0
100
AcDbLine
 62
250
  6
CONTINUOUS
 10
-0.6209013832
 20
6.4245009509
 11
-0.6819902928
 21
6.3910144525
  0
LINE
  5
33D
100
AcDbEntity
  8
0
100
AcDbLine
 62
7
  6
CONTINUOUS
 10
-0.6187470746
 20
6.5387581043
 11
-0.6819902928
 21
6.5045447612
  0
LINE
  5
33E
100
AcDbEntity
  8
0
100
AcDbLine
 62
250
  6
CONTINUOUS
 10
-0.5546948786
 20
6.4602058377
 11
-0.6209013832
 21
6.4245009509
  0
LINE
  5
33F
100
AcDbEntity
  8
0
100
AcDbLine
 62
250
  6
CONTINUOUS
 10
-0.1912727207
 20
6.6536288345
 11
-0.2586586868
 21
6.617253819
  0
LINE
  5
340
100
AcDbEntity
  8
0
100
AcDbLine
 62
7
  6
CONTINUOUS
 10
-0.6273071907
 20
6.5341576298
 11
-0.5261211866
 21
6.5881113549
  0
LINE
  5
341
100
AcDbEntity
  8
0
100
AcDbLine
 62
250
  6
CONTINUOUS
 10
-0.2586586868
 20
6.617253819
 11
-0.3570893979
 21
6.5649013955
  0
LINE
  5
342
100
AcDbEntity
  8
0
100
AcDbLine
 62
7
  6
CONTINUOUS
 10
-0.4567307071
 20
6.6247909958
 11
-0.5535271702
 21
6.5735750499
  0
LINE
  5
343
100
AcDbEntity
  8
0
100
AcDbLine
 62
250
  6
CONTINUOUS
 10
-0.3570893979
 20
6.5649013955
 11
-0.5546948786
 21
6.4602058377
  0
LINE
  5
344
100
AcDbEntity
  8
RACCORDO
100
AcDbLine
 62
7
  6
CONTINUOUS
 10
-0.6819902928
 20
1.6398885734
 11
1.0701041605
 21
1.9488300983
  0
LINE
  5
345
100
AcDbEntity
  8
RACCORDO
100
AcDbLine
 62
250
  6
CONTINUOUS
 10
1.9593194214
 20
-10.9679301102
 11
1.9602316921
 21
-10.9777063246
  0
LINE
  5
346
100
AcDbEntity
  8
SMUSSO
100
AcDbLine
 62
7
  6
CONTINUOUS
 10
0.0096023359
 20
9.5930836985
 11
0.0580006381
 21
9.0398885734
  0
LINE
  5
347
100
AcDbEntity
  8
RACCORDO
100
AcDbLine
 62
250
  6
CONTINUOUS
 10
0.31188791
 20
25.1840422941
 11
0.3120140305
 21
25.1363672238
  0
LINE
  5
348
100
AcDbEntity
  8
RACCORDO
100
AcDbLine
 62
7
  6
CONTINUOUS
 10
-0.6819902928
 20
29.9927539146
 11
-0.6819902928
 21
-22.7129767678
  0
LINE
  5
349
100
AcDbEntity
  8
0
100
AcDbLine
 62
7
  6
CONTINUOUS
 10
-0.0019890877
 20
-1.9451175912
 11
-0.0019898871
 21
1.7597909918
  0
LINE
  5
34A
100
AcDbEntity
  8
0
100
AcDbLine
 62
7
  6
CONTINUOUS
 10
-0.0019902928
 20
5.5199862265
 11
-0.0019902928
 21
9.5925280438
  0
LINE
  5
34B
100
AcDbEntity
  8
0
100
AcDbLine
 62
250
  6
CONTINUOUS
 10
0.3025223222
 20
-2.4797768606
 11
0.3025218293
 21
-1.9916636658
  0
LINE
  5
34C
100
AcDbEntity
  8
RACCORDO
100
AcDbLine
 62
7
  6
CONTINUOUS
 10
0.3338563609
 20
26.0545086773
 11
0.3338563609
 21
26.2252684695
  0
LINE
  5
34D
100
AcDbEntity
  8
0
100
AcDbLine
 62
250
  6
CONTINUOUS
 10
0.3517227618
 20
-2.4797758146
 11
0.3517227581
 21
-1.9420328281
  0
LINE
  5
34E
100
AcDbEntity
  8
0
100
AcDbLine
 62
250
  6
CONTINUOUS
 10
0.3623096953
 20
5.4557503095
 11
0.3623096953
 21
7.0767150222
  0
LINE
  5
34F
100
AcDbEntity
  8
0
100
AcDbLine
 62
7
  6
CONTINUOUS
 10
0.3861796259
 20
7.0340861649
 11
0.3861796259
 21
5.4515413968
  0
LINE
  5
350
100
AcDbEntity
  8
DRAFT
100
AcDbLine
 62
7
  6
CONTINUOUS
 10
0.5180097072
 20
-8.087153256
 11
0.5180097072
 21
-8.1150978228
  0
LINE
  5
351
100
AcDbEntity
  8
DRAFT
100
AcDbLine
 62
7
  6
CONTINUOUS
 10
0.5180097072
 20
-11.1051250304
 11
0.5180097072
 21
-11.1330695973
  0
LINE
  5
352
100
AcDbEntity
  8
0
100
AcDbLine
 62
7
  6
CONTINUOUS
 10
0.5380097072
 20
-2.0865845238
 11
0.5380097072
 21
1.8550074899
  0
LINE
  5
353
100
AcDbEntity
  8
RACCORDO
100
AcDbLine
 62
250
  6
CONTINUOUS
 10
0.3120140305
 20
25.1363672238
 11
0.3117322513
 21
25.0390466692
  0
LINE
  5
354
100
AcDbEntity
  8
RACCORDO
100
AcDbLine
 62
250
  6
CONTINUOUS
 10
0.3117322513
 20
25.0390466692
 11
0.3109298505
 21
24.9242534194
  0
LINE
  5
355
100
AcDbEntity
  8
0
100
AcDbLine
 62
7
  6
CONTINUOUS
 10
-0.0025758443
 20
-1.9522459016
 11
-0.0019890877
 21
-1.9451175912
  0
LWPOLYLINE
  5
356
100
AcDbEntity
  8
DRAFT
100
AcDbPolyline
 62
7
  6
CONTINUOUS
 90
25
 70
0
 10
1.1180097072
 20
9.720665448
 10
1.1171457939
 20
9.7158247361
 10
1.1145632323
 20
9.7109510148
 10
1.1102801652
 20
9.706044284
 10
1.104321483
 20
9.7010849386
 10
1.0967160897
 20
9.6960925838
 10
1.0874942442
 20
9.6911260353
 10
1.076693568
 20
9.6861839889
 10
1.0643572315
 20
9.6812677488
 10
1.0505274478
 20
9.6764400432
 10
1.0352554717
 20
9.6717008097
 10
1.0185965963
 20
9.6670501108
 10
1.0006023544
 20
9.6625508619
 10
0.9813374891
 20
9.6582044054
 10
0.960866476
 20
9.6540093989
 10
0.9392418859
 20
9.6500247312
 10
0.916534913
 20
9.6462520989
 10
0.8928210251
 20
9.6426898052
 10
0.8681597324
 20
9.6393916482
 10
0.8426286817
 20
9.6363602542
 10
0.8163136192
 20
9.6335929968
 10
0.7892879876
 20
9.6311357943
 10
0.7616359414
 20
9.6290039527
 10
0.7334532163
 20
9.6271821659
 10
0.7048337961
 20
9.625670434
  0
LWPOLYLINE
  5
357
100
AcDbEntity
  8
RACCORDO
100
AcDbPolyline
 62
250
  6
CONTINUOUS
 90
10
 70
0
 10
-4.9342593179
 20
-21.9097889743
 10
-4.9395333703
 20
-21.9385983591
 10
-4.9441419833
 20
-21.9645714779
 10
-4.9480512455
 20
-21.9875169896
 10
-4.9512336441
 20
-22.0072746299
 10
-4.9536618676
 20
-22.0236763413
 10
-4.9553148936
 20
-22.0365748087
 10
-4.9561846862
 20
-22.0458891092
 10
-4.9562709336
 20
-22.0515814505
 10
-4.955577821
 20
-22.0536316526
  0
LINE
  5
358
100
AcDbEntity
  8
RACCORDO
100
AcDbLine
 62
250
  6
CONTINUOUS
 10
-4.921876526
 20
-21.8445403343
 11
-4.9342593179
 21
-21.9097889743
  0
LINE
  5
359
100
AcDbEntity
  8
RACCORDO
100
AcDbLine
 62
250
  6
CONTINUOUS
 10
-4.9073712766
 20
-21.7708176485
 11
-4.921876526
 21
-21.8445403343
  0
LINE
  5
35A
100
AcDbEntity
  8
RACCORDO
100
AcDbLine
 62
250
  6
CONTINUOUS
 10
-4.8911834007
 20
-21.6908564343
 11
-4.9073712766
 21
-21.7708176485
  0
LWPOLYLINE
  5
35B
100
AcDbEntity
  8
RACCORDO
100
AcDbPolyline
 62
250
  6
CONTINUOUS
 90
3
 70
0
 10
-4.8648262956
 20
-21.5645332428
 10
-4.8738015811
 20
-21.6070706114
 10
-4.8911834007
 20
-21.6908564343
  0
LINE
  5
35C
100
AcDbEntity
  8
RACCORDO
100
AcDbLine
 62
250
  6
CONTINUOUS
 10
-0.6819902928
 20
1.944516557
 11
1.0180097072
 21
2.2442724242
  0
LINE
  5
35D
100
AcDbEntity
  8
RACCORDO
100
AcDbLine
 62
250
  6
CONTINUOUS
 10
1.3180097072
 20
2.2442724242
 11
1.0180097072
 21
2.2442724242
  0
LINE
  5
35E
100
AcDbEntity
  8
RACCORDO
100
AcDbLine
 62
250
  6
CONTINUOUS
 10
1.9602316921
 20
-10.9777063246
 11
1.9603685307
 21
-10.9789349846
  0
LINE
  5
35F
100
AcDbEntity
  8
RACCORDO
100
AcDbLine
 62
250
  6
CONTINUOUS
 10
1.9472951693
 20
-10.8321236408
 11
1.9593194214
 21
-10.9679301102
  0
LINE
  5
360
100
AcDbEntity
  8
DRAFT
100
AcDbLine
 62
7
  6
CONTINUOUS
 10
1.4699069992
 20
-8.1983780447
 11
1.4983359466
 21
-11.0193575979
  0
LINE
  5
361
100
AcDbEntity
  8
RACCORDO
100
AcDbLine
 62
7
  6
CONTINUOUS
 10
1.7911139332
 20
-8.2264800101
 11
1.8174872421
 21
-10.8434803629
  0
LINE
  5
362
100
AcDbEntity
  8
DRAFT
100
AcDbLine
 62
250
  6
CONTINUOUS
 10
0.7048337961
 20
10.1967561991
 11
0.7048337961
 21
9.625670434
  0
LINE
  5
363
100
AcDbEntity
  8
RACCORDO
100
AcDbLine
 62
250
  6
CONTINUOUS
 10
0.7206276679
 20
24.5090949481
 11
0.7206276679
 21
24.0251085347
  0
LINE
  5
364
100
AcDbEntity
  8
RACCORDO
100
AcDbLine
 62
250
  6
CONTINUOUS
 10
0.8693186876
 20
23.460408136
 11
0.8693186876
 21
24.0805265409
  0
LINE
  5
365
100
AcDbEntity
  8
RACCORDO
100
AcDbLine
 62
250
  6
CONTINUOUS
 10
1.0180097072
 20
5.0355047226
 11
1.0180097072
 21
2.2442724242
  0
LINE
  5
366
100
AcDbEntity
  8
RACCORDO
100
AcDbLine
 62
7
  6
CONTINUOUS
 10
1.0180097072
 20
23.6104024245
 11
1.0180097072
 21
24.5090949481
  0
LINE
  5
367
100
AcDbEntity
  8
DRAFT
100
AcDbLine
 62
7
  6
CONTINUOUS
 10
1.1180097072
 20
10.382408979
 11
1.1180097072
 21
9.720665448
  0
LINE
  5
368
100
AcDbEntity
  8
RACCORDO
100
AcDbLine
 62
7
  6
CONTINUOUS
 10
1.3180097072
 20
24.0355047226
 11
1.3180097072
 21
21.2442724242
  0
LINE
  5
369
100
AcDbEntity
  8
RACCORDO
100
AcDbLine
 62
7
  6
CONTINUOUS
 10
1.3180097072
 20
5.0355047226
 11
1.3180097072
 21
2.2442724242
  0
LINE
  5
36A
100
AcDbEntity
  8
RACCORDO
100
AcDbLine
 62
250
  6
CONTINUOUS
 10
1.9472951693
 20
-10.8321236408
 11
1.9660236576
 21
-8.2417826281
  0
LINE
  5
36B
100
AcDbEntity
  8
RACCORDO
100
AcDbLine
 62
250
  6
CONTINUOUS
 10
2.0533450321
 20
-10.8321236408
 11
2.0720064806
 21
-8.2510549237
  0
LINE
  5
36C
100
AcDbEntity
  8
0
100
AcDbLine
 62
250
  6
CONTINUOUS
 10
-0.6819902928
 20
-7.1117450677
 11
-0.2784036433
 21
-3.8247955813
  0
LINE
  5
36D
100
AcDbEntity
  8
0
100
AcDbLine
 62
7
  6
CONTINUOUS
 10
-0.6669902928
 20
-7.3963017273
 11
-0.2109410875
 21
-3.6820790119
  0
LINE
  5
36E
100
AcDbEntity
  8
RACCORDO
100
AcDbLine
 62
250
  6
CONTINUOUS
 10
1.0701041605
 20
5.3309470485
 11
1.0180097072
 21
5.0355047226
  0
LINE
  5
36F
100
AcDbEntity
  8
0
100
AcDbLine
 62
7
  6
CONTINUOUS
 10
-0.6669902928
 20
-7.3963017273
 11
-0.6819902928
 21
-7.4574116023
  0
LINE
  5
370
100
AcDbEntity
  8
RACCORDO
100
AcDbLine
 62
250
  6
CONTINUOUS
 10
1.0180097072
 20
5.0355047226
 11
1.3180097072
 21
5.0355047226
  0
LINE
  5
371
100
AcDbEntity
  8
RACCORDO
100
AcDbLine
 62
250
  6
CONTINUOUS
 10
-0.6819902928
 20
5.3352605898
 11
1.0180097072
 21
5.0355047226
  0
LINE
  5
372
100
AcDbEntity
  8
RACCORDO
100
AcDbLine
 62
7
  6
CONTINUOUS
 10
-0.6819902928
 20
5.6398885734
 11
1.0701041605
 21
5.3309470485
  0
LINE
  5
373
100
AcDbEntity
  8
RACCORDO
100
AcDbLine
 62
7
  6
CONTINUOUS
 10
-0.6612164965
 20
20.831180571
 11
-0.6744936943
 21
20.9054336712
  0
LINE
  5
374
100
AcDbEntity
  8
RACCORDO
100
AcDbLine
 62
250
  6
CONTINUOUS
 10
1.0180097072
 20
2.2442724242
 11
1.0701041605
 21
1.9488300983
  0
LINE
  5
375
100
AcDbEntity
  8
RACCORDO
100
AcDbLine
 62
7
  6
CONTINUOUS
 10
-0.649807852
 20
20.7644703004
 11
-0.6612164965
 21
20.831180571
  0
LINE
  5
376
100
AcDbEntity
  8
RACCORDO
100
AcDbLine
 62
250
  6
CONTINUOUS
 10
2.5789823535
 20
-8.2954095652
 11
2.5409400378
 21
-10.4748523731
  0
LINE
  5
377
100
AcDbEntity
  8
RACCORDO
100
AcDbLine
 62
7
  6
CONTINUOUS
 10
2.622842665
 20
-8.2992468453
 11
2.5848673293
 21
-10.4748523731
  0
LINE
  5
378
100
AcDbEntity
  8
RACCORDO
100
AcDbLine
 62
250
  6
CONTINUOUS
 10
2.5409400378
 20
-10.4748523731
 11
2.5395928319
 21
-10.5008491441
  0
LWPOLYLINE
  5
379
100
AcDbEntity
  8
RACCORDO
100
AcDbPolyline
 62
250
  6
CONTINUOUS
 90
9
 70
0
 10
-2.0792287513
 20
-22.4962842447
 10
-2.0859406998
 20
-22.5324577767
 10
-2.0917201747
 20
-22.564686822
 10
-2.0965042917
 20
-22.5926207095
 10
-2.1002409967
 20
-22.6159555016
 10
-2.1028896321
 20
-22.6344373014
 10
-2.104421379
 20
-22.6478650156
 10
-2.104819571
 20
-22.6560925423
 10
-2.1040798754
 20
-22.6590303608
  0
LINE
  5
37A
100
AcDbEntity
  8
RACCORDO
100
AcDbLine
 62
250
  6
CONTINUOUS
 10
-2.0633089045
 20
-22.413716715
 11
-2.0792287513
 21
-22.4962842447
  0
LINE
  5
37B
100
AcDbEntity
  8
RACCORDO
100
AcDbLine
 62
250
  6
CONTINUOUS
 10
-2.0446516189
 20
-22.3205679902
 11
-2.0633089045
 21
-22.413716715
  0
LWPOLYLINE
  5
37C
100
AcDbEntity
  8
RACCORDO
100
AcDbPolyline
 62
250
  6
CONTINUOUS
 90
3
 70
0
 10
-2.0133283499
 20
-22.169931951
 10
-2.0240666942
 20
-22.2208810906
 10
-2.0446516189
 20
-22.3205679902
  0
LWPOLYLINE
  5
37D
100
AcDbEntity
  8
0
100
AcDbPolyline
 62
7
  6
CONTINUOUS
 90
6
 70
0
 10
0.5331544052
 20
-2.1079501524
 10
0.5350730428
 20
-2.1032988437
 10
0.5365155634
 20
-2.0984736665
 10
0.5374653578
 20
-2.0935275641
 10
0.537912711
 20
-2.0885106314
 10
0.5379498345
 20
-2.0865843225
  0
LWPOLYLINE
  5
37E
100
AcDbEntity
  8
0
100
AcDbPolyline
 62
250
  6
CONTINUOUS
 90
10
 70
0
 10
0.3472904871
 20
-2.501143922
 10
0.3482750311
 20
-2.4989105291
 10
0.3491406755
 20
-2.496627879
 10
0.3498851921
 20
-2.4943018475
 10
0.3505066643
 20
-2.4919384223
 10
0.3510034924
 20
-2.4895436875
 10
0.3513743971
 20
-2.4871238081
 10
0.3516184236
 20
-2.4846850136
 10
0.3517349438
 20
-2.4822335818
 10
0.3517236577
 20
-2.4797758232
  0
LINE
  5
37F
100
AcDbEntity
  8
0
100
AcDbLine
 62
250
  6
CONTINUOUS
 10
-0.6819902928
 20
-4.5625064765
 11
0.3025223222
 21
-2.4797768606
  0
LINE
  5
380
100
AcDbEntity
  8
0
100
AcDbLine
 62
7
  6
CONTINUOUS
 10
-0.6819902928
 20
-4.6785803419
 11
0.5331544052
 21
-2.1079501524
  0
LWPOLYLINE
  5
381
100
AcDbEntity
  8
0
100
AcDbPolyline
 62
250
  6
CONTINUOUS
 90
3
 70
0
 10
0.3517227618
 20
-2.4797758154
 10
0.5197094516
 20
-2.1250417228
 10
0.5331283294
 20
-2.0965118238
  0
LINE
  5
382
100
AcDbEntity
  8
0
100
AcDbLine
 62
250
  6
CONTINUOUS
 10
0.5331283294
 20
-2.0965118238
 11
0.5379461704
 21
-2.0867744503
  0
LWPOLYLINE
  5
383
100
AcDbEntity
  8
0
100
AcDbPolyline
 62
7
  6
CONTINUOUS
 90
4
 70
0
 10
-0.0094692089
 20
-1.9712773075
 10
-0.0062791793
 20
-1.9652818921
 10
-0.0040058749
 20
-1.9589673352
 10
-0.0025758443
 20
-1.9522459016
  0
LWPOLYLINE
  5
384
100
AcDbEntity
  8
0
100
AcDbPolyline
 62
7
  6
CONTINUOUS
 90
6
 70
0
 10
0.3394835582
 20
-1.9705203218
 10
0.3431224697
 20
-1.9654440758
 10
0.346228139
 20
-1.960044671
 10
0.3487453968
 20
-1.9543638823
 10
0.3505948312
 20
-1.9483599346
 10
0.3517227581
 20
-1.9420328281
  0
LINE
  5
385
100
AcDbEntity
  8
0
100
AcDbLine
 62
7
  6
CONTINUOUS
 10
-0.1319902928
 20
-1.9958228541
 11
-0.6819902928
 21
-2.5458228541
  0
LINE
  5
386
100
AcDbEntity
  8
0
100
AcDbLine
 62
7
  6
CONTINUOUS
 10
-0.0846011006
 20
6.7126883594
 11
-0.1708419845
 21
6.6917829944
  0
LWPOLYLINE
  5
387
100
AcDbEntity
  8
0
100
AcDbPolyline
 62
7
  6
CONTINUOUS
 90
3
 70
0
 10
-0.1708419845
 20
6.6917829944
 10
-0.389351322
 20
6.6405258956
 10
-0.4022553501
 20
6.6374843435
  0
LWPOLYLINE
  5
388
100
AcDbEntity
  8
0
100
AcDbPolyline
 62
7
  6
CONTINUOUS
 90
6
 70
0
 10
-0.4022553501
 20
6.6374843435
 10
-0.4263931096
 20
6.6321365769
 10
-0.4365518004
 20
6.62952279
 10
-0.4448628674
 20
6.6270982416
 10
-0.4515936709
 20
6.625375587
 10
-0.4567306239
 20
6.6247910397
  0
LINE
  5
389
100
AcDbEntity
  8
0
100
AcDbLine
 62
7
  6
CONTINUOUS
 10
-0.444912314
 20
5.8688188353
 11
-0.5400972911
 21
5.8483701572
  0
LINE
  5
38A
100
AcDbEntity
  8
0
100
AcDbLine
 62
7
  6
CONTINUOUS
 10
-0.5400972911
 20
5.8483701572
 11
-0.6819902928
 21
5.8186021975
  0
LINE
  5
38B
100
AcDbEntity
  8
0
100
AcDbLine
 62
7
  6
CONTINUOUS
 10
-0.0707423673
 20
7.3196334144
 11
-0.1606578535
 21
7.3019355192
  0
LINE
  5
38C
100
AcDbEntity
  8
0
100
AcDbLine
 62
7
  6
CONTINUOUS
 10
-0.1606578535
 20
7.3019355192
 11
-0.2685525056
 21
7.281288404
  0
LWPOLYLINE
  5
38D
100
AcDbEntity
  8
0
100
AcDbPolyline
 62
7
  6
CONTINUOUS
 90
7
 70
0
 10
-0.4299057194
 20
7.251081974
 10
-0.4396730284
 20
7.249240108
 10
-0.4438215975
 20
7.2484824632
 10
-0.4471604226
 20
7.2478368913
 10
-0.4495861809
 20
7.2473294055
 10
-0.4511970126
 20
7.2470078507
 10
-0.4519902928
 20
7.2469104237
  0
LINE
  5
38E
100
AcDbEntity
  8
0
100
AcDbLine
 62
7
  6
CONTINUOUS
 10
-0.2685525056
 20
7.281288404
 11
-0.4299057194
 21
7.251081974
  0
LINE
  5
38F
100
AcDbEntity
  8
0
100
AcDbLine
 62
7
  6
CONTINUOUS
 10
-0.6819902928
 20
6.6321283678
 11
-0.4567307056
 21
6.6247910424
  0
LINE
  5
390
100
AcDbEntity
  8
0
100
AcDbLine
 62
250
  6
CONTINUOUS
 10
-0.6819902928
 20
6.7321469713
 11
-0.0846011006
 21
6.7126883594
  0
LINE
  5
391
100
AcDbEntity
  8
0
100
AcDbLine
 62
7
  6
CONTINUOUS
 10
-0.6819902928
 20
7.2634766059
 11
-0.4519907475
 21
7.2469104565
  0
LINE
  5
392
100
AcDbEntity
  8
0
100
AcDbLine
 62
250
  6
CONTINUOUS
 10
-0.6819902928
 20
7.3636596947
 11
-0.0707423673
 21
7.3196334144
  0
LINE
  5
393
100
AcDbEntity
  8
0
100
AcDbLine
 62
250
  6
CONTINUOUS
 10
-0.6819902928
 20
5.9067482022
 11
-0.444912314
 21
5.8688188353
  0
LINE
  5
394
100
AcDbEntity
  8
0
100
AcDbLine
 62
7
  6
CONTINUOUS
 10
-0.0009928015
 20
7.2968445615
 11
0.3623096953
 21
7.0767150222
  0
LWPOLYLINE
  5
395
100
AcDbEntity
  8
0
100
AcDbPolyline
 62
7
  6
CONTINUOUS
 90
10
 70
0
 43
0.3500000006
 10
-13.5254765739
 20
39.4207404327
 10
-13.45404879
 20
39.2778825989
 10
-13.45404879
 20
39.2064559479
 10
-13.5969054909
 20
39.063598114
 10
-13.6683344078
 20
39.063598114
 10
-13.7397633247
 20
39.135024765
 10
-13.7397633247
 20
39.2064559479
 10
-13.6683344078
 20
39.3493092499
 10
-13.5969054909
 20
39.4207404327
 10
-13.5254765739
 20
39.4207404327
  0
LINE
  5
396
100
AcDbEntity
  8
RACCORDO
100
AcDbLine
 62
7
  6
CONTINUOUS
 10
-0.6744936943
 20
20.9054336712
 11
-0.6815540165
 21
20.9438241518
  0
LINE
  5
397
100
AcDbEntity
  8
RACCORDO
100
AcDbLine
 62
250
  6
CONTINUOUS
 10
0.4741812458
 20
25.5473175106
 11
0.4860240042
 21
25.4784437459
  0
LWPOLYLINE
  5
398
100
AcDbEntity
  8
RACCORDO
100
AcDbPolyline
 62
250
  6
CONTINUOUS
 90
7
 70
0
 10
0.4860240042
 20
25.4784437459
 10
0.4921115953
 20
25.442092579
 10
0.4944470259
 20
25.4277717766
 10
0.4962542287
 20
25.4163622479
 10
0.4975023285
 20
25.4080589106
 10
0.4981700021
 20
25.4030036147
 10
0.4982458358
 20
25.4012827578
  0
LWPOLYLINE
  5
399
100
AcDbEntity
  8
RACCORDO
100
AcDbPolyline
 62
250
  6
CONTINUOUS
 90
5
 70
0
 10
0.3109298505
 20
25.2242419963
 10
0.3112491099
 20
25.2216727141
 10
0.3115181181
 20
25.2140148221
 10
0.3117322727
 20
25.2013993893
 10
0.31188791
 20
25.1840422941
  0
LWPOLYLINE
  5
39A
100
AcDbEntity
  8
RACCORDO
100
AcDbPolyline
 62
250
  6
CONTINUOUS
 90
3
 70
0
 10
2.5395928319
 20
-10.5008491441
 10
2.5362453112
 20
-10.5266322513
 10
2.5308974756
 20
-10.5522016949
  0
LWPOLYLINE
  5
39B
100
AcDbEntity
  8
0
100
AcDbPolyline
 62
7
  6
CONTINUOUS
 90
6
 70
0
 10
-0.0356445686
 20
-1.9922559639
 10
-0.0291930379
 20
-1.9894354929
 10
-0.0233644269
 20
-1.9859449388
 10
-0.0181587355
 20
-1.9817843017
 10
-0.0135025124
 20
-1.9768658462
 10
-0.0094692089
 20
-1.9712773075
  0
LINE
  5
39C
100
AcDbEntity
  8
0
100
AcDbLine
 62
7
  6
CONTINUOUS
 10
-0.0655771828
 20
7.9014217194
 11
-0.1570150416
 21
7.8869612337
  0
LINE
  5
39D
100
AcDbEntity
  8
0
100
AcDbLine
 62
7
  6
CONTINUOUS
 10
-0.1570150416
 20
7.8869612337
 11
-0.2659827582
 21
7.8703136446
  0
LWPOLYLINE
  5
39E
100
AcDbEntity
  8
0
100
AcDbPolyline
 62
7
  6
CONTINUOUS
 90
7
 70
0
 10
-0.4299923315
 20
7.8459374095
 10
-0.4395190625
 20
7.8445087922
 10
-0.4436384449
 20
7.8439191843
 10
-0.4469814045
 20
7.8433978426
 10
-0.4494385586
 20
7.8429717131
 10
-0.4511098171
 20
7.842702649
 10
-0.4519902928
 20
7.8426370959
  0
LINE
  5
39F
100
AcDbEntity
  8
0
100
AcDbLine
 62
7
  6
CONTINUOUS
 10
-0.2659827582
 20
7.8703136446
 11
-0.4299923315
 21
7.8459374095
  0
LINE
  5
3A0
100
AcDbEntity
  8
0
100
AcDbLine
 62
7
  6
CONTINUOUS
 10
0.0580006381
 20
9.0398885734
 11
0.2580006381
 21
9.0398885734
  0
LINE
  5
3A1
100
AcDbEntity
  8
0
100
AcDbLine
 62
7
  6
CONTINUOUS
 10
-0.6819902928
 20
7.8674468317
 11
-0.4519903731
 21
7.8426371046
  0
LINE
  5
3A2
100
AcDbEntity
  8
0
100
AcDbLine
 62
250
  6
CONTINUOUS
 10
-0.6819902928
 20
7.9679132255
 11
-0.0655771828
 21
7.9014217194
  0
LINE
  5
3A3
100
AcDbEntity
  8
0
100
AcDbLine
 62
7
  6
CONTINUOUS
 10
-0.6819902928
 20
8.4528841156
 11
-0.4519902928
 21
8.4209589839
  0
LWPOLYLINE
  5
3A4
100
AcDbEntity
  8
0
100
AcDbPolyline
 62
250
  6
CONTINUOUS
 90
3
 70
0
 10
-0.6807824981
 20
8.6309898018
 10
-0.471761932
 20
8.6015981029
 10
-0.1003443527
 20
8.5502474353
  0
LWPOLYLINE
  5
3A5
100
AcDbEntity
  8
RACCORDO
100
AcDbPolyline
 62
250
  6
CONTINUOUS
 90
17
 70
0
 10
0.9060307137
 20
26.6618611383
 10
0.9059227333
 20
26.6624617237
 10
0.8925402894
 20
26.7100920119
 10
0.8748992164
 20
26.7565931958
 10
0.8543388683
 20
26.8000394689
 10
0.8307163871
 20
26.8399531242
 10
0.8041746308
 20
26.8768118687
 10
0.7764815276
 20
26.9101230173
 10
0.7482720971
 20
26.9393506367
 10
0.7189113199
 20
26.9650306601
 10
0.6882620652
 20
26.9882782014
 10
0.6567146506
 20
27.0093678806
 10
0.6238787586
 20
27.0280250776
 10
0.588446307
 20
27.0445410464
 10
0.5499812684
 20
27.0590128716
 10
0.50891967
 20
27.0713434687
 10
0.4652615121
 20
27.0815328375
  0
LINE
  5
3A6
100
AcDbEntity
  8
RACCORDO
100
AcDbLine
 62
250
  6
CONTINUOUS
 10
0.4652615121
 20
25.5982443092
 11
0.4741812458
 21
25.5473175106
  0
LWPOLYLINE
  5
3A7
100
AcDbEntity
  8
RACCORDO
100
AcDbPolyline
 62
250
  6
CONTINUOUS
 90
25
 70
0
 10
2.5308974756
 20
-10.5522016949
 10
2.5233740439
 20
-10.5779403217
 10
2.5138502974
 20
-10.6034652848
 10
2.5028520796
 20
-10.627628043
 10
2.490212148
 20
-10.6502322136
 10
2.4760977452
 20
-10.6714741794
 10
2.4615364423
 20
-10.6907945481
 10
2.4466828519
 20
-10.7078915546
 10
2.4313823616
 20
-10.723066964
 10
2.416198705
 20
-10.7366666794
 10
2.4012617642
 20
-10.748658487
 10
2.3864416571
 20
-10.7590746007
 10
2.371912472
 20
-10.768357564
 10
2.357720126
 20
-10.7765492658
 10
2.3438187019
 20
-10.7836078173
 10
2.3302445363
 20
-10.7898500968
 10
2.3170197616
 20
-10.7953092386
 10
2.3041222453
 20
-10.7999521085
 10
2.2915219262
 20
-10.8039961811
 10
2.2792311238
 20
-10.8074661204
 10
2.2672375187
 20
-10.8103372625
 10
2.2554740911
 20
-10.8127530907
 10
2.2439185013
 20
-10.8147614328
 10
2.2325930891
 20
-10.8163144609
 10
2.2214978545
 20
-10.8174121751
  0
LWPOLYLINE
  5
3A8
100
AcDbEntity
  8
DRAFT
100
AcDbPolyline
 62
7
  6
CONTINUOUS
 90
25
 70
0
 10
0.7048337961
 20
10.1967561991
 10
0.7333960189
 20
10.1953810916
 10
0.7615739771
 20
10.1943630645
 10
0.7892713456
 20
10.1937021179
 10
0.8163980808
 20
10.1934034029
 10
0.8428561296
 20
10.1934617684
 10
0.8685410404
 20
10.1938617611
 10
0.8933650877
 20
10.1946086939
 10
0.9172450663
 20
10.1956972539
 10
0.9400903199
 20
10.1970960485
 10
0.9618236081
 20
10.1988088362
 10
0.9823753068
 20
10.2008318585
 10
1.0016742833
 20
10.2031224472
 10
1.019655798
 20
10.2056823429
 10
1.0362658793
 20
10.2085098051
 10
1.0514562245
 20
10.2115569441
 10
1.0651776646
 20
10.2148242346
 10
1.0773876366
 20
10.2183112019
 10
1.0880522442
 20
10.2219685334
 10
1.0971360294
 20
10.225795592
 10
1.1046101436
 20
10.2297930148
 10
1.1104535737
 20
10.2339134002
 10
1.1146452499
 20
10.238140948
 10
1.1171675186
 20
10.2424914584
 10
1.1180097072
 20
10.2469649316
  0
LINE
  5
3A9
100
AcDbEntity
  8
DRAFT
100
AcDbLine
 62
7
  6
CONTINUOUS
 10
-0.6819902928
 20
10.5398885734
 11
1.1180097072
 21
10.382408979
  0
LWPOLYLINE
  5
3AA
100
AcDbEntity
  8
0
100
AcDbPolyline
 62
7
  6
CONTINUOUS
 90
10
 70
0
 43
0.3500000006
 10
-13.1570555878
 20
49.4803872986
 10
-13.0881305237
 20
49.3363058624
 10
-13.0893779182
 20
49.2648882751
 10
-13.234706749
 20
49.1245456238
 10
-13.3061243362
 20
49.1257918854
 10
-13.376294529
 20
49.1984557343
 10
-13.3750482674
 20
49.2698733215
 10
-13.3011370239
 20
49.4114622345
 10
-13.228473175
 20
49.4816335602
 10
-13.1570555878
 20
49.4803872986
  0
LINE
  5
3AB
100
AcDbEntity
  8
RACCORDO
100
AcDbLine
 62
250
  6
CONTINUOUS
 10
-2.1950787669
 20
14.3770312683
 11
-2.6819902928
 21
14.3770312683
  0
LWPOLYLINE
  5
3AC
100
AcDbEntity
  8
RACCORDO
100
AcDbPolyline
 62
250
  6
CONTINUOUS
 90
10
 70
0
 10
0.6632777577
 20
24.649276801
 10
0.674315281
 20
24.6372064168
 10
0.6842678624
 20
24.6242118189
 10
0.693135502
 20
24.6102930073
 10
0.7010267142
 20
24.595386156
 10
0.7078329846
 20
24.5795550911
 10
0.7132287695
 20
24.56299129
 10
0.7171055544
 20
24.5457585788
 10
0.7195718539
 20
24.5277931315
 10
0.7206276679
 20
24.5090949481
  0
LINE
  5
3AD
100
AcDbEntity
  8
RACCORDO
100
AcDbLine
 62
250
  6
CONTINUOUS
 10
0.4518346333
 20
24.8644428877
 11
0.6632777577
 21
24.649276801
  0
LINE
  5
3AE
100
AcDbEntity
  8
RACCORDO
100
AcDbLine
 62
7
  6
CONTINUOUS
 10
0.6631918073
 20
25.074715667
 11
0.8746349318
 21
24.8595495803
  0
LINE
  5
3AF
100
AcDbEntity
  8
RACCORDO
100
AcDbLine
 62
250
  6
CONTINUOUS
 10
1.3180097072
 20
21.2971705184
 11
-0.6819902928
 21
20.9442089582
  0
LINE
  5
3B0
100
AcDbEntity
  8
RACCORDO
100
AcDbLine
 62
7
  6
CONTINUOUS
 10
1.0701041605
 20
20.9488300983
 11
-0.6819902928
 21
20.6398885734
  0
LINE
  5
3B1
100
AcDbEntity
  8
RACCORDO
100
AcDbLine
 62
7
  6
CONTINUOUS
 10
0.8693186876
 20
23.460408136
 11
-0.6819902928
 21
23.4468700676
  0
LINE
  5
3B2
100
AcDbEntity
  8
RACCORDO
100
AcDbLine
 62
250
  6
CONTINUOUS
 10
0.8693186876
 20
23.7437987788
 11
-0.6819902928
 21
23.751636644
  0
LWPOLYLINE
  5
3B3
100
AcDbEntity
  8
RACCORDO
100
AcDbPolyline
 62
250
  6
CONTINUOUS
 90
13
 70
0
 10
0.8693186876
 20
23.7437987788
 10
0.8887776454
 20
23.7429657068
 10
0.9078851898
 20
23.7406773286
 10
0.9263180028
 20
23.7369723658
 10
0.9437641835
 20
23.73191351
 10
0.9599285258
 20
23.7255863618
 10
0.9745375136
 20
23.7180979827
 10
0.9873439487
 20
23.7095750832
 10
0.9981311341
 20
23.7001618789
 10
1.0067165401
 20
23.6900176502
 10
1.0129548935
 20
23.6793140474
 10
1.0167406353
 20
23.6682321855
 10
1.0180097072
 20
23.6569595803
  0
LWPOLYLINE
  5
3B4
100
AcDbEntity
  8
RACCORDO
100
AcDbPolyline
 62
250
  6
CONTINUOUS
 90
34
 70
0
 10
0.4652615121
 20
25.5982443092
 10
0.5143549755
 20
25.6093551459
 10
0.5614891002
 20
25.624449586
 10
0.606663886
 20
25.6435276296
 10
0.6501921991
 20
25.6668018901
 10
0.6917611734
 20
25.694059754
 10
0.7304322107
 20
25.7246633814
 10
0.7661565763
 20
25.758699699
 10
0.7989830049
 20
25.7960817801
 10
0.828119103
 20
25.8359110047
 10
0.8534738883
 20
25.8782492067
 10
0.875138343
 20
25.9230345522
 10
0.8925930199
 20
25.9691829204
 10
0.9057371445
 20
26.0167057762
 10
0.9146714913
 20
26.0655916546
 10
0.9191789359
 20
26.1147220401
 10
0.9191310128
 20
26.1641819647
 10
0.9146561876
 20
26.2138863963
 10
0.9059227333
 20
26.2624617237
 10
0.8925402894
 20
26.3100920119
 10
0.8748992164
 20
26.3565931958
 10
0.8543388683
 20
26.4000394689
 10
0.8307163871
 20
26.4399531242
 10
0.8041746308
 20
26.4768118687
 10
0.7764815276
 20
26.5101230173
 10
0.7482720971
 20
26.5393506367
 10
0.7189113199
 20
26.5650306601
 10
0.6882620652
 20
26.5882782014
 10
0.6567146506
 20
26.6093678806
 10
0.6238787586
 20
26.6280250776
 10
0.588446307
 20
26.6445410464
 10
0.5499812684
 20
26.6590128716
 10
0.50891967
 20
26.6713434687
 10
0.4652615121
 20
26.6815328375
  0
LINE
  5
3B5
100
AcDbEntity
  8
RACCORDO
100
AcDbLine
 62
7
  6
CONTINUOUS
 10
-0.6819902928
 20
25.1931752847
 11
0.4982458405
 21
25.4012827586
  0
LINE
  5
3B6
100
AcDbEntity
  8
RACCORDO
100
AcDbLine
 62
250
  6
CONTINUOUS
 10
-0.6819902928
 20
25.3959528624
 11
0.4652615121
 21
25.5982443092
  0
LINE
  5
3B7
100
AcDbEntity
  8
RACCORDO
100
AcDbLine
 62
250
  6
CONTINUOUS
 10
1.0180097072
 20
24.5090949481
 11
0.7206276679
 21
24.5090949481
  0
LINE
  5
3B8
100
AcDbEntity
  8
RACCORDO
100
AcDbLine
 62
7
  6
CONTINUOUS
 10
-0.6819902928
 20
24.0290122254
 11
0.7206276679
 21
24.0251085347
  0
LINE
  5
3B9
100
AcDbEntity
  8
RACCORDO
100
AcDbLine
 62
250
  6
CONTINUOUS
 10
-0.6819902928
 20
24.9329185022
 11
0.3109298505
 21
24.9242534194
  0
LINE
  5
3BA
100
AcDbEntity
  8
RACCORDO
100
AcDbLine
 62
7
  6
CONTINUOUS
 10
-0.4672863309
 20
25.2310333861
 11
0.3109298505
 21
25.2242419963
  0
LWPOLYLINE
  5
3BB
100
AcDbEntity
  8
RACCORDO
100
AcDbPolyline
 62
250
  6
CONTINUOUS
 90
13
 70
0
 10
0.3109298505
 20
24.9242534194
 10
0.3251679832
 20
24.9234650545
 10
0.3387984525
 20
24.9219350704
 10
0.3518212584
 20
24.9196634671
 10
0.3641364886
 20
24.9166367551
 10
0.3758440554
 20
24.912868424
 10
0.3872436958
 20
24.9083989416
 10
0.3983590233
 20
24.903334239
 10
0.4091664244
 20
24.8975683853
 10
0.4198947962
 20
24.8908240557
 10
0.4306204378
 20
24.8830088088
 10
0.4412670502
 20
24.8742150861
 10
0.4518346333
 20
24.8644428877
  0
LINE
  5
3BC
100
AcDbEntity
  8
RACCORDO
100
AcDbLine
 62
7
  6
CONTINUOUS
 10
1.0701041605
 20
24.3309470485
 11
1.0180097072
 21
24.3401327062
  0
LINE
  5
3BD
100
AcDbEntity
  8
RACCORDO
100
AcDbLine
 62
250
  6
CONTINUOUS
 10
1.3180097072
 20
23.9826066284
 11
1.0180097072
 21
24.0355508624
  0
LINE
  5
3BE
100
AcDbEntity
  8
RACCORDO
100
AcDbLine
 62
7
  6
CONTINUOUS
 10
-0.6819902928
 20
25.8468700676
 11
0.0502842593
 21
25.8532605308
  0
LINE
  5
3BF
100
AcDbEntity
  8
RACCORDO
100
AcDbLine
 62
250
  6
CONTINUOUS
 10
-0.6819902928
 20
26.0456435178
 11
0.3338563609
 21
26.0545086773
  0
LINE
  5
3C0
100
AcDbEntity
  8
RACCORDO
100
AcDbLine
 62
250
  6
CONTINUOUS
 10
0.3338563609
 20
26.2252684695
 11
-0.6819902928
 21
26.234133629
  0
LINE
  5
3C1
100
AcDbEntity
  8
RACCORDO
100
AcDbLine
 62
7
  6
CONTINUOUS
 10
0.0502842593
 20
26.426516616
 11
-0.6819902928
 21
26.4329070792
  0
LINE
  5
3C2
100
AcDbEntity
  8
RACCORDO
100
AcDbLine
 62
7
  6
CONTINUOUS
 10
0.4982458405
 20
26.8784943881
 11
-0.6819902928
 21
27.086601862
  0
LINE
  5
3C3
100
AcDbEntity
  8
RACCORDO
100
AcDbLine
 62
250
  6
CONTINUOUS
 10
0.4652615121
 20
27.0815328375
 11
-0.6819902928
 21
27.2838242844
  0
LINE
  5
3C4
100
AcDbEntity
  8
RACCORDO
100
AcDbLine
 62
7
  6
CONTINUOUS
 10
0.4982458405
 20
27.2784943881
 11
-0.6819902928
 21
27.486601862
  0
LINE
  5
3C5
100
AcDbEntity
  8
0
100
AcDbLine
 62
7
  6
CONTINUOUS
 10
0.4652615121
 20
26.6815328375
 11
-0.6819902928
 21
26.8851888297
  0
LINE
  5
3C6
100
AcDbEntity
  8
RACCORDO
100
AcDbLine
 62
250
  6
CONTINUOUS
 10
-0.6819902928
 20
29.4929252521
 11
-2.1950787669
 21
29.453303636
  0
LINE
  5
3C7
100
AcDbEntity
  8
RACCORDO
100
AcDbLine
 62
7
  6
CONTINUOUS
 10
-0.6819902928
 20
29.9927539146
 11
-2.1950787669
 21
29.9531322985
  0
LINE
  5
3C8
100
AcDbEntity
  8
RACCORDO
100
AcDbLine
 62
250
  6
CONTINUOUS
 10
-2.1950787669
 20
29.453303636
 11
-2.6819902928
 21
29.453303636
  0
LWPOLYLINE
  5
3C9
100
AcDbEntity
  8
0
100
AcDbPolyline
 62
7
  6
CONTINUOUS
 90
3
 70
0
 43
0.3500000006
 10
-15.0254770317
 20
39.5635982666
 10
-16.5254774895
 20
39.5635982666
 10
-15.882619503
 20
41.9207411957
  0
ARC
  5
3CA
100
AcDbEntity
  8
RACCORDO
100
AcDbCircle
 62
7
  6
CONTINUOUS
 10
-1.8963998762
 20
-21.6808335412
 40
1.0
100
AcDbArc
 50
258.0135711831
 51
268.5
  0
ARC
  5
3CB
100
AcDbEntity
  8
RACCORDO
100
AcDbCircle
 62
7
  6
CONTINUOUS
 10
-4.8517378214
 20
-21.5645332428
 40
0.5
100
AcDbArc
 50
174.0
 51
258.0135711831
  0
ARC
  5
3CC
100
AcDbEntity
  8
RACCORDO
100
AcDbCircle
 62
7
  6
CONTINUOUS
 10
-2.1819902928
 20
29.453303636
 40
0.5
100
AcDbArc
 50
91.5
 51
180.0
  0
ARC
  5
3CD
100
AcDbEntity
  8
RACCORDO
100
AcDbCircle
 62
7
  6
CONTINUOUS
 10
2.0849434817
 20
-10.4661261698
 40
0.5
100
AcDbArc
 50
275.0
 51
359.0
  0
ARC
  5
3CE
100
AcDbEntity
  8
RACCORDO
100
AcDbCircle
 62
7
  6
CONTINUOUS
 10
1.0180097072
 20
2.2442724242
 40
0.3
100
AcDbArc
 50
280.0
 51
360.0
  0
ARC
  5
3CF
100
AcDbEntity
  8
RACCORDO
100
AcDbCircle
 62
7
  6
CONTINUOUS
 10
0.3680097072
 20
26.1398885734
 40
0.75
100
AcDbArc
 50
280.0
 51
80.0
  0
ARC
  5
3D0
100
AcDbEntity
  8
RACCORDO
100
AcDbCircle
 62
7
  6
CONTINUOUS
 10
0.3680097072
 20
26.5398885734
 40
0.75
100
AcDbArc
 50
344.5839257803
 51
80.0
  0
ARC
  5
3D1
100
AcDbEntity
  8
RACCORDO
100
AcDbCircle
 62
7
  6
CONTINUOUS
 10
0.3065665828
 20
24.7242610348
 40
0.5
100
AcDbArc
 50
44.5
 51
89.5
  0
ARC
  5
3D2
100
AcDbEntity
  8
RACCORDO
100
AcDbCircle
 62
7
  6
CONTINUOUS
 10
0.5180097072
 20
24.5090949481
 40
0.5
100
AcDbArc
 50
0.0
 51
44.5
  0
ARC
  5
3D3
100
AcDbEntity
  8
RACCORDO
100
AcDbCircle
 62
7
  6
CONTINUOUS
 10
1.0180097072
 20
24.0355047226
 40
0.3
100
AcDbArc
 50
0.0
 51
80.0
  0
ARC
  5
3D4
100
AcDbEntity
  8
RACCORDO
100
AcDbCircle
 62
7
  6
CONTINUOUS
 10
1.0180097072
 20
21.2442724242
 40
0.3
100
AcDbArc
 50
280.0
 51
360.0
  0
ARC
  5
3D5
100
AcDbEntity
  8
RACCORDO
100
AcDbCircle
 62
7
  6
CONTINUOUS
 10
1.0180097072
 20
5.0355047226
 40
0.3
100
AcDbArc
 50
0.0
 51
80.0
  0
ARC
  5
3D6
100
AcDbEntity
  8
RACCORDO
100
AcDbCircle
 62
7
  6
CONTINUOUS
 10
0.8680097072
 20
23.6104024245
 40
0.15
100
AcDbArc
 50
270.5
 51
360.0
  0
ARC
  5
3D7
100
AcDbEntity
  8
0
100
AcDbCircle
 62
7
  6
CONTINUOUS
 10
0.3361796259
 20
7.0340861649
 40
0.05
100
AcDbArc
 50
0.0
 51
58.4930902443
  0
ELLIPSE
  5
3D8
100
AcDbEntity
  8
ASSI
100
AcDbEllipse
 62
7
  6
CONTINUOUS
 10
18.7324522972
 20
18.7155805814
 30
0.0
 11
0.0
 21
1.0
 31
0.0
 40
0.0261859216
 41
-2.9670597284
 42
-1.5707963268
  0
ELLIPSE
  5
3D9
100
AcDbEntity
  8
ASSI
100
AcDbEllipse
 62
7
  6
CONTINUOUS
 10
18.7324522972
 20
26.5641965654
 30
0.0
 11
0.0
 21
1.0
 31
0.0
 40
0.0261859216
 41
-1.5707963268
 42
-0.1745329252
  0
ELLIPSE
  5
3DA
100
AcDbEntity
  8
RACCORDO
100
AcDbEllipse
 62
7
  6
CONTINUOUS
 10
35.8965080396
 20
-22.2981116655
 30
0.0
 11
0.2001246081
 21
0.0002424734
 31
0.0
 40
0.2101264618
 41
1.5650302815
 42
3.0136535606
  0
ELLIPSE
  5
3DB
100
AcDbEntity
  8
RACCORDO
100
AcDbEllipse
 62
7
  6
CONTINUOUS
 10
46.1636528685
 20
-22.2981116655
 30
0.0
 11
0.2001246081
 21
-0.0002424734
 31
0.0
 40
0.2101264618
 41
0.127939093
 42
1.5765623721
  0
ELLIPSE
  5
3DC
100
AcDbEntity
  8
RACCORDO
100
AcDbEllipse
 62
7
  6
CONTINUOUS
 10
19.2273865091
 20
-22.2128053715
 30
0.0
 11
0.35379574
 21
0.35379574
 31
0.0
 40
0.999315002
 41
-3.9266482006
 42
-2.3565371065
  0
ELLIPSE
  5
3DD
100
AcDbEntity
  8
RACCORDO
100
AcDbEllipse
 62
7
  6
CONTINUOUS
 10
62.832774399
 20
-22.2128053715
 30
0.0
 11
-0.35379574
 21
0.35379574
 31
0.0
 40
0.999315002
 41
-3.9266482006
 42
-2.3565371065
  0
ELLIPSE
  5
3DE
100
AcDbEntity
  8
RACCORDO
100
AcDbEllipse
 62
7
  6
CONTINUOUS
 10
62.832774399
 20
29.4925825183
 30
0.0
 11
0.35379574
 21
0.35379574
 31
0.0
 40
0.999315002
 41
-0.7850555471
 42
0.7850555471
  0
ELLIPSE
  5
3DF
100
AcDbEntity
  8
RACCORDO
100
AcDbEllipse
 62
7
  6
CONTINUOUS
 10
19.2273865091
 20
29.4925825183
 30
0.0
 11
0.35379574
 21
-0.35379574
 31
0.0
 40
0.999315002
 41
2.3565371065
 42
3.9266482006
  0
ELLIPSE
  5
3E0
100
AcDbEntity
  8
RACCORDO
100
AcDbEllipse
 62
7
  6
CONTINUOUS
 10
35.7973122543
 20
-22.4605821275
 30
0.0
 11
0.2002192177
 21
0.0005072039
 31
0.0
 40
0.2137758614
 41
3.131328897
 42
4.7005395399
  0
ELLIPSE
  5
3E1
100
AcDbEntity
  8
RACCORDO
100
AcDbEllipse
 62
7
  6
CONTINUOUS
 10
46.2628486538
 20
-22.4605821275
 30
0.0
 11
0.2002192177
 21
-0.0005072039
 31
0.0
 40
0.2137758614
 41
-1.5589468863
 42
0.0102637566
  0
ELLIPSE
  5
3E2
100
AcDbEntity
  8
DRAFT
100
AcDbEllipse
 62
7
  6
CONTINUOUS
 10
16.6281218929
 20
-1.1601114266
 30
0.0
 11
63.2804152257
 21
0.0
 31
0.0
 40
0.1761108909
 41
1.8251610131
 42
1.8478741742
  0
ELLIPSE
  5
3E3
100
AcDbEntity
  8
RACCORDO
100
AcDbEllipse
 62
7
  6
CONTINUOUS
 10
0.7180097072
 20
24.4476362567
 30
0.0
 11
-0.0064728562
 21
0.4225035608
 31
0.0
 40
0.7098878919
 41
-3.154443869
 42
-2.6345261014
  0
ELLIPSE
  5
3E4
100
AcDbEntity
  8
RACCORDO
100
AcDbEllipse
 62
7
  6
CONTINUOUS
 10
0.0485235871
 20
26.0532527813
 30
0.0
 11
0.2853275264
 21
0.0024688431
 31
0.0
 40
0.7009226047
 41
-1.5706904684
 42
-0.0060647732
  0
ELLIPSE
  5
3E5
100
AcDbEntity
  8
RACCORDO
100
AcDbEllipse
 62
7
  6
CONTINUOUS
 10
0.0485235871
 20
26.2265243654
 30
0.0
 11
0.2853275264
 21
-0.0024688431
 31
0.0
 40
0.7009226047
 41
0.0060647732
 42
1.5706904684
  0
ELLIPSE
  5
3E6
100
AcDbEntity
  8
RACCORDO
100
AcDbEllipse
 62
7
  6
CONTINUOUS
 10
1.7309214514
 20
-10.8484360273
 30
0.0
 11
0.0019955652
 21
0.1504948323
 31
0.0
 40
0.575143077
 41
-3.0836453904
 42
-1.5302359344
  0
ELLIPSE
  5
3E7
100
AcDbEntity
  8
DRAFT
100
AcDbEllipse
 62
7
  6
CONTINUOUS
 10
-25.5487162474
 20
-1.1601114266
 30
0.0
 11
78.6921919963
 21
0.0
 31
0.0
 40
0.153091273
 41
1.2306518275
 42
1.2492859392
  0
ENDSEC
  0
SECTION
  2
OBJECTS
  0
DICTIONARY
  5
C
100
AcDbDictionary
280
0
281
1
  3
ACAD_GROUP
350
D
  3
ACAD_MLINESTYLE
350
17
  3
ACAD_LAYOUT
350
1A
  3
ACAD_PLOTSETTINGS
350
19
  3
ACAD_PLOTSTYLENAME
350
E
  0
DICTIONARY
  5
D
102
{ACAD_REACTORS
330
C
102
}
100
AcDbDictionary
280
0
281
1
  0
ACDBDICTIONARYWDFLT
  5
E
102
{ACAD_REACTORS
330
C
102
}
100
AcDbDictionary
281
1
  3
Normal
350
F
100
AcDbDictionaryWithDefault
340
F
  0
DICTIONARY
  5
17
102
{ACAD_REACTORS
330
C
102
}
100
AcDbDictionary
280
0
281
1
  3
Standard
350
18
  0
DICTIONARY
  5
19
102
{ACAD_REACTORS
330
C
102
}
100
AcDbDictionary
281
1
  0
DICTIONARY
  5
1A
102
{ACAD_REACTORS
330
C
102
}
100
AcDbDictionary
281
1
  3
Model
350
3E8
  3
Layout1
350
3E9
  0
ACDBPLACEHOLDER
  5
F
102
{ACAD_REACTORS
330
E
102
}
  0
MLINESTYLE
  5
18
102
{ACAD_REACTORS
330
17
102
}
100
AcDbMlineStyle
  2
STANDARD
 70
0
  3

 62
256
 51
90.0
 52
90.0
 71
2
 49
0.5
 62
256
  6
BYLAYER
 49
-0.5
 62
256
  6
BYLAYER
  0
LAYOUT
  5
3E8
102
{ACAD_REACTORS
330
1A
102
}
100
AcDbPlotSettings
  1

  2
none_device
  4
ISO_A4_(297.00_x_210.00_MM)
  6

 40
0.0
 41
0.0
 42
0.0
 43
0.0
 44
297.0
 45
210.0
 46
0.0
 47
0.0
 48
0.0
 49
0.0
140
0.0
141
0.0
142
1.0
143
1.0
 70
1024
 72
1
 73
0
 74
0
  7

 75
0
147
1.0
148
0.0
149
0.0
100
AcDbLayout
  1
Model
 70
0
 71
0
 10
0.0
 20
0.0
 11
297.0
 21
210.0
 12
0.0
 22
0.0
 32
0.0
 14
0.0
 24
0.0
 34
0.0
 15
0.0
 25
0.0
 35
0.0
146
0.0
 13
0.0
 23
0.0
 33
0.0
 16
1.0
 26
0.0
 36
0.0
 17
0.0
 27
1.0
 37
0.0
 76
0
330
21B
345
0
346
0
  0
LAYOUT
  5
3E9
102
{ACAD_REACTORS
330
1A
102
}
100
AcDbPlotSettings
  1

  2
none_device
  4
ISO_A4_(297.00_x_210.00_MM)
  6

 40
0.0
 41
0.0
 42
0.0
 43
0.0
 44
297.0
 45
210.0
 46
0.0
 47
0.0
 48
0.0
 49
0.0
140
0.0
141
0.0
142
1.0
143
1.0
 70
0
 72
1
 73
0
 74
0
  7

 75
0
147
1.0
148
0.0
149
0.0
100
AcDbLayout
  1
Layout1
 70
0
 71
1
 10
0.0
 20
0.0
 11
297.0
 21
210.0
 12
0.0
 22
0.0
 32
0.0
 14
0.0
 24
0.0
 34
0.0
 15
0.0
 25
0.0
 35
0.0
146
0.0
 13
0.0
 23
0.0
 33
0.0
 16
1.0
 26
0.0
 36
0.0
 17
0.0
 27
1.0
 37
0.0
 76
0
330
21C
345
0
346
0
  0
ENDSEC
  0
EOF
