  0
SECTION
  2
HEADER
  9
$ACADVER
  1
AC1024
  9
$DWGCODEPAGE
  3
ANSI_1252
  9
$EXTMAX
 10
420.0
 20
297.0
 30
0.0
  9
$EXTMIN
 10
0.0
 20
0.0
 30
0.0
  9
$LIMMIN
 10
0.0
 20
0.0
  9
$LIMMAX
 10
420.0
 20
297.0
  9
$VIEWCTR
 10
210.0
 20
148.5
  9
$VIEWSIZE
 40
297.0
  9
$CLAYER
  8
0
  9
$LTSCALE
 40
23.1
  9
$CELTYPE
  6
BYLAYER
  9
$DIMSCALE
 40
1.0
  9
$DIMASZ
 40
3.0
  9
$DIMEXO
 40
0.5
  9
$DIMDLI
 40
15.96
  9
$DIMEXE
 40
1.5
  9
$DIMCEN
 40
3.78
  9
$DIMLFAC
 40
1.0
  9
$DIMBLK
  1
_FILLED
  9
$DIMALT
 70
0
  9
$DIMALTF
 40
0.0393700787
  9
$DIMTXT
 40
3.0
  9
$DIMTOL
 70
1
  9
$DIMLIM
 70
0
  9
$DIMTFAC
 40
1.0
  9
$DIMTP
 40
0.01
  9
$DIMTM
 40
0.01
  9
$DIMGAP
 40
0.625
  9
$DIMDSEP
 70
44
  9
$AUNITS
 70
0
  9
$PDMODE
 70
3
  9
$PDSIZE
 40
3.0
  9
$HANDSEED
  5
33E
  9
$TILEMODE
 70
1
  9
$MEASUREMENT
 70
1
  9
$INSUNITS
 70
4
  0
ENDSEC
  0
SECTION
  2
CLASSES
  0
CLASS
  1
ACDBDICTIONARYWDFLT
  2
AcDbDictionaryWithDefault
  3
AutoCAD 2000
 90
0
 91
1
280
0
281
0
  0
CLASS
  1
ACDBPLACEHOLDER
  2
AcDbPlaceHolder
  3
AutoCAD 2000
 90
0
 91
1
280
0
281
0
  0
CLASS
  1
LAYOUT
  2
AcDbLayout
  3
AutoCAD 2000
 90
0
 91
0
280
0
281
0
  0
ENDSEC
  0
SECTION
  2
TABLES
  0
TABLE
  2
VPORT
  5
8
100
AcDbSymbolTable
 70
2
  0
VPORT
  5
1F4
100
AcDbSymbolTableRecord
100
AcDbViewportTableRecord
  2
*ACTIVE
 70
0
 10
0.0
 20
0.0
 11
1.0
 21
1.0
 12
210.0
 22
148.5
 13
0.0
 23
0.0
 14
1.0
 24
1.0
 15
0.0
 25
0.0
 16
0.0
 26
0.0
 36
1.0
 17
0.0
 27
0.0
 37
0.0
 40
297.0
 41
1.4141414141
 42
50.0
 43
0.0
 44
0.0
 50
0.0
 51
0.0
 71
0
 72
100
 73
1
 74
1
 75
0
 76
0
 77
0
 78
0
  0
ENDTAB
  0
TABLE
  2
LTYPE
  5
5
100
AcDbSymbolTable
 70
6
  0
LTYPE
  5
14
100
AcDbSymbolTableRecord
100
AcDbLinetypeTableRecord
  2
BYBLOCK
 70
0
  3

 72
65
 73
0
 40
0.0
  0
LTYPE
  5
15
100
AcDbSymbolTableRecord
100
AcDbLinetypeTableRecord
  2
BYLAYER
 70
0
  3

 72
65
 73
0
 40
0.0
  0
LTYPE
  5
16
100
AcDbSymbolTableRecord
100
AcDbLinetypeTableRecord
  2
CONTINUOUS
 70
64
  3
Solid line
 72
65
 73
0
 40
0.0
  0
LTYPE
  5
1F5
100
AcDbSymbolTableRecord
100
AcDbLinetypeTableRecord
  2
CENTER
 70
64
  3
____ _ ____ _ ____ _ ____ _ ____ _ ____ _ ____
 72
65
 73
4
 40
0.6
 49
0.375
 74
0
 49
-0.075
 74
0
 49
0.075
 74
0
 49
-0.075
 74
0
  0
LTYPE
  5
1F6
100
AcDbSymbolTableRecord
100
AcDbLinetypeTableRecord
  2
HIDDEN
 70
64
  3
- - - - - - - - - - - - - - - - - - - -
 72
65
 73
2
 40
0.2
 49
0.1
 74
0
 49
-0.1
 74
0
  0
LTYPE
  5
1F7
100
AcDbSymbolTableRecord
100
AcDbLinetypeTableRecord
  2
PHANTOM
 70
64
  3
_____ _ _ _____ _ _ _____ _ _ _____
 72
65
 73
6
 40
0.8
 49
0.45
 74
0
 49
-0.05
 74
0
 49
0.1
 74
0
 49
-0.05
 74
0
 49
0.1
 74
0
 49
-0.05
 74
0
  0
LTYPE
  5
1F8
100
AcDbSymbolTableRecord
100
AcDbLinetypeTableRecord
  2
DOT
 70
64
  3
. . . . . . . . . . . . . . . . . . . .
 72
65
 73
2
 40
0.2
 49
0.1
 74
0
 49
-0.1
 74
0
  0
LTYPE
  5
1F9
100
AcDbSymbolTableRecord
100
AcDbLinetypeTableRecord
  2
DASHED
 70
64
  3
- - - - - - - - - - - - - - - - - - - -
 72
65
 73
2
 40
0.2
 49
0.1
 74
0
 49
-0.1
 74
0
  0
ENDTAB
  0
TABLE
  2
LAYER
  5
2
100
AcDbSymbolTable
 70
36
  0
LAYER
  5
10
100
AcDbSymbolTableRecord
100
AcDbLayerTableRecord
  2
0
 70
0
 62
7
  6
CONTINUOUS
370
-3
390
F
  0
LAYER
  5
1FA
100
AcDbSymbolTableRecord
100
AcDbLayerTableRecord
  2
DEFAULT_1
 70
0
 62
7
  6
CENTER
370
-3
390
F
  0
LAYER
  5
1FB
100
AcDbSymbolTableRecord
100
AcDbLayerTableRecord
  2
DEFAULT_2
 70
0
 62
7
  6
HIDDEN
370
-3
390
F
  0
LAYER
  5
1FC
100
AcDbSymbolTableRecord
100
AcDbLayerTableRecord
  2
DEFAULT_3
 70
0
 62
7
  6
PHANTOM
370
-3
390
F
  0
LAYER
  5
1FD
100
AcDbSymbolTableRecord
100
AcDbLayerTableRecord
  2
ASSI
 70
0
 62
7
  6
CONTINUOUS
370
-3
390
F
  0
LAYER
  5
1FE
100
AcDbSymbolTableRecord
100
AcDbLayerTableRecord
  2
COORDINATE
 70
0
 62
7
  6
CONTINUOUS
370
-3
390
F
  0
LAYER
  5
1FF
100
AcDbSymbolTableRecord
100
AcDbLayerTableRecord
  2
COPY_PUBLISH
 70
0
 62
7
  6
CONTINUOUS
370
-3
390
F
  0
LAYER
  5
200
100
AcDbSymbolTableRecord
100
AcDbLayerTableRecord
  2
COSMETICI
 70
0
 62
7
  6
CONTINUOUS
370
-3
390
F
  0
LAYER
  5
201
100
AcDbSymbolTableRecord
100
AcDbLayerTableRecord
  2
CURVE
 70
0
 62
7
  6
CONTINUOUS
370
-3
390
F
  0
LAYER
  5
202
100
AcDbSymbolTableRecord
100
AcDbLayerTableRecord
  2
DRAFT
 70
0
 62
7
  6
CONTINUOUS
370
-3
390
F
  0
LAYER
  5
203
100
AcDbSymbolTableRecord
100
AcDbLayerTableRecord
  2
IMPORT_IGES
 70
0
 62
7
  6
CONTINUOUS
370
-3
390
F
  0
LAYER
  5
204
100
AcDbSymbolTableRecord
100
AcDbLayerTableRecord
  2
INTF_2
 70
0
 62
7
  6
CONTINUOUS
370
-3
390
F
  0
LAYER
  5
205
100
AcDbSymbolTableRecord
100
AcDbLayerTableRecord
  2
INTF_3
 70
0
 62
7
  6
CONTINUOUS
370
-3
390
F
  0
LAYER
  5
206
100
AcDbSymbolTableRecord
100
AcDbLayerTableRecord
  2
INTF_4
 70
0
 62
7
  6
CONTINUOUS
370
-3
390
F
  0
LAYER
  5
207
100
AcDbSymbolTableRecord
100
AcDbLayerTableRecord
  2
INTF_5
 70
0
 62
7
  6
CONTINUOUS
370
-3
390
F
  0
LAYER
  5
208
100
AcDbSymbolTableRecord
100
AcDbLayerTableRecord
  2
INTF_6
 70
0
 62
7
  6
CONTINUOUS
370
-3
390
F
  0
LAYER
  5
209
100
AcDbSymbolTableRecord
100
AcDbLayerTableRecord
  2
INTF_7
 70
0
 62
7
  6
CONTINUOUS
370
-3
390
F
  0
LAYER
  5
20A
100
AcDbSymbolTableRecord
100
AcDbLayerTableRecord
  2
INTF_9
 70
0
 62
7
  6
CONTINUOUS
370
-3
390
F
  0
LAYER
  5
20B
100
AcDbSymbolTableRecord
100
AcDbLayerTableRecord
  2
INTF_BLANK
 70
0
 62
7
  6
CONTINUOUS
370
-3
390
F
  0
LAYER
  5
20C
100
AcDbSymbolTableRecord
100
AcDbLayerTableRecord
  2
INTF_RED
 70
0
 62
7
  6
CONTINUOUS
370
-3
390
F
  0
LAYER
  5
20D
100
AcDbSymbolTableRecord
100
AcDbLayerTableRecord
  2
NOTE
 70
0
 62
7
  6
CONTINUOUS
370
-3
390
F
  0
LAYER
  5
20E
100
AcDbSymbolTableRecord
100
AcDbLayerTableRecord
  2
PIANI
 70
0
 62
7
  6
CONTINUOUS
370
-3
390
F
  0
LAYER
  5
20F
100
AcDbSymbolTableRecord
100
AcDbLayerTableRecord
  2
PUNTI
 70
0
 62
7
  6
CONTINUOUS
370
-3
390
F
  0
LAYER
  5
210
100
AcDbSymbolTableRecord
100
AcDbLayerTableRecord
  2
RACCORDO
 70
0
 62
7
  6
CONTINUOUS
370
-3
390
F
  0
LAYER
  5
211
100
AcDbSymbolTableRecord
100
AcDbLayerTableRecord
  2
RGB____0____0____0__
 70
0
 62
7
  6
CONTINUOUS
370
-3
390
F
  0
LAYER
  5
212
100
AcDbSymbolTableRecord
100
AcDbLayerTableRecord
  2
SIMBOLI
 70
0
 62
7
  6
CONTINUOUS
370
-3
390
F
  0
LAYER
  5
213
100
AcDbSymbolTableRecord
100
AcDbLayerTableRecord
  2
SMUSSO
 70
0
 62
7
  6
CONTINUOUS
370
-3
390
F
  0
LAYER
  5
214
100
AcDbSymbolTableRecord
100
AcDbLayerTableRecord
  2
SNAPLINE
 70
0
 62
7
  6
CONTINUOUS
370
-3
390
F
  0
LAYER
  5
215
100
AcDbSymbolTableRecord
100
AcDbLayerTableRecord
  2
SUPERFICI
 70
0
 62
7
  6
CONTINUOUS
370
-3
390
F
  0
LAYER
  5
216
100
AcDbSymbolTableRecord
100
AcDbLayerTableRecord
  2
TRASH
 70
0
 62
7
  6
CONTINUOUS
370
-3
390
F
  0
ENDTAB
  0
TABLE
  2
STYLE
  5
3
100
AcDbSymbolTable
 70
1
  0
STYLE
  5
11
100
AcDbSymbolTableRecord
100
AcDbTextStyleTableRecord
  2
STANDARD
 70
0
 40
0.0
 41
0.8
 50
0.0
 71
0
 42
0.2
  3
txt
  4

  0
STYLE
  5
217
100
AcDbSymbolTableRecord
100
AcDbTextStyleTableRecord
  2
TEXTSTYLE_1
 70
0
 40
0.0
 41
0.8
 50
0.0
 71
0
 42
0.2
  3
gdt
  4

  0
ENDTAB
  0
TABLE
  2
VIEW
  5
6
100
AcDbSymbolTable
 70
0
  0
ENDTAB
  0
TABLE
  2
UCS
  5
7
100
AcDbSymbolTable
 70
0
  0
ENDTAB
  0
TABLE
  2
APPID
  5
9
100
AcDbSymbolTable
 70
1
  0
APPID
  5
218
100
AcDbSymbolTableRecord
100
AcDbRegAppTableRecord
  2
ACAD
 70
0
  0
ENDTAB
  0
TABLE
  2
BLOCK_RECORD
  5
1
100
AcDbSymbolTable
 70
0
  0
BLOCK_RECORD
  5
219
100
AcDbSymbolTableRecord
100
AcDbBlockTableRecord
  2
*Model_Space
  0
BLOCK_RECORD
  5
21A
100
AcDbSymbolTableRecord
100
AcDbBlockTableRecord
  2
*Paper_Space
  0
BLOCK_RECORD
  5
21B
100
AcDbSymbolTableRecord
100
AcDbBlockTableRecord
  2
_FILLED
  0
BLOCK_RECORD
  5
21C
100
AcDbSymbolTableRecord
100
AcDbBlockTableRecord
  2
*D0
  0
BLOCK_RECORD
  5
21D
100
AcDbSymbolTableRecord
100
AcDbBlockTableRecord
  2
*D1
  0
BLOCK_RECORD
  5
21E
100
AcDbSymbolTableRecord
100
AcDbBlockTableRecord
  2
*D2
  0
BLOCK_RECORD
  5
21F
100
AcDbSymbolTableRecord
100
AcDbBlockTableRecord
  2
*D3
  0
ENDTAB
  0
TABLE
  2
DIMSTYLE
  5
A
100
AcDbSymbolTable
 70
1
100
AcDbDimStyleTable
 71
0
  0
DIMSTYLE
105
220
100
AcDbSymbolTableRecord
100
AcDbDimStyleTableRecord
  2
STANDARD
 70
0
  3

  4

 40
1.0
 41
3.0
 42
0.5
 43
0.38
 44
1.5
 45
0.0
 46
0.0
 47
0.01
 48
0.01
140
3.0
141
0.09
142
0.0
143
25.4
144
1.0
145
0.0
146
1.0
147
0.625
 71
1
 72
0
 73
0
 74
0
 75
0
 76
0
 77
1
 78
8
 79
2
170
0
171
1
172
0
173
0
174
0
175
0
176
0
177
0
178
0
270
2
179
2
271
2
272
2
273
2
274
2
275
0
280
0
281
0
282
0
283
1
284
8
285
0
286
0
287
3
288
0
340
11
278
44
341
21B
342
21B
343
21B
344
21B
  0
DIMSTYLE
105
221
100
AcDbSymbolTableRecord
100
AcDbDimStyleTableRecord
  2
DIMSTYLE_1
 70
0
  3

  4

 40
1.0
 41
3.0
 42
0.5
 43
0.38
 44
1.5
 45
0.0
 46
0.0
 47
0.0
 48
0.0
140
3.0
141
0.09
142
0.0
143
25.4
144
1.0
145
0.0
146
1.0
147
0.75
 71
0
 72
0
 73
0
 74
0
 75
0
 76
0
 77
1
 78
8
 79
2
170
0
171
1
172
0
173
0
174
0
175
0
176
0
177
0
178
0
270
2
179
2
271
1
272
1
273
2
274
2
275
0
280
0
281
0
282
0
283
1
284
8
285
0
286
0
287
3
288
0
340
11
278
44
341
21B
342
21B
343
21B
344
21B
  0
DIMSTYLE
105
222
100
AcDbSymbolTableRecord
100
AcDbDimStyleTableRecord
  2
DIMSTYLE_2
 70
0
  3

  4

 40
1.0
 41
3.0
 42
0.5
 43
0.38
 44
1.5
 45
0.0
 46
0.0
 47
0.0
 48
0.0
140
3.0
141
0.09
142
0.0
143
25.4
144
1.0
145
0.0
146
1.0
147
0.75
 71
0
 72
0
 73
0
 74
0
 75
0
 76
0
 77
1
 78
8
 79
2
170
0
171
1
172
0
173
0
174
0
175
0
176
0
177
0
178
0
270
2
179
2
271
2
272
2
273
2
274
2
275
0
280
0
281
0
282
0
283
1
284
8
285
0
286
0
287
3
288
0
340
11
278
44
341
21B
342
21B
343
21B
344
21B
  0
ENDTAB
  0
ENDSEC
  0
SECTION
  2
BLOCKS
  0
BLOCK
  5
20
100
AcDbEntity
  8
0
100
AcDbBlockBegin
  2
*Model_Space
 70
0
 10
0.0
 20
0.0
 30
0.0
  3
*Model_Space
  1

  0
ENDBLK
  5
21
100
AcDbEntity
  8
0
100
AcDbBlockEnd
  0
BLOCK
  5
1C
100
AcDbEntity
  8
0
100
AcDbBlockBegin
  2
*Paper_Space
 70
0
 10
0.0
 20
0.0
 30
0.0
  3
*Paper_Space
  1

  0
ENDBLK
  5
1D
100
AcDbEntity
  8
0
100
AcDbBlockEnd
  0
BLOCK
  5
223
100
AcDbEntity
  8
0
100
AcDbBlockBegin
  2
_FILLED
 70
64
 10
0.0
 20
0.0
  3
_FILLED
  1

  0
SOLID
  5
224
100
AcDbEntity
  8
0
  6
BYBLOCK
 62
0
100
AcDbTrace
 10
0.0
 20
0.0
 11
-1.0
 21
0.3166666667
 12
-1.0
 22
-0.3166666667
 13
-1.0
 23
-0.3166666667
  0
ENDBLK
  5
225
100
AcDbEntity
  8
0
  6
BYBLOCK
 62
0
100
AcDbBlockEnd
  0
BLOCK
  5
226
100
AcDbEntity
  8
0
100
AcDbBlockBegin
 62
7
  6
CONTINUOUS
  2
*D0
 70
65
 10
0.0
 20
0.0
  3
*D0
  1

  0
LINE
  5
227
100
AcDbEntity
  8
0
100
AcDbLine
 62
7
  6
CONTINUOUS
 10
-22.2845351961
 20
26.3347065336
 11
-22.2845351961
 21
37.9
  0
LINE
  5
228
100
AcDbEntity
  8
0
100
AcDbLine
 62
7
  6
CONTINUOUS
 10
22.2845351961
 20
26.3347065336
 11
22.2845351961
 21
37.9
  0
LINE
  5
229
100
AcDbEntity
  8
0
100
AcDbLine
 62
7
  6
CONTINUOUS
 10
-22.2845351961
 20
36.4
 11
-0.0
 21
36.4
  0
LINE
  5
22A
100
AcDbEntity
  8
0
100
AcDbLine
 62
7
  6
CONTINUOUS
 10
22.2845351961
 20
36.4
 11
-0.0
 21
36.4
  0
INSERT
  5
22B
100
AcDbEntity
  8
0
100
AcDbBlockReference
 62
7
  6
CONTINUOUS
  2
_FILLED
 10
-22.2845351961
 20
36.4
 41
3.0
 42
3.0
 43
3.0
 50
180.0
  0
INSERT
  5
22C
100
AcDbEntity
  8
0
100
AcDbBlockReference
 62
7
  6
CONTINUOUS
  2
_FILLED
 10
22.2845351961
 20
36.4
 41
3.0
 42
3.0
 43
3.0
  0
ENDBLK
  5
22D
100
AcDbEntity
  8
0
  6
BYBLOCK
 62
0
100
AcDbBlockEnd
  0
BLOCK
  5
22E
100
AcDbEntity
  8
0
100
AcDbBlockBegin
 62
7
  6
CONTINUOUS
  2
*D1
 70
65
 10
0.0
 20
0.0
  3
*D1
  1

  0
LINE
  5
22F
100
AcDbEntity
  8
0
100
AcDbLine
 62
7
  6
CONTINUOUS
 10
22.2847065336
 20
26.3345351961
 11
33.85
 21
26.3345351961
  0
LINE
  5
230
100
AcDbEntity
  8
0
100
AcDbLine
 62
7
  6
CONTINUOUS
 10
22.2847065336
 20
-26.3345351961
 11
33.85
 21
-26.3345351961
  0
LINE
  5
231
100
AcDbEntity
  8
0
100
AcDbLine
 62
7
  6
CONTINUOUS
 10
32.35
 20
26.3345351961
 11
32.35
 21
0.0
  0
LINE
  5
232
100
AcDbEntity
  8
0
100
AcDbLine
 62
7
  6
CONTINUOUS
 10
32.35
 20
-26.3345351961
 11
32.35
 21
0.0
  0
INSERT
  5
233
100
AcDbEntity
  8
0
100
AcDbBlockReference
 62
7
  6
CONTINUOUS
  2
_FILLED
 10
32.35
 20
26.3345351961
 41
3.0
 42
3.0
 43
3.0
 50
90.0
  0
INSERT
  5
234
100
AcDbEntity
  8
0
100
AcDbBlockReference
 62
7
  6
CONTINUOUS
  2
_FILLED
 10
32.35
 20
-26.3345351961
 41
3.0
 42
3.0
 43
3.0
 50
270.0
  0
ENDBLK
  5
235
100
AcDbEntity
  8
0
  6
BYBLOCK
 62
0
100
AcDbBlockEnd
  0
BLOCK
  5
236
100
AcDbEntity
  8
0
100
AcDbBlockBegin
 62
7
  6
CONTINUOUS
  2
*D2
 70
65
 10
0.0
 20
0.0
  3
*D2
  1

  0
LINE
  5
237
100
AcDbEntity
  8
0
100
AcDbLine
 62
7
  6
CONTINUOUS
 10
-43.2606427632
 20
26.3134150626
 11
-43.2606427632
 21
38.1534736842
  0
LINE
  5
238
100
AcDbEntity
  8
0
100
AcDbLine
 62
7
  6
CONTINUOUS
 10
-41.2606427632
 20
26.2880695924
 11
-41.2606427632
 21
38.1534736842
  0
LINE
  5
239
100
AcDbEntity
  8
0
100
AcDbLine
 62
7
  6
CONTINUOUS
 10
-43.2606427632
 20
36.6534736842
 11
-50.204943515
 21
36.6534736842
  0
LINE
  5
23A
100
AcDbEntity
  8
0
100
AcDbLine
 62
7
  6
CONTINUOUS
 10
-50.204943515
 20
36.6534736842
 11
-42.2606427632
 21
36.6534736842
  0
LINE
  5
23B
100
AcDbEntity
  8
0
100
AcDbLine
 62
7
  6
CONTINUOUS
 10
-41.2606427632
 20
36.6534736842
 11
-37.2606427632
 21
36.6534736842
  0
LINE
  5
23C
100
AcDbEntity
  8
0
100
AcDbLine
 62
7
  6
CONTINUOUS
 10
-37.2606427632
 20
36.6534736842
 11
-42.2606427632
 21
36.6534736842
  0
INSERT
  5
23D
100
AcDbEntity
  8
0
100
AcDbBlockReference
 62
7
  6
CONTINUOUS
  2
_FILLED
 10
-43.2606427632
 20
36.6534736842
 41
3.0
 42
3.0
 43
3.0
  0
INSERT
  5
23E
100
AcDbEntity
  8
0
100
AcDbBlockReference
 62
7
  6
CONTINUOUS
  2
_FILLED
 10
-41.2606427632
 20
36.6534736842
 41
3.0
 42
3.0
 43
3.0
 50
180.0
  0
ENDBLK
  5
23F
100
AcDbEntity
  8
0
  6
BYBLOCK
 62
0
100
AcDbBlockEnd
  0
BLOCK
  5
240
100
AcDbEntity
  8
0
100
AcDbBlockBegin
 62
7
  6
CONTINUOUS
  2
*D3
 70
65
 10
0.0
 20
0.0
  3
*D3
  1

  0
LINE
  5
241
100
AcDbEntity
  8
0
100
AcDbLine
 62
7
  6
CONTINUOUS
 10
-43.2606427632
 20
26.3134150626
 11
-43.2606427632
 21
44.4776842105
  0
LINE
  5
242
100
AcDbEntity
  8
0
100
AcDbLine
 62
7
  6
CONTINUOUS
 10
-37.9606427632
 20
14.7974685017
 11
-37.9606427632
 21
44.4776842105
  0
LINE
  5
243
100
AcDbEntity
  8
0
100
AcDbLine
 62
7
  6
CONTINUOUS
 10
-43.2606427632
 20
42.9776842105
 11
-51.9379059211
 21
42.9776842105
  0
LINE
  5
244
100
AcDbEntity
  8
0
100
AcDbLine
 62
7
  6
CONTINUOUS
 10
-51.9379059211
 20
42.9776842105
 11
-40.6106427632
 21
42.9776842105
  0
LINE
  5
245
100
AcDbEntity
  8
0
100
AcDbLine
 62
7
  6
CONTINUOUS
 10
-37.9606427632
 20
42.9776842105
 11
-33.9606427632
 21
42.9776842105
  0
LINE
  5
246
100
AcDbEntity
  8
0
100
AcDbLine
 62
7
  6
CONTINUOUS
 10
-33.9606427632
 20
42.9776842105
 11
-40.6106427632
 21
42.9776842105
  0
INSERT
  5
247
100
AcDbEntity
  8
0
100
AcDbBlockReference
 62
7
  6
CONTINUOUS
  2
_FILLED
 10
-43.2606427632
 20
42.9776842105
 41
3.0
 42
3.0
 43
3.0
  0
INSERT
  5
248
100
AcDbEntity
  8
0
100
AcDbBlockReference
 62
7
  6
CONTINUOUS
  2
_FILLED
 10
-37.9606427632
 20
42.9776842105
 41
3.0
 42
3.0
 43
3.0
 50
180.0
  0
ENDBLK
  5
249
100
AcDbEntity
  8
0
  6
BYBLOCK
 62
0
100
AcDbBlockEnd
  0
ENDSEC
  0
SECTION
  2
ENTITIES
  0
DIMENSION
  5
24A
100
AcDbEntity
  8
0
100
AcDbDimension
 62
7
  6
CONTINUOUS
  2
*D0
 10
22.2845351961
 20
36.4
 11
-4.3928571429
 21
36.4
 70
160
 71
2
 72
2
 41
0.9
 42
44.5690703922
  3
DIMSTYLE_1
100
AcDbAlignedDimension
 13
-22.2845351961
 23
25.8347065336
 14
22.2845351961
 24
25.8347065336
100
AcDbRotatedDimension
  0
DIMENSION
  5
24B
100
AcDbEntity
  8
0
100
AcDbDimension
 62
7
  6
CONTINUOUS
  2
*D1
 10
32.35
 20
-26.3345351961
 11
32.35
 21
-4.2857142857
 70
160
 71
2
 72
2
 41
0.9
 42
52.6690703922
  3
DIMSTYLE_1
100
AcDbAlignedDimension
 13
21.7847065336
 23
26.3345351961
 14
21.7847065336
 24
-26.3345351961
 50
270.0
100
AcDbRotatedDimension
  0
DIMENSION
  5
24C
100
AcDbEntity
  8
0
100
AcDbDimension
 62
7
  6
CONTINUOUS
  2
*D2
 10
-41.2606427632
 20
36.6534736842
 11
-50.204943515
 21
36.6534736842
 70
160
 71
3
 72
2
 41
0.9
 42
2.0
  3
DIMSTYLE_2
100
AcDbAlignedDimension
 13
-43.2606427632
 23
25.8134150626
 14
-41.2606427632
 24
25.7880695924
100
AcDbRotatedDimension
  0
DIMENSION
  5
24D
100
AcDbEntity
  8
0
100
AcDbDimension
 62
7
  6
CONTINUOUS
  2
*D3
 10
-37.9606427632
 20
42.9776842105
 11
-51.9379059211
 21
42.9776842105
 70
160
 71
3
 72
2
 41
0.9
 42
5.3
  3
DIMSTYLE_2
100
AcDbAlignedDimension
 13
-43.2606427632
 23
25.8134150626
 14
-37.9606427632
 24
14.2974685017
100
AcDbRotatedDimension
  0
LWPOLYLINE
  5
24E
100
AcDbEntity
  8
0
100
AcDbPolyline
 62
7
  6
CONTINUOUS
 90
10
 70
0
 43
0.3499999917
 10
3.1071428776
 20
40.1499975586
 10
2.4642856407
 20
39.5071417236
 10
2.0357142162
 20
38.6499984741
 10
2.0357142162
 20
37.5785742187
 10
2.4642856407
 20
37.1499993896
 10
3.1071428776
 20
37.1499993896
 10
3.5357143021
 20
37.5785742187
 10
3.5357143021
 20
38.4357174683
 10
3.1071428776
 20
38.8642858887
 10
2.1785713577
 20
38.8642858887
  0
LINE
  5
24F
100
AcDbEntity
  8
0
100
AcDbLine
 62
7
  6
CONTINUOUS
 10
-21.7847065336
 20
-26.3345351961
 11
21.7847065336
 21
-26.3345351961
  0
LINE
  5
250
100
AcDbEntity
  8
0
100
AcDbLine
 62
250
  6
CONTINUOUS
 10
-21.7634150626
 20
-26.3132437251
 11
21.7634150626
 21
-26.3132437251
  0
LINE
  5
251
100
AcDbEntity
  8
0
100
AcDbLine
 62
250
  6
CONTINUOUS
 10
22.2632437251
 20
-25.8134150626
 11
-22.2632437251
 21
-25.8134150626
  0
LWPOLYLINE
  5
252
100
AcDbEntity
  8
0
100
AcDbPolyline
 62
250
  6
CONTINUOUS
 90
19
 70
0
 10
-22.2632437251
 20
-25.8134150626
 10
-22.2613028584
 20
-25.8570801542
 10
-22.2555537898
 20
-25.9004178512
 10
-22.2460387832
 20
-25.9430964506
 10
-22.2328257512
 20
-25.9847978064
 10
-22.216015846
 20
-26.0251929236
 10
-22.1957502639
 20
-26.0639475453
 10
-22.1722023129
 20
-26.1007488462
 10
-22.1455467167
 20
-26.1353397423
 10
-22.115961983
 20
-26.1674889091
 10
-22.0836391688
 20
-26.1969732548
 10
-22.0488482743
 20
-26.2235322962
 10
-22.011922065
 20
-26.2469186072
 10
-21.9731501007
 20
-26.2669671975
 10
-21.9328360226
 20
-26.2835385297
 10
-21.891372723
 20
-26.2964997493
 10
-21.8491117484
 20
-26.3057837699
 10
-21.806351528
 20
-26.3113667177
 10
-21.7634150625
 20
-26.313243725
  0
LWPOLYLINE
  5
253
100
AcDbEntity
  8
0
100
AcDbPolyline
 62
250
  6
CONTINUOUS
 90
19
 70
0
 10
-22.2632437251
 20
25.8134150626
 10
-22.2613076596
 20
25.8570257965
 10
-22.2555739276
 20
25.9003042898
 10
-22.2460861594
 20
25.9429204231
 10
-22.2329165731
 20
25.9845492487
 10
-22.2161655492
 20
26.0248730571
 10
-22.1959609828
 20
26.0635838484
 10
-22.1724552711
 20
26.1003888057
 10
-22.14582902
 20
26.1350044232
 10
-22.1162920631
 20
26.1671599442
 10
-22.0840764125
 20
26.1966076963
 10
-22.0494250716
 20
26.2231300512
 10
-22.0125948979
 20
26.2465319007
 10
-21.9738302846
 20
26.2666516761
 10
-21.9334596155
 20
26.283312963
 10
-21.8918966897
 20
26.296360325
 10
-21.849501534
 20
26.3057155099
 10
-21.8065656984
 20
26.3113480586
 10
-21.7634150626
 20
26.3132437251
  0
LINE
  5
254
100
AcDbEntity
  8
0
100
AcDbLine
 62
7
  6
CONTINUOUS
 10
-22.2845351961
 20
25.8347065336
 11
-22.2845351961
 21
-25.8347065336
  0
LINE
  5
255
100
AcDbEntity
  8
0
100
AcDbLine
 62
250
  6
CONTINUOUS
 10
-22.2632437251
 20
-25.8134150626
 11
-22.2632437251
 21
25.8134150626
  0
LINE
  5
256
100
AcDbEntity
  8
0
100
AcDbLine
 62
250
  6
CONTINUOUS
 10
-21.7634150626
 20
-26.3132437251
 11
-21.7634150626
 21
26.3132437251
  0
LWPOLYLINE
  5
257
100
AcDbEntity
  8
0
100
AcDbPolyline
 62
7
  6
CONTINUOUS
 90
3
 70
0
 43
0.3499999917
 10
1.0357143259
 20
37.4357116699
 10
0.9642857552
 20
37.2214306641
 10
0.8214285636
 20
36.9357119751
  0
LWPOLYLINE
  5
258
100
AcDbEntity
  8
0
100
AcDbPolyline
 62
7
  6
CONTINUOUS
 90
2
 70
0
 43
0.3499999917
 10
-3.3928569603
 20
37.1499993896
 10
-3.3928569603
 20
38.6499984741
  0
LINE
  5
259
100
AcDbEntity
  8
0
100
AcDbLine
 62
7
  6
CONTINUOUS
 10
-4.0349513557
 20
1.3905425203
 11
-4.1239655632
 21
1.0005726873
  0
LINE
  5
25A
100
AcDbEntity
  8
DRAFT
100
AcDbLine
 62
7
  6
CONTINUOUS
 10
-4.0349513557
 20
1.3905425202
 11
-4.1239655633
 21
1.0005726869
  0
LINE
  5
25B
100
AcDbEntity
  8
0
100
AcDbLine
 62
7
  6
CONTINUOUS
 10
-2.9095507352
 20
0.7233713135
 11
-2.8205365278
 21
1.1133411465
  0
LINE
  5
25C
100
AcDbEntity
  8
DRAFT
100
AcDbLine
 62
7
  6
CONTINUOUS
 10
-2.9095507353
 20
0.7233713131
 11
-2.8205365278
 21
1.1133411464
  0
LINE
  5
25D
100
AcDbEntity
  8
0
100
AcDbLine
 62
250
  6
CONTINUOUS
 10
21.7847065336
 20
26.3345351961
 11
21.7634150626
 21
26.3132437251
  0
LINE
  5
25E
100
AcDbEntity
  8
0
100
AcDbLine
 62
250
  6
CONTINUOUS
 10
22.2845351961
 20
25.8347065336
 11
22.2632437251
 21
25.8134150626
  0
LINE
  5
25F
100
AcDbEntity
  8
0
100
AcDbLine
 62
7
  6
CONTINUOUS
 10
-0.2
 20
-3.92
 11
0.2
 21
-3.92
  0
LINE
  5
260
100
AcDbEntity
  8
DRAFT
100
AcDbLine
 62
7
  6
CONTINUOUS
 10
-0.2
 20
-3.92
 11
0.2
 21
-3.92
  0
LINE
  5
261
100
AcDbEntity
  8
0
100
AcDbLine
 62
7
  6
CONTINUOUS
 10
0.2
 20
-2.6743499786
 11
-0.2
 21
-2.6743499786
  0
LINE
  5
262
100
AcDbEntity
  8
DRAFT
100
AcDbLine
 62
7
  6
CONTINUOUS
 10
0.2
 20
-2.6743499786
 11
-0.2
 21
-2.6743499786
  0
LINE
  5
263
100
AcDbEntity
  8
0
100
AcDbLine
 62
250
  6
CONTINUOUS
 10
21.7634150626
 20
-26.3132437251
 11
21.7847065336
 21
-26.3345351961
  0
LINE
  5
264
100
AcDbEntity
  8
0
100
AcDbLine
 62
250
  6
CONTINUOUS
 10
22.2632437251
 20
-25.8134150626
 11
22.2845351961
 21
-25.8347065336
  0
LINE
  5
265
100
AcDbEntity
  8
0
100
AcDbLine
 62
7
  6
CONTINUOUS
 10
-3.3961991565
 20
-2.1881451931
 11
-3.146805575
 21
-2.5008796515
  0
LINE
  5
266
100
AcDbEntity
  8
DRAFT
100
AcDbLine
 62
7
  6
CONTINUOUS
 10
-3.3961991565
 20
-2.1881451931
 11
-3.146805575
 21
-2.5008796515
  0
LINE
  5
267
100
AcDbEntity
  8
0
100
AcDbLine
 62
7
  6
CONTINUOUS
 10
-2.1729113629
 20
-1.724236851
 11
-2.4223049441
 21
-1.411502393
  0
LINE
  5
268
100
AcDbEntity
  8
DRAFT
100
AcDbLine
 62
7
  6
CONTINUOUS
 10
-2.1729113629
 20
-1.7242368511
 11
-2.4223049443
 21
-1.4115023927
  0
LINE
  5
269
100
AcDbEntity
  8
0
100
AcDbLine
 62
7
  6
CONTINUOUS
 10
-1.1024693167
 20
3.12
 11
-1.1024693167
 21
2.92
  0
LINE
  5
26A
100
AcDbEntity
  8
DRAFT
100
AcDbLine
 62
7
  6
CONTINUOUS
 10
-1.1024693167
 20
3.12
 11
-1.1024693167
 21
2.92
  0
LWPOLYLINE
  5
26B
100
AcDbEntity
  8
0
100
AcDbPolyline
 62
7
  6
CONTINUOUS
 90
2
 70
0
 43
0.3499999917
 10
-1.0357143259
 20
37.1499993896
 10
-1.0357143259
 20
38.6499984741
  0
LINE
  5
26C
100
AcDbEntity
  8
0
100
AcDbLine
 62
7
  6
CONTINUOUS
 10
-0.3
 20
-2.7743499786
 11
-0.3
 21
-3.82
  0
LINE
  5
26D
100
AcDbEntity
  8
DRAFT
100
AcDbLine
 62
7
  6
CONTINUOUS
 10
-0.3
 20
-2.7743499786
 11
-0.3
 21
-3.82
  0
LINE
  5
26E
100
AcDbEntity
  8
0
100
AcDbLine
 62
7
  6
CONTINUOUS
 10
0.3
 20
-3.82
 11
0.3
 21
-2.7743499786
  0
LINE
  5
26F
100
AcDbEntity
  8
DRAFT
100
AcDbLine
 62
7
  6
CONTINUOUS
 10
0.3
 20
-3.82
 11
0.3
 21
-2.7743499786
  0
LINE
  5
270
100
AcDbEntity
  8
0
100
AcDbLine
 62
7
  6
CONTINUOUS
 10
-2.5628369541
 20
-1.3956671733
 11
-3.3803639373
 21
-2.0476131831
  0
LINE
  5
271
100
AcDbEntity
  8
DRAFT
100
AcDbLine
 62
7
  6
CONTINUOUS
 10
-2.5628369544
 20
-1.3956671735
 11
-3.3803639373
 21
-2.0476131831
  0
LINE
  5
272
100
AcDbEntity
  8
0
100
AcDbLine
 62
7
  6
CONTINUOUS
 10
-3.0062735649
 20
-2.5167148707
 11
-2.1887465821
 21
-1.8647688611
  0
LINE
  5
273
100
AcDbEntity
  8
DRAFT
100
AcDbLine
 62
7
  6
CONTINUOUS
 10
-3.006273565
 20
-2.5167148707
 11
-2.1887465821
 21
-1.8647688611
  0
LINE
  5
274
100
AcDbEntity
  8
0
100
AcDbLine
 62
7
  6
CONTINUOUS
 10
3.0292967455
 20
0.6481324067
 11
4.048726657
 21
0.8808266768
  0
LINE
  5
275
100
AcDbEntity
  8
DRAFT
100
AcDbLine
 62
7
  6
CONTINUOUS
 10
3.0292967456
 20
0.6481324067
 11
4.0487266569
 21
0.8808266767
  0
LINE
  5
276
100
AcDbEntity
  8
0
100
AcDbLine
 62
7
  6
CONTINUOUS
 10
-4.0487266568
 20
0.8808266767
 11
-3.0292967454
 21
0.6481324067
  0
LINE
  5
277
100
AcDbEntity
  8
DRAFT
100
AcDbLine
 62
7
  6
CONTINUOUS
 10
-4.0487266568
 20
0.8808266767
 11
-3.0292967456
 21
0.6481324067
  0
LINE
  5
278
100
AcDbEntity
  8
0
100
AcDbLine
 62
7
  6
CONTINUOUS
 10
2.1887465821
 20
-1.8647688611
 11
3.0062735647
 21
-2.5167148705
  0
LINE
  5
279
100
AcDbEntity
  8
DRAFT
100
AcDbLine
 62
7
  6
CONTINUOUS
 10
2.1887465821
 20
-1.8647688611
 11
3.0062735651
 21
-2.5167148707
  0
LINE
  5
27A
100
AcDbEntity
  8
0
100
AcDbLine
 62
7
  6
CONTINUOUS
 10
0.5024693168
 20
2.82
 11
0.5024693168
 21
2.0622763033
  0
LINE
  5
27B
100
AcDbEntity
  8
DRAFT
100
AcDbLine
 62
7
  6
CONTINUOUS
 10
0.5024693168
 20
2.82
 11
0.5024693168
 21
2.0622763033
  0
LINE
  5
27C
100
AcDbEntity
  8
0
100
AcDbLine
 62
7
  6
CONTINUOUS
 10
1.1024693168
 20
2.186540372
 11
1.1024693168
 21
3.12
  0
LINE
  5
27D
100
AcDbEntity
  8
DRAFT
100
AcDbLine
 62
7
  6
CONTINUOUS
 10
1.1024693168
 20
2.186540372
 11
1.1024693168
 21
3.12
  0
LINE
  5
27E
100
AcDbEntity
  8
0
100
AcDbLine
 62
250
  6
CONTINUOUS
 10
-22.2845351961
 20
-25.8347065336
 11
-22.2632437251
 21
-25.8134150626
  0
LINE
  5
27F
100
AcDbEntity
  8
0
100
AcDbLine
 62
7
  6
CONTINUOUS
 10
3.9152053457
 20
1.4657814266
 11
2.8957754341
 21
1.2330871565
  0
LINE
  5
280
100
AcDbEntity
  8
DRAFT
100
AcDbLine
 62
7
  6
CONTINUOUS
 10
3.9152053455
 20
1.4657814266
 11
2.8957754342
 21
1.2330871566
  0
LWPOLYLINE
  5
281
100
AcDbEntity
  8
0
100
AcDbPolyline
 62
7
  6
CONTINUOUS
 90
4
 70
0
 43
0.3499999917
 10
29.2428556824
 20
1.9285716248
 10
28.5999998474
 20
1.9285716248
 10
28.5999998474
 20
3.4285707092
 10
31.6000012207
 20
2.5714274597
  0
LINE
  5
282
100
AcDbEntity
  8
0
100
AcDbLine
 62
7
  6
CONTINUOUS
 10
-2.8957754342
 20
1.2330871566
 11
-3.9152053456
 21
1.4657814266
  0
LINE
  5
283
100
AcDbEntity
  8
DRAFT
100
AcDbLine
 62
7
  6
CONTINUOUS
 10
-2.8957754342
 20
1.2330871566
 11
-3.9152053455
 21
1.4657814266
  0
LINE
  5
284
100
AcDbEntity
  8
0
100
AcDbLine
 62
7
  6
CONTINUOUS
 10
-1.4289302313
 20
1.1231338855
 11
-1.8295881073
 21
1.2145877372
  0
LINE
  5
285
100
AcDbEntity
  8
DRAFT
100
AcDbLine
 62
7
  6
CONTINUOUS
 10
-1.4289302313
 20
1.1231338855
 11
-1.8295881072
 21
1.2145877372
  0
LINE
  5
286
100
AcDbEntity
  8
0
100
AcDbLine
 62
7
  6
CONTINUOUS
 10
3.3803639376
 20
-2.0476131833
 11
2.5628369544
 21
-1.3956671735
  0
LINE
  5
287
100
AcDbEntity
  8
DRAFT
100
AcDbLine
 62
7
  6
CONTINUOUS
 10
3.3803639374
 20
-2.0476131831
 11
2.5628369544
 21
-1.3956671735
  0
LINE
  5
288
100
AcDbEntity
  8
0
100
AcDbLine
 62
7
  6
CONTINUOUS
 10
0.5903372827
 20
1.8501442686
 11
1.088048964
 21
1.3524325873
  0
LINE
  5
289
100
AcDbEntity
  8
DRAFT
100
AcDbLine
 62
7
  6
CONTINUOUS
 10
0.5903372824
 20
1.8501442689
 11
1.0880489641
 21
1.3524325871
  0
LINE
  5
28A
100
AcDbEntity
  8
0
100
AcDbLine
 62
7
  6
CONTINUOUS
 10
1.5123130324
 20
1.7766966564
 11
1.1024693168
 21
2.186540372
  0
LINE
  5
28B
100
AcDbEntity
  8
DRAFT
100
AcDbLine
 62
7
  6
CONTINUOUS
 10
1.5123130329
 20
1.7766966559
 11
1.1024693168
 21
2.186540372
  0
LINE
  5
28C
100
AcDbEntity
  8
0
100
AcDbLine
 62
250
  6
CONTINUOUS
 10
-22.2632437251
 20
25.8134150626
 11
-22.2845351961
 21
25.8347065336
  0
LINE
  5
28D
100
AcDbEntity
  8
0
100
AcDbLine
 62
7
  6
CONTINUOUS
 10
2.4223049444
 20
-1.4115023927
 11
2.1729113627
 21
-1.7242368514
  0
LINE
  5
28E
100
AcDbEntity
  8
DRAFT
100
AcDbLine
 62
7
  6
CONTINUOUS
 10
2.4223049444
 20
-1.4115023927
 11
2.1729113629
 21
-1.7242368511
  0
LINE
  5
28F
100
AcDbEntity
  8
0
100
AcDbLine
 62
7
  6
CONTINUOUS
 10
3.1468055751
 20
-2.5008796515
 11
3.3961991566
 21
-2.1881451931
  0
LINE
  5
290
100
AcDbEntity
  8
DRAFT
100
AcDbLine
 62
7
  6
CONTINUOUS
 10
3.1468055751
 20
-2.5008796515
 11
3.3961991566
 21
-2.1881451931
  0
LINE
  5
291
100
AcDbEntity
  8
0
100
AcDbLine
 62
250
  6
CONTINUOUS
 10
-21.7847065336
 20
-26.3345351961
 11
-21.7634150626
 21
-26.3132437251
  0
LINE
  5
292
100
AcDbEntity
  8
0
100
AcDbLine
 62
7
  6
CONTINUOUS
 10
-1.0024693167
 20
2.82
 11
0.5024693168
 21
2.82
  0
LINE
  5
293
100
AcDbEntity
  8
DRAFT
100
AcDbLine
 62
7
  6
CONTINUOUS
 10
-1.0024693167
 20
2.82
 11
0.5024693168
 21
2.82
  0
LINE
  5
294
100
AcDbEntity
  8
0
100
AcDbLine
 62
7
  6
CONTINUOUS
 10
0.8024693168
 20
3.42
 11
-0.8024693167
 21
3.42
  0
LINE
  5
295
100
AcDbEntity
  8
DRAFT
100
AcDbLine
 62
7
  6
CONTINUOUS
 10
0.8024693168
 20
3.42
 11
-0.8024693167
 21
3.42
  0
LINE
  5
296
100
AcDbEntity
  8
0
100
AcDbLine
 62
250
  6
CONTINUOUS
 10
-21.7634150626
 20
26.3132437251
 11
-21.7847065336
 21
26.3345351961
  0
LINE
  5
297
100
AcDbEntity
  8
0
100
AcDbLine
 62
7
  6
CONTINUOUS
 10
2.8205365278
 20
1.1133411465
 11
2.9095507354
 21
0.723371313
  0
LINE
  5
298
100
AcDbEntity
  8
DRAFT
100
AcDbLine
 62
7
  6
CONTINUOUS
 10
2.8205365278
 20
1.1133411464
 11
2.9095507354
 21
0.7233713131
  0
LINE
  5
299
100
AcDbEntity
  8
0
100
AcDbLine
 62
7
  6
CONTINUOUS
 10
4.1239655633
 20
1.0005726868
 11
4.0349513559
 21
1.3905425198
  0
LINE
  5
29A
100
AcDbEntity
  8
DRAFT
100
AcDbLine
 62
7
  6
CONTINUOUS
 10
4.1239655633
 20
1.0005726869
 11
4.0349513558
 21
1.3905425202
  0
LWPOLYLINE
  5
29B
100
AcDbEntity
  8
0
100
AcDbPolyline
 62
7
  6
CONTINUOUS
 90
3
 70
0
 43
0.3499999917
 10
31.3142857361
 20
0.9285722351
 10
31.5285699463
 20
0.857144165
 10
31.8142854309
 20
0.7142848206
  0
LWPOLYLINE
  5
29C
100
AcDbEntity
  8
0
100
AcDbPolyline
 62
7
  6
CONTINUOUS
 90
10
 70
0
 43
0.3499999917
 10
31.1000015259
 20
0.857144165
 10
31.242857666
 20
0.9285722351
 10
31.3142857361
 20
0.9285722351
 10
31.4571418762
 20
0.7857128906
 10
31.4571418762
 20
0.7142848206
 10
31.3857138062
 20
0.6428567505
 10
31.3142857361
 20
0.6428567505
 10
31.1714295959
 20
0.7142848206
 10
31.1000015259
 20
0.7857128906
 10
31.1000015259
 20
0.857144165
  0
LWPOLYLINE
  5
29D
100
AcDbEntity
  8
0
100
AcDbPolyline
 62
7
  6
CONTINUOUS
 90
10
 70
0
 43
0.3499999917
 10
0.9642857552
 20
37.6499990845
 10
1.0357143259
 20
37.5071429443
 10
1.0357143259
 20
37.4357116699
 10
0.8928571844
 20
37.2928555298
 10
0.8214285636
 20
37.2928555298
 10
0.7499999928
 20
37.3642868042
 10
0.7499999928
 20
37.4357116699
 10
0.8214285636
 20
37.5785742187
 10
0.8928571844
 20
37.6499990845
 10
0.9642857552
 20
37.6499990845
  0
LINE
  5
29E
100
AcDbEntity
  8
0
100
AcDbLine
 62
250
  6
CONTINUOUS
 10
21.7634150626
 20
26.3132437251
 11
21.7634150626
 21
-26.3132437251
  0
LINE
  5
29F
100
AcDbEntity
  8
0
100
AcDbLine
 62
250
  6
CONTINUOUS
 10
22.2632437251
 20
25.8134150626
 11
22.2632437251
 21
-25.8134150626
  0
LINE
  5
2A0
100
AcDbEntity
  8
0
100
AcDbLine
 62
7
  6
CONTINUOUS
 10
22.2845351961
 20
-25.8347065336
 11
22.2845351961
 21
25.8347065336
  0
LWPOLYLINE
  5
2A1
100
AcDbEntity
  8
0
100
AcDbPolyline
 62
250
  6
CONTINUOUS
 90
19
 70
0
 10
22.2632437251
 20
25.8134150626
 10
22.2613028584
 20
25.8570801542
 10
22.2555537898
 20
25.9004178512
 10
22.2460387832
 20
25.9430964506
 10
22.2328257512
 20
25.9847978064
 10
22.216015846
 20
26.0251929236
 10
22.1957502639
 20
26.0639475453
 10
22.1722023129
 20
26.1007488462
 10
22.1455467167
 20
26.1353397423
 10
22.115961983
 20
26.1674889091
 10
22.0836391688
 20
26.1969732548
 10
22.0488482743
 20
26.2235322962
 10
22.011922065
 20
26.2469186072
 10
21.9731501007
 20
26.2669671975
 10
21.9328360226
 20
26.2835385297
 10
21.891372723
 20
26.2964997493
 10
21.8491117484
 20
26.3057837699
 10
21.806351528
 20
26.3113667177
 10
21.7634150625
 20
26.313243725
  0
LWPOLYLINE
  5
2A2
100
AcDbEntity
  8
0
100
AcDbPolyline
 62
250
  6
CONTINUOUS
 90
19
 70
0
 10
22.2632437251
 20
-25.8134150626
 10
22.2613076596
 20
-25.8570257965
 10
22.2555739276
 20
-25.9003042898
 10
22.2460861594
 20
-25.9429204231
 10
22.2329165731
 20
-25.9845492487
 10
22.2161655492
 20
-26.0248730571
 10
22.1959609828
 20
-26.0635838484
 10
22.1724552711
 20
-26.1003888057
 10
22.14582902
 20
-26.1350044232
 10
22.1162920631
 20
-26.1671599442
 10
22.0840764125
 20
-26.1966076963
 10
22.0494250716
 20
-26.2231300512
 10
22.0125948979
 20
-26.2465319007
 10
21.9738302846
 20
-26.2666516761
 10
21.9334596155
 20
-26.283312963
 10
21.8918966897
 20
-26.296360325
 10
21.849501534
 20
-26.3057155099
 10
21.8065656984
 20
-26.3113480586
 10
21.7634150626
 20
-26.3132437251
  0
LINE
  5
2A3
100
AcDbEntity
  8
0
100
AcDbLine
 62
250
  6
CONTINUOUS
 10
22.2632437251
 20
25.8134150626
 11
-22.2632437251
 21
25.8134150626
  0
LINE
  5
2A4
100
AcDbEntity
  8
0
100
AcDbLine
 62
250
  6
CONTINUOUS
 10
21.7634150626
 20
26.3132437251
 11
-21.7634150626
 21
26.3132437251
  0
LINE
  5
2A5
100
AcDbEntity
  8
0
100
AcDbLine
 62
7
  6
CONTINUOUS
 10
21.7847065336
 20
26.3345351961
 11
-21.7847065336
 21
26.3345351961
  0
LWPOLYLINE
  5
2A6
100
AcDbEntity
  8
0
100
AcDbPolyline
 62
7
  6
CONTINUOUS
 90
7
 70
0
 43
0.3499999917
 10
31.6000012207
 20
-0.6428581238
 10
31.6000012207
 20
-2.1428572083
 10
29.4571430969
 20
-0.6428581238
 10
29.0285714722
 20
-0.6428581238
 10
28.5999998474
 20
-1.0714297485
 10
28.5999998474
 20
-1.7142855835
 10
29.2428556824
 20
-2.1428572083
  0
LWPOLYLINE
  5
2A7
100
AcDbEntity
  8
0
100
AcDbPolyline
 62
7
  6
CONTINUOUS
 90
8
 70
0
 43
0.3499999917
 10
31.6000012207
 20
-4.2857137299
 10
31.6000012207
 20
-3.4285720825
 10
31.1714295959
 20
-3.0000004578
 10
30.3142863464
 20
-3.0000004578
 10
29.8857147217
 20
-3.4285720825
 10
29.8857147217
 20
-4.2857137299
 10
28.5999998474
 20
-4.2857137299
 10
28.5999998474
 20
-3.0000004578
  0
LWPOLYLINE
  5
2A8
100
AcDbEntity
  8
0
100
AcDbPolyline
 62
7
  6
CONTINUOUS
 90
3
 70
0
 43
0.3499999917
 10
-0.5357142806
 20
37.7928552246
 10
-2.0357142162
 20
37.7928552246
 10
-1.3928571796
 20
40.1499975586
  0
LWPOLYLINE
  5
2A9
100
AcDbEntity
  8
0
100
AcDbPolyline
 62
7
  6
CONTINUOUS
 90
3
 70
0
 43
0.3499999917
 10
-2.8928570652
 20
37.7928552246
 10
-4.392857151
 20
37.7928552246
 10
-3.7500001144
 20
40.1499975586
  0
LWPOLYLINE
  5
2AA
100
AcDbEntity
  8
0
100
AcDbPolyline
 62
7
  6
CONTINUOUS
 90
5
 70
0
 43
0.3499999917
 10
-47.2236186218
 20
45.4419680786
 10
-46.8664782715
 20
45.6562554932
 10
-46.8664782715
 20
46.2991113281
 10
-47.2236186218
 20
46.7276861572
 10
-48.0807618713
 20
46.7276861572
  0
LINE
  5
2AB
100
AcDbEntity
  8
0
100
AcDbLine
 62
7
  6
CONTINUOUS
 10
-42.7737312373
 20
-26.3132437251
 11
-41.9606427632
 21
-26.3345351961
  0
LINE
  5
2AC
100
AcDbEntity
  8
RACCORDO
100
AcDbLine
 62
7
  6
CONTINUOUS
 10
-41.2606427632
 20
-26.2387579355
 11
-41.9606427632
 21
-26.3
  0
LINE
  5
2AD
100
AcDbEntity
  8
RACCORDO
100
AcDbLine
 62
250
  6
CONTINUOUS
 10
-41.2606427632
 20
-25.7880695924
 11
-41.9606427632
 21
-25.8493116569
  0
LINE
  5
2AE
100
AcDbEntity
  8
0
100
AcDbLine
 62
250
  6
CONTINUOUS
 10
-42.7737312373
 20
-25.8134150626
 11
-43.2606427632
 21
-25.8134150626
  0
LINE
  5
2AF
100
AcDbEntity
  8
0
100
AcDbLine
 62
250
  6
CONTINUOUS
 10
-42.7737312373
 20
-25.8134150626
 11
-41.9606427632
 21
-25.8347065336
  0
LWPOLYLINE
  5
2B0
100
AcDbEntity
  8
0
100
AcDbPolyline
 62
7
  6
CONTINUOUS
 90
3
 70
0
 43
0.3499999917
 10
-49.0807644653
 20
44.0134002686
 10
-49.1521925354
 20
43.799112854
 10
-49.2950486755
 20
43.5134005737
  0
LINE
  5
2B1
100
AcDbEntity
  8
DRAFT
100
AcDbLine
 62
7
  6
CONTINUOUS
 10
-41.9606427632
 20
-15.75
 11
-41.2606427632
 21
-15.75
  0
LINE
  5
2B2
100
AcDbEntity
  8
DRAFT
100
AcDbLine
 62
7
  6
CONTINUOUS
 10
-40.1606427632
 20
-14.8954050818
 11
-41.2606427632
 21
-15.05
  0
LINE
  5
2B3
100
AcDbEntity
  8
RACCORDO
100
AcDbLine
 62
7
  6
CONTINUOUS
 10
-38.3397083807
 20
-14.6969203156
 11
-38.3719676286
 21
-14.6986109511
  0
LINE
  5
2B4
100
AcDbEntity
  8
DRAFT
100
AcDbLine
 62
7
  6
CONTINUOUS
 10
-38.3719676286
 20
-14.6986109511
 11
-39.1106427632
 21
-14.7373232745
  0
LINE
  5
2B5
100
AcDbEntity
  8
RACCORDO
100
AcDbLine
 62
7
  6
CONTINUOUS
 10
-39.1106427632
 20
-14.7373232745
 11
-41.2606427632
 21
-14.85
  0
LINE
  5
2B6
100
AcDbEntity
  8
RACCORDO
100
AcDbLine
 62
250
  6
CONTINUOUS
 10
-41.2606427632
 20
-15.55
 11
-41.9606427632
 21
-15.55
  0
LINE
  5
2B7
100
AcDbEntity
  8
RACCORDO
100
AcDbLine
 62
250
  6
CONTINUOUS
 10
-41.2606427632
 20
-10.95
 11
-41.9606427632
 21
-10.95
  0
LINE
  5
2B8
100
AcDbEntity
  8
DRAFT
100
AcDbLine
 62
7
  6
CONTINUOUS
 10
-41.9606427632
 20
-10.75
 11
-41.2606427632
 21
-10.75
  0
LINE
  5
2B9
100
AcDbEntity
  8
RACCORDO
100
AcDbLine
 62
7
  6
CONTINUOUS
 10
-38.3397083807
 20
-11.8030796844
 11
-38.3719676286
 21
-11.8013890489
  0
LINE
  5
2BA
100
AcDbEntity
  8
DRAFT
100
AcDbLine
 62
7
  6
CONTINUOUS
 10
-38.3719676286
 20
-11.8013890489
 11
-39.1106427632
 21
-11.7626767255
  0
LINE
  5
2BB
100
AcDbEntity
  8
RACCORDO
100
AcDbLine
 62
7
  6
CONTINUOUS
 10
-39.1106427632
 20
-11.7626767255
 11
-41.2606427632
 21
-11.65
  0
LINE
  5
2BC
100
AcDbEntity
  8
DRAFT
100
AcDbLine
 62
7
  6
CONTINUOUS
 10
-40.1606427632
 20
-11.6045949182
 11
-41.2606427632
 21
-11.45
  0
LINE
  5
2BD
100
AcDbEntity
  8
0
100
AcDbLine
 62
250
  6
CONTINUOUS
 10
-42.7748238246
 20
25.8570801542
 11
-42.7766765367
 21
25.9430964506
  0
LINE
  5
2BE
100
AcDbEntity
  8
0
100
AcDbLine
 62
250
  6
CONTINUOUS
 10
-42.7766765367
 20
25.9430964506
 11
-42.7780401302
 21
26.0251929236
  0
LINE
  5
2BF
100
AcDbEntity
  8
0
100
AcDbLine
 62
250
  6
CONTINUOUS
 10
-42.7780401302
 20
26.0251929236
 11
-42.778871334
 21
26.1007488462
  0
LWPOLYLINE
  5
2C0
100
AcDbEntity
  8
0
100
AcDbPolyline
 62
250
  6
CONTINUOUS
 90
10
 70
0
 10
-42.7791463083
 20
-26.1671599442
 10
-42.7790738284
 20
-26.1966076963
 10
-42.7788609634
 20
-26.2231300512
 10
-42.7785093303
 20
-26.2465319007
 10
-42.7780210981
 20
-26.2666516761
 10
-42.777400246
 20
-26.283312963
 10
-42.7766535397
 20
-26.296360325
 10
-42.7757883576
 20
-26.3057155099
 10
-42.7748115367
 20
-26.3113480586
 10
-42.7737312373
 20
-26.3132437251
  0
LWPOLYLINE
  5
2C1
100
AcDbEntity
  8
0
100
AcDbPolyline
 62
250
  6
CONTINUOUS
 90
11
 70
0
 10
-42.778871334
 20
26.1007488462
 10
-42.7791462791
 20
26.1674889091
 10
-42.7790719512
 20
26.1969732548
 10
-42.7788563926
 20
26.2235322962
 10
-42.7785018379
 20
26.2469186072
 10
-42.778011549
 20
26.2669671975
 10
-42.7773898232
 20
26.2835385297
 10
-42.7766434701
 20
26.2964997493
 10
-42.7757799387
 20
26.3057837699
 10
-42.7748064182
 20
26.3113667177
 10
-42.7737312394
 20
26.313243725
  0
LINE
  5
2C2
100
AcDbEntity
  8
0
100
AcDbLine
 62
7
  6
CONTINUOUS
 10
-43.2606427632
 20
25.8134150626
 11
-43.2606427632
 21
-25.8134150626
  0
LINE
  5
2C3
100
AcDbEntity
  8
0
100
AcDbLine
 62
250
  6
CONTINUOUS
 10
-42.7737312373
 20
25.8134150626
 11
-42.7737312373
 21
-25.8134150626
  0
LINE
  5
2C4
100
AcDbEntity
  8
0
100
AcDbLine
 62
250
  6
CONTINUOUS
 10
-42.7788685299
 20
-26.1003888057
 11
-42.7791463083
 21
-26.1671599442
  0
LINE
  5
2C5
100
AcDbEntity
  8
0
100
AcDbLine
 62
250
  6
CONTINUOUS
 10
-42.7780356744
 20
-26.0248730571
 11
-42.7788685299
 21
-26.1003888057
  0
LINE
  5
2C6
100
AcDbEntity
  8
0
100
AcDbLine
 62
250
  6
CONTINUOUS
 10
-42.7766731679
 20
-25.9429204231
 11
-42.7780356744
 21
-26.0248730571
  0
LINE
  5
2C7
100
AcDbEntity
  8
DRAFT
100
AcDbLine
 62
7
  6
CONTINUOUS
 10
-41.2606427632
 20
-2.0
 11
-39.2606427632
 21
-1.6473460386
  0
LINE
  5
2C8
100
AcDbEntity
  8
0
100
AcDbLine
 62
250
  6
CONTINUOUS
 10
-42.7737312373
 20
25.8134150626
 11
-42.7748238246
 21
25.8570801542
  0
LINE
  5
2C9
100
AcDbEntity
  8
RACCORDO
100
AcDbLine
 62
7
  6
CONTINUOUS
 10
-41.9606427632
 20
-26.3345351961
 11
-41.9606427632
 21
-25.8347065336
  0
LINE
  5
2CA
100
AcDbEntity
  8
0
100
AcDbLine
 62
7
  6
CONTINUOUS
 10
-41.9606427632
 20
-25.8347065336
 11
-41.9606427632
 21
25.8347065336
  0
LINE
  5
2CB
100
AcDbEntity
  8
RACCORDO
100
AcDbLine
 62
7
  6
CONTINUOUS
 10
-41.9606427632
 20
25.8347065336
 11
-41.9606427632
 21
26.3345351961
  0
LINE
  5
2CC
100
AcDbEntity
  8
RACCORDO
100
AcDbLine
 62
7
  6
CONTINUOUS
 10
-41.2606427632
 20
-26.2387579355
 11
-41.2606427632
 21
-10.75
  0
LINE
  5
2CD
100
AcDbEntity
  8
DRAFT
100
AcDbLine
 62
7
  6
CONTINUOUS
 10
-41.2606427632
 20
-10.75
 11
-41.2606427632
 21
-2.0
  0
LINE
  5
2CE
100
AcDbEntity
  8
DRAFT
100
AcDbLine
 62
7
  6
CONTINUOUS
 10
-41.2606427632
 20
2.0
 11
-41.2606427632
 21
10.75
  0
LINE
  5
2CF
100
AcDbEntity
  8
RACCORDO
100
AcDbLine
 62
7
  6
CONTINUOUS
 10
-41.2606427632
 20
10.75
 11
-41.2606427632
 21
26.2387579355
  0
LINE
  5
2D0
100
AcDbEntity
  8
RACCORDO
100
AcDbLine
 62
250
  6
CONTINUOUS
 10
-40.9932036447
 20
14.8359841097
 11
-40.9932036447
 21
11.6640158903
  0
LINE
  5
2D1
100
AcDbEntity
  8
RACCORDO
100
AcDbLine
 62
250
  6
CONTINUOUS
 10
-40.9932036447
 20
-11.6640158903
 11
-40.9932036447
 21
-14.8359841097
  0
LWPOLYLINE
  5
2D2
100
AcDbEntity
  8
0
100
AcDbPolyline
 62
250
  6
CONTINUOUS
 90
3
 70
0
 10
-42.7737312373
 20
-25.8134150626
 10
-42.7748225269
 20
-25.8570257965
 10
-42.7766731679
 20
-25.9429204231
  0
LINE
  5
2D3
100
AcDbEntity
  8
DRAFT
100
AcDbLine
 62
7
  6
CONTINUOUS
 10
-40.1606427632
 20
14.8954050818
 11
-40.1606427632
 21
14.7923514428
  0
LINE
  5
2D4
100
AcDbEntity
  8
DRAFT
100
AcDbLine
 62
7
  6
CONTINUOUS
 10
-40.1606427632
 20
11.7076485572
 11
-40.1606427632
 21
11.6045949182
  0
LINE
  5
2D5
100
AcDbEntity
  8
DRAFT
100
AcDbLine
 62
7
  6
CONTINUOUS
 10
-40.1606427632
 20
-11.6045949182
 11
-40.1606427632
 21
-11.7076485572
  0
LINE
  5
2D6
100
AcDbEntity
  8
DRAFT
100
AcDbLine
 62
7
  6
CONTINUOUS
 10
-40.1606427632
 20
-14.7923514428
 11
-40.1606427632
 21
-14.8954050818
  0
LINE
  5
2D7
100
AcDbEntity
  8
DRAFT
100
AcDbLine
 62
7
  6
CONTINUOUS
 10
-39.2606427632
 20
1.6473460386
 11
-39.2606427632
 21
-1.6473460386
  0
LINE
  5
2D8
100
AcDbEntity
  8
DRAFT
100
AcDbLine
 62
7
  6
CONTINUOUS
 10
-39.1106427632
 20
14.7373232745
 11
-39.1106427632
 21
11.7626767255
  0
LINE
  5
2D9
100
AcDbEntity
  8
DRAFT
100
AcDbLine
 62
7
  6
CONTINUOUS
 10
-39.1106427632
 20
-14.7373232745
 11
-39.1106427632
 21
-11.7626767255
  0
LINE
  5
2DA
100
AcDbEntity
  8
DRAFT
100
AcDbLine
 62
7
  6
CONTINUOUS
 10
-38.8219676286
 20
14.7221944518
 11
-38.8219676286
 21
11.7778055482
  0
LINE
  5
2DB
100
AcDbEntity
  8
DRAFT
100
AcDbLine
 62
7
  6
CONTINUOUS
 10
-38.8219676286
 20
-14.7221944518
 11
-38.8219676286
 21
-11.7778055482
  0
LINE
  5
2DC
100
AcDbEntity
  8
DRAFT
100
AcDbLine
 62
7
  6
CONTINUOUS
 10
-41.2606427632
 20
2.0
 11
-39.2606427632
 21
1.6473460386
  0
LINE
  5
2DD
100
AcDbEntity
  8
DRAFT
100
AcDbLine
 62
7
  6
CONTINUOUS
 10
-38.3719676286
 20
14.6986109511
 11
-38.3719676286
 21
11.8013890489
  0
LINE
  5
2DE
100
AcDbEntity
  8
DRAFT
100
AcDbLine
 62
7
  6
CONTINUOUS
 10
-38.3719676286
 20
-14.6986109511
 11
-38.3719676286
 21
-11.8013890489
  0
LINE
  5
2DF
100
AcDbEntity
  8
RACCORDO
100
AcDbLine
 62
7
  6
CONTINUOUS
 10
-37.9606427632
 20
14.2974685017
 11
-37.9606427632
 21
12.2025314983
  0
LINE
  5
2E0
100
AcDbEntity
  8
RACCORDO
100
AcDbLine
 62
7
  6
CONTINUOUS
 10
-37.9606427632
 20
-14.2974685017
 11
-37.9606427632
 21
-12.2025314983
  0
LINE
  5
2E1
100
AcDbEntity
  8
DRAFT
100
AcDbLine
 62
7
  6
CONTINUOUS
 10
-41.9606427632
 20
10.75
 11
-41.2606427632
 21
10.75
  0
LINE
  5
2E2
100
AcDbEntity
  8
DRAFT
100
AcDbLine
 62
7
  6
CONTINUOUS
 10
-40.1606427632
 20
11.6045949182
 11
-41.2606427632
 21
11.45
  0
LINE
  5
2E3
100
AcDbEntity
  8
RACCORDO
100
AcDbLine
 62
7
  6
CONTINUOUS
 10
-38.3397083807
 20
11.8030796844
 11
-38.3719676286
 21
11.8013890489
  0
LINE
  5
2E4
100
AcDbEntity
  8
DRAFT
100
AcDbLine
 62
7
  6
CONTINUOUS
 10
-38.3719676286
 20
11.8013890489
 11
-39.1106427632
 21
11.7626767255
  0
LINE
  5
2E5
100
AcDbEntity
  8
RACCORDO
100
AcDbLine
 62
7
  6
CONTINUOUS
 10
-39.1106427632
 20
11.7626767255
 11
-41.2606427632
 21
11.65
  0
LINE
  5
2E6
100
AcDbEntity
  8
RACCORDO
100
AcDbLine
 62
250
  6
CONTINUOUS
 10
-41.2606427632
 20
10.95
 11
-41.9606427632
 21
10.95
  0
LWPOLYLINE
  5
2E7
100
AcDbEntity
  8
0
100
AcDbPolyline
 62
7
  6
CONTINUOUS
 90
10
 70
0
 43
0.3499999917
 10
-49.1521925354
 20
44.2276812744
 10
-49.0807644653
 20
44.0848251343
 10
-49.0807644653
 20
44.0134002686
 10
-49.2236206055
 20
43.8705441284
 10
-49.2950486755
 20
43.8705441284
 10
-49.3664767456
 20
43.9419689941
 10
-49.3664767456
 20
44.0134002686
 10
-49.2950486755
 20
44.1562564087
 10
-49.2236206055
 20
44.2276812744
 10
-49.1521925354
 20
44.2276812744
  0
LINE
  5
2E8
100
AcDbEntity
  8
RACCORDO
100
AcDbLine
 62
250
  6
CONTINUOUS
 10
-41.2606427632
 20
15.55
 11
-41.9606427632
 21
15.55
  0
LINE
  5
2E9
100
AcDbEntity
  8
DRAFT
100
AcDbLine
 62
7
  6
CONTINUOUS
 10
-41.9606427632
 20
15.75
 11
-41.2606427632
 21
15.75
  0
LINE
  5
2EA
100
AcDbEntity
  8
RACCORDO
100
AcDbLine
 62
7
  6
CONTINUOUS
 10
-38.3397083807
 20
14.6969203156
 11
-38.3719676286
 21
14.6986109511
  0
LINE
  5
2EB
100
AcDbEntity
  8
DRAFT
100
AcDbLine
 62
7
  6
CONTINUOUS
 10
-38.3719676286
 20
14.6986109511
 11
-39.1106427632
 21
14.7373232745
  0
LINE
  5
2EC
100
AcDbEntity
  8
RACCORDO
100
AcDbLine
 62
7
  6
CONTINUOUS
 10
-39.1106427632
 20
14.7373232745
 11
-41.2606427632
 21
14.85
  0
LINE
  5
2ED
100
AcDbEntity
  8
DRAFT
100
AcDbLine
 62
7
  6
CONTINUOUS
 10
-40.1606427632
 20
14.8954050818
 11
-41.2606427632
 21
15.05
  0
LINE
  5
2EE
100
AcDbEntity
  8
0
100
AcDbLine
 62
250
  6
CONTINUOUS
 10
-41.9606427632
 20
25.8347065336
 11
-42.7737312373
 21
25.8134150626
  0
LINE
  5
2EF
100
AcDbEntity
  8
0
100
AcDbLine
 62
7
  6
CONTINUOUS
 10
-41.9606427632
 20
26.3345351961
 11
-42.7737312373
 21
26.3132437251
  0
LINE
  5
2F0
100
AcDbEntity
  8
0
100
AcDbLine
 62
250
  6
CONTINUOUS
 10
-42.7737312373
 20
25.8134150626
 11
-43.2606427632
 21
25.8134150626
  0
LWPOLYLINE
  5
2F1
100
AcDbEntity
  8
0
100
AcDbPolyline
 62
7
  6
CONTINUOUS
 90
7
 70
0
 43
0.3499999917
 10
-48.7049427795
 20
37.4034759521
 10
-50.2049450684
 20
37.4034759521
 10
-48.7049427795
 20
39.5463308716
 10
-48.7049427795
 20
39.974899292
 10
-49.1335144043
 20
40.4034741211
 10
-49.7763734436
 20
40.4034741211
 10
-50.2049450684
 20
39.7606182861
  0
LWPOLYLINE
  5
2F2
100
AcDbEntity
  8
0
100
AcDbPolyline
 62
7
  6
CONTINUOUS
 90
8
 70
0
 43
0.3499999917
 10
-51.9379064941
 20
43.7276815796
 10
-51.0807632446
 20
43.7276815796
 10
-50.6521916199
 20
44.1562564087
 10
-50.6521916199
 20
45.0133996582
 10
-51.0807632446
 20
45.4419680786
 10
-51.9379064941
 20
45.4419680786
 10
-51.9379064941
 20
46.7276861572
 10
-50.6521916199
 20
46.7276861572
  0
LWPOLYLINE
  5
2F3
100
AcDbEntity
  8
0
100
AcDbPolyline
 62
7
  6
CONTINUOUS
 90
6
 70
0
 43
0.3499999917
 10
-48.0807618713
 20
43.7276815796
 10
-47.0093344116
 20
43.7276815796
 10
-46.7950502014
 20
43.9419689941
 10
-46.7950502014
 20
45.0133996582
 10
-47.2236186218
 20
45.4419680786
 10
-47.6521902466
 20
45.4419680786
  0
LINE
  5
2F4
100
AcDbEntity
  8
RACCORDO
100
AcDbLine
 62
250
  6
CONTINUOUS
 10
-41.2606427632
 20
25.7880695924
 11
-41.9606427632
 21
25.8493116569
  0
LINE
  5
2F5
100
AcDbEntity
  8
RACCORDO
100
AcDbLine
 62
7
  6
CONTINUOUS
 10
-41.2606427632
 20
26.2387579355
 11
-41.9606427632
 21
26.3
  0
ARC
  5
2F6
100
AcDbEntity
  8
0
100
AcDbCircle
 62
7
  6
CONTINUOUS
 10
-3.0686219604
 20
-2.4385312561
 40
0.1
100
AcDbArc
 50
218.5709999921
 51
308.5710000611
  0
ARC
  5
2F7
100
AcDbEntity
  8
0
100
AcDbCircle
 62
7
  6
CONTINUOUS
 10
-2.2510949775
 20
-1.7865852465
 40
0.1
100
AcDbArc
 50
308.5709999903
 51
38.571000054
  0
ARC
  5
2F8
100
AcDbEntity
  8
0
100
AcDbCircle
 62
7
  6
CONTINUOUS
 10
-2.500488559
 20
-1.4738507881
 40
0.1
100
AcDbArc
 50
38.5709997581
 51
128.5709998316
  0
ARC
  5
2F9
100
AcDbEntity
  8
0
100
AcDbCircle
 62
7
  6
CONTINUOUS
 10
-3.3180155419
 20
-2.1257967977
 40
0.1
100
AcDbArc
 50
128.570999986
 51
218.5710000173
  0
ARC
  5
2FA
100
AcDbEntity
  8
0
100
AcDbCircle
 62
7
  6
CONTINUOUS
 10
-0.2
 20
-3.82
 40
0.1
100
AcDbArc
 50
180.0
 51
270.0
  0
ARC
  5
2FB
100
AcDbEntity
  8
0
100
AcDbCircle
 62
7
  6
CONTINUOUS
 10
-0.2
 20
-2.7743499786
 40
0.1
100
AcDbArc
 50
90.0
 51
180.0
  0
ARC
  5
2FC
100
AcDbEntity
  8
DRAFT
100
AcDbCircle
 62
7
  6
CONTINUOUS
 10
-0.2
 20
-2.7743499786
 40
0.1
100
AcDbArc
 50
90.0
 51
180.0
  0
ARC
  5
2FD
100
AcDbEntity
  8
DRAFT
100
AcDbCircle
 62
7
  6
CONTINUOUS
 10
-0.2
 20
-3.82
 40
0.1
100
AcDbArc
 50
180.0
 51
270.0
  0
ARC
  5
2FE
100
AcDbEntity
  8
DRAFT
100
AcDbCircle
 62
7
  6
CONTINUOUS
 10
-2.2510949775
 20
-1.7865852465
 40
0.1
100
AcDbArc
 50
308.5710000028
 51
38.5709999958
  0
ARC
  5
2FF
100
AcDbEntity
  8
DRAFT
100
AcDbCircle
 62
7
  6
CONTINUOUS
 10
-2.500488559
 20
-1.4738507881
 40
0.1
100
AcDbArc
 50
38.5709999958
 51
128.5709999986
  0
ARC
  5
300
100
AcDbEntity
  8
DRAFT
100
AcDbCircle
 62
7
  6
CONTINUOUS
 10
-3.3180155419
 20
-2.1257967977
 40
0.1
100
AcDbArc
 50
128.5709999986
 51
218.5710000047
  0
ARC
  5
301
100
AcDbEntity
  8
DRAFT
100
AcDbCircle
 62
7
  6
CONTINUOUS
 10
-3.0686219604
 20
-2.4385312561
 40
0.1
100
AcDbArc
 50
218.5710000047
 51
308.5710000028
  0
ARC
  5
302
100
AcDbEntity
  8
0
100
AcDbCircle
 62
7
  6
CONTINUOUS
 10
-0.8024693167
 20
3.12
 40
0.3
100
AcDbArc
 50
90.0
 51
180.0
  0
ARC
  5
303
100
AcDbEntity
  8
DRAFT
100
AcDbCircle
 62
7
  6
CONTINUOUS
 10
-0.8024693167
 20
3.12
 40
0.3
100
AcDbArc
 50
90.0
 51
180.0
  0
ARC
  5
304
100
AcDbEntity
  8
0
100
AcDbCircle
 62
7
  6
CONTINUOUS
 10
-4.0264731049
 20
0.978319135
 40
0.1
100
AcDbArc
 50
167.1419997456
 51
257.1419999661
  0
ARC
  5
305
100
AcDbEntity
  8
0
100
AcDbCircle
 62
7
  6
CONTINUOUS
 10
-3.0070431937
 20
0.745624865
 40
0.1
100
AcDbArc
 50
257.1420001009
 51
347.1420002503
  0
ARC
  5
306
100
AcDbEntity
  8
0
100
AcDbCircle
 62
7
  6
CONTINUOUS
 10
-2.9180289861
 20
1.1355946983
 40
0.1
100
AcDbArc
 50
347.1420000403
 51
77.141999966
  0
ARC
  5
307
100
AcDbEntity
  8
0
100
AcDbCircle
 62
7
  6
CONTINUOUS
 10
-3.9374588974
 20
1.3682889683
 40
0.1
100
AcDbArc
 50
77.1420000368
 51
167.1419999555
  0
ARC
  5
308
100
AcDbEntity
  8
0
100
AcDbCircle
 62
7
  6
CONTINUOUS
 10
-1.0024693167
 20
2.92
 40
0.1
100
AcDbArc
 50
180.0
 51
270.0
  0
ARC
  5
309
100
AcDbEntity
  8
0
100
AcDbCircle
 62
7
  6
CONTINUOUS
 10
-1.4511837832
 20
1.0256414272
 40
0.1
100
AcDbArc
 50
332.3195246005
 51
77.1419999746
  0
ARC
  5
30A
100
AcDbEntity
  8
0
100
AcDbCircle
 62
7
  6
CONTINUOUS
 10
-1.8518416591
 20
1.1170952789
 40
0.1
100
AcDbArc
 50
77.1420000353
 51
155.2754975887
  0
ARC
  5
30B
100
AcDbEntity
  8
DRAFT
100
AcDbCircle
 62
7
  6
CONTINUOUS
 10
-1.0024693167
 20
2.92
 40
0.1
100
AcDbArc
 50
180.0
 51
270.0
  0
ARC
  5
30C
100
AcDbEntity
  8
DRAFT
100
AcDbCircle
 62
7
  6
CONTINUOUS
 10
-1.4511837832
 20
1.0256414272
 40
0.1
100
AcDbArc
 50
332.3195246783
 51
77.1420000048
  0
ARC
  5
30D
100
AcDbEntity
  8
DRAFT
100
AcDbCircle
 62
7
  6
CONTINUOUS
 10
-1.8518416591
 20
1.1170952789
 40
0.1
100
AcDbArc
 50
77.1420000048
 51
155.2754976614
  0
ARC
  5
30E
100
AcDbEntity
  8
DRAFT
100
AcDbCircle
 62
7
  6
CONTINUOUS
 10
-3.0070431937
 20
0.745624865
 40
0.1
100
AcDbArc
 50
257.1420000014
 51
347.1420000049
  0
ARC
  5
30F
100
AcDbEntity
  8
DRAFT
100
AcDbCircle
 62
7
  6
CONTINUOUS
 10
-2.9180289861
 20
1.1355946983
 40
0.1
100
AcDbArc
 50
347.1420000049
 51
77.1420000014
  0
ARC
  5
310
100
AcDbEntity
  8
DRAFT
100
AcDbCircle
 62
7
  6
CONTINUOUS
 10
-3.9374588974
 20
1.3682889683
 40
0.1
100
AcDbArc
 50
77.1420000014
 51
167.1419999909
  0
ARC
  5
311
100
AcDbEntity
  8
DRAFT
100
AcDbCircle
 62
7
  6
CONTINUOUS
 10
-4.0264731049
 20
0.978319135
 40
0.1
100
AcDbArc
 50
167.1419999909
 51
257.1420000014
  0
ARC
  5
312
100
AcDbEntity
  8
0
100
AcDbCircle
 62
7
  6
CONTINUOUS
 10
0.2
 20
-3.82
 40
0.1
100
AcDbArc
 50
270.0
 51
360.0
  0
ARC
  5
313
100
AcDbEntity
  8
0
100
AcDbCircle
 62
7
  6
CONTINUOUS
 10
0.2
 20
-2.7743499786
 40
0.1
100
AcDbArc
 50
0.0
 51
90.0
  0
ARC
  5
314
100
AcDbEntity
  8
0
100
AcDbCircle
 62
7
  6
CONTINUOUS
 10
3.0686219605
 20
-2.4385312561
 40
0.1
100
AcDbArc
 50
231.4289997594
 51
321.4290000079
  0
ARC
  5
315
100
AcDbEntity
  8
0
100
AcDbCircle
 62
7
  6
CONTINUOUS
 10
3.318015542
 20
-2.1257967977
 40
0.1
100
AcDbArc
 50
321.4289999827
 51
51.428999831
  0
ARC
  5
316
100
AcDbEntity
  8
0
100
AcDbCircle
 62
7
  6
CONTINUOUS
 10
2.500488559
 20
-1.4738507881
 40
0.1
100
AcDbArc
 50
51.4289999855
 51
141.4290000167
  0
ARC
  5
317
100
AcDbEntity
  8
0
100
AcDbCircle
 62
7
  6
CONTINUOUS
 10
2.2510949775
 20
-1.7865852465
 40
0.1
100
AcDbArc
 50
141.4290001712
 51
231.4290000098
  0
ARC
  5
318
100
AcDbEntity
  8
DRAFT
100
AcDbCircle
 62
7
  6
CONTINUOUS
 10
2.500488559
 20
-1.4738507881
 40
0.1
100
AcDbArc
 50
51.428999998
 51
141.4290000042
  0
ARC
  5
319
100
AcDbEntity
  8
DRAFT
100
AcDbCircle
 62
7
  6
CONTINUOUS
 10
2.2510949775
 20
-1.7865852465
 40
0.1
100
AcDbArc
 50
141.4290000042
 51
231.4289999972
  0
ARC
  5
31A
100
AcDbEntity
  8
DRAFT
100
AcDbCircle
 62
7
  6
CONTINUOUS
 10
3.0686219605
 20
-2.4385312561
 40
0.1
100
AcDbArc
 50
231.4289999972
 51
321.4289999953
  0
ARC
  5
31B
100
AcDbEntity
  8
DRAFT
100
AcDbCircle
 62
7
  6
CONTINUOUS
 10
3.318015542
 20
-2.1257967977
 40
0.1
100
AcDbArc
 50
321.4289999953
 51
51.428999998
  0
ARC
  5
31C
100
AcDbEntity
  8
DRAFT
100
AcDbCircle
 62
7
  6
CONTINUOUS
 10
0.2
 20
-2.7743499786
 40
0.1
100
AcDbArc
 50
0.0
 51
90.0
  0
ARC
  5
31D
100
AcDbEntity
  8
DRAFT
100
AcDbCircle
 62
7
  6
CONTINUOUS
 10
0.2
 20
-3.82
 40
0.1
100
AcDbArc
 50
270.0
 51
360.0
  0
ARC
  5
31E
100
AcDbEntity
  8
0
100
AcDbCircle
 62
7
  6
CONTINUOUS
 10
-0.0
 20
0.264383623
 40
2.1387336016
100
AcDbArc
 50
155.275497658
 51
45.0000000188
  0
ARC
  5
31F
100
AcDbEntity
  8
DRAFT
100
AcDbCircle
 62
7
  6
CONTINUOUS
 10
-0.0
 20
0.264383623
 40
2.1387336016
100
AcDbArc
 50
155.2754976614
 51
45.0
  0
ARC
  5
320
100
AcDbEntity
  8
0
100
AcDbCircle
 62
7
  6
CONTINUOUS
 10
-0.0
 20
0.264383623
 40
1.5387336016
100
AcDbArc
 50
152.3195246834
 51
45.0000000073
  0
ARC
  5
321
100
AcDbEntity
  8
DRAFT
100
AcDbCircle
 62
7
  6
CONTINUOUS
 10
-0.0
 20
0.264383623
 40
1.5387336016
100
AcDbArc
 50
152.3195246783
 51
45.0
  0
ARC
  5
322
100
AcDbEntity
  8
0
100
AcDbCircle
 62
7
  6
CONTINUOUS
 10
0.8024693168
 20
2.0622763033
 40
0.3
100
AcDbArc
 50
180.0
 51
225.0000000903
  0
ARC
  5
323
100
AcDbEntity
  8
0
100
AcDbCircle
 62
7
  6
CONTINUOUS
 10
0.8024693168
 20
3.12
 40
0.3
100
AcDbArc
 50
0.0
 51
90.0
  0
ARC
  5
324
100
AcDbEntity
  8
DRAFT
100
AcDbCircle
 62
7
  6
CONTINUOUS
 10
0.8024693168
 20
2.0622763033
 40
0.3
100
AcDbArc
 50
180.0
 51
225.0
  0
ARC
  5
325
100
AcDbEntity
  8
DRAFT
100
AcDbCircle
 62
7
  6
CONTINUOUS
 10
0.8024693168
 20
3.12
 40
0.3
100
AcDbArc
 50
0.0
 51
90.0
  0
ARC
  5
326
100
AcDbEntity
  8
0
100
AcDbCircle
 62
7
  6
CONTINUOUS
 10
3.0070431937
 20
0.745624865
 40
0.1
100
AcDbArc
 50
192.8580000445
 51
282.8579999644
  0
ARC
  5
327
100
AcDbEntity
  8
0
100
AcDbCircle
 62
7
  6
CONTINUOUS
 10
4.026473105
 20
0.978319135
 40
0.1
100
AcDbArc
 50
282.8580000993
 51
12.8579999597
  0
ARC
  5
328
100
AcDbEntity
  8
0
100
AcDbCircle
 62
7
  6
CONTINUOUS
 10
3.9374588974
 20
1.3682889683
 40
0.1
100
AcDbArc
 50
12.8579997498
 51
102.8579998991
  0
ARC
  5
329
100
AcDbEntity
  8
0
100
AcDbCircle
 62
7
  6
CONTINUOUS
 10
2.9180289861
 20
1.1355946983
 40
0.1
100
AcDbArc
 50
102.858000098
 51
192.8579999737
  0
ARC
  5
32A
100
AcDbEntity
  8
DRAFT
100
AcDbCircle
 62
7
  6
CONTINUOUS
 10
2.9180289861
 20
1.1355946983
 40
0.1
100
AcDbArc
 50
102.8579999986
 51
192.8580000091
  0
ARC
  5
32B
100
AcDbEntity
  8
DRAFT
100
AcDbCircle
 62
7
  6
CONTINUOUS
 10
3.0070431937
 20
0.745624865
 40
0.1
100
AcDbArc
 50
192.8580000091
 51
282.8579999998
  0
ARC
  5
32C
100
AcDbEntity
  8
DRAFT
100
AcDbCircle
 62
7
  6
CONTINUOUS
 10
4.026473105
 20
0.978319135
 40
0.1
100
AcDbArc
 50
282.8579999998
 51
12.8579999951
  0
ARC
  5
32D
100
AcDbEntity
  8
DRAFT
100
AcDbCircle
 62
7
  6
CONTINUOUS
 10
3.9374588974
 20
1.3682889683
 40
0.1
100
AcDbArc
 50
12.8579999951
 51
102.8579999986
  0
ARC
  5
32E
100
AcDbEntity
  8
0
100
AcDbCircle
 62
7
  6
CONTINUOUS
 10
-42.7606427632
 20
25.8134150626
 40
0.5
100
AcDbArc
 50
91.5
 51
180.0
  0
ARC
  5
32F
100
AcDbEntity
  8
0
100
AcDbCircle
 62
7
  6
CONTINUOUS
 10
-42.7606427632
 20
-25.8134150626
 40
0.5
100
AcDbArc
 50
180.0
 51
268.5
  0
ARC
  5
330
100
AcDbEntity
  8
RACCORDO
100
AcDbCircle
 62
7
  6
CONTINUOUS
 10
-38.3606427632
 20
14.2974685017
 40
0.4
100
AcDbArc
 50
0.0
 51
87.0
  0
ARC
  5
331
100
AcDbEntity
  8
RACCORDO
100
AcDbCircle
 62
7
  6
CONTINUOUS
 10
-38.3606427632
 20
12.2025314983
 40
0.4
100
AcDbArc
 50
273.0
 51
360.0
  0
ARC
  5
332
100
AcDbEntity
  8
RACCORDO
100
AcDbCircle
 62
7
  6
CONTINUOUS
 10
-38.3606427632
 20
-12.2025314983
 40
0.4
100
AcDbArc
 50
0.0
 51
87.0
  0
ARC
  5
333
100
AcDbEntity
  8
RACCORDO
100
AcDbCircle
 62
7
  6
CONTINUOUS
 10
-38.3606427632
 20
-14.2974685017
 40
0.4
100
AcDbArc
 50
273.0
 51
360.0
  0
ARC
  5
334
100
AcDbEntity
  8
RACCORDO
100
AcDbCircle
 62
7
  6
CONTINUOUS
 10
-41.0606427632
 20
15.0397929133
 40
0.2
100
AcDbArc
 50
180.0
 51
267.0
  0
ARC
  5
335
100
AcDbEntity
  8
RACCORDO
100
AcDbCircle
 62
7
  6
CONTINUOUS
 10
-41.0606427632
 20
11.4602070867
 40
0.2
100
AcDbArc
 50
93.0
 51
180.0
  0
ARC
  5
336
100
AcDbEntity
  8
RACCORDO
100
AcDbCircle
 62
7
  6
CONTINUOUS
 10
-41.0606427632
 20
-11.4602070867
 40
0.2
100
AcDbArc
 50
180.0
 51
267.0
  0
ARC
  5
337
100
AcDbEntity
  8
RACCORDO
100
AcDbCircle
 62
7
  6
CONTINUOUS
 10
-41.0606427632
 20
-15.0397929133
 40
0.2
100
AcDbArc
 50
93.0
 51
180.0
  0
ELLIPSE
  5
338
100
AcDbEntity
  8
RACCORDO
100
AcDbEllipse
 62
7
  6
CONTINUOUS
 10
-21.7843637998
 20
-25.8343637998
 30
0.0
 11
-0.35379574
 21
-0.35379574
 31
0.0
 40
0.999315002
 41
-0.7850555471
 42
0.7850555471
  0
ELLIPSE
  5
339
100
AcDbEntity
  8
RACCORDO
100
AcDbEllipse
 62
7
  6
CONTINUOUS
 10
-21.7843637998
 20
25.8343637998
 30
0.0
 11
0.35379574
 21
-0.35379574
 31
0.0
 40
0.999315002
 41
2.3565371065
 42
3.9266482006
  0
ELLIPSE
  5
33A
100
AcDbEntity
  8
RACCORDO
100
AcDbEllipse
 62
7
  6
CONTINUOUS
 10
21.7843637998
 20
25.8343637998
 30
0.0
 11
0.35379574
 21
0.35379574
 31
0.0
 40
0.999315002
 41
-0.7850555471
 42
0.7850555471
  0
ELLIPSE
  5
33B
100
AcDbEntity
  8
RACCORDO
100
AcDbEllipse
 62
7
  6
CONTINUOUS
 10
21.7843637998
 20
-25.8343637998
 30
0.0
 11
-0.35379574
 21
0.35379574
 31
0.0
 40
0.999315002
 41
2.3565371065
 42
3.9266482006
  0
ENDSEC
  0
SECTION
  2
OBJECTS
  0
DICTIONARY
  5
C
100
AcDbDictionary
280
0
281
1
  3
ACAD_GROUP
350
D
  3
ACAD_MLINESTYLE
350
17
  3
ACAD_LAYOUT
350
1A
  3
ACAD_PLOTSETTINGS
350
19
  3
ACAD_PLOTSTYLENAME
350
E
  0
DICTIONARY
  5
D
102
{ACAD_REACTORS
330
C
102
}
100
AcDbDictionary
280
0
281
1
  0
ACDBDICTIONARYWDFLT
  5
E
102
{ACAD_REACTORS
330
C
102
}
100
AcDbDictionary
281
1
  3
Normal
350
F
100
AcDbDictionaryWithDefault
340
F
  0
DICTIONARY
  5
17
102
{ACAD_REACTORS
330
C
102
}
100
AcDbDictionary
280
0
281
1
  3
Standard
350
18
  0
DICTIONARY
  5
19
102
{ACAD_REACTORS
330
C
102
}
100
AcDbDictionary
281
1
  0
DICTIONARY
  5
1A
102
{ACAD_REACTORS
330
C
102
}
100
AcDbDictionary
281
1
  3
Model
350
33C
  3
Layout1
350
33D
  0
ACDBPLACEHOLDER
  5
F
102
{ACAD_REACTORS
330
E
102
}
  0
MLINESTYLE
  5
18
102
{ACAD_REACTORS
330
17
102
}
100
AcDbMlineStyle
  2
STANDARD
 70
0
  3

 62
256
 51
90.0
 52
90.0
 71
2
 49
0.5
 62
256
  6
BYLAYER
 49
-0.5
 62
256
  6
BYLAYER
  0
LAYOUT
  5
33C
102
{ACAD_REACTORS
330
1A
102
}
100
AcDbPlotSettings
  1

  2
none_device
  4
ISO_A3_(420.00_x_297.00_MM)
  6

 40
0.0
 41
0.0
 42
0.0
 43
0.0
 44
420.0
 45
297.0
 46
0.0
 47
0.0
 48
0.0
 49
0.0
140
0.0
141
0.0
142
1.0
143
1.0
 70
1024
 72
1
 73
0
 74
0
  7

 75
0
147
1.0
148
0.0
149
0.0
100
AcDbLayout
  1
Model
 70
0
 71
0
 10
0.0
 20
0.0
 11
420.0
 21
297.0
 12
0.0
 22
0.0
 32
0.0
 14
0.0
 24
0.0
 34
0.0
 15
0.0
 25
0.0
 35
0.0
146
0.0
 13
0.0
 23
0.0
 33
0.0
 16
1.0
 26
0.0
 36
0.0
 17
0.0
 27
1.0
 37
0.0
 76
0
330
219
345
0
346
0
  0
LAYOUT
  5
33D
102
{ACAD_REACTORS
330
1A
102
}
100
AcDbPlotSettings
  1

  2
none_device
  4
ISO_A3_(420.00_x_297.00_MM)
  6

 40
0.0
 41
0.0
 42
0.0
 43
0.0
 44
420.0
 45
297.0
 46
0.0
 47
0.0
 48
0.0
 49
0.0
140
0.0
141
0.0
142
1.0
143
1.0
 70
0
 72
1
 73
0
 74
0
  7

 75
0
147
1.0
148
0.0
149
0.0
100
AcDbLayout
  1
Layout1
 70
0
 71
1
 10
0.0
 20
0.0
 11
420.0
 21
297.0
 12
0.0
 22
0.0
 32
0.0
 14
0.0
 24
0.0
 34
0.0
 15
0.0
 25
0.0
 35
0.0
146
0.0
 13
0.0
 23
0.0
 33
0.0
 16
1.0
 26
0.0
 36
0.0
 17
0.0
 27
1.0
 37
0.0
 76
0
330
21A
345
0
346
0
  0
ENDSEC
  0
EOF
