  0
SECTION
  2
HEADER
  9
$ACADVER
  1
AC1024
  9
$DWGCODEPAGE
  3
ANSI_1252
  9
$EXTMAX
 10
297.0
 20
210.0
 30
0.0
  9
$EXTMIN
 10
0.0
 20
0.0
 30
0.0
  9
$LIMMIN
 10
0.0
 20
0.0
  9
$LIMMAX
 10
297.0
 20
210.0
  9
$VIEWCTR
 10
148.5
 20
105.0
  9
$VIEWSIZE
 40
210.0
  9
$CLAYER
  8
0
  9
$LTSCALE
 40
16.335
  9
$CELTYPE
  6
BYLAYER
  9
$DIMSCALE
 40
1.0
  9
$DIMASZ
 40
3.0
  9
$DIMEXO
 40
0.5
  9
$DIMDLI
 40
11.286
  9
$DIMEXE
 40
1.5
  9
$DIMCEN
 40
2.673
  9
$DIMLFAC
 40
1.0
  9
$DIMBLK
  1
_FILLED
  9
$DIMALT
 70
0
  9
$DIMALTF
 40
0.0393700787
  9
$DIMTXT
 40
3.0
  9
$DIMTOL
 70
1
  9
$DIMLIM
 70
0
  9
$DIMTFAC
 40
1.0
  9
$DIMTP
 40
0.01
  9
$DIMTM
 40
0.01
  9
$DIMGAP
 40
0.625
  9
$DIMDSEP
 70
44
  9
$AUNITS
 70
0
  9
$PDMODE
 70
3
  9
$PDSIZE
 40
3.0
  9
$HANDSEED
  5
3B1
  9
$TILEMODE
 70
1
  9
$MEASUREMENT
 70
1
  9
$INSUNITS
 70
4
  0
ENDSEC
  0
SECTION
  2
CLASSES
  0
CLASS
  1
ACDBDICTIONARYWDFLT
  2
AcDbDictionaryWithDefault
  3
AutoCAD 2000
 90
0
 91
1
280
0
281
0
  0
CLASS
  1
ACDBPLACEHOLDER
  2
AcDbPlaceHolder
  3
AutoCAD 2000
 90
0
 91
1
280
0
281
0
  0
CLASS
  1
LAYOUT
  2
AcDbLayout
  3
AutoCAD 2000
 90
0
 91
0
280
0
281
0
  0
ENDSEC
  0
SECTION
  2
TABLES
  0
TABLE
  2
VPORT
  5
8
100
AcDbSymbolTable
 70
2
  0
VPORT
  5
1F4
100
AcDbSymbolTableRecord
100
AcDbViewportTableRecord
  2
*ACTIVE
 70
0
 10
0.0
 20
0.0
 11
1.0
 21
1.0
 12
148.5
 22
105.0
 13
0.0
 23
0.0
 14
1.0
 24
1.0
 15
0.0
 25
0.0
 16
0.0
 26
0.0
 36
1.0
 17
0.0
 27
0.0
 37
0.0
 40
210.0
 41
1.4142857143
 42
50.0
 43
0.0
 44
0.0
 50
0.0
 51
0.0
 71
0
 72
100
 73
1
 74
1
 75
0
 76
0
 77
0
 78
0
  0
ENDTAB
  0
TABLE
  2
LTYPE
  5
5
100
AcDbSymbolTable
 70
6
  0
LTYPE
  5
14
100
AcDbSymbolTableRecord
100
AcDbLinetypeTableRecord
  2
BYBLOCK
 70
0
  3

 72
65
 73
0
 40
0.0
  0
LTYPE
  5
15
100
AcDbSymbolTableRecord
100
AcDbLinetypeTableRecord
  2
BYLAYER
 70
0
  3

 72
65
 73
0
 40
0.0
  0
LTYPE
  5
16
100
AcDbSymbolTableRecord
100
AcDbLinetypeTableRecord
  2
CONTINUOUS
 70
64
  3
Solid line
 72
65
 73
0
 40
0.0
  0
LTYPE
  5
1F5
100
AcDbSymbolTableRecord
100
AcDbLinetypeTableRecord
  2
CENTER
 70
64
  3
____ _ ____ _ ____ _ ____ _ ____ _ ____ _ ____
 72
65
 73
4
 40
0.6
 49
0.375
 74
0
 49
-0.075
 74
0
 49
0.075
 74
0
 49
-0.075
 74
0
  0
LTYPE
  5
1F6
100
AcDbSymbolTableRecord
100
AcDbLinetypeTableRecord
  2
HIDDEN
 70
64
  3
- - - - - - - - - - - - - - - - - - - -
 72
65
 73
2
 40
0.2
 49
0.1
 74
0
 49
-0.1
 74
0
  0
LTYPE
  5
1F7
100
AcDbSymbolTableRecord
100
AcDbLinetypeTableRecord
  2
PHANTOM
 70
64
  3
_____ _ _ _____ _ _ _____ _ _ _____
 72
65
 73
6
 40
0.8
 49
0.45
 74
0
 49
-0.05
 74
0
 49
0.1
 74
0
 49
-0.05
 74
0
 49
0.1
 74
0
 49
-0.05
 74
0
  0
LTYPE
  5
1F8
100
AcDbSymbolTableRecord
100
AcDbLinetypeTableRecord
  2
DOT
 70
64
  3
. . . . . . . . . . . . . . . . . . . .
 72
65
 73
2
 40
0.2
 49
0.1
 74
0
 49
-0.1
 74
0
  0
LTYPE
  5
1F9
100
AcDbSymbolTableRecord
100
AcDbLinetypeTableRecord
  2
DASHED
 70
64
  3
- - - - - - - - - - - - - - - - - - - -
 72
65
 73
2
 40
0.2
 49
0.1
 74
0
 49
-0.1
 74
0
  0
ENDTAB
  0
TABLE
  2
LAYER
  5
2
100
AcDbSymbolTable
 70
36
  0
LAYER
  5
10
100
AcDbSymbolTableRecord
100
AcDbLayerTableRecord
  2
0
 70
0
 62
7
  6
CONTINUOUS
370
-3
390
F
  0
LAYER
  5
1FA
100
AcDbSymbolTableRecord
100
AcDbLayerTableRecord
  2
DEFAULT_1
 70
0
 62
7
  6
CENTER
370
-3
390
F
  0
LAYER
  5
1FB
100
AcDbSymbolTableRecord
100
AcDbLayerTableRecord
  2
DEFAULT_2
 70
0
 62
7
  6
HIDDEN
370
-3
390
F
  0
LAYER
  5
1FC
100
AcDbSymbolTableRecord
100
AcDbLayerTableRecord
  2
DEFAULT_3
 70
0
 62
7
  6
PHANTOM
370
-3
390
F
  0
LAYER
  5
1FD
100
AcDbSymbolTableRecord
100
AcDbLayerTableRecord
  2
9
 70
0
 62
7
  6
CONTINUOUS
370
-3
390
F
  0
LAYER
  5
1FE
100
AcDbSymbolTableRecord
100
AcDbLayerTableRecord
  2
ASSI
 70
0
 62
7
  6
CONTINUOUS
370
-3
390
F
  0
LAYER
  5
1FF
100
AcDbSymbolTableRecord
100
AcDbLayerTableRecord
  2
COORDINATE
 70
0
 62
7
  6
CONTINUOUS
370
-3
390
F
  0
LAYER
  5
200
100
AcDbSymbolTableRecord
100
AcDbLayerTableRecord
  2
COPY_PUBLISH
 70
0
 62
7
  6
CONTINUOUS
370
-3
390
F
  0
LAYER
  5
201
100
AcDbSymbolTableRecord
100
AcDbLayerTableRecord
  2
COSMETICI
 70
0
 62
7
  6
CONTINUOUS
370
-3
390
F
  0
LAYER
  5
202
100
AcDbSymbolTableRecord
100
AcDbLayerTableRecord
  2
CURVE
 70
0
 62
7
  6
CONTINUOUS
370
-3
390
F
  0
LAYER
  5
203
100
AcDbSymbolTableRecord
100
AcDbLayerTableRecord
  2
DRAFT
 70
0
 62
7
  6
CONTINUOUS
370
-3
390
F
  0
LAYER
  5
204
100
AcDbSymbolTableRecord
100
AcDbLayerTableRecord
  2
IMPORT_IGES
 70
0
 62
7
  6
CONTINUOUS
370
-3
390
F
  0
LAYER
  5
205
100
AcDbSymbolTableRecord
100
AcDbLayerTableRecord
  2
INTF_10
 70
0
 62
7
  6
CONTINUOUS
370
-3
390
F
  0
LAYER
  5
206
100
AcDbSymbolTableRecord
100
AcDbLayerTableRecord
  2
INTF_2
 70
0
 62
7
  6
CONTINUOUS
370
-3
390
F
  0
LAYER
  5
207
100
AcDbSymbolTableRecord
100
AcDbLayerTableRecord
  2
INTF_3
 70
0
 62
7
  6
CONTINUOUS
370
-3
390
F
  0
LAYER
  5
208
100
AcDbSymbolTableRecord
100
AcDbLayerTableRecord
  2
INTF_4
 70
0
 62
7
  6
CONTINUOUS
370
-3
390
F
  0
LAYER
  5
209
100
AcDbSymbolTableRecord
100
AcDbLayerTableRecord
  2
INTF_5
 70
0
 62
7
  6
CONTINUOUS
370
-3
390
F
  0
LAYER
  5
20A
100
AcDbSymbolTableRecord
100
AcDbLayerTableRecord
  2
INTF_6
 70
0
 62
7
  6
CONTINUOUS
370
-3
390
F
  0
LAYER
  5
20B
100
AcDbSymbolTableRecord
100
AcDbLayerTableRecord
  2
INTF_7
 70
0
 62
7
  6
CONTINUOUS
370
-3
390
F
  0
LAYER
  5
20C
100
AcDbSymbolTableRecord
100
AcDbLayerTableRecord
  2
INTF_9
 70
0
 62
7
  6
CONTINUOUS
370
-3
390
F
  0
LAYER
  5
20D
100
AcDbSymbolTableRecord
100
AcDbLayerTableRecord
  2
INTF_BLANK
 70
0
 62
7
  6
CONTINUOUS
370
-3
390
F
  0
LAYER
  5
20E
100
AcDbSymbolTableRecord
100
AcDbLayerTableRecord
  2
INTF_RED
 70
0
 62
7
  6
CONTINUOUS
370
-3
390
F
  0
LAYER
  5
20F
100
AcDbSymbolTableRecord
100
AcDbLayerTableRecord
  2
NOTE
 70
0
 62
7
  6
CONTINUOUS
370
-3
390
F
  0
LAYER
  5
210
100
AcDbSymbolTableRecord
100
AcDbLayerTableRecord
  2
PIANI
 70
0
 62
7
  6
CONTINUOUS
370
-3
390
F
  0
LAYER
  5
211
100
AcDbSymbolTableRecord
100
AcDbLayerTableRecord
  2
PUNTI
 70
0
 62
7
  6
CONTINUOUS
370
-3
390
F
  0
LAYER
  5
212
100
AcDbSymbolTableRecord
100
AcDbLayerTableRecord
  2
RACCORDO
 70
0
 62
7
  6
CONTINUOUS
370
-3
390
F
  0
LAYER
  5
213
100
AcDbSymbolTableRecord
100
AcDbLayerTableRecord
  2
RGB____0____0____0__
 70
0
 62
7
  6
CONTINUOUS
370
-3
390
F
  0
LAYER
  5
214
100
AcDbSymbolTableRecord
100
AcDbLayerTableRecord
  2
SIMBOLI
 70
0
 62
7
  6
CONTINUOUS
370
-3
390
F
  0
LAYER
  5
215
100
AcDbSymbolTableRecord
100
AcDbLayerTableRecord
  2
SMUSSO
 70
0
 62
7
  6
CONTINUOUS
370
-3
390
F
  0
LAYER
  5
216
100
AcDbSymbolTableRecord
100
AcDbLayerTableRecord
  2
SNAPLINE
 70
0
 62
7
  6
CONTINUOUS
370
-3
390
F
  0
LAYER
  5
217
100
AcDbSymbolTableRecord
100
AcDbLayerTableRecord
  2
SUPERFICI
 70
0
 62
7
  6
CONTINUOUS
370
-3
390
F
  0
LAYER
  5
218
100
AcDbSymbolTableRecord
100
AcDbLayerTableRecord
  2
TRASH
 70
0
 62
7
  6
CONTINUOUS
370
-3
390
F
  0
ENDTAB
  0
TABLE
  2
STYLE
  5
3
100
AcDbSymbolTable
 70
1
  0
STYLE
  5
11
100
AcDbSymbolTableRecord
100
AcDbTextStyleTableRecord
  2
STANDARD
 70
0
 40
0.0
 41
0.8
 50
0.0
 71
0
 42
0.2
  3
txt
  4

  0
STYLE
  5
219
100
AcDbSymbolTableRecord
100
AcDbTextStyleTableRecord
  2
TEXTSTYLE_1
 70
0
 40
0.0
 41
0.8
 50
0.0
 71
0
 42
0.2
  3
gdt
  4

  0
ENDTAB
  0
TABLE
  2
VIEW
  5
6
100
AcDbSymbolTable
 70
0
  0
ENDTAB
  0
TABLE
  2
UCS
  5
7
100
AcDbSymbolTable
 70
0
  0
ENDTAB
  0
TABLE
  2
APPID
  5
9
100
AcDbSymbolTable
 70
1
  0
APPID
  5
21A
100
AcDbSymbolTableRecord
100
AcDbRegAppTableRecord
  2
ACAD
 70
0
  0
ENDTAB
  0
TABLE
  2
BLOCK_RECORD
  5
1
100
AcDbSymbolTable
 70
0
  0
BLOCK_RECORD
  5
21B
100
AcDbSymbolTableRecord
100
AcDbBlockTableRecord
  2
*Model_Space
  0
BLOCK_RECORD
  5
21C
100
AcDbSymbolTableRecord
100
AcDbBlockTableRecord
  2
*Paper_Space
  0
BLOCK_RECORD
  5
21D
100
AcDbSymbolTableRecord
100
AcDbBlockTableRecord
  2
_FILLED
  0
BLOCK_RECORD
  5
21E
100
AcDbSymbolTableRecord
100
AcDbBlockTableRecord
  2
*D0
  0
BLOCK_RECORD
  5
21F
100
AcDbSymbolTableRecord
100
AcDbBlockTableRecord
  2
*D1
  0
BLOCK_RECORD
  5
220
100
AcDbSymbolTableRecord
100
AcDbBlockTableRecord
  2
*D2
  0
BLOCK_RECORD
  5
221
100
AcDbSymbolTableRecord
100
AcDbBlockTableRecord
  2
*D3
  0
ENDTAB
  0
TABLE
  2
DIMSTYLE
  5
A
100
AcDbSymbolTable
 70
1
100
AcDbDimStyleTable
 71
0
  0
DIMSTYLE
105
222
100
AcDbSymbolTableRecord
100
AcDbDimStyleTableRecord
  2
STANDARD
 70
0
  3

  4

 40
1.0
 41
3.0
 42
0.5
 43
0.38
 44
1.5
 45
0.0
 46
0.0
 47
0.01
 48
0.01
140
3.0
141
0.09
142
0.0
143
25.4
144
1.0
145
0.0
146
1.0
147
0.625
 71
1
 72
0
 73
0
 74
0
 75
0
 76
0
 77
1
 78
8
 79
2
170
0
171
1
172
0
173
0
174
0
175
0
176
0
177
0
178
0
270
2
179
2
271
2
272
2
273
2
274
2
275
0
280
0
281
0
282
0
283
1
284
8
285
0
286
0
287
3
288
0
340
11
278
44
341
21D
342
21D
343
21D
344
21D
  0
DIMSTYLE
105
223
100
AcDbSymbolTableRecord
100
AcDbDimStyleTableRecord
  2
DIMSTYLE_1
 70
0
  3

  4

 40
1.0
 41
3.0
 42
0.5
 43
0.38
 44
1.5
 45
0.0
 46
0.0
 47
0.0
 48
0.0
140
3.0
141
0.09
142
0.0
143
25.4
144
1.0
145
0.0
146
1.0
147
0.75
 71
0
 72
0
 73
0
 74
0
 75
0
 76
0
 77
1
 78
8
 79
2
170
0
171
1
172
0
173
0
174
0
175
0
176
0
177
0
178
0
270
2
179
2
271
1
272
1
273
2
274
2
275
0
280
0
281
0
282
0
283
1
284
8
285
0
286
0
287
3
288
0
340
11
278
44
341
21D
342
21D
343
21D
344
21D
  0
ENDTAB
  0
ENDSEC
  0
SECTION
  2
BLOCKS
  0
BLOCK
  5
20
100
AcDbEntity
  8
0
100
AcDbBlockBegin
  2
*Model_Space
 70
0
 10
0.0
 20
0.0
 30
0.0
  3
*Model_Space
  1

  0
ENDBLK
  5
21
100
AcDbEntity
  8
0
100
AcDbBlockEnd
  0
BLOCK
  5
1C
100
AcDbEntity
  8
0
100
AcDbBlockBegin
  2
*Paper_Space
 70
0
 10
0.0
 20
0.0
 30
0.0
  3
*Paper_Space
  1

  0
ENDBLK
  5
1D
100
AcDbEntity
  8
0
100
AcDbBlockEnd
  0
BLOCK
  5
224
100
AcDbEntity
  8
0
100
AcDbBlockBegin
  2
_FILLED
 70
64
 10
0.0
 20
0.0
  3
_FILLED
  1

  0
SOLID
  5
225
100
AcDbEntity
  8
0
  6
BYBLOCK
 62
0
100
AcDbTrace
 10
0.0
 20
0.0
 11
-1.0
 21
0.3166666667
 12
-1.0
 22
-0.3166666667
 13
-1.0
 23
-0.3166666667
  0
ENDBLK
  5
226
100
AcDbEntity
  8
0
  6
BYBLOCK
 62
0
100
AcDbBlockEnd
  0
BLOCK
  5
227
100
AcDbEntity
  8
0
100
AcDbBlockBegin
 62
7
  6
CONTINUOUS
  2
*D0
 70
65
 10
0.0
 20
0.0
  3
*D0
  1

  0
LINE
  5
228
100
AcDbEntity
  8
0
100
AcDbLine
 62
7
  6
CONTINUOUS
 10
-11.5593284991
 20
28.4420742746
 11
-11.5593284991
 21
40.1198887199
  0
LINE
  5
229
100
AcDbEntity
  8
0
100
AcDbLine
 62
7
  6
CONTINUOUS
 10
10.5464021833
 20
28.4420742746
 11
10.5464021833
 21
40.1198887199
  0
LINE
  5
22A
100
AcDbEntity
  8
0
100
AcDbLine
 62
7
  6
CONTINUOUS
 10
-11.5593284991
 20
38.6198887199
 11
-0.5064631579
 21
38.6198887199
  0
LINE
  5
22B
100
AcDbEntity
  8
0
100
AcDbLine
 62
7
  6
CONTINUOUS
 10
10.5464021833
 20
38.6198887199
 11
-0.5064631579
 21
38.6198887199
  0
INSERT
  5
22C
100
AcDbEntity
  8
0
100
AcDbBlockReference
 62
7
  6
CONTINUOUS
  2
_FILLED
 10
-11.5593284991
 20
38.6198887199
 41
3.0
 42
3.0
 43
3.0
 50
180.0
  0
INSERT
  5
22D
100
AcDbEntity
  8
0
100
AcDbBlockReference
 62
7
  6
CONTINUOUS
  2
_FILLED
 10
10.5464021833
 20
38.6198887199
 41
3.0
 42
3.0
 43
3.0
  0
ENDBLK
  5
22E
100
AcDbEntity
  8
0
  6
BYBLOCK
 62
0
100
AcDbBlockEnd
  0
BLOCK
  5
22F
100
AcDbEntity
  8
0
100
AcDbBlockBegin
 62
7
  6
CONTINUOUS
  2
*D1
 70
65
 10
0.0
 20
0.0
  3
*D1
  1

  0
LINE
  5
230
100
AcDbEntity
  8
0
100
AcDbLine
 62
7
  6
CONTINUOUS
 10
10.5465735208
 20
28.4419029371
 11
22.2243879661
 21
28.4419029371
  0
LINE
  5
231
100
AcDbEntity
  8
0
100
AcDbLine
 62
7
  6
CONTINUOUS
 10
10.5465735208
 20
-24.2638277453
 11
22.2243879661
 21
-24.2638277453
  0
LINE
  5
232
100
AcDbEntity
  8
0
100
AcDbLine
 62
7
  6
CONTINUOUS
 10
20.7243879661
 20
28.4419029371
 11
20.7243879661
 21
2.0890375959
  0
LINE
  5
233
100
AcDbEntity
  8
0
100
AcDbLine
 62
7
  6
CONTINUOUS
 10
20.7243879661
 20
-24.2638277453
 11
20.7243879661
 21
2.0890375959
  0
INSERT
  5
234
100
AcDbEntity
  8
0
100
AcDbBlockReference
 62
7
  6
CONTINUOUS
  2
_FILLED
 10
20.7243879661
 20
28.4419029371
 41
3.0
 42
3.0
 43
3.0
 50
90.0
  0
INSERT
  5
235
100
AcDbEntity
  8
0
100
AcDbBlockReference
 62
7
  6
CONTINUOUS
  2
_FILLED
 10
20.7243879661
 20
-24.2638277453
 41
3.0
 42
3.0
 43
3.0
 50
270.0
  0
ENDBLK
  5
236
100
AcDbEntity
  8
0
  6
BYBLOCK
 62
0
100
AcDbBlockEnd
  0
BLOCK
  5
237
100
AcDbEntity
  8
0
100
AcDbBlockBegin
 62
7
  6
CONTINUOUS
  2
*D2
 70
65
 10
0.0
 20
0.0
  3
*D2
  1

  0
LINE
  5
238
100
AcDbEntity
  8
0
100
AcDbLine
 62
7
  6
CONTINUOUS
 10
-26.9530042196
 20
-9.8078405807
 11
-26.9530042196
 21
49.8980040883
  0
LINE
  5
239
100
AcDbEntity
  8
0
100
AcDbLine
 62
7
  6
CONTINUOUS
 10
-34.9227517483
 20
-22.6153842203
 11
-34.9227517483
 21
49.8980040883
  0
LINE
  5
23A
100
AcDbEntity
  8
0
100
AcDbLine
 62
7
  6
CONTINUOUS
 10
-26.9530042196
 20
48.3980040883
 11
-30.9378779839
 21
48.3980040883
  0
LINE
  5
23B
100
AcDbEntity
  8
0
100
AcDbLine
 62
7
  6
CONTINUOUS
 10
-34.9227517483
 20
48.3980040883
 11
-30.9378779839
 21
48.3980040883
  0
LINE
  5
23C
100
AcDbEntity
  8
0
100
AcDbLine
 62
7
  6
CONTINUOUS
 10
-30.9378779839
 20
48.3980040883
 11
-46.4876449212
 21
48.3980040883
  0
INSERT
  5
23D
100
AcDbEntity
  8
0
100
AcDbBlockReference
 62
7
  6
CONTINUOUS
  2
_FILLED
 10
-26.9530042196
 20
48.3980040883
 41
3.0
 42
3.0
 43
3.0
  0
INSERT
  5
23E
100
AcDbEntity
  8
0
100
AcDbBlockReference
 62
7
  6
CONTINUOUS
  2
_FILLED
 10
-34.9227517483
 20
48.3980040883
 41
3.0
 42
3.0
 43
3.0
 50
180.0
  0
ENDBLK
  5
23F
100
AcDbEntity
  8
0
  6
BYBLOCK
 62
0
100
AcDbBlockEnd
  0
BLOCK
  5
240
100
AcDbEntity
  8
0
100
AcDbBlockBegin
 62
7
  6
CONTINUOUS
  2
*D3
 70
65
 10
0.0
 20
0.0
  3
*D3
  1

  0
LINE
  5
241
100
AcDbEntity
  8
0
100
AcDbLine
 62
7
  6
CONTINUOUS
 10
-30.2530042196
 20
28.4420742746
 11
-30.2530042196
 21
40.1198887199
  0
LINE
  5
242
100
AcDbEntity
  8
0
100
AcDbLine
 62
7
  6
CONTINUOUS
 10
-34.9227517483
 20
-22.6153842203
 11
-34.9227517483
 21
40.1198887199
  0
LINE
  5
243
100
AcDbEntity
  8
0
100
AcDbLine
 62
7
  6
CONTINUOUS
 10
-30.2530042196
 20
38.6198887199
 11
-26.2530042196
 21
38.6198887199
  0
LINE
  5
244
100
AcDbEntity
  8
0
100
AcDbLine
 62
7
  6
CONTINUOUS
 10
-26.2530042196
 20
38.6198887199
 11
-32.5878779839
 21
38.6198887199
  0
LINE
  5
245
100
AcDbEntity
  8
0
100
AcDbLine
 62
7
  6
CONTINUOUS
 10
-34.9227517483
 20
38.6198887199
 11
-48.8590953873
 21
38.6198887199
  0
LINE
  5
246
100
AcDbEntity
  8
0
100
AcDbLine
 62
7
  6
CONTINUOUS
 10
-48.8590953873
 20
38.6198887199
 11
-32.5878779839
 21
38.6198887199
  0
INSERT
  5
247
100
AcDbEntity
  8
0
100
AcDbBlockReference
 62
7
  6
CONTINUOUS
  2
_FILLED
 10
-30.2530042196
 20
38.6198887199
 41
3.0
 42
3.0
 43
3.0
 50
180.0
  0
INSERT
  5
248
100
AcDbEntity
  8
0
100
AcDbBlockReference
 62
7
  6
CONTINUOUS
  2
_FILLED
 10
-34.9227517483
 20
38.6198887199
 41
3.0
 42
3.0
 43
3.0
  0
ENDBLK
  5
249
100
AcDbEntity
  8
0
  6
BYBLOCK
 62
0
100
AcDbBlockEnd
  0
ENDSEC
  0
SECTION
  2
ENTITIES
  0
DIMENSION
  5
24A
100
AcDbEntity
  8
0
100
AcDbDimension
 62
7
  6
CONTINUOUS
  2
*D0
 10
10.5464021833
 20
38.6198887199
 11
-4.5778917293
 21
38.6198887199
 70
160
 71
2
 72
2
 41
0.9
 42
22.1057306824
  3
DIMSTYLE_1
100
AcDbAlignedDimension
 13
-11.5593284991
 23
27.9420742746
 14
10.5464021833
 24
27.9420742746
100
AcDbRotatedDimension
  0
DIMENSION
  5
24B
100
AcDbEntity
  8
0
100
AcDbDimension
 62
7
  6
CONTINUOUS
  2
*D1
 10
20.7243879661
 20
-24.2638277453
 11
20.7243879661
 21
-2.1966766898
 70
160
 71
2
 72
2
 41
0.9
 42
52.7057306824
  3
DIMSTYLE_1
100
AcDbAlignedDimension
 13
10.0465735208
 23
28.4419029371
 14
10.0465735208
 24
-24.2638277453
 50
270.0
100
AcDbRotatedDimension
  0
DIMENSION
  5
24C
100
AcDbEntity
  8
0
100
AcDbDimension
 62
7
  6
CONTINUOUS
  2
*D2
 10
-34.9227517483
 20
48.3980040883
 11
-46.4876449212
 21
48.3980040883
 70
160
 71
3
 72
2
 41
0.9
 42
7.9697475287
  3
DIMSTYLE_1
100
AcDbAlignedDimension
 13
-26.9530042196
 23
-10.3078405807
 14
-34.9227517483
 24
-23.1153842203
 50
180.0
100
AcDbRotatedDimension
  0
DIMENSION
  5
24D
100
AcDbEntity
  8
0
100
AcDbDimension
 62
7
  6
CONTINUOUS
  2
*D3
 10
-34.9227517483
 20
38.6198887199
 11
-48.8590953873
 21
38.6198887199
 70
160
 71
3
 72
2
 41
0.9
 42
4.6697475287
  3
DIMSTYLE_1
100
AcDbAlignedDimension
 13
-30.2530042196
 23
27.9420742746
 14
-34.9227517483
 24
-23.1153842203
 50
180.0
100
AcDbRotatedDimension
  0
LWPOLYLINE
  5
24E
100
AcDbEntity
  8
0
100
AcDbPolyline
 62
7
  6
CONTINUOUS
 90
3
 70
0
 43
0.3500000006
 10
1.8506796355
 20
41.5127468719
 10
2.7078225317
 20
42.3698893433
 10
2.7078225317
 20
39.3698884277
  0
LINE
  5
24F
100
AcDbEntity
  8
RACCORDO
100
AcDbLine
 62
250
  6
CONTINUOUS
 10
10.0465735208
 20
28.4419029371
 11
10.0069519047
 21
28.402281321
  0
LINE
  5
250
100
AcDbEntity
  8
RACCORDO
100
AcDbLine
 62
250
  6
CONTINUOUS
 10
10.5464021833
 20
27.9420742746
 11
10.5067805672
 21
27.9024526585
  0
LWPOLYLINE
  5
251
100
AcDbEntity
  8
0
100
AcDbPolyline
 62
7
  6
CONTINUOUS
 90
10
 70
0
 43
0.3500000006
 10
19.4743873444
 20
2.9461802216
 10
19.6172451782
 20
3.0176091385
 10
19.6886740952
 20
3.0176091385
 10
19.831531929
 20
2.8747513046
 10
19.831531929
 20
2.8033223877
 10
19.7601030121
 20
2.7318957367
 10
19.6886740952
 20
2.7318957367
 10
19.5458162613
 20
2.8033223877
 10
19.4743873444
 20
2.8747513046
 10
19.4743873444
 20
2.9461802216
  0
LWPOLYLINE
  5
252
100
AcDbEntity
  8
RACCORDO
100
AcDbPolyline
 62
250
  6
CONTINUOUS
 90
16
 70
0
 10
-11.4908553882
 20
-8.1973041706
 10
-11.4868690635
 20
-8.1919295514
 10
-11.4776286246
 20
-8.1866118743
 10
-11.4632319877
 20
-8.1814074882
 10
-11.4438317058
 20
-8.1763715412
 10
-11.4196333518
 20
-8.1715573961
 10
-11.3908933405
 20
-8.1670160643
 10
-11.3579162117
 20
-8.1627956671
 10
-11.3210514028
 20
-8.1589409256
 10
-11.2806895456
 20
-8.1554926859
 10
-11.2372583282
 20
-8.1524874861
 10
-11.1912179625
 20
-8.1499571703
 10
-11.1430563065
 20
-8.147928551
 10
-11.0932836966
 20
-8.1464231242
 10
-11.0424275402
 20
-8.1454568408
 10
-10.9910267257
 20
-8.145039939
  0
LWPOLYLINE
  5
253
100
AcDbEntity
  8
0
100
AcDbPolyline
 62
7
  6
CONTINUOUS
 90
3
 70
0
 43
0.3500000006
 10
0.8506796844
 20
39.6556040955
 10
0.7792511215
 20
39.4413150787
 10
0.6363939958
 20
39.1556039429
  0
LWPOLYLINE
  5
254
100
AcDbEntity
  8
RACCORDO
100
AcDbPolyline
 62
250
  6
CONTINUOUS
 90
10
 70
0
 10
-11.5268425975
 20
-23.7315131812
 10
-11.5265763374
 20
-23.7311430378
 10
-11.5263105761
 20
-23.7305671678
 10
-11.5260453134
 20
-23.729785571
 10
-11.5257804763
 20
-23.7287979808
 10
-11.5255161379
 20
-23.7276046638
 10
-11.5252525177
 20
-23.7262064201
 10
-11.5249896887
 20
-23.7246035163
 10
-11.5247275778
 20
-23.7227956858
 10
-11.5244661851
 20
-23.7207829285
  0
LWPOLYLINE
  5
255
100
AcDbEntity
  8
RACCORDO
100
AcDbPolyline
 62
250
  6
CONTINUOUS
 90
16
 70
0
 10
-11.4497970836
 20
-23.1153842203
 10
-11.4457947713
 20
-23.109996614
 10
-11.4365131712
 20
-23.1046663718
 10
-11.4220511081
 20
-23.0994502471
 10
-11.4025606089
 20
-23.0944033376
 10
-11.378250295
 20
-23.0895798608
 10
-11.3493873637
 20
-23.0850323594
 10
-11.3162888682
 20
-23.080809724
 10
-11.2793052583
 20
-23.0769557379
 10
-11.2388211281
 20
-23.0735101738
 10
-11.1952143793
 20
-23.0705064358
 10
-11.1489947305
 20
-23.0679807888
 10
-11.1008129951
 20
-23.065965815
 10
-11.0512513199
 20
-23.064479215
 10
-11.0007918472
 20
-23.0635290414
 10
-10.9499684211
 20
-23.0631199887
  0
LINE
  5
256
100
AcDbEntity
  8
RACCORDO
100
AcDbLine
 62
250
  6
CONTINUOUS
 10
-11.5593284991
 20
-23.7639990828
 11
-11.5268425975
 21
-23.7315131812
  0
LINE
  5
257
100
AcDbEntity
  8
RACCORDO
100
AcDbLine
 62
250
  6
CONTINUOUS
 10
-11.0594998366
 20
-24.2638277453
 11
-11.027013935
 21
-24.2313418437
  0
LWPOLYLINE
  5
258
100
AcDbEntity
  8
RACCORDO
100
AcDbPolyline
 62
250
  6
CONTINUOUS
 90
10
 70
0
 10
-11.027013935
 20
-24.2313418437
 10
-11.0267476626
 20
-24.2306028495
 10
-11.0264818951
 20
-24.2294509075
 10
-11.0262166324
 20
-24.2278866233
 10
-11.0259518056
 20
-24.2259110725
 10
-11.0256874836
 20
-24.2235250133
 10
-11.0254238736
 20
-24.2207283215
 10
-11.0251610446
 20
-24.2175213055
 10
-11.0248989276
 20
-24.2139052709
 10
-11.0246375226
 20
-24.2098813383
  0
LWPOLYLINE
  5
259
100
AcDbEntity
  8
RACCORDO
100
AcDbPolyline
 62
250
  6
CONTINUOUS
 90
16
 70
0
 10
-11.519706883
 20
27.9024526585
 10
-11.5169189185
 20
27.9548316335
 10
-11.5086575091
 20
28.0066338112
 10
-11.495013629
 20
28.0572887423
 10
-11.4761349394
 20
28.1062443918
 10
-11.4522307066
 20
28.1529553346
 10
-11.4235754267
 20
28.1968917153
 10
-11.3904980476
 20
28.2375637229
 10
-11.353360419
 20
28.2745390221
 10
-11.3125590871
 20
28.3074269334
 10
-11.2684775839
 20
28.3359032014
 10
-11.2216570046
 20
28.3596042719
 10
-11.1728076127
 20
28.3782063577
 10
-11.1225527134
 20
28.3915516447
 10
-11.0713899371
 20
28.3995845724
 10
-11.0198782205
 20
28.402281321
  0
LINE
  5
25A
100
AcDbEntity
  8
RACCORDO
100
AcDbLine
 62
250
  6
CONTINUOUS
 10
-11.5244661851
 20
-23.7207829285
 11
-11.4497970836
 21
-23.1153842203
  0
LINE
  5
25B
100
AcDbEntity
  8
RACCORDO
100
AcDbLine
 62
250
  6
CONTINUOUS
 10
-11.0246375226
 20
-24.2098813383
 11
-10.9499684211
 21
-23.6044826301
  0
LWPOLYLINE
  5
25C
100
AcDbEntity
  8
RACCORDO
100
AcDbPolyline
 62
250
  6
CONTINUOUS
 90
16
 70
0
 10
-11.4497970836
 20
-23.1153842203
 10
-11.4467804208
 20
-23.1664610725
 10
-11.4383309801
 20
-23.2169792729
 10
-11.4245411938
 20
-23.2663863964
 10
-11.4055599378
 20
-23.3141464189
 10
-11.3815958582
 20
-23.3597324486
 10
-11.3529195135
 20
-23.4026346397
 10
-11.3198542667
 20
-23.4423797626
 10
-11.2827600972
 20
-23.4785442549
 10
-11.2420343673
 20
-23.5107440579
 10
-11.1980684191
 20
-23.538658166
 10
-11.1513893405
 20
-23.5619411762
 10
-11.1026711478
 20
-23.5802866315
 10
-11.052518285
 20
-23.5935324932
 10
-11.0014324127
 20
-23.6016094529
 10
-10.9499684211
 20
-23.6044826301
  0
LWPOLYLINE
  5
25D
100
AcDbEntity
  8
RACCORDO
100
AcDbPolyline
 62
250
  6
CONTINUOUS
 90
16
 70
0
 10
-11.5244661851
 20
-23.7207829285
 10
-11.5214639163
 20
-23.7717320902
 10
-11.5130558924
 20
-23.8221268958
 10
-11.4993335977
 20
-23.8714190213
 10
-11.4804463384
 20
-23.9190721399
 10
-11.4565996188
 20
-23.9645677587
 10
-11.4280529048
 20
-24.0074108592
 10
-11.395116801
 20
-24.0471352841
 10
-11.358149671
 20
-24.0833088089
 10
-11.3175537382
 20
-24.115537845
 10
-11.2737707097
 20
-24.1434717221
 10
-11.2272769697
 20
-24.1668065036
 10
-11.1785783968
 20
-24.1852882938
 10
-11.1282048593
 20
-24.1987160002
 10
-11.0767044499
 20
-24.2069435218
 10
-11.0246375226
 20
-24.2098813383
  0
LWPOLYLINE
  5
25E
100
AcDbEntity
  8
RACCORDO
100
AcDbPolyline
 62
250
  6
CONTINUOUS
 90
16
 70
0
 10
-11.5268425975
 20
-23.7315131812
 10
-11.524071092
 20
-23.7837367376
 10
-11.5158584825
 20
-23.8353886327
 10
-11.502294666
 20
-23.8859034514
 10
-11.4835281174
 20
-23.9347282254
 10
-11.4597642644
 20
-23.9813284858
 10
-11.4312632388
 20
-24.0251941137
 10
-11.3983370285
 20
-24.0658449258
 10
-11.3613460632
 20
-24.1028359292
 10
-11.3206952697
 20
-24.1357621927
 10
-11.2768296366
 20
-24.1642632812
 10
-11.2302293452
 20
-24.1880272005
 10
-11.1814045151
 20
-24.2067938114
 10
-11.1308896158
 20
-24.2203576798
 10
-11.0792376165
 20
-24.2285703249
 10
-11.027013935
 20
-24.2313418437
  0
LINE
  5
25F
100
AcDbEntity
  8
RACCORDO
100
AcDbLine
 62
250
  6
CONTINUOUS
 10
-11.4497970836
 20
-23.1153842203
 11
-11.4975900466
 21
-5.673189908
  0
LINE
  5
260
100
AcDbEntity
  8
RACCORDO
100
AcDbLine
 62
250
  6
CONTINUOUS
 10
-11.4975900466
 20
-5.673189908
 11
-11.5099105001
 21
-0.1916989781
  0
LINE
  5
261
100
AcDbEntity
  8
RACCORDO
100
AcDbLine
 62
250
  6
CONTINUOUS
 10
-11.5099105001
 20
-0.1916989781
 11
-11.5157961593
 21
3.8245802373
  0
LINE
  5
262
100
AcDbEntity
  8
RACCORDO
100
AcDbLine
 62
250
  6
CONTINUOUS
 10
-11.0100818377
 20
-0.1565356081
 11
-11.0159674969
 21
3.8450338968
  0
LINE
  5
263
100
AcDbEntity
  8
RACCORDO
100
AcDbLine
 62
250
  6
CONTINUOUS
 10
-11.5157961593
 20
3.8245802373
 11
-11.5193037253
 21
9.4157567486
  0
LINE
  5
264
100
AcDbEntity
  8
RACCORDO
100
AcDbLine
 62
250
  6
CONTINUOUS
 10
-11.0159674969
 20
3.8450338968
 11
-11.0194750628
 21
9.4207457183
  0
LINE
  5
265
100
AcDbEntity
  8
RACCORDO
100
AcDbLine
 62
7
  6
CONTINUOUS
 10
-11.5593284991
 20
27.9420742746
 11
-11.5593284991
 21
-23.7639990828
  0
LINE
  5
266
100
AcDbEntity
  8
RACCORDO
100
AcDbLine
 62
250
  6
CONTINUOUS
 10
-11.5193037253
 20
9.4157567486
 11
-11.519706883
 21
27.9024526585
  0
LINE
  5
267
100
AcDbEntity
  8
RACCORDO
100
AcDbLine
 62
250
  6
CONTINUOUS
 10
-11.0194750628
 20
9.4207457183
 11
-11.0198782205
 21
28.402281321
  0
LINE
  5
268
100
AcDbEntity
  8
RACCORDO
100
AcDbLine
 62
250
  6
CONTINUOUS
 10
-10.9499684211
 20
-23.6044826301
 11
-11.0100818377
 21
-0.1565356081
  0
LINE
  5
269
100
AcDbEntity
  8
0
100
AcDbLine
 62
7
  6
CONTINUOUS
 10
-4.7564631579
 20
-12.7109624041
 11
-4.7564631579
 21
-13.1109624041
  0
LINE
  5
26A
100
AcDbEntity
  8
0
100
AcDbLine
 62
7
  6
CONTINUOUS
 10
-4.6564631579
 20
-14.1774053572
 11
-4.6564631579
 21
-14.5774053572
  0
LINE
  5
26B
100
AcDbEntity
  8
0
100
AcDbLine
 62
7
  6
CONTINUOUS
 10
-3.1564631579
 20
-14.5774053572
 11
-3.1564631579
 21
-14.1774053572
  0
LINE
  5
26C
100
AcDbEntity
  8
0
100
AcDbLine
 62
7
  6
CONTINUOUS
 10
-0.110500425
 20
-11.3133680901
 11
-0.110500425
 21
-11.3233680901
  0
LINE
  5
26D
100
AcDbEntity
  8
0
100
AcDbLine
 62
7
  6
CONTINUOUS
 10
-0.110500425
 20
-13.2109624041
 11
-0.110500425
 21
-14.1774053572
  0
LINE
  5
26E
100
AcDbEntity
  8
0
100
AcDbLine
 62
7
  6
CONTINUOUS
 10
0.489499575
 20
-14.0774053572
 11
0.489499575
 21
-12.9109624041
  0
LINE
  5
26F
100
AcDbEntity
  8
0
100
AcDbLine
 62
7
  6
CONTINUOUS
 10
3.1435368421
 20
-11.4233680901
 11
3.1435368421
 21
-14.0774053572
  0
LINE
  5
270
100
AcDbEntity
  8
0
100
AcDbLine
 62
7
  6
CONTINUOUS
 10
3.7435368421
 20
-14.1774053572
 11
3.7435368421
 21
-11.3233680901
  0
LWPOLYLINE
  5
271
100
AcDbEntity
  8
RACCORDO
100
AcDbPolyline
 62
250
  6
CONTINUOUS
 90
10
 70
0
 10
10.0117112068
 20
-24.2098813383
 10
10.0119723202
 20
-24.2139010358
 10
10.0122342182
 20
-24.2175146857
 10
10.0124969009
 20
-24.2207208317
 10
10.0127604368
 20
-24.2235178311
 10
10.0130247573
 20
-24.2259050326
 10
10.0132896565
 20
-24.2278822152
 10
10.0135550655
 20
-24.229448278
 10
10.013821053
 20
-24.2306018039
 10
10.0140876192
 20
-24.2313418437
  0
LINE
  5
272
100
AcDbEntity
  8
RACCORDO
100
AcDbLine
 62
7
  6
CONTINUOUS
 10
10.5464021833
 20
27.9420742746
 11
10.5464021833
 21
-23.7639990828
  0
LINE
  5
273
100
AcDbEntity
  8
RACCORDO
100
AcDbLine
 62
250
  6
CONTINUOUS
 10
10.0069519047
 20
28.402281321
 11
10.0066429896
 21
9.8077920767
  0
LINE
  5
274
100
AcDbEntity
  8
RACCORDO
100
AcDbLine
 62
250
  6
CONTINUOUS
 10
10.5067805672
 20
27.9024526585
 11
10.5064716521
 21
9.803539461
  0
LINE
  5
275
100
AcDbEntity
  8
RACCORDO
100
AcDbLine
 62
250
  6
CONTINUOUS
 10
10.0066429896
 20
9.8077920767
 11
9.9972525066
 21
-0.1040840973
  0
LINE
  5
276
100
AcDbEntity
  8
RACCORDO
100
AcDbLine
 62
250
  6
CONTINUOUS
 10
10.5064716521
 20
9.803539461
 11
10.4970811691
 21
-0.1390752449
  0
LINE
  5
277
100
AcDbEntity
  8
RACCORDO
100
AcDbLine
 62
250
  6
CONTINUOUS
 10
9.9972525066
 20
-0.1040840973
 11
9.9820113751
 21
-6.7015260261
  0
LINE
  5
278
100
AcDbEntity
  8
RACCORDO
100
AcDbLine
 62
250
  6
CONTINUOUS
 10
10.4970811691
 20
-0.1390752449
 11
10.4818400376
 21
-6.7520258691
  0
LINE
  5
279
100
AcDbEntity
  8
RACCORDO
100
AcDbLine
 62
250
  6
CONTINUOUS
 10
9.9820113751
 20
-6.7015260261
 11
9.9370421053
 21
-23.6044826301
  0
LINE
  5
27A
100
AcDbEntity
  8
RACCORDO
100
AcDbLine
 62
250
  6
CONTINUOUS
 10
10.4818400376
 20
-6.7520258691
 11
10.4368707678
 21
-23.1153842203
  0
LWPOLYLINE
  5
27B
100
AcDbEntity
  8
RACCORDO
100
AcDbPolyline
 62
250
  6
CONTINUOUS
 90
16
 70
0
 10
10.5139162817
 20
-23.7315131812
 10
10.5111447688
 20
-23.7837368072
 10
10.5029321398
 20
-23.8353887589
 10
10.4893682954
 20
-23.8859036198
 10
10.4706017146
 20
-23.9347284209
 10
10.4468378286
 20
-23.9813286936
 10
10.4183367726
 20
-24.0251943206
 10
10.3854105382
 20
-24.0658451196
 10
10.3484195576
 20
-24.1028361002
 10
10.3077687586
 20
-24.1357623346
 10
10.2639031316
 20
-24.1642633905
 10
10.2173028589
 20
-24.1880272765
 10
10.1684780578
 20
-24.2067938574
 10
10.1179631969
 20
-24.2203577018
 10
10.0663112452
 20
-24.2285703308
 10
10.0140876192
 20
-24.2313418437
  0
LWPOLYLINE
  5
27C
100
AcDbEntity
  8
RACCORDO
100
AcDbPolyline
 62
250
  6
CONTINUOUS
 90
16
 70
0
 10
10.5115398693
 20
-23.7207829285
 10
10.508537603
 20
-23.771732068
 10
10.5001295856
 20
-23.8221268557
 10
10.4864072999
 20
-23.8714189677
 10
10.4675200512
 20
-23.9190720777
 10
10.4436733423
 20
-23.9645676924
 10
10.4151266382
 20
-24.0074107932
 10
10.3821905422
 20
-24.0471352222
 10
10.3452234172
 20
-24.0833087542
 10
10.3046274862
 20
-24.1155377995
 10
10.2608444557
 20
-24.143471687
 10
10.2143507097
 20
-24.1668064791
 10
10.1656521273
 20
-24.1852882789
 10
10.1152785772
 20
-24.198715993
 10
10.0637781523
 20
-24.2069435198
 10
10.0117112068
 20
-24.2098813383
  0
LWPOLYLINE
  5
27D
100
AcDbEntity
  8
RACCORDO
100
AcDbPolyline
 62
250
  6
CONTINUOUS
 90
16
 70
0
 10
10.4368707678
 20
-23.1153842203
 10
10.4338543836
 20
-23.1664586041
 10
10.4254057201
 20
-23.2169745288
 10
10.4116171567
 20
-23.2663796395
 10
10.3926374435
 20
-23.3141381123
 10
10.3686751927
 20
-23.3597229505
 10
10.340001168
 20
-23.402623971
 10
10.3069392728
 20
-23.4423675127
 10
10.2698491125
 20
-23.4785307861
 10
10.2291265897
 20
-23.5107308973
 10
10.1851622904
 20
-23.5386467635
 10
10.1384833846
 20
-23.5619322953
 10
10.0897633552
 20
-23.5802807171
 10
10.0396064091
 20
-23.5935294542
 10
9.9885143222
 20
-23.601608576
 10
9.9370421053
 20
-23.6044826301
  0
LWPOLYLINE
  5
27E
100
AcDbEntity
  8
RACCORDO
100
AcDbPolyline
 62
250
  6
CONTINUOUS
 90
16
 70
0
 10
10.5067805672
 20
27.9024526585
 10
10.5039922321
 20
27.9548351274
 10
10.4957297604
 20
28.0066405131
 10
10.4820842034
 20
28.0572982671
 10
10.4632034078
 20
28.1062560545
 10
10.4392966866
 20
28.1529686206
 10
10.4106382207
 20
28.1969066395
 10
10.3775561633
 20
28.2375809378
 10
10.3404128952
 20
28.2745580316
 10
10.299607049
 20
28.3074455305
 10
10.2555232601
 20
28.3359192766
 10
10.2087024835
 20
28.3596167357
 10
10.15985567
 20
28.3782146103
 10
10.1096064315
 20
28.3915558487
 10
10.0584522535
 20
28.3995857578
 10
10.0069519045
 20
28.4022813208
  0
LWPOLYLINE
  5
27F
100
AcDbEntity
  8
RACCORDO
100
AcDbPolyline
 62
250
  6
CONTINUOUS
 90
10
 70
0
 10
10.5115398693
 20
-23.7207829285
 10
10.5118009705
 20
-23.7227938502
 10
10.5120628623
 20
-23.7246004324
 10
10.512325545
 20
-23.7262026752
 10
10.5125890912
 20
-23.7276010164
 10
10.5128534281
 20
-23.7287950182
 10
10.5131183375
 20
-23.7297833669
 10
10.5133837465
 20
-23.7305656247
 10
10.5136497279
 20
-23.7311422295
 10
10.5139162817
 20
-23.7315131812
  0
LINE
  5
280
100
AcDbEntity
  8
RACCORDO
100
AcDbLine
 62
250
  6
CONTINUOUS
 10
9.9370421053
 20
-23.6044826301
 11
10.0117112068
 21
-24.2098813383
  0
LINE
  5
281
100
AcDbEntity
  8
RACCORDO
100
AcDbLine
 62
250
  6
CONTINUOUS
 10
10.4368707678
 20
-23.1153842203
 11
10.5115398693
 21
-23.7207829285
  0
LWPOLYLINE
  5
282
100
AcDbEntity
  8
0
100
AcDbPolyline
 62
7
  6
CONTINUOUS
 90
7
 70
0
 43
0.3500000006
 10
19.9743874969
 20
1.4461797638
 10
19.9743874969
 20
-0.053818428
 10
17.8315313187
 20
1.4461797638
 10
17.40295895
 20
1.4461797638
 10
16.9743877144
 20
1.0176085281
 10
16.9743877144
 20
0.3747528076
 10
17.6172445679
 20
-0.053818428
  0
LWPOLYLINE
  5
283
100
AcDbEntity
  8
0
100
AcDbPolyline
 62
7
  6
CONTINUOUS
 90
8
 70
0
 43
0.3500000006
 10
19.9743874969
 20
-2.1966768723
 10
19.9743874969
 20
-1.339533268
 10
19.5458162613
 20
-0.9109631653
 10
18.68867379
 20
-0.9109631653
 10
18.2601025543
 20
-1.339533268
 10
18.2601025543
 20
-2.1966768723
 10
16.9743877144
 20
-2.1966768723
 10
16.9743877144
 20
-0.9109631653
  0
LINE
  5
284
100
AcDbEntity
  8
RACCORDO
100
AcDbLine
 62
250
  6
CONTINUOUS
 10
10.0140876192
 20
-24.2313418437
 11
10.0465735208
 21
-24.2638277453
  0
LINE
  5
285
100
AcDbEntity
  8
RACCORDO
100
AcDbLine
 62
250
  6
CONTINUOUS
 10
10.5139162817
 20
-23.7315131812
 11
10.5464021833
 21
-23.7639990828
  0
LWPOLYLINE
  5
286
100
AcDbEntity
  8
RACCORDO
100
AcDbPolyline
 62
250
  6
CONTINUOUS
 90
16
 70
0
 10
10.4368707678
 20
-23.1153842203
 10
10.4328681358
 20
-23.109996356
 10
10.4235857375
 20
-23.1046658752
 10
10.4091224484
 20
-23.0994495386
 10
10.3896304133
 20
-23.0944024633
 10
10.3653182852
 20
-23.0895788573
 10
10.3364530775
 20
-23.0850312313
 10
10.3033513443
 20
-23.0808084324
 10
10.2663638974
 20
-23.0769543203
 10
10.22587671
 20
-23.0735087854
 10
10.1822683698
 20
-23.0705052236
 10
10.1360485313
 20
-23.0679798329
 10
10.0878685708
 20
-23.0659651668
 10
10.0383108841
 20
-23.0644788712
 10
9.9878574856
 20
-23.0635289336
 10
9.9370421053
 20
-23.0631199887
  0
LINE
  5
287
100
AcDbEntity
  8
RACCORDO
100
AcDbLine
 62
7
  6
CONTINUOUS
 10
-11.0594998366
 20
-24.2638277453
 11
10.0465735208
 21
-24.2638277453
  0
LINE
  5
288
100
AcDbEntity
  8
RACCORDO
100
AcDbLine
 62
250
  6
CONTINUOUS
 10
10.0140876192
 20
-24.2313418437
 11
-11.027013935
 21
-24.2313418437
  0
LINE
  5
289
100
AcDbEntity
  8
RACCORDO
100
AcDbLine
 62
250
  6
CONTINUOUS
 10
10.0117112068
 20
-24.2098813383
 11
-11.0246375226
 21
-24.2098813383
  0
LINE
  5
28A
100
AcDbEntity
  8
RACCORDO
100
AcDbLine
 62
250
  6
CONTINUOUS
 10
-10.9499684211
 20
-23.6044826301
 11
9.9370421053
 21
-23.6044826301
  0
LINE
  5
28B
100
AcDbEntity
  8
RACCORDO
100
AcDbLine
 62
250
  6
CONTINUOUS
 10
-10.9499684211
 20
-23.0631199887
 11
9.9370421053
 21
-23.0631199887
  0
LWPOLYLINE
  5
28C
100
AcDbEntity
  8
RACCORDO
100
AcDbPolyline
 62
250
  6
CONTINUOUS
 90
16
 70
0
 10
10.4779290724
 20
-8.1973041706
 10
10.4739427512
 20
-8.1919294789
 10
10.4647023199
 20
-8.1866117391
 10
10.4503056933
 20
-8.1814072999
 10
10.4309054227
 20
-8.1763713093
 10
10.4067070799
 20
-8.1715571301
 10
10.3779670787
 20
-8.1670157752
 10
10.3449899574
 20
-8.1627953661
 10
10.3081251527
 20
-8.1589406238
 10
10.2677632964
 20
-8.1554923944
 10
10.2243320759
 20
-8.1524872164
 10
10.178291703
 20
-8.1499569338
 10
10.1301300366
 20
-8.1479283582
 10
10.0803574139
 20
-8.1464229851
 10
10.0295012421
 20
-8.1454567659
 10
9.9781004099
 20
-8.145039939
  0
LINE
  5
28D
100
AcDbEntity
  8
0
100
AcDbLine
 62
7
  6
CONTINUOUS
 10
-4.5564631579
 20
-14.6774053572
 11
-3.2564631579
 21
-14.6774053572
  0
LINE
  5
28E
100
AcDbEntity
  8
0
100
AcDbLine
 62
7
  6
CONTINUOUS
 10
0.389499575
 20
-14.6774053572
 11
3.2435368421
 21
-14.6774053572
  0
LINE
  5
28F
100
AcDbEntity
  8
0
100
AcDbLine
 62
7
  6
CONTINUOUS
 10
3.1435368421
 20
-14.0774053572
 11
0.489499575
 21
-14.0774053572
  0
LINE
  5
290
100
AcDbEntity
  8
0
100
AcDbLine
 62
7
  6
CONTINUOUS
 10
-3.2564631579
 20
-14.0774053572
 11
-4.5564631579
 21
-14.0774053572
  0
LWPOLYLINE
  5
291
100
AcDbEntity
  8
0
100
AcDbPolyline
 62
7
  6
CONTINUOUS
 90
10
 70
0
 43
0.3500000006
 10
0.7792511215
 20
39.8698885803
 10
0.8506796844
 20
39.7270307465
 10
0.8506796844
 20
39.6556040955
 10
0.7078225586
 20
39.5127462616
 10
0.6363939958
 20
39.5127462616
 10
0.5649653975
 20
39.5841729126
 10
0.5649653975
 20
39.6556040955
 10
0.6363939958
 20
39.7984619293
 10
0.7078225586
 20
39.8698885803
 10
0.7792511215
 20
39.8698885803
  0
LINE
  5
292
100
AcDbEntity
  8
0
100
AcDbLine
 62
7
  6
CONTINUOUS
 10
-4.6564631579
 20
-13.2109624041
 11
-0.110500425
 21
-13.2109624041
  0
LINE
  5
293
100
AcDbEntity
  8
0
100
AcDbLine
 62
7
  6
CONTINUOUS
 10
0.189499575
 20
-12.6109624041
 11
-4.6564631579
 21
-12.6109624041
  0
LINE
  5
294
100
AcDbEntity
  8
0
100
AcDbLine
 62
7
  6
CONTINUOUS
 10
-0.010500425
 20
-11.4233680901
 11
3.1435368421
 21
-11.4233680901
  0
LINE
  5
295
100
AcDbEntity
  8
0
100
AcDbLine
 62
7
  6
CONTINUOUS
 10
3.2435368421
 20
-10.8233680901
 11
0.379499575
 21
-10.8233680901
  0
LINE
  5
296
100
AcDbEntity
  8
RACCORDO
100
AcDbLine
 62
250
  6
CONTINUOUS
 10
-10.9910267257
 20
-8.145039939
 11
9.9781004099
 21
-8.145039939
  0
LINE
  5
297
100
AcDbEntity
  8
RACCORDO
100
AcDbLine
 62
250
  6
CONTINUOUS
 10
-11.519706883
 20
27.9024526585
 11
-11.5593284991
 21
27.9420742746
  0
LINE
  5
298
100
AcDbEntity
  8
RACCORDO
100
AcDbLine
 62
250
  6
CONTINUOUS
 10
-11.0198782205
 20
28.402281321
 11
-11.0594998366
 21
28.4419029371
  0
LWPOLYLINE
  5
299
100
AcDbEntity
  8
0
100
AcDbPolyline
 62
7
  6
CONTINUOUS
 90
4
 70
0
 43
0.3500000006
 10
17.6172445679
 20
4.0176094437
 10
16.9743877144
 20
4.0176094437
 10
16.9743877144
 20
5.5176099014
 10
19.9743874969
 20
4.6604651642
  0
LWPOLYLINE
  5
29A
100
AcDbEntity
  8
0
100
AcDbPolyline
 62
7
  6
CONTINUOUS
 90
3
 70
0
 43
0.3500000006
 10
19.6886740952
 20
3.0176091385
 10
19.90295858
 20
2.9461802216
 10
20.1886742477
 20
2.8033223877
  0
LINE
  5
29B
100
AcDbEntity
  8
RACCORDO
100
AcDbLine
 62
250
  6
CONTINUOUS
 10
10.5067805672
 20
12.8261802908
 11
-11.519706883
 21
12.8261802908
  0
LINE
  5
29C
100
AcDbEntity
  8
RACCORDO
100
AcDbLine
 62
250
  6
CONTINUOUS
 10
10.5067805672
 20
27.9024526585
 11
-11.519706883
 21
27.9024526585
  0
LINE
  5
29D
100
AcDbEntity
  8
RACCORDO
100
AcDbLine
 62
250
  6
CONTINUOUS
 10
10.0069519047
 20
28.402281321
 11
-11.0198782205
 21
28.402281321
  0
LINE
  5
29E
100
AcDbEntity
  8
RACCORDO
100
AcDbLine
 62
7
  6
CONTINUOUS
 10
-11.0594998366
 20
28.4419029371
 11
10.0465735208
 21
28.4419029371
  0
LWPOLYLINE
  5
29F
100
AcDbEntity
  8
0
100
AcDbPolyline
 62
7
  6
CONTINUOUS
 90
7
 70
0
 43
0.3500000006
 10
-0.7207488406
 20
39.3698884277
 10
-2.2207488027
 20
39.3698884277
 10
-0.7207488406
 20
41.5127468719
 10
-0.7207488406
 20
41.9413158417
 10
-1.1493202887
 20
42.3698893433
 10
-1.7921774254
 20
42.3698893433
 10
-2.2207488027
 20
41.7270313568
  0
LWPOLYLINE
  5
2A0
100
AcDbEntity
  8
0
100
AcDbPolyline
 62
7
  6
CONTINUOUS
 90
7
 70
0
 43
0.3500000006
 10
-3.0778916988
 20
39.3698884277
 10
-4.5778915901
 20
39.3698884277
 10
-3.0778916988
 20
41.5127468719
 10
-3.0778916988
 20
41.9413158417
 10
-3.5064632177
 20
42.3698893433
 10
-4.1493203545
 20
42.3698893433
 10
-4.5778915901
 20
41.7270313568
  0
LWPOLYLINE
  5
2A1
100
AcDbEntity
  8
RACCORDO
100
AcDbPolyline
 62
7
  6
CONTINUOUS
 90
10
 70
0
 10
-28.7016952393
 20
22.5296755634
 10
-28.6752580575
 20
22.5495232791
 10
-28.6499083856
 20
22.5666684957
 10
-28.6263946881
 20
22.5813058555
 10
-28.6054696218
 20
22.5936255609
 10
-28.5875663741
 20
22.6040312752
 10
-28.5729362611
 20
22.6130425353
 10
-28.5620212358
 20
22.6210440105
 10
-28.5552873162
 20
22.6283619113
 10
-28.5530042196
 20
22.6354246559
  0
LINE
  5
2A2
100
AcDbEntity
  8
RACCORDO
100
AcDbLine
 62
250
  6
CONTINUOUS
 10
-28.9234924858
 20
23.5074846286
 11
-28.9509218013
 21
23.4799498806
  0
LINE
  5
2A3
100
AcDbEntity
  8
RACCORDO
100
AcDbLine
 62
250
  6
CONTINUOUS
 10
-28.7120499351
 20
23.292318032
 11
-28.7394799042
 21
23.2647826608
  0
LINE
  5
2A4
100
AcDbEntity
  8
RACCORDO
100
AcDbLine
 62
250
  6
CONTINUOUS
 10
-28.9509218013
 20
23.4799498806
 11
-29.0378046236
 21
23.3937589837
  0
LINE
  5
2A5
100
AcDbEntity
  8
RACCORDO
100
AcDbLine
 62
250
  6
CONTINUOUS
 10
-28.7394799042
 20
23.2647826608
 11
-28.8263630244
 21
23.178591461
  0
LINE
  5
2A6
100
AcDbEntity
  8
RACCORDO
100
AcDbLine
 62
250
  6
CONTINUOUS
 10
-29.0378046236
 20
23.3937589837
 11
-29.1191792936
 21
23.3135919102
  0
LINE
  5
2A7
100
AcDbEntity
  8
RACCORDO
100
AcDbLine
 62
250
  6
CONTINUOUS
 10
-28.8263630244
 20
23.178591461
 11
-28.9077361691
 21
23.0984258235
  0
LWPOLYLINE
  5
2A8
100
AcDbEntity
  8
RACCORDO
100
AcDbPolyline
 62
7
  6
CONTINUOUS
 90
3
 70
0
 10
-30.2111724071
 20
4.8958512326
 10
-30.2507343869
 20
4.874224303
 10
-30.2530042196
 20
4.8729677629
  0
LINE
  5
2A9
100
AcDbEntity
  8
RACCORDO
100
AcDbLine
 62
250
  6
CONTINUOUS
 10
-30.0966704493
 20
4.8455928484
 11
-30.1762260175
 21
4.8025821827
  0
LINE
  5
2AA
100
AcDbEntity
  8
RACCORDO
100
AcDbLine
 62
250
  6
CONTINUOUS
 10
-29.7288559412
 20
5.0413901657
 11
-29.7927553988
 21
5.0068474428
  0
LINE
  5
2AB
100
AcDbEntity
  8
RACCORDO
100
AcDbLine
 62
7
  6
CONTINUOUS
 10
-30.1352888083
 20
4.936727513
 11
-30.2111724071
 21
4.8958512326
  0
LINE
  5
2AC
100
AcDbEntity
  8
RACCORDO
100
AcDbLine
 62
250
  6
CONTINUOUS
 10
-29.7927553988
 20
5.0068474428
 11
-29.8869703198
 21
4.9566756831
  0
LINE
  5
2AD
100
AcDbEntity
  8
RACCORDO
100
AcDbLine
 62
7
  6
CONTINUOUS
 10
-30.1352888083
 20
4.936727513
 11
-29.9977445388
 21
5.0096514959
  0
LINE
  5
2AE
100
AcDbEntity
  8
RACCORDO
100
AcDbLine
 62
250
  6
CONTINUOUS
 10
-29.8869703198
 20
4.9566756831
 11
-30.0966704493
 21
4.8455928484
  0
LINE
  5
2AF
100
AcDbEntity
  8
DRAFT
100
AcDbLine
 62
7
  6
CONTINUOUS
 10
-29.3180087542
 20
7.8890375959
 11
-28.9720151164
 21
8.0699482296
  0
LINE
  5
2B0
100
AcDbEntity
  8
RACCORDO
100
AcDbLine
 62
250
  6
CONTINUOUS
 10
-30.0395207801
 20
6.5443110165
 11
-30.2530042196
 21
6.4344622881
  0
LWPOLYLINE
  5
2B1
100
AcDbEntity
  8
IMPORT_IGES
100
AcDbPolyline
 62
7
  6
CONTINUOUS
 90
4
 70
0
 10
-29.8088630514
 20
8.0302825364
 10
-29.9464937932
 20
7.961034032
 10
-30.1139756403
 20
7.8746967391
 10
-30.2530042196
 20
7.8021183834
  0
LWPOLYLINE
  5
2B2
100
AcDbEntity
  8
RACCORDO
100
AcDbPolyline
 62
250
  6
CONTINUOUS
 90
5
 70
0
 10
-29.6124486899
 20
5.7051491207
 10
-29.6628682596
 20
5.680147536
 10
-29.7128421682
 20
5.6556388295
 10
-29.7623704156
 20
5.6316230012
 10
-29.8109943621
 20
5.6083902218
  0
LINE
  5
2B3
100
AcDbEntity
  8
RACCORDO
100
AcDbLine
 62
7
  6
CONTINUOUS
 10
-30.2440562943
 20
5.5124661363
 11
-30.2530042196
 21
5.508063353
  0
LWPOLYLINE
  5
2B4
100
AcDbEntity
  8
RACCORDO
100
AcDbPolyline
 62
250
  6
CONTINUOUS
 90
3
 70
0
 10
-30.1704804392
 20
5.4385146122
 10
-30.2250157093
 20
5.411952566
 10
-30.2530042196
 20
5.3980608811
  0
LINE
  5
2B5
100
AcDbEntity
  8
RACCORDO
100
AcDbLine
 62
7
  6
CONTINUOUS
 10
-30.2457462489
 20
5.5116413699
 11
-30.1620015352
 21
5.5520441099
  0
LINE
  5
2B6
100
AcDbEntity
  8
RACCORDO
100
AcDbLine
 62
250
  6
CONTINUOUS
 10
-30.0625642888
 20
5.4900438692
 11
-30.1704804392
 21
5.4385146122
  0
LINE
  5
2B7
100
AcDbEntity
  8
RACCORDO
100
AcDbLine
 62
7
  6
CONTINUOUS
 10
-30.0908738276
 20
5.5857845987
 11
-30.1921806294
 21
5.5375854739
  0
LINE
  5
2B8
100
AcDbEntity
  8
RACCORDO
100
AcDbLine
 62
7
  6
CONTINUOUS
 10
-29.9930045385
 20
5.6317707241
 11
-30.1202364355
 21
5.5719042717
  0
LINE
  5
2B9
100
AcDbEntity
  8
RACCORDO
100
AcDbLine
 62
250
  6
CONTINUOUS
 10
-29.8109943621
 20
5.6083902218
 11
-30.0625642888
 21
5.4900438692
  0
LWPOLYLINE
  5
2BA
100
AcDbEntity
  8
RACCORDO
100
AcDbPolyline
 62
250
  6
CONTINUOUS
 90
7
 70
0
 10
-29.5430042227
 20
6.7880367849
 10
-29.6082534094
 20
6.7575211787
 10
-29.6754304525
 20
6.7255435054
 10
-29.7445353521
 20
6.6921037651
 10
-29.8157763894
 20
6.6570483973
 10
-29.8889452831
 20
6.6205309625
 10
-30.0395207801
 20
6.5443110165
  0
LWPOLYLINE
  5
2BB
100
AcDbEntity
  8
RACCORDO
100
AcDbPolyline
 62
250
  6
CONTINUOUS
 90
9
 70
0
 10
-29.5430042243
 20
6.8868183741
 10
-29.6076793143
 20
6.8568189747
 10
-29.674211
 20
6.8255006075
 10
-29.7425992814
 20
6.7927986888
 10
-29.8129742487
 20
6.7585843117
 10
-29.8852058117
 20
6.7229056841
 10
-29.9589036995
 20
6.6860063894
 10
-30.034419908
 20
6.6477797003
 10
-30.2530042196
 20
6.5356710263
  0
LWPOLYLINE
  5
2BC
100
AcDbEntity
  8
RACCORDO
100
AcDbPolyline
 62
250
  6
CONTINUOUS
 90
3
 70
0
 10
-30.1779960926
 20
6.0412721724
 10
-30.2295617831
 20
6.0186488081
 10
-30.2530042196
 20
6.0081787184
  0
LWPOLYLINE
  5
2BD
100
AcDbEntity
  8
RACCORDO
100
AcDbPolyline
 62
7
  6
CONTINUOUS
 90
3
 70
0
 10
-30.1854837911
 20
6.1456305892
 10
-30.2355154691
 20
6.1238705419
 10
-30.2530042196
 20
6.1161479187
  0
LINE
  5
2BE
100
AcDbEntity
  8
RACCORDO
100
AcDbLine
 62
250
  6
CONTINUOUS
 10
-30.0757432489
 20
6.0852812651
 11
-30.1779960926
 21
6.0412721724
  0
LINE
  5
2BF
100
AcDbEntity
  8
RACCORDO
100
AcDbLine
 62
7
  6
CONTINUOUS
 10
-30.0876785039
 20
6.1874705758
 11
-30.1854837911
 21
6.1456305892
  0
LINE
  5
2C0
100
AcDbEntity
  8
RACCORDO
100
AcDbLine
 62
7
  6
CONTINUOUS
 10
-29.9930035078
 20
6.2274978463
 11
-30.0876785039
 21
6.1874705758
  0
LINE
  5
2C1
100
AcDbEntity
  8
RACCORDO
100
AcDbLine
 62
250
  6
CONTINUOUS
 10
-29.7915340251
 20
6.2057652749
 11
-30.0757432489
 21
6.0852812651
  0
LINE
  5
2C2
100
AcDbEntity
  8
RACCORDO
100
AcDbLine
 62
7
  6
CONTINUOUS
 10
-30.2502680374
 20
6.7057253677
 11
-30.2530042196
 21
6.704610002
  0
LINE
  5
2C3
100
AcDbEntity
  8
RACCORDO
100
AcDbLine
 62
250
  6
CONTINUOUS
 10
-29.6413582816
 20
6.9351078844
 11
-29.7078659597
 21
6.9079572579
  0
LINE
  5
2C4
100
AcDbEntity
  8
RACCORDO
100
AcDbLine
 62
250
  6
CONTINUOUS
 10
-29.7078659597
 20
6.9079572579
 11
-29.771632359
 21
6.8824278049
  0
LINE
  5
2C5
100
AcDbEntity
  8
RACCORDO
100
AcDbLine
 62
7
  6
CONTINUOUS
 10
-29.7184285977
 20
6.9128602282
 11
-29.8183210268
 21
6.873265252
  0
LINE
  5
2C6
100
AcDbEntity
  8
RACCORDO
100
AcDbLine
 62
7
  6
CONTINUOUS
 10
-30.2502680374
 20
6.7057253677
 11
-30.1358437862
 21
6.7507882399
  0
LINE
  5
2C7
100
AcDbEntity
  8
RACCORDO
100
AcDbLine
 62
250
  6
CONTINUOUS
 10
-30.1654808069
 20
6.7303108176
 11
-30.2530042196
 21
6.6958179804
  0
LWPOLYLINE
  5
2C8
100
AcDbEntity
  8
RACCORDO
100
AcDbPolyline
 62
7
  6
CONTINUOUS
 90
10
 70
0
 10
-29.7184285775
 20
6.9128601781
 10
-29.7111409112
 20
6.9156988709
 10
-29.7035549429
 20
6.9184624951
 10
-29.6956624365
 20
6.9211445748
 10
-29.6874557024
 20
6.9237408725
 10
-29.6789263977
 20
6.9262447428
 10
-29.6700630515
 20
6.9286428226
 10
-29.6608538115
 20
6.9309233974
 10
-29.6512890621
 20
6.9330808981
 10
-29.6413584641
 20
6.9351082655
  0
LINE
  5
2C9
100
AcDbEntity
  8
RACCORDO
100
AcDbLine
 62
250
  6
CONTINUOUS
 10
-29.771632359
 20
6.8824278049
 11
-29.865614947
 21
6.8456811911
  0
LINE
  5
2CA
100
AcDbEntity
  8
RACCORDO
100
AcDbLine
 62
7
  6
CONTINUOUS
 10
-29.8183210268
 20
6.873265252
 11
-30.1379460992
 21
6.7499710301
  0
LINE
  5
2CB
100
AcDbEntity
  8
RACCORDO
100
AcDbLine
 62
250
  6
CONTINUOUS
 10
-29.865614947
 20
6.8456811911
 11
-30.1654808069
 21
6.7303108176
  0
LINE
  5
2CC
100
AcDbEntity
  8
RACCORDO
100
AcDbLine
 62
7
  6
CONTINUOUS
 10
-30.2245941469
 20
2.6515743983
 11
-30.2321840807
 21
2.6487521994
  0
LINE
  5
2CD
100
AcDbEntity
  8
RACCORDO
100
AcDbLine
 62
7
  6
CONTINUOUS
 10
-30.1314097175
 20
2.685413466
 11
-30.2245941469
 21
2.6515743983
  0
LWPOLYLINE
  5
2CE
100
AcDbEntity
  8
RACCORDO
100
AcDbPolyline
 62
7
  6
CONTINUOUS
 90
4
 70
0
 10
-30.2321840807
 20
2.6487521994
 10
-30.2453059339
 20
2.6439806454
 10
-30.2503395935
 20
2.6419966144
 10
-30.2530042196
 20
2.6408358939
  0
LINE
  5
2CF
100
AcDbEntity
  8
RACCORDO
100
AcDbLine
 62
7
  6
CONTINUOUS
 10
-30.0167421656
 20
2.7267660053
 11
-30.1314097175
 21
2.685413466
  0
LINE
  5
2D0
100
AcDbEntity
  8
RACCORDO
100
AcDbLine
 62
7
  6
CONTINUOUS
 10
-30.222369613
 20
3.4744126307
 11
-30.2304884772
 21
3.4720724523
  0
LWPOLYLINE
  5
2D1
100
AcDbEntity
  8
RACCORDO
100
AcDbPolyline
 62
250
  6
CONTINUOUS
 90
4
 70
0
 10
-28.9078221195
 20
23.5238646895
 10
-28.9094710322
 20
23.5219098242
 10
-28.9147242121
 20
23.5164187332
 10
-28.9234924858
 20
23.5074846286
  0
LWPOLYLINE
  5
2D2
100
AcDbEntity
  8
RACCORDO
100
AcDbPolyline
 62
250
  6
CONTINUOUS
 90
4
 70
0
 10
-28.696378995
 20
23.3086986028
 10
-28.6980279922
 20
23.3067436759
 10
-28.7032813769
 20
23.3012524017
 10
-28.7120499351
 20
23.292318032
  0
LWPOLYLINE
  5
2D3
100
AcDbEntity
  8
RACCORDO
100
AcDbPolyline
 62
250
  6
CONTINUOUS
 90
3
 70
0
 10
-29.9866186366
 20
4.2543345416
 10
-30.0772500399
 20
4.195039958
 10
-30.1219839925
 20
4.1660778852
  0
LINE
  5
2D4
100
AcDbEntity
  8
RACCORDO
100
AcDbLine
 62
250
  6
CONTINUOUS
 10
-30.1219839925
 20
4.1660778852
 11
-30.2530042196
 21
4.0824780357
  0
LWPOLYLINE
  5
2D5
100
AcDbEntity
  8
RACCORDO
100
AcDbPolyline
 62
250
  6
CONTINUOUS
 90
3
 70
0
 10
-29.6263074232
 20
5.0982040657
 10
-29.695467671
 20
5.0597262366
 10
-29.7288559412
 20
5.0413901657
  0
LWPOLYLINE
  5
2D6
100
AcDbEntity
  8
RACCORDO
100
AcDbPolyline
 62
250
  6
CONTINUOUS
 90
3
 70
0
 10
-30.1762260175
 20
4.8025821827
 10
-30.2177069335
 20
4.7798492842
 10
-30.2530042196
 20
4.760230287
  0
LWPOLYLINE
  5
2D7
100
AcDbEntity
  8
0
100
AcDbPolyline
 62
7
  6
CONTINUOUS
 90
3
 70
0
 43
0.3500000006
 10
-45.7876646576
 20
39.6556040955
 10
-45.8590958405
 20
39.4413150787
 10
-46.0019536743
 20
39.1556039429
  0
LINE
  5
2D8
100
AcDbEntity
  8
RACCORDO
100
AcDbLine
 62
250
  6
CONTINUOUS
 10
-30.0167421656
 20
2.7267660053
 11
-30.2530042196
 21
2.5101658333
  0
LINE
  5
2D9
100
AcDbEntity
  8
RACCORDO
100
AcDbLine
 62
250
  6
CONTINUOUS
 10
-29.9995386297
 20
3.5368765509
 11
-30.2530042196
 21
3.3442541927
  0
LINE
  5
2DA
100
AcDbEntity
  8
DRAFT
100
AcDbLine
 62
7
  6
CONTINUOUS
 10
-30.2294376075
 20
-4.132395792
 11
-29.7080042196
 21
-3.6109624041
  0
LINE
  5
2DB
100
AcDbEntity
  8
0
100
AcDbLine
 62
7
  6
CONTINUOUS
 10
-30.2294376075
 20
-6.2328523002
 11
-29.1957258782
 21
-4.0460422987
  0
LINE
  5
2DC
100
AcDbEntity
  8
IMPORT_IGES
100
AcDbLine
 62
7
  6
CONTINUOUS
 10
-29.1957258782
 20
-4.0460422987
 11
-29.0080042196
 21
-3.6489184306
  0
LWPOLYLINE
  5
2DD
100
AcDbEntity
  8
0
100
AcDbPolyline
 62
7
  6
CONTINUOUS
 90
2
 70
0
 43
0.3500000006
 10
-47.8590964508
 20
39.3698884277
 10
-47.8590964508
 20
40.8698888855
  0
LWPOLYLINE
  5
2DE
100
AcDbEntity
  8
0
100
AcDbPolyline
 62
7
  6
CONTINUOUS
 90
4
 70
0
 43
0.3500000006
 10
-46.4876467438
 20
49.5765760345
 10
-46.4876467438
 20
50.4337185059
 10
-46.0590732422
 20
50.8622920074
 10
-45.4162152557
 20
50.8622920074
  0
LWPOLYLINE
  5
2DF
100
AcDbEntity
  8
0
100
AcDbPolyline
 62
7
  6
CONTINUOUS
 90
4
 70
0
 43
0.3500000006
 10
-44.7876688843
 20
41.7270313568
 10
-44.7876688843
 20
42.3698893433
 10
-43.2876684265
 20
42.3698893433
 10
-44.1448108978
 20
39.3698884277
  0
LWPOLYLINE
  5
2E0
100
AcDbEntity
  8
RACCORDO
100
AcDbPolyline
 62
250
  6
CONTINUOUS
 90
5
 70
0
 10
-29.0765666073
 20
25.3011561859
 10
-29.0747595208
 20
25.3125650329
 10
-29.0735115153
 20
25.3208678012
 10
-29.0728439035
 20
25.3259227019
 10
-29.0727680863
 20
25.3276434107
  0
LINE
  5
2E1
100
AcDbEntity
  8
RACCORDO
100
AcDbLine
 62
250
  6
CONTINUOUS
 10
-29.081725562
 20
25.2698493034
 11
-29.0765666073
 21
25.3011561859
  0
LINE
  5
2E2
100
AcDbEntity
  8
RACCORDO
100
AcDbLine
 62
250
  6
CONTINUOUS
 10
-29.0926077116
 20
25.205986926
 11
-29.081725562
 21
25.2698493034
  0
LINE
  5
2E3
100
AcDbEntity
  8
RACCORDO
100
AcDbLine
 62
250
  6
CONTINUOUS
 10
-29.1057524148
 20
25.1306818601
 11
-29.0926077116
 21
25.205986926
  0
LWPOLYLINE
  5
2E4
100
AcDbEntity
  8
DRAFT
100
AcDbPolyline
 62
7
  6
CONTINUOUS
 90
25
 70
0
 10
-28.4530042196
 20
8.1698144705
 10
-28.4538681098
 20
8.1649738252
 10
-28.4564506218
 20
8.1601001424
 10
-28.4607336421
 20
8.155193422
 10
-28.4666923177
 20
8.1502340527
 10
-28.4742977686
 20
8.1452416459
 10
-28.4835197262
 20
8.1402750362
 10
-28.4943205779
 20
8.1353329187
 10
-28.5066571608
 20
8.1304165982
 10
-28.5204872141
 20
8.1255888237
 10
-28.5357594658
 20
8.1208495363
 10
-28.5524186189
 20
8.1161987948
 10
-28.5704130851
 20
8.1116995246
 10
-28.5896780779
 20
8.1073530751
 10
-28.6101491273
 20
8.1031580968
 10
-28.6317736785
 20
8.0991734665
 10
-28.6544805167
 20
8.0954008823
 10
-28.6781941778
 20
8.0918386461
 10
-28.7028552187
 20
8.0885405412
 10
-28.7283859973
 20
8.0855091909
 10
-28.7547007685
 20
8.082741972
 10
-28.781726165
 20
8.0802847978
 10
-28.8093780641
 20
8.0781529727
 10
-28.8375607125
 20
8.0763311923
 10
-28.8661801307
 20
8.0748194565
  0
LWPOLYLINE
  5
2E5
100
AcDbEntity
  8
RACCORDO
100
AcDbPolyline
 62
250
  6
CONTINUOUS
 90
9
 70
0
 10
-34.5018593458
 20
-23.4423675127
 10
-34.5085658946
 20
-23.4785307861
 10
-34.5143359116
 20
-23.5107308973
 10
-34.5191114558
 20
-23.5386467635
 10
-34.5228328539
 20
-23.5619322953
 10
-34.5254526103
 20
-23.5802807171
 10
-34.5269520307
 20
-23.5935294542
 10
-34.5273294077
 20
-23.601608576
 10
-34.5265917478
 20
-23.6044826301
  0
LINE
  5
2E6
100
AcDbEntity
  8
RACCORDO
100
AcDbLine
 62
250
  6
CONTINUOUS
 10
-34.4859297725
 20
-23.3597229505
 11
-34.5018593458
 21
-23.4423675127
  0
LINE
  5
2E7
100
AcDbEntity
  8
RACCORDO
100
AcDbLine
 62
250
  6
CONTINUOUS
 10
-34.4672366214
 20
-23.2663796395
 11
-34.4859297725
 21
-23.3597229505
  0
LWPOLYLINE
  5
2E8
100
AcDbEntity
  8
RACCORDO
100
AcDbPolyline
 62
250
  6
CONTINUOUS
 90
3
 70
0
 10
-34.4358402224
 20
-23.1153842203
 10
-34.4466047875
 20
-23.1664586041
 10
-34.4672366214
 20
-23.2663796395
  0
LINE
  5
2E9
100
AcDbEntity
  8
RACCORDO
100
AcDbLine
 62
7
  6
CONTINUOUS
 10
-32.3383150406
 20
5.6781803173
 11
-32.3129440286
 21
6.6573563466
  0
LINE
  5
2EA
100
AcDbEntity
  8
RACCORDO
100
AcDbLine
 62
250
  6
CONTINUOUS
 10
-31.8511465205
 20
5.6799258672
 11
-31.8793928935
 21
4.7829598865
  0
LINE
  5
2EB
100
AcDbEntity
  8
RACCORDO
100
AcDbLine
 62
7
  6
CONTINUOUS
 10
-32.3678769441
 20
4.7466853485
 11
-32.3378520492
 21
5.6942769895
  0
LINE
  5
2EC
100
AcDbEntity
  8
RACCORDO
100
AcDbLine
 62
250
  6
CONTINUOUS
 10
-31.8793928935
 20
4.7829598865
 11
-31.9130699435
 21
3.8841486386
  0
LINE
  5
2ED
100
AcDbEntity
  8
RACCORDO
100
AcDbLine
 62
7
  6
CONTINUOUS
 10
-32.4019581378
 20
3.8450338968
 11
-32.3660292762
 21
4.8001437936
  0
LINE
  5
2EE
100
AcDbEntity
  8
RACCORDO
100
AcDbLine
 62
7
  6
CONTINUOUS
 10
-32.3995410164
 20
3.9043907184
 11
-32.4387443259
 21
3.0085060024
  0
LINE
  5
2EF
100
AcDbEntity
  8
RACCORDO
100
AcDbLine
 62
250
  6
CONTINUOUS
 10
-31.9130699435
 20
3.8841486386
 11
-31.9523860493
 21
2.9849912606
  0
LINE
  5
2F0
100
AcDbEntity
  8
RACCORDO
100
AcDbLine
 62
7
  6
CONTINUOUS
 10
-32.4627164833
 20
2.5188794542
 11
-32.4207477371
 21
3.4031703832
  0
LINE
  5
2F1
100
AcDbEntity
  8
RACCORDO
100
AcDbLine
 62
250
  6
CONTINUOUS
 10
-31.9523860493
 20
2.9849912606
 11
-31.997401006
 21
2.0947074503
  0
LINE
  5
2F2
100
AcDbEntity
  8
RACCORDO
100
AcDbLine
 62
7
  6
CONTINUOUS
 10
-32.460416356
 20
2.564262282
 11
-32.5082094587
 21
1.6790097421
  0
LINE
  5
2F3
100
AcDbEntity
  8
RACCORDO
100
AcDbLine
 62
250
  6
CONTINUOUS
 10
-31.997401006
 20
2.0947074503
 11
-32.0482591888
 21
1.20731318
  0
LINE
  5
2F4
100
AcDbEntity
  8
RACCORDO
100
AcDbLine
 62
7
  6
CONTINUOUS
 10
-32.5374455432
 20
1.1858519365
 11
-32.4859924789
 21
2.0764571144
  0
LINE
  5
2F5
100
AcDbEntity
  8
RACCORDO
100
AcDbLine
 62
7
  6
CONTINUOUS
 10
-32.5342914846
 20
1.2376194052
 11
-32.5911200211
 21
0.3489034267
  0
LINE
  5
2F6
100
AcDbEntity
  8
RACCORDO
100
AcDbLine
 62
250
  6
CONTINUOUS
 10
-32.0482591888
 20
1.20731318
 11
-32.1053296866
 21
0.3154380078
  0
LINE
  5
2F7
100
AcDbEntity
  8
RACCORDO
100
AcDbLine
 62
7
  6
CONTINUOUS
 10
-32.6258950534
 20
-0.1565356081
 11
-32.5655679468
 21
0.7376662334
  0
LINE
  5
2F8
100
AcDbEntity
  8
RACCORDO
100
AcDbLine
 62
250
  6
CONTINUOUS
 10
-32.1053296866
 20
0.3154380078
 11
-32.1694642458
 21
-0.5993458891
  0
LINE
  5
2F9
100
AcDbEntity
  8
RACCORDO
100
AcDbLine
 62
7
  6
CONTINUOUS
 10
-32.6913561366
 20
-1.0485971417
 11
-32.6222064036
 21
-0.1040840973
  0
LINE
  5
2FA
100
AcDbEntity
  8
RACCORDO
100
AcDbLine
 62
250
  6
CONTINUOUS
 10
-32.1694642458
 20
-0.5993458891
 11
-32.2422309542
 21
-1.5548963534
  0
LINE
  5
2FB
100
AcDbEntity
  8
RACCORDO
100
AcDbLine
 62
7
  6
CONTINUOUS
 10
-32.6901946897
 20
-1.0333442013
 11
-32.7673145037
 21
-2.009383377
  0
LINE
  5
2FC
100
AcDbEntity
  8
RACCORDO
100
AcDbLine
 62
250
  6
CONTINUOUS
 10
-32.2422309542
 20
-1.5548963534
 11
-32.3247650879
 21
-2.5630126968
  0
LINE
  5
2FD
100
AcDbEntity
  8
RACCORDO
100
AcDbLine
 62
7
  6
CONTINUOUS
 10
-32.7616153128
 20
-1.9395781407
 11
-32.8554081861
 21
-3.0498905665
  0
LINE
  5
2FE
100
AcDbEntity
  8
RACCORDO
100
AcDbLine
 62
250
  6
CONTINUOUS
 10
-32.3247650879
 20
-2.5630126968
 11
-32.4189994297
 21
-3.6413712377
  0
LINE
  5
2FF
100
AcDbEntity
  8
RACCORDO
100
AcDbLine
 62
7
  6
CONTINUOUS
 10
-32.9174345911
 20
-3.7461194478
 11
-32.8369420286
 21
-2.8372648396
  0
LINE
  5
300
100
AcDbEntity
  8
RACCORDO
100
AcDbLine
 62
7
  6
CONTINUOUS
 10
-32.9039123698
 20
-3.5965248137
 11
-33.0117019556
 21
-4.7602556603
  0
LINE
  5
301
100
AcDbEntity
  8
RACCORDO
100
AcDbLine
 62
250
  6
CONTINUOUS
 10
-32.4189994297
 20
-3.6413712377
 11
-32.5270546897
 21
-4.807560403
  0
LINE
  5
302
100
AcDbEntity
  8
RACCORDO
100
AcDbLine
 62
7
  6
CONTINUOUS
 10
-32.9597553384
 20
-4.2072667918
 11
-33.071085137
 21
-5.3773471353
  0
LINE
  5
303
100
AcDbEntity
  8
RACCORDO
100
AcDbLine
 62
250
  6
CONTINUOUS
 10
-32.5270546897
 20
-4.807560403
 11
-32.6502791041
 21
-6.0732970313
  0
LINE
  5
304
100
AcDbEntity
  8
RACCORDO
100
AcDbLine
 62
7
  6
CONTINUOUS
 10
-33.2444713241
 20
-7.1093147257
 11
-33.0485837699
 21
-5.1452458057
  0
LINE
  5
305
100
AcDbEntity
  8
RACCORDO
100
AcDbLine
 62
250
  6
CONTINUOUS
 10
-32.6502791041
 20
-6.0732970313
 11
-32.7910690005
 21
-7.4600282489
  0
LINE
  5
306
100
AcDbEntity
  8
RACCORDO
100
AcDbLine
 62
7
  6
CONTINUOUS
 10
-33.2028598345
 20
-6.7015260261
 11
-33.3520593007
 21
-8.145039939
  0
LINE
  5
307
100
AcDbEntity
  8
RACCORDO
100
AcDbLine
 62
7
  6
CONTINUOUS
 10
-33.3520593007
 20
-8.145039939
 11
-34.9200126959
 21
-23.0631199887
  0
LINE
  5
308
100
AcDbEntity
  8
RACCORDO
100
AcDbLine
 62
250
  6
CONTINUOUS
 10
-32.7910690005
 20
-7.4600282489
 11
-34.4358402224
 21
-23.1153842203
  0
LINE
  5
309
100
AcDbEntity
  8
0
100
AcDbLine
 62
7
  6
CONTINUOUS
 10
-29.7396015244
 20
-5.1966074602
 11
-30.2294376075
 21
-9.1860022138
  0
LWPOLYLINE
  5
30A
100
AcDbEntity
  8
RACCORDO
100
AcDbPolyline
 62
250
  6
CONTINUOUS
 90
9
 70
0
 10
-31.6502426781
 20
-24.0471352222
 10
-31.6569546266
 20
-24.0833087542
 10
-31.6627341015
 20
-24.1155377995
 10
-31.6675182185
 20
-24.143471687
 10
-31.6712549236
 20
-24.1668064791
 10
-31.6739035589
 20
-24.1852882789
 10
-31.6754353058
 20
-24.198715993
 10
-31.6758334978
 20
-24.2069435198
 10
-31.6750938022
 20
-24.2098813383
  0
LINE
  5
30B
100
AcDbEntity
  8
RACCORDO
100
AcDbLine
 62
250
  6
CONTINUOUS
 10
-31.6343228313
 20
-23.9645676924
 11
-31.6502426781
 21
-24.0471352222
  0
LINE
  5
30C
100
AcDbEntity
  8
RACCORDO
100
AcDbLine
 62
250
  6
CONTINUOUS
 10
-31.6156655457
 20
-23.8714189677
 11
-31.6343228313
 21
-23.9645676924
  0
LWPOLYLINE
  5
30D
100
AcDbEntity
  8
RACCORDO
100
AcDbPolyline
 62
250
  6
CONTINUOUS
 90
3
 70
0
 10
-31.5843422768
 20
-23.7207829285
 10
-31.5950806211
 20
-23.771732068
 10
-31.6156655457
 20
-23.8714189677
  0
LINE
  5
30E
100
AcDbEntity
  8
RACCORDO
100
AcDbLine
 62
250
  6
CONTINUOUS
 10
-31.7660926937
 20
27.9024526585
 11
-31.7685315732
 21
28.0066405131
  0
LINE
  5
30F
100
AcDbEntity
  8
RACCORDO
100
AcDbLine
 62
250
  6
CONTINUOUS
 10
-31.7685315732
 20
28.0066405131
 11
-31.7702883654
 21
28.1062560545
  0
LWPOLYLINE
  5
310
100
AcDbEntity
  8
RACCORDO
100
AcDbPolyline
 62
250
  6
CONTINUOUS
 90
11
 70
0
 10
-31.7702883654
 20
28.1062560545
 10
-31.7712856666
 20
28.1969066395
 10
-31.7714844765
 20
28.2375809378
 10
-31.771480125
 20
28.2745580316
 10
-31.7712727758
 20
28.3074455305
 10
-31.7708640122
 20
28.3359192766
 10
-31.7702585066
 20
28.3596167357
 10
-31.7694664107
 20
28.3782146103
 10
-31.7684999422
 20
28.3915558487
 10
-31.7673706957
 20
28.3995857578
 10
-31.7660927003
 20
28.4022813208
  0
LINE
  5
311
100
AcDbEntity
  8
RACCORDO
100
AcDbLine
 62
250
  6
CONTINUOUS
 10
-29.2591260168
 20
23.6331913167
 11
-29.2589998963
 21
23.5855162463
  0
LWPOLYLINE
  5
312
100
AcDbEntity
  8
RACCORDO
100
AcDbPolyline
 62
250
  6
CONTINUOUS
 90
9
 70
0
 10
-31.4989804999
 20
-24.0658451196
 10
-31.4989804999
 20
-24.1028361002
 10
-31.4987782251
 20
-24.1357623346
 10
-31.4983758896
 20
-24.1642633905
 10
-31.4977778978
 20
-24.1880272765
 10
-31.4969907956
 20
-24.2067938574
 10
-31.4960231992
 20
-24.2203577018
 10
-31.4948857005
 20
-24.2285703308
 10
-31.4935907513
 20
-24.2313418437
  0
LINE
  5
313
100
AcDbEntity
  8
RACCORDO
100
AcDbLine
 62
7
  6
CONTINUOUS
 10
-30.2530042196
 20
28.4419029371
 11
-30.2530042196
 21
-24.2638277453
  0
LINE
  5
314
100
AcDbEntity
  8
RACCORDO
100
AcDbLine
 62
7
  6
CONTINUOUS
 10
-30.2294376075
 20
-9.3659716421
 11
-30.2294376075
 21
-4.132395792
  0
LINE
  5
315
100
AcDbEntity
  8
RACCORDO
100
AcDbLine
 62
7
  6
CONTINUOUS
 10
-29.5430042196
 20
8.0431150182
 11
-29.5430042196
 21
2.0247490234
  0
LINE
  5
316
100
AcDbEntity
  8
RACCORDO
100
AcDbLine
 62
7
  6
CONTINUOUS
 10
-29.2371575659
 20
24.5036576998
 11
-29.2371575659
 21
24.674417492
  0
LINE
  5
317
100
AcDbEntity
  8
IMPORT_IGES
100
AcDbLine
 62
7
  6
CONTINUOUS
 10
-29.1957033548
 20
-3.6109624041
 11
-29.1957033548
 21
-4.0459946506
  0
LINE
  5
318
100
AcDbEntity
  8
RACCORDO
100
AcDbLine
 62
250
  6
CONTINUOUS
 10
-29.1787042315
 20
2.0247490234
 11
-29.1787042315
 21
5.4615754722
  0
LINE
  5
319
100
AcDbEntity
  8
RACCORDO
100
AcDbLine
 62
7
  6
CONTINUOUS
 10
-29.1548343008
 20
5.4189466149
 11
-29.1548343008
 21
2.0247490234
  0
LINE
  5
31A
100
AcDbEntity
  8
DRAFT
100
AcDbLine
 62
7
  6
CONTINUOUS
 10
-29.0530042196
 20
-9.6160302781
 11
-29.0530042196
 21
-9.6659488003
  0
LINE
  5
31B
100
AcDbEntity
  8
DRAFT
100
AcDbLine
 62
7
  6
CONTINUOUS
 10
-29.0530042196
 20
-12.6559760079
 11
-29.0530042196
 21
-12.7058945301
  0
LINE
  5
31C
100
AcDbEntity
  8
IMPORT_IGES
100
AcDbLine
 62
7
  6
CONTINUOUS
 10
-29.0080042196
 20
-3.6489184306
 11
-29.0080042196
 21
2.0247490234
  0
LINE
  5
31D
100
AcDbEntity
  8
DRAFT
100
AcDbLine
 62
250
  6
CONTINUOUS
 10
-28.8661801307
 20
8.7478410235
 11
-28.8661801307
 21
8.0748194565
  0
LINE
  5
31E
100
AcDbEntity
  8
RACCORDO
100
AcDbLine
 62
250
  6
CONTINUOUS
 10
-28.8503862589
 20
22.9582439707
 11
-28.8503862589
 21
22.4742575573
  0
LINE
  5
31F
100
AcDbEntity
  8
RACCORDO
100
AcDbLine
 62
250
  6
CONTINUOUS
 10
-28.7016952393
 20
21.9095571585
 11
-28.7016952393
 21
22.5296755634
  0
LINE
  5
320
100
AcDbEntity
  8
RACCORDO
100
AcDbLine
 62
7
  6
CONTINUOUS
 10
-28.5530042196
 20
22.059551447
 11
-28.5530042196
 21
22.9582439707
  0
LINE
  5
321
100
AcDbEntity
  8
DRAFT
100
AcDbLine
 62
7
  6
CONTINUOUS
 10
-28.4530042196
 20
8.9315580016
 11
-28.4530042196
 21
8.1698144705
  0
LINE
  5
322
100
AcDbEntity
  8
DRAFT
100
AcDbLine
 62
7
  6
CONTINUOUS
 10
-28.1030042196
 20
-9.7490630307
 11
-28.1030042196
 21
-12.5728617775
  0
LINE
  5
323
100
AcDbEntity
  8
DRAFT
100
AcDbLine
 62
7
  6
CONTINUOUS
 10
-27.814329085
 20
-9.7743188324
 11
-27.814329085
 21
-12.5476059758
  0
LINE
  5
324
100
AcDbEntity
  8
DRAFT
100
AcDbLine
 62
7
  6
CONTINUOUS
 10
-29.5325768472
 20
2.0247490234
 11
-29.5383128107
 21
-3.6109624041
  0
LINE
  5
325
100
AcDbEntity
  8
RACCORDO
100
AcDbLine
 62
7
  6
CONTINUOUS
 10
-32.2530042196
 20
27.9024526585
 11
-32.2542716856
 21
11.7835596814
  0
LINE
  5
326
100
AcDbEntity
  8
RACCORDO
100
AcDbLine
 62
250
  6
CONTINUOUS
 10
-31.7660926937
 20
27.9024526585
 11
-31.7673398242
 21
11.7823203028
  0
LINE
  5
327
100
AcDbEntity
  8
RACCORDO
100
AcDbLine
 62
250
  6
CONTINUOUS
 10
-31.7673398242
 20
11.7823203028
 11
-31.771237993
 21
10.775523668
  0
LINE
  5
328
100
AcDbEntity
  8
RACCORDO
100
AcDbLine
 62
250
  6
CONTINUOUS
 10
-29.2589998963
 20
23.5855162463
 11
-29.2592816756
 21
23.4881956917
  0
LINE
  5
329
100
AcDbEntity
  8
RACCORDO
100
AcDbLine
 62
7
  6
CONTINUOUS
 10
-32.2536351559
 20
12.0849047966
 11
-32.2610956167
 21
10.2895402752
  0
LINE
  5
32A
100
AcDbEntity
  8
RACCORDO
100
AcDbLine
 62
250
  6
CONTINUOUS
 10
-31.771237993
 20
10.775523668
 11
-31.7778896842
 21
9.803539461
  0
LINE
  5
32B
100
AcDbEntity
  8
RACCORDO
100
AcDbLine
 62
250
  6
CONTINUOUS
 10
-29.2592816756
 20
23.4881956917
 11
-29.2600840763
 21
23.3734024419
  0
LINE
  5
32C
100
AcDbEntity
  8
RACCORDO
100
AcDbLine
 62
250
  6
CONTINUOUS
 10
-31.4983758896
 20
-23.9813286936
 11
-31.4989804999
 21
-24.0658451196
  0
LINE
  5
32D
100
AcDbEntity
  8
RACCORDO
100
AcDbLine
 62
7
  6
CONTINUOUS
 10
-32.258613248
 20
10.6914590531
 11
-32.2692433471
 21
9.332937064
  0
LINE
  5
32E
100
AcDbEntity
  8
IMPORT_IGES
100
AcDbLine
 62
7
  6
CONTINUOUS
 10
-29.0423432301
 20
2.0541952981
 11
-29.0420042196
 21
2.0890375959
  0
LINE
  5
32F
100
AcDbEntity
  8
RACCORDO
100
AcDbLine
 62
250
  6
CONTINUOUS
 10
-31.7778896842
 20
9.803539461
 11
-31.7876199934
 21
8.8588618025
  0
LINE
  5
330
100
AcDbEntity
  8
RACCORDO
100
AcDbLine
 62
7
  6
CONTINUOUS
 10
-32.2683536738
 20
9.4207457183
 11
-32.2876576027
 21
7.942950221
  0
LINE
  5
331
100
AcDbEntity
  8
RACCORDO
100
AcDbLine
 62
250
  6
CONTINUOUS
 10
-31.7876199934
 20
8.8588618025
 11
-31.8008222964
 21
7.9347533742
  0
LINE
  5
332
100
AcDbEntity
  8
RACCORDO
100
AcDbLine
 62
250
  6
CONTINUOUS
 10
-31.4969907956
 20
-23.8859036198
 11
-31.4983758896
 21
-23.9813286936
  0
LINE
  5
333
100
AcDbEntity
  8
RACCORDO
100
AcDbLine
 62
7
  6
CONTINUOUS
 10
-32.2828304007
 20
8.2511285398
 11
-32.3045669904
 21
7.0372286144
  0
LINE
  5
334
100
AcDbEntity
  8
RACCORDO
100
AcDbLine
 62
250
  6
CONTINUOUS
 10
-31.8008222964
 20
7.9347533742
 11
-31.8177658988
 21
7.0267204248
  0
LINE
  5
335
100
AcDbEntity
  8
RACCORDO
100
AcDbLine
 62
7
  6
CONTINUOUS
 10
-32.3018076455
 20
7.1707573704
 11
-32.3145609455
 21
6.587932154
  0
LWPOLYLINE
  5
336
100
AcDbEntity
  8
RACCORDO
100
AcDbPolyline
 62
250
  6
CONTINUOUS
 90
3
 70
0
 10
-31.8177658988
 20
7.0267204248
 10
-31.8388579908
 20
6.1280035829
 10
-31.8511465205
 20
5.6799258672
  0
LWPOLYLINE
  5
337
100
AcDbEntity
  8
RACCORDO
100
AcDbPolyline
 62
250
  6
CONTINUOUS
 90
3
 70
0
 10
-31.4935907513
 20
-23.7315131812
 10
-31.4948857005
 20
-23.7837368072
 10
-31.4969907956
 20
-23.8859036198
  0
LINE
  5
338
100
AcDbEntity
  8
IMPORT_IGES
100
AcDbLine
 62
7
  6
CONTINUOUS
 10
-29.0431732268
 20
2.0247490234
 11
-29.0423432301
 21
2.0541952981
  0
LINE
  5
339
100
AcDbEntity
  8
DRAFT
100
AcDbLine
 62
7
  6
CONTINUOUS
 10
-29.5315368701
 20
8.0436646682
 11
-29.5180087542
 21
7.8890375959
  0
LINE
  5
33A
100
AcDbEntity
  8
DRAFT
100
AcDbLine
 62
7
  6
CONTINUOUS
 10
-27.564329085
 20
-9.7961909983
 11
-27.564329085
 21
-12.5257338099
  0
LINE
  5
33B
100
AcDbEntity
  8
RACCORDO
100
AcDbLine
 62
7
  6
CONTINUOUS
 10
-27.2530042196
 20
1.0375683536
 11
-27.2530042196
 21
3.1405068382
  0
LINE
  5
33C
100
AcDbEntity
  8
RACCORDO
100
AcDbLine
 62
7
  6
CONTINUOUS
 10
-26.9530042196
 20
-10.3078405807
 11
-26.9530042196
 21
-12.0140842275
  0
LWPOLYLINE
  5
33D
100
AcDbEntity
  8
RACCORDO
100
AcDbPolyline
 62
250
  6
CONTINUOUS
 90
5
 70
0
 10
-29.2600840763
 20
23.6733910189
 10
-29.2597648169
 20
23.6708217366
 10
-29.2594958088
 20
23.6631638446
 10
-29.2592816541
 20
23.6505484118
 10
-29.2591260168
 20
23.6331913167
  0
LINE
  5
33E
100
AcDbEntity
  8
RACCORDO
100
AcDbLine
 62
250
  6
CONTINUOUS
 10
-29.1057524148
 20
24.0473933317
 11
-29.088638096
 21
23.9490022043
  0
LWPOLYLINE
  5
33F
100
AcDbEntity
  8
RACCORDO
100
AcDbPolyline
 62
250
  6
CONTINUOUS
 90
7
 70
0
 10
-29.088638096
 20
23.9490022043
 10
-29.0789023316
 20
23.8912416015
 10
-29.0765669009
 20
23.8769207991
 10
-29.0747596982
 20
23.8655112704
 10
-29.0735115983
 20
23.8572079331
 10
-29.0728439247
 20
23.8521526372
 10
-29.072768091
 20
23.8504317803
  0
LWPOLYLINE
  5
340
100
AcDbEntity
  8
IMPORT_IGES
100
AcDbPolyline
 62
7
  6
CONTINUOUS
 90
20
 70
0
 10
-29.1548343008
 20
2.7362020343
 10
-29.1446947269
 20
2.7051880779
 10
-29.1343050642
 20
2.6719293453
 10
-29.1243713221
 20
2.6385301396
 10
-29.1149122715
 20
2.6049929541
 10
-29.1059469664
 20
2.5713212382
 10
-29.097494461
 20
2.5375184423
 10
-29.0895738096
 20
2.503588017
 10
-29.0822040615
 20
2.4695334242
 10
-29.075403634
 20
2.4353595061
 10
-29.0691897183
 20
2.4010737855
 10
-29.0635793233
 20
2.3666841212
 10
-29.058588164
 20
2.3321992552
 10
-29.0542304324
 20
2.2976289696
 10
-29.0505199931
 20
2.2629831959
 10
-29.047467461
 20
2.2282730904
 10
-29.0450827985
 20
2.1935107856
 10
-29.0433767318
 20
2.1587087138
 10
-29.0423432301
 20
2.1238798937
 10
-29.0420042196
 20
2.0890375959
  0
LWPOLYLINE
  5
341
100
AcDbEntity
  8
0
100
AcDbPolyline
 62
7
  6
CONTINUOUS
 90
10
 70
0
 43
0.3500000006
 10
-45.8590958405
 20
39.8698885803
 10
-45.7876646576
 20
39.7270307465
 10
-45.7876646576
 20
39.6556040955
 10
-45.9305224915
 20
39.5127462616
 10
-46.0019536743
 20
39.5127462616
 10
-46.0733803253
 20
39.5841729126
 10
-46.0733803253
 20
39.6556040955
 10
-46.0019536743
 20
39.7984619293
 10
-45.9305224915
 20
39.8698885803
 10
-45.8590958405
 20
39.8698885803
  0
LINE
  5
342
100
AcDbEntity
  8
RACCORDO
100
AcDbLine
 62
7
  6
CONTINUOUS
 10
-31.4935907513
 20
-24.2313418437
 11
-30.2530042196
 21
-24.2638277453
  0
LINE
  5
343
100
AcDbEntity
  8
RACCORDO
100
AcDbLine
 62
250
  6
CONTINUOUS
 10
-31.4935907513
 20
-23.7315131812
 11
-30.2530042196
 21
-23.7639990828
  0
LINE
  5
344
100
AcDbEntity
  8
RACCORDO
100
AcDbLine
 62
250
  6
CONTINUOUS
 10
-34.4358402224
 20
-23.1153842203
 11
-34.8561683548
 21
-23.0705052236
  0
LWPOLYLINE
  5
345
100
AcDbEntity
  8
RACCORDO
100
AcDbPolyline
 62
250
  6
CONTINUOUS
 90
5
 70
0
 10
-34.8561683548
 20
-23.0705052236
 10
-34.8968921646
 20
-23.0659651668
 10
-34.9097356082
 20
-23.0644788712
 10
-34.9174524925
 20
-23.0635289336
 10
-34.9200126959
 20
-23.0631199887
  0
LWPOLYLINE
  5
346
100
AcDbEntity
  8
RACCORDO
100
AcDbPolyline
 62
250
  6
CONTINUOUS
 90
10
 70
0
 10
-31.5843422768
 20
-23.7207829285
 10
-31.5743712273
 20
-23.7227938502
 10
-31.5643699797
 20
-23.7246004324
 10
-31.5543385342
 20
-23.7262026752
 10
-31.544274111
 20
-23.7276010164
 10
-31.5341794898
 20
-23.7287950182
 10
-31.5240630094
 20
-23.7297833669
 10
-31.5139274493
 20
-23.7305656247
 10
-31.5037700299
 20
-23.7311422295
 10
-31.4935907513
 20
-23.7315131812
  0
LINE
  5
347
100
AcDbEntity
  8
RACCORDO
100
AcDbLine
 62
7
  6
CONTINUOUS
 10
-34.5265917478
 20
-23.6044826301
 11
-31.6750938022
 21
-24.2098813383
  0
LINE
  5
348
100
AcDbEntity
  8
RACCORDO
100
AcDbLine
 62
250
  6
CONTINUOUS
 10
-34.4358402224
 20
-23.1153842203
 11
-31.5843422768
 21
-23.7207829285
  0
LINE
  5
349
100
AcDbEntity
  8
DRAFT
100
AcDbLine
 62
7
  6
CONTINUOUS
 10
-30.2530042196
 20
-12.9609624041
 11
-29.0530042196
 21
-12.7058945301
  0
LINE
  5
34A
100
AcDbEntity
  8
RACCORDO
100
AcDbLine
 62
7
  6
CONTINUOUS
 10
-27.4094263482
 20
-12.5121815765
 11
-27.564329085
 21
-12.5257338099
  0
LINE
  5
34B
100
AcDbEntity
  8
DRAFT
100
AcDbLine
 62
7
  6
CONTINUOUS
 10
-27.564329085
 20
-12.5257338099
 11
-30.2530042196
 21
-12.7609624041
  0
LINE
  5
34C
100
AcDbEntity
  8
RACCORDO
100
AcDbLine
 62
250
  6
CONTINUOUS
 10
-30.2294376075
 20
-8.0116022918
 11
-30.2530042196
 21
-8.0111909351
  0
LINE
  5
34D
100
AcDbEntity
  8
RACCORDO
100
AcDbLine
 62
7
  6
CONTINUOUS
 10
-30.2530042196
 20
-7.9105510474
 11
-30.2294376075
 21
-7.9109624041
  0
LINE
  5
34E
100
AcDbEntity
  8
RACCORDO
100
AcDbLine
 62
250
  6
CONTINUOUS
 10
-30.2530042196
 20
-7.4106271998
 11
-30.2294376075
 21
-7.4110385565
  0
LINE
  5
34F
100
AcDbEntity
  8
RACCORDO
100
AcDbLine
 62
7
  6
CONTINUOUS
 10
-27.4094263482
 20
-9.8097432317
 11
-27.564329085
 21
-9.7961909983
  0
LINE
  5
350
100
AcDbEntity
  8
DRAFT
100
AcDbLine
 62
7
  6
CONTINUOUS
 10
-27.564329085
 20
-9.7961909983
 11
-30.2530042196
 21
-9.5609624041
  0
LINE
  5
351
100
AcDbEntity
  8
RACCORDO
100
AcDbLine
 62
250
  6
CONTINUOUS
 10
-32.8678868272
 20
-8.1973041706
 11
-33.2876509922
 21
-8.1524872164
  0
LWPOLYLINE
  5
352
100
AcDbEntity
  8
RACCORDO
100
AcDbPolyline
 62
250
  6
CONTINUOUS
 90
5
 70
0
 10
-33.2876509922
 20
-8.1524872164
 10
-33.328558864
 20
-8.1479283582
 10
-33.3415781904
 20
-8.1464229851
 10
-33.3494394361
 20
-8.1454567659
 10
-33.3520593007
 20
-8.145039939
  0
LINE
  5
353
100
AcDbEntity
  8
DRAFT
100
AcDbLine
 62
7
  6
CONTINUOUS
 10
-30.2530042196
 20
-9.3609624041
 11
-29.0530042196
 21
-9.6160302781
  0
LINE
  5
354
100
AcDbEntity
  8
RACCORDO
100
AcDbLine
 62
250
  6
CONTINUOUS
 10
-30.2530042196
 20
-5.4112976084
 11
-30.2294376075
 21
-5.4108862517
  0
LINE
  5
355
100
AcDbEntity
  8
RACCORDO
100
AcDbLine
 62
7
  6
CONTINUOUS
 10
-30.2530042196
 20
-4.9113737608
 11
-30.2294376075
 21
-4.9109624041
  0
LINE
  5
356
100
AcDbEntity
  8
RACCORDO
100
AcDbLine
 62
250
  6
CONTINUOUS
 10
-30.2530042196
 20
-4.8120441083
 11
-30.2294376075
 21
-4.8116327515
  0
LINE
  5
357
100
AcDbEntity
  8
DRAFT
100
AcDbLine
 62
7
  6
CONTINUOUS
 10
-29.1957033551
 20
-3.6109624041
 11
-29.7080042196
 21
-3.6109624041
  0
LINE
  5
358
100
AcDbEntity
  8
IMPORT_IGES
100
AcDbLine
 62
7
  6
CONTINUOUS
 10
-29.542006462
 20
5.6817048518
 11
-29.1787042315
 21
5.4615754722
  0
LINE
  5
359
100
AcDbEntity
  8
RACCORDO
100
AcDbLine
 62
250
  6
CONTINUOUS
 10
-29.1191792936
 20
23.3135919102
 11
-28.9077361691
 21
23.0984258235
  0
LINE
  5
35A
100
AcDbEntity
  8
RACCORDO
100
AcDbLine
 62
7
  6
CONTINUOUS
 10
-28.9078221195
 20
23.5238646895
 11
-28.696378995
 21
23.3086986028
  0
LWPOLYLINE
  5
35B
100
AcDbEntity
  8
RACCORDO
100
AcDbPolyline
 62
250
  6
CONTINUOUS
 90
10
 70
0
 10
-28.9077361691
 20
23.0984258235
 10
-28.8968448072
 20
23.0865525157
 10
-28.8869965866
 20
23.0737351899
 10
-28.8781915074
 20
23.059973846
 10
-28.8703140415
 20
23.0452439447
 10
-28.8634797169
 20
23.0295700253
 10
-28.858035118
 20
23.0130257064
 10
-28.8540957727
 20
22.9956355274
 10
-28.851546153
 20
22.9773749488
 10
-28.8503862589
 20
22.9582439707
  0
LINE
  5
35C
100
AcDbEntity
  8
RACCORDO
100
AcDbLine
 62
7
  6
CONTINUOUS
 10
-30.0168474606
 20
3.5320684881
 11
-30.222369613
 21
3.4744126307
  0
LWPOLYLINE
  5
35D
100
AcDbEntity
  8
RACCORDO
100
AcDbPolyline
 62
7
  6
CONTINUOUS
 90
4
 70
0
 10
-30.2304884772
 20
3.4720724523
 10
-30.2444622123
 20
3.4681476685
 10
-30.2498248599
 20
3.466496284
 10
-30.2530042196
 20
3.4654014872
  0
LINE
  5
35E
100
AcDbEntity
  8
RACCORDO
100
AcDbLine
 62
7
  6
CONTINUOUS
 10
-29.9995386297
 20
3.5368765509
 11
-30.0168474606
 21
3.5320684881
  0
LINE
  5
35F
100
AcDbEntity
  8
RACCORDO
100
AcDbLine
 62
7
  6
CONTINUOUS
 10
-29.6263074232
 20
5.0982040657
 11
-29.7349758348
 21
5.0719107991
  0
LWPOLYLINE
  5
360
100
AcDbEntity
  8
RACCORDO
100
AcDbPolyline
 62
7
  6
CONTINUOUS
 90
3
 70
0
 10
-29.7349758348
 20
5.0719107991
 10
-29.9541884661
 20
5.0202234311
 10
-29.9630627288
 20
5.0180924041
  0
LWPOLYLINE
  5
361
100
AcDbEntity
  8
RACCORDO
100
AcDbPolyline
 62
7
  6
CONTINUOUS
 90
6
 70
0
 10
-29.9630627288
 20
5.0180924041
 10
-29.9793167542
 20
5.0143690739
 10
-29.9859227979
 20
5.0126394484
 10
-29.9910988131
 20
5.0110960482
 10
-29.9950417741
 20
5.010020989
 10
-29.9977445507
 20
5.0096514897
  0
LWPOLYLINE
  5
362
100
AcDbEntity
  8
RACCORDO
100
AcDbPolyline
 62
7
  6
CONTINUOUS
 90
7
 70
0
 10
-29.9866186366
 20
4.2543345416
 10
-30.2195746724
 20
4.2046183777
 10
-30.2281805833
 20
4.2027458207
 10
-30.2360639243
 20
4.2010777674
 10
-30.2431368182
 20
4.1996138509
 10
-30.2489376618
 20
4.198243432
 10
-30.2530042196
 20
4.1971401502
  0
LINE
  5
363
100
AcDbEntity
  8
RACCORDO
100
AcDbLine
 62
7
  6
CONTINUOUS
 10
-29.6124486899
 20
5.7051491207
 11
-29.7236000433
 21
5.6833064519
  0
LWPOLYLINE
  5
364
100
AcDbEntity
  8
RACCORDO
100
AcDbPolyline
 62
7
  6
CONTINUOUS
 90
3
 70
0
 10
-29.7236000433
 20
5.6833064519
 10
-29.9479469248
 20
5.6406165209
 10
-29.9570664508
 20
5.6388452638
  0
LWPOLYLINE
  5
365
100
AcDbEntity
  8
RACCORDO
100
AcDbPolyline
 62
7
  6
CONTINUOUS
 90
6
 70
0
 10
-29.9570664508
 20
5.6388452638
 10
-29.9738116846
 20
5.6357778322
 10
-29.9806498462
 20
5.6343061602
 10
-29.9860358804
 20
5.632958285
 10
-29.9901596518
 20
5.6320319742
 10
-29.9930042196
 20
5.6317708737
  0
LINE
  5
366
100
AcDbEntity
  8
RACCORDO
100
AcDbLine
 62
7
  6
CONTINUOUS
 10
-29.0080042196
 20
0.3085646869
 11
-27.6661801307
 21
0.5451644771
  0
LINE
  5
367
100
AcDbEntity
  8
RACCORDO
100
AcDbLine
 62
7
  6
CONTINUOUS
 10
-29.0079618768
 20
2.0247490234
 11
-29.2783276443
 21
2.0247490234
  0
LINE
  5
368
100
AcDbEntity
  8
DRAFT
100
AcDbLine
 62
7
  6
CONTINUOUS
 10
-29.2783276355
 20
2.0247490234
 11
-29.5430042196
 21
2.0247490234
  0
LINE
  5
369
100
AcDbEntity
  8
RACCORDO
100
AcDbLine
 62
7
  6
CONTINUOUS
 10
-30.2530042196
 20
5.0179660004
 11
-29.9977442871
 21
5.0096514811
  0
LINE
  5
36A
100
AcDbEntity
  8
RACCORDO
100
AcDbLine
 62
250
  6
CONTINUOUS
 10
-30.2530042196
 20
2.7393694736
 11
-30.0167421656
 21
2.7267660053
  0
LINE
  5
36B
100
AcDbEntity
  8
RACCORDO
100
AcDbLine
 62
250
  6
CONTINUOUS
 10
-30.2530042196
 20
3.5644610863
 11
-29.9995386297
 21
3.5368765509
  0
LINE
  5
36C
100
AcDbEntity
  8
RACCORDO
100
AcDbLine
 62
250
  6
CONTINUOUS
 10
-30.2530042196
 20
4.2969527407
 11
-29.9866186366
 21
4.2543345416
  0
LINE
  5
36D
100
AcDbEntity
  8
RACCORDO
100
AcDbLine
 62
7
  6
CONTINUOUS
 10
-29.1548343008
 20
3.8954006098
 11
-27.6661801307
 21
3.6329107147
  0
LINE
  5
36E
100
AcDbEntity
  8
0
100
AcDbLine
 62
7
  6
CONTINUOUS
 10
-29.5180087542
 20
7.8890375959
 11
-29.3180087542
 21
7.8890375959
  0
LINE
  5
36F
100
AcDbEntity
  8
RACCORDO
100
AcDbLine
 62
250
  6
CONTINUOUS
 10
-30.2530042196
 20
5.1186173071
 11
-29.6263074232
 21
5.0982040657
  0
LWPOLYLINE
  5
370
100
AcDbEntity
  8
DRAFT
100
AcDbPolyline
 62
7
  6
CONTINUOUS
 90
25
 70
0
 10
-28.8661801307
 20
8.7478410235
 10
-28.8376204453
 20
8.7464563239
 10
-28.8094449325
 20
8.7454259042
 10
-28.7817498925
 20
8.7447497644
 10
-28.7546254462
 20
8.7444329275
 10
-28.7281695171
 20
8.7444703704
 10
-28.7024862488
 20
8.7448470244
 10
-28.6776633545
 20
8.7455681504
 10
-28.6537840789
 20
8.7466284873
 10
-28.6309389081
 20
8.747997183
 10
-28.6092050834
 20
8.7496779763
 10
-28.5886523632
 20
8.7516671284
 10
-28.5693519524
 20
8.7539225703
 10
-28.551368606
 20
8.7564460619
 10
-28.534756475
 20
8.7592358434
 10
-28.519564142
 20
8.7622445672
 10
-28.5058408017
 20
8.7654727373
 10
-28.4936291031
 20
8.7689198496
 10
-28.4829631775
 20
8.7725370448
 10
-28.4738784457
 20
8.7763237139
 10
-28.4664037218
 20
8.7802804659
 10
-28.4605600748
 20
8.7843602682
 10
-28.4563684551
 20
8.7885474432
 10
-28.4538463281
 20
8.7928576684
 10
-28.4530042196
 20
8.797290944
  0
LINE
  5
371
100
AcDbEntity
  8
RACCORDO
100
AcDbLine
 62
7
  6
CONTINUOUS
 10
-30.2530042196
 20
5.6504978622
 11
-29.9930045259
 21
5.6317708957
  0
LINE
  5
372
100
AcDbEntity
  8
RACCORDO
100
AcDbLine
 62
250
  6
CONTINUOUS
 10
-30.2530042196
 20
5.7512863363
 11
-29.6124486899
 21
5.7051491207
  0
LINE
  5
373
100
AcDbEntity
  8
DRAFT
100
AcDbLine
 62
7
  6
CONTINUOUS
 10
-30.2530042196
 20
9.0890375959
 11
-28.4530042196
 21
8.9315580016
  0
LINE
  5
374
100
AcDbEntity
  8
RACCORDO
100
AcDbLine
 62
7
  6
CONTINUOUS
 10
-30.2530042196
 20
6.2555433342
 11
-29.7915340251
 21
6.2057652751
  0
LINE
  5
375
100
AcDbEntity
  8
RACCORDO
100
AcDbLine
 62
7
  6
CONTINUOUS
 10
-30.2530042196
 20
6.8419087132
 11
-29.9930042196
 21
6.8058194339
  0
LINE
  5
376
100
AcDbEntity
  8
RACCORDO
100
AcDbLine
 62
250
  6
CONTINUOUS
 10
-30.2530042196
 20
7.0203937304
 11
-29.6413582816
 21
6.9351078844
  0
LINE
  5
377
100
AcDbEntity
  8
RACCORDO
100
AcDbLine
 62
250
  6
CONTINUOUS
 10
-31.7660926937
 20
12.8261802908
 11
-32.2530042196
 21
12.8261802908
  0
LWPOLYLINE
  5
378
100
AcDbEntity
  8
RACCORDO
100
AcDbPolyline
 62
250
  6
CONTINUOUS
 90
34
 70
0
 10
-29.1057524148
 20
24.0473933317
 10
-29.055695119
 20
24.0589089679
 10
-29.0078944292
 20
24.0743232057
 10
-28.9623503454
 20
24.0936360451
 10
-28.9188597689
 20
24.1170292143
 10
-28.8776257983
 20
24.1443209851
 10
-28.8392577297
 20
24.1749661725
 10
-28.8036810836
 20
24.209093296
 10
-28.7709703395
 20
24.246573836
 10
-28.7419582318
 20
24.2864770487
 10
-28.7167538023
 20
24.3288499345
 10
-28.6952480093
 20
24.373645493
 10
-28.6779464618
 20
24.4197919787
 10
-28.6649459663
 20
24.4673045297
 10
-28.6561497164
 20
24.5161680079
 10
-28.6517729019
 20
24.5652652544
 10
-28.6519453011
 20
24.6146827967
 10
-28.6565371357
 20
24.6643341072
 10
-28.665374261
 20
24.7128424437
 10
-28.6788473089
 20
24.7603880702
 10
-28.6965656476
 20
24.8067907227
 10
-28.7171832371
 20
24.8501328668
 10
-28.7408369006
 20
24.8899339718
 10
-28.7673898151
 20
24.9266745683
 10
-28.795085471
 20
24.9598787148
 10
-28.8232920914
 20
24.9890178345
 10
-28.8526414534
 20
25.0146205041
 10
-28.8832723787
 20
25.0377965115
 10
-28.9148050671
 20
25.0588206146
 10
-28.9476193189
 20
25.0774180556
 10
-28.9829933572
 20
25.0938743491
 10
-29.0213532565
 20
25.1082846668
 10
-29.0622729423
 20
25.1205538371
 10
-29.1057524148
 20
25.1306818601
  0
LINE
  5
379
100
AcDbEntity
  8
RACCORDO
100
AcDbLine
 62
7
  6
CONTINUOUS
 10
-30.2530042196
 20
23.6423243072
 11
-29.0727680863
 21
23.8504317811
  0
LINE
  5
37A
100
AcDbEntity
  8
RACCORDO
100
AcDbLine
 62
250
  6
CONTINUOUS
 10
-30.2530042196
 20
23.8451018849
 11
-29.1057524148
 21
24.0473933317
  0
LINE
  5
37B
100
AcDbEntity
  8
RACCORDO
100
AcDbLine
 62
250
  6
CONTINUOUS
 10
-30.2530042196
 20
27.9420742746
 11
-31.7660926937
 21
27.9024526585
  0
LINE
  5
37C
100
AcDbEntity
  8
RACCORDO
100
AcDbLine
 62
7
  6
CONTINUOUS
 10
-30.2530042196
 20
28.4419029371
 11
-31.7660926937
 21
28.402281321
  0
LINE
  5
37D
100
AcDbEntity
  8
RACCORDO
100
AcDbLine
 62
7
  6
CONTINUOUS
 10
-28.7016952393
 20
21.9095571585
 11
-30.2530042196
 21
21.8960190901
  0
LINE
  5
37E
100
AcDbEntity
  8
RACCORDO
100
AcDbLine
 62
7
  6
CONTINUOUS
 10
-30.2530042196
 20
24.2960190901
 11
-29.5207296675
 21
24.3024095533
  0
LINE
  5
37F
100
AcDbEntity
  8
RACCORDO
100
AcDbLine
 62
250
  6
CONTINUOUS
 10
-30.2530042196
 20
24.4947925403
 11
-29.2371575659
 21
24.5036576998
  0
LINE
  5
380
100
AcDbEntity
  8
RACCORDO
100
AcDbLine
 62
250
  6
CONTINUOUS
 10
-28.5530042196
 20
22.9582439707
 11
-28.8503862589
 21
22.9582439707
  0
LINE
  5
381
100
AcDbEntity
  8
RACCORDO
100
AcDbLine
 62
250
  6
CONTINUOUS
 10
-31.7660926937
 20
27.9024526585
 11
-32.2530042196
 21
27.9024526585
  0
LWPOLYLINE
  5
382
100
AcDbEntity
  8
0
100
AcDbPolyline
 62
7
  6
CONTINUOUS
 90
3
 70
0
 43
0.3500000006
 10
-47.3590962982
 20
40.0127464142
 10
-48.859096756
 20
40.0127464142
 10
-48.2162387695
 20
42.3698893433
  0
LINE
  5
383
100
AcDbEntity
  8
RACCORDO
100
AcDbLine
 62
7
  6
CONTINUOUS
 10
-30.2530042196
 20
22.4781612479
 11
-28.8503862589
 21
22.4742575573
  0
LINE
  5
384
100
AcDbEntity
  8
RACCORDO
100
AcDbLine
 62
250
  6
CONTINUOUS
 10
-28.7016952393
 20
22.1929478013
 11
-30.2530042196
 21
22.2007856665
  0
LINE
  5
385
100
AcDbEntity
  8
RACCORDO
100
AcDbLine
 62
250
  6
CONTINUOUS
 10
-30.2530042196
 20
23.3820675248
 11
-29.2600840763
 21
23.3734024419
  0
LINE
  5
386
100
AcDbEntity
  8
RACCORDO
100
AcDbLine
 62
7
  6
CONTINUOUS
 10
-30.0383002577
 20
23.6801824086
 11
-29.2600840763
 21
23.6733910189
  0
LINE
  5
387
100
AcDbEntity
  8
RACCORDO
100
AcDbLine
 62
250
  6
CONTINUOUS
 10
-29.2371575659
 20
24.674417492
 11
-30.2530042196
 21
24.6832826515
  0
LINE
  5
388
100
AcDbEntity
  8
RACCORDO
100
AcDbLine
 62
7
  6
CONTINUOUS
 10
-29.5207296675
 20
24.8756656385
 11
-30.2530042196
 21
24.8820561017
  0
LWPOLYLINE
  5
389
100
AcDbEntity
  8
RACCORDO
100
AcDbPolyline
 62
250
  6
CONTINUOUS
 90
13
 70
0
 10
-28.7016952393
 20
22.1929478013
 10
-28.6822362814
 20
22.1921147293
 10
-28.663128737
 20
22.1898263511
 10
-28.6446959241
 20
22.1861213883
 10
-28.6272497433
 20
22.1810625325
 10
-28.611085401
 20
22.1747353843
 10
-28.5964764132
 20
22.1672470052
 10
-28.5836699781
 20
22.1587241057
 10
-28.5728827928
 20
22.1493109014
 10
-28.5642973867
 20
22.1391666728
 10
-28.5580590333
 20
22.1284630699
 10
-28.5542732915
 20
22.117381208
 10
-28.5530042196
 20
22.1061086028
  0
LWPOLYLINE
  5
38A
100
AcDbEntity
  8
RACCORDO
100
AcDbPolyline
 62
250
  6
CONTINUOUS
 90
13
 70
0
 10
-29.2600840763
 20
23.3734024419
 10
-29.2458386947
 20
23.372613779
 10
-29.2322001328
 20
23.3710820286
 10
-29.2191683907
 20
23.3688071906
 10
-29.2068419334
 20
23.3657751111
 10
-29.1951222958
 20
23.361999944
 10
-29.1837140827
 20
23.3575241518
 10
-29.1725941861
 20
23.352452603
 10
-29.1617857141
 20
23.3466804291
 10
-29.151062596
 20
23.3399354872
 10
-29.1403494747
 20
23.3321270629
 10
-29.1297217072
 20
23.3233458706
 10
-29.1191792936
 20
23.3135919102
  0
LINE
  5
38B
100
AcDbEntity
  8
RACCORDO
100
AcDbLine
 62
250
  6
CONTINUOUS
 10
-29.1057524148
 20
25.1306818601
 11
-30.2530042196
 21
25.3329733069
  0
LINE
  5
38C
100
AcDbEntity
  8
RACCORDO
100
AcDbLine
 62
7
  6
CONTINUOUS
 10
-29.0727680863
 20
25.3276434107
 11
-30.2530042196
 21
25.5357508846
  0
LWPOLYLINE
  5
38D
100
AcDbEntity
  8
0
100
AcDbPolyline
 62
7
  6
CONTINUOUS
 90
13
 70
0
 43
0.3500000006
 10
-46.0590732422
 20
50.8622920074
 10
-46.3447889099
 20
51.0765764923
 10
-46.3447889099
 20
51.7194344788
 10
-46.0590732422
 20
52.1480034485
 10
-45.4162152557
 20
52.1480034485
 10
-45.1305041199
 20
51.7194344788
 10
-45.1305041199
 20
51.0765764923
 10
-45.4162152557
 20
50.8622920074
 10
-44.987646286
 20
50.4337185059
 10
-44.987646286
 20
49.5765760345
 10
-45.4162152557
 20
49.148002533
 10
-46.0590732422
 20
49.148002533
 10
-46.4876467438
 20
49.5765760345
  0
ARC
  5
38E
100
AcDbEntity
  8
0
100
AcDbCircle
 62
7
  6
CONTINUOUS
 10
0.389499575
 20
-14.1774053572
 40
0.5
100
AcDbArc
 50
180.0
 51
270.0
  0
ARC
  5
38F
100
AcDbEntity
  8
0
100
AcDbCircle
 62
7
  6
CONTINUOUS
 10
3.2435368421
 20
-14.1774053572
 40
0.5
100
AcDbArc
 50
270.0
 51
360.0
  0
ARC
  5
390
100
AcDbEntity
  8
0
100
AcDbCircle
 62
7
  6
CONTINUOUS
 10
3.2435368421
 20
-11.3233680901
 40
0.5
100
AcDbArc
 50
0.0
 51
90.0
  0
ARC
  5
391
100
AcDbEntity
  8
0
100
AcDbCircle
 62
7
  6
CONTINUOUS
 10
0.379499575
 20
-11.3133680901
 40
0.49
100
AcDbArc
 50
90.0
 51
180.0
  0
ARC
  5
392
100
AcDbEntity
  8
0
100
AcDbCircle
 62
7
  6
CONTINUOUS
 10
0.189499575
 20
-12.9109624041
 40
0.3
100
AcDbArc
 50
0.0
 51
90.0
  0
ARC
  5
393
100
AcDbEntity
  8
0
100
AcDbCircle
 62
7
  6
CONTINUOUS
 10
-4.5564631579
 20
-14.1774053572
 40
0.1
100
AcDbArc
 50
90.0
 51
180.0
  0
ARC
  5
394
100
AcDbEntity
  8
0
100
AcDbCircle
 62
7
  6
CONTINUOUS
 10
-4.5564631579
 20
-14.5774053572
 40
0.1
100
AcDbArc
 50
180.0
 51
270.0
  0
ARC
  5
395
100
AcDbEntity
  8
0
100
AcDbCircle
 62
7
  6
CONTINUOUS
 10
-3.2564631579
 20
-14.5774053572
 40
0.1
100
AcDbArc
 50
270.0
 51
360.0
  0
ARC
  5
396
100
AcDbEntity
  8
0
100
AcDbCircle
 62
7
  6
CONTINUOUS
 10
-3.2564631579
 20
-14.1774053572
 40
0.1
100
AcDbArc
 50
0.0
 51
90.0
  0
ARC
  5
397
100
AcDbEntity
  8
0
100
AcDbCircle
 62
7
  6
CONTINUOUS
 10
-0.010500425
 20
-11.3233680901
 40
0.1
100
AcDbArc
 50
180.0
 51
270.0
  0
ARC
  5
398
100
AcDbEntity
  8
0
100
AcDbCircle
 62
7
  6
CONTINUOUS
 10
-4.6564631579
 20
-12.7109624041
 40
0.1
100
AcDbArc
 50
90.0
 51
180.0
  0
ARC
  5
399
100
AcDbEntity
  8
0
100
AcDbCircle
 62
7
  6
CONTINUOUS
 10
-4.6564631579
 20
-13.1109624041
 40
0.1
100
AcDbArc
 50
180.0
 51
270.0
  0
ARC
  5
39A
100
AcDbEntity
  8
RACCORDO
100
AcDbCircle
 62
7
  6
CONTINUOUS
 10
-31.467413803
 20
-23.2316845187
 40
1.0
100
AcDbArc
 50
258.0135711831
 51
268.5
  0
ARC
  5
39B
100
AcDbEntity
  8
RACCORDO
100
AcDbCircle
 62
7
  6
CONTINUOUS
 10
-29.2030042196
 20
24.5890375959
 40
0.75
100
AcDbArc
 50
280.0
 51
80.0
  0
ARC
  5
39C
100
AcDbEntity
  8
RACCORDO
100
AcDbCircle
 62
7
  6
CONTINUOUS
 10
-27.4530042196
 20
-10.3078405807
 40
0.5
100
AcDbArc
 50
0.0
 51
85.0
  0
ARC
  5
39D
100
AcDbEntity
  8
RACCORDO
100
AcDbCircle
 62
7
  6
CONTINUOUS
 10
-27.4530042196
 20
-12.0140842275
 40
0.5
100
AcDbArc
 50
275.0
 51
360.0
  0
ARC
  5
39E
100
AcDbEntity
  8
RACCORDO
100
AcDbCircle
 62
7
  6
CONTINUOUS
 10
-34.4227517483
 20
-23.1153842203
 40
0.5
100
AcDbArc
 50
174.0
 51
258.0135711831
  0
ARC
  5
39F
100
AcDbEntity
  8
RACCORDO
100
AcDbCircle
 62
7
  6
CONTINUOUS
 10
-31.7530042196
 20
27.9024526585
 40
0.5
100
AcDbArc
 50
91.5
 51
180.0
  0
ARC
  5
3A0
100
AcDbEntity
  8
RACCORDO
100
AcDbCircle
 62
7
  6
CONTINUOUS
 10
-29.2644473441
 20
23.1734100573
 40
0.5
100
AcDbArc
 50
44.5
 51
89.5
  0
ARC
  5
3A1
100
AcDbEntity
  8
RACCORDO
100
AcDbCircle
 62
7
  6
CONTINUOUS
 10
-29.0530042196
 20
22.9582439707
 40
0.5
100
AcDbArc
 50
0.0
 51
44.5
  0
ARC
  5
3A2
100
AcDbEntity
  8
RACCORDO
100
AcDbCircle
 62
7
  6
CONTINUOUS
 10
-27.7530042196
 20
3.1405068382
 40
0.5
100
AcDbArc
 50
0.0
 51
80.0
  0
ARC
  5
3A3
100
AcDbEntity
  8
RACCORDO
100
AcDbCircle
 62
7
  6
CONTINUOUS
 10
-27.7530042196
 20
1.0375683536
 40
0.5
100
AcDbArc
 50
280.0
 51
360.0
  0
ARC
  5
3A4
100
AcDbEntity
  8
RACCORDO
100
AcDbCircle
 62
7
  6
CONTINUOUS
 10
-28.7030042196
 20
22.059551447
 40
0.15
100
AcDbArc
 50
270.5
 51
360.0
  0
ARC
  5
3A5
100
AcDbEntity
  8
RACCORDO
100
AcDbCircle
 62
7
  6
CONTINUOUS
 10
-29.2048343008
 20
5.4189466149
 40
0.05
100
AcDbArc
 50
0.0
 51
58.4930902702
  0
ELLIPSE
  5
3A6
100
AcDbEntity
  8
RACCORDO
100
AcDbEllipse
 62
7
  6
CONTINUOUS
 10
10.046230787
 20
-23.763656349
 30
0.0
 11
-0.35379574
 21
0.35379574
 31
0.0
 40
0.999315002
 41
-3.9266482006
 42
-2.3565371065
  0
ELLIPSE
  5
3A7
100
AcDbEntity
  8
RACCORDO
100
AcDbEllipse
 62
7
  6
CONTINUOUS
 10
10.046230787
 20
27.9417315408
 30
0.0
 11
0.35379574
 21
0.35379574
 31
0.0
 40
0.999315002
 41
-0.7850555471
 42
0.7850555471
  0
ELLIPSE
  5
3A8
100
AcDbEntity
  8
RACCORDO
100
AcDbEllipse
 62
7
  6
CONTINUOUS
 10
-11.0591571028
 20
27.9417315408
 30
0.0
 11
-0.35379574
 21
0.35379574
 31
0.0
 40
0.999315002
 41
-0.7850555471
 42
0.7850555471
  0
ELLIPSE
  5
3A9
100
AcDbEntity
  8
RACCORDO
100
AcDbEllipse
 62
7
  6
CONTINUOUS
 10
-11.0591571028
 20
-23.763656349
 30
0.0
 11
0.35379574
 21
0.35379574
 31
0.0
 40
0.999315002
 41
-3.9266482006
 42
-2.3565371065
  0
ELLIPSE
  5
3AA
100
AcDbEntity
  8
0
100
AcDbEllipse
 62
7
  6
CONTINUOUS
 10
-12.9428920339
 20
-2.7109624041
 30
0.0
 11
63.2804152257
 21
0.0
 31
0.0
 40
0.1761108909
 41
1.8251610131
 42
1.8478741742
  0
ELLIPSE
  5
3AB
100
AcDbEntity
  8
RACCORDO
100
AcDbEllipse
 62
7
  6
CONTINUOUS
 10
-28.8530042196
 20
22.8967852792
 30
0.0
 11
-0.0064728562
 21
0.4225035608
 31
0.0
 40
0.7098878919
 41
-3.154443869
 42
-2.6345261014
  0
ELLIPSE
  5
3AC
100
AcDbEntity
  8
RACCORDO
100
AcDbEllipse
 62
7
  6
CONTINUOUS
 10
-29.5224903398
 20
24.6756733879
 30
0.0
 11
0.2853275264
 21
-0.0024688431
 31
0.0
 40
0.7009226047
 41
0.0060647732
 42
1.5706904684
  0
ELLIPSE
  5
3AD
100
AcDbEntity
  8
RACCORDO
100
AcDbEllipse
 62
7
  6
CONTINUOUS
 10
-29.5224903398
 20
24.5024018039
 30
0.0
 11
0.2853275264
 21
0.0024688431
 31
0.0
 40
0.7009226047
 41
-1.5706904684
 42
-0.0060647732
  0
ELLIPSE
  5
3AE
100
AcDbEntity
  8
0
100
AcDbEllipse
 62
7
  6
CONTINUOUS
 10
-55.4930240916
 20
-2.7109624041
 30
0.0
 11
79.4445384914
 21
0.0
 31
0.0
 40
0.153091273
 41
1.2290184413
 42
1.2474869946
  0
ENDSEC
  0
SECTION
  2
OBJECTS
  0
DICTIONARY
  5
C
100
AcDbDictionary
280
0
281
1
  3
ACAD_GROUP
350
D
  3
ACAD_MLINESTYLE
350
17
  3
ACAD_LAYOUT
350
1A
  3
ACAD_PLOTSETTINGS
350
19
  3
ACAD_PLOTSTYLENAME
350
E
  0
DICTIONARY
  5
D
102
{ACAD_REACTORS
330
C
102
}
100
AcDbDictionary
280
0
281
1
  0
ACDBDICTIONARYWDFLT
  5
E
102
{ACAD_REACTORS
330
C
102
}
100
AcDbDictionary
281
1
  3
Normal
350
F
100
AcDbDictionaryWithDefault
340
F
  0
DICTIONARY
  5
17
102
{ACAD_REACTORS
330
C
102
}
100
AcDbDictionary
280
0
281
1
  3
Standard
350
18
  0
DICTIONARY
  5
19
102
{ACAD_REACTORS
330
C
102
}
100
AcDbDictionary
281
1
  0
DICTIONARY
  5
1A
102
{ACAD_REACTORS
330
C
102
}
100
AcDbDictionary
281
1
  3
Model
350
3AF
  3
Layout1
350
3B0
  0
ACDBPLACEHOLDER
  5
F
102
{ACAD_REACTORS
330
E
102
}
  0
MLINESTYLE
  5
18
102
{ACAD_REACTORS
330
17
102
}
100
AcDbMlineStyle
  2
STANDARD
 70
0
  3

 62
256
 51
90.0
 52
90.0
 71
2
 49
0.5
 62
256
  6
BYLAYER
 49
-0.5
 62
256
  6
BYLAYER
  0
LAYOUT
  5
3AF
102
{ACAD_REACTORS
330
1A
102
}
100
AcDbPlotSettings
  1

  2
none_device
  4
ISO_A4_(297.00_x_210.00_MM)
  6

 40
0.0
 41
0.0
 42
0.0
 43
0.0
 44
297.0
 45
210.0
 46
0.0
 47
0.0
 48
0.0
 49
0.0
140
0.0
141
0.0
142
1.0
143
1.0
 70
1024
 72
1
 73
0
 74
0
  7

 75
0
147
1.0
148
0.0
149
0.0
100
AcDbLayout
  1
Model
 70
0
 71
0
 10
0.0
 20
0.0
 11
297.0
 21
210.0
 12
0.0
 22
0.0
 32
0.0
 14
0.0
 24
0.0
 34
0.0
 15
0.0
 25
0.0
 35
0.0
146
0.0
 13
0.0
 23
0.0
 33
0.0
 16
1.0
 26
0.0
 36
0.0
 17
0.0
 27
1.0
 37
0.0
 76
0
330
21B
345
0
346
0
  0
LAYOUT
  5
3B0
102
{ACAD_REACTORS
330
1A
102
}
100
AcDbPlotSettings
  1

  2
none_device
  4
ISO_A4_(297.00_x_210.00_MM)
  6

 40
0.0
 41
0.0
 42
0.0
 43
0.0
 44
297.0
 45
210.0
 46
0.0
 47
0.0
 48
0.0
 49
0.0
140
0.0
141
0.0
142
1.0
143
1.0
 70
0
 72
1
 73
0
 74
0
  7

 75
0
147
1.0
148
0.0
149
0.0
100
AcDbLayout
  1
Layout1
 70
0
 71
1
 10
0.0
 20
0.0
 11
297.0
 21
210.0
 12
0.0
 22
0.0
 32
0.0
 14
0.0
 24
0.0
 34
0.0
 15
0.0
 25
0.0
 35
0.0
146
0.0
 13
0.0
 23
0.0
 33
0.0
 16
1.0
 26
0.0
 36
0.0
 17
0.0
 27
1.0
 37
0.0
 76
0
330
21C
345
0
346
0
  0
ENDSEC
  0
EOF
