  0
SECTION
  2
HEADER
  9
$ACADVER
  1
AC1024
  9
$DWGCODEPAGE
  3
ANSI_1252
  9
$EXTMAX
 10
558.8
 20
431.8
 30
0.0
  9
$EXTMIN
 10
0.0
 20
0.0
 30
0.0
  9
$LIMMIN
 10
0.0
 20
0.0
  9
$LIMMAX
 10
558.8
 20
431.8
  9
$VIEWCTR
 10
279.4
 20
215.9
  9
$VIEWSIZE
 40
431.8
  9
$CLAYER
  8
0
  9
$LTSCALE
 40
30.734
  9
$CELTYPE
  6
BYLAYER
  9
$DIMSCALE
 40
1.0
  9
$DIMASZ
 40
3.0
  9
$DIMEXO
 40
0.5
  9
$DIMDLI
 40
21.2344
  9
$DIMEXE
 40
1.5
  9
$DIMCEN
 40
5.0292
  9
$DIMLFAC
 40
1.0
  9
$DIMBLK
  1
_FILLED
  9
$DIMALT
 70
0
  9
$DIMALTF
 40
0.0393700787
  9
$DIMTXT
 40
3.0
  9
$DIMTOL
 70
1
  9
$DIMLIM
 70
0
  9
$DIMTFAC
 40
1.0
  9
$DIMTP
 40
0.01
  9
$DIMTM
 40
0.01
  9
$DIMGAP
 40
0.625
  9
$DIMDSEP
 70
44
  9
$AUNITS
 70
0
  9
$PDMODE
 70
3
  9
$PDSIZE
 40
3.0
  9
$HANDSEED
  5
3B7
  9
$TILEMODE
 70
1
  9
$MEASUREMENT
 70
1
  9
$INSUNITS
 70
4
  0
ENDSEC
  0
SECTION
  2
CLASSES
  0
CLASS
  1
ACDBDICTIONARYWDFLT
  2
AcDbDictionaryWithDefault
  3
AutoCAD 2000
 90
0
 91
1
280
0
281
0
  0
CLASS
  1
ACDBPLACEHOLDER
  2
AcDbPlaceHolder
  3
AutoCAD 2000
 90
0
 91
1
280
0
281
0
  0
CLASS
  1
LAYOUT
  2
AcDbLayout
  3
AutoCAD 2000
 90
0
 91
0
280
0
281
0
  0
ENDSEC
  0
SECTION
  2
TABLES
  0
TABLE
  2
VPORT
  5
8
100
AcDbSymbolTable
 70
2
  0
VPORT
  5
1F4
100
AcDbSymbolTableRecord
100
AcDbViewportTableRecord
  2
*ACTIVE
 70
0
 10
0.0
 20
0.0
 11
1.0
 21
1.0
 12
279.4
 22
215.9
 13
0.0
 23
0.0
 14
1.0
 24
1.0
 15
0.0
 25
0.0
 16
0.0
 26
0.0
 36
1.0
 17
0.0
 27
0.0
 37
0.0
 40
431.8
 41
1.2941176471
 42
50.0
 43
0.0
 44
0.0
 50
0.0
 51
0.0
 71
0
 72
100
 73
1
 74
1
 75
0
 76
0
 77
0
 78
0
  0
ENDTAB
  0
TABLE
  2
LTYPE
  5
5
100
AcDbSymbolTable
 70
6
  0
LTYPE
  5
14
100
AcDbSymbolTableRecord
100
AcDbLinetypeTableRecord
  2
BYBLOCK
 70
0
  3

 72
65
 73
0
 40
0.0
  0
LTYPE
  5
15
100
AcDbSymbolTableRecord
100
AcDbLinetypeTableRecord
  2
BYLAYER
 70
0
  3

 72
65
 73
0
 40
0.0
  0
LTYPE
  5
16
100
AcDbSymbolTableRecord
100
AcDbLinetypeTableRecord
  2
CONTINUOUS
 70
64
  3
Solid line
 72
65
 73
0
 40
0.0
  0
LTYPE
  5
1F5
100
AcDbSymbolTableRecord
100
AcDbLinetypeTableRecord
  2
CENTER
 70
64
  3
____ _ ____ _ ____ _ ____ _ ____ _ ____ _ ____
 72
65
 73
4
 40
0.6
 49
0.375
 74
0
 49
-0.075
 74
0
 49
0.075
 74
0
 49
-0.075
 74
0
  0
LTYPE
  5
1F6
100
AcDbSymbolTableRecord
100
AcDbLinetypeTableRecord
  2
HIDDEN
 70
64
  3
- - - - - - - - - - - - - - - - - - - -
 72
65
 73
2
 40
0.2
 49
0.1
 74
0
 49
-0.1
 74
0
  0
LTYPE
  5
1F7
100
AcDbSymbolTableRecord
100
AcDbLinetypeTableRecord
  2
PHANTOM
 70
64
  3
_____ _ _ _____ _ _ _____ _ _ _____
 72
65
 73
6
 40
0.8
 49
0.45
 74
0
 49
-0.05
 74
0
 49
0.1
 74
0
 49
-0.05
 74
0
 49
0.1
 74
0
 49
-0.05
 74
0
  0
LTYPE
  5
1F8
100
AcDbSymbolTableRecord
100
AcDbLinetypeTableRecord
  2
DOT
 70
64
  3
. . . . . . . . . . . . . . . . . . . .
 72
65
 73
2
 40
0.2
 49
0.1
 74
0
 49
-0.1
 74
0
  0
LTYPE
  5
1F9
100
AcDbSymbolTableRecord
100
AcDbLinetypeTableRecord
  2
DASHED
 70
64
  3
- - - - - - - - - - - - - - - - - - - -
 72
65
 73
2
 40
0.2
 49
0.1
 74
0
 49
-0.1
 74
0
  0
ENDTAB
  0
TABLE
  2
LAYER
  5
2
100
AcDbSymbolTable
 70
36
  0
LAYER
  5
10
100
AcDbSymbolTableRecord
100
AcDbLayerTableRecord
  2
0
 70
0
 62
7
  6
CONTINUOUS
370
-3
390
F
  0
LAYER
  5
1FA
100
AcDbSymbolTableRecord
100
AcDbLayerTableRecord
  2
DEFAULT_1
 70
0
 62
7
  6
CENTER
370
-3
390
F
  0
LAYER
  5
1FB
100
AcDbSymbolTableRecord
100
AcDbLayerTableRecord
  2
DEFAULT_2
 70
0
 62
7
  6
HIDDEN
370
-3
390
F
  0
LAYER
  5
1FC
100
AcDbSymbolTableRecord
100
AcDbLayerTableRecord
  2
DEFAULT_3
 70
0
 62
7
  6
PHANTOM
370
-3
390
F
  0
LAYER
  5
1FD
100
AcDbSymbolTableRecord
100
AcDbLayerTableRecord
  2
9
 70
0
 62
7
  6
CONTINUOUS
370
-3
390
F
  0
LAYER
  5
1FE
100
AcDbSymbolTableRecord
100
AcDbLayerTableRecord
  2
ASSI
 70
0
 62
7
  6
CONTINUOUS
370
-3
390
F
  0
LAYER
  5
1FF
100
AcDbSymbolTableRecord
100
AcDbLayerTableRecord
  2
COORDINATE
 70
0
 62
7
  6
CONTINUOUS
370
-3
390
F
  0
LAYER
  5
200
100
AcDbSymbolTableRecord
100
AcDbLayerTableRecord
  2
COPY_PUBLISH
 70
0
 62
7
  6
CONTINUOUS
370
-3
390
F
  0
LAYER
  5
201
100
AcDbSymbolTableRecord
100
AcDbLayerTableRecord
  2
COSMETICI
 70
0
 62
7
  6
CONTINUOUS
370
-3
390
F
  0
LAYER
  5
202
100
AcDbSymbolTableRecord
100
AcDbLayerTableRecord
  2
CURVE
 70
0
 62
7
  6
CONTINUOUS
370
-3
390
F
  0
LAYER
  5
203
100
AcDbSymbolTableRecord
100
AcDbLayerTableRecord
  2
DRAFT
 70
0
 62
7
  6
CONTINUOUS
370
-3
390
F
  0
LAYER
  5
204
100
AcDbSymbolTableRecord
100
AcDbLayerTableRecord
  2
IMPORT_IGES
 70
0
 62
7
  6
CONTINUOUS
370
-3
390
F
  0
LAYER
  5
205
100
AcDbSymbolTableRecord
100
AcDbLayerTableRecord
  2
INTF_1
 70
0
 62
7
  6
CONTINUOUS
370
-3
390
F
  0
LAYER
  5
206
100
AcDbSymbolTableRecord
100
AcDbLayerTableRecord
  2
INTF_10
 70
0
 62
7
  6
CONTINUOUS
370
-3
390
F
  0
LAYER
  5
207
100
AcDbSymbolTableRecord
100
AcDbLayerTableRecord
  2
INTF_17
 70
0
 62
7
  6
CONTINUOUS
370
-3
390
F
  0
LAYER
  5
208
100
AcDbSymbolTableRecord
100
AcDbLayerTableRecord
  2
INTF_2
 70
0
 62
7
  6
CONTINUOUS
370
-3
390
F
  0
LAYER
  5
209
100
AcDbSymbolTableRecord
100
AcDbLayerTableRecord
  2
INTF_3
 70
0
 62
7
  6
CONTINUOUS
370
-3
390
F
  0
LAYER
  5
20A
100
AcDbSymbolTableRecord
100
AcDbLayerTableRecord
  2
INTF_4
 70
0
 62
7
  6
CONTINUOUS
370
-3
390
F
  0
LAYER
  5
20B
100
AcDbSymbolTableRecord
100
AcDbLayerTableRecord
  2
INTF_5
 70
0
 62
7
  6
CONTINUOUS
370
-3
390
F
  0
LAYER
  5
20C
100
AcDbSymbolTableRecord
100
AcDbLayerTableRecord
  2
INTF_6
 70
0
 62
7
  6
CONTINUOUS
370
-3
390
F
  0
LAYER
  5
20D
100
AcDbSymbolTableRecord
100
AcDbLayerTableRecord
  2
INTF_7
 70
0
 62
7
  6
CONTINUOUS
370
-3
390
F
  0
LAYER
  5
20E
100
AcDbSymbolTableRecord
100
AcDbLayerTableRecord
  2
INTF_9
 70
0
 62
7
  6
CONTINUOUS
370
-3
390
F
  0
LAYER
  5
20F
100
AcDbSymbolTableRecord
100
AcDbLayerTableRecord
  2
INTF_BLANK
 70
0
 62
7
  6
CONTINUOUS
370
-3
390
F
  0
LAYER
  5
210
100
AcDbSymbolTableRecord
100
AcDbLayerTableRecord
  2
INTF_RED
 70
0
 62
7
  6
CONTINUOUS
370
-3
390
F
  0
LAYER
  5
211
100
AcDbSymbolTableRecord
100
AcDbLayerTableRecord
  2
NOTE
 70
0
 62
7
  6
CONTINUOUS
370
-3
390
F
  0
LAYER
  5
212
100
AcDbSymbolTableRecord
100
AcDbLayerTableRecord
  2
PIANI
 70
0
 62
7
  6
CONTINUOUS
370
-3
390
F
  0
LAYER
  5
213
100
AcDbSymbolTableRecord
100
AcDbLayerTableRecord
  2
PUNTI
 70
0
 62
7
  6
CONTINUOUS
370
-3
390
F
  0
LAYER
  5
214
100
AcDbSymbolTableRecord
100
AcDbLayerTableRecord
  2
RACCORDO
 70
0
 62
7
  6
CONTINUOUS
370
-3
390
F
  0
LAYER
  5
215
100
AcDbSymbolTableRecord
100
AcDbLayerTableRecord
  2
RGB____0____0____0__
 70
0
 62
7
  6
CONTINUOUS
370
-3
390
F
  0
LAYER
  5
216
100
AcDbSymbolTableRecord
100
AcDbLayerTableRecord
  2
SIMBOLI
 70
0
 62
7
  6
CONTINUOUS
370
-3
390
F
  0
LAYER
  5
217
100
AcDbSymbolTableRecord
100
AcDbLayerTableRecord
  2
SMUSSO
 70
0
 62
7
  6
CONTINUOUS
370
-3
390
F
  0
LAYER
  5
218
100
AcDbSymbolTableRecord
100
AcDbLayerTableRecord
  2
SUPERFICI
 70
0
 62
7
  6
CONTINUOUS
370
-3
390
F
  0
LAYER
  5
219
100
AcDbSymbolTableRecord
100
AcDbLayerTableRecord
  2
TRASH
 70
0
 62
7
  6
CONTINUOUS
370
-3
390
F
  0
ENDTAB
  0
TABLE
  2
STYLE
  5
3
100
AcDbSymbolTable
 70
1
  0
STYLE
  5
11
100
AcDbSymbolTableRecord
100
AcDbTextStyleTableRecord
  2
STANDARD
 70
0
 40
0.0
 41
0.8
 50
0.0
 71
0
 42
0.2
  3
txt
  4

  0
STYLE
  5
21A
100
AcDbSymbolTableRecord
100
AcDbTextStyleTableRecord
  2
TEXTSTYLE_1
 70
0
 40
0.0
 41
0.8
 50
0.0
 71
0
 42
0.2
  3
gdt
  4

  0
ENDTAB
  0
TABLE
  2
VIEW
  5
6
100
AcDbSymbolTable
 70
0
  0
ENDTAB
  0
TABLE
  2
UCS
  5
7
100
AcDbSymbolTable
 70
0
  0
ENDTAB
  0
TABLE
  2
APPID
  5
9
100
AcDbSymbolTable
 70
1
  0
APPID
  5
21B
100
AcDbSymbolTableRecord
100
AcDbRegAppTableRecord
  2
ACAD
 70
0
  0
ENDTAB
  0
TABLE
  2
BLOCK_RECORD
  5
1
100
AcDbSymbolTable
 70
0
  0
BLOCK_RECORD
  5
21C
100
AcDbSymbolTableRecord
100
AcDbBlockTableRecord
  2
*Model_Space
  0
BLOCK_RECORD
  5
21D
100
AcDbSymbolTableRecord
100
AcDbBlockTableRecord
  2
*Paper_Space
  0
BLOCK_RECORD
  5
21E
100
AcDbSymbolTableRecord
100
AcDbBlockTableRecord
  2
_FILLED
  0
BLOCK_RECORD
  5
21F
100
AcDbSymbolTableRecord
100
AcDbBlockTableRecord
  2
*D0
  0
BLOCK_RECORD
  5
220
100
AcDbSymbolTableRecord
100
AcDbBlockTableRecord
  2
*D1
  0
BLOCK_RECORD
  5
221
100
AcDbSymbolTableRecord
100
AcDbBlockTableRecord
  2
*D2
  0
BLOCK_RECORD
  5
222
100
AcDbSymbolTableRecord
100
AcDbBlockTableRecord
  2
*D3
  0
ENDTAB
  0
TABLE
  2
DIMSTYLE
  5
A
100
AcDbSymbolTable
 70
1
100
AcDbDimStyleTable
 71
0
  0
DIMSTYLE
105
223
100
AcDbSymbolTableRecord
100
AcDbDimStyleTableRecord
  2
STANDARD
 70
0
  3

  4

 40
1.0
 41
3.0
 42
0.5
 43
0.38
 44
1.5
 45
0.0
 46
0.0
 47
0.01
 48
0.01
140
3.0
141
0.09
142
0.0
143
25.4
144
1.0
145
0.0
146
1.0
147
0.625
 71
1
 72
0
 73
0
 74
0
 75
0
 76
0
 77
1
 78
8
 79
2
170
0
171
1
172
0
173
0
174
0
175
0
176
0
177
0
178
0
270
2
179
2
271
2
272
2
273
2
274
2
275
0
280
0
281
0
282
0
283
1
284
8
285
0
286
0
287
3
288
0
340
11
278
44
341
21E
342
21E
343
21E
344
21E
  0
DIMSTYLE
105
224
100
AcDbSymbolTableRecord
100
AcDbDimStyleTableRecord
  2
DIMSTYLE_1
 70
0
  3

  4

 40
1.0
 41
3.0
 42
0.5
 43
0.38
 44
1.5
 45
0.0
 46
0.0
 47
0.0
 48
0.0
140
3.0
141
0.09
142
0.0
143
25.4
144
1.0
145
0.0
146
1.0
147
0.75
 71
0
 72
0
 73
0
 74
0
 75
0
 76
0
 77
1
 78
8
 79
2
170
0
171
1
172
0
173
0
174
0
175
0
176
0
177
0
178
0
270
2
179
2
271
1
272
1
273
2
274
2
275
0
280
0
281
0
282
0
283
1
284
8
285
0
286
0
287
3
288
0
340
11
278
44
341
21E
342
21E
343
21E
344
21E
  0
ENDTAB
  0
ENDSEC
  0
SECTION
  2
BLOCKS
  0
BLOCK
  5
20
100
AcDbEntity
  8
0
100
AcDbBlockBegin
  2
*Model_Space
 70
0
 10
0.0
 20
0.0
 30
0.0
  3
*Model_Space
  1

  0
ENDBLK
  5
21
100
AcDbEntity
  8
0
100
AcDbBlockEnd
  0
BLOCK
  5
1C
100
AcDbEntity
  8
0
100
AcDbBlockBegin
  2
*Paper_Space
 70
0
 10
0.0
 20
0.0
 30
0.0
  3
*Paper_Space
  1

  0
ENDBLK
  5
1D
100
AcDbEntity
  8
0
100
AcDbBlockEnd
  0
BLOCK
  5
225
100
AcDbEntity
  8
0
100
AcDbBlockBegin
  2
_FILLED
 70
64
 10
0.0
 20
0.0
  3
_FILLED
  1

  0
SOLID
  5
226
100
AcDbEntity
  8
0
  6
BYBLOCK
 62
0
100
AcDbTrace
 10
0.0
 20
0.0
 11
-1.0
 21
0.3166666667
 12
-1.0
 22
-0.3166666667
 13
-1.0
 23
-0.3166666667
  0
ENDBLK
  5
227
100
AcDbEntity
  8
0
  6
BYBLOCK
 62
0
100
AcDbBlockEnd
  0
BLOCK
  5
228
100
AcDbEntity
  8
0
100
AcDbBlockBegin
 62
7
  6
CONTINUOUS
  2
*D0
 70
65
 10
0.0
 20
0.0
  3
*D0
  1

  0
LINE
  5
229
100
AcDbEntity
  8
0
100
AcDbLine
 62
7
  6
CONTINUOUS
 10
17.9413040667
 20
39.9841900641
 11
17.9413040667
 21
47.3280629474
  0
LINE
  5
22A
100
AcDbEntity
  8
0
100
AcDbLine
 62
7
  6
CONTINUOUS
 10
62.5470347491
 20
39.9841900641
 11
62.5470347491
 21
47.3280629474
  0
LINE
  5
22B
100
AcDbEntity
  8
0
100
AcDbLine
 62
7
  6
CONTINUOUS
 10
17.9413040667
 20
45.8280629474
 11
40.2441694079
 21
45.8280629474
  0
LINE
  5
22C
100
AcDbEntity
  8
0
100
AcDbLine
 62
7
  6
CONTINUOUS
 10
62.5470347491
 20
45.8280629474
 11
40.2441694079
 21
45.8280629474
  0
INSERT
  5
22D
100
AcDbEntity
  8
0
100
AcDbBlockReference
 62
7
  6
CONTINUOUS
  2
_FILLED
 10
17.9413040667
 20
45.8280629474
 41
3.0
 42
3.0
 43
3.0
 50
180.0
  0
INSERT
  5
22E
100
AcDbEntity
  8
0
100
AcDbBlockReference
 62
7
  6
CONTINUOUS
  2
_FILLED
 10
62.5470347491
 20
45.8280629474
 41
3.0
 42
3.0
 43
3.0
  0
ENDBLK
  5
22F
100
AcDbEntity
  8
0
  6
BYBLOCK
 62
0
100
AcDbBlockEnd
  0
BLOCK
  5
230
100
AcDbEntity
  8
0
100
AcDbBlockBegin
 62
7
  6
CONTINUOUS
  2
*D1
 70
65
 10
0.0
 20
0.0
  3
*D1
  1

  0
LINE
  5
231
100
AcDbEntity
  8
0
100
AcDbLine
 62
7
  6
CONTINUOUS
 10
-4.8158022961
 20
39.9841900641
 11
-4.8158022961
 21
46.4414641627
  0
LINE
  5
232
100
AcDbEntity
  8
0
100
AcDbLine
 62
7
  6
CONTINUOUS
 10
-9.4855498247
 20
-11.0732684308
 11
-9.4855498247
 21
46.4414641627
  0
LINE
  5
233
100
AcDbEntity
  8
0
100
AcDbLine
 62
7
  6
CONTINUOUS
 10
-4.8158022961
 20
44.9414641627
 11
-0.8158022961
 21
44.9414641627
  0
LINE
  5
234
100
AcDbEntity
  8
0
100
AcDbLine
 62
7
  6
CONTINUOUS
 10
-0.8158022961
 20
44.9414641627
 11
-7.1506760604
 21
44.9414641627
  0
LINE
  5
235
100
AcDbEntity
  8
0
100
AcDbLine
 62
7
  6
CONTINUOUS
 10
-9.4855498247
 20
44.9414641627
 11
-20.513663348
 21
44.9414641627
  0
LINE
  5
236
100
AcDbEntity
  8
0
100
AcDbLine
 62
7
  6
CONTINUOUS
 10
-20.513663348
 20
44.9414641627
 11
-7.1506760604
 21
44.9414641627
  0
INSERT
  5
237
100
AcDbEntity
  8
0
100
AcDbBlockReference
 62
7
  6
CONTINUOUS
  2
_FILLED
 10
-4.8158022961
 20
44.9414641627
 41
3.0
 42
3.0
 43
3.0
 50
180.0
  0
INSERT
  5
238
100
AcDbEntity
  8
0
100
AcDbBlockReference
 62
7
  6
CONTINUOUS
  2
_FILLED
 10
-9.4855498247
 20
44.9414641627
 41
3.0
 42
3.0
 43
3.0
  0
ENDBLK
  5
239
100
AcDbEntity
  8
0
  6
BYBLOCK
 62
0
100
AcDbBlockEnd
  0
BLOCK
  5
23A
100
AcDbEntity
  8
0
100
AcDbBlockBegin
 62
7
  6
CONTINUOUS
  2
*D2
 70
65
 10
0.0
 20
0.0
  3
*D2
  1

  0
LINE
  5
23B
100
AcDbEntity
  8
0
100
AcDbLine
 62
7
  6
CONTINUOUS
 10
-1.5158022961
 20
1.7342752087
 11
-1.5158022961
 21
54.0645357821
  0
LINE
  5
23C
100
AcDbEntity
  8
0
100
AcDbLine
 62
7
  6
CONTINUOUS
 10
-9.4855498247
 20
-11.0732684308
 11
-9.4855498247
 21
54.0645357821
  0
LINE
  5
23D
100
AcDbEntity
  8
0
100
AcDbLine
 62
7
  6
CONTINUOUS
 10
-1.5158022961
 20
52.5645357821
 11
-5.5006760604
 21
52.5645357821
  0
LINE
  5
23E
100
AcDbEntity
  8
0
100
AcDbLine
 62
7
  6
CONTINUOUS
 10
-9.4855498247
 20
52.5645357821
 11
-5.5006760604
 21
52.5645357821
  0
LINE
  5
23F
100
AcDbEntity
  8
0
100
AcDbLine
 62
7
  6
CONTINUOUS
 10
-5.5006760604
 20
52.5645357821
 11
-16.5581655256
 21
52.5645357821
  0
INSERT
  5
240
100
AcDbEntity
  8
0
100
AcDbBlockReference
 62
7
  6
CONTINUOUS
  2
_FILLED
 10
-1.5158022961
 20
52.5645357821
 41
3.0
 42
3.0
 43
3.0
  0
INSERT
  5
241
100
AcDbEntity
  8
0
100
AcDbBlockReference
 62
7
  6
CONTINUOUS
  2
_FILLED
 10
-9.4855498247
 20
52.5645357821
 41
3.0
 42
3.0
 43
3.0
 50
180.0
  0
ENDBLK
  5
242
100
AcDbEntity
  8
0
  6
BYBLOCK
 62
0
100
AcDbBlockEnd
  0
BLOCK
  5
243
100
AcDbEntity
  8
0
100
AcDbBlockBegin
 62
7
  6
CONTINUOUS
  2
*D3
 70
65
 10
0.0
 20
0.0
  3
*D3
  1

  0
LINE
  5
244
100
AcDbEntity
  8
0
100
AcDbLine
 62
7
  6
CONTINUOUS
 10
62.5472060866
 20
39.9840187266
 11
73.352986654
 21
39.9840187266
  0
LINE
  5
245
100
AcDbEntity
  8
0
100
AcDbLine
 62
7
  6
CONTINUOUS
 10
62.5472060866
 20
-12.7217119558
 11
73.352986654
 21
-12.7217119558
  0
LINE
  5
246
100
AcDbEntity
  8
0
100
AcDbLine
 62
7
  6
CONTINUOUS
 10
71.852986654
 20
39.9840187266
 11
71.852986654
 21
13.6311533854
  0
LINE
  5
247
100
AcDbEntity
  8
0
100
AcDbLine
 62
7
  6
CONTINUOUS
 10
71.852986654
 20
-12.7217119558
 11
71.852986654
 21
13.6311533854
  0
INSERT
  5
248
100
AcDbEntity
  8
0
100
AcDbBlockReference
 62
7
  6
CONTINUOUS
  2
_FILLED
 10
71.852986654
 20
39.9840187266
 41
3.0
 42
3.0
 43
3.0
 50
90.0
  0
INSERT
  5
249
100
AcDbEntity
  8
0
100
AcDbBlockReference
 62
7
  6
CONTINUOUS
  2
_FILLED
 10
71.852986654
 20
-12.7217119558
 41
3.0
 42
3.0
 43
3.0
 50
270.0
  0
ENDBLK
  5
24A
100
AcDbEntity
  8
0
  6
BYBLOCK
 62
0
100
AcDbBlockEnd
  0
ENDSEC
  0
SECTION
  2
ENTITIES
  0
DIMENSION
  5
24B
100
AcDbEntity
  8
0
100
AcDbDimension
 62
7
  6
CONTINUOUS
  2
*D0
 10
62.5470347491
 20
45.8280629474
 11
35.851312265
 21
45.8280629474
 70
160
 71
2
 72
2
 41
0.9
 42
44.6057306824
  3
DIMSTYLE_1
100
AcDbAlignedDimension
 13
17.9413040667
 23
39.4841900641
 14
62.5470347491
 24
39.4841900641
100
AcDbRotatedDimension
  0
DIMENSION
  5
24C
100
AcDbEntity
  8
0
100
AcDbDimension
 62
7
  6
CONTINUOUS
  2
*D1
 10
-9.4855498247
 20
44.9414641627
 11
-20.513663348
 21
44.9414641627
 70
160
 71
3
 72
2
 41
0.9
 42
4.6697475287
  3
DIMSTYLE_1
100
AcDbAlignedDimension
 13
-4.8158022961
 23
39.4841900641
 14
-9.4855498247
 24
-11.5732684308
 50
180.0
100
AcDbRotatedDimension
  0
DIMENSION
  5
24D
100
AcDbEntity
  8
0
100
AcDbDimension
 62
7
  6
CONTINUOUS
  2
*D2
 10
-9.4855498247
 20
52.5645357821
 11
-16.5581655256
 21
52.5645357821
 70
160
 71
3
 72
2
 41
0.9
 42
7.9697475287
  3
DIMSTYLE_1
100
AcDbAlignedDimension
 13
-1.5158022961
 23
1.2342752087
 14
-9.4855498247
 24
-11.5732684308
 50
180.0
100
AcDbRotatedDimension
  0
DIMENSION
  5
24E
100
AcDbEntity
  8
0
100
AcDbDimension
 62
7
  6
CONTINUOUS
  2
*D3
 10
71.852986654
 20
-12.7217119558
 11
71.852986654
 21
9.3454390997
 70
160
 71
2
 72
2
 41
0.9
 42
52.7057306824
  3
DIMSTYLE_1
100
AcDbAlignedDimension
 13
62.0472060866
 23
39.9840187266
 14
62.0472060866
 24
-12.7217119558
 50
270.0
100
AcDbRotatedDimension
  0
LWPOLYLINE
  5
24F
100
AcDbEntity
  8
0
100
AcDbPolyline
 62
7
  6
CONTINUOUS
 90
10
 70
0
 43
0.3500000087
 10
43.3513127991
 20
49.5780648956
 10
42.7084532013
 20
48.9352052979
 10
42.2798843994
 20
48.0780634308
 10
42.2798843994
 20
47.0066350311
 10
42.7084532013
 20
46.5780619659
 10
43.3513127991
 20
46.5780619659
 10
43.779881601
 20
47.0066350311
 10
43.779881601
 20
47.8637768982
 10
43.3513127991
 20
48.2923499634
 10
42.4227392456
 20
48.2923499634
  0
LWPOLYLINE
  5
250
100
AcDbEntity
  8
RACCORDO
100
AcDbPolyline
 62
250
  6
CONTINUOUS
 90
16
 70
0
 10
18.0097771776
 20
3.3448116188
 10
18.0137635023
 20
3.3501862381
 10
18.0230039412
 20
3.3555039151
 10
18.0374005781
 20
3.3607083013
 10
18.05680086
 20
3.3657442483
 10
18.080999214
 20
3.3705583934
 10
18.1097392253
 20
3.3750997252
 10
18.142716354
 20
3.3793201224
 10
18.1795811629
 20
3.3831748638
 10
18.2199430202
 20
3.3866231035
 10
18.2633742376
 20
3.3896283034
 10
18.3094146033
 20
3.3921586192
 10
18.3575762593
 20
3.3941872384
 10
18.4073488692
 20
3.3956926653
 10
18.4582050256
 20
3.3966589487
 10
18.5096058401
 20
3.3970758505
  0
LINE
  5
251
100
AcDbEntity
  8
RACCORDO
100
AcDbLine
 62
250
  6
CONTINUOUS
 10
62.0472060866
 20
39.9840187266
 11
62.0075844705
 21
39.9443971104
  0
LINE
  5
252
100
AcDbEntity
  8
RACCORDO
100
AcDbLine
 62
250
  6
CONTINUOUS
 10
62.5470347491
 20
39.4841900641
 11
62.507413133
 21
39.444568448
  0
LINE
  5
253
100
AcDbEntity
  8
RACCORDO
100
AcDbLine
 62
250
  6
CONTINUOUS
 10
17.9413040667
 20
-12.2218832933
 11
17.9737899683
 21
-12.1893973917
  0
LWPOLYLINE
  5
254
100
AcDbEntity
  8
0
100
AcDbPolyline
 62
7
  6
CONTINUOUS
 90
10
 70
0
 43
0.3500000087
 10
70.6029850464
 20
14.4882966583
 10
70.7458441559
 20
14.5597240814
 10
70.817271579
 20
14.5597240814
 10
70.9601306885
 20
14.4168671036
 10
70.9601306885
 20
14.3454396805
 10
70.8886990021
 20
14.2740101257
 10
70.817271579
 20
14.2740101257
 10
70.6744167328
 20
14.3454396805
 10
70.6029850464
 20
14.4168671036
 10
70.6029850464
 20
14.4882966583
  0
LWPOLYLINE
  5
255
100
AcDbEntity
  8
RACCORDO
100
AcDbPolyline
 62
250
  6
CONTINUOUS
 90
19
 70
0
 10
18.0508354822
 20
-11.5732684308
 10
18.0537967832
 20
-11.5687814382
 10
18.0604244365
 20
-11.5643276238
 10
18.0706693698
 20
-11.5599398499
 10
18.0844557177
 20
-11.5556505179
 10
18.1016816564
 20
-11.5514912407
 10
18.12222039
 20
-11.5474926194
 10
18.1459219672
 20
-11.5436839337
 10
18.1726103835
 20
-11.540093541
 10
18.2020837406
 20
-11.5367484617
 10
18.2341197405
 20
-11.5336735699
 10
18.2684840768
 20
-11.5308910279
 10
18.3049285299
 20
-11.5284208257
 10
18.343212578
 20
-11.5262797624
 10
18.3830281899
 20
-11.5244855379
 10
18.4239987436
 20
-11.5230538925
 10
18.4657884638
 20
-11.5219937666
 10
18.5081139618
 20
-11.5213096244
 10
18.5506641447
 20
-11.5210041992
  0
LWPOLYLINE
  5
256
100
AcDbEntity
  8
RACCORDO
100
AcDbPolyline
 62
250
  6
CONTINUOUS
 90
10
 70
0
 10
17.9737899683
 20
-12.1893973917
 10
17.9740562284
 20
-12.1890272484
 10
17.9743219897
 20
-12.1884513783
 10
17.9745872524
 20
-12.1876697815
 10
17.9748520895
 20
-12.1866821913
 10
17.9751164279
 20
-12.1854888743
 10
17.9753800481
 20
-12.1840906306
 10
17.9756428771
 20
-12.1824877268
 10
17.975904988
 20
-12.1806798963
 10
17.9761663807
 20
-12.178667139
  0
LINE
  5
257
100
AcDbEntity
  8
RACCORDO
100
AcDbLine
 62
250
  6
CONTINUOUS
 10
18.4411327292
 20
-12.7217119558
 11
18.4736186308
 21
-12.6892260542
  0
LWPOLYLINE
  5
258
100
AcDbEntity
  8
RACCORDO
100
AcDbPolyline
 62
250
  6
CONTINUOUS
 90
10
 70
0
 10
18.4736186308
 20
-12.6892260542
 10
18.4738849032
 20
-12.68848706
 10
18.4741506707
 20
-12.687335118
 10
18.4744159333
 20
-12.6857708338
 10
18.4746807602
 20
-12.683795283
 10
18.4749450822
 20
-12.6814092238
 10
18.4752086922
 20
-12.678612532
 10
18.4754715212
 20
-12.675405516
 10
18.4757336382
 20
-12.6717894814
 10
18.4759950432
 20
-12.6677655488
  0
LWPOLYLINE
  5
259
100
AcDbEntity
  8
RACCORDO
100
AcDbPolyline
 62
250
  6
CONTINUOUS
 90
19
 70
0
 10
17.9809256828
 20
39.444568448
 10
17.9828617483
 20
39.4881791819
 10
17.9885954803
 20
39.5314576752
 10
17.9980832485
 20
39.5740738085
 10
18.0112528348
 20
39.615702634
 10
18.0280038587
 20
39.6560264425
 10
18.0482084251
 20
39.6947372337
 10
18.0717141368
 20
39.7315421911
 10
18.0983403879
 20
39.7661578085
 10
18.1278773448
 20
39.7983133296
 10
18.1600929954
 20
39.8277610817
 10
18.1947443363
 20
39.8542834366
 10
18.23157451
 20
39.877685286
 10
18.2703391233
 20
39.8978050615
 10
18.3107097924
 20
39.9144663483
 10
18.3522727182
 20
39.9275137104
 10
18.3946678739
 20
39.9368688953
 10
18.4376037095
 20
39.9425014439
 10
18.4807543453
 20
39.9443971104
  0
LINE
  5
25A
100
AcDbEntity
  8
RACCORDO
100
AcDbLine
 62
250
  6
CONTINUOUS
 10
17.9761663807
 20
-12.178667139
 11
18.0508354822
 21
-11.5732684308
  0
LINE
  5
25B
100
AcDbEntity
  8
RACCORDO
100
AcDbLine
 62
250
  6
CONTINUOUS
 10
18.4759950432
 20
-12.6677655488
 11
18.5506641447
 21
-12.0623668407
  0
LWPOLYLINE
  5
25C
100
AcDbEntity
  8
0
100
AcDbPolyline
 62
7
  6
CONTINUOUS
 90
3
 70
0
 43
0.3500000087
 10
41.2798834229
 20
46.8637759216
 10
41.2084559998
 20
46.649489389
 10
41.0655968903
 20
46.3637754333
  0
LWPOLYLINE
  5
25D
100
AcDbEntity
  8
RACCORDO
100
AcDbPolyline
 62
250
  6
CONTINUOUS
 90
16
 70
0
 10
17.9761663807
 20
-12.178667139
 10
17.9791686495
 20
-12.2296163007
 10
17.9875766734
 20
-12.2800111064
 10
18.0012989681
 20
-12.3293032318
 10
18.0201862274
 20
-12.3769563505
 10
18.044032947
 20
-12.4224519692
 10
18.072579661
 20
-12.4652950697
 10
18.1055157648
 20
-12.5050194946
 10
18.1424828948
 20
-12.5411930194
 10
18.1830788276
 20
-12.5734220555
 10
18.2268618561
 20
-12.6013559326
 10
18.2733555961
 20
-12.6246907141
 10
18.322054169
 20
-12.6431725043
 10
18.3724277065
 20
-12.6566002107
 10
18.4239281159
 20
-12.6648277323
 10
18.4759950432
 20
-12.6677655488
  0
LWPOLYLINE
  5
25E
100
AcDbEntity
  8
RACCORDO
100
AcDbPolyline
 62
250
  6
CONTINUOUS
 90
16
 70
0
 10
17.9737899683
 20
-12.1893973917
 10
17.9765614738
 20
-12.2416209482
 10
17.9847740833
 20
-12.2932728433
 10
17.9983378998
 20
-12.343787662
 10
18.0171044484
 20
-12.3926124359
 10
18.0408683014
 20
-12.4392126963
 10
18.069369327
 20
-12.4830783242
 10
18.1022955373
 20
-12.5237291364
 10
18.1392865026
 20
-12.5607201398
 10
18.1799372961
 20
-12.5936464032
 10
18.2238029292
 20
-12.6221474918
 10
18.2704032205
 20
-12.645911411
 10
18.3192280507
 20
-12.6646780219
 10
18.36974295
 20
-12.6782418903
 10
18.4213949493
 20
-12.6864545355
 10
18.4736186308
 20
-12.6892260542
  0
LWPOLYLINE
  5
25F
100
AcDbEntity
  8
RACCORDO
100
AcDbPolyline
 62
250
  6
CONTINUOUS
 90
19
 70
0
 10
18.0508354822
 20
-11.5732684308
 10
18.0529695459
 20
-11.6158465837
 10
18.0588834297
 20
-11.6581068386
 10
18.0685336634
 20
-11.6997280601
 10
18.0818509796
 20
-11.7404007114
 10
18.0987341884
 20
-11.7798079245
 10
18.1190448367
 20
-11.8176303232
 10
18.142613856
 20
-11.8535675489
 10
18.1692667477
 20
-11.8873659935
 10
18.1988218335
 20
-11.9187953984
 10
18.2310836089
 20
-11.9476354413
 10
18.2657882813
 20
-11.9736389111
 10
18.3026171825
 20
-11.9965723273
 10
18.341285321
 20
-12.0162729109
 10
18.3814926455
 20
-12.0326017484
 10
18.4228621304
 20
-12.045429039
 10
18.4650504169
 20
-12.0546833872
 10
18.5077580985
 20
-12.0603332885
 10
18.5506641447
 20
-12.0623668407
  0
LINE
  5
260
100
AcDbEntity
  8
RACCORDO
100
AcDbLine
 62
250
  6
CONTINUOUS
 10
18.0508354822
 20
-11.5732684308
 11
18.0030425192
 21
5.8689258815
  0
LINE
  5
261
100
AcDbEntity
  8
RACCORDO
100
AcDbLine
 62
250
  6
CONTINUOUS
 10
18.0030425192
 20
5.8689258815
 11
17.9907220657
 21
11.3504168114
  0
LINE
  5
262
100
AcDbEntity
  8
RACCORDO
100
AcDbLine
 62
250
  6
CONTINUOUS
 10
17.9907220657
 20
11.3504168114
 11
17.9848364065
 21
15.3666960268
  0
LINE
  5
263
100
AcDbEntity
  8
RACCORDO
100
AcDbLine
 62
250
  6
CONTINUOUS
 10
18.4905507281
 20
11.3855801813
 11
18.4846650689
 21
15.3871496863
  0
LINE
  5
264
100
AcDbEntity
  8
RACCORDO
100
AcDbLine
 62
250
  6
CONTINUOUS
 10
17.9848364065
 20
15.3666960268
 11
17.9813288405
 21
20.957872538
  0
LINE
  5
265
100
AcDbEntity
  8
RACCORDO
100
AcDbLine
 62
250
  6
CONTINUOUS
 10
18.4846650689
 20
15.3871496863
 11
18.481157503
 21
20.9628615078
  0
LINE
  5
266
100
AcDbEntity
  8
RACCORDO
100
AcDbLine
 62
7
  6
CONTINUOUS
 10
17.9413040667
 20
39.4841900641
 11
17.9413040667
 21
-12.2218832933
  0
LINE
  5
267
100
AcDbEntity
  8
RACCORDO
100
AcDbLine
 62
250
  6
CONTINUOUS
 10
17.9813288405
 20
20.957872538
 11
17.9809256828
 21
39.444568448
  0
LINE
  5
268
100
AcDbEntity
  8
RACCORDO
100
AcDbLine
 62
250
  6
CONTINUOUS
 10
18.481157503
 20
20.9628615078
 11
18.4807543453
 21
39.9443971104
  0
LINE
  5
269
100
AcDbEntity
  8
RACCORDO
100
AcDbLine
 62
250
  6
CONTINUOUS
 10
18.5506641447
 20
-12.0623668407
 11
18.4905507281
 21
11.3855801813
  0
LINE
  5
26A
100
AcDbEntity
  8
0
100
AcDbLine
 62
7
  6
CONTINUOUS
 10
38.6299574951
 20
1.5709584151
 11
37.1277968151
 21
-2.0555782714
  0
LINE
  5
26B
100
AcDbEntity
  8
0
100
AcDbLine
 62
7
  6
CONTINUOUS
 10
36.7135832527
 20
-3.0555782714
 11
36.6624430738
 21
-3.1790415849
  0
LINE
  5
26C
100
AcDbEntity
  8
0
100
AcDbLine
 62
7
  6
CONTINUOUS
 10
37.7455296017
 20
-2.1321149578
 11
39.1075749462
 21
1.1561533854
  0
LWPOLYLINE
  5
26D
100
AcDbEntity
  8
0
100
AcDbPolyline
 62
7
  6
CONTINUOUS
 90
2
 70
0
 43
0.3500000087
 10
36.8513107147
 20
46.5780619659
 10
36.8513107147
 20
48.0780634308
  0
LWPOLYLINE
  5
26E
100
AcDbEntity
  8
0
100
AcDbPolyline
 62
7
  6
CONTINUOUS
 90
2
 70
0
 43
0.3500000087
 10
39.2084540466
 20
46.5780619659
 10
39.2084540466
 20
48.0780634308
  0
LINE
  5
26F
100
AcDbEntity
  8
0
100
AcDbLine
 62
7
  6
CONTINUOUS
 10
39.3985150438
 20
-4.4938466146
 11
39.3985150438
 21
-4.8938466146
  0
LINE
  5
270
100
AcDbEntity
  8
0
100
AcDbLine
 62
7
  6
CONTINUOUS
 10
40.7985150438
 20
-4.8938466146
 11
40.7985150438
 21
-4.4938466146
  0
LWPOLYLINE
  5
271
100
AcDbEntity
  8
RACCORDO
100
AcDbPolyline
 62
250
  6
CONTINUOUS
 90
10
 70
0
 10
62.0123437726
 20
-12.6677655488
 10
62.012604886
 20
-12.6717852463
 10
62.012866784
 20
-12.6753988962
 10
62.0131294666
 20
-12.6786050423
 10
62.0133930026
 20
-12.6814020416
 10
62.0136573231
 20
-12.6837892431
 10
62.0139222222
 20
-12.6857664257
 10
62.0141876313
 20
-12.6873324886
 10
62.0144536188
 20
-12.6884860144
 10
62.014720185
 20
-12.6892260542
  0
LINE
  5
272
100
AcDbEntity
  8
RACCORDO
100
AcDbLine
 62
7
  6
CONTINUOUS
 10
62.5470347491
 20
39.4841900641
 11
62.5470347491
 21
-12.2218832933
  0
LINE
  5
273
100
AcDbEntity
  8
RACCORDO
100
AcDbLine
 62
250
  6
CONTINUOUS
 10
62.0075844705
 20
39.9443971104
 11
62.0072755554
 21
21.3499078661
  0
LINE
  5
274
100
AcDbEntity
  8
RACCORDO
100
AcDbLine
 62
250
  6
CONTINUOUS
 10
62.507413133
 20
39.444568448
 11
62.5071042179
 21
21.3456552504
  0
LINE
  5
275
100
AcDbEntity
  8
RACCORDO
100
AcDbLine
 62
250
  6
CONTINUOUS
 10
62.0072755554
 20
21.3499078661
 11
61.9978850724
 21
11.4380316921
  0
LINE
  5
276
100
AcDbEntity
  8
RACCORDO
100
AcDbLine
 62
250
  6
CONTINUOUS
 10
62.5071042179
 20
21.3456552504
 11
62.4977137349
 21
11.4030405446
  0
LINE
  5
277
100
AcDbEntity
  8
RACCORDO
100
AcDbLine
 62
250
  6
CONTINUOUS
 10
61.9978850724
 20
11.4380316921
 11
61.9826439408
 21
4.8405897633
  0
LINE
  5
278
100
AcDbEntity
  8
RACCORDO
100
AcDbLine
 62
250
  6
CONTINUOUS
 10
62.4977137349
 20
11.4030405446
 11
62.4824726034
 21
4.7900899203
  0
LINE
  5
279
100
AcDbEntity
  8
RACCORDO
100
AcDbLine
 62
250
  6
CONTINUOUS
 10
61.9826439408
 20
4.8405897633
 11
61.9376746711
 21
-12.0623668407
  0
LINE
  5
27A
100
AcDbEntity
  8
RACCORDO
100
AcDbLine
 62
250
  6
CONTINUOUS
 10
62.4824726034
 20
4.7900899203
 11
62.4375033336
 21
-11.5732684308
  0
LWPOLYLINE
  5
27B
100
AcDbEntity
  8
RACCORDO
100
AcDbPolyline
 62
250
  6
CONTINUOUS
 90
19
 70
0
 10
62.4375033336
 20
-11.5732684308
 10
62.4353731368
 20
-11.6158057994
 10
62.4294714617
 20
-11.6580201536
 10
62.4198432076
 20
-11.6995916223
 10
62.4065615966
 20
-11.7402049968
 10
62.3897273922
 20
-11.7795528365
 10
62.3694679279
 20
-11.8173377163
 10
62.345935116
 20
-11.8532755223
 10
62.3193084388
 20
-11.8870914799
 10
62.2897949382
 20
-11.9185241623
 10
62.2576234645
 20
-11.9473335471
 10
62.2230356378
 20
-11.9733066659
 10
62.1862877728
 20
-11.9962521776
 10
62.1476285837
 20
-12.016009818
 10
62.1073776584
 20
-12.0324115294
 10
62.0659265724
 20
-12.0453099967
 10
62.0236245539
 20
-12.0546242972
 10
61.9807661074
 20
-12.0603166385
 10
61.9376746711
 20
-12.0623668407
  0
LWPOLYLINE
  5
27C
100
AcDbEntity
  8
RACCORDO
100
AcDbPolyline
 62
250
  6
CONTINUOUS
 90
16
 70
0
 10
62.5145488474
 20
-12.1893973917
 10
62.5117773346
 20
-12.2416210177
 10
62.5035647056
 20
-12.2932729694
 10
62.4900008612
 20
-12.3437878303
 10
62.4712342803
 20
-12.3926126314
 10
62.4474703943
 20
-12.4392129041
 10
62.4189693384
 20
-12.4830785311
 10
62.386043104
 20
-12.5237293301
 10
62.3490521234
 20
-12.5607203107
 10
62.3084013244
 20
-12.5936465452
 10
62.2645356974
 20
-12.6221476011
 10
62.2179354247
 20
-12.6459114871
 10
62.1691106236
 20
-12.6646780679
 10
62.1185957627
 20
-12.6782419123
 10
62.066943811
 20
-12.6864545413
 10
62.014720185
 20
-12.6892260542
  0
LWPOLYLINE
  5
27D
100
AcDbEntity
  8
RACCORDO
100
AcDbPolyline
 62
250
  6
CONTINUOUS
 90
16
 70
0
 10
62.5121724351
 20
-12.178667139
 10
62.5091701688
 20
-12.2296162786
 10
62.5007621513
 20
-12.2800110662
 10
62.4870398657
 20
-12.3293031782
 10
62.468152617
 20
-12.3769562882
 10
62.4443059081
 20
-12.422451903
 10
62.415759204
 20
-12.4652950037
 10
62.382823108
 20
-12.5050194327
 10
62.345855983
 20
-12.5411929648
 10
62.305260052
 20
-12.5734220101
 10
62.2614770214
 20
-12.6013558975
 10
62.2149832754
 20
-12.6246906896
 10
62.1662846931
 20
-12.6431724894
 10
62.115911143
 20
-12.6566002036
 10
62.0644107181
 20
-12.6648277303
 10
62.0123437726
 20
-12.6677655488
  0
LINE
  5
27E
100
AcDbEntity
  8
0
100
AcDbLine
 62
7
  6
CONTINUOUS
 10
41.3807638695
 20
1.1561533854
 11
43.0997501533
 21
-2.9938466146
  0
LINE
  5
27F
100
AcDbEntity
  8
0
100
AcDbLine
 62
7
  6
CONTINUOUS
 10
43.8258957419
 20
-3.1790415849
 11
41.8583813206
 21
1.5709584151
  0
LWPOLYLINE
  5
280
100
AcDbEntity
  8
RACCORDO
100
AcDbPolyline
 62
250
  6
CONTINUOUS
 90
19
 70
0
 10
62.507413133
 20
39.444568448
 10
62.5054722663
 20
39.4882335396
 10
62.4997231977
 20
39.5315712366
 10
62.4902081911
 20
39.574249836
 10
62.4769951591
 20
39.6159511918
 10
62.4601852539
 20
39.656346309
 10
62.4399196718
 20
39.6951009307
 10
62.4163717208
 20
39.7319022315
 10
62.3897161246
 20
39.7664931277
 10
62.3601313909
 20
39.7986422945
 10
62.3278085767
 20
39.8281266402
 10
62.2930176822
 20
39.8546856816
 10
62.2560914729
 20
39.8780719925
 10
62.2173195086
 20
39.8981205829
 10
62.1770054305
 20
39.914691915
 10
62.1355421309
 20
39.9276531346
 10
62.0932811563
 20
39.9369371553
 10
62.0505209359
 20
39.942520103
 10
62.0075844704
 20
39.9443971104
  0
LWPOLYLINE
  5
281
100
AcDbEntity
  8
0
100
AcDbPolyline
 62
7
  6
CONTINUOUS
 90
7
 70
0
 43
0.3500000087
 10
71.1029855347
 20
12.9882951935
 10
71.1029855347
 20
11.4882958603
 10
68.9601287354
 20
12.9882951935
 10
68.5315599335
 20
12.9882951935
 10
68.1029868683
 20
12.5597242599
 10
68.1029868683
 20
11.9168667938
 10
68.7458422028
 20
11.4882958603
  0
LWPOLYLINE
  5
282
100
AcDbEntity
  8
0
100
AcDbPolyline
 62
7
  6
CONTINUOUS
 90
8
 70
0
 43
0.3500000087
 10
71.1029855347
 20
9.345439061
 10
71.1029855347
 20
10.202580928
 10
70.6744167328
 20
10.6311539932
 10
69.8172706024
 20
10.6311539932
 10
69.3887018005
 20
10.202580928
 10
69.3887018005
 20
9.345439061
 10
68.1029868683
 20
9.345439061
 10
68.1029868683
 20
10.6311539932
  0
LWPOLYLINE
  5
283
100
AcDbEntity
  8
RACCORDO
100
AcDbPolyline
 62
250
  6
CONTINUOUS
 90
10
 70
0
 10
62.5121724351
 20
-12.178667139
 10
62.5124335362
 20
-12.1806780607
 10
62.5126954281
 20
-12.182484643
 10
62.5129581108
 20
-12.1840868857
 10
62.513221657
 20
-12.185485227
 10
62.5134859939
 20
-12.1866792287
 10
62.5137509033
 20
-12.1876675774
 10
62.5140163123
 20
-12.1884498352
 10
62.5142822937
 20
-12.18902644
 10
62.5145488474
 20
-12.1893973917
  0
LINE
  5
284
100
AcDbEntity
  8
RACCORDO
100
AcDbLine
 62
250
  6
CONTINUOUS
 10
61.9376746711
 20
-12.0623668407
 11
62.0123437726
 21
-12.6677655488
  0
LINE
  5
285
100
AcDbEntity
  8
RACCORDO
100
AcDbLine
 62
250
  6
CONTINUOUS
 10
62.4375033336
 20
-11.5732684308
 11
62.5121724351
 21
-12.178667139
  0
LINE
  5
286
100
AcDbEntity
  8
RACCORDO
100
AcDbLine
 62
7
  6
CONTINUOUS
 10
18.4411327292
 20
-12.7217119558
 11
62.0472060866
 21
-12.7217119558
  0
LINE
  5
287
100
AcDbEntity
  8
RACCORDO
100
AcDbLine
 62
250
  6
CONTINUOUS
 10
62.014720185
 20
-12.6892260542
 11
18.4736186308
 21
-12.6892260542
  0
LINE
  5
288
100
AcDbEntity
  8
RACCORDO
100
AcDbLine
 62
250
  6
CONTINUOUS
 10
62.0123437726
 20
-12.6677655488
 11
18.4759950432
 21
-12.6677655488
  0
LINE
  5
289
100
AcDbEntity
  8
RACCORDO
100
AcDbLine
 62
250
  6
CONTINUOUS
 10
61.9376746711
 20
-12.0623668407
 11
18.5506641447
 21
-12.0623668407
  0
LINE
  5
28A
100
AcDbEntity
  8
RACCORDO
100
AcDbLine
 62
250
  6
CONTINUOUS
 10
61.9376746711
 20
-11.5210041992
 11
18.5506641447
 21
-11.5210041992
  0
LINE
  5
28B
100
AcDbEntity
  8
RACCORDO
100
AcDbLine
 62
250
  6
CONTINUOUS
 10
62.014720185
 20
-12.6892260542
 11
62.0472060866
 21
-12.7217119558
  0
LINE
  5
28C
100
AcDbEntity
  8
RACCORDO
100
AcDbLine
 62
250
  6
CONTINUOUS
 10
62.5145488474
 20
-12.1893973917
 11
62.5470347491
 21
-12.2218832933
  0
LWPOLYLINE
  5
28D
100
AcDbEntity
  8
RACCORDO
100
AcDbPolyline
 62
250
  6
CONTINUOUS
 90
19
 70
0
 10
62.4375033336
 20
-11.5732684308
 10
62.4345373953
 20
-11.568777116
 10
62.4278968587
 20
-11.5643184469
 10
62.4176294488
 20
-11.5599254155
 10
62.4038071527
 20
-11.555629841
 10
62.3865323653
 20
-11.5514643019
 10
62.3659428352
 20
-11.5474616554
 10
62.3422050075
 20
-11.5436528508
 10
62.3154898194
 20
-11.5400640961
 10
62.2859748071
 20
-11.536719232
 10
62.2538503771
 20
-11.5336410767
 10
62.2193724667
 20
-11.5308552951
 10
62.1828494358
 20
-11.5283862648
 10
62.1445560303
 20
-11.5262510759
 10
62.1047817824
 20
-11.5244644609
 10
62.0638908815
 20
-11.5230403972
 10
62.0222141182
 20
-11.5219868097
 10
61.9800391222
 20
-11.5213074643
 10
61.9376746711
 20
-11.5210041992
  0
LINE
  5
28E
100
AcDbEntity
  8
0
100
AcDbLine
 62
7
  6
CONTINUOUS
 10
39.4985150438
 20
-4.9938466146
 11
40.6985150438
 21
-4.9938466146
  0
LINE
  5
28F
100
AcDbEntity
  8
0
100
AcDbLine
 62
7
  6
CONTINUOUS
 10
40.6985150438
 20
-4.3938466146
 11
39.4985150438
 21
-4.3938466146
  0
LINE
  5
290
100
AcDbEntity
  8
0
100
AcDbLine
 62
7
  6
CONTINUOUS
 10
36.9396069336
 20
-3.5938466146
 11
43.5487318821
 21
-3.5938466146
  0
LINE
  5
291
100
AcDbEntity
  8
0
100
AcDbLine
 62
7
  6
CONTINUOUS
 10
43.0997501533
 20
-2.9938466146
 11
36.805971206
 21
-2.9938466146
  0
LINE
  5
292
100
AcDbEntity
  8
0
100
AcDbLine
 62
7
  6
CONTINUOUS
 10
37.2201847684
 20
-2.1938466146
 11
37.6531416485
 21
-2.1938466146
  0
LINE
  5
293
100
AcDbEntity
  8
RACCORDO
100
AcDbLine
 62
250
  6
CONTINUOUS
 10
17.9809256828
 20
39.444568448
 11
17.9413040667
 21
39.4841900641
  0
LINE
  5
294
100
AcDbEntity
  8
RACCORDO
100
AcDbLine
 62
250
  6
CONTINUOUS
 10
18.4807543453
 20
39.9443971104
 11
18.4411327292
 21
39.9840187266
  0
LWPOLYLINE
  5
295
100
AcDbEntity
  8
RACCORDO
100
AcDbPolyline
 62
250
  6
CONTINUOUS
 90
16
 70
0
 10
62.4785616382
 20
3.3448116188
 10
62.4745753169
 20
3.3501863106
 10
62.4653348857
 20
3.3555040503
 10
62.450938259
 20
3.3607084895
 10
62.4315379885
 20
3.3657444802
 10
62.4073396457
 20
3.3705586593
 10
62.3785996444
 20
3.3751000143
 10
62.3456225232
 20
3.3793204233
 10
62.3087577185
 20
3.3831751656
 10
62.2683958622
 20
3.3866233951
 10
62.2249646417
 20
3.389628573
 10
62.1789242687
 20
3.3921588557
 10
62.1307626024
 20
3.3941874313
 10
62.0809899797
 20
3.3956928044
 10
62.0301338079
 20
3.3966590236
 10
61.9787329757
 20
3.3970758505
  0
LWPOLYLINE
  5
296
100
AcDbEntity
  8
0
100
AcDbPolyline
 62
7
  6
CONTINUOUS
 90
10
 70
0
 43
0.3500000087
 10
41.2084559998
 20
47.0780624542
 10
41.2798834229
 20
46.935207608
 10
41.2798834229
 20
46.8637759216
 10
41.1370285767
 20
46.7209210754
 10
41.0655968903
 20
46.7209210754
 10
40.9941694672
 20
46.7923484985
 10
40.9941694672
 20
46.8637759216
 10
41.0655968903
 20
47.0066350311
 10
41.1370285767
 20
47.0780624542
 10
41.2084559998
 20
47.0780624542
  0
LINE
  5
297
100
AcDbEntity
  8
0
100
AcDbLine
 62
7
  6
CONTINUOUS
 10
39.1075749462
 20
1.1561533854
 11
41.3807638695
 21
1.1561533854
  0
LINE
  5
298
100
AcDbEntity
  8
0
100
AcDbLine
 62
7
  6
CONTINUOUS
 10
41.5812174609
 20
1.7561533854
 11
38.9071213549
 21
1.7561533854
  0
LINE
  5
299
100
AcDbEntity
  8
RACCORDO
100
AcDbLine
 62
250
  6
CONTINUOUS
 10
18.5096058401
 20
3.3970758505
 11
61.9787329757
 21
3.3970758505
  0
LWPOLYLINE
  5
29A
100
AcDbEntity
  8
0
100
AcDbPolyline
 62
7
  6
CONTINUOUS
 90
4
 70
0
 43
0.3500000087
 10
68.7458422028
 20
15.559725058
 10
68.1029868683
 20
15.559725058
 10
68.1029868683
 20
17.0597265228
 10
71.1029855347
 20
16.2025803925
  0
LINE
  5
29B
100
AcDbEntity
  8
RACCORDO
100
AcDbLine
 62
250
  6
CONTINUOUS
 10
17.9809256828
 20
24.3682960803
 11
62.507413133
 21
24.3682960803
  0
LWPOLYLINE
  5
29C
100
AcDbEntity
  8
0
100
AcDbPolyline
 62
7
  6
CONTINUOUS
 90
3
 70
0
 43
0.3500000087
 10
70.817271579
 20
14.5597240814
 10
71.0315581116
 20
14.4882966583
 10
71.3172720673
 20
14.3454396805
  0
LINE
  5
29D
100
AcDbEntity
  8
RACCORDO
100
AcDbLine
 62
250
  6
CONTINUOUS
 10
17.9809256828
 20
39.444568448
 11
62.507413133
 21
39.444568448
  0
LINE
  5
29E
100
AcDbEntity
  8
RACCORDO
100
AcDbLine
 62
250
  6
CONTINUOUS
 10
62.0075844705
 20
39.9443971104
 11
18.4807543453
 21
39.9443971104
  0
LINE
  5
29F
100
AcDbEntity
  8
RACCORDO
100
AcDbLine
 62
7
  6
CONTINUOUS
 10
18.4411327292
 20
39.9840187266
 11
62.0472060866
 21
39.9840187266
  0
LWPOLYLINE
  5
2A0
100
AcDbEntity
  8
0
100
AcDbPolyline
 62
7
  6
CONTINUOUS
 90
3
 70
0
 43
0.3500000087
 10
39.7084545349
 20
47.2209215637
 10
38.2084530701
 20
47.2209215637
 10
38.8513126678
 20
49.5780648956
  0
LWPOLYLINE
  5
2A1
100
AcDbEntity
  8
0
100
AcDbPolyline
 62
7
  6
CONTINUOUS
 90
3
 70
0
 43
0.3500000087
 10
37.351311203
 20
47.2209215637
 10
35.8513140015
 20
47.2209215637
 10
36.4941693359
 20
49.5780648956
  0
LWPOLYLINE
  5
2A2
100
AcDbEntity
  8
RACCORDO
100
AcDbPolyline
 62
7
  6
CONTINUOUS
 90
13
 70
0
 10
-3.2644933157
 20
34.0449325747
 10
-3.2440437228
 20
34.056485447
 10
-3.2242933033
 20
34.06638826
 10
-3.2055747631
 20
34.0747550787
 10
-3.1882451535
 20
34.0816763661
 10
-3.1724669947
 20
34.0873561474
 10
-3.1582658817
 20
34.0920586406
 10
-3.1458446546
 20
34.0959514479
 10
-3.1354018606
 20
34.0991424555
 10
-3.1270171942
 20
34.1017610072
 10
-3.1208511628
 20
34.1039482768
 10
-3.1170772864
 20
34.1058793756
 10
-3.1158022961
 20
34.107734896
  0
LINE
  5
2A3
100
AcDbEntity
  8
RACCORDO
100
AcDbLine
 62
250
  6
CONTINUOUS
 10
-3.488497902
 20
35.0553275038
 11
-3.51115389
 21
35.0321796312
  0
LINE
  5
2A4
100
AcDbEntity
  8
RACCORDO
100
AcDbLine
 62
250
  6
CONTINUOUS
 10
-3.2852084681
 20
34.8317363629
 11
-3.330045356
 21
34.786260387
  0
LINE
  5
2A5
100
AcDbEntity
  8
RACCORDO
100
AcDbLine
 62
250
  6
CONTINUOUS
 10
-3.51115389
 20
35.0321796312
 11
-3.582927841
 21
34.9597176257
  0
LINE
  5
2A6
100
AcDbEntity
  8
RACCORDO
100
AcDbLine
 62
250
  6
CONTINUOUS
 10
-3.582927841
 20
34.9597176257
 11
-3.6501566948
 21
34.8923188579
  0
LINE
  5
2A7
100
AcDbEntity
  8
RACCORDO
100
AcDbLine
 62
250
  6
CONTINUOUS
 10
-3.330045356
 20
34.786260387
 11
-3.4368439669
 21
34.67900613
  0
LWPOLYLINE
  5
2A8
100
AcDbEntity
  8
RACCORDO
100
AcDbPolyline
 62
7
  6
CONTINUOUS
 90
3
 70
0
 10
-4.7739704836
 20
16.437967022
 10
-4.8135324634
 20
16.4163400924
 10
-4.8158022961
 20
16.4150835523
  0
LINE
  5
2A9
100
AcDbEntity
  8
RACCORDO
100
AcDbLine
 62
250
  6
CONTINUOUS
 10
-4.6594685257
 20
16.3877086378
 11
-4.739024094
 21
16.3446979722
  0
LINE
  5
2AA
100
AcDbEntity
  8
RACCORDO
100
AcDbLine
 62
250
  6
CONTINUOUS
 10
-4.2916540177
 20
16.5835059551
 11
-4.3555534752
 21
16.5489632323
  0
LINE
  5
2AB
100
AcDbEntity
  8
RACCORDO
100
AcDbLine
 62
7
  6
CONTINUOUS
 10
-4.6980868848
 20
16.4788433025
 11
-4.7739704836
 21
16.437967022
  0
LINE
  5
2AC
100
AcDbEntity
  8
RACCORDO
100
AcDbLine
 62
250
  6
CONTINUOUS
 10
-4.3555534752
 20
16.5489632323
 11
-4.4497683963
 21
16.4987914726
  0
LINE
  5
2AD
100
AcDbEntity
  8
RACCORDO
100
AcDbLine
 62
7
  6
CONTINUOUS
 10
-4.5605423586
 20
16.551767421
 11
-4.6980868848
 21
16.4788433025
  0
LINE
  5
2AE
100
AcDbEntity
  8
RACCORDO
100
AcDbLine
 62
250
  6
CONTINUOUS
 10
-4.4497683963
 20
16.4987914726
 11
-4.6594685257
 21
16.3877086378
  0
LINE
  5
2AF
100
AcDbEntity
  8
RACCORDO
100
AcDbLine
 62
250
  6
CONTINUOUS
 10
-4.6023188565
 20
18.086426806
 11
-4.8158022961
 21
17.9765780776
  0
LWPOLYLINE
  5
2B0
100
AcDbEntity
  8
RACCORDO
100
AcDbPolyline
 62
250
  6
CONTINUOUS
 90
5
 70
0
 10
-4.1752467664
 20
17.2472649101
 10
-4.2256663361
 20
17.2222633254
 10
-4.2756402447
 20
17.197754619
 10
-4.3251684921
 20
17.1737387907
 10
-4.3737924386
 20
17.1505060113
  0
LINE
  5
2B1
100
AcDbEntity
  8
RACCORDO
100
AcDbLine
 62
7
  6
CONTINUOUS
 10
-4.8068543708
 20
17.0545819258
 11
-4.8158022961
 21
17.0501791424
  0
LWPOLYLINE
  5
2B2
100
AcDbEntity
  8
RACCORDO
100
AcDbPolyline
 62
250
  6
CONTINUOUS
 90
3
 70
0
 10
-4.7332785157
 20
16.9806304017
 10
-4.7878137858
 20
16.9540683555
 10
-4.8158022961
 20
16.9401766706
  0
LWPOLYLINE
  5
2B3
100
AcDbEntity
  8
IMPORT_IGES
100
AcDbPolyline
 62
7
  6
CONTINUOUS
 90
5
 70
0
 10
-4.3270428525
 20
19.5945120138
 10
-4.3463142988
 20
19.5851515086
 10
-4.5092918697
 20
19.5031498215
 10
-4.6767737167
 20
19.4168125286
 10
-4.8158022961
 20
19.3442341728
  0
LINE
  5
2B4
100
AcDbEntity
  8
RACCORDO
100
AcDbLine
 62
7
  6
CONTINUOUS
 10
-4.8085443254
 20
17.0537571593
 11
-4.7247996117
 21
17.0941598993
  0
LINE
  5
2B5
100
AcDbEntity
  8
RACCORDO
100
AcDbLine
 62
250
  6
CONTINUOUS
 10
-4.6253623653
 20
17.0321596587
 11
-4.7332785157
 21
16.9806304017
  0
LINE
  5
2B6
100
AcDbEntity
  8
RACCORDO
100
AcDbLine
 62
7
  6
CONTINUOUS
 10
-4.6536719041
 20
17.1279003881
 11
-4.7549787059
 21
17.0797012634
  0
LINE
  5
2B7
100
AcDbEntity
  8
RACCORDO
100
AcDbLine
 62
7
  6
CONTINUOUS
 10
-4.555802615
 20
17.1738865136
 11
-4.683034512
 21
17.1140200612
  0
LINE
  5
2B8
100
AcDbEntity
  8
RACCORDO
100
AcDbLine
 62
250
  6
CONTINUOUS
 10
-4.3737924386
 20
17.1505060113
 11
-4.6253623653
 21
17.0321596587
  0
LWPOLYLINE
  5
2B9
100
AcDbEntity
  8
RACCORDO
100
AcDbPolyline
 62
250
  6
CONTINUOUS
 90
7
 70
0
 10
-4.1058022991
 20
18.3301525743
 10
-4.1710514859
 20
18.2996369681
 10
-4.238228529
 20
18.2676592949
 10
-4.3073334286
 20
18.2342195545
 10
-4.3785744659
 20
18.1991641868
 10
-4.4517433596
 20
18.162646752
 10
-4.6023188565
 20
18.086426806
  0
LWPOLYLINE
  5
2BA
100
AcDbEntity
  8
RACCORDO
100
AcDbPolyline
 62
250
  6
CONTINUOUS
 90
9
 70
0
 10
-4.1058023007
 20
18.4289341636
 10
-4.1704773908
 20
18.3989347641
 10
-4.2370090765
 20
18.367616397
 10
-4.3053973578
 20
18.3349144783
 10
-4.3757723252
 20
18.3007001012
 10
-4.4480038882
 20
18.2650214736
 10
-4.5217017759
 20
18.2281221789
 10
-4.5972179845
 20
18.1898954897
 10
-4.8158022961
 20
18.0777868158
  0
LWPOLYLINE
  5
2BB
100
AcDbEntity
  8
RACCORDO
100
AcDbPolyline
 62
250
  6
CONTINUOUS
 90
3
 70
0
 10
-4.7407941691
 20
17.5833879619
 10
-4.7923598596
 20
17.5607645976
 10
-4.8158022961
 20
17.5502945079
  0
LWPOLYLINE
  5
2BC
100
AcDbEntity
  8
RACCORDO
100
AcDbPolyline
 62
7
  6
CONTINUOUS
 90
3
 70
0
 10
-4.7482818675
 20
17.6877463787
 10
-4.7983135456
 20
17.6659863314
 10
-4.8158022961
 20
17.6582637082
  0
LINE
  5
2BD
100
AcDbEntity
  8
RACCORDO
100
AcDbLine
 62
250
  6
CONTINUOUS
 10
-4.6385413253
 20
17.6273970546
 11
-4.7407941691
 21
17.5833879619
  0
LINE
  5
2BE
100
AcDbEntity
  8
RACCORDO
100
AcDbLine
 62
7
  6
CONTINUOUS
 10
-4.6504765803
 20
17.7295863653
 11
-4.7482818675
 21
17.6877463787
  0
LINE
  5
2BF
100
AcDbEntity
  8
RACCORDO
100
AcDbLine
 62
7
  6
CONTINUOUS
 10
-4.5558019797
 20
17.7696134689
 11
-4.6504765803
 21
17.7295863653
  0
LINE
  5
2C0
100
AcDbEntity
  8
RACCORDO
100
AcDbLine
 62
250
  6
CONTINUOUS
 10
-4.3543321016
 20
17.7478810644
 11
-4.6385413253
 21
17.6273970546
  0
LINE
  5
2C1
100
AcDbEntity
  8
RACCORDO
100
AcDbLine
 62
250
  6
CONTINUOUS
 10
-4.2041563581
 20
18.4772236739
 11
-4.2706640362
 21
18.4500730473
  0
LINE
  5
2C2
100
AcDbEntity
  8
RACCORDO
100
AcDbLine
 62
250
  6
CONTINUOUS
 10
-4.2706640362
 20
18.4500730473
 11
-4.3344304355
 21
18.4245435943
  0
LINE
  5
2C3
100
AcDbEntity
  8
RACCORDO
100
AcDbLine
 62
7
  6
CONTINUOUS
 10
-4.2812266741
 20
18.4549760177
 11
-4.3811191033
 21
18.4153810415
  0
LINE
  5
2C4
100
AcDbEntity
  8
RACCORDO
100
AcDbLine
 62
7
  6
CONTINUOUS
 10
-4.8158022961
 20
18.2467257915
 11
-4.6986418627
 21
18.2929040294
  0
LINE
  5
2C5
100
AcDbEntity
  8
RACCORDO
100
AcDbLine
 62
250
  6
CONTINUOUS
 10
-4.7282788833
 20
18.2724266071
 11
-4.8158022961
 21
18.2379337699
  0
LWPOLYLINE
  5
2C6
100
AcDbEntity
  8
RACCORDO
100
AcDbPolyline
 62
7
  6
CONTINUOUS
 90
10
 70
0
 10
-4.281226654
 20
18.4549759675
 10
-4.2739389877
 20
18.4578146604
 10
-4.2663530194
 20
18.4605782846
 10
-4.2584605129
 20
18.4632603643
 10
-4.2502537789
 20
18.4658566619
 10
-4.2417244742
 20
18.4683605323
 10
-4.232861128
 20
18.4707586121
 10
-4.223651888
 20
18.4730391869
 10
-4.2140871386
 20
18.4751966875
 10
-4.2041565406
 20
18.477224055
  0
LINE
  5
2C7
100
AcDbEntity
  8
RACCORDO
100
AcDbLine
 62
250
  6
CONTINUOUS
 10
-4.3344304355
 20
18.4245435943
 11
-4.4284130235
 21
18.3877969805
  0
LINE
  5
2C8
100
AcDbEntity
  8
RACCORDO
100
AcDbLine
 62
7
  6
CONTINUOUS
 10
-4.3811191033
 20
18.4153810415
 11
-4.7007441757
 21
18.2920868195
  0
LINE
  5
2C9
100
AcDbEntity
  8
RACCORDO
100
AcDbLine
 62
250
  6
CONTINUOUS
 10
-4.4284130235
 20
18.3877969805
 11
-4.7282788833
 21
18.2724266071
  0
LWPOLYLINE
  5
2CA
100
AcDbEntity
  8
RACCORDO
100
AcDbPolyline
 62
250
  6
CONTINUOUS
 90
4
 70
0
 10
-3.4755616333
 20
35.0690955532
 10
-3.4769203138
 20
35.0674532192
 10
-3.4812569433
 20
35.0628377516
 10
-3.488497902
 20
35.0553275038
  0
LWPOLYLINE
  5
2CB
100
AcDbEntity
  8
RACCORDO
100
AcDbPolyline
 62
250
  6
CONTINUOUS
 90
5
 70
0
 10
-3.2622489055
 20
34.8557828253
 10
-3.2636076702
 20
34.8541404233
 10
-3.2679445093
 20
34.8495247596
 10
-3.2751857623
 20
34.8420142286
 10
-3.2852084681
 20
34.8317363629
  0
LWPOLYLINE
  5
2CC
100
AcDbEntity
  8
RACCORDO
100
AcDbPolyline
 62
250
  6
CONTINUOUS
 90
3
 70
0
 10
-4.5494167131
 20
15.7964503311
 10
-4.6400481164
 20
15.7371557475
 10
-4.684782069
 20
15.7081936747
  0
LINE
  5
2CD
100
AcDbEntity
  8
RACCORDO
100
AcDbLine
 62
250
  6
CONTINUOUS
 10
-4.684782069
 20
15.7081936747
 11
-4.807749836
 21
15.6297335194
  0
LWPOLYLINE
  5
2CE
100
AcDbEntity
  8
RACCORDO
100
AcDbPolyline
 62
250
  6
CONTINUOUS
 90
3
 70
0
 10
-4.1891054997
 20
16.6403198551
 10
-4.2582657475
 20
16.601842026
 10
-4.2916540177
 20
16.5835059551
  0
LWPOLYLINE
  5
2CF
100
AcDbEntity
  8
RACCORDO
100
AcDbPolyline
 62
250
  6
CONTINUOUS
 90
3
 70
0
 10
-4.739024094
 20
16.3446979722
 10
-4.78050501
 20
16.3219650737
 10
-4.8158022961
 20
16.3023460765
  0
LINE
  5
2D0
100
AcDbEntity
  8
DRAFT
100
AcDbLine
 62
7
  6
CONTINUOUS
 10
-3.8545602316
 20
19.1311533854
 11
-3.3010863534
 21
19.6555900054
  0
LWPOLYLINE
  5
2D1
100
AcDbEntity
  8
0
100
AcDbPolyline
 62
7
  6
CONTINUOUS
 90
3
 70
0
 43
0.3500000087
 10
-17.4422343765
 20
45.9771788757
 10
-17.5136628654
 20
45.7628923431
 10
-17.6565209091
 20
45.4771783875
  0
LINE
  5
2D2
100
AcDbEntity
  8
DRAFT
100
AcDbLine
 62
7
  6
CONTINUOUS
 10
-4.792235684
 20
7.4097199974
 11
-4.2708022961
 21
7.9311533854
  0
LINE
  5
2D3
100
AcDbEntity
  8
0
100
AcDbLine
 62
7
  6
CONTINUOUS
 10
-4.792235684
 20
5.3092634893
 11
-3.7585239546
 21
7.4960734908
  0
LINE
  5
2D4
100
AcDbEntity
  8
IMPORT_IGES
100
AcDbLine
 62
7
  6
CONTINUOUS
 10
-3.7585239546
 20
7.4960734908
 11
-3.5708022961
 21
7.8931973589
  0
LWPOLYLINE
  5
2D5
100
AcDbEntity
  8
0
100
AcDbPolyline
 62
7
  6
CONTINUOUS
 90
2
 70
0
 43
0.3500000087
 10
-19.5136637527
 20
45.69146492
 10
-19.5136637527
 20
47.1914621216
  0
LWPOLYLINE
  5
2D6
100
AcDbEntity
  8
0
100
AcDbPolyline
 62
7
  6
CONTINUOUS
 90
4
 70
0
 43
0.3500000087
 10
-16.5581654709
 20
53.7431056274
 10
-16.5581654709
 20
54.6002517578
 10
-16.1295945374
 20
55.028824823
 10
-15.4867370712
 20
55.028824823
  0
LWPOLYLINE
  5
2D7
100
AcDbEntity
  8
0
100
AcDbPolyline
 62
7
  6
CONTINUOUS
 90
4
 70
0
 43
0.3500000087
 10
-16.4422344658
 20
48.048608252
 10
-16.4422344658
 20
48.6914635864
 10
-14.9422351326
 20
48.6914635864
 10
-15.7993780655
 20
45.69146492
  0
LWPOLYLINE
  5
2D8
100
AcDbEntity
  8
RACCORDO
100
AcDbPolyline
 62
250
  6
CONTINUOUS
 90
7
 70
0
 10
-3.6433109534
 20
37.2118599363
 10
-3.6406588366
 20
37.2288462565
 10
-3.6385118644
 20
37.2431728201
 10
-3.6369066307
 20
37.254595439
 10
-3.6358704959
 20
37.2629194215
 10
-3.6354211201
 20
37.2680028902
 10
-3.6355661628
 20
37.2697592001
  0
LWPOLYLINE
  5
2D9
100
AcDbEntity
  8
RACCORDO
100
AcDbPolyline
 62
250
  6
CONTINUOUS
 90
7
 70
0
 10
-3.6433109534
 20
36.8118599363
 10
-3.6406588366
 20
36.8288462565
 10
-3.6385118644
 20
36.8431728201
 10
-3.6369066307
 20
36.854595439
 10
-3.6358704959
 20
36.8629194215
 10
-3.6354211201
 20
36.8680028902
 10
-3.6355661628
 20
36.8697592001
  0
LINE
  5
2DA
100
AcDbEntity
  8
RACCORDO
100
AcDbLine
 62
250
  6
CONTINUOUS
 10
-3.6499419661
 20
37.1711065124
 11
-3.6433109534
 21
37.2118599363
  0
LINE
  5
2DB
100
AcDbEntity
  8
RACCORDO
100
AcDbLine
 62
250
  6
CONTINUOUS
 10
-3.6499419661
 20
36.7711065124
 11
-3.6433109534
 21
36.8118599363
  0
LINE
  5
2DC
100
AcDbEntity
  8
RACCORDO
100
AcDbLine
 62
250
  6
CONTINUOUS
 10
-3.6579547422
 20
37.1236791817
 11
-3.6499419661
 21
37.1711065124
  0
LINE
  5
2DD
100
AcDbEntity
  8
RACCORDO
100
AcDbLine
 62
250
  6
CONTINUOUS
 10
-3.6579547422
 20
36.7236791817
 11
-3.6499419661
 21
36.7711065124
  0
LINE
  5
2DE
100
AcDbEntity
  8
RACCORDO
100
AcDbLine
 62
250
  6
CONTINUOUS
 10
-3.6668053171
 20
37.0727976495
 11
-3.6579547422
 21
37.1236791817
  0
LINE
  5
2DF
100
AcDbEntity
  8
RACCORDO
100
AcDbLine
 62
250
  6
CONTINUOUS
 10
-3.6668053171
 20
36.6727976495
 11
-3.6579547422
 21
36.7236791817
  0
LWPOLYLINE
  5
2E0
100
AcDbEntity
  8
DRAFT
100
AcDbPolyline
 62
7
  6
CONTINUOUS
 90
25
 70
0
 10
-3.0158022961
 20
19.7432386227
 10
-3.016668456
 20
19.738397367
 10
-3.0192572185
 20
19.7335090145
 10
-3.0235496183
 20
19.7285735653
 10
-3.0295199389
 20
19.7235711373
 10
-3.0371384369
 20
19.7185216126
 10
-3.0463739899
 20
19.7134846371
 10
-3.0571880612
 20
19.7084588841
 10
-3.0695367364
 20
19.7034456804
 10
-3.0833772998
 20
19.698508653
 10
-3.0986578389
 20
19.6936476864
 10
-3.1153224528
 20
19.6888628962
 10
-3.1333194049
 20
19.6842182558
 10
-3.1525831472
 20
19.6797151312
 10
-3.1730491415
 20
19.6753521563
 10
-3.1946661418
 20
19.6711892071
 10
-3.2173629041
 20
19.6672278492
 10
-3.241063965
 20
19.663466517
 10
-3.2657117411
 20
19.6599603885
 10
-3.2912288241
 20
19.6567118887
 10
-3.3175296893
 20
19.6537185928
 10
-3.3445431593
 20
19.6510284044
 10
-3.3721861011
 20
19.6486572916
 10
-3.4003623762
 20
19.6465892863
 10
-3.4289782072
 20
19.6448243886
  0
LWPOLYLINE
  5
2E1
100
AcDbEntity
  8
RACCORDO
100
AcDbPolyline
 62
250
  6
CONTINUOUS
 90
10
 70
0
 10
-9.0680713213
 20
-11.9185241623
 10
-9.0733453736
 20
-11.9473335471
 10
-9.0779539866
 20
-11.9733066659
 10
-9.0818632488
 20
-11.9962521776
 10
-9.0850456474
 20
-12.016009818
 10
-9.0874738709
 20
-12.0324115294
 10
-9.0891268969
 20
-12.0453099967
 10
-9.0899966895
 20
-12.0546242972
 10
-9.0900829369
 20
-12.0603166385
 10
-9.0893898243
 20
-12.0623668407
  0
LINE
  5
2E2
100
AcDbEntity
  8
RACCORDO
100
AcDbLine
 62
250
  6
CONTINUOUS
 10
-9.0556885293
 20
-11.8532755223
 11
-9.0680713213
 21
-11.9185241623
  0
LINE
  5
2E3
100
AcDbEntity
  8
RACCORDO
100
AcDbLine
 62
250
  6
CONTINUOUS
 10
-9.0411832799
 20
-11.7795528365
 11
-9.0556885293
 21
-11.8532755223
  0
LINE
  5
2E4
100
AcDbEntity
  8
RACCORDO
100
AcDbLine
 62
250
  6
CONTINUOUS
 10
-9.024995404
 20
-11.6995916223
 11
-9.0411832799
 21
-11.7795528365
  0
LWPOLYLINE
  5
2E5
100
AcDbEntity
  8
RACCORDO
100
AcDbPolyline
 62
250
  6
CONTINUOUS
 90
3
 70
0
 10
-8.9986382989
 20
-11.5732684308
 10
-9.0076135844
 20
-11.6158057994
 10
-9.024995404
 20
-11.6995916223
  0
LINE
  5
2E6
100
AcDbEntity
  8
RACCORDO
100
AcDbLine
 62
7
  6
CONTINUOUS
 10
-6.9011131171
 20
17.2202961068
 11
-6.8757421051
 21
18.1994721361
  0
LINE
  5
2E7
100
AcDbEntity
  8
RACCORDO
100
AcDbLine
 62
250
  6
CONTINUOUS
 10
-6.413944597
 20
17.2220416567
 11
-6.44219097
 21
16.325075676
  0
LINE
  5
2E8
100
AcDbEntity
  8
RACCORDO
100
AcDbLine
 62
7
  6
CONTINUOUS
 10
-6.9306750206
 20
16.288801138
 11
-6.9006501257
 21
17.236392779
  0
LINE
  5
2E9
100
AcDbEntity
  8
RACCORDO
100
AcDbLine
 62
250
  6
CONTINUOUS
 10
-6.44219097
 20
16.325075676
 11
-6.47586802
 21
15.4262644281
  0
LINE
  5
2EA
100
AcDbEntity
  8
RACCORDO
100
AcDbLine
 62
7
  6
CONTINUOUS
 10
-6.9647562143
 20
15.3871496863
 11
-6.9288273527
 21
16.3422595831
  0
LINE
  5
2EB
100
AcDbEntity
  8
RACCORDO
100
AcDbLine
 62
7
  6
CONTINUOUS
 10
-6.9623390929
 20
15.4465065079
 11
-7.0015424024
 21
14.5506217919
  0
LINE
  5
2EC
100
AcDbEntity
  8
RACCORDO
100
AcDbLine
 62
250
  6
CONTINUOUS
 10
-6.47586802
 20
15.4262644281
 11
-6.5151841258
 21
14.5271070501
  0
LINE
  5
2ED
100
AcDbEntity
  8
RACCORDO
100
AcDbLine
 62
7
  6
CONTINUOUS
 10
-7.0255145598
 20
14.0609952436
 11
-6.9835458136
 21
14.9452861726
  0
LINE
  5
2EE
100
AcDbEntity
  8
RACCORDO
100
AcDbLine
 62
250
  6
CONTINUOUS
 10
-6.5151841258
 20
14.5271070501
 11
-6.5601990825
 21
13.6368232398
  0
LINE
  5
2EF
100
AcDbEntity
  8
RACCORDO
100
AcDbLine
 62
7
  6
CONTINUOUS
 10
-7.0232144324
 20
14.1063780715
 11
-7.0710075352
 21
13.2211255316
  0
LINE
  5
2F0
100
AcDbEntity
  8
RACCORDO
100
AcDbLine
 62
250
  6
CONTINUOUS
 10
-6.5601990825
 20
13.6368232398
 11
-6.6110572653
 21
12.7494289694
  0
LINE
  5
2F1
100
AcDbEntity
  8
RACCORDO
100
AcDbLine
 62
7
  6
CONTINUOUS
 10
-7.1002436197
 20
12.727967726
 11
-7.0487905553
 21
13.6185729039
  0
LINE
  5
2F2
100
AcDbEntity
  8
RACCORDO
100
AcDbLine
 62
7
  6
CONTINUOUS
 10
-7.0970895611
 20
12.7797351946
 11
-7.1539180976
 21
11.8910192162
  0
LINE
  5
2F3
100
AcDbEntity
  8
RACCORDO
100
AcDbLine
 62
250
  6
CONTINUOUS
 10
-6.6110572653
 20
12.7494289694
 11
-6.668127763
 21
11.8575537973
  0
LINE
  5
2F4
100
AcDbEntity
  8
RACCORDO
100
AcDbLine
 62
7
  6
CONTINUOUS
 10
-7.1886931299
 20
11.3855801813
 11
-7.1283660233
 21
12.2797820229
  0
LINE
  5
2F5
100
AcDbEntity
  8
RACCORDO
100
AcDbLine
 62
250
  6
CONTINUOUS
 10
-6.668127763
 20
11.8575537973
 11
-6.7322623223
 21
10.9427699004
  0
LINE
  5
2F6
100
AcDbEntity
  8
RACCORDO
100
AcDbLine
 62
7
  6
CONTINUOUS
 10
-7.2541542131
 20
10.4935186478
 11
-7.1850044801
 21
11.4380316921
  0
LINE
  5
2F7
100
AcDbEntity
  8
RACCORDO
100
AcDbLine
 62
250
  6
CONTINUOUS
 10
-6.7322623223
 20
10.9427699004
 11
-6.8050290307
 21
9.9872194361
  0
LINE
  5
2F8
100
AcDbEntity
  8
RACCORDO
100
AcDbLine
 62
7
  6
CONTINUOUS
 10
-7.2529927662
 20
10.5087715882
 11
-7.3301125802
 21
9.5327324125
  0
LINE
  5
2F9
100
AcDbEntity
  8
RACCORDO
100
AcDbLine
 62
250
  6
CONTINUOUS
 10
-6.8050290307
 20
9.9872194361
 11
-6.8875631643
 21
8.9791030926
  0
LINE
  5
2FA
100
AcDbEntity
  8
RACCORDO
100
AcDbLine
 62
7
  6
CONTINUOUS
 10
-7.3244133893
 20
9.6025376488
 11
-7.4182062626
 21
8.492225223
  0
LINE
  5
2FB
100
AcDbEntity
  8
RACCORDO
100
AcDbLine
 62
250
  6
CONTINUOUS
 10
-6.8875631643
 20
8.9791030926
 11
-6.9817975062
 21
7.9007445518
  0
LINE
  5
2FC
100
AcDbEntity
  8
RACCORDO
100
AcDbLine
 62
7
  6
CONTINUOUS
 10
-7.4802326676
 20
7.7959963417
 11
-7.3997401051
 21
8.7048509498
  0
LINE
  5
2FD
100
AcDbEntity
  8
RACCORDO
100
AcDbLine
 62
7
  6
CONTINUOUS
 10
-7.4667104463
 20
7.9455909757
 11
-7.5745000321
 21
6.7818601291
  0
LINE
  5
2FE
100
AcDbEntity
  8
RACCORDO
100
AcDbLine
 62
250
  6
CONTINUOUS
 10
-6.9817975062
 20
7.9007445518
 11
-7.0898527661
 21
6.7345553865
  0
LINE
  5
2FF
100
AcDbEntity
  8
RACCORDO
100
AcDbLine
 62
7
  6
CONTINUOUS
 10
-7.5225534149
 20
7.3348489977
 11
-7.6338832135
 21
6.1647686542
  0
LINE
  5
300
100
AcDbEntity
  8
RACCORDO
100
AcDbLine
 62
250
  6
CONTINUOUS
 10
-7.0898527661
 20
6.7345553865
 11
-7.2130771805
 21
5.4688187582
  0
LINE
  5
301
100
AcDbEntity
  8
RACCORDO
100
AcDbLine
 62
7
  6
CONTINUOUS
 10
-7.8072694006
 20
4.4328010638
 11
-7.6113818464
 21
6.3968699837
  0
LINE
  5
302
100
AcDbEntity
  8
RACCORDO
100
AcDbLine
 62
250
  6
CONTINUOUS
 10
-7.2130771805
 20
5.4688187582
 11
-7.353867077
 21
4.0820875406
  0
LINE
  5
303
100
AcDbEntity
  8
RACCORDO
100
AcDbLine
 62
7
  6
CONTINUOUS
 10
-7.7656579109
 20
4.8405897633
 11
-7.9148573772
 21
3.3970758505
  0
LINE
  5
304
100
AcDbEntity
  8
RACCORDO
100
AcDbLine
 62
7
  6
CONTINUOUS
 10
-7.9148573772
 20
3.3970758505
 11
-9.4828107724
 21
-11.5210041992
  0
LINE
  5
305
100
AcDbEntity
  8
RACCORDO
100
AcDbLine
 62
250
  6
CONTINUOUS
 10
-7.353867077
 20
4.0820875406
 11
-8.9986382989
 21
-11.5732684308
  0
LINE
  5
306
100
AcDbEntity
  8
0
100
AcDbLine
 62
7
  6
CONTINUOUS
 10
-4.3023996009
 20
6.3455083293
 11
-4.792235684
 21
2.3561135757
  0
LWPOLYLINE
  5
307
100
AcDbEntity
  8
RACCORDO
100
AcDbPolyline
 62
250
  6
CONTINUOUS
 90
5
 70
0
 10
-2.2327767244
 20
15.1485392793
 10
-2.2309696377
 20
15.159948126
 10
-2.2297216329
 20
15.1682508943
 10
-2.2290540224
 20
15.1733057951
 10
-2.2289782072
 20
15.1750265042
  0
LINE
  5
308
100
AcDbEntity
  8
RACCORDO
100
AcDbLine
 62
250
  6
CONTINUOUS
 10
-2.2379356807
 20
15.1172323973
 11
-2.2327767244
 21
15.1485392793
  0
LINE
  5
309
100
AcDbEntity
  8
RACCORDO
100
AcDbLine
 62
250
  6
CONTINUOUS
 10
-2.2488178319
 20
15.05337002
 11
-2.2379356807
 21
15.1172323973
  0
LINE
  5
30A
100
AcDbEntity
  8
RACCORDO
100
AcDbLine
 62
250
  6
CONTINUOUS
 10
-2.2619625357
 20
14.9780649536
 11
-2.2488178319
 21
15.05337002
  0
LWPOLYLINE
  5
30B
100
AcDbEntity
  8
RACCORDO
100
AcDbPolyline
 62
250
  6
CONTINUOUS
 90
9
 70
0
 10
-6.2130407546
 20
-12.5050194327
 10
-6.2197527031
 20
-12.5411929648
 10
-6.225532178
 20
-12.5734220101
 10
-6.230316295
 20
-12.6013558975
 10
-6.234053
 20
-12.6246906896
 10
-6.2367016354
 20
-12.6431724894
 10
-6.2382333823
 20
-12.6566002036
 10
-6.2386315743
 20
-12.6648277303
 10
-6.2378918787
 20
-12.6677655488
  0
LINE
  5
30C
100
AcDbEntity
  8
RACCORDO
100
AcDbLine
 62
250
  6
CONTINUOUS
 10
-6.1971209078
 20
-12.422451903
 11
-6.2130407546
 21
-12.5050194327
  0
LINE
  5
30D
100
AcDbEntity
  8
RACCORDO
100
AcDbLine
 62
250
  6
CONTINUOUS
 10
-6.1784636222
 20
-12.3293031782
 11
-6.1971209078
 21
-12.422451903
  0
LWPOLYLINE
  5
30E
100
AcDbEntity
  8
RACCORDO
100
AcDbPolyline
 62
250
  6
CONTINUOUS
 90
3
 70
0
 10
-6.1471403532
 20
-12.178667139
 10
-6.1578786975
 20
-12.2296162786
 10
-6.1784636222
 20
-12.3293031782
  0
LINE
  5
30F
100
AcDbEntity
  8
RACCORDO
100
AcDbLine
 62
250
  6
CONTINUOUS
 10
-6.3288907702
 20
39.444568448
 11
-6.3309676504
 21
39.5315712366
  0
LINE
  5
310
100
AcDbEntity
  8
RACCORDO
100
AcDbLine
 62
250
  6
CONTINUOUS
 10
-6.3309676504
 20
39.5315712366
 11
-6.3325820626
 21
39.6159511918
  0
LINE
  5
311
100
AcDbEntity
  8
RACCORDO
100
AcDbLine
 62
250
  6
CONTINUOUS
 10
-6.3325820626
 20
39.6159511918
 11
-6.3336838157
 21
39.6951009307
  0
LWPOLYLINE
  5
312
100
AcDbEntity
  8
RACCORDO
100
AcDbPolyline
 62
250
  6
CONTINUOUS
 90
12
 70
0
 10
-6.3336838157
 20
39.6951009307
 10
-6.33423866
 20
39.7664931277
 10
-6.334305812
 20
39.7986422945
 10
-6.3342314841
 20
39.8281266402
 10
-6.3340159255
 20
39.8546856816
 10
-6.3336613708
 20
39.8780719925
 10
-6.3331710819
 20
39.8981205829
 10
-6.3325493561
 20
39.914691915
 10
-6.331803003
 20
39.9276531346
 10
-6.3309394716
 20
39.9369371553
 10
-6.3299659511
 20
39.942520103
 10
-6.3288907723
 20
39.9443971104
  0
LINE
  5
313
100
AcDbEntity
  8
RACCORDO
100
AcDbLine
 62
250
  6
CONTINUOUS
 10
-3.8239533672
 20
35.1820231874
 11
-3.8238482674
 21
35.1422938174
  0
LWPOLYLINE
  5
314
100
AcDbEntity
  8
RACCORDO
100
AcDbPolyline
 62
250
  6
CONTINUOUS
 90
9
 70
0
 10
-6.0617785764
 20
-12.5237293301
 10
-6.0617785764
 20
-12.5607203107
 10
-6.0615763016
 20
-12.5936465452
 10
-6.0611739661
 20
-12.6221476011
 10
-6.0605759743
 20
-12.6459114871
 10
-6.0597888721
 20
-12.6646780679
 10
-6.0588212757
 20
-12.6782419123
 10
-6.057683777
 20
-12.6864545413
 10
-6.0563888278
 20
-12.6892260542
  0
LINE
  5
315
100
AcDbEntity
  8
RACCORDO
100
AcDbLine
 62
7
  6
CONTINUOUS
 10
-4.8158022961
 20
39.9840187266
 11
-4.8158022961
 21
-12.7217119558
  0
LINE
  5
316
100
AcDbEntity
  8
RACCORDO
100
AcDbLine
 62
7
  6
CONTINUOUS
 10
-4.792235684
 20
2.1761441473
 11
-4.792235684
 21
7.4097199974
  0
LINE
  5
317
100
AcDbEntity
  8
DRAFT
100
AcDbLine
 62
250
  6
CONTINUOUS
 10
-4.5658022961
 20
1.9592812195
 11
-4.5658022961
 21
-1.1969744487
  0
LINE
  5
318
100
AcDbEntity
  8
RACCORDO
100
AcDbLine
 62
7
  6
CONTINUOUS
 10
-4.1058022961
 20
19.6071377051
 11
-4.1058022961
 21
15.5059612291
  0
LINE
  5
319
100
AcDbEntity
  8
RACCORDO
100
AcDbLine
 62
7
  6
CONTINUOUS
 10
-3.7838250136
 20
36.0606926144
 11
-3.7838250136
 21
36.2016141563
  0
LINE
  5
31A
100
AcDbEntity
  8
IMPORT_IGES
100
AcDbLine
 62
7
  6
CONTINUOUS
 10
-3.7585014312
 20
7.9311533854
 11
-3.7585014312
 21
7.4961211389
  0
LINE
  5
31B
100
AcDbEntity
  8
RACCORDO
100
AcDbLine
 62
250
  6
CONTINUOUS
 10
-3.7415023079
 20
15.4417253121
 11
-3.7415023079
 21
17.0036912617
  0
LINE
  5
31C
100
AcDbEntity
  8
RACCORDO
100
AcDbLine
 62
7
  6
CONTINUOUS
 10
-3.7176323773
 20
16.9610624044
 11
-3.7176323773
 21
15.4375163993
  0
LINE
  5
31D
100
AcDbEntity
  8
DRAFT
100
AcDbLine
 62
7
  6
CONTINUOUS
 10
-3.6158022961
 20
1.9260855114
 11
-3.6158022961
 21
1.8761669891
  0
LINE
  5
31E
100
AcDbEntity
  8
DRAFT
100
AcDbLine
 62
7
  6
CONTINUOUS
 10
-3.6158022961
 20
-1.1138602184
 11
-3.6158022961
 21
-1.1637787406
  0
LINE
  5
31F
100
AcDbEntity
  8
IMPORT_IGES
100
AcDbLine
 62
7
  6
CONTINUOUS
 10
-3.5708022961
 20
7.8931973589
 11
-3.5708022961
 21
11.8506804764
  0
LINE
  5
320
100
AcDbEntity
  8
DRAFT
100
AcDbLine
 62
250
  6
CONTINUOUS
 10
-3.4289782072
 20
20.289956813
 11
-3.4289782072
 21
19.6448243886
  0
LINE
  5
321
100
AcDbEntity
  8
RACCORDO
100
AcDbLine
 62
250
  6
CONTINUOUS
 10
-3.3636206622
 20
34.5022294347
 11
-3.3636206622
 21
34.0162354038
  0
LINE
  5
322
100
AcDbEntity
  8
RACCORDO
100
AcDbLine
 62
250
  6
CONTINUOUS
 10
-3.2644933157
 20
33.451672948
 11
-3.2644933157
 21
34.0449325747
  0
LINE
  5
323
100
AcDbEntity
  8
RACCORDO
100
AcDbLine
 62
7
  6
CONTINUOUS
 10
-3.1158022961
 20
33.6016672364
 11
-3.1158022961
 21
34.5022294347
  0
LINE
  5
324
100
AcDbEntity
  8
DRAFT
100
AcDbLine
 62
7
  6
CONTINUOUS
 10
-3.0158022961
 20
20.473673791
 11
-3.0158022961
 21
19.7432386227
  0
LINE
  5
325
100
AcDbEntity
  8
DRAFT
100
AcDbLine
 62
7
  6
CONTINUOUS
 10
-2.6658022961
 20
1.7930527588
 11
-2.6658022961
 21
-1.030745988
  0
LINE
  5
326
100
AcDbEntity
  8
DRAFT
100
AcDbLine
 62
7
  6
CONTINUOUS
 10
-2.3771271615
 20
1.7677969571
 11
-2.3771271615
 21
-1.0054901863
  0
LINE
  5
327
100
AcDbEntity
  8
DRAFT
100
AcDbLine
 62
7
  6
CONTINUOUS
 10
-4.0972161088
 20
11.7578595182
 11
-4.1011108872
 21
7.9311533854
  0
LINE
  5
328
100
AcDbEntity
  8
RACCORDO
100
AcDbLine
 62
7
  6
CONTINUOUS
 10
-6.8158022961
 20
39.444568448
 11
-6.8170697621
 21
23.3256754708
  0
LINE
  5
329
100
AcDbEntity
  8
RACCORDO
100
AcDbLine
 62
250
  6
CONTINUOUS
 10
-6.3288907702
 20
39.444568448
 11
-6.3301379007
 21
23.3244360923
  0
LINE
  5
32A
100
AcDbEntity
  8
RACCORDO
100
AcDbLine
 62
250
  6
CONTINUOUS
 10
-6.3301379007
 20
23.3244360923
 11
-6.3340360695
 21
22.3176394575
  0
LINE
  5
32B
100
AcDbEntity
  8
RACCORDO
100
AcDbLine
 62
250
  6
CONTINUOUS
 10
-3.8238482674
 20
35.1422938174
 11
-3.8240830868
 21
35.0611933194
  0
LINE
  5
32C
100
AcDbEntity
  8
RACCORDO
100
AcDbLine
 62
7
  6
CONTINUOUS
 10
-6.8164332324
 20
23.6270205861
 11
-6.8238936932
 21
21.8316560646
  0
LINE
  5
32D
100
AcDbEntity
  8
RACCORDO
100
AcDbLine
 62
250
  6
CONTINUOUS
 10
-6.3340360695
 20
22.3176394575
 11
-6.3406877607
 21
21.3456552504
  0
LINE
  5
32E
100
AcDbEntity
  8
RACCORDO
100
AcDbLine
 62
250
  6
CONTINUOUS
 10
-3.8240830868
 20
35.0611933194
 11
-3.8247517562
 21
34.9655326433
  0
LINE
  5
32F
100
AcDbEntity
  8
RACCORDO
100
AcDbLine
 62
250
  6
CONTINUOUS
 10
-6.0611739661
 20
-12.4392129041
 11
-6.0617785764
 21
-12.5237293301
  0
LINE
  5
330
100
AcDbEntity
  8
RACCORDO
100
AcDbLine
 62
7
  6
CONTINUOUS
 10
-6.8214113244
 20
22.2335748426
 11
-6.8320414236
 21
20.8750528534
  0
LINE
  5
331
100
AcDbEntity
  8
RACCORDO
100
AcDbLine
 62
250
  6
CONTINUOUS
 10
-6.3406877607
 20
21.3456552504
 11
-6.3504180699
 21
20.4009775919
  0
LINE
  5
332
100
AcDbEntity
  8
RACCORDO
100
AcDbLine
 62
7
  6
CONTINUOUS
 10
-6.8311517503
 20
20.9628615078
 11
-6.8504556791
 21
19.4850660105
  0
LINE
  5
333
100
AcDbEntity
  8
RACCORDO
100
AcDbLine
 62
250
  6
CONTINUOUS
 10
-6.3504180699
 20
20.4009775919
 11
-6.3636203728
 21
19.4768691636
  0
LINE
  5
334
100
AcDbEntity
  8
RACCORDO
100
AcDbLine
 62
250
  6
CONTINUOUS
 10
-6.0597888721
 20
-12.3437878303
 11
-6.0611739661
 21
-12.4392129041
  0
LINE
  5
335
100
AcDbEntity
  8
RACCORDO
100
AcDbLine
 62
7
  6
CONTINUOUS
 10
-6.8456284771
 20
19.7932443293
 11
-6.8673650669
 21
18.5793444038
  0
LINE
  5
336
100
AcDbEntity
  8
RACCORDO
100
AcDbLine
 62
250
  6
CONTINUOUS
 10
-6.3636203728
 20
19.4768691636
 11
-6.3805639753
 21
18.5688362143
  0
LINE
  5
337
100
AcDbEntity
  8
RACCORDO
100
AcDbLine
 62
7
  6
CONTINUOUS
 10
-6.8646057219
 20
18.7128731598
 11
-6.877359022
 21
18.1300479434
  0
LWPOLYLINE
  5
338
100
AcDbEntity
  8
RACCORDO
100
AcDbPolyline
 62
250
  6
CONTINUOUS
 90
3
 70
0
 10
-6.3805639753
 20
18.5688362143
 10
-6.4016560672
 20
17.6701193724
 10
-6.413944597
 20
17.2220416567
  0
LWPOLYLINE
  5
339
100
AcDbEntity
  8
RACCORDO
100
AcDbPolyline
 62
250
  6
CONTINUOUS
 90
3
 70
0
 10
-6.0563888278
 20
-12.1893973917
 10
-6.057683777
 20
-12.2416210177
 10
-6.0597888721
 20
-12.3437878303
  0
LINE
  5
33A
100
AcDbEntity
  8
DRAFT
100
AcDbLine
 62
7
  6
CONTINUOUS
 10
-4.0962509206
 20
19.6076801411
 11
-4.0545602316
 21
19.1311533854
  0
LWPOLYLINE
  5
33B
100
AcDbEntity
  8
RACCORDO
100
AcDbPolyline
 62
250
  6
CONTINUOUS
 90
16
 70
0
 10
-2.014056989
 20
14.6826226277
 10
-2.0155189231
 20
14.7108823596
 10
-2.0193513685
 20
14.7383013573
 10
-2.0255543251
 20
14.7648796208
 10
-2.0341927699
 20
14.7907438987
 10
-2.0452017259
 20
14.8157674423
 10
-2.0583862621
 20
14.8395700056
 10
-2.0737738907
 20
14.8622038603
 10
-2.0913370995
 20
14.8836167347
 10
-2.110798421
 20
14.9032715673
 10
-2.13224719
 20
14.9211798047
 10
-2.1555940716
 20
14.9373300004
 10
-2.1802935941
 20
14.9511507532
 10
-2.2061639337
 20
14.9624515961
 10
-2.2333869142
 20
14.9714229963
 10
-2.2619625357
 20
14.9780649536
  0
LINE
  5
33C
100
AcDbEntity
  8
DRAFT
100
AcDbLine
 62
7
  6
CONTINUOUS
 10
-2.1271271615
 20
1.7459247912
 11
-2.1271271615
 21
-0.9836180204
  0
LINE
  5
33D
100
AcDbEntity
  8
RACCORDO
100
AcDbLine
 62
250
  6
CONTINUOUS
 10
-2.014056989
 20
12.5796841431
 11
-2.014056989
 21
14.6826226277
  0
LINE
  5
33E
100
AcDbEntity
  8
RACCORDO
100
AcDbLine
 62
7
  6
CONTINUOUS
 10
-1.8158022961
 20
12.5796841431
 11
-1.8158022961
 21
14.6826226277
  0
LINE
  5
33F
100
AcDbEntity
  8
RACCORDO
100
AcDbLine
 62
7
  6
CONTINUOUS
 10
-1.5158022961
 20
1.2342752087
 11
-1.5158022961
 21
-0.471968438
  0
LINE
  5
340
100
AcDbEntity
  8
RACCORDO
100
AcDbLine
 62
250
  6
CONTINUOUS
 10
-2.2619625357
 20
12.2842418172
 11
-2.2448480315
 21
12.1858494331
  0
LWPOLYLINE
  5
341
100
AcDbEntity
  8
RACCORDO
100
AcDbPolyline
 62
250
  6
CONTINUOUS
 90
7
 70
0
 10
-2.2448480315
 20
12.1858494331
 10
-2.2351123428
 20
12.128089239
 10
-2.2327769511
 20
12.1137686857
 10
-2.2309697818
 20
12.1023593893
 10
-2.2297217052
 20
12.0940562409
 10
-2.229054042
 20
12.0890010749
 10
-2.2289782021
 20
12.0872802675
  0
LWPOLYLINE
  5
342
100
AcDbEntity
  8
RACCORDO
100
AcDbPolyline
 62
250
  6
CONTINUOUS
 90
5
 70
0
 10
-3.8247517562
 20
35.2155231241
 10
-3.8244857041
 20
35.213382041
 10
-3.8242615288
 20
35.2070004246
 10
-3.8240830654
 20
35.1964875056
 10
-3.8239533672
 20
35.1820231874
  0
LWPOLYLINE
  5
343
100
AcDbEntity
  8
RACCORDO
100
AcDbPolyline
 62
250
  6
CONTINUOUS
 90
17
 70
0
 10
-3.2256055741
 20
36.6507367239
 10
-3.2261389635
 20
36.6537040834
 10
-3.2395191636
 20
36.7013341746
 10
-3.257157977
 20
36.7478358398
 10
-3.2777167335
 20
36.7912833667
 10
-3.3013385987
 20
36.8311993891
 10
-3.3278804071
 20
36.8680612731
 10
-3.3555739914
 20
36.9013754039
 10
-3.3837843906
 20
36.9306056086
 10
-3.4131465657
 20
36.95628806
 10
-3.4437972316
 20
36.9795376629
 10
-3.4753459468
 20
37.0006289266
 10
-3.5081831528
 20
37.0192873417
 10
-3.5436168889
 20
37.0358042839
 10
-3.5820831682
 20
37.0502768786
 10
-3.6231459776
 20
37.0626080005
 10
-3.6668053171
 20
37.0727976495
  0
LINE
  5
344
100
AcDbEntity
  8
RACCORDO
100
AcDbLine
 62
250
  6
CONTINUOUS
 10
-3.6668053171
 20
35.5895091212
 11
-3.6579551899
 21
35.5386301929
  0
LINE
  5
345
100
AcDbEntity
  8
RACCORDO
100
AcDbLine
 62
250
  6
CONTINUOUS
 10
-3.6579551899
 20
35.5386301929
 11
-3.6499425632
 21
35.4912038405
  0
LWPOLYLINE
  5
346
100
AcDbEntity
  8
RACCORDO
100
AcDbPolyline
 62
250
  6
CONTINUOUS
 90
8
 70
0
 10
-3.6499425632
 20
35.4912038405
 10
-3.6433114479
 20
35.4504499311
 10
-3.6406592239
 20
35.4334630161
 10
-3.6385121302
 20
35.4191357447
 10
-3.6369067843
 20
35.4077124449
 10
-3.635870561
 20
35.3993878937
 10
-3.6354211315
 20
35.3943040293
 10
-3.6355661675
 20
35.3925475698
  0
LWPOLYLINE
  5
347
100
AcDbEntity
  8
0
100
AcDbPolyline
 62
7
  6
CONTINUOUS
 90
10
 70
0
 43
0.3500000087
 10
-17.5136628654
 20
46.1914654083
 10
-17.4422343765
 20
46.0486062988
 10
-17.4422343765
 20
45.9771788757
 10
-17.5850924202
 20
45.8343197662
 10
-17.6565209091
 20
45.8343197662
 10
-17.727949398
 20
45.9057514526
 10
-17.727949398
 20
45.9771788757
 10
-17.6565209091
 20
46.1200337219
 10
-17.5850924202
 20
46.1914654083
 10
-17.5136628654
 20
46.1914654083
  0
LINE
  5
348
100
AcDbEntity
  8
RACCORDO
100
AcDbLine
 62
7
  6
CONTINUOUS
 10
-6.0563888278
 20
-12.6892260542
 11
-4.8158022961
 21
-12.7217119558
  0
LINE
  5
349
100
AcDbEntity
  8
RACCORDO
100
AcDbLine
 62
250
  6
CONTINUOUS
 10
-6.0563888278
 20
-12.1893973917
 11
-4.8158022961
 21
-12.2218832933
  0
LINE
  5
34A
100
AcDbEntity
  8
RACCORDO
100
AcDbLine
 62
250
  6
CONTINUOUS
 10
-8.9986382989
 20
-11.5732684308
 11
-9.4189952376
 21
-11.5283862648
  0
LWPOLYLINE
  5
34B
100
AcDbEntity
  8
RACCORDO
100
AcDbPolyline
 62
250
  6
CONTINUOUS
 90
5
 70
0
 10
-9.4189952376
 20
-11.5283862648
 10
-9.4667427308
 20
-11.5230403972
 10
-9.4756756017
 20
-11.5219868097
 10
-9.4810347501
 20
-11.5213074643
 10
-9.4828107724
 20
-11.5210041992
  0
LWPOLYLINE
  5
34C
100
AcDbEntity
  8
RACCORDO
100
AcDbPolyline
 62
250
  6
CONTINUOUS
 90
10
 70
0
 10
-6.1471403532
 20
-12.178667139
 10
-6.1371693037
 20
-12.1806780607
 10
-6.1271680562
 20
-12.182484643
 10
-6.1171366107
 20
-12.1840868857
 10
-6.1070721875
 20
-12.185485227
 10
-6.0969775663
 20
-12.1866792287
 10
-6.0868610859
 20
-12.1876675774
 10
-6.0767255258
 20
-12.1884498352
 10
-6.0665681064
 20
-12.18902644
 10
-6.0563888278
 20
-12.1893973917
  0
LINE
  5
34D
100
AcDbEntity
  8
RACCORDO
100
AcDbLine
 62
7
  6
CONTINUOUS
 10
-9.0893898243
 20
-12.0623668407
 11
-6.2378918787
 21
-12.6677655488
  0
LINE
  5
34E
100
AcDbEntity
  8
RACCORDO
100
AcDbLine
 62
250
  6
CONTINUOUS
 10
-8.9986382989
 20
-11.5732684308
 11
-6.1471403532
 21
-12.178667139
  0
LINE
  5
34F
100
AcDbEntity
  8
DRAFT
100
AcDbLine
 62
7
  6
CONTINUOUS
 10
-4.8158022961
 20
-1.4188466146
 11
-3.6158022961
 21
-1.1637787406
  0
LINE
  5
350
100
AcDbEntity
  8
RACCORDO
100
AcDbLine
 62
7
  6
CONTINUOUS
 10
-1.9722244247
 20
-0.970065787
 11
-2.1271271615
 21
-0.9836180204
  0
LINE
  5
351
100
AcDbEntity
  8
DRAFT
100
AcDbLine
 62
7
  6
CONTINUOUS
 10
-2.1271271615
 20
-0.9836180204
 11
-4.8158022961
 21
-1.2188466146
  0
LINE
  5
352
100
AcDbEntity
  8
RACCORDO
100
AcDbLine
 62
250
  6
CONTINUOUS
 10
-4.792235684
 20
3.5305134976
 11
-4.8158022961
 21
3.5309248544
  0
LINE
  5
353
100
AcDbEntity
  8
RACCORDO
100
AcDbLine
 62
7
  6
CONTINUOUS
 10
-4.8158022961
 20
3.6315647421
 11
-4.792235684
 21
3.6311533854
  0
LINE
  5
354
100
AcDbEntity
  8
RACCORDO
100
AcDbLine
 62
250
  6
CONTINUOUS
 10
-4.8158022961
 20
4.1314885897
 11
-4.792235684
 21
4.131077233
  0
LINE
  5
355
100
AcDbEntity
  8
RACCORDO
100
AcDbLine
 62
7
  6
CONTINUOUS
 10
-1.9722244247
 20
1.7323725578
 11
-2.1271271615
 21
1.7459247912
  0
LINE
  5
356
100
AcDbEntity
  8
DRAFT
100
AcDbLine
 62
7
  6
CONTINUOUS
 10
-2.1271271615
 20
1.7459247912
 11
-4.8158022961
 21
1.9811533854
  0
LINE
  5
357
100
AcDbEntity
  8
RACCORDO
100
AcDbLine
 62
250
  6
CONTINUOUS
 10
-7.4306849036
 20
3.3448116188
 11
-7.8504490687
 21
3.389628573
  0
LWPOLYLINE
  5
358
100
AcDbEntity
  8
RACCORDO
100
AcDbPolyline
 62
250
  6
CONTINUOUS
 90
5
 70
0
 10
-7.8504490687
 20
3.389628573
 10
-7.8913569404
 20
3.3941874313
 10
-7.9043762669
 20
3.3956928044
 10
-7.9122375126
 20
3.3966590236
 10
-7.9148573772
 20
3.3970758505
  0
LINE
  5
359
100
AcDbEntity
  8
DRAFT
100
AcDbLine
 62
7
  6
CONTINUOUS
 10
-4.8158022961
 20
2.1811533854
 11
-3.6158022961
 21
1.9260855114
  0
LINE
  5
35A
100
AcDbEntity
  8
RACCORDO
100
AcDbLine
 62
250
  6
CONTINUOUS
 10
-4.8158022961
 20
6.1308181811
 11
-4.792235684
 21
6.1312295378
  0
LINE
  5
35B
100
AcDbEntity
  8
RACCORDO
100
AcDbLine
 62
7
  6
CONTINUOUS
 10
-4.8158022961
 20
6.6307420286
 11
-4.792235684
 21
6.6311533854
  0
LINE
  5
35C
100
AcDbEntity
  8
RACCORDO
100
AcDbLine
 62
250
  6
CONTINUOUS
 10
-4.8158022961
 20
6.7300716812
 11
-4.792235684
 21
6.730483038
  0
LINE
  5
35D
100
AcDbEntity
  8
DRAFT
100
AcDbLine
 62
7
  6
CONTINUOUS
 10
-3.7585014315
 20
7.9311533854
 11
-4.2708022961
 21
7.9311533854
  0
LINE
  5
35E
100
AcDbEntity
  8
IMPORT_IGES
100
AcDbLine
 62
7
  6
CONTINUOUS
 10
-4.1048045384
 20
17.2238206412
 11
-3.7415023079
 21
17.0036912617
  0
LINE
  5
35F
100
AcDbEntity
  8
RACCORDO
100
AcDbLine
 62
250
  6
CONTINUOUS
 10
-3.6501566948
 20
34.8923188579
 11
-3.4368439669
 21
34.67900613
  0
LINE
  5
360
100
AcDbEntity
  8
RACCORDO
100
AcDbLine
 62
7
  6
CONTINUOUS
 10
-3.4755616333
 20
35.0690955532
 11
-3.2622489055
 21
34.8557828253
  0
LWPOLYLINE
  5
361
100
AcDbEntity
  8
RACCORDO
100
AcDbPolyline
 62
250
  6
CONTINUOUS
 90
10
 70
0
 10
-3.4368439669
 20
34.67900613
 10
-3.4226966591
 20
34.6637623758
 10
-3.4099530511
 20
34.6473570892
 10
-3.3986131431
 20
34.6297902701
 10
-3.3885447397
 20
34.6109792422
 10
-3.3798800362
 20
34.5910066819
 10
-3.3730156182
 20
34.5701206181
 10
-3.3680836807
 20
34.5484037272
 10
-3.3649520287
 20
34.5257733327
 10
-3.3636206622
 20
34.5022294347
  0
LINE
  5
362
100
AcDbEntity
  8
RACCORDO
100
AcDbLine
 62
7
  6
CONTINUOUS
 10
-4.1891054997
 20
16.6403198551
 11
-4.2977739113
 21
16.6140265885
  0
LWPOLYLINE
  5
363
100
AcDbEntity
  8
RACCORDO
100
AcDbPolyline
 62
7
  6
CONTINUOUS
 90
3
 70
0
 10
-4.2977739113
 20
16.6140265885
 10
-4.5169865426
 20
16.5623392206
 10
-4.5258608052
 20
16.5602081936
  0
LWPOLYLINE
  5
364
100
AcDbEntity
  8
RACCORDO
100
AcDbPolyline
 62
250
  6
CONTINUOUS
 90
19
 70
0
 10
-2.2619625357
 20
12.2842418172
 10
-2.2354085315
 20
12.2903739348
 10
-2.2101161827
 20
12.2984093335
 10
-2.1860854892
 20
12.3083480134
 10
-2.1631108618
 20
12.3204906452
 10
-2.1413978898
 20
12.3345365582
 10
-2.1215633408
 20
12.3495837402
 10
-2.1038519084
 20
12.3655620798
 10
-2.088018899
 20
12.3825416885
 10
-2.0739470001
 20
12.3998308884
 10
-2.0617546568
 20
12.4171110055
 10
-2.0513234241
 20
12.4347007137
 10
-2.0421806535
 20
12.4528643567
 10
-2.0341458123
 20
12.4714953596
 10
-2.0273994333
 20
12.4907002972
 10
-2.0220104664
 20
12.5110632376
 10
-2.0180018951
 20
12.53277887
 10
-2.0153507359
 20
12.5556525052
 10
-2.014056989
 20
12.5796841431
  0
LWPOLYLINE
  5
365
100
AcDbEntity
  8
RACCORDO
100
AcDbPolyline
 62
7
  6
CONTINUOUS
 90
6
 70
0
 10
-4.5258608052
 20
16.5602081936
 10
-4.5421148307
 20
16.5564848634
 10
-4.5487208744
 20
16.5547552379
 10
-4.5538968896
 20
16.5532118377
 10
-4.5578398505
 20
16.5521367785
 10
-4.5605426272
 20
16.5517672791
  0
LWPOLYLINE
  5
366
100
AcDbEntity
  8
RACCORDO
100
AcDbPolyline
 62
7
  6
CONTINUOUS
 90
7
 70
0
 10
-4.5494167131
 20
15.7964503311
 10
-4.7823727489
 20
15.7467341672
 10
-4.7909786598
 20
15.7448616102
 10
-4.7988620008
 20
15.7431935568
 10
-4.8059348947
 20
15.7417296404
 10
-4.8117357383
 20
15.7403592215
 10
-4.8158022961
 20
15.7392559396
  0
LINE
  5
367
100
AcDbEntity
  8
RACCORDO
100
AcDbLine
 62
7
  6
CONTINUOUS
 10
-4.1752467664
 20
17.2472649101
 11
-4.2863981197
 21
17.2254222413
  0
LWPOLYLINE
  5
368
100
AcDbEntity
  8
RACCORDO
100
AcDbPolyline
 62
7
  6
CONTINUOUS
 90
3
 70
0
 10
-4.2863981197
 20
17.2254222413
 10
-4.5107450013
 20
17.1827323104
 10
-4.5198645272
 20
17.1809610532
  0
LWPOLYLINE
  5
369
100
AcDbEntity
  8
RACCORDO
100
AcDbPolyline
 62
7
  6
CONTINUOUS
 90
6
 70
0
 10
-4.5198645272
 20
17.1809610532
 10
-4.5366097611
 20
17.1778936217
 10
-4.5434479227
 20
17.1764219497
 10
-4.5488339569
 20
17.1750740745
 10
-4.5529577282
 20
17.1741477637
 10
-4.5558022961
 20
17.1738866632
  0
LINE
  5
36A
100
AcDbEntity
  8
RACCORDO
100
AcDbLine
 62
7
  6
CONTINUOUS
 10
-4.8158022961
 20
11.6311533854
 11
-2.2289782072
 21
12.0872802666
  0
LINE
  5
36B
100
AcDbEntity
  8
RACCORDO
100
AcDbLine
 62
250
  6
CONTINUOUS
 10
-4.8158022961
 20
11.833930963
 11
-2.2619625357
 21
12.2842418172
  0
LINE
  5
36C
100
AcDbEntity
  8
RACCORDO
100
AcDbLine
 62
250
  6
CONTINUOUS
 10
-2.014056989
 20
12.5796841431
 11
-1.8158022961
 21
12.5796841431
  0
LINE
  5
36D
100
AcDbEntity
  8
RACCORDO
100
AcDbLine
 62
250
  6
CONTINUOUS
 10
-2.014056989
 20
14.6826226277
 11
-1.8158022961
 21
14.6826226277
  0
LINE
  5
36E
100
AcDbEntity
  8
RACCORDO
100
AcDbLine
 62
7
  6
CONTINUOUS
 10
-4.8158022961
 20
16.5600817899
 11
-4.5605423636
 21
16.5517672706
  0
LINE
  5
36F
100
AcDbEntity
  8
RACCORDO
100
AcDbLine
 62
250
  6
CONTINUOUS
 10
-4.8158022961
 20
15.8390685302
 11
-4.5494167131
 21
15.7964503311
  0
LINE
  5
370
100
AcDbEntity
  8
RACCORDO
100
AcDbLine
 62
250
  6
CONTINUOUS
 10
-2.2619625357
 20
14.9780649536
 11
-4.8158022961
 21
15.4283758077
  0
LINE
  5
371
100
AcDbEntity
  8
RACCORDO
100
AcDbLine
 62
7
  6
CONTINUOUS
 10
-2.2289782072
 20
15.1750265042
 11
-4.8158022961
 21
15.6311533854
  0
LINE
  5
372
100
AcDbEntity
  8
0
100
AcDbLine
 62
7
  6
CONTINUOUS
 10
-4.0545602316
 20
19.1311533854
 11
-3.8545602316
 21
19.1311533854
  0
LINE
  5
373
100
AcDbEntity
  8
RACCORDO
100
AcDbLine
 62
250
  6
CONTINUOUS
 10
-4.8158022961
 20
16.6607330965
 11
-4.1891054997
 21
16.6403198551
  0
LWPOLYLINE
  5
374
100
AcDbEntity
  8
DRAFT
100
AcDbPolyline
 62
7
  6
CONTINUOUS
 90
25
 70
0
 10
-3.4289782072
 20
20.289956813
 10
-3.4004184395
 20
20.2885721049
 10
-3.3722427668
 20
20.2875416824
 10
-3.3445474948
 20
20.2868655453
 10
-3.3174227264
 20
20.2865487155
 10
-3.2909664201
 20
20.2865861712
 10
-3.2652827999
 20
20.2869628472
 10
-3.24045958
 20
20.287684009
 10
-3.2165800124
 20
20.2887443911
 10
-3.1937346585
 20
20.2901131322
 10
-3.1720007643
 20
20.2917939727
 10
-3.1514480658
 20
20.2937831722
 10
-3.1321477845
 20
20.2960386483
 10
-3.1141646778
 20
20.2985621566
 10
-3.097552854
 20
20.3013519414
 10
-3.0823608456
 20
20.3043606535
 10
-3.0686378407
 20
20.307588792
 10
-3.0564264657
 20
20.3110358577
 10
-3.0457608029
 20
20.3146530037
 10
-3.0366762739
 20
20.3184396193
 10
-3.0292016971
 20
20.3223963153
 10
-3.0233581288
 20
20.3264760762
 10
-3.0191665352
 20
20.3306632303
 10
-3.016644409
 20
20.3349734494
 10
-3.0158022961
 20
20.3394067334
  0
LINE
  5
375
100
AcDbEntity
  8
RACCORDO
100
AcDbLine
 62
7
  6
CONTINUOUS
 10
-4.8158022961
 20
17.1926136517
 11
-4.5558026024
 21
17.1738866852
  0
LINE
  5
376
100
AcDbEntity
  8
RACCORDO
100
AcDbLine
 62
250
  6
CONTINUOUS
 10
-4.8158022961
 20
17.2934021257
 11
-4.1752467664
 21
17.2472649101
  0
LINE
  5
377
100
AcDbEntity
  8
DRAFT
100
AcDbLine
 62
7
  6
CONTINUOUS
 10
-4.8158022961
 20
20.6311533854
 11
-3.0158022961
 21
20.473673791
  0
LINE
  5
378
100
AcDbEntity
  8
RACCORDO
100
AcDbLine
 62
7
  6
CONTINUOUS
 10
-4.8158022961
 20
17.7976591237
 11
-4.3543321016
 21
17.7478810645
  0
LINE
  5
379
100
AcDbEntity
  8
RACCORDO
100
AcDbLine
 62
7
  6
CONTINUOUS
 10
-4.8158022961
 20
18.3840245026
 11
-4.5558022961
 21
18.3479352234
  0
LINE
  5
37A
100
AcDbEntity
  8
RACCORDO
100
AcDbLine
 62
250
  6
CONTINUOUS
 10
-4.8158022961
 20
18.5625095199
 11
-4.2041563581
 21
18.4772236739
  0
LINE
  5
37B
100
AcDbEntity
  8
RACCORDO
100
AcDbLine
 62
250
  6
CONTINUOUS
 10
-6.3288907702
 20
24.3682960803
 11
-6.8158022961
 21
24.3682960803
  0
LWPOLYLINE
  5
37C
100
AcDbEntity
  8
0
100
AcDbPolyline
 62
7
  6
CONTINUOUS
 90
13
 70
0
 43
0.3500000087
 10
-16.1295945374
 20
55.028824823
 10
-16.415308493
 20
55.2431070923
 10
-16.415308493
 20
55.8859624268
 10
-16.1295945374
 20
56.3145354919
 10
-15.4867370712
 20
56.3145354919
 10
-15.2010231155
 20
55.8859624268
 10
-15.2010231155
 20
55.2431070923
 10
-15.4867370712
 20
55.028824823
 10
-15.0581650719
 20
54.6002517578
 10
-15.0581650719
 20
53.7431056274
 10
-15.4867370712
 20
53.3145325623
 10
-16.1295945374
 20
53.3145325623
 10
-16.5581654709
 20
53.7431056274
  0
LWPOLYLINE
  5
37D
100
AcDbEntity
  8
RACCORDO
100
AcDbPolyline
 62
250
  6
CONTINUOUS
 90
34
 70
0
 10
-3.6668053171
 20
35.5895091212
 10
-3.6177111446
 20
35.6006203236
 10
-3.5705766365
 20
35.6157149467
 10
-3.5254017926
 20
35.6347929907
 10
-3.481873832
 20
35.6580671171
 10
-3.4403055358
 20
35.6853246643
 10
-3.4016352472
 20
35.7159276473
 10
-3.3659117068
 20
35.7499629292
 10
-3.3330861741
 20
35.787343647
 10
-3.3039507707
 20
35.8271712259
 10
-3.2785964484
 20
35.8695074252
 10
-3.2569322554
 20
35.9142904857
 10
-3.2394774587
 20
35.9604365553
 10
-3.2263327608
 20
36.0079571047
 10
-3.2173974592
 20
36.0568406632
 10
-3.2128887127
 20
36.1059689668
 10
-3.2129348885
 20
36.1554269843
 10
-3.2174076194
 20
36.2051297468
 10
-3.2261389635
 20
36.2537040834
 10
-3.2395191636
 20
36.3013341746
 10
-3.257157977
 20
36.3478358398
 10
-3.2777167335
 20
36.3912833667
 10
-3.3013385987
 20
36.4311993891
 10
-3.3278804071
 20
36.4680612731
 10
-3.3555739914
 20
36.5013754039
 10
-3.3837843906
 20
36.5306056086
 10
-3.4131465657
 20
36.55628806
 10
-3.4437972316
 20
36.5795376629
 10
-3.4753459468
 20
36.6006289266
 10
-3.5081831528
 20
36.6192873417
 10
-3.5436168889
 20
36.6358042839
 10
-3.5820831682
 20
36.6502768786
 10
-3.6231459776
 20
36.6626080005
 10
-3.6668053171
 20
36.6727976495
  0
LINE
  5
37E
100
AcDbEntity
  8
RACCORDO
100
AcDbLine
 62
7
  6
CONTINUOUS
 10
-4.8158022961
 20
35.1844400967
 11
-3.6355661628
 21
35.3925475706
  0
LINE
  5
37F
100
AcDbEntity
  8
RACCORDO
100
AcDbLine
 62
250
  6
CONTINUOUS
 10
-4.8158022961
 20
35.3869099531
 11
-3.6668053171
 21
35.5895091212
  0
LINE
  5
380
100
AcDbEntity
  8
RACCORDO
100
AcDbLine
 62
250
  6
CONTINUOUS
 10
-4.8158022961
 20
39.4841900641
 11
-6.3288907702
 21
39.444568448
  0
LINE
  5
381
100
AcDbEntity
  8
RACCORDO
100
AcDbLine
 62
7
  6
CONTINUOUS
 10
-4.8158022961
 20
39.9840187266
 11
-6.3288907702
 21
39.9443971104
  0
LINE
  5
382
100
AcDbEntity
  8
RACCORDO
100
AcDbLine
 62
7
  6
CONTINUOUS
 10
-4.8158022961
 20
35.8451174373
 11
-4.0681399811
 21
35.8581679316
  0
LINE
  5
383
100
AcDbEntity
  8
RACCORDO
100
AcDbLine
 62
250
  6
CONTINUOUS
 10
-4.8158022961
 20
36.042679384
 11
-3.7838250136
 21
36.0606926144
  0
LINE
  5
384
100
AcDbEntity
  8
RACCORDO
100
AcDbLine
 62
7
  6
CONTINUOUS
 10
-3.2644933157
 20
33.451672948
 11
-4.8158022961
 21
33.4381348796
  0
LINE
  5
385
100
AcDbEntity
  8
RACCORDO
100
AcDbLine
 62
250
  6
CONTINUOUS
 10
-3.1158022961
 20
34.5022294347
 11
-3.3636206622
 21
34.5022294347
  0
LINE
  5
386
100
AcDbEntity
  8
RACCORDO
100
AcDbLine
 62
250
  6
CONTINUOUS
 10
-6.3288907702
 20
39.444568448
 11
-6.8158022961
 21
39.444568448
  0
LWPOLYLINE
  5
387
100
AcDbEntity
  8
0
100
AcDbPolyline
 62
7
  6
CONTINUOUS
 90
3
 70
0
 43
0.3500000087
 10
-19.0136632645
 20
46.3343202545
 10
-20.5136625977
 20
46.3343202545
 10
-19.8708072632
 20
48.6914635864
  0
LINE
  5
388
100
AcDbEntity
  8
RACCORDO
100
AcDbLine
 62
7
  6
CONTINUOUS
 10
-4.8158022961
 20
34.0202770374
 11
-3.3636206622
 21
34.0162354038
  0
LINE
  5
389
100
AcDbEntity
  8
RACCORDO
100
AcDbLine
 62
250
  6
CONTINUOUS
 10
-3.2644933157
 20
33.7350635908
 11
-4.8158022961
 21
33.742901456
  0
LINE
  5
38A
100
AcDbEntity
  8
RACCORDO
100
AcDbLine
 62
250
  6
CONTINUOUS
 10
-4.8158022961
 20
34.9741814104
 11
-3.8247517562
 21
34.9655326433
  0
LINE
  5
38B
100
AcDbEntity
  8
RACCORDO
100
AcDbLine
 62
7
  6
CONTINUOUS
 10
-4.6010983342
 20
35.2222981981
 11
-3.8247517562
 21
35.2155231241
  0
LINE
  5
38C
100
AcDbEntity
  8
RACCORDO
100
AcDbLine
 62
250
  6
CONTINUOUS
 10
-3.7838250136
 20
36.2016141563
 11
-4.8158022961
 21
36.2196273868
  0
LINE
  5
38D
100
AcDbEntity
  8
RACCORDO
100
AcDbLine
 62
7
  6
CONTINUOUS
 10
-4.0681399811
 20
36.4041388392
 11
-4.8158022961
 21
36.4171893334
  0
LWPOLYLINE
  5
38E
100
AcDbEntity
  8
RACCORDO
100
AcDbPolyline
 62
250
  6
CONTINUOUS
 90
13
 70
0
 10
-3.2644933157
 20
33.7350635908
 10
-3.2450343579
 20
33.7342305188
 10
-3.2259268135
 20
33.7319421406
 10
-3.2074940005
 20
33.7282371778
 10
-3.1900478198
 20
33.723178322
 10
-3.1738834775
 20
33.7168511738
 10
-3.1592744897
 20
33.7093627947
 10
-3.1464680546
 20
33.7008398951
 10
-3.1356808692
 20
33.6914266908
 10
-3.1270954632
 20
33.6812824622
 10
-3.1208571098
 20
33.6705788594
 10
-3.117071368
 20
33.6594969975
 10
-3.1158022961
 20
33.6482243923
  0
LWPOLYLINE
  5
38F
100
AcDbEntity
  8
RACCORDO
100
AcDbPolyline
 62
250
  6
CONTINUOUS
 90
13
 70
0
 10
-3.8247517562
 20
34.9655326433
 10
-3.8071546046
 20
34.9645681115
 10
-3.7903031385
 20
34.9626961279
 10
-3.7741973578
 20
34.9599166926
 10
-3.7589613465
 20
34.9562135911
 10
-3.7444710206
 20
34.9516030378
 10
-3.7303541286
 20
34.9461336764
 10
-3.7165826494
 20
34.9399350904
 10
-3.7031846042
 20
34.9328776961
 10
-3.6898718049
 20
34.9246213865
 10
-3.6765481889
 20
34.9150527924
 10
-3.6633098188
 20
34.9042852828
 10
-3.6501566948
 20
34.8923188579
  0
LINE
  5
390
100
AcDbEntity
  8
RACCORDO
100
AcDbLine
 62
250
  6
CONTINUOUS
 10
-3.6668053171
 20
36.6727976495
 11
-4.8158022961
 21
36.8753968177
  0
LINE
  5
391
100
AcDbEntity
  8
RACCORDO
100
AcDbLine
 62
7
  6
CONTINUOUS
 10
-3.6355661628
 20
36.8697592001
 11
-4.8158022961
 21
37.077866674
  0
LINE
  5
392
100
AcDbEntity
  8
RACCORDO
100
AcDbLine
 62
250
  6
CONTINUOUS
 10
-3.6668053171
 20
37.0727976495
 11
-4.8158022961
 21
37.2753968177
  0
LINE
  5
393
100
AcDbEntity
  8
RACCORDO
100
AcDbLine
 62
7
  6
CONTINUOUS
 10
-3.6355661628
 20
37.2697592001
 11
-4.8158022961
 21
37.477866674
  0
ARC
  5
394
100
AcDbEntity
  8
0
100
AcDbCircle
 62
7
  6
CONTINUOUS
 10
41.5812174609
 20
1.4561533854
 40
0.3
100
AcDbArc
 50
22.5000000003
 51
90.0
  0
ARC
  5
395
100
AcDbEntity
  8
0
100
AcDbCircle
 62
7
  6
CONTINUOUS
 10
38.9071213549
 20
1.4561533854
 40
0.3
100
AcDbArc
 50
90.0
 51
157.4999999999
  0
ARC
  5
396
100
AcDbEntity
  8
0
100
AcDbCircle
 62
7
  6
CONTINUOUS
 10
36.9396069336
 20
-3.2938466146
 40
0.3
100
AcDbArc
 50
157.5000000029
 51
270.0
  0
ARC
  5
397
100
AcDbEntity
  8
0
100
AcDbCircle
 62
7
  6
CONTINUOUS
 10
43.5487318821
 20
-3.2938466146
 40
0.3
100
AcDbArc
 50
270.0
 51
22.5000000003
  0
ARC
  5
398
100
AcDbEntity
  8
0
100
AcDbCircle
 62
7
  6
CONTINUOUS
 10
37.2201847684
 20
-2.0938466146
 40
0.1
100
AcDbArc
 50
157.4999999999
 51
270.0
  0
ARC
  5
399
100
AcDbEntity
  8
0
100
AcDbCircle
 62
7
  6
CONTINUOUS
 10
37.6531416485
 20
-2.0938466146
 40
0.1
100
AcDbArc
 50
270.0
 51
337.4999999996
  0
ARC
  5
39A
100
AcDbEntity
  8
0
100
AcDbCircle
 62
7
  6
CONTINUOUS
 10
36.805971206
 20
-3.0938466146
 40
0.1
100
AcDbArc
 50
90.0
 51
157.5000000029
  0
ARC
  5
39B
100
AcDbEntity
  8
0
100
AcDbCircle
 62
7
  6
CONTINUOUS
 10
39.4985150438
 20
-4.4938466146
 40
0.1
100
AcDbArc
 50
90.0
 51
180.0
  0
ARC
  5
39C
100
AcDbEntity
  8
0
100
AcDbCircle
 62
7
  6
CONTINUOUS
 10
39.4985150438
 20
-4.8938466146
 40
0.1
100
AcDbArc
 50
180.0
 51
270.0
  0
ARC
  5
39D
100
AcDbEntity
  8
0
100
AcDbCircle
 62
7
  6
CONTINUOUS
 10
40.6985150438
 20
-4.8938466146
 40
0.1
100
AcDbArc
 50
270.0
 51
360.0
  0
ARC
  5
39E
100
AcDbEntity
  8
0
100
AcDbCircle
 62
7
  6
CONTINUOUS
 10
40.6985150438
 20
-4.4938466146
 40
0.1
100
AcDbArc
 50
0.0
 51
90.0
  0
ARC
  5
39F
100
AcDbEntity
  8
RACCORDO
100
AcDbCircle
 62
7
  6
CONTINUOUS
 10
-6.0302118795
 20
-11.6895687292
 40
1.0
100
AcDbArc
 50
258.0135711831
 51
268.5
  0
ARC
  5
3A0
100
AcDbEntity
  8
RACCORDO
100
AcDbCircle
 62
7
  6
CONTINUOUS
 10
-8.9855498247
 20
-11.5732684308
 40
0.5
100
AcDbArc
 50
174.0
 51
258.0135711831
  0
ARC
  5
3A1
100
AcDbEntity
  8
RACCORDO
100
AcDbCircle
 62
7
  6
CONTINUOUS
 10
-6.3158022961
 20
39.444568448
 40
0.5
100
AcDbArc
 50
91.5
 51
180.0
  0
ARC
  5
3A2
100
AcDbEntity
  8
RACCORDO
100
AcDbCircle
 62
7
  6
CONTINUOUS
 10
-2.0158022961
 20
-0.471968438
 40
0.5
100
AcDbArc
 50
275.0
 51
360.0
  0
ARC
  5
3A3
100
AcDbEntity
  8
RACCORDO
100
AcDbCircle
 62
7
  6
CONTINUOUS
 10
-2.0158022961
 20
1.2342752087
 40
0.5
100
AcDbArc
 50
0.0
 51
85.0
  0
ARC
  5
3A4
100
AcDbEntity
  8
RACCORDO
100
AcDbCircle
 62
7
  6
CONTINUOUS
 10
-2.3158022961
 20
12.5796841431
 40
0.5
100
AcDbArc
 50
280.0
 51
360.0
  0
ARC
  5
3A5
100
AcDbEntity
  8
RACCORDO
100
AcDbCircle
 62
7
  6
CONTINUOUS
 10
-3.7658022961
 20
36.5311533854
 40
0.75
100
AcDbArc
 50
344.5174200701
 51
80.0
  0
ARC
  5
3A6
100
AcDbEntity
  8
RACCORDO
100
AcDbCircle
 62
7
  6
CONTINUOUS
 10
-3.7658022961
 20
36.1311533854
 40
0.75
100
AcDbArc
 50
280.0
 51
80.0
  0
ARC
  5
3A7
100
AcDbEntity
  8
RACCORDO
100
AcDbCircle
 62
7
  6
CONTINUOUS
 10
-3.8291150239
 20
34.7155421626
 40
0.5
100
AcDbArc
 50
45.0008005983
 51
89.5
  0
ARC
  5
3A8
100
AcDbEntity
  8
RACCORDO
100
AcDbCircle
 62
7
  6
CONTINUOUS
 10
-3.6158022961
 20
34.5022294347
 40
0.5
100
AcDbArc
 50
0.0
 51
45.0
  0
ARC
  5
3A9
100
AcDbEntity
  8
RACCORDO
100
AcDbCircle
 62
7
  6
CONTINUOUS
 10
-2.3158022961
 20
14.6826226277
 40
0.5
100
AcDbArc
 50
0.0
 51
80.0
  0
ARC
  5
3AA
100
AcDbEntity
  8
RACCORDO
100
AcDbCircle
 62
7
  6
CONTINUOUS
 10
-3.2658022961
 20
33.6016672364
 40
0.15
100
AcDbArc
 50
270.5
 51
360.0
  0
ARC
  5
3AB
100
AcDbEntity
  8
RACCORDO
100
AcDbCircle
 62
7
  6
CONTINUOUS
 10
-3.7676323773
 20
16.9610624044
 40
0.05
100
AcDbArc
 50
0.0
 51
58.4930902702
  0
ELLIPSE
  5
3AC
100
AcDbEntity
  8
RACCORDO
100
AcDbEllipse
 62
7
  6
CONTINUOUS
 10
62.0468633528
 20
-12.2215405596
 30
0.0
 11
-0.35379574
 21
0.35379574
 31
0.0
 40
0.999315002
 41
-3.9266482006
 42
-2.3565371065
  0
ELLIPSE
  5
3AD
100
AcDbEntity
  8
RACCORDO
100
AcDbEllipse
 62
7
  6
CONTINUOUS
 10
62.0468633528
 20
39.4838473303
 30
0.0
 11
0.35379574
 21
0.35379574
 31
0.0
 40
0.999315002
 41
-0.7850555471
 42
0.7850555471
  0
ELLIPSE
  5
3AE
100
AcDbEntity
  8
RACCORDO
100
AcDbEllipse
 62
7
  6
CONTINUOUS
 10
18.441475463
 20
39.4838473303
 30
0.0
 11
0.35379574
 21
-0.35379574
 31
0.0
 40
0.999315002
 41
2.3565371065
 42
3.9266482006
  0
ELLIPSE
  5
3AF
100
AcDbEntity
  8
RACCORDO
100
AcDbEllipse
 62
7
  6
CONTINUOUS
 10
18.441475463
 20
-12.2215405596
 30
0.0
 11
0.35379574
 21
0.35379574
 31
0.0
 40
0.999315002
 41
-3.9266482006
 42
-2.3565371065
  0
ELLIPSE
  5
3B0
100
AcDbEntity
  8
DRAFT
100
AcDbEllipse
 62
7
  6
CONTINUOUS
 10
15.7519712036
 20
8.8311533854
 30
0.0
 11
64.5459301196
 21
0.0
 31
0.0
 40
0.1754608926
 41
1.8725210415
 42
1.8951047095
  0
ELLIPSE
  5
3B1
100
AcDbEntity
  8
RACCORDO
100
AcDbEllipse
 62
7
  6
CONTINUOUS
 10
-4.0716924713
 20
36.0581363882
 30
0.0
 11
0.2878469909
 21
0.0049410995
 31
0.0
 40
0.6947112101
 41
-1.5703799483
 42
-0.0119246497
  0
ELLIPSE
  5
3B2
100
AcDbEntity
  8
RACCORDO
100
AcDbEllipse
 62
7
  6
CONTINUOUS
 10
-4.0716924713
 20
36.2041703825
 30
0.0
 11
0.2878469909
 21
-0.0049410995
 31
0.0
 40
0.6947112101
 41
0.0119246497
 42
1.5703799483
  0
ELLIPSE
  5
3B3
100
AcDbEntity
  8
0
100
AcDbEllipse
 62
7
  6
CONTINUOUS
 10
-30.055822168
 20
8.8311533854
 30
0.0
 11
79.4445384914
 21
0.0
 31
0.0
 40
0.153091273
 41
1.2290184413
 42
1.2474869946
  0
ELLIPSE
  5
3B4
100
AcDbEntity
  8
RACCORDO
100
AcDbEllipse
 62
7
  6
CONTINUOUS
 10
-3.3658022961
 20
34.3683418388
 30
0.0
 11
-0.0053940468
 21
0.3520863007
 31
0.0
 40
0.7098878919
 41
-3.154443869
 42
-2.7459336397
  0
ENDSEC
  0
SECTION
  2
OBJECTS
  0
DICTIONARY
  5
C
100
AcDbDictionary
280
0
281
1
  3
ACAD_GROUP
350
D
  3
ACAD_MLINESTYLE
350
17
  3
ACAD_LAYOUT
350
1A
  3
ACAD_PLOTSETTINGS
350
19
  3
ACAD_PLOTSTYLENAME
350
E
  0
DICTIONARY
  5
D
102
{ACAD_REACTORS
330
C
102
}
100
AcDbDictionary
280
0
281
1
  0
ACDBDICTIONARYWDFLT
  5
E
102
{ACAD_REACTORS
330
C
102
}
100
AcDbDictionary
281
1
  3
Normal
350
F
100
AcDbDictionaryWithDefault
340
F
  0
DICTIONARY
  5
17
102
{ACAD_REACTORS
330
C
102
}
100
AcDbDictionary
280
0
281
1
  3
Standard
350
18
  0
DICTIONARY
  5
19
102
{ACAD_REACTORS
330
C
102
}
100
AcDbDictionary
281
1
  0
DICTIONARY
  5
1A
102
{ACAD_REACTORS
330
C
102
}
100
AcDbDictionary
281
1
  3
Model
350
3B5
  3
Layout1
350
3B6
  0
ACDBPLACEHOLDER
  5
F
102
{ACAD_REACTORS
330
E
102
}
  0
MLINESTYLE
  5
18
102
{ACAD_REACTORS
330
17
102
}
100
AcDbMlineStyle
  2
STANDARD
 70
0
  3

 62
256
 51
90.0
 52
90.0
 71
2
 49
0.5
 62
256
  6
BYLAYER
 49
-0.5
 62
256
  6
BYLAYER
  0
LAYOUT
  5
3B5
102
{ACAD_REACTORS
330
1A
102
}
100
AcDbPlotSettings
  1

  2
none_device
  4
ANSI_C_(22.00_x_17.00_Inches)
  6

 40
0.0
 41
0.0
 42
0.0
 43
0.0
 44
558.8
 45
431.8
 46
0.0
 47
0.0
 48
0.0
 49
0.0
140
0.0
141
0.0
142
1.0
143
1.0
 70
1024
 72
1
 73
0
 74
0
  7

 75
0
147
1.0
148
0.0
149
0.0
100
AcDbLayout
  1
Model
 70
0
 71
0
 10
0.0
 20
0.0
 11
558.8
 21
431.8
 12
0.0
 22
0.0
 32
0.0
 14
0.0
 24
0.0
 34
0.0
 15
0.0
 25
0.0
 35
0.0
146
0.0
 13
0.0
 23
0.0
 33
0.0
 16
1.0
 26
0.0
 36
0.0
 17
0.0
 27
1.0
 37
0.0
 76
0
330
21C
345
0
346
0
  0
LAYOUT
  5
3B6
102
{ACAD_REACTORS
330
1A
102
}
100
AcDbPlotSettings
  1

  2
none_device
  4
ANSI_C_(22.00_x_17.00_Inches)
  6

 40
0.0
 41
0.0
 42
0.0
 43
0.0
 44
558.8
 45
431.8
 46
0.0
 47
0.0
 48
0.0
 49
0.0
140
0.0
141
0.0
142
1.0
143
1.0
 70
0
 72
1
 73
0
 74
0
  7

 75
0
147
1.0
148
0.0
149
0.0
100
AcDbLayout
  1
Layout1
 70
0
 71
1
 10
0.0
 20
0.0
 11
558.8
 21
431.8
 12
0.0
 22
0.0
 32
0.0
 14
0.0
 24
0.0
 34
0.0
 15
0.0
 25
0.0
 35
0.0
146
0.0
 13
0.0
 23
0.0
 33
0.0
 16
1.0
 26
0.0
 36
0.0
 17
0.0
 27
1.0
 37
0.0
 76
0
330
21D
345
0
346
0
  0
ENDSEC
  0
EOF
