  0
SECTION
  2
HEADER
  9
$ACADVER
  1
AC1024
  9
$DWGCODEPAGE
  3
ANSI_1252
  9
$EXTMAX
 10
297.0
 20
210.0
 30
0.0
  9
$EXTMIN
 10
0.0
 20
0.0
 30
0.0
  9
$LIMMIN
 10
0.0
 20
0.0
  9
$LIMMAX
 10
297.0
 20
210.0
  9
$VIEWCTR
 10
148.5
 20
105.0
  9
$VIEWSIZE
 40
210.0
  9
$CLAYER
  8
0
  9
$LTSCALE
 40
16.335
  9
$CELTYPE
  6
BYLAYER
  9
$DIMSCALE
 40
1.0
  9
$DIMASZ
 40
3.0
  9
$DIMEXO
 40
0.5
  9
$DIMDLI
 40
11.286
  9
$DIMEXE
 40
1.5
  9
$DIMCEN
 40
2.673
  9
$DIMLFAC
 40
1.0
  9
$DIMBLK
  1
_FILLED
  9
$DIMALT
 70
0
  9
$DIMALTF
 40
0.0393700787
  9
$DIMTXT
 40
3.0
  9
$DIMTOL
 70
1
  9
$DIMLIM
 70
0
  9
$DIMTFAC
 40
1.0
  9
$DIMTP
 40
0.01
  9
$DIMTM
 40
0.01
  9
$DIMGAP
 40
0.625
  9
$DIMDSEP
 70
44
  9
$AUNITS
 70
0
  9
$PDMODE
 70
3
  9
$PDSIZE
 40
3.0
  9
$HANDSEED
  5
2FA
  9
$TILEMODE
 70
1
  9
$MEASUREMENT
 70
1
  9
$INSUNITS
 70
4
  0
ENDSEC
  0
SECTION
  2
CLASSES
  0
CLASS
  1
ACDBDICTIONARYWDFLT
  2
AcDbDictionaryWithDefault
  3
AutoCAD 2000
 90
0
 91
1
280
0
281
0
  0
CLASS
  1
ACDBPLACEHOLDER
  2
AcDbPlaceHolder
  3
AutoCAD 2000
 90
0
 91
1
280
0
281
0
  0
CLASS
  1
LAYOUT
  2
AcDbLayout
  3
AutoCAD 2000
 90
0
 91
0
280
0
281
0
  0
ENDSEC
  0
SECTION
  2
TABLES
  0
TABLE
  2
VPORT
  5
8
100
AcDbSymbolTable
 70
2
  0
VPORT
  5
1F4
100
AcDbSymbolTableRecord
100
AcDbViewportTableRecord
  2
*ACTIVE
 70
0
 10
0.0
 20
0.0
 11
1.0
 21
1.0
 12
148.5
 22
105.0
 13
0.0
 23
0.0
 14
1.0
 24
1.0
 15
0.0
 25
0.0
 16
0.0
 26
0.0
 36
1.0
 17
0.0
 27
0.0
 37
0.0
 40
210.0
 41
1.4142857143
 42
50.0
 43
0.0
 44
0.0
 50
0.0
 51
0.0
 71
0
 72
100
 73
1
 74
1
 75
0
 76
0
 77
0
 78
0
  0
ENDTAB
  0
TABLE
  2
LTYPE
  5
5
100
AcDbSymbolTable
 70
6
  0
LTYPE
  5
14
100
AcDbSymbolTableRecord
100
AcDbLinetypeTableRecord
  2
BYBLOCK
 70
0
  3

 72
65
 73
0
 40
0.0
  0
LTYPE
  5
15
100
AcDbSymbolTableRecord
100
AcDbLinetypeTableRecord
  2
BYLAYER
 70
0
  3

 72
65
 73
0
 40
0.0
  0
LTYPE
  5
16
100
AcDbSymbolTableRecord
100
AcDbLinetypeTableRecord
  2
CONTINUOUS
 70
64
  3
Solid line
 72
65
 73
0
 40
0.0
  0
LTYPE
  5
1F5
100
AcDbSymbolTableRecord
100
AcDbLinetypeTableRecord
  2
CENTER
 70
64
  3
____ _ ____ _ ____ _ ____ _ ____ _ ____ _ ____
 72
65
 73
4
 40
0.6
 49
0.375
 74
0
 49
-0.075
 74
0
 49
0.075
 74
0
 49
-0.075
 74
0
  0
LTYPE
  5
1F6
100
AcDbSymbolTableRecord
100
AcDbLinetypeTableRecord
  2
HIDDEN
 70
64
  3
- - - - - - - - - - - - - - - - - - - -
 72
65
 73
2
 40
0.2
 49
0.1
 74
0
 49
-0.1
 74
0
  0
LTYPE
  5
1F7
100
AcDbSymbolTableRecord
100
AcDbLinetypeTableRecord
  2
PHANTOM
 70
64
  3
_____ _ _ _____ _ _ _____ _ _ _____
 72
65
 73
6
 40
0.8
 49
0.45
 74
0
 49
-0.05
 74
0
 49
0.1
 74
0
 49
-0.05
 74
0
 49
0.1
 74
0
 49
-0.05
 74
0
  0
LTYPE
  5
1F8
100
AcDbSymbolTableRecord
100
AcDbLinetypeTableRecord
  2
DOT
 70
64
  3
. . . . . . . . . . . . . . . . . . . .
 72
65
 73
2
 40
0.2
 49
0.1
 74
0
 49
-0.1
 74
0
  0
LTYPE
  5
1F9
100
AcDbSymbolTableRecord
100
AcDbLinetypeTableRecord
  2
DASHED
 70
64
  3
- - - - - - - - - - - - - - - - - - - -
 72
65
 73
2
 40
0.2
 49
0.1
 74
0
 49
-0.1
 74
0
  0
ENDTAB
  0
TABLE
  2
LAYER
  5
2
100
AcDbSymbolTable
 70
36
  0
LAYER
  5
10
100
AcDbSymbolTableRecord
100
AcDbLayerTableRecord
  2
0
 70
0
 62
7
  6
CONTINUOUS
370
-3
390
F
  0
LAYER
  5
1FA
100
AcDbSymbolTableRecord
100
AcDbLayerTableRecord
  2
DEFAULT_1
 70
0
 62
7
  6
CENTER
370
-3
390
F
  0
LAYER
  5
1FB
100
AcDbSymbolTableRecord
100
AcDbLayerTableRecord
  2
DEFAULT_2
 70
0
 62
7
  6
HIDDEN
370
-3
390
F
  0
LAYER
  5
1FC
100
AcDbSymbolTableRecord
100
AcDbLayerTableRecord
  2
DEFAULT_3
 70
0
 62
7
  6
PHANTOM
370
-3
390
F
  0
LAYER
  5
1FD
100
AcDbSymbolTableRecord
100
AcDbLayerTableRecord
  2
ASSI
 70
0
 62
7
  6
CONTINUOUS
370
-3
390
F
  0
LAYER
  5
1FE
100
AcDbSymbolTableRecord
100
AcDbLayerTableRecord
  2
COORDINATE
 70
0
 62
7
  6
CONTINUOUS
370
-3
390
F
  0
LAYER
  5
1FF
100
AcDbSymbolTableRecord
100
AcDbLayerTableRecord
  2
COPY_PUBLISH
 70
0
 62
7
  6
CONTINUOUS
370
-3
390
F
  0
LAYER
  5
200
100
AcDbSymbolTableRecord
100
AcDbLayerTableRecord
  2
COSMETICI
 70
0
 62
7
  6
CONTINUOUS
370
-3
390
F
  0
LAYER
  5
201
100
AcDbSymbolTableRecord
100
AcDbLayerTableRecord
  2
CURVE
 70
0
 62
7
  6
CONTINUOUS
370
-3
390
F
  0
LAYER
  5
202
100
AcDbSymbolTableRecord
100
AcDbLayerTableRecord
  2
DRAFT
 70
0
 62
7
  6
CONTINUOUS
370
-3
390
F
  0
LAYER
  5
203
100
AcDbSymbolTableRecord
100
AcDbLayerTableRecord
  2
IMPORT_IGES
 70
0
 62
7
  6
CONTINUOUS
370
-3
390
F
  0
LAYER
  5
204
100
AcDbSymbolTableRecord
100
AcDbLayerTableRecord
  2
INTF_1
 70
0
 62
7
  6
CONTINUOUS
370
-3
390
F
  0
LAYER
  5
205
100
AcDbSymbolTableRecord
100
AcDbLayerTableRecord
  2
INTF_11
 70
0
 62
7
  6
CONTINUOUS
370
-3
390
F
  0
LAYER
  5
206
100
AcDbSymbolTableRecord
100
AcDbLayerTableRecord
  2
INTF_13
 70
0
 62
7
  6
CONTINUOUS
370
-3
390
F
  0
LAYER
  5
207
100
AcDbSymbolTableRecord
100
AcDbLayerTableRecord
  2
INTF_2
 70
0
 62
7
  6
CONTINUOUS
370
-3
390
F
  0
LAYER
  5
208
100
AcDbSymbolTableRecord
100
AcDbLayerTableRecord
  2
NOTE
 70
0
 62
7
  6
CONTINUOUS
370
-3
390
F
  0
LAYER
  5
209
100
AcDbSymbolTableRecord
100
AcDbLayerTableRecord
  2
PIANI
 70
0
 62
7
  6
CONTINUOUS
370
-3
390
F
  0
LAYER
  5
20A
100
AcDbSymbolTableRecord
100
AcDbLayerTableRecord
  2
PUNTI
 70
0
 62
7
  6
CONTINUOUS
370
-3
390
F
  0
LAYER
  5
20B
100
AcDbSymbolTableRecord
100
AcDbLayerTableRecord
  2
RACCORDO
 70
0
 62
7
  6
CONTINUOUS
370
-3
390
F
  0
LAYER
  5
20C
100
AcDbSymbolTableRecord
100
AcDbLayerTableRecord
  2
SIMBOLI
 70
0
 62
7
  6
CONTINUOUS
370
-3
390
F
  0
LAYER
  5
20D
100
AcDbSymbolTableRecord
100
AcDbLayerTableRecord
  2
SMUSSO
 70
0
 62
7
  6
CONTINUOUS
370
-3
390
F
  0
LAYER
  5
20E
100
AcDbSymbolTableRecord
100
AcDbLayerTableRecord
  2
SNAPLINE
 70
0
 62
7
  6
CONTINUOUS
370
-3
390
F
  0
LAYER
  5
20F
100
AcDbSymbolTableRecord
100
AcDbLayerTableRecord
  2
SUPERFICI
 70
0
 62
7
  6
CONTINUOUS
370
-3
390
F
  0
LAYER
  5
210
100
AcDbSymbolTableRecord
100
AcDbLayerTableRecord
  2
TRASH
 70
0
 62
7
  6
CONTINUOUS
370
-3
390
F
  0
ENDTAB
  0
TABLE
  2
STYLE
  5
3
100
AcDbSymbolTable
 70
1
  0
STYLE
  5
11
100
AcDbSymbolTableRecord
100
AcDbTextStyleTableRecord
  2
STANDARD
 70
0
 40
0.0
 41
0.8
 50
0.0
 71
0
 42
0.2
  3
txt
  4

  0
STYLE
  5
211
100
AcDbSymbolTableRecord
100
AcDbTextStyleTableRecord
  2
TEXTSTYLE_1
 70
0
 40
0.0
 41
0.8
 50
0.0
 71
0
 42
0.2
  3
gdt
  4

  0
ENDTAB
  0
TABLE
  2
VIEW
  5
6
100
AcDbSymbolTable
 70
0
  0
ENDTAB
  0
TABLE
  2
UCS
  5
7
100
AcDbSymbolTable
 70
0
  0
ENDTAB
  0
TABLE
  2
APPID
  5
9
100
AcDbSymbolTable
 70
1
  0
APPID
  5
212
100
AcDbSymbolTableRecord
100
AcDbRegAppTableRecord
  2
ACAD
 70
0
  0
ENDTAB
  0
TABLE
  2
BLOCK_RECORD
  5
1
100
AcDbSymbolTable
 70
0
  0
BLOCK_RECORD
  5
213
100
AcDbSymbolTableRecord
100
AcDbBlockTableRecord
  2
*Model_Space
  0
BLOCK_RECORD
  5
214
100
AcDbSymbolTableRecord
100
AcDbBlockTableRecord
  2
*Paper_Space
  0
BLOCK_RECORD
  5
215
100
AcDbSymbolTableRecord
100
AcDbBlockTableRecord
  2
_FILLED
  0
BLOCK_RECORD
  5
216
100
AcDbSymbolTableRecord
100
AcDbBlockTableRecord
  2
*D0
  0
BLOCK_RECORD
  5
217
100
AcDbSymbolTableRecord
100
AcDbBlockTableRecord
  2
*D1
  0
BLOCK_RECORD
  5
218
100
AcDbSymbolTableRecord
100
AcDbBlockTableRecord
  2
*D2
  0
BLOCK_RECORD
  5
219
100
AcDbSymbolTableRecord
100
AcDbBlockTableRecord
  2
*D3
  0
ENDTAB
  0
TABLE
  2
DIMSTYLE
  5
A
100
AcDbSymbolTable
 70
1
100
AcDbDimStyleTable
 71
0
  0
DIMSTYLE
105
21A
100
AcDbSymbolTableRecord
100
AcDbDimStyleTableRecord
  2
STANDARD
 70
0
  3

  4

 40
1.0
 41
3.0
 42
0.5
 43
0.38
 44
1.5
 45
0.0
 46
0.0
 47
0.01
 48
0.01
140
3.0
141
0.09
142
0.0
143
25.4
144
1.0
145
0.0
146
1.0
147
0.625
 71
1
 72
0
 73
0
 74
0
 75
0
 76
0
 77
1
 78
8
 79
2
170
0
171
1
172
0
173
0
174
0
175
0
176
0
177
0
178
0
270
2
179
2
271
2
272
2
273
2
274
2
275
0
280
0
281
0
282
0
283
1
284
8
285
0
286
0
287
3
288
0
340
11
278
44
341
215
342
215
343
215
344
215
  0
DIMSTYLE
105
21B
100
AcDbSymbolTableRecord
100
AcDbDimStyleTableRecord
  2
DIMSTYLE_1
 70
0
  3

  4

 40
1.0
 41
3.0
 42
0.5
 43
0.38
 44
1.5
 45
0.0
 46
0.0
 47
0.0
 48
0.0
140
3.0
141
0.09
142
0.0
143
25.4
144
1.0
145
0.0
146
1.0
147
0.75
 71
0
 72
0
 73
0
 74
0
 75
0
 76
0
 77
1
 78
8
 79
2
170
0
171
1
172
0
173
0
174
0
175
0
176
0
177
0
178
0
270
2
179
2
271
2
272
2
273
2
274
2
275
0
280
0
281
0
282
0
283
1
284
8
285
0
286
0
287
3
288
0
340
11
278
44
341
215
342
215
343
215
344
215
  0
ENDTAB
  0
ENDSEC
  0
SECTION
  2
BLOCKS
  0
BLOCK
  5
20
100
AcDbEntity
  8
0
100
AcDbBlockBegin
  2
*Model_Space
 70
0
 10
0.0
 20
0.0
 30
0.0
  3
*Model_Space
  1

  0
ENDBLK
  5
21
100
AcDbEntity
  8
0
100
AcDbBlockEnd
  0
BLOCK
  5
1C
100
AcDbEntity
  8
0
100
AcDbBlockBegin
  2
*Paper_Space
 70
0
 10
0.0
 20
0.0
 30
0.0
  3
*Paper_Space
  1

  0
ENDBLK
  5
1D
100
AcDbEntity
  8
0
100
AcDbBlockEnd
  0
BLOCK
  5
21C
100
AcDbEntity
  8
0
100
AcDbBlockBegin
  2
_FILLED
 70
64
 10
0.0
 20
0.0
  3
_FILLED
  1

  0
SOLID
  5
21D
100
AcDbEntity
  8
0
  6
BYBLOCK
 62
0
100
AcDbTrace
 10
0.0
 20
0.0
 11
-1.0
 21
0.3166666667
 12
-1.0
 22
-0.3166666667
 13
-1.0
 23
-0.3166666667
  0
ENDBLK
  5
21E
100
AcDbEntity
  8
0
  6
BYBLOCK
 62
0
100
AcDbBlockEnd
  0
BLOCK
  5
21F
100
AcDbEntity
  8
0
100
AcDbBlockBegin
 62
7
  6
CONTINUOUS
  2
*D0
 70
65
 10
0.0
 20
0.0
  3
*D0
  1

  0
LINE
  5
220
100
AcDbEntity
  8
0
100
AcDbLine
 62
7
  6
CONTINUOUS
 10
-104.25
 20
43.0
 11
-104.25
 21
53.5
  0
LINE
  5
221
100
AcDbEntity
  8
0
100
AcDbLine
 62
7
  6
CONTINUOUS
 10
104.25
 20
43.0
 11
104.25
 21
53.5
  0
LINE
  5
222
100
AcDbEntity
  8
0
100
AcDbLine
 62
7
  6
CONTINUOUS
 10
-104.25
 20
52.0
 11
0.0
 21
52.0
  0
LINE
  5
223
100
AcDbEntity
  8
0
100
AcDbLine
 62
7
  6
CONTINUOUS
 10
104.25
 20
52.0
 11
0.0
 21
52.0
  0
INSERT
  5
224
100
AcDbEntity
  8
0
100
AcDbBlockReference
 62
7
  6
CONTINUOUS
  2
_FILLED
 10
-104.25
 20
52.0
 41
3.0
 42
3.0
 43
3.0
 50
180.0
  0
INSERT
  5
225
100
AcDbEntity
  8
0
100
AcDbBlockReference
 62
7
  6
CONTINUOUS
  2
_FILLED
 10
104.25
 20
52.0
 41
3.0
 42
3.0
 43
3.0
  0
ENDBLK
  5
226
100
AcDbEntity
  8
0
  6
BYBLOCK
 62
0
100
AcDbBlockEnd
  0
BLOCK
  5
227
100
AcDbEntity
  8
0
100
AcDbBlockBegin
 62
7
  6
CONTINUOUS
  2
*D1
 70
65
 10
0.0
 20
0.0
  3
*D1
  1

  0
LINE
  5
228
100
AcDbEntity
  8
0
100
AcDbLine
 62
7
  6
CONTINUOUS
 10
103.25
 20
44.0
 11
113.75
 21
44.0
  0
LINE
  5
229
100
AcDbEntity
  8
0
100
AcDbLine
 62
7
  6
CONTINUOUS
 10
103.25
 20
-44.0
 11
113.75
 21
-44.0
  0
LINE
  5
22A
100
AcDbEntity
  8
0
100
AcDbLine
 62
7
  6
CONTINUOUS
 10
112.25
 20
44.0
 11
112.25
 21
0.0
  0
LINE
  5
22B
100
AcDbEntity
  8
0
100
AcDbLine
 62
7
  6
CONTINUOUS
 10
112.25
 20
-44.0
 11
112.25
 21
0.0
  0
INSERT
  5
22C
100
AcDbEntity
  8
0
100
AcDbBlockReference
 62
7
  6
CONTINUOUS
  2
_FILLED
 10
112.25
 20
44.0
 41
3.0
 42
3.0
 43
3.0
 50
90.0
  0
INSERT
  5
22D
100
AcDbEntity
  8
0
100
AcDbBlockReference
 62
7
  6
CONTINUOUS
  2
_FILLED
 10
112.25
 20
-44.0
 41
3.0
 42
3.0
 43
3.0
 50
270.0
  0
ENDBLK
  5
22E
100
AcDbEntity
  8
0
  6
BYBLOCK
 62
0
100
AcDbBlockEnd
  0
BLOCK
  5
22F
100
AcDbEntity
  8
0
100
AcDbBlockBegin
 62
7
  6
CONTINUOUS
  2
*D2
 70
65
 10
0.0
 20
0.0
  3
*D2
  1

  0
LINE
  5
230
100
AcDbEntity
  8
0
100
AcDbLine
 62
7
  6
CONTINUOUS
 10
-148.0
 20
43.0
 11
-148.0
 21
63.5000108033
  0
LINE
  5
231
100
AcDbEntity
  8
0
100
AcDbLine
 62
7
  6
CONTINUOUS
 10
-137.7
 20
15.6290882178
 11
-137.7
 21
63.5000108033
  0
LINE
  5
232
100
AcDbEntity
  8
0
100
AcDbLine
 62
7
  6
CONTINUOUS
 10
-148.0
 20
62.0000108033
 11
-142.85
 21
62.0000108033
  0
LINE
  5
233
100
AcDbEntity
  8
0
100
AcDbLine
 62
7
  6
CONTINUOUS
 10
-142.85
 20
62.0000108033
 11
-158.1651579144
 21
62.0000108033
  0
LINE
  5
234
100
AcDbEntity
  8
0
100
AcDbLine
 62
7
  6
CONTINUOUS
 10
-137.7
 20
62.0000108033
 11
-142.85
 21
62.0000108033
  0
INSERT
  5
235
100
AcDbEntity
  8
0
100
AcDbBlockReference
 62
7
  6
CONTINUOUS
  2
_FILLED
 10
-148.0
 20
62.0000108033
 41
3.0
 42
3.0
 43
3.0
 50
180.0
  0
INSERT
  5
236
100
AcDbEntity
  8
0
100
AcDbBlockReference
 62
7
  6
CONTINUOUS
  2
_FILLED
 10
-137.7
 20
62.0000108033
 41
3.0
 42
3.0
 43
3.0
  0
ENDBLK
  5
237
100
AcDbEntity
  8
0
  6
BYBLOCK
 62
0
100
AcDbBlockEnd
  0
BLOCK
  5
238
100
AcDbEntity
  8
0
100
AcDbBlockBegin
 62
7
  6
CONTINUOUS
  2
*D3
 70
65
 10
0.0
 20
0.0
  3
*D3
  1

  0
LINE
  5
239
100
AcDbEntity
  8
0
100
AcDbLine
 62
7
  6
CONTINUOUS
 10
-148.0
 20
43.0
 11
-148.0
 21
53.501299868
  0
LINE
  5
23A
100
AcDbEntity
  8
0
100
AcDbLine
 62
7
  6
CONTINUOUS
 10
-140.2
 20
42.2215450143
 11
-140.2
 21
53.501299868
  0
LINE
  5
23B
100
AcDbEntity
  8
0
100
AcDbLine
 62
7
  6
CONTINUOUS
 10
-148.0
 20
52.001299868
 11
-144.1
 21
52.001299868
  0
LINE
  5
23C
100
AcDbEntity
  8
0
100
AcDbLine
 62
7
  6
CONTINUOUS
 10
-144.1
 20
52.001299868
 11
-156.5292127042
 21
52.001299868
  0
LINE
  5
23D
100
AcDbEntity
  8
0
100
AcDbLine
 62
7
  6
CONTINUOUS
 10
-140.2
 20
52.001299868
 11
-144.1
 21
52.001299868
  0
INSERT
  5
23E
100
AcDbEntity
  8
0
100
AcDbBlockReference
 62
7
  6
CONTINUOUS
  2
_FILLED
 10
-148.0
 20
52.001299868
 41
3.0
 42
3.0
 43
3.0
 50
180.0
  0
INSERT
  5
23F
100
AcDbEntity
  8
0
100
AcDbBlockReference
 62
7
  6
CONTINUOUS
  2
_FILLED
 10
-140.2
 20
52.001299868
 41
3.0
 42
3.0
 43
3.0
  0
ENDBLK
  5
240
100
AcDbEntity
  8
0
  6
BYBLOCK
 62
0
100
AcDbBlockEnd
  0
ENDSEC
  0
SECTION
  2
ENTITIES
  0
DIMENSION
  5
241
100
AcDbEntity
  8
0
100
AcDbDimension
 62
7
  6
CONTINUOUS
  2
*D0
 10
104.25
 20
52.0
 11
-5.4642857143
 21
52.0
 70
160
 71
2
 72
2
 41
0.9
 42
208.5
  3
DIMSTYLE_1
100
AcDbAlignedDimension
 13
-104.25
 23
42.5
 14
104.25
 24
42.5
100
AcDbRotatedDimension
  0
DIMENSION
  5
242
100
AcDbEntity
  8
0
100
AcDbDimension
 62
7
  6
CONTINUOUS
  2
*D1
 10
112.25
 20
-44.0
 11
112.25
 21
-2.3571428571
 70
160
 71
2
 72
2
 41
0.9
 42
88.0
  3
DIMSTYLE_1
100
AcDbAlignedDimension
 13
102.75
 23
44.0
 14
102.75
 24
-44.0
 50
270.0
100
AcDbRotatedDimension
  0
DIMENSION
  5
243
100
AcDbEntity
  8
0
100
AcDbDimension
 62
7
  6
CONTINUOUS
  2
*D2
 10
-137.7
 20
62.0000108033
 11
-158.1651579144
 21
62.0000108033
 70
160
 71
3
 72
2
 41
0.9
 42
10.3
  3
DIMSTYLE_1
100
AcDbAlignedDimension
 13
-148.0
 23
42.5
 14
-137.7
 24
15.1290882178
100
AcDbRotatedDimension
  0
DIMENSION
  5
244
100
AcDbEntity
  8
0
100
AcDbDimension
 62
7
  6
CONTINUOUS
  2
*D3
 10
-140.2
 20
52.001299868
 11
-156.5292127042
 21
52.001299868
 70
160
 71
3
 72
2
 41
0.9
 42
7.8
  3
DIMSTYLE_1
100
AcDbAlignedDimension
 13
-148.0
 23
42.5
 14
-140.2
 24
41.7215450143
100
AcDbRotatedDimension
  0
LINE
  5
245
100
AcDbEntity
  8
0
100
AcDbLine
 62
7
  6
CONTINUOUS
 10
-104.25
 20
42.5
 11
-104.25
 21
-42.5
  0
LINE
  5
246
100
AcDbEntity
  8
0
100
AcDbLine
 62
250
  6
CONTINUOUS
 10
-103.75
 20
42.5
 11
-103.75
 21
-42.5
  0
LINE
  5
247
100
AcDbEntity
  8
0
100
AcDbLine
 62
250
  6
CONTINUOUS
 10
-102.75
 20
-43.5
 11
-102.75
 21
-44.0
  0
LINE
  5
248
100
AcDbEntity
  8
0
100
AcDbLine
 62
250
  6
CONTINUOUS
 10
-102.75
 20
43.5
 11
-102.75
 21
44.0
  0
LINE
  5
249
100
AcDbEntity
  8
0
100
AcDbLine
 62
250
  6
CONTINUOUS
 10
-79.325
 20
-26.225
 11
-79.325
 21
26.225
  0
LINE
  5
24A
100
AcDbEntity
  8
0
100
AcDbLine
 62
7
  6
CONTINUOUS
 10
-79.025
 20
-26.225
 11
-79.025
 21
26.225
  0
LINE
  5
24B
100
AcDbEntity
  8
0
100
AcDbLine
 62
250
  6
CONTINUOUS
 10
-78.425
 20
27.125
 11
-78.425
 21
26.825
  0
LINE
  5
24C
100
AcDbEntity
  8
0
100
AcDbLine
 62
250
  6
CONTINUOUS
 10
-78.425
 20
-27.125
 11
-78.425
 21
-26.825
  0
LINE
  5
24D
100
AcDbEntity
  8
0
100
AcDbLine
 62
7
  6
CONTINUOUS
 10
-102.75
 20
-44.0
 11
102.75
 21
-44.0
  0
LINE
  5
24E
100
AcDbEntity
  8
0
100
AcDbLine
 62
250
  6
CONTINUOUS
 10
-102.75
 20
-43.5
 11
102.75
 21
-43.5
  0
LINE
  5
24F
100
AcDbEntity
  8
0
100
AcDbLine
 62
250
  6
CONTINUOUS
 10
103.75
 20
-42.5
 11
104.25
 21
-42.5
  0
LINE
  5
250
100
AcDbEntity
  8
0
100
AcDbLine
 62
250
  6
CONTINUOUS
 10
-103.75
 20
-42.5
 11
-104.25
 21
-42.5
  0
LINE
  5
251
100
AcDbEntity
  8
0
100
AcDbLine
 62
250
  6
CONTINUOUS
 10
78.425
 20
-27.125
 11
-78.425
 21
-27.125
  0
LINE
  5
252
100
AcDbEntity
  8
0
100
AcDbLine
 62
7
  6
CONTINUOUS
 10
78.425
 20
-26.825
 11
-78.425
 21
-26.825
  0
LINE
  5
253
100
AcDbEntity
  8
0
100
AcDbLine
 62
250
  6
CONTINUOUS
 10
-79.325
 20
-26.225
 11
-79.025
 21
-26.225
  0
LINE
  5
254
100
AcDbEntity
  8
0
100
AcDbLine
 62
250
  6
CONTINUOUS
 10
79.325
 20
-26.225
 11
79.025
 21
-26.225
  0
LWPOLYLINE
  5
255
100
AcDbEntity
  8
0
100
AcDbPolyline
 62
7
  6
CONTINUOUS
 90
3
 70
0
 43
0.3500000006
 10
2.3214286122
 20
53.0357133179
 10
2.2499999785
 20
52.821428833
 10
2.1071428528
 20
52.5357131653
  0
LWPOLYLINE
  5
256
100
AcDbEntity
  8
0
100
AcDbPolyline
 62
7
  6
CONTINUOUS
 90
13
 70
0
 43
0.3500000006
 10
-3.1071428747
 20
53.6071446533
 10
-3.1071428747
 20
54.8928560944
 10
-2.8928572569
 20
55.3214295959
 10
-2.464285738
 20
55.7499985657
 10
-2.2499999785
 20
55.7499985657
 10
-1.8214286013
 20
55.3214295959
 10
-1.6071428418
 20
54.8928560944
 10
-1.6071428418
 20
53.6071446533
 10
-1.8214286013
 20
53.1785711517
 10
-2.2499999785
 20
52.750002182
 10
-2.464285738
 20
52.750002182
 10
-2.8928572569
 20
53.1785711517
 10
-3.1071428747
 20
53.6071446533
  0
LWPOLYLINE
  5
257
100
AcDbEntity
  8
0
100
AcDbPolyline
 62
7
  6
CONTINUOUS
 90
4
 70
0
 43
0.3500000006
 10
-0.7500000165
 20
53.1785711517
 10
-0.7500000165
 20
54.035713623
 10
-0.3214285684
 20
54.4642871246
 10
0.3214285684
 20
54.4642871246
  0
LWPOLYLINE
  5
258
100
AcDbEntity
  8
0
100
AcDbPolyline
 62
7
  6
CONTINUOUS
 90
4
 70
0
 43
0.3500000006
 10
111.0714288025
 20
-2.3571432495
 10
110.2142817993
 20
-2.3571432495
 10
109.7857128296
 20
-1.9285708809
 10
109.7857128296
 20
-1.2857140274
  0
LWPOLYLINE
  5
259
100
AcDbEntity
  8
0
100
AcDbPolyline
 62
7
  6
CONTINUOUS
 90
4
 70
0
 43
0.3500000006
 10
111.0714288025
 20
-0.0000003204
 10
110.2142817993
 20
-0.0000003204
 10
109.7857128296
 20
0.4285709152
 10
109.7857128296
 20
1.0714289017
  0
LINE
  5
25A
100
AcDbEntity
  8
0
100
AcDbLine
 62
250
  6
CONTINUOUS
 10
-79.325
 20
26.225
 11
-79.025
 21
26.225
  0
LINE
  5
25B
100
AcDbEntity
  8
0
100
AcDbLine
 62
250
  6
CONTINUOUS
 10
79.325
 20
26.225
 11
79.025
 21
26.225
  0
LINE
  5
25C
100
AcDbEntity
  8
0
100
AcDbLine
 62
7
  6
CONTINUOUS
 10
-78.425
 20
26.825
 11
78.425
 21
26.825
  0
LINE
  5
25D
100
AcDbEntity
  8
0
100
AcDbLine
 62
250
  6
CONTINUOUS
 10
-78.425
 20
27.125
 11
78.425
 21
27.125
  0
LWPOLYLINE
  5
25E
100
AcDbEntity
  8
0
100
AcDbPolyline
 62
7
  6
CONTINUOUS
 90
10
 70
0
 43
0.3500000006
 10
2.2499999785
 20
53.2499978027
 10
2.3214286122
 20
53.1071445007
 10
2.3214286122
 20
53.0357133179
 10
2.1785714865
 20
52.892855484
 10
2.1071428528
 20
52.892855484
 10
2.0357142191
 20
52.9642866669
 10
2.0357142191
 20
53.0357133179
 10
2.1071428528
 20
53.1785711517
 10
2.1785714865
 20
53.2499978027
 10
2.2499999785
 20
53.2499978027
  0
LINE
  5
25F
100
AcDbEntity
  8
0
100
AcDbLine
 62
250
  6
CONTINUOUS
 10
103.75
 20
42.5
 11
104.25
 21
42.5
  0
LINE
  5
260
100
AcDbEntity
  8
0
100
AcDbLine
 62
250
  6
CONTINUOUS
 10
-103.75
 20
42.5
 11
-104.25
 21
42.5
  0
LINE
  5
261
100
AcDbEntity
  8
0
100
AcDbLine
 62
250
  6
CONTINUOUS
 10
102.75
 20
43.5
 11
-102.75
 21
43.5
  0
LINE
  5
262
100
AcDbEntity
  8
0
100
AcDbLine
 62
7
  6
CONTINUOUS
 10
102.75
 20
44.0
 11
-102.75
 21
44.0
  0
LWPOLYLINE
  5
263
100
AcDbEntity
  8
0
100
AcDbPolyline
 62
7
  6
CONTINUOUS
 90
13
 70
0
 43
0.3500000006
 10
-0.3214285684
 20
54.4642871246
 10
-0.6071428907
 20
54.6785716095
 10
-0.6071428907
 20
55.3214295959
 10
-0.3214285684
 20
55.7499985657
 10
0.3214285684
 20
55.7499985657
 10
0.6071428907
 20
55.3214295959
 10
0.6071428907
 20
54.6785716095
 10
0.3214285684
 20
54.4642871246
 10
0.7500000165
 20
54.035713623
 10
0.7500000165
 20
53.1785711517
 10
0.3214285684
 20
52.750002182
 10
-0.3214285684
 20
52.750002182
 10
-0.7500000165
 20
53.1785711517
  0
LWPOLYLINE
  5
264
100
AcDbEntity
  8
0
100
AcDbPolyline
 62
7
  6
CONTINUOUS
 90
8
 70
0
 43
0.3500000006
 10
3.3214284925
 20
52.750002182
 10
4.1785715303
 20
52.750002182
 10
4.607142766
 20
53.1785711517
 10
4.607142766
 20
54.035713623
 10
4.1785715303
 20
54.4642871246
 10
3.3214284925
 20
54.4642871246
 10
3.3214284925
 20
55.7499985657
 10
4.607142766
 20
55.7499985657
  0
LWPOLYLINE
  5
265
100
AcDbEntity
  8
0
100
AcDbPolyline
 62
7
  6
CONTINUOUS
 90
7
 70
0
 43
0.3500000006
 10
-3.9642856293
 20
52.750002182
 10
-5.4642855206
 20
52.750002182
 10
-3.9642856293
 20
54.8928560944
 10
-3.9642856293
 20
55.3214295959
 10
-4.3928571482
 20
55.7499985657
 10
-5.0357142849
 20
55.7499985657
 10
-5.4642855206
 20
55.1071451111
  0
LINE
  5
266
100
AcDbEntity
  8
0
100
AcDbLine
 62
250
  6
CONTINUOUS
 10
78.425
 20
27.125
 11
78.425
 21
26.825
  0
LINE
  5
267
100
AcDbEntity
  8
0
100
AcDbLine
 62
250
  6
CONTINUOUS
 10
78.425
 20
-27.125
 11
78.425
 21
-26.825
  0
LINE
  5
268
100
AcDbEntity
  8
0
100
AcDbLine
 62
7
  6
CONTINUOUS
 10
79.025
 20
26.225
 11
79.025
 21
-26.225
  0
LINE
  5
269
100
AcDbEntity
  8
0
100
AcDbLine
 62
250
  6
CONTINUOUS
 10
79.325
 20
26.225
 11
79.325
 21
-26.225
  0
LWPOLYLINE
  5
26A
100
AcDbEntity
  8
0
100
AcDbPolyline
 62
7
  6
CONTINUOUS
 90
13
 70
0
 43
0.3500000006
 10
109.7857128296
 20
0.4285709152
 10
109.5714283447
 20
0.1428575134
 10
108.9285748901
 20
0.1428575134
 10
108.4999968567
 20
0.4285709152
 10
108.4999968567
 20
1.0714289017
 10
108.9285748901
 20
1.3571423035
 10
109.5714283447
 20
1.3571423035
 10
109.7857128296
 20
1.0714289017
 10
110.2142817993
 20
1.5000001373
 10
111.0714288025
 20
1.5000001373
 10
111.4999977722
 20
1.0714289017
 10
111.4999977722
 20
0.4285709152
 10
111.0714288025
 20
-0.0000003204
  0
LWPOLYLINE
  5
26B
100
AcDbEntity
  8
0
100
AcDbPolyline
 62
7
  6
CONTINUOUS
 90
13
 70
0
 43
0.3500000006
 10
109.7857128296
 20
-1.9285708809
 10
109.5714283447
 20
-2.2142854156
 10
108.9285748901
 20
-2.2142854156
 10
108.4999968567
 20
-1.9285708809
 10
108.4999968567
 20
-1.2857140274
 10
108.9285748901
 20
-1.0000006256
 10
109.5714283447
 20
-1.0000006256
 10
109.7857128296
 20
-1.2857140274
 10
110.2142817993
 20
-0.8571427917
 10
111.0714288025
 20
-0.8571427917
 10
111.4999977722
 20
-1.2857140274
 10
111.4999977722
 20
-1.9285708809
 10
111.0714288025
 20
-2.3571432495
  0
LINE
  5
26C
100
AcDbEntity
  8
0
100
AcDbLine
 62
250
  6
CONTINUOUS
 10
102.75
 20
-43.5
 11
102.75
 21
-44.0
  0
LINE
  5
26D
100
AcDbEntity
  8
0
100
AcDbLine
 62
250
  6
CONTINUOUS
 10
102.75
 20
43.5
 11
102.75
 21
44.0
  0
LINE
  5
26E
100
AcDbEntity
  8
0
100
AcDbLine
 62
250
  6
CONTINUOUS
 10
103.75
 20
-42.5
 11
103.75
 21
42.5
  0
LINE
  5
26F
100
AcDbEntity
  8
0
100
AcDbLine
 62
7
  6
CONTINUOUS
 10
104.25
 20
-42.5
 11
104.25
 21
42.5
  0
LWPOLYLINE
  5
270
100
AcDbEntity
  8
0
100
AcDbPolyline
 62
7
  6
CONTINUOUS
 90
3
 70
0
 43
0.3500000006
 10
-158.1651529541
 20
64.892863678
 10
-157.3080150146
 20
65.7500106812
 10
-157.3080150146
 20
62.7500097656
  0
LWPOLYLINE
  5
271
100
AcDbEntity
  8
0
100
AcDbPolyline
 62
7
  6
CONTINUOUS
 90
5
 70
0
 43
0.3500000006
 10
-151.5222976685
 20
64.4642947083
 10
-151.1651598816
 20
64.6785791931
 10
-151.1651598816
 20
65.3214417114
 10
-151.5222976685
 20
65.7500106812
 10
-152.3794356079
 20
65.7500106812
  0
LINE
  5
272
100
AcDbEntity
  8
0
100
AcDbLine
 62
7
  6
CONTINUOUS
 10
-147.5
 20
-44.0
 11
-143.1
 21
-44.0
  0
LINE
  5
273
100
AcDbEntity
  8
RACCORDO
100
AcDbLine
 62
7
  6
CONTINUOUS
 10
-140.3947646103
 20
-42.4213051418
 11
-143.1002055698
 21
-42.4921496066
  0
LINE
  5
274
100
AcDbEntity
  8
RACCORDO
100
AcDbLine
 62
250
  6
CONTINUOUS
 10
-140.3947646103
 20
-41.7215450143
 11
-143.1
 21
-41.792384096
  0
LINE
  5
275
100
AcDbEntity
  8
0
100
AcDbLine
 62
250
  6
CONTINUOUS
 10
-148.0
 20
-42.5
 11
-143.1
 21
-42.5
  0
LINE
  5
276
100
AcDbEntity
  8
RACCORDO
100
AcDbLine
 62
250
  6
CONTINUOUS
 10
-140.2
 20
-41.7215450143
 11
-140.3947646103
 21
-41.7215450143
  0
LWPOLYLINE
  5
277
100
AcDbEntity
  8
0
100
AcDbPolyline
 62
7
  6
CONTINUOUS
 90
3
 70
0
 43
0.3500000006
 10
-153.3794359131
 20
63.0357254333
 10
-153.4508761597
 20
62.8214409485
 10
-153.5937203979
 20
62.5357252808
  0
LWPOLYLINE
  5
278
100
AcDbEntity
  8
0
100
AcDbPolyline
 62
7
  6
CONTINUOUS
 90
3
 70
0
 43
0.3500000006
 10
-153.4577827148
 20
53.0370139618
 10
-153.529204834
 20
52.8227294769
 10
-153.6720671997
 20
52.5370138092
  0
LINE
  5
279
100
AcDbEntity
  8
RACCORDO
100
AcDbLine
 62
7
  6
CONTINUOUS
 10
-140.2
 20
-16.0846173002
 11
-138.091780193
 21
-15.6172362214
  0
LINE
  5
27A
100
AcDbEntity
  8
RACCORDO
100
AcDbLine
 62
250
  6
CONTINUOUS
 10
-140.2
 20
-15.8805352185
 11
-138.1315776345
 21
-15.4219770199
  0
LINE
  5
27B
100
AcDbEntity
  8
RACCORDO
100
AcDbLine
 62
250
  6
CONTINUOUS
 10
-137.8965095187
 20
-15.1290882178
 11
-137.7
 21
-15.1290882178
  0
LINE
  5
27C
100
AcDbEntity
  8
RACCORDO
100
AcDbLine
 62
250
  6
CONTINUOUS
 10
-137.8965095187
 20
-14.785542948
 11
-137.7
 21
-14.785542948
  0
LWPOLYLINE
  5
27D
100
AcDbEntity
  8
0
100
AcDbPolyline
 62
7
  6
CONTINUOUS
 90
4
 70
0
 43
0.3500000006
 10
-156.5292057495
 20
55.1084412231
 10
-156.5292057495
 20
55.7513037415
 10
-155.0292143555
 20
55.7513037415
 10
-155.8863522949
 20
52.7512982941
  0
LWPOLYLINE
  5
27E
100
AcDbEntity
  8
0
100
AcDbPolyline
 62
7
  6
CONTINUOUS
 90
13
 70
0
 43
0.3500000006
 10
-156.4508770752
 20
63.6071567688
 10
-156.4508770752
 20
64.892863678
 10
-156.2365925903
 20
65.3214417114
 10
-155.8080236206
 20
65.7500106812
 10
-155.5937210083
 20
65.7500106812
 10
-155.1651520386
 20
65.3214417114
 10
-154.9508675537
 20
64.892863678
 10
-154.9508675537
 20
63.6071567688
 10
-155.1651520386
 20
63.1785787354
 10
-155.5937210083
 20
62.7500097656
 10
-155.8080236206
 20
62.7500097656
 10
-156.2365925903
 20
63.1785787354
 10
-156.4508770752
 20
63.6071567688
  0
LINE
  5
27F
100
AcDbEntity
  8
RACCORDO
100
AcDbLine
 62
7
  6
CONTINUOUS
 10
-139.6
 20
-12.65
 11
-139.2522930714
 21
-12.6469656076
  0
LINE
  5
280
100
AcDbEntity
  8
RACCORDO
100
AcDbLine
 62
250
  6
CONTINUOUS
 10
-139.9412130283
 20
-12.4530005663
 11
-139.2505478972
 21
-12.446973223
  0
LINE
  5
281
100
AcDbEntity
  8
RACCORDO
100
AcDbLine
 62
250
  6
CONTINUOUS
 10
-137.8965095187
 20
-11.514457052
 11
-137.7
 21
-11.514457052
  0
LINE
  5
282
100
AcDbEntity
  8
RACCORDO
100
AcDbLine
 62
250
  6
CONTINUOUS
 10
-139.2505478972
 20
-13.853026777
 11
-139.9412130283
 21
-13.8469994337
  0
LINE
  5
283
100
AcDbEntity
  8
RACCORDO
100
AcDbLine
 62
7
  6
CONTINUOUS
 10
-139.2522930714
 20
-13.6530343924
 11
-139.6
 21
-13.65
  0
LWPOLYLINE
  5
284
100
AcDbEntity
  8
0
100
AcDbPolyline
 62
7
  6
CONTINUOUS
 90
4
 70
0
 43
0.3500000006
 10
-152.4577824097
 20
53.1798717957
 10
-152.4577824097
 20
54.037014267
 10
-152.0292134399
 20
54.4655877686
 10
-151.3863599854
 20
54.4655877686
  0
LINE
  5
285
100
AcDbEntity
  8
RACCORDO
100
AcDbLine
 62
250
  6
CONTINUOUS
 10
-138.7986679766
 20
13.99767468
 11
-138.0244365878
 21
14.5397973348
  0
LINE
  5
286
100
AcDbEntity
  8
RACCORDO
100
AcDbLine
 62
7
  6
CONTINUOUS
 10
-138.6874431706
 20
13.8338442712
 11
-137.9132117818
 21
14.3759669259
  0
LINE
  5
287
100
AcDbEntity
  8
RACCORDO
100
AcDbLine
 62
7
  6
CONTINUOUS
 10
-140.2
 20
12.3035898385
 11
-139.6
 21
12.65
  0
LINE
  5
288
100
AcDbEntity
  8
RACCORDO
100
AcDbLine
 62
250
  6
CONTINUOUS
 10
-137.8965095187
 20
-11.1709117822
 11
-137.7
 21
-11.1709117822
  0
LINE
  5
289
100
AcDbEntity
  8
RACCORDO
100
AcDbLine
 62
250
  6
CONTINUOUS
 10
-138.1315776345
 20
-10.8780229801
 11
-140.2
 21
-10.4194647815
  0
LINE
  5
28A
100
AcDbEntity
  8
RACCORDO
100
AcDbLine
 62
7
  6
CONTINUOUS
 10
-138.091780193
 20
-10.6827637786
 11
-140.2
 21
-10.2153826998
  0
LINE
  5
28B
100
AcDbEntity
  8
RACCORDO
100
AcDbLine
 62
7
  6
CONTINUOUS
 10
-139.6
 20
-12.65
 11
-140.2
 21
-12.3035898385
  0
LINE
  5
28C
100
AcDbEntity
  8
RACCORDO
100
AcDbLine
 62
250
  6
CONTINUOUS
 10
-138.0244365878
 20
-14.5397973348
 11
-138.7986679766
 21
-13.99767468
  0
LINE
  5
28D
100
AcDbEntity
  8
RACCORDO
100
AcDbLine
 62
7
  6
CONTINUOUS
 10
-137.9132117818
 20
-14.3759669259
 11
-138.6874431706
 21
-13.8338442712
  0
LINE
  5
28E
100
AcDbEntity
  8
0
100
AcDbLine
 62
7
  6
CONTINUOUS
 10
-148.0
 20
-43.5
 11
-148.0
 21
43.5
  0
LINE
  5
28F
100
AcDbEntity
  8
0
100
AcDbLine
 62
250
  6
CONTINUOUS
 10
-147.5
 20
-44.0
 11
-147.5
 21
44.0
  0
LINE
  5
290
100
AcDbEntity
  8
0
100
AcDbLine
 62
7
  6
CONTINUOUS
 10
-143.1
 20
-44.0
 11
-143.1
 21
44.0
  0
LINE
  5
291
100
AcDbEntity
  8
RACCORDO
100
AcDbLine
 62
250
  6
CONTINUOUS
 10
-140.3947646103
 20
41.7215450143
 11
-140.3947646103
 21
-41.7215450143
  0
LINE
  5
292
100
AcDbEntity
  8
RACCORDO
100
AcDbLine
 62
7
  6
CONTINUOUS
 10
-140.2
 20
-42.2213736768
 11
-140.2
 21
42.2213736768
  0
LINE
  5
293
100
AcDbEntity
  8
RACCORDO
100
AcDbLine
 62
250
  6
CONTINUOUS
 10
-137.8965095187
 20
-15.1290882178
 11
-137.8965095187
 21
-14.785542948
  0
LINE
  5
294
100
AcDbEntity
  8
RACCORDO
100
AcDbLine
 62
250
  6
CONTINUOUS
 10
-137.8965095187
 20
-11.514457052
 11
-137.8965095187
 21
-11.1709117822
  0
LINE
  5
295
100
AcDbEntity
  8
RACCORDO
100
AcDbLine
 62
250
  6
CONTINUOUS
 10
-137.8965095187
 20
11.1709117822
 11
-137.8965095187
 21
11.514457052
  0
LINE
  5
296
100
AcDbEntity
  8
RACCORDO
100
AcDbLine
 62
250
  6
CONTINUOUS
 10
-137.8965095187
 20
14.785542948
 11
-137.8965095187
 21
15.1290882178
  0
LINE
  5
297
100
AcDbEntity
  8
RACCORDO
100
AcDbLine
 62
7
  6
CONTINUOUS
 10
-137.7
 20
-15.1290882178
 11
-137.7
 21
-14.785542948
  0
LINE
  5
298
100
AcDbEntity
  8
RACCORDO
100
AcDbLine
 62
7
  6
CONTINUOUS
 10
-137.7
 20
-11.514457052
 11
-137.7
 21
-11.1709117822
  0
LINE
  5
299
100
AcDbEntity
  8
RACCORDO
100
AcDbLine
 62
7
  6
CONTINUOUS
 10
-137.7
 20
11.1709117822
 11
-137.7
 21
11.514457052
  0
LINE
  5
29A
100
AcDbEntity
  8
RACCORDO
100
AcDbLine
 62
7
  6
CONTINUOUS
 10
-137.7
 20
14.785542948
 11
-137.7
 21
15.1290882178
  0
LINE
  5
29B
100
AcDbEntity
  8
RACCORDO
100
AcDbLine
 62
7
  6
CONTINUOUS
 10
-140.2
 20
10.2153826998
 11
-138.091780193
 21
10.6827637786
  0
LINE
  5
29C
100
AcDbEntity
  8
RACCORDO
100
AcDbLine
 62
250
  6
CONTINUOUS
 10
-140.2
 20
10.4194647815
 11
-138.1315776345
 21
10.8780229801
  0
LINE
  5
29D
100
AcDbEntity
  8
RACCORDO
100
AcDbLine
 62
250
  6
CONTINUOUS
 10
-137.8965095187
 20
11.1709117822
 11
-137.7
 21
11.1709117822
  0
LINE
  5
29E
100
AcDbEntity
  8
RACCORDO
100
AcDbLine
 62
250
  6
CONTINUOUS
 10
-137.8965095187
 20
11.514457052
 11
-137.7
 21
11.514457052
  0
LINE
  5
29F
100
AcDbEntity
  8
RACCORDO
100
AcDbLine
 62
250
  6
CONTINUOUS
 10
-138.7986679766
 20
-12.30232532
 11
-138.0244365878
 21
-11.7602026652
  0
LINE
  5
2A0
100
AcDbEntity
  8
RACCORDO
100
AcDbLine
 62
7
  6
CONTINUOUS
 10
-138.6874431706
 20
-12.4661557288
 11
-137.9132117818
 21
-11.9240330741
  0
LINE
  5
2A1
100
AcDbEntity
  8
RACCORDO
100
AcDbLine
 62
7
  6
CONTINUOUS
 10
-140.2
 20
-13.9964101615
 11
-139.6
 21
-13.65
  0
LINE
  5
2A2
100
AcDbEntity
  8
RACCORDO
100
AcDbLine
 62
7
  6
CONTINUOUS
 10
-139.6
 20
13.65
 11
-139.2522930714
 21
13.6530343924
  0
LINE
  5
2A3
100
AcDbEntity
  8
RACCORDO
100
AcDbLine
 62
250
  6
CONTINUOUS
 10
-139.9412130283
 20
13.8469994337
 11
-139.2505478972
 21
13.853026777
  0
LINE
  5
2A4
100
AcDbEntity
  8
RACCORDO
100
AcDbLine
 62
250
  6
CONTINUOUS
 10
-137.8965095187
 20
14.785542948
 11
-137.7
 21
14.785542948
  0
LINE
  5
2A5
100
AcDbEntity
  8
RACCORDO
100
AcDbLine
 62
250
  6
CONTINUOUS
 10
-137.8965095187
 20
15.1290882178
 11
-137.7
 21
15.1290882178
  0
LINE
  5
2A6
100
AcDbEntity
  8
RACCORDO
100
AcDbLine
 62
250
  6
CONTINUOUS
 10
-139.2505478972
 20
12.446973223
 11
-139.9412130283
 21
12.4530005663
  0
LINE
  5
2A7
100
AcDbEntity
  8
RACCORDO
100
AcDbLine
 62
7
  6
CONTINUOUS
 10
-139.2522930714
 20
12.6469656076
 11
-139.6
 21
12.65
  0
LINE
  5
2A8
100
AcDbEntity
  8
RACCORDO
100
AcDbLine
 62
7
  6
CONTINUOUS
 10
-139.6
 20
13.65
 11
-140.2
 21
13.9964101615
  0
LINE
  5
2A9
100
AcDbEntity
  8
RACCORDO
100
AcDbLine
 62
250
  6
CONTINUOUS
 10
-138.0244365878
 20
11.7602026652
 11
-138.7986679766
 21
12.30232532
  0
LINE
  5
2AA
100
AcDbEntity
  8
RACCORDO
100
AcDbLine
 62
7
  6
CONTINUOUS
 10
-137.9132117818
 20
11.9240330741
 11
-138.6874431706
 21
12.4661557288
  0
LWPOLYLINE
  5
2AB
100
AcDbEntity
  8
0
100
AcDbPolyline
 62
7
  6
CONTINUOUS
 90
10
 70
0
 43
0.3500000006
 10
-153.529204834
 20
53.2512984467
 10
-153.4577827148
 20
53.1084406128
 10
-153.4577827148
 20
53.0370139618
 10
-153.6006450806
 20
52.8941561279
 10
-153.6720671997
 20
52.8941561279
 10
-153.7435074463
 20
52.9655873108
 10
-153.7435074463
 20
53.0370139618
 10
-153.6720671997
 20
53.1798717957
 10
-153.6006450806
 20
53.2512984467
 10
-153.529204834
 20
53.2512984467
  0
LINE
  5
2AC
100
AcDbEntity
  8
RACCORDO
100
AcDbLine
 62
250
  6
CONTINUOUS
 10
-138.1315776345
 20
15.4219770199
 11
-140.2
 21
15.8805352185
  0
LINE
  5
2AD
100
AcDbEntity
  8
RACCORDO
100
AcDbLine
 62
7
  6
CONTINUOUS
 10
-138.091780193
 20
15.6172362214
 11
-140.2
 21
16.0846173002
  0
LWPOLYLINE
  5
2AE
100
AcDbEntity
  8
0
100
AcDbPolyline
 62
7
  6
CONTINUOUS
 90
10
 70
0
 43
0.3500000006
 10
-153.4508761597
 20
63.2500099182
 10
-153.3794359131
 20
63.1071566162
 10
-153.3794359131
 20
63.0357254333
 10
-153.5222982788
 20
62.8928721313
 10
-153.5937203979
 20
62.8928721313
 10
-153.6651606445
 20
62.9642942505
 10
-153.6651606445
 20
63.0357254333
 10
-153.5937203979
 20
63.1785787354
 10
-153.5222982788
 20
63.2500099182
 10
-153.4508761597
 20
63.2500099182
  0
LWPOLYLINE
  5
2AF
100
AcDbEntity
  8
0
100
AcDbPolyline
 62
7
  6
CONTINUOUS
 90
13
 70
0
 43
0.3500000006
 10
-152.0292134399
 20
54.4655877686
 10
-152.3149200439
 20
54.6798722534
 10
-152.3149200439
 20
55.3227302399
 10
-152.0292134399
 20
55.7513037415
 10
-151.3863599854
 20
55.7513037415
 10
-151.1006443176
 20
55.3227302399
 10
-151.1006443176
 20
54.6798722534
 10
-151.3863599854
 20
54.4655877686
 10
-150.9577819519
 20
54.037014267
 10
-150.9577819519
 20
53.1798717957
 10
-151.3863599854
 20
52.7512982941
 10
-152.0292134399
 20
52.7512982941
 10
-152.4577824097
 20
53.1798717957
  0
LINE
  5
2B0
100
AcDbEntity
  8
RACCORDO
100
AcDbLine
 62
250
  6
CONTINUOUS
 10
-140.2
 20
41.7215450143
 11
-140.3947646103
 21
41.7215450143
  0
LINE
  5
2B1
100
AcDbEntity
  8
0
100
AcDbLine
 62
250
  6
CONTINUOUS
 10
-148.0
 20
42.5
 11
-143.1
 21
42.5
  0
LINE
  5
2B2
100
AcDbEntity
  8
0
100
AcDbLine
 62
7
  6
CONTINUOUS
 10
-147.5
 20
44.0
 11
-143.1
 21
44.0
  0
LWPOLYLINE
  5
2B3
100
AcDbEntity
  8
0
100
AcDbPolyline
 62
7
  6
CONTINUOUS
 90
6
 70
0
 43
0.3500000006
 10
-152.3794356079
 20
62.7500097656
 10
-151.3080131836
 20
62.7500097656
 10
-151.0937286987
 20
62.9642942505
 10
-151.0937286987
 20
64.0357257385
 10
-151.5222976685
 20
64.4642947083
 10
-151.9508757019
 20
64.4642947083
  0
LINE
  5
2B4
100
AcDbEntity
  8
RACCORDO
100
AcDbLine
 62
250
  6
CONTINUOUS
 10
-143.1
 20
41.792384096
 11
-140.3947646103
 21
41.7215450143
  0
LINE
  5
2B5
100
AcDbEntity
  8
RACCORDO
100
AcDbLine
 62
7
  6
CONTINUOUS
 10
-143.1002055698
 20
42.4921496066
 11
-140.3947646103
 21
42.4213051418
  0
ARC
  5
2B6
100
AcDbEntity
  8
0
100
AcDbCircle
 62
7
  6
CONTINUOUS
 10
102.75
 20
-42.5
 40
1.5
100
AcDbArc
 50
270.0
 51
360.0
  0
ARC
  5
2B7
100
AcDbEntity
  8
0
100
AcDbCircle
 62
7
  6
CONTINUOUS
 10
102.75
 20
42.5
 40
1.5
100
AcDbArc
 50
0.0
 51
90.0
  0
ARC
  5
2B8
100
AcDbEntity
  8
0
100
AcDbCircle
 62
7
  6
CONTINUOUS
 10
-102.75
 20
42.5
 40
1.5
100
AcDbArc
 50
90.0
 51
180.0
  0
ARC
  5
2B9
100
AcDbEntity
  8
0
100
AcDbCircle
 62
7
  6
CONTINUOUS
 10
-102.75
 20
-42.5
 40
1.5
100
AcDbArc
 50
180.0
 51
270.0
  0
ARC
  5
2BA
100
AcDbEntity
  8
0
100
AcDbCircle
 62
250
  6
CONTINUOUS
 10
-102.75
 20
42.5
 40
1.0
100
AcDbArc
 50
90.0
 51
180.0
  0
ARC
  5
2BB
100
AcDbEntity
  8
0
100
AcDbCircle
 62
250
  6
CONTINUOUS
 10
102.75
 20
42.5
 40
1.0
100
AcDbArc
 50
0.0
 51
90.0
  0
ARC
  5
2BC
100
AcDbEntity
  8
0
100
AcDbCircle
 62
250
  6
CONTINUOUS
 10
102.75
 20
-42.5
 40
1.0
100
AcDbArc
 50
270.0
 51
360.0
  0
ARC
  5
2BD
100
AcDbEntity
  8
0
100
AcDbCircle
 62
250
  6
CONTINUOUS
 10
-102.75
 20
-42.5
 40
1.0
100
AcDbArc
 50
180.0
 51
270.0
  0
ARC
  5
2BE
100
AcDbEntity
  8
0
100
AcDbCircle
 62
250
  6
CONTINUOUS
 10
78.425
 20
-26.225
 40
0.9
100
AcDbArc
 50
270.0
 51
360.0
  0
ARC
  5
2BF
100
AcDbEntity
  8
0
100
AcDbCircle
 62
250
  6
CONTINUOUS
 10
78.425
 20
26.225
 40
0.9
100
AcDbArc
 50
0.0
 51
90.0
  0
ARC
  5
2C0
100
AcDbEntity
  8
0
100
AcDbCircle
 62
250
  6
CONTINUOUS
 10
-78.425
 20
26.225
 40
0.9
100
AcDbArc
 50
90.0
 51
180.0
  0
ARC
  5
2C1
100
AcDbEntity
  8
0
100
AcDbCircle
 62
250
  6
CONTINUOUS
 10
-78.425
 20
-26.225
 40
0.9
100
AcDbArc
 50
180.0
 51
270.0
  0
ARC
  5
2C2
100
AcDbEntity
  8
0
100
AcDbCircle
 62
7
  6
CONTINUOUS
 10
-78.425
 20
-26.225
 40
0.6
100
AcDbArc
 50
180.0
 51
270.0
  0
ARC
  5
2C3
100
AcDbEntity
  8
0
100
AcDbCircle
 62
7
  6
CONTINUOUS
 10
-78.425
 20
26.225
 40
0.6
100
AcDbArc
 50
90.0
 51
180.0
  0
ARC
  5
2C4
100
AcDbEntity
  8
0
100
AcDbCircle
 62
7
  6
CONTINUOUS
 10
78.425
 20
26.225
 40
0.6
100
AcDbArc
 50
0.0
 51
90.0
  0
ARC
  5
2C5
100
AcDbEntity
  8
0
100
AcDbCircle
 62
7
  6
CONTINUOUS
 10
78.425
 20
-26.225
 40
0.6
100
AcDbArc
 50
270.0
 51
360.0
  0
ARC
  5
2C6
100
AcDbEntity
  8
RACCORDO
100
AcDbCircle
 62
7
  6
CONTINUOUS
 10
79.575
 20
-13.15
 40
0.5912724675
100
AcDbArc
 50
158.4984934071
 51
201.5015065949
  0
ARC
  5
2C7
100
AcDbEntity
  8
RACCORDO
100
AcDbCircle
 62
7
  6
CONTINUOUS
 10
79.575
 20
13.15
 40
0.5912724675
100
AcDbArc
 50
158.4984934071
 51
201.5015065949
  0
ARC
  5
2C8
100
AcDbEntity
  8
RACCORDO
100
AcDbCircle
 62
7
  6
CONTINUOUS
 10
-79.575
 20
13.15
 40
0.5912724675
100
AcDbArc
 50
338.4984934071
 51
21.5015065949
  0
ARC
  5
2C9
100
AcDbEntity
  8
RACCORDO
100
AcDbCircle
 62
7
  6
CONTINUOUS
 10
-79.575
 20
-13.15
 40
0.5912724675
100
AcDbArc
 50
338.4984934071
 51
21.5015065949
  0
ARC
  5
2CA
100
AcDbEntity
  8
0
100
AcDbCircle
 62
7
  6
CONTINUOUS
 10
-147.5
 20
-43.5
 40
0.5
100
AcDbArc
 50
180.0
 51
270.0
  0
ARC
  5
2CB
100
AcDbEntity
  8
0
100
AcDbCircle
 62
7
  6
CONTINUOUS
 10
-147.5
 20
43.5
 40
0.5
100
AcDbArc
 50
90.0
 51
180.0
  0
ARC
  5
2CC
100
AcDbEntity
  8
RACCORDO
100
AcDbCircle
 62
7
  6
CONTINUOUS
 10
-140.4
 20
-42.2213736768
 40
0.2
100
AcDbArc
 50
271.5
 51
360.0
  0
ARC
  5
2CD
100
AcDbEntity
  8
RACCORDO
100
AcDbCircle
 62
7
  6
CONTINUOUS
 10
-139.2610196069
 20
-14.6529963155
 40
1.0
100
AcDbArc
 50
55.0
 51
89.5
  0
ARC
  5
2CE
100
AcDbEntity
  8
RACCORDO
100
AcDbCircle
 62
250
  6
CONTINUOUS
 10
-139.2575293404
 20
-14.6529969865
 40
0.8000006729
100
AcDbArc
 50
55.0000149644
 51
89.4999850356
  0
ARC
  5
2CF
100
AcDbEntity
  8
RACCORDO
100
AcDbCircle
 62
7
  6
CONTINUOUS
 10
-139.2610196069
 20
-11.6470036845
 40
1.0
100
AcDbArc
 50
270.5
 51
305.0
  0
ARC
  5
2D0
100
AcDbEntity
  8
RACCORDO
100
AcDbCircle
 62
250
  6
CONTINUOUS
 10
-139.2575293398
 20
-11.6470030155
 40
0.8000006709
100
AcDbArc
 50
270.5000149194
 51
304.9999850806
  0
ARC
  5
2D1
100
AcDbEntity
  8
RACCORDO
100
AcDbCircle
 62
7
  6
CONTINUOUS
 10
-138.2
 20
-14.785542948
 40
0.5
100
AcDbArc
 50
0.0
 51
55.0
  0
ARC
  5
2D2
100
AcDbEntity
  8
RACCORDO
100
AcDbCircle
 62
7
  6
CONTINUOUS
 10
-138.2
 20
-15.1290882178
 40
0.5
100
AcDbArc
 50
282.5
 51
360.0
  0
ARC
  5
2D3
100
AcDbEntity
  8
RACCORDO
100
AcDbCircle
 62
250
  6
CONTINUOUS
 10
-138.1965252585
 20
-14.7855511417
 40
0.3000157399
100
AcDbArc
 50
0.0015647832
 51
54.9984352168
  0
ARC
  5
2D4
100
AcDbEntity
  8
RACCORDO
100
AcDbCircle
 62
250
  6
CONTINUOUS
 10
-138.1965117849
 20
-15.129086399
 40
0.3000022662
100
AcDbArc
 50
282.5003473715
 51
359.9996526285
  0
ARC
  5
2D5
100
AcDbEntity
  8
RACCORDO
100
AcDbCircle
 62
7
  6
CONTINUOUS
 10
-138.2
 20
-11.514457052
 40
0.5
100
AcDbArc
 50
305.0
 51
360.0
  0
ARC
  5
2D6
100
AcDbEntity
  8
RACCORDO
100
AcDbCircle
 62
7
  6
CONTINUOUS
 10
-138.2
 20
-11.1709117822
 40
0.5
100
AcDbArc
 50
0.0
 51
77.5
  0
ARC
  5
2D7
100
AcDbEntity
  8
RACCORDO
100
AcDbCircle
 62
250
  6
CONTINUOUS
 10
-138.1965252468
 20
-11.5144488645
 40
0.3000157282
100
AcDbArc
 50
305.0015636168
 51
359.9984363832
  0
ARC
  5
2D8
100
AcDbEntity
  8
RACCORDO
100
AcDbCircle
 62
250
  6
CONTINUOUS
 10
-138.1965117843
 20
-11.1709136005
 40
0.3000022656
100
AcDbArc
 50
0.0003472711
 51
77.4996527289
  0
ARC
  5
2D9
100
AcDbEntity
  8
RACCORDO
100
AcDbCircle
 62
7
  6
CONTINUOUS
 10
-140.4
 20
42.2213736768
 40
0.2
100
AcDbArc
 50
0.0
 51
88.5
  0
ARC
  5
2DA
100
AcDbEntity
  8
RACCORDO
100
AcDbCircle
 62
7
  6
CONTINUOUS
 10
-139.2610196069
 20
11.6470036845
 40
1.0
100
AcDbArc
 50
55.0
 51
89.5
  0
ARC
  5
2DB
100
AcDbEntity
  8
RACCORDO
100
AcDbCircle
 62
250
  6
CONTINUOUS
 10
-139.2575293404
 20
11.6470030135
 40
0.8000006729
100
AcDbArc
 50
55.0000149644
 51
89.4999850356
  0
ARC
  5
2DC
100
AcDbEntity
  8
RACCORDO
100
AcDbCircle
 62
7
  6
CONTINUOUS
 10
-139.2610196069
 20
14.6529963155
 40
1.0
100
AcDbArc
 50
270.5
 51
305.0
  0
ARC
  5
2DD
100
AcDbEntity
  8
RACCORDO
100
AcDbCircle
 62
250
  6
CONTINUOUS
 10
-139.2575293398
 20
14.6529969845
 40
0.8000006709
100
AcDbArc
 50
270.5000149194
 51
304.9999850806
  0
ARC
  5
2DE
100
AcDbEntity
  8
RACCORDO
100
AcDbCircle
 62
7
  6
CONTINUOUS
 10
-138.2
 20
11.1709117822
 40
0.5
100
AcDbArc
 50
282.5
 51
360.0
  0
ARC
  5
2DF
100
AcDbEntity
  8
RACCORDO
100
AcDbCircle
 62
7
  6
CONTINUOUS
 10
-138.2
 20
11.514457052
 40
0.5
100
AcDbArc
 50
0.0
 51
55.0
  0
ARC
  5
2E0
100
AcDbEntity
  8
RACCORDO
100
AcDbCircle
 62
250
  6
CONTINUOUS
 10
-138.1965252585
 20
11.5144488583
 40
0.3000157399
100
AcDbArc
 50
0.0015647832
 51
54.9984352168
  0
ARC
  5
2E1
100
AcDbEntity
  8
RACCORDO
100
AcDbCircle
 62
250
  6
CONTINUOUS
 10
-138.1965117849
 20
11.170913601
 40
0.3000022662
100
AcDbArc
 50
282.5003473715
 51
359.9996526285
  0
ARC
  5
2E2
100
AcDbEntity
  8
RACCORDO
100
AcDbCircle
 62
7
  6
CONTINUOUS
 10
-138.2
 20
14.785542948
 40
0.5
100
AcDbArc
 50
305.0
 51
360.0
  0
ARC
  5
2E3
100
AcDbEntity
  8
RACCORDO
100
AcDbCircle
 62
7
  6
CONTINUOUS
 10
-138.2
 20
15.1290882178
 40
0.5
100
AcDbArc
 50
0.0
 51
77.5
  0
ARC
  5
2E4
100
AcDbEntity
  8
RACCORDO
100
AcDbCircle
 62
250
  6
CONTINUOUS
 10
-138.1965252468
 20
14.7855511355
 40
0.3000157282
100
AcDbArc
 50
305.0015636168
 51
359.9984363832
  0
ARC
  5
2E5
100
AcDbEntity
  8
RACCORDO
100
AcDbCircle
 62
250
  6
CONTINUOUS
 10
-138.1965117843
 20
15.1290863995
 40
0.3000022656
100
AcDbArc
 50
0.0003472711
 51
77.4996527289
  0
SPLINE
  5
2E6
100
AcDbEntity
  8
RACCORDO
100
AcDbSpline
 62
250
  6
CONTINUOUS
 70
0
 71
3
 72
23
 73
19
 74
0
 42
0.0000001
 43
0.0000001
 44
0.0000000001
 40
0.0
 40
0.0
 40
0.0
 40
0.0
 40
0.1950581818
 40
0.3826149662
 40
0.5554728295
 40
0.6342820783
 40
0.7069861094
 40
0.7728779371
 40
0.8313337563
 40
0.8817801909
 40
0.9237442151
 40
0.956809847
 40
0.9699097178
 40
0.9806739869
 40
0.9890735154
 40
0.9950953822
 40
0.9987320279
 40
1.0
 40
1.0
 40
1.0
 40
1.0
 10
-140.3947646103
 20
-41.7215450143
 30
0.0
 10
-140.3944240879
 20
-41.7670462961
 30
0.0
 10
-140.3938223743
 20
-41.8562995156
 30
0.0
 10
-140.3931413689
 20
-41.9858767238
 30
0.0
 10
-140.3927747911
 20
-42.0883368817
 30
0.0
 10
-140.3926254321
 20
-42.1640050561
 30
0.0
 10
-140.3925869461
 20
-42.2147205476
 30
0.0
 10
-140.3926183873
 20
-42.2606884235
 30
0.0
 10
-140.3927195091
 20
-42.3014628802
 30
0.0
 10
-140.392886119
 20
-42.3366586903
 30
0.0
 10
-140.3931225454
 20
-42.3659212528
 30
0.0
 10
-140.3933716329
 20
-42.3864951809
 30
0.0
 10
-140.3936376974
 20
-42.3997473194
 30
0.0
 10
-140.3937980511
 20
-42.4073261757
 30
0.0
 10
-140.3940696328
 20
-42.4130560537
 30
0.0
 10
-140.3941119398
 20
-42.4175869063
 30
0.0
 10
-140.3946025048
 20
-42.4195556145
 30
0.0
 10
-140.3944689411
 20
-42.4212967436
 30
0.0
 10
-140.3947646103
 20
-42.4213051418
 30
0.0
  0
SPLINE
  5
2E7
100
AcDbEntity
  8
RACCORDO
100
AcDbSpline
 62
250
  6
CONTINUOUS
 70
0
 71
3
 72
23
 73
19
 74
0
 42
0.0000001
 43
0.0000001
 44
0.0000000001
 40
0.0
 40
0.0
 40
0.0
 40
0.0
 40
0.0012674663
 40
0.0049029923
 40
0.0109234493
 40
0.0193215943
 40
0.0300835859
 40
0.0431797049
 40
0.0762390797
 40
0.1181976466
 40
0.1686392971
 40
0.2270920179
 40
0.292980533
 40
0.3656816022
 40
0.4444882433
 40
0.6173425144
 40
0.8049200616
 40
1.0
 40
1.0
 40
1.0
 40
1.0
 10
-140.3947646103
 20
42.4213051418
 30
0.0
 10
-140.3944690565
 20
42.4212968352
 30
0.0
 10
-140.3946024014
 20
42.4195561354
 30
0.0
 10
-140.3941120512
 20
42.4175881337
 30
0.0
 10
-140.3940696662
 20
42.4130581662
 30
0.0
 10
-140.3937981571
 20
42.4073294913
 30
0.0
 10
-140.3936378001
 20
42.399752359
 30
0.0
 10
-140.3933717172
 20
42.3865030889
 30
0.0
 10
-140.3931226609
 20
42.3659327659
 30
0.0
 10
-140.3928862206
 20
42.3366740534
 30
0.0
 10
-140.3927195755
 20
42.3014813541
 30
0.0
 10
-140.39261842
 20
42.2607095086
 30
0.0
 10
-140.3925869434
 20
42.2147438184
 30
0.0
 10
-140.3926253994
 20
42.1640303982
 30
0.0
 10
-140.3927747015
 20
42.0883643596
 30
0.0
 10
-140.3931412796
 20
41.9859008028
 30
0.0
 10
-140.3938222816
 20
41.8563145116
 30
0.0
 10
-140.3944240046
 20
41.7670513717
 30
0.0
 10
-140.3947646103
 20
41.7215450143
 30
0.0
  0
SPLINE
  5
2E8
100
AcDbEntity
  8
RACCORDO
100
AcDbSpline
 62
250
  6
CONTINUOUS
 70
0
 71
3
 72
18
 73
14
 74
0
 42
0.0000001
 43
0.0000001
 44
0.0000000001
 40
0.0
 40
0.0
 40
0.0
 40
0.0
 40
0.1950165673
 40
0.3827979726
 40
0.5555604689
 40
0.7069260688
 40
0.831196592
 40
0.8815844225
 40
0.9235177397
 40
0.956575058
 40
0.9804171194
 40
0.9948932328
 40
1.0
 40
1.0
 40
1.0
 40
1.0
 10
-138.1315776345
 20
-15.4219770199
 30
0.0
 10
-138.1287735322
 20
-15.4346293674
 30
0.0
 10
-138.1233103176
 20
-15.459473931
 30
0.0
 10
-138.1155043833
 20
-15.4955570281
 30
0.0
 10
-138.1084372256
 20
-15.5288350256
 30
0.0
 10
-138.1023903688
 20
-15.5580051974
 30
0.0
 10
-138.0981100187
 20
-15.5792610769
 30
0.0
 10
-138.095406281
 20
-15.5933703604
 30
0.0
 10
-138.0938529448
 20
-15.6016159205
 30
0.0
 10
-138.0928253883
 20
-15.6079477111
 30
0.0
 10
-138.0918689968
 20
-15.6129532244
 30
0.0
 10
-138.0919267675
 20
-15.6152500434
 30
0.0
 10
-138.0914488793
 20
-15.6171627709
 30
0.0
 10
-138.091780193
 20
-15.6172362214
 30
0.0
  0
SPLINE
  5
2E9
100
AcDbEntity
  8
RACCORDO
100
AcDbSpline
 62
250
  6
CONTINUOUS
 70
0
 71
3
 72
18
 73
14
 74
0
 42
0.0000001
 43
0.0000001
 44
0.0000000001
 40
0.0
 40
0.0
 40
0.0
 40
0.0
 40
0.1953793097
 40
0.3833278099
 40
0.5561143736
 40
0.7074103727
 40
0.8315641237
 40
0.8818889145
 40
0.9237611212
 40
0.9567621701
 40
0.9805538195
 40
0.9949807162
 40
1.0
 40
1.0
 40
1.0
 40
1.0
 10
-138.0244365878
 20
-14.5397973348
 30
0.0
 10
-138.0170388955
 20
-14.5292291163
 30
0.0
 10
-138.0025533238
 20
-14.5084744617
 30
0.0
 10
-137.9816249267
 20
-14.4783055378
 30
0.0
 10
-137.9624417665
 20
-14.4504646776
 30
0.0
 10
-137.9457548617
 20
-14.4260311245
 30
0.0
 10
-137.9336957922
 20
-14.4081980699
 30
0.0
 10
-137.9258087607
 20
-14.3963218088
 30
0.0
 10
-137.9212093605
 20
-14.3893797014
 30
0.0
 10
-137.9178422252
 20
-14.3839894259
 30
0.0
 10
-137.9149872013
 20
-14.3797997477
 30
0.0
 10
-137.9142033925
 20
-14.3776871526
 30
0.0
 10
-137.9129403121
 20
-14.3761570111
 30
0.0
 10
-137.9132117818
 20
-14.3759669259
 30
0.0
  0
SPLINE
  5
2EA
100
AcDbEntity
  8
RACCORDO
100
AcDbSpline
 62
250
  6
CONTINUOUS
 70
0
 71
3
 72
18
 73
14
 74
0
 42
0.0000001
 43
0.0000001
 44
0.0000000001
 40
0.0
 40
0.0
 40
0.0
 40
0.0
 40
0.1953793021
 40
0.3833277868
 40
0.556114348
 40
0.707410352
 40
0.8315641084
 40
0.8818889028
 40
0.9237611138
 40
0.9567621651
 40
0.9805538165
 40
0.9949807152
 40
1.0
 40
1.0
 40
1.0
 40
1.0
 10
-138.7986679766
 20
-13.99767468
 30
0.0
 10
-138.7912702845
 20
-13.987106462
 30
0.0
 10
-138.7767847136
 20
-13.9663518087
 30
0.0
 10
-138.7558563174
 20
-13.9361828863
 30
0.0
 10
-138.7366731575
 20
-13.9083420268
 30
0.0
 10
-138.7199862524
 20
-13.8839084734
 30
0.0
 10
-138.7079271824
 20
-13.8660754179
 30
0.0
 10
-138.7000401504
 20
-13.8541991561
 30
0.0
 10
-138.6954407498
 20
-13.8472570482
 30
0.0
 10
-138.6920736143
 20
-13.8418667722
 30
0.0
 10
-138.6892185902
 20
-13.8376770935
 30
0.0
 10
-138.6884347813
 20
-13.8355644982
 30
0.0
 10
-138.6871717008
 20
-13.8340343564
 30
0.0
 10
-138.6874431706
 20
-13.8338442712
 30
0.0
  0
SPLINE
  5
2EB
100
AcDbEntity
  8
RACCORDO
100
AcDbSpline
 62
250
  6
CONTINUOUS
 70
0
 71
3
 72
18
 73
14
 74
0
 42
0.0000001
 43
0.0000001
 44
0.0000000001
 40
0.0
 40
0.0
 40
0.0
 40
0.0
 40
0.1948185207
 40
0.3825152432
 40
0.5552748954
 40
0.7066898868
 40
0.831033968
 40
0.881459599
 40
0.92342814
 40
0.9565159448
 40
0.9803821942
 40
0.994876209
 40
1.0
 40
1.0
 40
1.0
 40
1.0
 10
-139.2505478972
 20
-13.853026777
 30
0.0
 10
-139.2504345424
 20
-13.8400336434
 30
0.0
 10
-139.2502552282
 20
-13.8145217846
 30
0.0
 10
-139.2501240703
 20
-13.7774880109
 30
0.0
 10
-139.2501357986
 20
-13.7433457828
 30
0.0
 10
-139.2502945468
 20
-13.713438668
 30
0.0
 10
-139.2505372794
 20
-13.6916673864
 30
0.0
 10
-139.2508356028
 20
-13.6772418785
 30
0.0
 10
-139.2510386017
 20
-13.6688164406
 30
0.0
 10
-139.2513557394
 20
-13.662379208
 30
0.0
 10
-139.2514730241
 20
-13.6572631769
 30
0.0
 10
-139.2520070033
 20
-13.6550134921
 30
0.0
 10
-139.2519513478
 20
-13.6530373746
 30
0.0
 10
-139.2522930714
 20
-13.6530343924
 30
0.0
  0
SPLINE
  5
2EC
100
AcDbEntity
  8
RACCORDO
100
AcDbSpline
 62
250
  6
CONTINUOUS
 70
0
 71
3
 72
18
 73
14
 74
0
 42
0.0000001
 43
0.0000001
 44
0.0000000001
 40
0.0
 40
0.0
 40
0.0
 40
0.0
 40
0.1948185131
 40
0.38251522
 40
0.5552748696
 40
0.7066898662
 40
0.8310339529
 40
0.8814595876
 40
0.9234281329
 40
0.9565159402
 40
0.9803821915
 40
0.9948762083
 40
1.0
 40
1.0
 40
1.0
 40
1.0
 10
-139.2505478972
 20
-12.446973223
 30
0.0
 10
-139.2504345424
 20
-12.4599663561
 30
0.0
 10
-139.2502552283
 20
-12.4854782134
 30
0.0
 10
-139.2501240705
 20
-12.5225119853
 30
0.0
 10
-139.2501357988
 20
-12.5566542126
 30
0.0
 10
-139.250294547
 20
-12.5865613279
 30
0.0
 10
-139.2505372796
 20
-12.6083326104
 30
0.0
 10
-139.250835603
 20
-12.6227581192
 30
0.0
 10
-139.2510386019
 20
-12.6311835578
 30
0.0
 10
-139.2513557397
 20
-12.637620791
 30
0.0
 10
-139.2514730242
 20
-12.6427368226
 30
0.0
 10
-139.2520070036
 20
-12.6449865076
 30
0.0
 10
-139.2519513477
 20
-12.6469626254
 30
0.0
 10
-139.2522930715
 20
-12.6469656076
 30
0.0
  0
SPLINE
  5
2ED
100
AcDbEntity
  8
RACCORDO
100
AcDbSpline
 62
250
  6
CONTINUOUS
 70
0
 71
3
 72
18
 73
14
 74
0
 42
0.0000001
 43
0.0000001
 44
0.0000000001
 40
0.0
 40
0.0
 40
0.0
 40
0.0
 40
0.1953793097
 40
0.3833278099
 40
0.5561143736
 40
0.7074103727
 40
0.8315641237
 40
0.8818889145
 40
0.9237611212
 40
0.9567621701
 40
0.9805538195
 40
0.9949807162
 40
1.0
 40
1.0
 40
1.0
 40
1.0
 10
-138.7986679766
 20
-12.30232532
 30
0.0
 10
-138.7912702842
 20
-12.3128935385
 30
0.0
 10
-138.7767847126
 20
-12.3336481931
 30
0.0
 10
-138.7558563155
 20
-12.3638171169
 30
0.0
 10
-138.7366731552
 20
-12.3916579771
 30
0.0
 10
-138.7199862505
 20
-12.4160915302
 30
0.0
 10
-138.707927181
 20
-12.4339245849
 30
0.0
 10
-138.7000401495
 20
-12.4458008459
 30
0.0
 10
-138.6954407492
 20
-12.4527429533
 30
0.0
 10
-138.692073614
 20
-12.4581332288
 30
0.0
 10
-138.6892185901
 20
-12.462322907
 30
0.0
 10
-138.6884347813
 20
-12.4644355021
 30
0.0
 10
-138.6871717008
 20
-12.4659656437
 30
0.0
 10
-138.6874431706
 20
-12.4661557288
 30
0.0
  0
SPLINE
  5
2EE
100
AcDbEntity
  8
RACCORDO
100
AcDbSpline
 62
250
  6
CONTINUOUS
 70
0
 71
3
 72
18
 73
14
 74
0
 42
0.0000001
 43
0.0000001
 44
0.0000000001
 40
0.0
 40
0.0
 40
0.0
 40
0.0
 40
0.1953792995
 40
0.3833277775
 40
0.5561143378
 40
0.7074103448
 40
0.8315641041
 40
0.8818889004
 40
0.9237611137
 40
0.9567621662
 40
0.9805538183
 40
0.9949807173
 40
1.0
 40
1.0
 40
1.0
 40
1.0
 10
-138.0244365878
 20
-11.7602026652
 30
0.0
 10
-138.0170388971
 20
-11.7707708839
 30
0.0
 10
-138.0025533287
 20
-11.7915255381
 30
0.0
 10
-137.9816249353
 20
-11.8216944615
 30
0.0
 10
-137.9624417771
 20
-11.8495353215
 30
0.0
 10
-137.9457548725
 20
-11.8739688755
 30
0.0
 10
-137.9336958018
 20
-11.891801931
 30
0.0
 10
-137.9258087687
 20
-11.9036781925
 30
0.0
 10
-137.9212093668
 20
-11.9106203001
 30
0.0
 10
-137.9178422307
 20
-11.9160105758
 30
0.0
 10
-137.9149872039
 20
-11.9202002535
 30
0.0
 10
-137.9142033965
 20
-11.9223128487
 30
0.0
 10
-137.9129403121
 20
-11.923842989
 30
0.0
 10
-137.9132117818
 20
-11.9240330741
 30
0.0
  0
SPLINE
  5
2EF
100
AcDbEntity
  8
RACCORDO
100
AcDbSpline
 62
250
  6
CONTINUOUS
 70
0
 71
3
 72
18
 73
14
 74
0
 42
0.0000001
 43
0.0000001
 44
0.0000000001
 40
0.0
 40
0.0
 40
0.0
 40
0.0
 40
0.1950165759
 40
0.3827979998
 40
0.5555604988
 40
0.706926092
 40
0.8311966082
 40
0.881584434
 40
0.9235177455
 40
0.9565750608
 40
0.98041712
 40
0.9948932316
 40
1.0
 40
1.0
 40
1.0
 40
1.0
 10
-138.1315776345
 20
-10.8780229801
 30
0.0
 10
-138.1287735309
 20
-10.8653706322
 30
0.0
 10
-138.1233103139
 20
-10.8405260672
 30
0.0
 10
-138.115504377
 20
-10.8044429685
 30
0.0
 10
-138.1084372177
 20
-10.7711649702
 30
0.0
 10
-138.1023903606
 20
-10.7419947991
 30
0.0
 10
-138.0981100111
 20
-10.7207389206
 30
0.0
 10
-138.0954062745
 20
-10.706629638
 30
0.0
 10
-138.0938529396
 20
-10.6983840786
 30
0.0
 10
-138.0928253836
 20
-10.6920522884
 30
0.0
 10
-138.0918689945
 20
-10.6870467757
 30
0.0
 10
-138.0919267641
 20
-10.6847499562
 30
0.0
 10
-138.0914488792
 20
-10.6828372291
 30
0.0
 10
-138.091780193
 20
-10.6827637786
 30
0.0
  0
SPLINE
  5
2F0
100
AcDbEntity
  8
RACCORDO
100
AcDbSpline
 62
250
  6
CONTINUOUS
 70
0
 71
3
 72
18
 73
14
 74
0
 42
0.0000001
 43
0.0000001
 44
0.0000000001
 40
0.0
 40
0.0
 40
0.0
 40
0.0
 40
0.1950165673
 40
0.3827979726
 40
0.5555604689
 40
0.7069260688
 40
0.831196592
 40
0.8815844225
 40
0.9235177397
 40
0.956575058
 40
0.9804171194
 40
0.9948932328
 40
1.0
 40
1.0
 40
1.0
 40
1.0
 10
-138.1315776345
 20
10.8780229801
 30
0.0
 10
-138.1287735322
 20
10.8653706326
 30
0.0
 10
-138.1233103176
 20
10.840526069
 30
0.0
 10
-138.1155043833
 20
10.8044429719
 30
0.0
 10
-138.1084372256
 20
10.7711649744
 30
0.0
 10
-138.1023903688
 20
10.7419948026
 30
0.0
 10
-138.0981100187
 20
10.7207389231
 30
0.0
 10
-138.095406281
 20
10.7066296396
 30
0.0
 10
-138.0938529448
 20
10.6983840795
 30
0.0
 10
-138.0928253883
 20
10.6920522889
 30
0.0
 10
-138.0918689968
 20
10.6870467756
 30
0.0
 10
-138.0919267675
 20
10.6847499566
 30
0.0
 10
-138.0914488793
 20
10.6828372291
 30
0.0
 10
-138.091780193
 20
10.6827637786
 30
0.0
  0
SPLINE
  5
2F1
100
AcDbEntity
  8
RACCORDO
100
AcDbSpline
 62
250
  6
CONTINUOUS
 70
0
 71
3
 72
18
 73
14
 74
0
 42
0.0000001
 43
0.0000001
 44
0.0000000001
 40
0.0
 40
0.0
 40
0.0
 40
0.0
 40
0.1953793097
 40
0.3833278099
 40
0.5561143736
 40
0.7074103727
 40
0.8315641237
 40
0.8818889145
 40
0.9237611212
 40
0.9567621701
 40
0.9805538195
 40
0.9949807162
 40
1.0
 40
1.0
 40
1.0
 40
1.0
 10
-138.0244365878
 20
11.7602026652
 30
0.0
 10
-138.0170388955
 20
11.7707708837
 30
0.0
 10
-138.0025533238
 20
11.7915255383
 30
0.0
 10
-137.9816249267
 20
11.8216944622
 30
0.0
 10
-137.9624417665
 20
11.8495353224
 30
0.0
 10
-137.9457548617
 20
11.8739688755
 30
0.0
 10
-137.9336957922
 20
11.8918019301
 30
0.0
 10
-137.9258087607
 20
11.9036781912
 30
0.0
 10
-137.9212093605
 20
11.9106202986
 30
0.0
 10
-137.9178422252
 20
11.9160105741
 30
0.0
 10
-137.9149872013
 20
11.9202002523
 30
0.0
 10
-137.9142033925
 20
11.9223128474
 30
0.0
 10
-137.9129403121
 20
11.9238429889
 30
0.0
 10
-137.9132117818
 20
11.9240330741
 30
0.0
  0
SPLINE
  5
2F2
100
AcDbEntity
  8
RACCORDO
100
AcDbSpline
 62
250
  6
CONTINUOUS
 70
0
 71
3
 72
18
 73
14
 74
0
 42
0.0000001
 43
0.0000001
 44
0.0000000001
 40
0.0
 40
0.0
 40
0.0
 40
0.0
 40
0.1953793021
 40
0.3833277868
 40
0.556114348
 40
0.707410352
 40
0.8315641084
 40
0.8818889028
 40
0.9237611138
 40
0.9567621651
 40
0.9805538165
 40
0.9949807152
 40
1.0
 40
1.0
 40
1.0
 40
1.0
 10
-138.7986679766
 20
12.30232532
 30
0.0
 10
-138.7912702845
 20
12.312893538
 30
0.0
 10
-138.7767847136
 20
12.3336481913
 30
0.0
 10
-138.7558563174
 20
12.3638171137
 30
0.0
 10
-138.7366731575
 20
12.3916579732
 30
0.0
 10
-138.7199862524
 20
12.4160915266
 30
0.0
 10
-138.7079271824
 20
12.4339245821
 30
0.0
 10
-138.7000401504
 20
12.4458008439
 30
0.0
 10
-138.6954407498
 20
12.4527429518
 30
0.0
 10
-138.6920736143
 20
12.4581332278
 30
0.0
 10
-138.6892185902
 20
12.4623229065
 30
0.0
 10
-138.6884347813
 20
12.4644355018
 30
0.0
 10
-138.6871717008
 20
12.4659656436
 30
0.0
 10
-138.6874431706
 20
12.4661557288
 30
0.0
  0
SPLINE
  5
2F3
100
AcDbEntity
  8
RACCORDO
100
AcDbSpline
 62
250
  6
CONTINUOUS
 70
0
 71
3
 72
18
 73
14
 74
0
 42
0.0000001
 43
0.0000001
 44
0.0000000001
 40
0.0
 40
0.0
 40
0.0
 40
0.0
 40
0.1948185207
 40
0.3825152432
 40
0.5552748954
 40
0.7066898868
 40
0.831033968
 40
0.881459599
 40
0.92342814
 40
0.9565159448
 40
0.9803821942
 40
0.994876209
 40
1.0
 40
1.0
 40
1.0
 40
1.0
 10
-139.2505478972
 20
12.446973223
 30
0.0
 10
-139.2504345424
 20
12.4599663566
 30
0.0
 10
-139.2502552282
 20
12.4854782154
 30
0.0
 10
-139.2501240703
 20
12.5225119891
 30
0.0
 10
-139.2501357986
 20
12.5566542172
 30
0.0
 10
-139.2502945468
 20
12.586561332
 30
0.0
 10
-139.2505372794
 20
12.6083326136
 30
0.0
 10
-139.2508356028
 20
12.6227581215
 30
0.0
 10
-139.2510386017
 20
12.6311835594
 30
0.0
 10
-139.2513557394
 20
12.637620792
 30
0.0
 10
-139.2514730241
 20
12.6427368231
 30
0.0
 10
-139.2520070033
 20
12.6449865079
 30
0.0
 10
-139.2519513478
 20
12.6469626254
 30
0.0
 10
-139.2522930714
 20
12.6469656076
 30
0.0
  0
SPLINE
  5
2F4
100
AcDbEntity
  8
RACCORDO
100
AcDbSpline
 62
250
  6
CONTINUOUS
 70
0
 71
3
 72
18
 73
14
 74
0
 42
0.0000001
 43
0.0000001
 44
0.0000000001
 40
0.0
 40
0.0
 40
0.0
 40
0.0
 40
0.1948185131
 40
0.38251522
 40
0.5552748696
 40
0.7066898662
 40
0.8310339529
 40
0.8814595876
 40
0.9234281329
 40
0.9565159402
 40
0.9803821915
 40
0.9948762083
 40
1.0
 40
1.0
 40
1.0
 40
1.0
 10
-139.2505478972
 20
13.853026777
 30
0.0
 10
-139.2504345424
 20
13.8400336439
 30
0.0
 10
-139.2502552283
 20
13.8145217866
 30
0.0
 10
-139.2501240705
 20
13.7774880147
 30
0.0
 10
-139.2501357988
 20
13.7433457874
 30
0.0
 10
-139.250294547
 20
13.7134386721
 30
0.0
 10
-139.2505372796
 20
13.6916673896
 30
0.0
 10
-139.250835603
 20
13.6772418808
 30
0.0
 10
-139.2510386019
 20
13.6688164422
 30
0.0
 10
-139.2513557397
 20
13.662379209
 30
0.0
 10
-139.2514730242
 20
13.6572631774
 30
0.0
 10
-139.2520070036
 20
13.6550134924
 30
0.0
 10
-139.2519513477
 20
13.6530373746
 30
0.0
 10
-139.2522930715
 20
13.6530343924
 30
0.0
  0
SPLINE
  5
2F5
100
AcDbEntity
  8
RACCORDO
100
AcDbSpline
 62
250
  6
CONTINUOUS
 70
0
 71
3
 72
18
 73
14
 74
0
 42
0.0000001
 43
0.0000001
 44
0.0000000001
 40
0.0
 40
0.0
 40
0.0
 40
0.0
 40
0.1953793097
 40
0.3833278099
 40
0.5561143736
 40
0.7074103727
 40
0.8315641237
 40
0.8818889145
 40
0.9237611212
 40
0.9567621701
 40
0.9805538195
 40
0.9949807162
 40
1.0
 40
1.0
 40
1.0
 40
1.0
 10
-138.7986679766
 20
13.99767468
 30
0.0
 10
-138.7912702842
 20
13.9871064615
 30
0.0
 10
-138.7767847126
 20
13.9663518069
 30
0.0
 10
-138.7558563155
 20
13.9361828831
 30
0.0
 10
-138.7366731552
 20
13.9083420229
 30
0.0
 10
-138.7199862505
 20
13.8839084698
 30
0.0
 10
-138.707927181
 20
13.8660754151
 30
0.0
 10
-138.7000401495
 20
13.8541991541
 30
0.0
 10
-138.6954407492
 20
13.8472570467
 30
0.0
 10
-138.692073614
 20
13.8418667712
 30
0.0
 10
-138.6892185901
 20
13.837677093
 30
0.0
 10
-138.6884347813
 20
13.8355644979
 30
0.0
 10
-138.6871717008
 20
13.8340343563
 30
0.0
 10
-138.6874431706
 20
13.8338442712
 30
0.0
  0
SPLINE
  5
2F6
100
AcDbEntity
  8
RACCORDO
100
AcDbSpline
 62
250
  6
CONTINUOUS
 70
0
 71
3
 72
18
 73
14
 74
0
 42
0.0000001
 43
0.0000001
 44
0.0000000001
 40
0.0
 40
0.0
 40
0.0
 40
0.0
 40
0.1953792995
 40
0.3833277775
 40
0.5561143378
 40
0.7074103448
 40
0.8315641041
 40
0.8818889004
 40
0.9237611137
 40
0.9567621662
 40
0.9805538183
 40
0.9949807173
 40
1.0
 40
1.0
 40
1.0
 40
1.0
 10
-138.0244365878
 20
14.5397973348
 30
0.0
 10
-138.0170388971
 20
14.5292291161
 30
0.0
 10
-138.0025533287
 20
14.5084744619
 30
0.0
 10
-137.9816249353
 20
14.4783055385
 30
0.0
 10
-137.9624417771
 20
14.4504646785
 30
0.0
 10
-137.9457548725
 20
14.4260311245
 30
0.0
 10
-137.9336958018
 20
14.408198069
 30
0.0
 10
-137.9258087687
 20
14.3963218075
 30
0.0
 10
-137.9212093668
 20
14.3893796999
 30
0.0
 10
-137.9178422307
 20
14.3839894242
 30
0.0
 10
-137.9149872039
 20
14.3797997465
 30
0.0
 10
-137.9142033965
 20
14.3776871513
 30
0.0
 10
-137.9129403121
 20
14.376157011
 30
0.0
 10
-137.9132117818
 20
14.3759669259
 30
0.0
  0
SPLINE
  5
2F7
100
AcDbEntity
  8
RACCORDO
100
AcDbSpline
 62
250
  6
CONTINUOUS
 70
0
 71
3
 72
18
 73
14
 74
0
 42
0.0000001
 43
0.0000001
 44
0.0000000001
 40
0.0
 40
0.0
 40
0.0
 40
0.0
 40
0.1950165759
 40
0.3827979998
 40
0.5555604988
 40
0.706926092
 40
0.8311966082
 40
0.881584434
 40
0.9235177455
 40
0.9565750608
 40
0.98041712
 40
0.9948932316
 40
1.0
 40
1.0
 40
1.0
 40
1.0
 10
-138.1315776345
 20
15.4219770199
 30
0.0
 10
-138.1287735309
 20
15.4346293678
 30
0.0
 10
-138.1233103139
 20
15.4594739328
 30
0.0
 10
-138.115504377
 20
15.4955570315
 30
0.0
 10
-138.1084372177
 20
15.5288350298
 30
0.0
 10
-138.1023903606
 20
15.5580052009
 30
0.0
 10
-138.0981100111
 20
15.5792610794
 30
0.0
 10
-138.0954062745
 20
15.593370362
 30
0.0
 10
-138.0938529396
 20
15.6016159214
 30
0.0
 10
-138.0928253836
 20
15.6079477116
 30
0.0
 10
-138.0918689945
 20
15.6129532243
 30
0.0
 10
-138.0919267641
 20
15.6152500438
 30
0.0
 10
-138.0914488792
 20
15.6171627709
 30
0.0
 10
-138.091780193
 20
15.6172362214
 30
0.0
  0
ENDSEC
  0
SECTION
  2
OBJECTS
  0
DICTIONARY
  5
C
100
AcDbDictionary
280
0
281
1
  3
ACAD_GROUP
350
D
  3
ACAD_MLINESTYLE
350
17
  3
ACAD_LAYOUT
350
1A
  3
ACAD_PLOTSETTINGS
350
19
  3
ACAD_PLOTSTYLENAME
350
E
  0
DICTIONARY
  5
D
102
{ACAD_REACTORS
330
C
102
}
100
AcDbDictionary
280
0
281
1
  0
ACDBDICTIONARYWDFLT
  5
E
102
{ACAD_REACTORS
330
C
102
}
100
AcDbDictionary
281
1
  3
Normal
350
F
100
AcDbDictionaryWithDefault
340
F
  0
DICTIONARY
  5
17
102
{ACAD_REACTORS
330
C
102
}
100
AcDbDictionary
280
0
281
1
  3
Standard
350
18
  0
DICTIONARY
  5
19
102
{ACAD_REACTORS
330
C
102
}
100
AcDbDictionary
281
1
  0
DICTIONARY
  5
1A
102
{ACAD_REACTORS
330
C
102
}
100
AcDbDictionary
281
1
  3
Model
350
2F8
  3
Layout1
350
2F9
  0
ACDBPLACEHOLDER
  5
F
102
{ACAD_REACTORS
330
E
102
}
  0
MLINESTYLE
  5
18
102
{ACAD_REACTORS
330
17
102
}
100
AcDbMlineStyle
  2
STANDARD
 70
0
  3

 62
256
 51
90.0
 52
90.0
 71
2
 49
0.5
 62
256
  6
BYLAYER
 49
-0.5
 62
256
  6
BYLAYER
  0
LAYOUT
  5
2F8
102
{ACAD_REACTORS
330
1A
102
}
100
AcDbPlotSettings
  1

  2
none_device
  4
ISO_A4_(297.00_x_210.00_MM)
  6

 40
0.0
 41
0.0
 42
0.0
 43
0.0
 44
297.0
 45
210.0
 46
0.0
 47
0.0
 48
0.0
 49
0.0
140
0.0
141
0.0
142
1.0
143
1.0
 70
1024
 72
1
 73
0
 74
0
  7

 75
0
147
1.0
148
0.0
149
0.0
100
AcDbLayout
  1
Model
 70
0
 71
0
 10
0.0
 20
0.0
 11
297.0
 21
210.0
 12
0.0
 22
0.0
 32
0.0
 14
0.0
 24
0.0
 34
0.0
 15
0.0
 25
0.0
 35
0.0
146
0.0
 13
0.0
 23
0.0
 33
0.0
 16
1.0
 26
0.0
 36
0.0
 17
0.0
 27
1.0
 37
0.0
 76
0
330
213
345
0
346
0
  0
LAYOUT
  5
2F9
102
{ACAD_REACTORS
330
1A
102
}
100
AcDbPlotSettings
  1

  2
none_device
  4
ISO_A4_(297.00_x_210.00_MM)
  6

 40
0.0
 41
0.0
 42
0.0
 43
0.0
 44
297.0
 45
210.0
 46
0.0
 47
0.0
 48
0.0
 49
0.0
140
0.0
141
0.0
142
1.0
143
1.0
 70
0
 72
1
 73
0
 74
0
  7

 75
0
147
1.0
148
0.0
149
0.0
100
AcDbLayout
  1
Layout1
 70
0
 71
1
 10
0.0
 20
0.0
 11
297.0
 21
210.0
 12
0.0
 22
0.0
 32
0.0
 14
0.0
 24
0.0
 34
0.0
 15
0.0
 25
0.0
 35
0.0
146
0.0
 13
0.0
 23
0.0
 33
0.0
 16
1.0
 26
0.0
 36
0.0
 17
0.0
 27
1.0
 37
0.0
 76
0
330
214
345
0
346
0
  0
ENDSEC
  0
EOF
