  0
SECTION
  2
HEADER
  9
$ACADVER
  1
AC1024
  9
$DWGCODEPAGE
  3
ANSI_1252
  9
$EXTMAX
 10
297.0
 20
210.0
 30
0.0
  9
$EXTMIN
 10
0.0
 20
0.0
 30
0.0
  9
$LIMMIN
 10
0.0
 20
0.0
  9
$LIMMAX
 10
297.0
 20
210.0
  9
$VIEWCTR
 10
148.5
 20
105.0
  9
$VIEWSIZE
 40
210.0
  9
$CLAYER
  8
0
  9
$LTSCALE
 40
16.335
  9
$CELTYPE
  6
BYLAYER
  9
$DIMSCALE
 40
1.0
  9
$DIMASZ
 40
3.0
  9
$DIMEXO
 40
0.5
  9
$DIMDLI
 40
11.286
  9
$DIMEXE
 40
1.5
  9
$DIMCEN
 40
2.673
  9
$DIMLFAC
 40
1.0
  9
$DIMBLK
  1
_FILLED
  9
$DIMALT
 70
0
  9
$DIMALTF
 40
0.0393700787
  9
$DIMTXT
 40
3.0
  9
$DIMTOL
 70
1
  9
$DIMLIM
 70
0
  9
$DIMTFAC
 40
1.0
  9
$DIMTP
 40
0.01
  9
$DIMTM
 40
0.01
  9
$DIMGAP
 40
0.625
  9
$DIMDSEP
 70
44
  9
$AUNITS
 70
0
  9
$PDMODE
 70
3
  9
$PDSIZE
 40
3.0
  9
$HANDSEED
  5
3C0
  9
$TILEMODE
 70
1
  9
$MEASUREMENT
 70
1
  9
$INSUNITS
 70
4
  0
ENDSEC
  0
SECTION
  2
CLASSES
  0
CLASS
  1
ACDBDICTIONARYWDFLT
  2
AcDbDictionaryWithDefault
  3
AutoCAD 2000
 90
0
 91
1
280
0
281
0
  0
CLASS
  1
ACDBPLACEHOLDER
  2
AcDbPlaceHolder
  3
AutoCAD 2000
 90
0
 91
1
280
0
281
0
  0
CLASS
  1
LAYOUT
  2
AcDbLayout
  3
AutoCAD 2000
 90
0
 91
0
280
0
281
0
  0
ENDSEC
  0
SECTION
  2
TABLES
  0
TABLE
  2
VPORT
  5
8
100
AcDbSymbolTable
 70
2
  0
VPORT
  5
1F4
100
AcDbSymbolTableRecord
100
AcDbViewportTableRecord
  2
*ACTIVE
 70
0
 10
0.0
 20
0.0
 11
1.0
 21
1.0
 12
148.5
 22
105.0
 13
0.0
 23
0.0
 14
1.0
 24
1.0
 15
0.0
 25
0.0
 16
0.0
 26
0.0
 36
1.0
 17
0.0
 27
0.0
 37
0.0
 40
210.0
 41
1.4142857143
 42
50.0
 43
0.0
 44
0.0
 50
0.0
 51
0.0
 71
0
 72
100
 73
1
 74
1
 75
0
 76
0
 77
0
 78
0
  0
ENDTAB
  0
TABLE
  2
LTYPE
  5
5
100
AcDbSymbolTable
 70
6
  0
LTYPE
  5
14
100
AcDbSymbolTableRecord
100
AcDbLinetypeTableRecord
  2
BYBLOCK
 70
0
  3

 72
65
 73
0
 40
0.0
  0
LTYPE
  5
15
100
AcDbSymbolTableRecord
100
AcDbLinetypeTableRecord
  2
BYLAYER
 70
0
  3

 72
65
 73
0
 40
0.0
  0
LTYPE
  5
16
100
AcDbSymbolTableRecord
100
AcDbLinetypeTableRecord
  2
CONTINUOUS
 70
64
  3
Solid line
 72
65
 73
0
 40
0.0
  0
LTYPE
  5
1F5
100
AcDbSymbolTableRecord
100
AcDbLinetypeTableRecord
  2
CENTER
 70
64
  3
____ _ ____ _ ____ _ ____ _ ____ _ ____ _ ____
 72
65
 73
4
 40
0.6
 49
0.375
 74
0
 49
-0.075
 74
0
 49
0.075
 74
0
 49
-0.075
 74
0
  0
LTYPE
  5
1F6
100
AcDbSymbolTableRecord
100
AcDbLinetypeTableRecord
  2
HIDDEN
 70
64
  3
- - - - - - - - - - - - - - - - - - - -
 72
65
 73
2
 40
0.2
 49
0.1
 74
0
 49
-0.1
 74
0
  0
LTYPE
  5
1F7
100
AcDbSymbolTableRecord
100
AcDbLinetypeTableRecord
  2
PHANTOM
 70
64
  3
_____ _ _ _____ _ _ _____ _ _ _____
 72
65
 73
6
 40
0.8
 49
0.45
 74
0
 49
-0.05
 74
0
 49
0.1
 74
0
 49
-0.05
 74
0
 49
0.1
 74
0
 49
-0.05
 74
0
  0
LTYPE
  5
1F8
100
AcDbSymbolTableRecord
100
AcDbLinetypeTableRecord
  2
DOT
 70
64
  3
. . . . . . . . . . . . . . . . . . . .
 72
65
 73
2
 40
0.2
 49
0.1
 74
0
 49
-0.1
 74
0
  0
LTYPE
  5
1F9
100
AcDbSymbolTableRecord
100
AcDbLinetypeTableRecord
  2
DASHED
 70
64
  3
- - - - - - - - - - - - - - - - - - - -
 72
65
 73
2
 40
0.2
 49
0.1
 74
0
 49
-0.1
 74
0
  0
ENDTAB
  0
TABLE
  2
LAYER
  5
2
100
AcDbSymbolTable
 70
36
  0
LAYER
  5
10
100
AcDbSymbolTableRecord
100
AcDbLayerTableRecord
  2
0
 70
0
 62
7
  6
CONTINUOUS
370
-3
390
F
  0
LAYER
  5
1FA
100
AcDbSymbolTableRecord
100
AcDbLayerTableRecord
  2
DEFAULT_1
 70
0
 62
7
  6
CENTER
370
-3
390
F
  0
LAYER
  5
1FB
100
AcDbSymbolTableRecord
100
AcDbLayerTableRecord
  2
DEFAULT_2
 70
0
 62
7
  6
HIDDEN
370
-3
390
F
  0
LAYER
  5
1FC
100
AcDbSymbolTableRecord
100
AcDbLayerTableRecord
  2
DEFAULT_3
 70
0
 62
7
  6
PHANTOM
370
-3
390
F
  0
LAYER
  5
1FD
100
AcDbSymbolTableRecord
100
AcDbLayerTableRecord
  2
ASSI
 70
0
 62
7
  6
CONTINUOUS
370
-3
390
F
  0
LAYER
  5
1FE
100
AcDbSymbolTableRecord
100
AcDbLayerTableRecord
  2
COORDINATE
 70
0
 62
7
  6
CONTINUOUS
370
-3
390
F
  0
LAYER
  5
1FF
100
AcDbSymbolTableRecord
100
AcDbLayerTableRecord
  2
COPY_PUBLISH
 70
0
 62
7
  6
CONTINUOUS
370
-3
390
F
  0
LAYER
  5
200
100
AcDbSymbolTableRecord
100
AcDbLayerTableRecord
  2
COSMETICI
 70
0
 62
7
  6
CONTINUOUS
370
-3
390
F
  0
LAYER
  5
201
100
AcDbSymbolTableRecord
100
AcDbLayerTableRecord
  2
CURVE
 70
0
 62
7
  6
CONTINUOUS
370
-3
390
F
  0
LAYER
  5
202
100
AcDbSymbolTableRecord
100
AcDbLayerTableRecord
  2
DRAFT
 70
0
 62
7
  6
CONTINUOUS
370
-3
390
F
  0
LAYER
  5
203
100
AcDbSymbolTableRecord
100
AcDbLayerTableRecord
  2
IMPORT_IGES
 70
0
 62
7
  6
CONTINUOUS
370
-3
390
F
  0
LAYER
  5
204
100
AcDbSymbolTableRecord
100
AcDbLayerTableRecord
  2
INTF_1
 70
0
 62
7
  6
CONTINUOUS
370
-3
390
F
  0
LAYER
  5
205
100
AcDbSymbolTableRecord
100
AcDbLayerTableRecord
  2
INTF_11
 70
0
 62
7
  6
CONTINUOUS
370
-3
390
F
  0
LAYER
  5
206
100
AcDbSymbolTableRecord
100
AcDbLayerTableRecord
  2
INTF_2
 70
0
 62
7
  6
CONTINUOUS
370
-3
390
F
  0
LAYER
  5
207
100
AcDbSymbolTableRecord
100
AcDbLayerTableRecord
  2
NONE
 70
0
 62
7
  6
CONTINUOUS
370
-3
390
F
  0
LAYER
  5
208
100
AcDbSymbolTableRecord
100
AcDbLayerTableRecord
  2
NOTE
 70
0
 62
7
  6
CONTINUOUS
370
-3
390
F
  0
LAYER
  5
209
100
AcDbSymbolTableRecord
100
AcDbLayerTableRecord
  2
PIANI
 70
0
 62
7
  6
CONTINUOUS
370
-3
390
F
  0
LAYER
  5
20A
100
AcDbSymbolTableRecord
100
AcDbLayerTableRecord
  2
PUNTI
 70
0
 62
7
  6
CONTINUOUS
370
-3
390
F
  0
LAYER
  5
20B
100
AcDbSymbolTableRecord
100
AcDbLayerTableRecord
  2
RACCORDO
 70
0
 62
7
  6
CONTINUOUS
370
-3
390
F
  0
LAYER
  5
20C
100
AcDbSymbolTableRecord
100
AcDbLayerTableRecord
  2
SIMBOLI
 70
0
 62
7
  6
CONTINUOUS
370
-3
390
F
  0
LAYER
  5
20D
100
AcDbSymbolTableRecord
100
AcDbLayerTableRecord
  2
SMUSSO
 70
0
 62
7
  6
CONTINUOUS
370
-3
390
F
  0
LAYER
  5
20E
100
AcDbSymbolTableRecord
100
AcDbLayerTableRecord
  2
SUPERFICI
 70
0
 62
7
  6
CONTINUOUS
370
-3
390
F
  0
LAYER
  5
20F
100
AcDbSymbolTableRecord
100
AcDbLayerTableRecord
  2
TRASH
 70
0
 62
7
  6
CONTINUOUS
370
-3
390
F
  0
ENDTAB
  0
TABLE
  2
STYLE
  5
3
100
AcDbSymbolTable
 70
1
  0
STYLE
  5
11
100
AcDbSymbolTableRecord
100
AcDbTextStyleTableRecord
  2
STANDARD
 70
0
 40
0.0
 41
0.8
 50
0.0
 71
0
 42
0.2
  3
txt
  4

  0
STYLE
  5
210
100
AcDbSymbolTableRecord
100
AcDbTextStyleTableRecord
  2
TEXTSTYLE_1
 70
0
 40
0.0
 41
0.8
 50
0.0
 71
0
 42
0.2
  3
gdt
  4

  0
ENDTAB
  0
TABLE
  2
VIEW
  5
6
100
AcDbSymbolTable
 70
0
  0
ENDTAB
  0
TABLE
  2
UCS
  5
7
100
AcDbSymbolTable
 70
0
  0
ENDTAB
  0
TABLE
  2
APPID
  5
9
100
AcDbSymbolTable
 70
1
  0
APPID
  5
211
100
AcDbSymbolTableRecord
100
AcDbRegAppTableRecord
  2
ACAD
 70
0
  0
ENDTAB
  0
TABLE
  2
BLOCK_RECORD
  5
1
100
AcDbSymbolTable
 70
0
  0
BLOCK_RECORD
  5
212
100
AcDbSymbolTableRecord
100
AcDbBlockTableRecord
  2
*Model_Space
  0
BLOCK_RECORD
  5
213
100
AcDbSymbolTableRecord
100
AcDbBlockTableRecord
  2
*Paper_Space
  0
BLOCK_RECORD
  5
214
100
AcDbSymbolTableRecord
100
AcDbBlockTableRecord
  2
_FILLED
  0
BLOCK_RECORD
  5
215
100
AcDbSymbolTableRecord
100
AcDbBlockTableRecord
  2
*D0
  0
BLOCK_RECORD
  5
216
100
AcDbSymbolTableRecord
100
AcDbBlockTableRecord
  2
*D1
  0
BLOCK_RECORD
  5
217
100
AcDbSymbolTableRecord
100
AcDbBlockTableRecord
  2
*D2
  0
BLOCK_RECORD
  5
218
100
AcDbSymbolTableRecord
100
AcDbBlockTableRecord
  2
*D3
  0
ENDTAB
  0
TABLE
  2
DIMSTYLE
  5
A
100
AcDbSymbolTable
 70
1
100
AcDbDimStyleTable
 71
0
  0
DIMSTYLE
105
219
100
AcDbSymbolTableRecord
100
AcDbDimStyleTableRecord
  2
STANDARD
 70
0
  3

  4

 40
1.0
 41
3.0
 42
0.5
 43
0.38
 44
1.5
 45
0.0
 46
0.0
 47
0.01
 48
0.01
140
3.0
141
0.09
142
0.0
143
25.4
144
1.0
145
0.0
146
1.0
147
0.625
 71
1
 72
0
 73
0
 74
0
 75
0
 76
0
 77
1
 78
8
 79
2
170
0
171
1
172
0
173
0
174
0
175
0
176
0
177
0
178
0
270
2
179
2
271
2
272
2
273
2
274
2
275
0
280
0
281
0
282
0
283
1
284
8
285
0
286
0
287
3
288
0
340
11
278
44
341
214
342
214
343
214
344
214
  0
DIMSTYLE
105
21A
100
AcDbSymbolTableRecord
100
AcDbDimStyleTableRecord
  2
DIMSTYLE_1
 70
0
  3

  4

 40
1.0
 41
3.0
 42
0.5
 43
0.38
 44
1.5
 45
0.0
 46
0.0
 47
0.0
 48
0.0
140
3.0
141
0.09
142
0.0
143
25.4
144
1.0
145
0.0
146
1.0
147
0.75
 71
0
 72
0
 73
0
 74
0
 75
0
 76
0
 77
1
 78
8
 79
2
170
0
171
1
172
0
173
0
174
0
175
0
176
0
177
0
178
0
270
2
179
2
271
2
272
2
273
2
274
2
275
0
280
0
281
0
282
0
283
1
284
8
285
0
286
0
287
3
288
0
340
11
278
44
341
214
342
214
343
214
344
214
  0
ENDTAB
  0
ENDSEC
  0
SECTION
  2
BLOCKS
  0
BLOCK
  5
20
100
AcDbEntity
  8
0
100
AcDbBlockBegin
  2
*Model_Space
 70
0
 10
0.0
 20
0.0
 30
0.0
  3
*Model_Space
  1

  0
ENDBLK
  5
21
100
AcDbEntity
  8
0
100
AcDbBlockEnd
  0
BLOCK
  5
1C
100
AcDbEntity
  8
0
100
AcDbBlockBegin
  2
*Paper_Space
 70
0
 10
0.0
 20
0.0
 30
0.0
  3
*Paper_Space
  1

  0
ENDBLK
  5
1D
100
AcDbEntity
  8
0
100
AcDbBlockEnd
  0
BLOCK
  5
21B
100
AcDbEntity
  8
0
100
AcDbBlockBegin
  2
_FILLED
 70
64
 10
0.0
 20
0.0
  3
_FILLED
  1

  0
SOLID
  5
21C
100
AcDbEntity
  8
0
  6
BYBLOCK
 62
0
100
AcDbTrace
 10
0.0
 20
0.0
 11
-1.0
 21
0.3166666667
 12
-1.0
 22
-0.3166666667
 13
-1.0
 23
-0.3166666667
  0
ENDBLK
  5
21D
100
AcDbEntity
  8
0
  6
BYBLOCK
 62
0
100
AcDbBlockEnd
  0
BLOCK
  5
21E
100
AcDbEntity
  8
0
100
AcDbBlockBegin
 62
7
  6
CONTINUOUS
  2
*D0
 70
65
 10
0.0
 20
0.0
  3
*D0
  1

  0
LINE
  5
21F
100
AcDbEntity
  8
0
100
AcDbLine
 62
7
  6
CONTINUOUS
 10
-132.1196522125
 20
44.063419258
 11
-132.1196522125
 21
53.1130040324
  0
LINE
  5
220
100
AcDbEntity
  8
0
100
AcDbLine
 62
7
  6
CONTINUOUS
 10
-124.3196522125
 20
43.193635103
 11
-124.3196522125
 21
53.1130040324
  0
LINE
  5
221
100
AcDbEntity
  8
0
100
AcDbLine
 62
7
  6
CONTINUOUS
 10
-132.1196522125
 20
51.6130040324
 11
-142.909632066
 21
51.6130040324
  0
LINE
  5
222
100
AcDbEntity
  8
0
100
AcDbLine
 62
7
  6
CONTINUOUS
 10
-142.909632066
 20
51.6130040324
 11
-128.2196522125
 21
51.6130040324
  0
LINE
  5
223
100
AcDbEntity
  8
0
100
AcDbLine
 62
7
  6
CONTINUOUS
 10
-124.3196522125
 20
51.6130040324
 11
-120.3196522125
 21
51.6130040324
  0
LINE
  5
224
100
AcDbEntity
  8
0
100
AcDbLine
 62
7
  6
CONTINUOUS
 10
-120.3196522125
 20
51.6130040324
 11
-128.2196522125
 21
51.6130040324
  0
INSERT
  5
225
100
AcDbEntity
  8
0
100
AcDbBlockReference
 62
7
  6
CONTINUOUS
  2
_FILLED
 10
-132.1196522125
 20
51.6130040324
 41
3.0
 42
3.0
 43
3.0
  0
INSERT
  5
226
100
AcDbEntity
  8
0
100
AcDbBlockReference
 62
7
  6
CONTINUOUS
  2
_FILLED
 10
-124.3196522125
 20
51.6130040324
 41
3.0
 42
3.0
 43
3.0
 50
180.0
  0
ENDBLK
  5
227
100
AcDbEntity
  8
0
  6
BYBLOCK
 62
0
100
AcDbBlockEnd
  0
BLOCK
  5
228
100
AcDbEntity
  8
0
100
AcDbBlockBegin
 62
7
  6
CONTINUOUS
  2
*D1
 70
65
 10
0.0
 20
0.0
  3
*D1
  1

  0
LINE
  5
229
100
AcDbEntity
  8
0
100
AcDbLine
 62
7
  6
CONTINUOUS
 10
-132.1196522125
 20
44.0910459188
 11
-132.1196522125
 21
60.9859471959
  0
LINE
  5
22A
100
AcDbEntity
  8
0
100
AcDbLine
 62
7
  6
CONTINUOUS
 10
-121.8196522125
 20
15.4101307468
 11
-121.8196522125
 21
60.9859471959
  0
LINE
  5
22B
100
AcDbEntity
  8
0
100
AcDbLine
 62
7
  6
CONTINUOUS
 10
-132.1196522125
 20
59.4859471959
 11
-144.194751754
 21
59.4859471959
  0
LINE
  5
22C
100
AcDbEntity
  8
0
100
AcDbLine
 62
7
  6
CONTINUOUS
 10
-144.194751754
 20
59.4859471959
 11
-126.9696522125
 21
59.4859471959
  0
LINE
  5
22D
100
AcDbEntity
  8
0
100
AcDbLine
 62
7
  6
CONTINUOUS
 10
-121.8196522125
 20
59.4859471959
 11
-117.8196522125
 21
59.4859471959
  0
LINE
  5
22E
100
AcDbEntity
  8
0
100
AcDbLine
 62
7
  6
CONTINUOUS
 10
-117.8196522125
 20
59.4859471959
 11
-126.9696522125
 21
59.4859471959
  0
INSERT
  5
22F
100
AcDbEntity
  8
0
100
AcDbBlockReference
 62
7
  6
CONTINUOUS
  2
_FILLED
 10
-132.1196522125
 20
59.4859471959
 41
3.0
 42
3.0
 43
3.0
  0
INSERT
  5
230
100
AcDbEntity
  8
0
100
AcDbBlockReference
 62
7
  6
CONTINUOUS
  2
_FILLED
 10
-121.8196522125
 20
59.4859471959
 41
3.0
 42
3.0
 43
3.0
 50
180.0
  0
ENDBLK
  5
231
100
AcDbEntity
  8
0
  6
BYBLOCK
 62
0
100
AcDbBlockEnd
  0
BLOCK
  5
232
100
AcDbEntity
  8
0
100
AcDbBlockBegin
 62
7
  6
CONTINUOUS
  2
*D2
 70
65
 10
0.0
 20
0.0
  3
*D2
  1

  0
LINE
  5
233
100
AcDbEntity
  8
0
100
AcDbLine
 62
7
  6
CONTINUOUS
 10
-104.25
 20
43.8186894938
 11
-104.25
 21
52.8773456573
  0
LINE
  5
234
100
AcDbEntity
  8
0
100
AcDbLine
 62
7
  6
CONTINUOUS
 10
104.25
 20
43.6462648292
 11
104.25
 21
52.8773456573
  0
LINE
  5
235
100
AcDbEntity
  8
0
100
AcDbLine
 62
7
  6
CONTINUOUS
 10
-104.25
 20
51.3773456573
 11
0.0
 21
51.3773456573
  0
LINE
  5
236
100
AcDbEntity
  8
0
100
AcDbLine
 62
7
  6
CONTINUOUS
 10
104.25
 20
51.3773456573
 11
0.0
 21
51.3773456573
  0
INSERT
  5
237
100
AcDbEntity
  8
0
100
AcDbBlockReference
 62
7
  6
CONTINUOUS
  2
_FILLED
 10
-104.25
 20
51.3773456573
 41
3.0
 42
3.0
 43
3.0
 50
180.0
  0
INSERT
  5
238
100
AcDbEntity
  8
0
100
AcDbBlockReference
 62
7
  6
CONTINUOUS
  2
_FILLED
 10
104.25
 20
51.3773456573
 41
3.0
 42
3.0
 43
3.0
  0
ENDBLK
  5
239
100
AcDbEntity
  8
0
  6
BYBLOCK
 62
0
100
AcDbBlockEnd
  0
BLOCK
  5
23A
100
AcDbEntity
  8
0
100
AcDbBlockBegin
 62
7
  6
CONTINUOUS
  2
*D3
 70
65
 10
0.0
 20
0.0
  3
*D3
  1

  0
LINE
  5
23B
100
AcDbEntity
  8
0
100
AcDbLine
 62
7
  6
CONTINUOUS
 10
103.9160866487
 20
44.0
 11
114.7602640269
 21
44.0
  0
LINE
  5
23C
100
AcDbEntity
  8
0
100
AcDbLine
 62
7
  6
CONTINUOUS
 10
104.0838123419
 20
-44.0
 11
114.7602640269
 21
-44.0
  0
LINE
  5
23D
100
AcDbEntity
  8
0
100
AcDbLine
 62
7
  6
CONTINUOUS
 10
113.2602640269
 20
44.0
 11
113.2602640269
 21
0.0
  0
LINE
  5
23E
100
AcDbEntity
  8
0
100
AcDbLine
 62
7
  6
CONTINUOUS
 10
113.2602640269
 20
-44.0
 11
113.2602640269
 21
0.0
  0
INSERT
  5
23F
100
AcDbEntity
  8
0
100
AcDbBlockReference
 62
7
  6
CONTINUOUS
  2
_FILLED
 10
113.2602640269
 20
44.0
 41
3.0
 42
3.0
 43
3.0
 50
90.0
  0
INSERT
  5
240
100
AcDbEntity
  8
0
100
AcDbBlockReference
 62
7
  6
CONTINUOUS
  2
_FILLED
 10
113.2602640269
 20
-44.0
 41
3.0
 42
3.0
 43
3.0
 50
270.0
  0
ENDBLK
  5
241
100
AcDbEntity
  8
0
  6
BYBLOCK
 62
0
100
AcDbBlockEnd
  0
ENDSEC
  0
SECTION
  2
ENTITIES
  0
DIMENSION
  5
242
100
AcDbEntity
  8
0
100
AcDbDimension
 62
7
  6
CONTINUOUS
  2
*D0
 10
-124.3196522125
 20
51.6130040324
 11
-142.909632066
 21
51.6130040324
 70
160
 71
3
 72
2
 41
0.9
 42
7.8
  3
DIMSTYLE_1
100
AcDbAlignedDimension
 13
-132.1196522125
 23
43.563419258
 14
-124.3196522125
 24
42.693635103
100
AcDbRotatedDimension
  0
DIMENSION
  5
243
100
AcDbEntity
  8
0
100
AcDbDimension
 62
7
  6
CONTINUOUS
  2
*D1
 10
-121.8196522125
 20
59.4859471959
 11
-144.194751754
 21
59.4859471959
 70
160
 71
3
 72
2
 41
0.9
 42
10.3
  3
DIMSTYLE_1
100
AcDbAlignedDimension
 13
-132.1196522125
 23
43.5910459188
 14
-121.8196522125
 24
14.9101307468
100
AcDbRotatedDimension
  0
DIMENSION
  5
244
100
AcDbEntity
  8
0
100
AcDbDimension
 62
7
  6
CONTINUOUS
  2
*D2
 10
104.25
 20
51.3773456573
 11
-5.4642857143
 21
51.3773456573
 70
160
 71
2
 72
2
 41
0.9
 42
208.5
  3
DIMSTYLE_1
100
AcDbAlignedDimension
 13
-104.25
 23
43.3186894938
 14
104.25
 24
43.1462648292
100
AcDbRotatedDimension
  0
DIMENSION
  5
245
100
AcDbEntity
  8
0
100
AcDbDimension
 62
7
  6
CONTINUOUS
  2
*D3
 10
113.2602640269
 20
-44.0
 11
113.2602640269
 21
-2.3571428571
 70
160
 71
2
 72
2
 41
0.9
 42
88.0
  3
DIMSTYLE_1
100
AcDbAlignedDimension
 13
103.4160866487
 23
44.0
 14
103.5838123419
 24
-44.0
 50
270.0
100
AcDbRotatedDimension
  0
LWPOLYLINE
  5
246
100
AcDbEntity
  8
RACCORDO
100
AcDbPolyline
 62
250
  6
CONTINUOUS
 90
31
 70
0
 10
-103.6707021581
 20
-42.4220726233
 10
-103.6692216525
 20
-42.4749998945
 10
-103.665103003
 20
-42.5272624188
 10
-103.6583462094
 20
-42.5788601962
 10
-103.6489250383
 20
-42.6298361725
 10
-103.6368657233
 20
-42.6801474019
 10
-103.6222469646
 20
-42.7296650477
 10
-103.6050379665
 20
-42.7784902062
 10
-103.5852695247
 20
-42.8265217811
 10
-103.5631127271
 20
-42.8733276466
 10
-103.5385546976
 20
-42.9188776135
 10
-103.5116083123
 20
-42.963201871
 10
-103.4824832871
 20
-43.0059588608
 10
-103.4511599698
 20
-43.0471412636
 10
-103.4176580127
 20
-43.0867563987
 10
-103.3822460884
 20
-43.1244846661
 10
-103.3449047474
 20
-43.1603126294
 10
-103.3056534392
 20
-43.194253725
 10
-103.2648191854
 20
-43.2260286616
 10
-103.2224768814
 20
-43.2555875565
 10
-103.1785516318
 20
-43.2829802924
 10
-103.1331457715
 20
-43.3080772263
 10
-103.0861805801
 20
-43.3309272087
 10
-103.0377347781
 20
-43.3514813889
 10
-102.9881468609
 20
-43.3694635726
 10
-102.9373533385
 20
-43.3848591095
 10
-102.8854177009
 20
-43.3976826498
 10
-102.8328689141
 20
-43.4077019492
 10
-102.7798832998
 20
-43.4148395931
 10
-102.7262845362
 20
-43.419172996
 10
-102.6720726233
 20
-43.4207021581
  0
LWPOLYLINE
  5
247
100
AcDbEntity
  8
RACCORDO
100
AcDbPolyline
 62
250
  6
CONTINUOUS
 90
31
 70
0
 10
-104.1700169255
 20
-42.4220726233
 10
-104.1678652766
 20
-42.5010542261
 10
-104.1615970209
 20
-42.5794524538
 10
-104.1512857551
 20
-42.6570567265
 10
-104.1370444867
 20
-42.7335280629
 10
-104.1189514851
 20
-42.8088089971
 10
-104.096980203
 20
-42.8831073307
 10
-104.0711225843
 20
-42.9563754241
 10
-104.0414821095
 20
-43.0282560721
 10
-104.0081634073
 20
-43.0984857859
 10
-103.9712744951
 20
-43.1668491437
 10
-103.9309037396
 20
-43.2331939028
 10
-103.8871482221
 20
-43.2973615826
 10
-103.8401192508
 20
-43.3591863315
 10
-103.789947015
 20
-43.4184948565
 10
-103.736767446
 20
-43.4751253126
 10
-103.6807181209
 20
-43.5289297595
 10
-103.6219534663
 20
-43.5797588917
 10
-103.5606487838
 20
-43.627462998
 10
-103.4970876438
 20
-43.671838977
 10
-103.4313326715
 20
-43.7128598965
 10
-103.3632064413
 20
-43.7506036243
 10
-103.2927491422
 20
-43.7849689734
 10
-103.2202356732
 20
-43.8157445495
 10
-103.1458222679
 20
-43.8427973326
 10
-103.0696299925
 20
-43.8660097185
 10
-102.9919169141
 20
-43.8852307128
 10
-102.9130652083
 20
-43.9003147701
 10
-102.8333528805
 20
-43.9111769754
 10
-102.7529456412
 20
-43.9177627766
 10
-102.6720726233
 20
-43.9200169255
  0
LINE
  5
248
100
AcDbEntity
  8
RACCORDO
100
AcDbLine
 62
7
  6
CONTINUOUS
 10
-104.25
 20
42.5020556979
 11
-104.25
 21
-42.5020556979
  0
LINE
  5
249
100
AcDbEntity
  8
RACCORDO
100
AcDbLine
 62
250
  6
CONTINUOUS
 10
-104.1700169255
 20
42.4220726233
 11
-104.1700169255
 21
-42.4220726233
  0
LINE
  5
24A
100
AcDbEntity
  8
RACCORDO
100
AcDbLine
 62
250
  6
CONTINUOUS
 10
-103.6707021581
 20
42.4220726233
 11
-103.6707021581
 21
-42.4220726233
  0
LINE
  5
24B
100
AcDbEntity
  8
RACCORDO
100
AcDbLine
 62
250
  6
CONTINUOUS
 10
-102.6720726233
 20
-43.4207021581
 11
-102.6720726233
 21
-43.9200169255
  0
LINE
  5
24C
100
AcDbEntity
  8
RACCORDO
100
AcDbLine
 62
250
  6
CONTINUOUS
 10
-102.6720726233
 20
43.4207021581
 11
-102.6720726233
 21
43.9200169255
  0
LINE
  5
24D
100
AcDbEntity
  8
RACCORDO
100
AcDbLine
 62
250
  6
CONTINUOUS
 10
-79.3407552568
 20
-26.3408771007
 11
-79.3407552568
 21
26.3408771007
  0
LINE
  5
24E
100
AcDbEntity
  8
RACCORDO
100
AcDbLine
 62
250
  6
CONTINUOUS
 10
-79.0408009483
 20
-26.3408771007
 11
-79.0408009483
 21
26.3408771007
  0
LINE
  5
24F
100
AcDbEntity
  8
RACCORDO
100
AcDbLine
 62
7
  6
CONTINUOUS
 10
-79.025
 20
-26.3250761524
 11
-79.025
 21
26.3250761524
  0
LINE
  5
250
100
AcDbEntity
  8
RACCORDO
100
AcDbLine
 62
250
  6
CONTINUOUS
 10
-78.5408771007
 20
27.1407552568
 11
-78.5408771007
 21
26.8408009483
  0
LINE
  5
251
100
AcDbEntity
  8
RACCORDO
100
AcDbLine
 62
250
  6
CONTINUOUS
 10
-78.5408771007
 20
-27.1407552568
 11
-78.5408771007
 21
-26.8408009483
  0
LWPOLYLINE
  5
252
100
AcDbEntity
  8
RACCORDO
100
AcDbPolyline
 62
250
  6
CONTINUOUS
 90
25
 70
0
 10
-79.0408009457
 20
26.3408770981
 10
-79.0397695261
 20
26.3730742193
 10
-79.0366571645
 20
26.405216003
 10
-79.0314614945
 20
26.4371670177
 10
-79.0241794837
 20
26.4688272769
 10
-79.0148315182
 20
26.5000224817
 10
-79.0034848662
 20
26.5305116261
 10
-78.9902045111
 20
26.5601453137
 10
-78.9750443016
 20
26.5888250311
 10
-78.958094075
 20
26.6164019612
 10
-78.9394609535
 20
26.6427351682
 10
-78.9192133354
 20
26.6677581939
 10
-78.8973860408
 20
26.6914363394
 10
-78.8741110521
 20
26.7136304469
 10
-78.8494444038
 20
26.7342907849
 10
-78.8232715571
 20
26.7534765669
 10
-78.7955696652
 20
26.7711237993
 10
-78.7665218743
 20
26.7870378624
 10
-78.7363152348
 20
26.8010645072
 10
-78.7050016284
 20
26.8131316362
 10
-78.6727719597
 20
26.8231188733
 10
-78.6400613273
 20
26.8308852452
 10
-78.60712413
 20
26.8364062628
 10
-78.5740130721
 20
26.8397082637
 10
-78.5408770977
 20
26.8408009453
  0
LWPOLYLINE
  5
253
100
AcDbEntity
  8
RACCORDO
100
AcDbPolyline
 62
250
  6
CONTINUOUS
 90
25
 70
0
 10
-79.3407552568
 20
26.3408771007
 10
-79.3390783191
 20
26.3927461646
 10
-79.3340888073
 20
26.4440923184
 10
-79.3257867214
 20
26.4949155622
 10
-79.3140995518
 20
26.5454830583
 10
-79.2990998082
 20
26.5955276443
 10
-79.2810050198
 20
26.6442478335
 10
-79.25976342
 20
26.6915780308
 10
-79.2354267753
 20
26.7375838314
 10
-79.2083679157
 20
26.7816605341
 10
-79.1785978831
 20
26.8237332774
 10
-79.1461056355
 20
26.8638769228
 10
-79.1112308758
 20
26.9017113535
 10
-79.0740533697
 20
26.9371962618
 10
-79.0344933517
 20
26.9703719554
 10
-78.9926512271
 20
27.0009792415
 10
-78.9483504379
 20
27.0291281654
 10
-78.9017675422
 20
27.0547086817
 10
-78.8535326206
 20
27.077131461
 10
-78.8034784261
 20
27.0963267915
 10
-78.7517722057
 20
27.1123643851
 10
-78.6995457808
 20
27.1248640477
 10
-78.6471764252
 20
27.1336990483
 10
-78.5942868652
 20
27.138996118
 10
-78.5408771007
 20
27.1407552568
  0
LWPOLYLINE
  5
254
100
AcDbEntity
  8
RACCORDO
100
AcDbPolyline
 62
250
  6
CONTINUOUS
 90
31
 70
0
 10
102.6720726233
 20
-43.4207021581
 10
102.7249998945
 20
-43.4192216525
 10
102.7772624188
 20
-43.415103003
 10
102.8288601962
 20
-43.4083462094
 10
102.8798361725
 20
-43.3989250383
 10
102.9301474019
 20
-43.3868657233
 10
102.9796650477
 20
-43.3722469646
 10
103.0284902062
 20
-43.3550379665
 10
103.0765217811
 20
-43.3352695247
 10
103.1233276466
 20
-43.3131127271
 10
103.1688776135
 20
-43.2885546976
 10
103.213201871
 20
-43.2616083123
 10
103.2559588608
 20
-43.2324832871
 10
103.2971412636
 20
-43.2011599698
 10
103.3367563987
 20
-43.1676580127
 10
103.3744846661
 20
-43.1322460884
 10
103.4103126294
 20
-43.0949047474
 10
103.444253725
 20
-43.0556534392
 10
103.4760286616
 20
-43.0148191854
 10
103.5055875565
 20
-42.9724768814
 10
103.5329802924
 20
-42.9285516318
 10
103.5580772263
 20
-42.8831457715
 10
103.5809272087
 20
-42.8361805801
 10
103.6014813889
 20
-42.7877347781
 10
103.6194635726
 20
-42.7381468609
 10
103.6348591095
 20
-42.6873533385
 10
103.6476826498
 20
-42.6354177009
 10
103.6577019492
 20
-42.5828689141
 10
103.6648395931
 20
-42.5298832998
 10
103.669172996
 20
-42.4762845362
 10
103.6707021581
 20
-42.4220726233
  0
LWPOLYLINE
  5
255
100
AcDbEntity
  8
RACCORDO
100
AcDbPolyline
 62
250
  6
CONTINUOUS
 90
31
 70
0
 10
102.6720726233
 20
-43.9200169255
 10
102.7510542261
 20
-43.9178652766
 10
102.8294524538
 20
-43.9115970209
 10
102.9070567265
 20
-43.9012857551
 10
102.9835280629
 20
-43.8870444867
 10
103.0588089971
 20
-43.8689514851
 10
103.1331073307
 20
-43.846980203
 10
103.2063754241
 20
-43.8211225843
 10
103.2782560721
 20
-43.7914821095
 10
103.3484857859
 20
-43.7581634073
 10
103.4168491437
 20
-43.7212744951
 10
103.4831939028
 20
-43.6809037396
 10
103.5473615826
 20
-43.6371482221
 10
103.6091863315
 20
-43.5901192508
 10
103.6684948565
 20
-43.539947015
 10
103.7251253126
 20
-43.486767446
 10
103.7789297595
 20
-43.4307181209
 10
103.8297588917
 20
-43.3719534663
 10
103.877462998
 20
-43.3106487838
 10
103.921838977
 20
-43.2470876438
 10
103.9628598965
 20
-43.1813326715
 10
104.0006036243
 20
-43.1132064413
 10
104.0349689734
 20
-43.0427491422
 10
104.0657445495
 20
-42.9702356732
 10
104.0927973326
 20
-42.8958222679
 10
104.1160097185
 20
-42.8196299925
 10
104.1352307128
 20
-42.7419169141
 10
104.1503147701
 20
-42.6630652083
 10
104.1611769754
 20
-42.5833528805
 10
104.1677627766
 20
-42.5029456412
 10
104.1700169255
 20
-42.4220726233
  0
LINE
  5
256
100
AcDbEntity
  8
RACCORDO
100
AcDbLine
 62
250
  6
CONTINUOUS
 10
-104.1700169255
 20
-42.4220726233
 11
-104.25
 21
-42.5020556979
  0
LINE
  5
257
100
AcDbEntity
  8
RACCORDO
100
AcDbLine
 62
250
  6
CONTINUOUS
 10
-102.6720726233
 20
-43.9200169255
 11
-102.7520556979
 21
-44.0
  0
LINE
  5
258
100
AcDbEntity
  8
RACCORDO
100
AcDbLine
 62
250
  6
CONTINUOUS
 10
-79.0408009483
 20
-26.3408771007
 11
-79.025
 21
-26.3250761524
  0
LINE
  5
259
100
AcDbEntity
  8
RACCORDO
100
AcDbLine
 62
7
  6
CONTINUOUS
 10
-102.7520556979
 20
-44.0
 11
102.7520556979
 21
-44.0
  0
LINE
  5
25A
100
AcDbEntity
  8
RACCORDO
100
AcDbLine
 62
250
  6
CONTINUOUS
 10
-102.6720726233
 20
-43.9200169255
 11
102.6720726233
 21
-43.9200169255
  0
LINE
  5
25B
100
AcDbEntity
  8
RACCORDO
100
AcDbLine
 62
250
  6
CONTINUOUS
 10
-102.6720726233
 20
-43.4207021581
 11
102.6720726233
 21
-43.4207021581
  0
LINE
  5
25C
100
AcDbEntity
  8
RACCORDO
100
AcDbLine
 62
250
  6
CONTINUOUS
 10
103.6707021581
 20
-42.4220726233
 11
104.1700169255
 21
-42.4220726233
  0
LINE
  5
25D
100
AcDbEntity
  8
RACCORDO
100
AcDbLine
 62
250
  6
CONTINUOUS
 10
-103.6707021581
 20
-42.4220726233
 11
-104.1700169255
 21
-42.4220726233
  0
LINE
  5
25E
100
AcDbEntity
  8
RACCORDO
100
AcDbLine
 62
250
  6
CONTINUOUS
 10
-104.1700169255
 20
42.4220726233
 11
-104.25
 21
42.5020556979
  0
LINE
  5
25F
100
AcDbEntity
  8
RACCORDO
100
AcDbLine
 62
250
  6
CONTINUOUS
 10
-102.6720726233
 20
43.9200169255
 11
-102.7520556979
 21
44.0
  0
LINE
  5
260
100
AcDbEntity
  8
RACCORDO
100
AcDbLine
 62
250
  6
CONTINUOUS
 10
-79.0408009483
 20
26.3408771007
 11
-79.025
 21
26.3250761524
  0
LINE
  5
261
100
AcDbEntity
  8
RACCORDO
100
AcDbLine
 62
250
  6
CONTINUOUS
 10
-78.5408771007
 20
-26.8408009483
 11
-78.5250761524
 21
-26.825
  0
LWPOLYLINE
  5
262
100
AcDbEntity
  8
RACCORDO
100
AcDbPolyline
 62
250
  6
CONTINUOUS
 90
25
 70
0
 10
-78.5408770981
 20
-26.8408009457
 10
-78.5730742193
 20
-26.8397695261
 10
-78.605216003
 20
-26.8366571645
 10
-78.6371670177
 20
-26.8314614945
 10
-78.6688272769
 20
-26.8241794837
 10
-78.7000224817
 20
-26.8148315182
 10
-78.7305116261
 20
-26.8034848662
 10
-78.7601453137
 20
-26.7902045111
 10
-78.7888250311
 20
-26.7750443016
 10
-78.8164019612
 20
-26.758094075
 10
-78.8427351682
 20
-26.7394609535
 10
-78.8677581939
 20
-26.7192133354
 10
-78.8914363394
 20
-26.6973860408
 10
-78.9136304469
 20
-26.6741110521
 10
-78.9342907849
 20
-26.6494444038
 10
-78.9534765669
 20
-26.6232715571
 10
-78.9711237993
 20
-26.5955696652
 10
-78.9870378624
 20
-26.5665218743
 10
-79.0010645072
 20
-26.5363152348
 10
-79.0131316362
 20
-26.5050016284
 10
-79.0231188733
 20
-26.4727719597
 10
-79.0308852452
 20
-26.4400613273
 10
-79.0364062628
 20
-26.40712413
 10
-79.0397082637
 20
-26.3740130721
 10
-79.0408009453
 20
-26.3408770977
  0
LWPOLYLINE
  5
263
100
AcDbEntity
  8
RACCORDO
100
AcDbPolyline
 62
250
  6
CONTINUOUS
 90
25
 70
0
 10
-78.5408771007
 20
-27.1407552568
 10
-78.5927461646
 20
-27.1390783191
 10
-78.6440923184
 20
-27.1340888073
 10
-78.6949155622
 20
-27.1257867214
 10
-78.7454830583
 20
-27.1140995518
 10
-78.7955276443
 20
-27.0990998082
 10
-78.8442478335
 20
-27.0810050198
 10
-78.8915780308
 20
-27.05976342
 10
-78.9375838314
 20
-27.0354267753
 10
-78.9816605341
 20
-27.0083679157
 10
-79.0237332774
 20
-26.9785978831
 10
-79.0638769228
 20
-26.9461056355
 10
-79.1017113535
 20
-26.9112308758
 10
-79.1371962618
 20
-26.8740533697
 10
-79.1703719554
 20
-26.8344933517
 10
-79.2009792415
 20
-26.7926512271
 10
-79.2291281654
 20
-26.7483504379
 10
-79.2547086817
 20
-26.7017675422
 10
-79.277131461
 20
-26.6535326206
 10
-79.2963267915
 20
-26.6034784261
 10
-79.3123643851
 20
-26.5517722057
 10
-79.3248640477
 20
-26.4995457808
 10
-79.3336990483
 20
-26.4471764252
 10
-79.338996118
 20
-26.3942868652
 10
-79.3407552568
 20
-26.3408771007
  0
LINE
  5
264
100
AcDbEntity
  8
RACCORDO
100
AcDbLine
 62
250
  6
CONTINUOUS
 10
-78.5408771007
 20
26.8408009483
 11
-78.5250761524
 21
26.825
  0
LINE
  5
265
100
AcDbEntity
  8
RACCORDO
100
AcDbLine
 62
250
  6
CONTINUOUS
 10
78.5408771007
 20
-27.1407552568
 11
-78.5408771007
 21
-27.1407552568
  0
LINE
  5
266
100
AcDbEntity
  8
RACCORDO
100
AcDbLine
 62
250
  6
CONTINUOUS
 10
78.5408771007
 20
-26.8408009483
 11
-78.5408771007
 21
-26.8408009483
  0
LINE
  5
267
100
AcDbEntity
  8
RACCORDO
100
AcDbLine
 62
7
  6
CONTINUOUS
 10
-78.5250761524
 20
-26.825
 11
78.5250761524
 21
-26.825
  0
LINE
  5
268
100
AcDbEntity
  8
RACCORDO
100
AcDbLine
 62
250
  6
CONTINUOUS
 10
-79.3407552568
 20
-26.3408771007
 11
-79.0408009483
 21
-26.3408771007
  0
LINE
  5
269
100
AcDbEntity
  8
RACCORDO
100
AcDbLine
 62
250
  6
CONTINUOUS
 10
79.3407552568
 20
-26.3408771007
 11
79.0408009483
 21
-26.3408771007
  0
LWPOLYLINE
  5
26A
100
AcDbEntity
  8
0
100
AcDbPolyline
 62
7
  6
CONTINUOUS
 90
3
 70
0
 43
0.3500000006
 10
2.3214286122
 20
52.4130583649
 10
2.2499999785
 20
52.19877388
 10
2.1071428528
 20
51.9130582123
  0
LWPOLYLINE
  5
26B
100
AcDbEntity
  8
0
100
AcDbPolyline
 62
7
  6
CONTINUOUS
 90
13
 70
0
 43
0.3500000006
 10
-3.1071428747
 20
52.9844897003
 10
-3.1071428747
 20
54.2702011414
 10
-2.8928572569
 20
54.6987746429
 10
-2.464285738
 20
55.1273436127
 10
-2.2499999785
 20
55.1273436127
 10
-1.8214286013
 20
54.6987746429
 10
-1.6071428418
 20
54.2702011414
 10
-1.6071428418
 20
52.9844897003
 10
-1.8214286013
 20
52.5559161987
 10
-2.2499999785
 20
52.127347229
 10
-2.464285738
 20
52.127347229
 10
-2.8928572569
 20
52.5559161987
 10
-3.1071428747
 20
52.9844897003
  0
LWPOLYLINE
  5
26C
100
AcDbEntity
  8
0
100
AcDbPolyline
 62
7
  6
CONTINUOUS
 90
4
 70
0
 43
0.3500000006
 10
-0.7500000165
 20
52.5559161987
 10
-0.7500000165
 20
53.41305867
 10
-0.3214285684
 20
53.8416321716
 10
0.3214285684
 20
53.8416321716
  0
LWPOLYLINE
  5
26D
100
AcDbEntity
  8
0
100
AcDbPolyline
 62
7
  6
CONTINUOUS
 90
4
 70
0
 43
0.3500000006
 10
112.0816892395
 20
-2.3571432495
 10
111.2245513
 20
-2.3571432495
 10
110.7959823303
 20
-1.9285708809
 10
110.7959823303
 20
-1.2857140274
  0
LWPOLYLINE
  5
26E
100
AcDbEntity
  8
0
100
AcDbPolyline
 62
7
  6
CONTINUOUS
 90
4
 70
0
 43
0.3500000006
 10
112.0816892395
 20
-0.0000003204
 10
111.2245513
 20
-0.0000003204
 10
110.7959823303
 20
0.4285709152
 10
110.7959823303
 20
1.0714289017
  0
LINE
  5
26F
100
AcDbEntity
  8
RACCORDO
100
AcDbLine
 62
250
  6
CONTINUOUS
 10
-79.3407552568
 20
26.3408771007
 11
-79.0408009483
 21
26.3408771007
  0
LINE
  5
270
100
AcDbEntity
  8
RACCORDO
100
AcDbLine
 62
250
  6
CONTINUOUS
 10
79.3407552568
 20
26.3408771007
 11
79.0408009483
 21
26.3408771007
  0
LINE
  5
271
100
AcDbEntity
  8
RACCORDO
100
AcDbLine
 62
7
  6
CONTINUOUS
 10
78.5250761524
 20
26.825
 11
-78.5250761524
 21
26.825
  0
LINE
  5
272
100
AcDbEntity
  8
RACCORDO
100
AcDbLine
 62
250
  6
CONTINUOUS
 10
-78.5408771007
 20
26.8408009483
 11
78.5408771007
 21
26.8408009483
  0
LINE
  5
273
100
AcDbEntity
  8
RACCORDO
100
AcDbLine
 62
250
  6
CONTINUOUS
 10
-78.5408771007
 20
27.1407552568
 11
78.5408771007
 21
27.1407552568
  0
LWPOLYLINE
  5
274
100
AcDbEntity
  8
RACCORDO
100
AcDbPolyline
 62
250
  6
CONTINUOUS
 90
25
 70
0
 10
78.5408770981
 20
26.8408009457
 10
78.5730742193
 20
26.8397695261
 10
78.605216003
 20
26.8366571645
 10
78.6371670177
 20
26.8314614945
 10
78.6688272769
 20
26.8241794837
 10
78.7000224817
 20
26.8148315182
 10
78.7305116261
 20
26.8034848662
 10
78.7601453137
 20
26.7902045111
 10
78.7888250311
 20
26.7750443016
 10
78.8164019612
 20
26.758094075
 10
78.8427351682
 20
26.7394609535
 10
78.8677581939
 20
26.7192133354
 10
78.8914363394
 20
26.6973860408
 10
78.9136304469
 20
26.6741110521
 10
78.9342907849
 20
26.6494444038
 10
78.9534765669
 20
26.6232715571
 10
78.9711237993
 20
26.5955696652
 10
78.9870378624
 20
26.5665218743
 10
79.0010645072
 20
26.5363152348
 10
79.0131316362
 20
26.5050016284
 10
79.0231188733
 20
26.4727719597
 10
79.0308852452
 20
26.4400613273
 10
79.0364062628
 20
26.40712413
 10
79.0397082637
 20
26.3740130721
 10
79.0408009453
 20
26.3408770977
  0
LWPOLYLINE
  5
275
100
AcDbEntity
  8
RACCORDO
100
AcDbPolyline
 62
250
  6
CONTINUOUS
 90
25
 70
0
 10
78.5408771007
 20
27.1407552568
 10
78.5927461646
 20
27.1390783191
 10
78.6440923184
 20
27.1340888073
 10
78.6949155622
 20
27.1257867214
 10
78.7454830583
 20
27.1140995518
 10
78.7955276443
 20
27.0990998082
 10
78.8442478335
 20
27.0810050198
 10
78.8915780308
 20
27.05976342
 10
78.9375838314
 20
27.0354267753
 10
78.9816605341
 20
27.0083679157
 10
79.0237332774
 20
26.9785978831
 10
79.0638769228
 20
26.9461056355
 10
79.1017113535
 20
26.9112308758
 10
79.1371962618
 20
26.8740533697
 10
79.1703719554
 20
26.8344933517
 10
79.2009792415
 20
26.7926512271
 10
79.2291281654
 20
26.7483504379
 10
79.2547086817
 20
26.7017675422
 10
79.277131461
 20
26.6535326206
 10
79.2963267915
 20
26.6034784261
 10
79.3123643851
 20
26.5517722057
 10
79.3248640477
 20
26.4995457808
 10
79.3336990483
 20
26.4471764252
 10
79.338996118
 20
26.3942868652
 10
79.3407552568
 20
26.3408771007
  0
LWPOLYLINE
  5
276
100
AcDbEntity
  8
0
100
AcDbPolyline
 62
7
  6
CONTINUOUS
 90
10
 70
0
 43
0.3500000006
 10
2.2499999785
 20
52.6273473816
 10
2.3214286122
 20
52.4844895477
 10
2.3214286122
 20
52.4130583649
 10
2.1785714865
 20
52.2702050629
 10
2.1071428528
 20
52.2702050629
 10
2.0357142191
 20
52.3416317139
 10
2.0357142191
 20
52.4130583649
 10
2.1071428528
 20
52.5559161987
 10
2.1785714865
 20
52.6273473816
 10
2.2499999785
 20
52.6273473816
  0
LINE
  5
277
100
AcDbEntity
  8
RACCORDO
100
AcDbLine
 62
250
  6
CONTINUOUS
 10
78.5408771007
 20
26.8408009483
 11
78.5250761524
 21
26.825
  0
LINE
  5
278
100
AcDbEntity
  8
RACCORDO
100
AcDbLine
 62
250
  6
CONTINUOUS
 10
79.0408009483
 20
26.3408771007
 11
79.025
 21
26.3250761524
  0
LINE
  5
279
100
AcDbEntity
  8
RACCORDO
100
AcDbLine
 62
250
  6
CONTINUOUS
 10
78.5408771007
 20
-26.8408009483
 11
78.5250761524
 21
-26.825
  0
LINE
  5
27A
100
AcDbEntity
  8
RACCORDO
100
AcDbLine
 62
250
  6
CONTINUOUS
 10
79.0408009483
 20
-26.3408771007
 11
79.025
 21
-26.3250761524
  0
LINE
  5
27B
100
AcDbEntity
  8
RACCORDO
100
AcDbLine
 62
250
  6
CONTINUOUS
 10
102.6720726233
 20
43.9200169255
 11
102.7520556979
 21
44.0
  0
LINE
  5
27C
100
AcDbEntity
  8
RACCORDO
100
AcDbLine
 62
250
  6
CONTINUOUS
 10
104.1700169255
 20
42.4220726233
 11
104.25
 21
42.5020556979
  0
LINE
  5
27D
100
AcDbEntity
  8
RACCORDO
100
AcDbLine
 62
250
  6
CONTINUOUS
 10
103.6707021581
 20
42.4220726233
 11
104.1700169255
 21
42.4220726233
  0
LINE
  5
27E
100
AcDbEntity
  8
RACCORDO
100
AcDbLine
 62
250
  6
CONTINUOUS
 10
-103.6707021581
 20
42.4220726233
 11
-104.1700169255
 21
42.4220726233
  0
LINE
  5
27F
100
AcDbEntity
  8
RACCORDO
100
AcDbLine
 62
250
  6
CONTINUOUS
 10
102.6720726233
 20
43.4207021581
 11
-102.6720726233
 21
43.4207021581
  0
LINE
  5
280
100
AcDbEntity
  8
RACCORDO
100
AcDbLine
 62
250
  6
CONTINUOUS
 10
102.6720726233
 20
43.9200169255
 11
-102.6720726233
 21
43.9200169255
  0
LINE
  5
281
100
AcDbEntity
  8
RACCORDO
100
AcDbLine
 62
7
  6
CONTINUOUS
 10
102.7520556979
 20
44.0
 11
-102.7520556979
 21
44.0
  0
LWPOLYLINE
  5
282
100
AcDbEntity
  8
0
100
AcDbPolyline
 62
7
  6
CONTINUOUS
 90
13
 70
0
 43
0.3500000006
 10
-0.3214285684
 20
53.8416321716
 10
-0.6071428907
 20
54.0559166565
 10
-0.6071428907
 20
54.6987746429
 10
-0.3214285684
 20
55.1273436127
 10
0.3214285684
 20
55.1273436127
 10
0.6071428907
 20
54.6987746429
 10
0.6071428907
 20
54.0559166565
 10
0.3214285684
 20
53.8416321716
 10
0.7500000165
 20
53.41305867
 10
0.7500000165
 20
52.5559161987
 10
0.3214285684
 20
52.127347229
 10
-0.3214285684
 20
52.127347229
 10
-0.7500000165
 20
52.5559161987
  0
LINE
  5
283
100
AcDbEntity
  8
RACCORDO
100
AcDbLine
 62
250
  6
CONTINUOUS
 10
102.6720726233
 20
-43.9200169255
 11
102.7520556979
 21
-44.0
  0
LINE
  5
284
100
AcDbEntity
  8
RACCORDO
100
AcDbLine
 62
250
  6
CONTINUOUS
 10
104.1700169255
 20
-42.4220726233
 11
104.25
 21
-42.5020556979
  0
LWPOLYLINE
  5
285
100
AcDbEntity
  8
RACCORDO
100
AcDbPolyline
 62
250
  6
CONTINUOUS
 90
31
 70
0
 10
-102.6720726233
 20
43.4207021581
 10
-102.7249998945
 20
43.4192216525
 10
-102.7772624188
 20
43.415103003
 10
-102.8288601962
 20
43.4083462094
 10
-102.8798361725
 20
43.3989250383
 10
-102.9301474019
 20
43.3868657233
 10
-102.9796650477
 20
43.3722469646
 10
-103.0284902062
 20
43.3550379665
 10
-103.0765217811
 20
43.3352695247
 10
-103.1233276466
 20
43.3131127271
 10
-103.1688776135
 20
43.2885546976
 10
-103.213201871
 20
43.2616083123
 10
-103.2559588608
 20
43.2324832871
 10
-103.2971412636
 20
43.2011599698
 10
-103.3367563987
 20
43.1676580127
 10
-103.3744846661
 20
43.1322460884
 10
-103.4103126294
 20
43.0949047474
 10
-103.444253725
 20
43.0556534392
 10
-103.4760286616
 20
43.0148191854
 10
-103.5055875565
 20
42.9724768814
 10
-103.5329802924
 20
42.9285516318
 10
-103.5580772263
 20
42.8831457715
 10
-103.5809272087
 20
42.8361805801
 10
-103.6014813889
 20
42.7877347781
 10
-103.6194635726
 20
42.7381468609
 10
-103.6348591095
 20
42.6873533385
 10
-103.6476826498
 20
42.6354177009
 10
-103.6577019492
 20
42.5828689141
 10
-103.6648395931
 20
42.5298832998
 10
-103.669172996
 20
42.4762845362
 10
-103.6707021581
 20
42.4220726233
  0
LWPOLYLINE
  5
286
100
AcDbEntity
  8
RACCORDO
100
AcDbPolyline
 62
250
  6
CONTINUOUS
 90
31
 70
0
 10
-102.6720726233
 20
43.9200169255
 10
-102.7510542261
 20
43.9178652766
 10
-102.8294524538
 20
43.9115970209
 10
-102.9070567265
 20
43.9012857551
 10
-102.9835280629
 20
43.8870444867
 10
-103.0588089971
 20
43.8689514851
 10
-103.1331073307
 20
43.846980203
 10
-103.2063754241
 20
43.8211225843
 10
-103.2782560721
 20
43.7914821095
 10
-103.3484857859
 20
43.7581634073
 10
-103.4168491437
 20
43.7212744951
 10
-103.4831939028
 20
43.6809037396
 10
-103.5473615826
 20
43.6371482221
 10
-103.6091863315
 20
43.5901192508
 10
-103.6684948565
 20
43.539947015
 10
-103.7251253126
 20
43.486767446
 10
-103.7789297595
 20
43.4307181209
 10
-103.8297588917
 20
43.3719534663
 10
-103.877462998
 20
43.3106487838
 10
-103.921838977
 20
43.2470876438
 10
-103.9628598965
 20
43.1813326715
 10
-104.0006036243
 20
43.1132064413
 10
-104.0349689734
 20
43.0427491422
 10
-104.0657445495
 20
42.9702356732
 10
-104.0927973326
 20
42.8958222679
 10
-104.1160097185
 20
42.8196299925
 10
-104.1352307128
 20
42.7419169141
 10
-104.1503147701
 20
42.6630652083
 10
-104.1611769754
 20
42.5833528805
 10
-104.1677627766
 20
42.5029456412
 10
-104.1700169255
 20
42.4220726233
  0
LWPOLYLINE
  5
287
100
AcDbEntity
  8
0
100
AcDbPolyline
 62
7
  6
CONTINUOUS
 90
8
 70
0
 43
0.3500000006
 10
3.3214284925
 20
52.127347229
 10
4.1785715303
 20
52.127347229
 10
4.607142766
 20
52.5559161987
 10
4.607142766
 20
53.41305867
 10
4.1785715303
 20
53.8416321716
 10
3.3214284925
 20
53.8416321716
 10
3.3214284925
 20
55.1273436127
 10
4.607142766
 20
55.1273436127
  0
LWPOLYLINE
  5
288
100
AcDbEntity
  8
0
100
AcDbPolyline
 62
7
  6
CONTINUOUS
 90
7
 70
0
 43
0.3500000006
 10
-3.9642856293
 20
52.127347229
 10
-5.4642855206
 20
52.127347229
 10
-3.9642856293
 20
54.2702011414
 10
-3.9642856293
 20
54.6987746429
 10
-4.3928571482
 20
55.1273436127
 10
-5.0357142849
 20
55.1273436127
 10
-5.4642855206
 20
54.4844901581
  0
LINE
  5
289
100
AcDbEntity
  8
RACCORDO
100
AcDbLine
 62
250
  6
CONTINUOUS
 10
78.5408771007
 20
27.1407552568
 11
78.5408771007
 21
26.8408009483
  0
LINE
  5
28A
100
AcDbEntity
  8
RACCORDO
100
AcDbLine
 62
250
  6
CONTINUOUS
 10
78.5408771007
 20
-27.1407552568
 11
78.5408771007
 21
-26.8408009483
  0
LINE
  5
28B
100
AcDbEntity
  8
RACCORDO
100
AcDbLine
 62
7
  6
CONTINUOUS
 10
79.025
 20
-26.3250761524
 11
79.025
 21
26.3250761524
  0
LINE
  5
28C
100
AcDbEntity
  8
RACCORDO
100
AcDbLine
 62
250
  6
CONTINUOUS
 10
79.0408009483
 20
26.3408771007
 11
79.0408009483
 21
-26.3408771007
  0
LINE
  5
28D
100
AcDbEntity
  8
RACCORDO
100
AcDbLine
 62
250
  6
CONTINUOUS
 10
79.3407552568
 20
26.3408771007
 11
79.3407552568
 21
-26.3408771007
  0
LWPOLYLINE
  5
28E
100
AcDbEntity
  8
RACCORDO
100
AcDbPolyline
 62
250
  6
CONTINUOUS
 90
25
 70
0
 10
79.0408009457
 20
-26.3408770981
 10
79.0397695261
 20
-26.3730742193
 10
79.0366571645
 20
-26.405216003
 10
79.0314614945
 20
-26.4371670177
 10
79.0241794837
 20
-26.4688272769
 10
79.0148315182
 20
-26.5000224817
 10
79.0034848662
 20
-26.5305116261
 10
78.9902045111
 20
-26.5601453137
 10
78.9750443016
 20
-26.5888250311
 10
78.958094075
 20
-26.6164019612
 10
78.9394609535
 20
-26.6427351682
 10
78.9192133354
 20
-26.6677581939
 10
78.8973860408
 20
-26.6914363394
 10
78.8741110521
 20
-26.7136304469
 10
78.8494444038
 20
-26.7342907849
 10
78.8232715571
 20
-26.7534765669
 10
78.7955696652
 20
-26.7711237993
 10
78.7665218743
 20
-26.7870378624
 10
78.7363152348
 20
-26.8010645072
 10
78.7050016284
 20
-26.8131316362
 10
78.6727719597
 20
-26.8231188733
 10
78.6400613273
 20
-26.8308852452
 10
78.60712413
 20
-26.8364062628
 10
78.5740130721
 20
-26.8397082637
 10
78.5408770977
 20
-26.8408009453
  0
LWPOLYLINE
  5
28F
100
AcDbEntity
  8
RACCORDO
100
AcDbPolyline
 62
250
  6
CONTINUOUS
 90
25
 70
0
 10
79.3407552568
 20
-26.3408771007
 10
79.3390783191
 20
-26.3927461646
 10
79.3340888073
 20
-26.4440923184
 10
79.3257867214
 20
-26.4949155622
 10
79.3140995518
 20
-26.5454830583
 10
79.2990998082
 20
-26.5955276443
 10
79.2810050198
 20
-26.6442478335
 10
79.25976342
 20
-26.6915780308
 10
79.2354267753
 20
-26.7375838314
 10
79.2083679157
 20
-26.7816605341
 10
79.1785978831
 20
-26.8237332774
 10
79.1461056355
 20
-26.8638769228
 10
79.1112308758
 20
-26.9017113535
 10
79.0740533697
 20
-26.9371962618
 10
79.0344933517
 20
-26.9703719554
 10
78.9926512271
 20
-27.0009792415
 10
78.9483504379
 20
-27.0291281654
 10
78.9017675422
 20
-27.0547086817
 10
78.8535326206
 20
-27.077131461
 10
78.8034784261
 20
-27.0963267915
 10
78.7517722057
 20
-27.1123643851
 10
78.6995457808
 20
-27.1248640477
 10
78.6471764252
 20
-27.1336990483
 10
78.5942868652
 20
-27.138996118
 10
78.5408771007
 20
-27.1407552568
  0
LWPOLYLINE
  5
290
100
AcDbEntity
  8
0
100
AcDbPolyline
 62
7
  6
CONTINUOUS
 90
13
 70
0
 43
0.3500000006
 10
110.7959823303
 20
0.4285709152
 10
110.5816887817
 20
0.1428575134
 10
109.9388353271
 20
0.1428575134
 10
109.5102663574
 20
0.4285709152
 10
109.5102663574
 20
1.0714289017
 10
109.9388353271
 20
1.3571423035
 10
110.5816887817
 20
1.3571423035
 10
110.7959823303
 20
1.0714289017
 10
111.2245513
 20
1.5000001373
 10
112.0816892395
 20
1.5000001373
 10
112.5102672729
 20
1.0714289017
 10
112.5102672729
 20
0.4285709152
 10
112.0816892395
 20
-0.0000003204
  0
LWPOLYLINE
  5
291
100
AcDbEntity
  8
0
100
AcDbPolyline
 62
7
  6
CONTINUOUS
 90
13
 70
0
 43
0.3500000006
 10
110.7959823303
 20
-1.9285708809
 10
110.5816887817
 20
-2.2142854156
 10
109.9388353271
 20
-2.2142854156
 10
109.5102663574
 20
-1.9285708809
 10
109.5102663574
 20
-1.2857140274
 10
109.9388353271
 20
-1.0000006256
 10
110.5816887817
 20
-1.0000006256
 10
110.7959823303
 20
-1.2857140274
 10
111.2245513
 20
-0.8571427917
 10
112.0816892395
 20
-0.8571427917
 10
112.5102672729
 20
-1.2857140274
 10
112.5102672729
 20
-1.9285708809
 10
112.0816892395
 20
-2.3571432495
  0
LWPOLYLINE
  5
292
100
AcDbEntity
  8
RACCORDO
100
AcDbPolyline
 62
250
  6
CONTINUOUS
 90
31
 70
0
 10
103.6707021581
 20
42.4220726233
 10
103.6692216525
 20
42.4749998945
 10
103.665103003
 20
42.5272624188
 10
103.6583462094
 20
42.5788601962
 10
103.6489250383
 20
42.6298361725
 10
103.6368657233
 20
42.6801474019
 10
103.6222469646
 20
42.7296650477
 10
103.6050379665
 20
42.7784902062
 10
103.5852695247
 20
42.8265217811
 10
103.5631127271
 20
42.8733276466
 10
103.5385546976
 20
42.9188776135
 10
103.5116083123
 20
42.963201871
 10
103.4824832871
 20
43.0059588608
 10
103.4511599698
 20
43.0471412636
 10
103.4176580127
 20
43.0867563987
 10
103.3822460884
 20
43.1244846661
 10
103.3449047474
 20
43.1603126294
 10
103.3056534392
 20
43.194253725
 10
103.2648191854
 20
43.2260286616
 10
103.2224768814
 20
43.2555875565
 10
103.1785516318
 20
43.2829802924
 10
103.1331457715
 20
43.3080772263
 10
103.0861805801
 20
43.3309272087
 10
103.0377347781
 20
43.3514813889
 10
102.9881468609
 20
43.3694635726
 10
102.9373533385
 20
43.3848591095
 10
102.8854177009
 20
43.3976826498
 10
102.8328689141
 20
43.4077019492
 10
102.7798832998
 20
43.4148395931
 10
102.7262845362
 20
43.419172996
 10
102.6720726233
 20
43.4207021581
  0
LWPOLYLINE
  5
293
100
AcDbEntity
  8
RACCORDO
100
AcDbPolyline
 62
250
  6
CONTINUOUS
 90
31
 70
0
 10
104.1700169255
 20
42.4220726233
 10
104.1678652766
 20
42.5010542261
 10
104.1615970209
 20
42.5794524538
 10
104.1512857551
 20
42.6570567265
 10
104.1370444867
 20
42.7335280629
 10
104.1189514851
 20
42.8088089971
 10
104.096980203
 20
42.8831073307
 10
104.0711225843
 20
42.9563754241
 10
104.0414821095
 20
43.0282560721
 10
104.0081634073
 20
43.0984857859
 10
103.9712744951
 20
43.1668491437
 10
103.9309037396
 20
43.2331939028
 10
103.8871482221
 20
43.2973615826
 10
103.8401192508
 20
43.3591863315
 10
103.789947015
 20
43.4184948565
 10
103.736767446
 20
43.4751253126
 10
103.6807181209
 20
43.5289297595
 10
103.6219534663
 20
43.5797588917
 10
103.5606487838
 20
43.627462998
 10
103.4970876438
 20
43.671838977
 10
103.4313326715
 20
43.7128598965
 10
103.3632064413
 20
43.7506036243
 10
103.2927491422
 20
43.7849689734
 10
103.2202356732
 20
43.8157445495
 10
103.1458222679
 20
43.8427973326
 10
103.0696299925
 20
43.8660097185
 10
102.9919169141
 20
43.8852307128
 10
102.9130652083
 20
43.9003147701
 10
102.8333528805
 20
43.9111769754
 10
102.7529456412
 20
43.9177627766
 10
102.6720726233
 20
43.9200169255
  0
LINE
  5
294
100
AcDbEntity
  8
RACCORDO
100
AcDbLine
 62
250
  6
CONTINUOUS
 10
102.6720726233
 20
-43.4207021581
 11
102.6720726233
 21
-43.9200169255
  0
LINE
  5
295
100
AcDbEntity
  8
RACCORDO
100
AcDbLine
 62
250
  6
CONTINUOUS
 10
102.6720726233
 20
43.4207021581
 11
102.6720726233
 21
43.9200169255
  0
LINE
  5
296
100
AcDbEntity
  8
RACCORDO
100
AcDbLine
 62
250
  6
CONTINUOUS
 10
103.6707021581
 20
-42.4220726233
 11
103.6707021581
 21
42.4220726233
  0
LINE
  5
297
100
AcDbEntity
  8
RACCORDO
100
AcDbLine
 62
250
  6
CONTINUOUS
 10
104.1700169255
 20
-42.4220726233
 11
104.1700169255
 21
42.4220726233
  0
LINE
  5
298
100
AcDbEntity
  8
RACCORDO
100
AcDbLine
 62
7
  6
CONTINUOUS
 10
104.25
 20
-42.5020556979
 11
104.25
 21
42.5020556979
  0
LWPOLYLINE
  5
299
100
AcDbEntity
  8
0
100
AcDbPolyline
 62
7
  6
CONTINUOUS
 90
3
 70
0
 43
0.3500000006
 10
-144.1947507935
 20
62.3788050842
 10
-143.337612854
 20
63.2359430237
 10
-143.337612854
 20
60.2359511719
  0
LWPOLYLINE
  5
29A
100
AcDbEntity
  8
0
100
AcDbPolyline
 62
7
  6
CONTINUOUS
 90
5
 70
0
 43
0.3500000006
 10
-137.5518955078
 20
61.9502361145
 10
-137.1947486572
 20
62.1645205994
 10
-137.1947486572
 20
62.807374054
 10
-137.5518955078
 20
63.2359430237
 10
-138.4090334473
 20
63.2359430237
  0
LINE
  5
29B
100
AcDbEntity
  8
RACCORDO
100
AcDbLine
 62
7
  6
CONTINUOUS
 10
-131.6458201906
 20
-43.9200169255
 11
-130.1196522125
 21
-44.0
  0
LWPOLYLINE
  5
29C
100
AcDbEntity
  8
RACCORDO
100
AcDbPolyline
 62
250
  6
CONTINUOUS
 90
13
 70
0
 10
-129.7825563921
 20
-43.6941161324
 10
-129.7648634593
 20
-43.6930210629
 10
-129.7473370522
 20
-43.6903626042
 10
-129.7301149493
 20
-43.6861616547
 10
-129.7133325368
 20
-43.6804512387
 10
-129.6971217444
 20
-43.6732762466
 10
-129.6816100082
 20
-43.6646930818
 10
-129.666919269
 20
-43.6547692181
 10
-129.6531650137
 20
-43.6435826685
 10
-129.6404553671
 20
-43.6312213723
 10
-129.6288902426
 20
-43.6177825037
 10
-129.618560556
 20
-43.603371708
 10
-129.6095475115
 20
-43.5881022712
  0
LINE
  5
29D
100
AcDbEntity
  8
RACCORDO
100
AcDbLine
 62
7
  6
CONTINUOUS
 10
-129.7825466278
 20
-43.6941158001
 11
-130.1196522125
 21
-43.7
  0
LINE
  5
29E
100
AcDbEntity
  8
RACCORDO
100
AcDbLine
 62
7
  6
CONTINUOUS
 10
-124.5161617312
 20
-43.1147841539
 11
-129.4096216056
 21
-43.2001998138
  0
LINE
  5
29F
100
AcDbEntity
  8
RACCORDO
100
AcDbLine
 62
250
  6
CONTINUOUS
 10
-124.5161617312
 20
-42.4148907673
 11
-129.4096322407
 21
-42.5003066128
  0
LINE
  5
2A0
100
AcDbEntity
  8
RACCORDO
100
AcDbLine
 62
250
  6
CONTINUOUS
 10
-129.8949290964
 20
-42.5001739718
 11
-130.1196522125
 21
-42.5019525631
  0
LINE
  5
2A1
100
AcDbEntity
  8
RACCORDO
100
AcDbLine
 62
250
  6
CONTINUOUS
 10
-132.1196522125
 20
-42.4220726233
 11
-131.6458201906
 21
-42.4220726233
  0
LINE
  5
2A2
100
AcDbEntity
  8
RACCORDO
100
AcDbLine
 62
250
  6
CONTINUOUS
 10
-124.3196522125
 20
-42.4148907673
 11
-124.5161617312
 21
-42.4148907673
  0
LINE
  5
2A3
100
AcDbEntity
  8
RACCORDO
100
AcDbLine
 62
250
  6
CONTINUOUS
 10
-129.781965379
 20
-42.4572818769
 11
-129.6096808432
 21
-42.4573504316
  0
LWPOLYLINE
  5
2A4
100
AcDbEntity
  8
RACCORDO
100
AcDbPolyline
 62
250
  6
CONTINUOUS
 90
3
 70
0
 10
-129.7825600172
 20
-42.5006185984
 10
-129.8200171973
 20
-42.5003222528
 10
-129.8949290964
 20
-42.5001739718
  0
LINE
  5
2A5
100
AcDbEntity
  8
RACCORDO
100
AcDbLine
 62
250
  6
CONTINUOUS
 10
-129.7825697987
 20
-42.5010625495
 11
-129.6095562096
 21
-42.5056034666
  0
LINE
  5
2A6
100
AcDbEntity
  8
RACCORDO
100
AcDbLine
 62
250
  6
CONTINUOUS
 10
-131.6458201906
 20
-42.4220726233
 11
-130.1196522125
 21
-42.5020556979
  0
LWPOLYLINE
  5
2A7
100
AcDbEntity
  8
RACCORDO
100
AcDbPolyline
 62
250
  6
CONTINUOUS
 90
19
 70
0
 10
-129.7825470185
 20
-43.6941160497
 10
-129.7828530522
 20
-43.6940443058
 10
-129.7831535512
 20
-43.6938059456
 10
-129.7834485154
 20
-43.6933978619
 10
-129.7837364491
 20
-43.6928234797
 10
-129.784018848
 20
-43.6920764522
 10
-129.7843001998
 20
-43.691123867
 10
-129.7845830261
 20
-43.689935713
 10
-129.7848648053
 20
-43.688500094
 10
-129.7851424598
 20
-43.6867943394
 10
-129.7854154322
 20
-43.6847973789
 10
-129.7856842798
 20
-43.6824859458
 10
-129.7859475975
 20
-43.6798303877
 10
-129.7862046858
 20
-43.6768025448
 10
-129.786456244
 20
-43.6733786833
 10
-129.7867029651
 20
-43.6695330103
 10
-129.786944317
 20
-43.6652417794
 10
-129.7871808316
 20
-43.660475854
 10
-129.7874147981
 20
-43.6551987219
  0
LWPOLYLINE
  5
2A8
100
AcDbEntity
  8
0
100
AcDbPolyline
 62
7
  6
CONTINUOUS
 90
25
 70
0
 10
-129.4096216056
 20
-43.2001998138
 10
-129.414171931
 20
-43.1987863694
 10
-129.4182825722
 20
-43.1943917192
 10
-129.4219564055
 20
-43.1870436509
 10
-129.4251812244
 20
-43.1767869519
 10
-129.4279741306
 20
-43.1636716712
 10
-129.4303817923
 20
-43.1477410665
 10
-129.4324174196
 20
-43.1290799174
 10
-129.4340714243
 20
-43.1077510336
 10
-129.4353569546
 20
-43.08373946
 10
-129.4362824398
 20
-43.0570473684
 10
-129.4368436037
 20
-43.0278134874
 10
-129.4370342629
 20
-42.9962379646
 10
-129.4368507155
 20
-42.9624251299
 10
-129.4362972998
 20
-42.9265388902
 10
-129.4353774724
 20
-42.8889381607
 10
-129.4340924796
 20
-42.8499164685
 10
-129.4324368789
 20
-42.8095637103
 10
-129.430403003
 20
-42.7679580816
 10
-129.4280054319
 20
-42.7253091998
 10
-129.4252251739
 20
-42.6817767697
 10
-129.4220052317
 20
-42.6373459144
 10
-129.418325559
 20
-42.5921307051
 10
-129.414202096
 20
-42.546386358
 10
-129.4061526931
 20
-42.4643981515
  0
LWPOLYLINE
  5
2A9
100
AcDbEntity
  8
0
100
AcDbPolyline
 62
7
  6
CONTINUOUS
 90
3
 70
0
 43
0.3500000006
 10
-139.4090337524
 20
60.5216577759
 10
-139.4804649353
 20
60.307373291
 10
-139.623327301
 20
60.0216576233
  0
LINE
  5
2AA
100
AcDbEntity
  8
0
100
AcDbLine
 62
7
  6
CONTINUOUS
 10
-132.1196522125
 20
-31.5801797807
 11
-132.2196522125
 21
-31.5801797807
  0
LINE
  5
2AB
100
AcDbEntity
  8
0
100
AcDbLine
 62
250
  6
CONTINUOUS
 10
-132.1196522125
 20
-30.9036074326
 11
-132.2196522125
 21
-30.9036074326
  0
LINE
  5
2AC
100
AcDbEntity
  8
0
100
AcDbLine
 62
7
  6
CONTINUOUS
 10
-132.1196522125
 20
-30.4133253901
 11
-132.2196522125
 21
-30.4133253901
  0
LINE
  5
2AD
100
AcDbEntity
  8
0
100
AcDbLine
 62
7
  6
CONTINUOUS
 10
-132.1196522125
 20
-30.3985541322
 11
-132.2196522125
 21
-30.3985541322
  0
LWPOLYLINE
  5
2AE
100
AcDbEntity
  8
0
100
AcDbPolyline
 62
7
  6
CONTINUOUS
 90
3
 70
0
 43
0.3500000006
 10
-139.8382009277
 20
52.648719635
 10
-139.9096321106
 20
52.4344306183
 10
-140.0524854126
 20
52.1487194824
  0
LINE
  5
2AF
100
AcDbEntity
  8
0
100
AcDbLine
 62
250
  6
CONTINUOUS
 10
-132.1196522125
 20
-29.1359677442
 11
-132.2196522125
 21
-29.1359677442
  0
LINE
  5
2B0
100
AcDbEntity
  8
0
100
AcDbLine
 62
7
  6
CONTINUOUS
 10
-132.1196522125
 20
-29.051114715
 11
-132.2196522125
 21
-29.051114715
  0
LWPOLYLINE
  5
2B1
100
AcDbEntity
  8
RACCORDO
100
AcDbPolyline
 62
250
  6
CONTINUOUS
 90
10
 70
0
 10
-131.6458201906
 20
-43.9200169255
 10
-131.6471503058
 20
-43.9178652766
 10
-131.6484072744
 20
-43.9115970209
 10
-131.6495839173
 20
-43.9012857551
 10
-131.650667559
 20
-43.8870444867
 10
-131.6516601226
 20
-43.8689514851
 10
-131.6525736057
 20
-43.846980203
 10
-131.6534013369
 20
-43.8211225843
 10
-131.6541337715
 20
-43.7914821095
 10
-131.6547763406
 20
-43.7581634073
  0
LWPOLYLINE
  5
2B2
100
AcDbEntity
  8
0
100
AcDbPolyline
 62
7
  6
CONTINUOUS
 90
4
 70
0
 43
0.3500000006
 10
-142.9096330261
 20
54.7201468964
 10
-142.9096330261
 20
55.3630048828
 10
-141.4096325684
 20
55.3630048828
 10
-142.2667705078
 20
52.3630039673
  0
LWPOLYLINE
  5
2B3
100
AcDbEntity
  8
0
100
AcDbPolyline
 62
7
  6
CONTINUOUS
 90
13
 70
0
 43
0.3500000006
 10
-142.4804658508
 20
61.0930891113
 10
-142.4804658508
 20
62.3788050842
 10
-142.266181366
 20
62.807374054
 10
-141.8376123962
 20
63.2359430237
 10
-141.6233188477
 20
63.2359430237
 10
-141.1947498779
 20
62.807374054
 10
-140.9804653931
 20
62.3788050842
 10
-140.9804653931
 20
61.0930891113
 10
-141.1947498779
 20
60.6645201416
 10
-141.6233188477
 20
60.2359511719
 10
-141.8376123962
 20
60.2359511719
 10
-142.266181366
 20
60.6645201416
 10
-142.4804658508
 20
61.0930891113
  0
LWPOLYLINE
  5
2B4
100
AcDbEntity
  8
RACCORDO
100
AcDbPolyline
 62
250
  6
CONTINUOUS
 90
10
 70
0
 10
-129.6095475116
 20
43.5881022709
 10
-129.6094970826
 20
43.5882559262
 10
-129.6094629688
 20
43.5884121971
 10
-129.6094451703
 20
43.5885707465
 10
-129.6094432626
 20
43.5887303902
 10
-129.6094576703
 20
43.5888915593
 10
-129.6094896662
 20
43.5890562253
 10
-129.6095396748
 20
43.58922464
 10
-129.6096072718
 20
43.5893954019
 10
-129.609692457
 20
43.5895678673
  0
LINE
  5
2B5
100
AcDbEntity
  8
RACCORDO
100
AcDbLine
 62
7
  6
CONTINUOUS
 10
-122.1195002109
 20
-15.2044750244
 11
-124.3196522125
 21
-15.7734730203
  0
LINE
  5
2B6
100
AcDbEntity
  8
RACCORDO
100
AcDbLine
 62
250
  6
CONTINUOUS
 10
-122.1678309046
 20
-15.0108454963
 11
-124.3196522125
 21
-15.567344325
  0
LINE
  5
2B7
100
AcDbEntity
  8
RACCORDO
100
AcDbLine
 62
250
  6
CONTINUOUS
 10
-121.8196522125
 20
-14.8172159683
 11
-122.0179069054
 21
-14.8172159683
  0
LINE
  5
2B8
100
AcDbEntity
  8
RACCORDO
100
AcDbLine
 62
250
  6
CONTINUOUS
 10
-121.8196522125
 20
-14.733486243
 11
-122.0179069054
 21
-14.733486243
  0
LWPOLYLINE
  5
2B9
100
AcDbEntity
  8
RACCORDO
100
AcDbPolyline
 62
250
  6
CONTINUOUS
 90
14
 70
0
 10
-129.6095475115
 20
-43.5881022712
 10
-129.6096892689
 20
-43.5876903434
 10
-129.6098306317
 20
-43.5871309337
 10
-129.6099715999
 20
-43.5864242892
 10
-129.6101128387
 20
-43.5855821934
 10
-129.610253683
 20
-43.5845953167
 10
-129.610392137
 20
-43.5834187041
 10
-129.6105286767
 20
-43.582023327
 10
-129.6106628263
 20
-43.5804043855
 10
-129.6107911622
 20
-43.5785383583
 10
-129.610912935
 20
-43.5764066923
 10
-129.6110288942
 20
-43.5739901295
 10
-129.611137865
 20
-43.5712612212
 10
-129.6112387996
 20
-43.5681927519
  0
LWPOLYLINE
  5
2BA
100
AcDbEntity
  8
0
100
AcDbPolyline
 62
7
  6
CONTINUOUS
 90
4
 70
0
 43
0.3500000006
 10
-138.8382006226
 20
52.7915774689
 10
-138.8382006226
 20
53.6487199402
 10
-138.4096316528
 20
54.0772889099
 10
-137.7667781982
 20
54.0772889099
  0
LWPOLYLINE
  5
2BB
100
AcDbEntity
  8
RACCORDO
100
AcDbPolyline
 62
250
  6
CONTINUOUS
 90
13
 70
0
 10
-123.3604637798
 20
-12.4437303414
 10
-123.3240667792
 20
-12.4423115168
 10
-123.2876968339
 20
-12.439177683
 10
-123.251353944
 20
-12.43432884
 10
-123.2151911074
 20
-12.4278922188
 10
-123.1790553261
 20
-12.4197405884
 10
-123.1424876062
 20
-12.4094922563
 10
-123.1052433952
 20
-12.397169411
 10
-123.0675672456
 20
-12.382749864
 10
-123.0297338205
 20
-12.3657853573
 10
-122.9918346744
 20
-12.3461264715
 10
-122.9537782529
 20
-12.323922626
 10
-122.9155645559
 20
-12.2991738207
  0
LINE
  5
2BC
100
AcDbEntity
  8
RACCORDO
100
AcDbLine
 62
7
  6
CONTINUOUS
 10
-123.7155318416
 20
-12.6499280787
 11
-123.3587186057
 21
-12.6436998805
  0
LINE
  5
2BD
100
AcDbEntity
  8
RACCORDO
100
AcDbLine
 62
250
  6
CONTINUOUS
 10
-123.99898598
 20
-12.4548757879
 11
-123.3604637798
 21
-12.4437303414
  0
LINE
  5
2BE
100
AcDbEntity
  8
RACCORDO
100
AcDbLine
 62
250
  6
CONTINUOUS
 10
-122.0179069054
 20
-11.566513757
 11
-121.8196522125
 21
-11.566513757
  0
LINE
  5
2BF
100
AcDbEntity
  8
RACCORDO
100
AcDbLine
 62
250
  6
CONTINUOUS
 10
-122.0179069054
 20
-11.4827840317
 11
-121.8196522125
 21
-11.4827840317
  0
LINE
  5
2C0
100
AcDbEntity
  8
RACCORDO
100
AcDbLine
 62
250
  6
CONTINUOUS
 10
-123.99898598
 20
-13.8451242121
 11
-123.3604637798
 21
-13.8562696586
  0
LINE
  5
2C1
100
AcDbEntity
  8
RACCORDO
100
AcDbLine
 62
7
  6
CONTINUOUS
 10
-123.7155318416
 20
-13.6500719213
 11
-123.3587186057
 21
-13.6563001195
  0
LWPOLYLINE
  5
2C2
100
AcDbEntity
  8
RACCORDO
100
AcDbPolyline
 62
250
  6
CONTINUOUS
 90
13
 70
0
 10
-123.3604637798
 20
-13.8562696586
 10
-123.3211794555
 20
-13.8579307349
 10
-123.2821986662
 20
-13.8614843284
 10
-123.243521412
 20
-13.866930439
 10
-123.2050891084
 20
-13.8742733928
 10
-123.1669603399
 20
-13.8835088636
 10
-123.1293108597
 20
-13.8946238738
 10
-123.0921350293
 20
-13.9076115832
 10
-123.0554384872
 20
-13.9224788319
 10
-123.019413902
 20
-13.9392331617
 10
-122.9841254964
 20
-13.9578770865
 10
-122.9495090478
 20
-13.9784080923
 10
-122.9155645559
 20
-14.0008261793
  0
LWPOLYLINE
  5
2C3
100
AcDbEntity
  8
RACCORDO
100
AcDbPolyline
 62
250
  6
CONTINUOUS
 90
13
 70
0
 10
-122.1031916182
 20
14.5696558341
 10
-122.0903556138
 20
14.5794920491
 10
-122.0784973269
 20
14.5901162389
 10
-122.0676167575
 20
14.6015284033
 10
-122.0576796272
 20
14.6137736713
 10
-122.0487202144
 20
14.6268069141
 10
-122.0408413544
 20
14.6404927451
 10
-122.0340239395
 20
14.6548806678
 10
-122.0282870775
 20
14.6699211788
 10
-122.0237909272
 20
14.6853303814
 10
-122.0205888749
 20
14.7010136436
 10
-122.0186275343
 20
14.7170655974
 10
-122.0179069054
 20
14.733486243
  0
LINE
  5
2C4
100
AcDbEntity
  8
RACCORDO
100
AcDbLine
 62
250
  6
CONTINUOUS
 10
-122.9155645559
 20
14.0008261793
 11
-122.1031916182
 21
14.5696558341
  0
LINE
  5
2C5
100
AcDbEntity
  8
RACCORDO
100
AcDbLine
 62
7
  6
CONTINUOUS
 10
-122.8025945757
 20
13.8369957704
 11
-121.990221638
 21
14.4058254253
  0
LINE
  5
2C6
100
AcDbEntity
  8
RACCORDO
100
AcDbLine
 62
7
  6
CONTINUOUS
 10
-123.99898598
 20
12.4548757879
 11
-124.3196522125
 21
12.2697108528
  0
LINE
  5
2C7
100
AcDbEntity
  8
RACCORDO
100
AcDbLine
 62
7
  6
CONTINUOUS
 10
-124.0552144483
 20
12.4558572595
 11
-124.3196522125
 21
12.3032072998
  0
LINE
  5
2C8
100
AcDbEntity
  8
RACCORDO
100
AcDbLine
 62
250
  6
CONTINUOUS
 10
-122.1678309046
 20
-11.2891545037
 11
-124.3196522125
 21
-10.732655675
  0
LINE
  5
2C9
100
AcDbEntity
  8
RACCORDO
100
AcDbLine
 62
7
  6
CONTINUOUS
 10
-122.1195002109
 20
-11.0955249756
 11
-124.3196522125
 21
-10.5265269797
  0
LINE
  5
2CA
100
AcDbEntity
  8
RACCORDO
100
AcDbLine
 62
7
  6
CONTINUOUS
 10
-124.3196522125
 20
-12.3032072998
 11
-124.0552144483
 21
-12.4558572595
  0
LINE
  5
2CB
100
AcDbEntity
  8
RACCORDO
100
AcDbLine
 62
7
  6
CONTINUOUS
 10
-124.3196522125
 20
-12.2697108528
 11
-123.99898598
 21
-12.4548757879
  0
LINE
  5
2CC
100
AcDbEntity
  8
RACCORDO
100
AcDbLine
 62
250
  6
CONTINUOUS
 10
-122.9155645559
 20
-14.0008261793
 11
-122.1031916182
 21
-14.5696558341
  0
LINE
  5
2CD
100
AcDbEntity
  8
RACCORDO
100
AcDbLine
 62
7
  6
CONTINUOUS
 10
-122.8025945757
 20
-13.8369957704
 11
-121.990221638
 21
-14.4058254253
  0
LWPOLYLINE
  5
2CE
100
AcDbEntity
  8
RACCORDO
100
AcDbPolyline
 62
250
  6
CONTINUOUS
 90
16
 70
0
 10
-122.1031916182
 20
-14.5696558341
 10
-122.0931712891
 20
-14.5771700559
 10
-122.0837164193
 20
-14.5851991479
 10
-122.0748270088
 20
-14.5937431101
 10
-122.0664921242
 20
-14.6028069562
 10
-122.0587226988
 20
-14.6123856726
 10
-122.0515515328
 20
-14.6224642181
 10
-122.0449576933
 20
-14.6330464216
 10
-122.0389621132
 20
-14.6441284543
 10
-122.033660391
 20
-14.6556837886
 10
-122.0290364435
 20
-14.6677560198
 10
-122.0251063539
 20
-14.6803015527
 10
-122.0220139705
 20
-14.6931630728
 10
-122.0198072427
 20
-14.7062881422
 10
-122.018438221
 20
-14.7197291989
 10
-122.0179069054
 20
-14.733486243
  0
LINE
  5
2CF
100
AcDbEntity
  8
RACCORDO
100
AcDbLine
 62
250
  6
CONTINUOUS
 10
-129.7874147981
 20
-43.6551987219
 11
-129.787874953
 21
-43.6430091866
  0
LINE
  5
2D0
100
AcDbEntity
  8
RACCORDO
100
AcDbLine
 62
250
  6
CONTINUOUS
 10
-129.787874953
 20
-43.6430091866
 11
-129.7883332149
 21
-43.6282958032
  0
LINE
  5
2D1
100
AcDbEntity
  8
RACCORDO
100
AcDbLine
 62
250
  6
CONTINUOUS
 10
-129.7883332149
 20
-43.6282958032
 11
-129.7887920627
 21
-43.6106392957
  0
LINE
  5
2D2
100
AcDbEntity
  8
RACCORDO
100
AcDbLine
 62
250
  6
CONTINUOUS
 10
-129.6112387996
 20
-43.5681927519
 11
-129.611421673
 21
-43.5609550207
  0
LINE
  5
2D3
100
AcDbEntity
  8
RACCORDO
100
AcDbLine
 62
250
  6
CONTINUOUS
 10
-129.7887920627
 20
-43.6106392957
 11
-129.7894798058
 21
-43.57725222
  0
LINE
  5
2D4
100
AcDbEntity
  8
RACCORDO
100
AcDbLine
 62
250
  6
CONTINUOUS
 10
-129.611421673
 20
-43.5609550207
 11
-129.6115831728
 21
-43.5520924663
  0
LINE
  5
2D5
100
AcDbEntity
  8
RACCORDO
100
AcDbLine
 62
250
  6
CONTINUOUS
 10
-131.6458201906
 20
42.4220726233
 11
-131.6516601226
 21
42.8088089971
  0
LINE
  5
2D6
100
AcDbEntity
  8
RACCORDO
100
AcDbLine
 62
250
  6
CONTINUOUS
 10
-129.7894798058
 20
-43.57725222
 11
-129.7901178157
 21
-43.5335764153
  0
LINE
  5
2D7
100
AcDbEntity
  8
RACCORDO
100
AcDbLine
 62
250
  6
CONTINUOUS
 10
-129.609534219
 20
-42.4678000216
 11
-129.6096804677
 21
-42.4573501523
  0
LINE
  5
2D8
100
AcDbEntity
  8
RACCORDO
100
AcDbLine
 62
250
  6
CONTINUOUS
 10
-131.6547763406
 20
-43.7581634073
 11
-131.6557762279
 21
-43.6809037396
  0
LINE
  5
2D9
100
AcDbEntity
  8
RACCORDO
100
AcDbLine
 62
250
  6
CONTINUOUS
 10
-129.6115831728
 20
-43.5520924663
 11
-129.6119704638
 21
-43.5213456275
  0
LINE
  5
2DA
100
AcDbEntity
  8
RACCORDO
100
AcDbLine
 62
250
  6
CONTINUOUS
 10
-131.6516601226
 20
42.8088089971
 11
-131.6553257053
 21
43.1668491437
  0
LINE
  5
2DB
100
AcDbEntity
  8
RACCORDO
100
AcDbLine
 62
250
  6
CONTINUOUS
 10
-129.7901178157
 20
-43.5335764153
 11
-129.7906318736
 21
-43.4787649511
  0
LINE
  5
2DC
100
AcDbEntity
  8
RACCORDO
100
AcDbLine
 62
250
  6
CONTINUOUS
 10
-129.6119704638
 20
-43.5213456275
 11
-129.6127309014
 21
-43.4337459836
  0
LINE
  5
2DD
100
AcDbEntity
  8
RACCORDO
100
AcDbLine
 62
250
  6
CONTINUOUS
 10
-129.6094569797
 20
-42.4784093318
 11
-129.609534219
 21
-42.4678000216
  0
LINE
  5
2DE
100
AcDbEntity
  8
RACCORDO
100
AcDbLine
 62
250
  6
CONTINUOUS
 10
-131.6557762279
 20
-43.6809037396
 11
-131.6563902992
 21
-43.5901192508
  0
LINE
  5
2DF
100
AcDbEntity
  8
RACCORDO
100
AcDbLine
 62
250
  6
CONTINUOUS
 10
-131.6553257053
 20
43.1668491437
 11
-131.6565487304
 21
43.4184948565
  0
LINE
  5
2E0
100
AcDbEntity
  8
RACCORDO
100
AcDbLine
 62
250
  6
CONTINUOUS
 10
-129.7906318736
 20
-43.4787649511
 11
-129.7910198204
 21
-43.390765604
  0
LINE
  5
2E1
100
AcDbEntity
  8
RACCORDO
100
AcDbLine
 62
250
  6
CONTINUOUS
 10
-129.6127309014
 20
-43.4337459836
 11
-129.6131837718
 21
-43.3044148405
  0
LINE
  5
2E2
100
AcDbEntity
  8
RACCORDO
100
AcDbLine
 62
250
  6
CONTINUOUS
 10
-129.7905941789
 20
43.1803249197
 11
-129.7910642951
 21
43.3446768372
  0
LINE
  5
2E3
100
AcDbEntity
  8
0
100
AcDbLine
 62
7
  6
CONTINUOUS
 10
-132.2196522125
 20
-31.5801797807
 11
-132.2196522125
 21
-29.051114715
  0
LINE
  5
2E4
100
AcDbEntity
  8
RACCORDO
100
AcDbLine
 62
7
  6
CONTINUOUS
 10
-132.1196522125
 20
-43.4207021581
 11
-132.1196522125
 21
43.4207021581
  0
LINE
  5
2E5
100
AcDbEntity
  8
RACCORDO
100
AcDbLine
 62
250
  6
CONTINUOUS
 10
-131.6458201906
 20
-42.4220726233
 11
-131.6458201906
 21
42.4220726233
  0
LINE
  5
2E6
100
AcDbEntity
  8
RACCORDO
100
AcDbLine
 62
7
  6
CONTINUOUS
 10
-130.1196522125
 20
-44.0
 11
-130.1196522125
 21
44.0
  0
LWPOLYLINE
  5
2E7
100
AcDbEntity
  8
RACCORDO
100
AcDbPolyline
 62
250
  6
CONTINUOUS
 90
3
 70
0
 10
-129.7821286814
 20
-7.4612243464
 10
-129.7816305798
 20
24.2113746321
 10
-129.7819771169
 20
42.4622642793
  0
LINE
  5
2E8
100
AcDbEntity
  8
RACCORDO
100
AcDbLine
 62
250
  6
CONTINUOUS
 10
-129.6093435447
 20
23.9882718088
 11
-129.6096808432
 21
42.4573504316
  0
LINE
  5
2E9
100
AcDbEntity
  8
RACCORDO
100
AcDbLine
 62
250
  6
CONTINUOUS
 10
-129.6099020823
 20
-8.2048824462
 11
-129.6093435447
 21
23.9882718088
  0
LINE
  5
2EA
100
AcDbEntity
  8
RACCORDO
100
AcDbLine
 62
250
  6
CONTINUOUS
 10
-129.6096808432
 20
-42.4573504316
 11
-129.6099020823
 21
-8.2048824462
  0
LINE
  5
2EB
100
AcDbEntity
  8
RACCORDO
100
AcDbLine
 62
250
  6
CONTINUOUS
 10
-129.6131837718
 20
-43.3044148405
 11
-129.613197677
 21
-43.2369624387
  0
LINE
  5
2EC
100
AcDbEntity
  8
RACCORDO
100
AcDbLine
 62
250
  6
CONTINUOUS
 10
-131.6563902992
 20
-43.5901192508
 11
-131.6565698538
 21
-43.4307181209
  0
LINE
  5
2ED
100
AcDbEntity
  8
RACCORDO
100
AcDbLine
 62
250
  6
CONTINUOUS
 10
-129.6094479127
 20
-42.4891733584
 11
-129.6094569797
 21
-42.4784093318
  0
LINE
  5
2EE
100
AcDbEntity
  8
RACCORDO
100
AcDbLine
 62
250
  6
CONTINUOUS
 10
-129.7819746786
 20
-42.4619445906
 11
-129.7821286814
 21
-7.4612243464
  0
LINE
  5
2EF
100
AcDbEntity
  8
RACCORDO
100
AcDbLine
 62
250
  6
CONTINUOUS
 10
-129.7910198204
 20
-43.390765604
 11
-129.7909336469
 21
-43.2625637991
  0
LINE
  5
2F0
100
AcDbEntity
  8
RACCORDO
100
AcDbLine
 62
250
  6
CONTINUOUS
 10
-131.6565487304
 20
43.4184948565
 11
-131.6564322712
 21
43.5797588917
  0
LINE
  5
2F1
100
AcDbEntity
  8
RACCORDO
100
AcDbLine
 62
250
  6
CONTINUOUS
 10
-129.613199871
 20
43.2397001919
 11
-129.6129767542
 21
43.3856826373
  0
LINE
  5
2F2
100
AcDbEntity
  8
RACCORDO
100
AcDbLine
 62
250
  6
CONTINUOUS
 10
-129.7910642951
 20
43.3446768372
 11
-129.7908580686
 21
43.4398586006
  0
LINE
  5
2F3
100
AcDbEntity
  8
RACCORDO
100
AcDbLine
 62
250
  6
CONTINUOUS
 10
-129.7909336469
 20
-43.2625637991
 11
-129.7906013432
 21
-43.1814913944
  0
LINE
  5
2F4
100
AcDbEntity
  8
RACCORDO
100
AcDbLine
 62
250
  6
CONTINUOUS
 10
-129.6094813218
 20
42.4738809094
 11
-129.6094438884
 21
42.4846506161
  0
LINE
  5
2F5
100
AcDbEntity
  8
RACCORDO
100
AcDbLine
 62
250
  6
CONTINUOUS
 10
-131.6565698538
 20
-43.4307181209
 11
-131.6554289108
 21
-43.1813326715
  0
LINE
  5
2F6
100
AcDbEntity
  8
RACCORDO
100
AcDbLine
 62
250
  6
CONTINUOUS
 10
-131.6564322712
 20
43.5797588917
 11
-131.6558587558
 21
43.671838977
  0
LINE
  5
2F7
100
AcDbEntity
  8
RACCORDO
100
AcDbLine
 62
250
  6
CONTINUOUS
 10
-129.6129767542
 20
43.3856826373
 11
-129.6123792444
 21
43.4800639351
  0
LINE
  5
2F8
100
AcDbEntity
  8
RACCORDO
100
AcDbLine
 62
250
  6
CONTINUOUS
 10
-129.7908580686
 20
43.4398586006
 11
-129.7903066789
 21
43.5164832044
  0
LINE
  5
2F9
100
AcDbEntity
  8
RACCORDO
100
AcDbLine
 62
250
  6
CONTINUOUS
 10
-131.6554289108
 20
-43.1813326715
 11
-131.6518005624
 21
-42.8196299925
  0
LINE
  5
2FA
100
AcDbEntity
  8
RACCORDO
100
AcDbLine
 62
250
  6
CONTINUOUS
 10
-129.6123792444
 20
43.4800639351
 11
-129.6116833304
 21
43.5453661857
  0
LWPOLYLINE
  5
2FB
100
AcDbEntity
  8
RACCORDO
100
AcDbPolyline
 62
250
  6
CONTINUOUS
 90
11
 70
0
 10
-131.6558587558
 20
43.671838977
 10
-131.6549009754
 20
43.7506036243
 10
-131.6542733514
 20
43.7849689734
 10
-131.6535477685
 20
43.8157445495
 10
-131.6527221027
 20
43.8427973326
 10
-131.6518005624
 20
43.8660097185
 10
-131.6507847322
 20
43.8852307128
 10
-131.6496715914
 20
43.9003147701
 10
-131.648466119
 20
43.9111769754
 10
-131.6471792811
 20
43.9177627766
 10
-131.6458201906
 20
43.9200169255
  0
LINE
  5
2FC
100
AcDbEntity
  8
RACCORDO
100
AcDbLine
 62
250
  6
CONTINUOUS
 10
-129.7903066789
 20
43.5164832044
 11
-129.7897570714
 21
43.560358038
  0
LWPOLYLINE
  5
2FD
100
AcDbEntity
  8
RACCORDO
100
AcDbPolyline
 62
250
  6
CONTINUOUS
 90
3
 70
0
 10
-129.6096808432
 20
42.4573504316
 10
-129.609595668
 20
42.4629044115
 10
-129.6094813218
 20
42.4738809094
  0
LINE
  5
2FE
100
AcDbEntity
  8
RACCORDO
100
AcDbLine
 62
250
  6
CONTINUOUS
 10
-131.6518005624
 20
-42.8196299925
 11
-131.6458201906
 21
-42.4220726233
  0
LINE
  5
2FF
100
AcDbEntity
  8
RACCORDO
100
AcDbLine
 62
250
  6
CONTINUOUS
 10
-129.6116833304
 20
43.5453661857
 11
-129.6114700404
 21
43.5585850247
  0
LINE
  5
300
100
AcDbEntity
  8
RACCORDO
100
AcDbLine
 62
250
  6
CONTINUOUS
 10
-129.7897570714
 20
43.560358038
 11
-129.7891494989
 21
43.5945223349
  0
LWPOLYLINE
  5
301
100
AcDbEntity
  8
RACCORDO
100
AcDbPolyline
 62
250
  6
CONTINUOUS
 90
16
 70
0
 10
-129.6114700404
 20
43.5585850247
 10
-129.611311642
 20
43.5655942127
 10
-129.6112258654
 20
43.5686193195
 10
-129.6111347582
 20
43.5713466553
 10
-129.6110379546
 20
43.5737869276
 10
-129.6109358204
 20
43.5759695251
 10
-129.6108283314
 20
43.5779312726
 10
-129.6107163597
 20
43.5796695977
 10
-129.6105990331
 20
43.5812129422
 10
-129.6104737109
 20
43.582620774
 10
-129.6103395523
 20
43.583882987
 10
-129.610197398
 20
43.584997306
 10
-129.6100471288
 20
43.5859989058
 10
-129.6098887047
 20
43.5868746426
 10
-129.6097221657
 20
43.5875840465
 10
-129.6095475116
 20
43.5881022709
  0
LINE
  5
302
100
AcDbEntity
  8
RACCORDO
100
AcDbLine
 62
250
  6
CONTINUOUS
 10
-129.7891494989
 20
43.5945223349
 11
-129.7885263853
 21
43.6212273719
  0
LINE
  5
303
100
AcDbEntity
  8
RACCORDO
100
AcDbLine
 62
250
  6
CONTINUOUS
 10
-129.7885263853
 20
43.6212273719
 11
-129.7881113683
 21
43.635755075
  0
LINE
  5
304
100
AcDbEntity
  8
RACCORDO
100
AcDbLine
 62
250
  6
CONTINUOUS
 10
-129.7881113683
 20
43.635755075
 11
-129.787694128
 21
43.6480914753
  0
LWPOLYLINE
  5
305
100
AcDbEntity
  8
RACCORDO
100
AcDbPolyline
 62
250
  6
CONTINUOUS
 90
20
 70
0
 10
-129.787694128
 20
43.6480914753
 10
-129.7872725037
 20
43.658481651
 10
-129.7870584152
 20
43.6630098132
 10
-129.7868421411
 20
43.6671240959
 10
-129.7866222912
 20
43.6708500641
 10
-129.7863984307
 20
43.6742106551
 10
-129.7861709944
 20
43.6772254888
 10
-129.7859398957
 20
43.6799141384
 10
-129.7857054117
 20
43.6822899439
 10
-129.7854672654
 20
43.6843827014
 10
-129.7852245394
 20
43.6862301813
 10
-129.784979476
 20
43.6878351892
 10
-129.7847298329
 20
43.6892250074
 10
-129.7844679659
 20
43.6904502468
 10
-129.7841942051
 20
43.6915073035
 10
-129.7839082203
 20
43.6923911637
 10
-129.7836013779
 20
43.6931161173
 10
-129.7832707998
 20
43.6936645723
 10
-129.782919364
 20
43.6940057168
 10
-129.7825470705
 20
43.6941160506
  0
LINE
  5
306
100
AcDbEntity
  8
RACCORDO
100
AcDbLine
 62
250
  6
CONTINUOUS
 10
-122.8119751339
 20
12.4485966175
 11
-122.8236819553
 21
12.4314272644
  0
LINE
  5
307
100
AcDbEntity
  8
RACCORDO
100
AcDbLine
 62
250
  6
CONTINUOUS
 10
-122.0049112042
 20
11.8719530145
 11
-122.0270820011
 21
11.8396846321
  0
LINE
  5
308
100
AcDbEntity
  8
RACCORDO
100
AcDbLine
 62
250
  6
CONTINUOUS
 10
-122.8236819553
 20
12.4314272644
 11
-122.8586087585
 21
12.3808532123
  0
LINE
  5
309
100
AcDbEntity
  8
RACCORDO
100
AcDbLine
 62
250
  6
CONTINUOUS
 10
-122.0270820011
 20
11.8396846321
 11
-122.0794553451
 21
11.7642997893
  0
LINE
  5
30A
100
AcDbEntity
  8
RACCORDO
100
AcDbLine
 62
250
  6
CONTINUOUS
 10
-122.8586087585
 20
12.3808532123
 11
-122.9155645559
 21
12.2991738207
  0
LINE
  5
30B
100
AcDbEntity
  8
RACCORDO
100
AcDbLine
 62
250
  6
CONTINUOUS
 10
-122.0794553451
 20
11.7642997893
 11
-122.1031916182
 21
11.7303441659
  0
LINE
  5
30C
100
AcDbEntity
  8
RACCORDO
100
AcDbLine
 62
250
  6
CONTINUOUS
 10
-122.9155645559
 20
-12.2991738207
 11
-122.8486581002
 21
-12.395206562
  0
LINE
  5
30D
100
AcDbEntity
  8
RACCORDO
100
AcDbLine
 62
250
  6
CONTINUOUS
 10
-122.1031916182
 20
-11.7303441659
 11
-122.036285107
 21
-11.8263769709
  0
LINE
  5
30E
100
AcDbEntity
  8
RACCORDO
100
AcDbLine
 62
250
  6
CONTINUOUS
 10
-122.8486581002
 20
-12.395206562
 11
-122.8236819553
 21
-12.4314272644
  0
LWPOLYLINE
  5
30F
100
AcDbEntity
  8
RACCORDO
100
AcDbPolyline
 62
250
  6
CONTINUOUS
 90
8
 70
0
 10
-122.036285107
 20
-11.8263769709
 10
-122.0113089778
 20
-11.8625976512
 10
-122.0049111069
 20
-11.8719531343
 10
-121.9996021731
 20
-11.8797669834
 10
-121.9954399716
 20
-11.8859541337
 10
-121.9924698138
 20
-11.890447229
 10
-121.9907240342
 20
-11.8931973556
 10
-121.990221638
 20
-11.8941745747
  0
LWPOLYLINE
  5
310
100
AcDbEntity
  8
RACCORDO
100
AcDbPolyline
 62
250
  6
CONTINUOUS
 90
6
 70
0
 10
-122.8236819553
 20
-12.4314272644
 10
-122.8119751339
 20
-12.4485966175
 10
-122.8078129244
 20
-12.4547837769
 10
-122.8048427598
 20
-12.4592768791
 10
-122.8030969751
 20
-12.4620270098
 10
-122.8025945757
 20
-12.4630042296
  0
LINE
  5
311
100
AcDbEntity
  8
RACCORDO
100
AcDbLine
 62
250
  6
CONTINUOUS
 10
-129.7823433342
 20
42.4914571259
 11
-129.7833969048
 21
42.539923622
  0
LINE
  5
312
100
AcDbEntity
  8
RACCORDO
100
AcDbLine
 62
250
  6
CONTINUOUS
 10
-129.7821701974
 20
42.481947635
 11
-129.7823433342
 21
42.4914571259
  0
LINE
  5
313
100
AcDbEntity
  8
RACCORDO
100
AcDbLine
 62
250
  6
CONTINUOUS
 10
-129.7833969048
 20
42.539923622
 11
-129.7852735378
 21
42.641371081
  0
LINE
  5
314
100
AcDbEntity
  8
RACCORDO
100
AcDbLine
 62
250
  6
CONTINUOUS
 10
-129.7852735378
 20
42.641371081
 11
-129.7870017289
 21
42.7676661356
  0
LINE
  5
315
100
AcDbEntity
  8
RACCORDO
100
AcDbLine
 62
250
  6
CONTINUOUS
 10
-129.7820437796
 20
42.4721443589
 11
-129.7821701974
 21
42.481947635
  0
LWPOLYLINE
  5
316
100
AcDbEntity
  8
0
100
AcDbPolyline
 62
7
  6
CONTINUOUS
 90
7
 70
0
 10
-129.3981743517
 20
42.300048099
 10
-129.3985255788
 20
42.3310949421
 10
-129.3995001744
 20
42.3630736156
 10
-129.4010981383
 20
42.3959841193
 10
-129.4033194707
 20
42.4298264535
 10
-129.4061641715
 20
42.464600618
 10
-129.4141798678
 20
42.5461011591
  0
LINE
  5
317
100
AcDbEntity
  8
RACCORDO
100
AcDbLine
 62
250
  6
CONTINUOUS
 10
-129.7870017289
 20
42.7676661356
 11
-129.7900761097
 21
43.095589091
  0
LINE
  5
318
100
AcDbEntity
  8
RACCORDO
100
AcDbLine
 62
250
  6
CONTINUOUS
 10
-129.6095053417
 20
42.5004439109
 11
-129.6110861768
 21
42.6621038096
  0
LINE
  5
319
100
AcDbEntity
  8
RACCORDO
100
AcDbLine
 62
250
  6
CONTINUOUS
 10
-129.7900761097
 20
43.095589091
 11
-129.7905941789
 21
43.1803249197
  0
LINE
  5
31A
100
AcDbEntity
  8
RACCORDO
100
AcDbLine
 62
250
  6
CONTINUOUS
 10
-129.7819771169
 20
42.4622642793
 11
-129.7820437796
 21
42.4721443589
  0
LINE
  5
31B
100
AcDbEntity
  8
RACCORDO
100
AcDbLine
 62
250
  6
CONTINUOUS
 10
-129.6110861768
 20
42.6621038096
 11
-129.613091463
 21
43.1664299338
  0
LWPOLYLINE
  5
31C
100
AcDbEntity
  8
RACCORDO
100
AcDbPolyline
 62
250
  6
CONTINUOUS
 90
3
 70
0
 10
-129.6094438884
 20
42.4846506161
 10
-129.6094498127
 20
42.4899626745
 10
-129.6095053417
 20
42.5004439109
  0
LINE
  5
31D
100
AcDbEntity
  8
RACCORDO
100
AcDbLine
 62
250
  6
CONTINUOUS
 10
-129.613091463
 20
43.1664299338
 11
-129.613199871
 21
43.2397001919
  0
LINE
  5
31E
100
AcDbEntity
  8
0
100
AcDbLine
 62
7
  6
CONTINUOUS
 10
-129.3981743517
 20
-42.300048099
 11
-129.3981743517
 21
42.300048099
  0
LINE
  5
31F
100
AcDbEntity
  8
RACCORDO
100
AcDbLine
 62
250
  6
CONTINUOUS
 10
-129.6095036699
 20
-42.500089957
 11
-129.6094479127
 21
-42.4891733584
  0
LINE
  5
320
100
AcDbEntity
  8
RACCORDO
100
AcDbLine
 62
250
  6
CONTINUOUS
 10
-129.7820367733
 20
-42.4714249685
 11
-129.7819746786
 21
-42.4619445906
  0
LINE
  5
321
100
AcDbEntity
  8
RACCORDO
100
AcDbLine
 62
250
  6
CONTINUOUS
 10
-129.613197677
 20
-43.2369624387
 11
-129.6108135866
 21
-42.6261136246
  0
LINE
  5
322
100
AcDbEntity
  8
RACCORDO
100
AcDbLine
 62
250
  6
CONTINUOUS
 10
-129.7906013432
 20
-43.1814913944
 11
-129.7883824048
 21
-42.8985828022
  0
LINE
  5
323
100
AcDbEntity
  8
RACCORDO
100
AcDbLine
 62
250
  6
CONTINUOUS
 10
-129.6108135866
 20
-42.6261136246
 11
-129.6095036699
 21
-42.500089957
  0
LINE
  5
324
100
AcDbEntity
  8
RACCORDO
100
AcDbLine
 62
250
  6
CONTINUOUS
 10
-129.7821576773
 20
-42.4811480296
 11
-129.7820367733
 21
-42.4714249685
  0
LINE
  5
325
100
AcDbEntity
  8
RACCORDO
100
AcDbLine
 62
250
  6
CONTINUOUS
 10
-129.7883824048
 20
-42.8985828022
 11
-129.7858586369
 21
-42.6794467696
  0
LINE
  5
326
100
AcDbEntity
  8
RACCORDO
100
AcDbLine
 62
250
  6
CONTINUOUS
 10
-129.7858586369
 20
-42.6794467696
 11
-129.784161857
 21
-42.5783225178
  0
LINE
  5
327
100
AcDbEntity
  8
RACCORDO
100
AcDbLine
 62
250
  6
CONTINUOUS
 10
-129.7823324995
 20
-42.4908972806
 11
-129.7821576773
 21
-42.4811480296
  0
LINE
  5
328
100
AcDbEntity
  8
RACCORDO
100
AcDbLine
 62
250
  6
CONTINUOUS
 10
-129.784161857
 20
-42.5783225178
 11
-129.7825604125
 21
-42.5006185975
  0
LINE
  5
329
100
AcDbEntity
  8
RACCORDO
100
AcDbLine
 62
250
  6
CONTINUOUS
 10
-129.7825600172
 20
-42.5006185984
 11
-129.7823324995
 21
-42.4908972806
  0
LWPOLYLINE
  5
32A
100
AcDbEntity
  8
RACCORDO
100
AcDbPolyline
 62
250
  6
CONTINUOUS
 90
5
 70
0
 10
-122.8025945757
 20
12.4630042296
 10
-122.8030969751
 20
12.4620270098
 10
-122.8048427598
 20
12.4592768791
 10
-122.8078129244
 20
12.4547837769
 10
-122.8119751339
 20
12.4485966175
  0
LWPOLYLINE
  5
32B
100
AcDbEntity
  8
RACCORDO
100
AcDbPolyline
 62
250
  6
CONTINUOUS
 90
6
 70
0
 10
-121.990221638
 20
11.8941745747
 10
-121.9907240413
 20
11.8931973506
 10
-121.9924698359
 20
11.8904472069
 10
-121.9954400149
 20
11.8859540851
 10
-121.9996022422
 20
11.8797669013
 10
-122.0049112042
 20
11.8719530145
  0
LINE
  5
32C
100
AcDbEntity
  8
RACCORDO
100
AcDbLine
 62
250
  6
CONTINUOUS
 10
-129.3981743635
 20
0.0
 11
-129.7819653981
 21
0.0
  0
LWPOLYLINE
  5
32D
100
AcDbEntity
  8
0
100
AcDbPolyline
 62
7
  6
CONTINUOUS
 90
24
 70
0
 10
-129.4141798678
 20
42.5461011591
 10
-129.4182880679
 20
42.5916461284
 10
-129.4219597156
 20
42.6367487528
 10
-129.4251825208
 20
42.6812018085
 10
-129.4279736661
 20
42.7248368921
 10
-129.4303800483
 20
42.7675218741
 10
-129.43241494
 20
42.8090340329
 10
-129.4340686345
 20
42.8492418228
 10
-129.435354249
 20
42.8881361182
 10
-129.4362803628
 20
42.9256211251
 10
-129.4368425676
 20
42.9614133957
 10
-129.4370342474
 20
42.995227284
 10
-129.4368516574
 20
43.0269305003
 10
-129.4362991725
 20
43.0563507754
 10
-129.4353799251
 20
43.0832120642
 10
-129.4340950908
 20
43.1073679022
 10
-129.4324392896
 20
43.1288220176
 10
-129.4304047142
 20
43.1475620104
 10
-129.4280057547
 20
43.163513203
 10
-129.425223574
 20
43.1766352714
 10
-129.4220015437
 20
43.1869270205
 10
-129.4183197373
 20
43.1943292981
 10
-129.4141939607
 20
43.1987682676
 10
-129.4096216056
 20
43.2001998138
  0
LINE
  5
32E
100
AcDbEntity
  8
RACCORDO
100
AcDbLine
 62
250
  6
CONTINUOUS
 10
-124.5153821997
 20
43.0912970349
 11
-124.515099164
 21
43.0624711855
  0
LINE
  5
32F
100
AcDbEntity
  8
RACCORDO
100
AcDbLine
 62
250
  6
CONTINUOUS
 10
-124.515099164
 20
43.0624711855
 11
-124.5147624716
 21
42.972785572
  0
LINE
  5
330
100
AcDbEntity
  8
RACCORDO
100
AcDbLine
 62
250
  6
CONTINUOUS
 10
-124.5161617312
 20
-42.4148907673
 11
-124.5147292443
 21
-42.8727248881
  0
LINE
  5
331
100
AcDbEntity
  8
RACCORDO
100
AcDbLine
 62
250
  6
CONTINUOUS
 10
-124.5161617312
 20
42.4148907673
 11
-124.5161617312
 21
-42.4148907673
  0
LINE
  5
332
100
AcDbEntity
  8
RACCORDO
100
AcDbLine
 62
7
  6
CONTINUOUS
 10
-124.3196522125
 20
-42.9148146135
 11
-124.3196522125
 21
42.9148146149
  0
LINE
  5
333
100
AcDbEntity
  8
RACCORDO
100
AcDbLine
 62
250
  6
CONTINUOUS
 10
-124.5147292443
 20
-42.8727248881
 11
-124.5148719449
 21
-43.0173650589
  0
LINE
  5
334
100
AcDbEntity
  8
RACCORDO
100
AcDbLine
 62
250
  6
CONTINUOUS
 10
-124.5147624716
 20
42.972785572
 11
-124.5152047853
 21
42.6460747206
  0
LINE
  5
335
100
AcDbEntity
  8
RACCORDO
100
AcDbLine
 62
250
  6
CONTINUOUS
 10
-124.5152047853
 20
42.6460747206
 11
-124.5161617312
 21
42.4148907673
  0
LWPOLYLINE
  5
336
100
AcDbEntity
  8
RACCORDO
100
AcDbPolyline
 62
250
  6
CONTINUOUS
 90
7
 70
0
 10
-124.5148719449
 20
-43.0173650589
 10
-124.5152047853
 20
-43.0754860712
 10
-124.515356931
 20
-43.0894376906
 10
-124.5155305501
 20
-43.1004275204
 10
-124.5157244271
 20
-43.1083600524
 10
-124.5159356709
 20
-43.1131670961
 10
-124.5161617312
 20
-43.1147841539
  0
LWPOLYLINE
  5
337
100
AcDbEntity
  8
0
100
AcDbPolyline
 62
7
  6
CONTINUOUS
 90
6
 70
0
 10
-129.4061526931
 20
-42.4643981515
 10
-129.4033011053
 20
-42.4295025071
 10
-129.4010774772
 20
-42.3956196797
 10
-129.3994818089
 20
-42.3627496692
 10
-129.3985141004
 20
-42.3308924756
 10
-129.3981743517
 20
-42.300048099
  0
LWPOLYLINE
  5
338
100
AcDbEntity
  8
RACCORDO
100
AcDbPolyline
 62
250
  6
CONTINUOUS
 90
5
 70
0
 10
-122.1231531405
 20
15.1876088762
 10
-122.1214395071
 20
15.1948936899
 10
-122.1202518046
 20
15.2001676338
 10
-122.1196030097
 20
15.203373086
 10
-122.1195002109
 20
15.2044750244
  0
LINE
  5
339
100
AcDbEntity
  8
RACCORDO
100
AcDbLine
 62
250
  6
CONTINUOUS
 10
-122.1280777675
 20
15.1673461092
 11
-122.1231531405
 21
15.1876088762
  0
LINE
  5
33A
100
AcDbEntity
  8
RACCORDO
100
AcDbLine
 62
250
  6
CONTINUOUS
 10
-122.1387669846
 20
15.1245213965
 11
-122.1280777675
 21
15.1673461092
  0
LWPOLYLINE
  5
33B
100
AcDbEntity
  8
RACCORDO
100
AcDbPolyline
 62
250
  6
CONTINUOUS
 90
3
 70
0
 10
-122.1678309046
 20
15.0108454963
 10
-122.1626137115
 20
15.0310572912
 10
-122.1387669846
 20
15.1245213965
  0
LINE
  5
33C
100
AcDbEntity
  8
RACCORDO
100
AcDbLine
 62
250
  6
CONTINUOUS
 10
-122.1430595321
 20
-15.1075383354
 11
-122.1678309046
 21
-15.0108454963
  0
LINE
  5
33D
100
AcDbEntity
  8
RACCORDO
100
AcDbLine
 62
250
  6
CONTINUOUS
 10
-122.1312349557
 20
-15.1545895424
 11
-122.1430595321
 21
-15.1075383354
  0
LWPOLYLINE
  5
33E
100
AcDbEntity
  8
RACCORDO
100
AcDbPolyline
 62
250
  6
CONTINUOUS
 90
5
 70
0
 10
-123.3587186057
 20
-13.6563001195
 10
-123.3585553613
 20
-13.657398574
 10
-123.3584321413
 20
-13.6606755325
 10
-123.3583502951
 20
-13.66609509
 10
-123.3583107193
 20
-13.6735978733
  0
LWPOLYLINE
  5
33F
100
AcDbEntity
  8
RACCORDO
100
AcDbPolyline
 62
250
  6
CONTINUOUS
 90
7
 70
0
 10
-122.1195002109
 20
-15.2044750244
 10
-122.1196030097
 20
-15.203373086
 10
-122.1202518046
 20
-15.2001676338
 10
-122.1214395071
 20
-15.1948936899
 10
-122.1231531405
 20
-15.1876088762
 10
-122.1253739821
 20
-15.1783927849
 10
-122.1312349557
 20
-15.1545895424
  0
LWPOLYLINE
  5
340
100
AcDbEntity
  8
RACCORDO
100
AcDbPolyline
 62
250
  6
CONTINUOUS
 90
7
 70
0
 10
-122.1195002109
 20
11.0955249756
 10
-122.1196030097
 20
11.096626914
 10
-122.1202518046
 20
11.0998323662
 10
-122.1214395071
 20
11.1051063101
 10
-122.1231531405
 20
11.1123911238
 10
-122.1253739821
 20
11.1216072151
 10
-122.1312349557
 20
11.1454104576
  0
LWPOLYLINE
  5
341
100
AcDbEntity
  8
RACCORDO
100
AcDbPolyline
 62
250
  6
CONTINUOUS
 90
19
 70
0
 10
-122.0179069054
 20
-11.4827840317
 10
-122.0185536944
 20
-11.4677587908
 10
-122.0201760593
 20
-11.4531408822
 10
-122.0227740001
 20
-11.4389303061
 10
-122.0263677872
 20
-11.4251256197
 10
-122.0309371501
 20
-11.4117282657
 10
-122.0364212776
 20
-11.3987425723
 10
-122.0428341836
 20
-11.3861079872
 10
-122.0501618542
 20
-11.3738850628
 10
-122.0583014362
 20
-11.3622597844
 10
-122.0672041258
 20
-11.3512729831
 10
-122.0769187268
 20
-11.3408838278
 10
-122.0874887976
 20
-11.3311558116
 10
-122.0989707205
 20
-11.3220228436
 10
-122.1113081132
 20
-11.3135510147
 10
-122.1243753869
 20
-11.3060020897
 10
-122.1381306785
 20
-11.2994633237
 10
-122.1526158511
 20
-11.2938474617
 10
-122.1678309046
 20
-11.2891545037
  0
LWPOLYLINE
  5
342
100
AcDbEntity
  8
RACCORDO
100
AcDbPolyline
 62
250
  6
CONTINUOUS
 90
19
 70
0
 10
-122.0179069054
 20
14.8172159683
 10
-122.0185536944
 20
14.8322412092
 10
-122.0201760593
 20
14.8468591178
 10
-122.0227740001
 20
14.8610696939
 10
-122.0263677872
 20
14.8748743803
 10
-122.0309371501
 20
14.8882717343
 10
-122.0364212776
 20
14.9012574277
 10
-122.0428341836
 20
14.9138920128
 10
-122.0501618542
 20
14.9261149372
 10
-122.0583014362
 20
14.9377402156
 10
-122.0672041258
 20
14.9487270169
 10
-122.0769187268
 20
14.9591161722
 10
-122.0874887976
 20
14.9688441884
 10
-122.0989707205
 20
14.9779771564
 10
-122.1113081132
 20
14.9864489853
 10
-122.1243753869
 20
14.9939979103
 10
-122.1381306785
 20
15.0005366763
 10
-122.1526158511
 20
15.0061525383
 10
-122.1678309046
 20
15.0108454963
  0
LINE
  5
343
100
AcDbEntity
  8
RACCORDO
100
AcDbLine
 62
250
  6
CONTINUOUS
 10
-123.3604637798
 20
-12.4437303414
 11
-123.3589526145
 21
-12.5437058582
  0
LINE
  5
344
100
AcDbEntity
  8
RACCORDO
100
AcDbLine
 62
250
  6
CONTINUOUS
 10
-123.3604637798
 20
13.8562696586
 11
-123.3589526145
 21
13.7562941418
  0
LINE
  5
345
100
AcDbEntity
  8
RACCORDO
100
AcDbLine
 62
250
  6
CONTINUOUS
 10
-123.3589526145
 20
-12.5437058582
 11
-123.3584476009
 21
-12.5923254335
  0
LINE
  5
346
100
AcDbEntity
  8
RACCORDO
100
AcDbLine
 62
250
  6
CONTINUOUS
 10
-123.3589526145
 20
13.7562941418
 11
-123.3584476009
 21
13.7076745665
  0
LWPOLYLINE
  5
347
100
AcDbEntity
  8
RACCORDO
100
AcDbPolyline
 62
250
  6
CONTINUOUS
 90
7
 70
0
 10
-123.3584476009
 20
-12.5923254335
 10
-123.358313843
 20
-12.616898661
 10
-123.3583107168
 20
-12.6264023642
 10
-123.3583502939
 20
-12.6339050518
 10
-123.3584321409
 20
-12.6393245344
 10
-123.3585553614
 20
-12.6426014437
 10
-123.3587186055
 20
-12.6436998805
  0
LWPOLYLINE
  5
348
100
AcDbEntity
  8
RACCORDO
100
AcDbPolyline
 62
250
  6
CONTINUOUS
 90
7
 70
0
 10
-123.3584476009
 20
13.7076745665
 10
-123.358313843
 20
13.683101339
 10
-123.3583107168
 20
13.6735976358
 10
-123.3583502939
 20
13.6660949482
 10
-123.3584321409
 20
13.6606754656
 10
-123.3585553614
 20
13.6573985563
 10
-123.3587186055
 20
13.6563001195
  0
LINE
  5
349
100
AcDbEntity
  8
RACCORDO
100
AcDbLine
 62
250
  6
CONTINUOUS
 10
-122.0179069054
 20
11.566513757
 11
-122.0179069054
 21
11.4827840317
  0
LINE
  5
34A
100
AcDbEntity
  8
RACCORDO
100
AcDbLine
 62
250
  6
CONTINUOUS
 10
-122.0179069054
 20
-14.733486243
 11
-122.0179069054
 21
-14.8172159683
  0
LINE
  5
34B
100
AcDbEntity
  8
RACCORDO
100
AcDbLine
 62
250
  6
CONTINUOUS
 10
-122.0179069054
 20
-11.566513757
 11
-122.0179069054
 21
-11.4827840317
  0
LINE
  5
34C
100
AcDbEntity
  8
RACCORDO
100
AcDbLine
 62
250
  6
CONTINUOUS
 10
-122.0179069054
 20
14.733486243
 11
-122.0179069054
 21
14.8172159683
  0
LINE
  5
34D
100
AcDbEntity
  8
RACCORDO
100
AcDbLine
 62
7
  6
CONTINUOUS
 10
-121.8196522125
 20
11.566513757
 11
-121.8196522125
 21
11.4827840317
  0
LINE
  5
34E
100
AcDbEntity
  8
RACCORDO
100
AcDbLine
 62
7
  6
CONTINUOUS
 10
-121.8196522125
 20
-14.733486243
 11
-121.8196522125
 21
-14.8172159683
  0
LINE
  5
34F
100
AcDbEntity
  8
RACCORDO
100
AcDbLine
 62
7
  6
CONTINUOUS
 10
-121.8196522125
 20
-11.566513757
 11
-121.8196522125
 21
-11.4827840317
  0
LINE
  5
350
100
AcDbEntity
  8
RACCORDO
100
AcDbLine
 62
7
  6
CONTINUOUS
 10
-121.8196522125
 20
14.733486243
 11
-121.8196522125
 21
14.8172159683
  0
LINE
  5
351
100
AcDbEntity
  8
RACCORDO
100
AcDbLine
 62
250
  6
CONTINUOUS
 10
-123.3583107193
 20
12.6264021267
 11
-123.3583596445
 21
12.6054975986
  0
LINE
  5
352
100
AcDbEntity
  8
RACCORDO
100
AcDbLine
 62
250
  6
CONTINUOUS
 10
-123.3583107193
 20
-13.6735978733
 11
-123.3583596445
 21
-13.6945024014
  0
LINE
  5
353
100
AcDbEntity
  8
RACCORDO
100
AcDbLine
 62
250
  6
CONTINUOUS
 10
-123.3583596445
 20
12.6054975986
 11
-123.3587457332
 21
12.5612584895
  0
LINE
  5
354
100
AcDbEntity
  8
RACCORDO
100
AcDbLine
 62
250
  6
CONTINUOUS
 10
-123.3583596445
 20
-13.6945024014
 11
-123.3587457332
 21
-13.7387415105
  0
LWPOLYLINE
  5
355
100
AcDbEntity
  8
RACCORDO
100
AcDbPolyline
 62
250
  6
CONTINUOUS
 90
3
 70
0
 10
-123.3587457332
 20
12.5612584895
 10
-123.3601085551
 20
12.4646304305
 10
-123.3604637798
 20
12.4437303414
  0
LWPOLYLINE
  5
356
100
AcDbEntity
  8
RACCORDO
100
AcDbPolyline
 62
250
  6
CONTINUOUS
 90
3
 70
0
 10
-123.3587457332
 20
-13.7387415105
 10
-123.3601085551
 20
-13.8353695695
 10
-123.3604637798
 20
-13.8562696586
  0
LWPOLYLINE
  5
357
100
AcDbEntity
  8
RACCORDO
100
AcDbPolyline
 62
250
  6
CONTINUOUS
 90
19
 70
0
 10
-122.0179069054
 20
11.4827840317
 10
-122.0184656745
 20
11.4680344486
 10
-122.0200655749
 20
11.4535168603
 10
-122.0227066066
 20
11.4392312667
 10
-122.0264140285
 20
11.425103762
 10
-122.0311625817
 20
11.4112082521
 10
-122.0368764892
 20
11.3977664546
 10
-122.0435707624
 20
11.3847862125
 10
-122.05123039
 20
11.3722596829
 10
-122.0597345617
 20
11.3603850542
 10
-122.0690964492
 20
11.3491724093
 10
-122.0793028808
 20
11.3386116655
 10
-122.0901935316
 20
11.3288707635
 10
-122.1017799409
 20
11.319962106
 10
-122.1140505694
 20
11.3118732903
 10
-122.1268104743
 20
11.304735049
 10
-122.1399946747
 20
11.2985909596
 10
-122.1536681515
 20
11.2933974444
 10
-122.1678309046
 20
11.2891545037
  0
LWPOLYLINE
  5
358
100
AcDbEntity
  8
RACCORDO
100
AcDbPolyline
 62
250
  6
CONTINUOUS
 90
19
 70
0
 10
-122.0179069054
 20
-14.8172159683
 10
-122.0184656745
 20
-14.8319655514
 10
-122.0200655749
 20
-14.8464831397
 10
-122.0227066066
 20
-14.8607687333
 10
-122.0264140285
 20
-14.874896238
 10
-122.0311625817
 20
-14.8887917479
 10
-122.0368764892
 20
-14.9022335454
 10
-122.0435707624
 20
-14.9152137875
 10
-122.05123039
 20
-14.9277403171
 10
-122.0597345617
 20
-14.9396149458
 10
-122.0690964492
 20
-14.9508275907
 10
-122.0793028808
 20
-14.9613883345
 10
-122.0901935316
 20
-14.9711292365
 10
-122.1017799409
 20
-14.980037894
 10
-122.1140505694
 20
-14.9881267097
 10
-122.1268104743
 20
-14.995264951
 10
-122.1399946747
 20
-15.0014090404
 10
-122.1536681515
 20
-15.0066025556
 10
-122.1678309046
 20
-15.0108454963
  0
LWPOLYLINE
  5
359
100
AcDbEntity
  8
RACCORDO
100
AcDbPolyline
 62
250
  6
CONTINUOUS
 90
5
 70
0
 10
-123.3587186057
 20
12.6436998805
 10
-123.3585553613
 20
12.642601426
 10
-123.3584321413
 20
12.6393244675
 10
-123.3583502951
 20
12.63390491
 10
-123.3583107193
 20
12.6264021267
  0
LWPOLYLINE
  5
35A
100
AcDbEntity
  8
RACCORDO
100
AcDbPolyline
 62
250
  6
CONTINUOUS
 90
5
 70
0
 10
-122.1231531405
 20
-11.1123911238
 10
-122.1214395071
 20
-11.1051063101
 10
-122.1202518046
 20
-11.0998323662
 10
-122.1196030097
 20
-11.096626914
 10
-122.1195002109
 20
-11.0955249756
  0
LINE
  5
35B
100
AcDbEntity
  8
RACCORDO
100
AcDbLine
 62
250
  6
CONTINUOUS
 10
-122.1280777675
 20
-11.1326538908
 11
-122.1231531405
 21
-11.1123911238
  0
LINE
  5
35C
100
AcDbEntity
  8
RACCORDO
100
AcDbLine
 62
250
  6
CONTINUOUS
 10
-122.1387669846
 20
-11.1754786035
 11
-122.1280777675
 21
-11.1326538908
  0
LWPOLYLINE
  5
35D
100
AcDbEntity
  8
RACCORDO
100
AcDbPolyline
 62
250
  6
CONTINUOUS
 90
3
 70
0
 10
-122.1678309046
 20
-11.2891545037
 10
-122.1626137115
 20
-11.2689427088
 10
-122.1387669846
 20
-11.1754786035
  0
LINE
  5
35E
100
AcDbEntity
  8
RACCORDO
100
AcDbLine
 62
250
  6
CONTINUOUS
 10
-122.1430595321
 20
11.1924616646
 11
-122.1678309046
 21
11.2891545037
  0
LINE
  5
35F
100
AcDbEntity
  8
RACCORDO
100
AcDbLine
 62
250
  6
CONTINUOUS
 10
-122.1312349557
 20
11.1454104576
 11
-122.1430595321
 21
11.1924616646
  0
LWPOLYLINE
  5
360
100
AcDbEntity
  8
RACCORDO
100
AcDbPolyline
 62
250
  6
CONTINUOUS
 90
5
 70
0
 10
-124.5161617312
 20
43.1147841539
 10
-124.5159451017
 20
43.1132976684
 10
-124.5157409204
 20
43.1088619822
 10
-124.5155519172
 20
43.1015103503
 10
-124.5153821997
 20
43.0912970349
  0
LWPOLYLINE
  5
361
100
AcDbEntity
  8
RACCORDO
100
AcDbPolyline
 62
250
  6
CONTINUOUS
 90
5
 70
0
 10
-122.8025945757
 20
-13.8369957704
 10
-122.8030969751
 20
-13.8379729902
 10
-122.8048427598
 20
-13.8407231209
 10
-122.8078129244
 20
-13.8452162231
 10
-122.8119751339
 20
-13.8514033825
  0
LWPOLYLINE
  5
362
100
AcDbEntity
  8
RACCORDO
100
AcDbPolyline
 62
250
  6
CONTINUOUS
 90
5
 70
0
 10
-121.990221638
 20
-14.4058254253
 10
-121.9907240413
 20
-14.4068026494
 10
-121.9924698359
 20
-14.4095527931
 10
-121.9954400149
 20
-14.4140459149
 10
-121.9996022422
 20
-14.4202330987
  0
LINE
  5
363
100
AcDbEntity
  8
RACCORDO
100
AcDbLine
 62
250
  6
CONTINUOUS
 10
-122.8119751339
 20
-13.8514033825
 11
-122.8236819553
 21
-13.8685727356
  0
LINE
  5
364
100
AcDbEntity
  8
RACCORDO
100
AcDbLine
 62
250
  6
CONTINUOUS
 10
-122.8236819553
 20
-13.8685727356
 11
-122.8586087585
 21
-13.9191467877
  0
LINE
  5
365
100
AcDbEntity
  8
RACCORDO
100
AcDbLine
 62
250
  6
CONTINUOUS
 10
-122.8586087585
 20
-13.9191467877
 11
-122.9155645559
 21
-14.0008261793
  0
LINE
  5
366
100
AcDbEntity
  8
RACCORDO
100
AcDbLine
 62
7
  6
CONTINUOUS
 10
-122.1195002109
 20
11.0955249756
 11
-124.3196522125
 21
10.5265269797
  0
LINE
  5
367
100
AcDbEntity
  8
RACCORDO
100
AcDbLine
 62
250
  6
CONTINUOUS
 10
-122.1678309046
 20
11.2891545037
 11
-124.3196522125
 21
10.732655675
  0
LINE
  5
368
100
AcDbEntity
  8
RACCORDO
100
AcDbLine
 62
250
  6
CONTINUOUS
 10
-121.8196522125
 20
11.4827840317
 11
-122.0179069054
 21
11.4827840317
  0
LINE
  5
369
100
AcDbEntity
  8
RACCORDO
100
AcDbLine
 62
250
  6
CONTINUOUS
 10
-121.8196522125
 20
11.566513757
 11
-122.0179069054
 21
11.566513757
  0
LINE
  5
36A
100
AcDbEntity
  8
RACCORDO
100
AcDbLine
 62
250
  6
CONTINUOUS
 10
-122.9155645559
 20
14.0008261793
 11
-122.8486581002
 21
13.904793438
  0
LINE
  5
36B
100
AcDbEntity
  8
RACCORDO
100
AcDbLine
 62
250
  6
CONTINUOUS
 10
-122.8486581002
 20
13.904793438
 11
-122.8236819553
 21
13.8685727356
  0
LWPOLYLINE
  5
36C
100
AcDbEntity
  8
RACCORDO
100
AcDbPolyline
 62
250
  6
CONTINUOUS
 90
6
 70
0
 10
-122.8236819553
 20
13.8685727356
 10
-122.8119751339
 20
13.8514033825
 10
-122.8078129244
 20
13.8452162231
 10
-122.8048427598
 20
13.8407231209
 10
-122.8030969751
 20
13.8379729902
 10
-122.8025945757
 20
13.8369957704
  0
LWPOLYLINE
  5
36D
100
AcDbEntity
  8
0
100
AcDbPolyline
 62
7
  6
CONTINUOUS
 90
10
 70
0
 43
0.3500000006
 10
-139.9096321106
 20
52.8630041199
 10
-139.8382009277
 20
52.720146286
 10
-139.8382009277
 20
52.648719635
 10
-139.9810632935
 20
52.5058618011
 10
-140.0524854126
 20
52.5058618011
 10
-140.1239165955
 20
52.5772884521
 10
-140.1239165955
 20
52.648719635
 10
-140.0524854126
 20
52.7915774689
 10
-139.9810632935
 20
52.8630041199
 10
-139.9096321106
 20
52.8630041199
  0
LINE
  5
36E
100
AcDbEntity
  8
RACCORDO
100
AcDbLine
 62
250
  6
CONTINUOUS
 10
-121.9996022422
 20
-14.4202330987
 11
-122.0113091025
 21
-14.4374025061
  0
LINE
  5
36F
100
AcDbEntity
  8
RACCORDO
100
AcDbLine
 62
250
  6
CONTINUOUS
 10
-122.0113091025
 20
-14.4374025061
 11
-122.0462359444
 21
-14.487976613
  0
LINE
  5
370
100
AcDbEntity
  8
RACCORDO
100
AcDbLine
 62
250
  6
CONTINUOUS
 10
-122.0462359444
 20
-14.487976613
 11
-122.1031916182
 21
-14.5696558341
  0
LWPOLYLINE
  5
371
100
AcDbEntity
  8
RACCORDO
100
AcDbPolyline
 62
250
  6
CONTINUOUS
 90
13
 70
0
 10
-122.1031916182
 20
-11.7303441659
 10
-122.0903556138
 20
-11.7205079509
 10
-122.0784973269
 20
-11.7098837611
 10
-122.0676167575
 20
-11.6984715967
 10
-122.0576796272
 20
-11.6862263287
 10
-122.0487202144
 20
-11.6731930859
 10
-122.0408413544
 20
-11.6595072549
 10
-122.0340239395
 20
-11.6451193322
 10
-122.0282870775
 20
-11.6300788212
 10
-122.0237909272
 20
-11.6146696186
 10
-122.0205888749
 20
-11.5989863564
 10
-122.0186275343
 20
-11.5829344026
 10
-122.0179069054
 20
-11.566513757
  0
LINE
  5
372
100
AcDbEntity
  8
RACCORDO
100
AcDbLine
 62
250
  6
CONTINUOUS
 10
-122.9155645559
 20
-12.2991738207
 11
-122.1031916182
 21
-11.7303441659
  0
LINE
  5
373
100
AcDbEntity
  8
RACCORDO
100
AcDbLine
 62
7
  6
CONTINUOUS
 10
-122.8025945757
 20
-12.4630042296
 11
-121.990221638
 21
-11.8941745747
  0
LINE
  5
374
100
AcDbEntity
  8
RACCORDO
100
AcDbLine
 62
7
  6
CONTINUOUS
 10
-123.99898598
 20
-13.8451242121
 11
-124.3196522125
 21
-14.0302891472
  0
LINE
  5
375
100
AcDbEntity
  8
RACCORDO
100
AcDbLine
 62
7
  6
CONTINUOUS
 10
-124.0552144483
 20
-13.8441427405
 11
-124.3196522125
 21
-13.9967927002
  0
LWPOLYLINE
  5
376
100
AcDbEntity
  8
RACCORDO
100
AcDbPolyline
 62
250
  6
CONTINUOUS
 90
13
 70
0
 10
-123.3604637798
 20
13.8562696586
 10
-123.3240667792
 20
13.8576884832
 10
-123.2876968339
 20
13.860822317
 10
-123.251353944
 20
13.86567116
 10
-123.2151911074
 20
13.8721077812
 10
-123.1790553261
 20
13.8802594116
 10
-123.1424876062
 20
13.8905077437
 10
-123.1052433952
 20
13.902830589
 10
-123.0675672456
 20
13.917250136
 10
-123.0297338205
 20
13.9342146427
 10
-122.9918346744
 20
13.9538735285
 10
-122.9537782529
 20
13.976077374
 10
-122.9155645559
 20
14.0008261793
  0
LINE
  5
377
100
AcDbEntity
  8
RACCORDO
100
AcDbLine
 62
7
  6
CONTINUOUS
 10
-123.7155318416
 20
13.6500719213
 11
-123.3587186057
 21
13.6563001195
  0
LINE
  5
378
100
AcDbEntity
  8
RACCORDO
100
AcDbLine
 62
250
  6
CONTINUOUS
 10
-123.99898598
 20
13.8451242121
 11
-123.3604637798
 21
13.8562696586
  0
LINE
  5
379
100
AcDbEntity
  8
RACCORDO
100
AcDbLine
 62
250
  6
CONTINUOUS
 10
-122.0179069054
 20
14.733486243
 11
-121.8196522125
 21
14.733486243
  0
LINE
  5
37A
100
AcDbEntity
  8
RACCORDO
100
AcDbLine
 62
250
  6
CONTINUOUS
 10
-122.0179069054
 20
14.8172159683
 11
-121.8196522125
 21
14.8172159683
  0
LINE
  5
37B
100
AcDbEntity
  8
RACCORDO
100
AcDbLine
 62
250
  6
CONTINUOUS
 10
-123.99898598
 20
12.4548757879
 11
-123.3604637798
 21
12.4437303414
  0
LINE
  5
37C
100
AcDbEntity
  8
RACCORDO
100
AcDbLine
 62
7
  6
CONTINUOUS
 10
-123.7155318416
 20
12.6499280787
 11
-123.3587186057
 21
12.6436998805
  0
LWPOLYLINE
  5
37D
100
AcDbEntity
  8
RACCORDO
100
AcDbPolyline
 62
250
  6
CONTINUOUS
 90
13
 70
0
 10
-123.3604637798
 20
12.4437303414
 10
-123.3211794555
 20
12.4420692651
 10
-123.2821986662
 20
12.4385156716
 10
-123.243521412
 20
12.433069561
 10
-123.2050891084
 20
12.4257266072
 10
-123.1669603399
 20
12.4164911364
 10
-123.1293108597
 20
12.4053761262
 10
-123.0921350293
 20
12.3923884168
 10
-123.0554384872
 20
12.3775211681
 10
-123.019413902
 20
12.3607668383
 10
-122.9841254964
 20
12.3421229135
 10
-122.9495090478
 20
12.3215919077
 10
-122.9155645559
 20
12.2991738207
  0
LINE
  5
37E
100
AcDbEntity
  8
RACCORDO
100
AcDbLine
 62
7
  6
CONTINUOUS
 10
-124.3196522125
 20
13.9967927002
 11
-124.0552144483
 21
13.8441427405
  0
LINE
  5
37F
100
AcDbEntity
  8
RACCORDO
100
AcDbLine
 62
7
  6
CONTINUOUS
 10
-124.3196522125
 20
14.0302891472
 11
-123.99898598
 21
13.8451242121
  0
LINE
  5
380
100
AcDbEntity
  8
RACCORDO
100
AcDbLine
 62
250
  6
CONTINUOUS
 10
-122.9155645559
 20
12.2991738207
 11
-122.1031916182
 21
11.7303441659
  0
LINE
  5
381
100
AcDbEntity
  8
RACCORDO
100
AcDbLine
 62
7
  6
CONTINUOUS
 10
-122.8025945757
 20
12.4630042296
 11
-121.990221638
 21
11.8941745747
  0
LWPOLYLINE
  5
382
100
AcDbEntity
  8
RACCORDO
100
AcDbPolyline
 62
250
  6
CONTINUOUS
 90
16
 70
0
 10
-122.1031916182
 20
11.7303441659
 10
-122.0931712891
 20
11.7228299441
 10
-122.0837164193
 20
11.7148008521
 10
-122.0748270088
 20
11.7062568899
 10
-122.0664921242
 20
11.6971930438
 10
-122.0587226988
 20
11.6876143274
 10
-122.0515515328
 20
11.6775357819
 10
-122.0449576933
 20
11.6669535784
 10
-122.0389621132
 20
11.6558715457
 10
-122.033660391
 20
11.6443162114
 10
-122.0290364435
 20
11.6322439802
 10
-122.0251063539
 20
11.6196984473
 10
-122.0220139705
 20
11.6068369272
 10
-122.0198072427
 20
11.5937118578
 10
-122.018438221
 20
11.5802708011
 10
-122.0179069054
 20
11.566513757
  0
LINE
  5
383
100
AcDbEntity
  8
RACCORDO
100
AcDbLine
 62
250
  6
CONTINUOUS
 10
-122.1031916182
 20
14.5696558341
 11
-122.036285107
 21
14.4736230291
  0
LINE
  5
384
100
AcDbEntity
  8
RACCORDO
100
AcDbLine
 62
250
  6
CONTINUOUS
 10
-122.036285107
 20
14.4736230291
 11
-122.0113089778
 21
14.4374023488
  0
LWPOLYLINE
  5
385
100
AcDbEntity
  8
RACCORDO
100
AcDbPolyline
 62
250
  6
CONTINUOUS
 90
6
 70
0
 10
-122.0113089778
 20
14.4374023488
 10
-121.9996021731
 20
14.4202330166
 10
-121.9954399716
 20
14.4140458663
 10
-121.9924698138
 20
14.409552771
 10
-121.9907240342
 20
14.4068026444
 10
-121.990221638
 20
14.4058254253
  0
LWPOLYLINE
  5
386
100
AcDbEntity
  8
RACCORDO
100
AcDbPolyline
 62
250
  6
CONTINUOUS
 90
9
 70
0
 10
-129.609692457
 20
-43.5895678673
 10
-129.6096044088
 20
-43.5893883821
 10
-129.6095351843
 20
-43.5892103218
 10
-129.6094847835
 20
-43.5890357067
 10
-129.6094543238
 20
-43.5888686288
 10
-129.6094426877
 20
-43.5887088329
 10
-129.6094465237
 20
-43.5885514834
 10
-129.6094647143
 20
-43.5883958681
 10
-129.6094983769
 20
-43.5882456499
  0
LINE
  5
387
100
AcDbEntity
  8
RACCORDO
100
AcDbLine
 62
250
  6
CONTINUOUS
 10
-122.1678309046
 20
15.0108454963
 11
-124.3196522125
 21
15.567344325
  0
LINE
  5
388
100
AcDbEntity
  8
RACCORDO
100
AcDbLine
 62
7
  6
CONTINUOUS
 10
-122.1195002109
 20
15.2044750244
 11
-124.3196522125
 21
15.7734730203
  0
LWPOLYLINE
  5
389
100
AcDbEntity
  8
0
100
AcDbPolyline
 62
7
  6
CONTINUOUS
 90
10
 70
0
 43
0.3500000006
 10
-139.4804649353
 20
60.7359513245
 10
-139.4090337524
 20
60.5930889587
 10
-139.4090337524
 20
60.5216577759
 10
-139.5518961182
 20
60.3788044739
 10
-139.623327301
 20
60.3788044739
 10
-139.6947494202
 20
60.4502356567
 10
-139.6947494202
 20
60.5216577759
 10
-139.623327301
 20
60.6645201416
 10
-139.5518961182
 20
60.7359513245
 10
-139.4804649353
 20
60.7359513245
  0
LINE
  5
38A
100
AcDbEntity
  8
RACCORDO
100
AcDbLine
 62
7
  6
CONTINUOUS
 10
-129.4008644649
 20
-43.2049545514
 11
-129.609692457
 21
-43.5895678673
  0
LINE
  5
38B
100
AcDbEntity
  8
RACCORDO
100
AcDbLine
 62
7
  6
CONTINUOUS
 10
-129.4008644649
 20
43.2049545514
 11
-129.609692457
 21
43.5895678673
  0
LINE
  5
38C
100
AcDbEntity
  8
RACCORDO
100
AcDbLine
 62
250
  6
CONTINUOUS
 10
-129.3981743524
 20
-42.300048098
 11
-129.6096808432
 21
-42.4573504316
  0
LINE
  5
38D
100
AcDbEntity
  8
RACCORDO
100
AcDbLine
 62
250
  6
CONTINUOUS
 10
-129.3981743524
 20
42.300048098
 11
-129.6096808432
 21
42.4573504316
  0
LWPOLYLINE
  5
38E
100
AcDbEntity
  8
0
100
AcDbPolyline
 62
7
  6
CONTINUOUS
 90
13
 70
0
 43
0.3500000006
 10
-138.4096316528
 20
54.0772889099
 10
-138.6953473206
 20
54.2915733948
 10
-138.6953473206
 20
54.9344313812
 10
-138.4096316528
 20
55.3630048828
 10
-137.7667781982
 20
55.3630048828
 10
-137.4810625305
 20
54.9344313812
 10
-137.4810625305
 20
54.2915733948
 10
-137.7667781982
 20
54.0772889099
 10
-137.3382001648
 20
53.6487199402
 10
-137.3382001648
 20
52.7915774689
 10
-137.7667781982
 20
52.3630039673
 10
-138.4096316528
 20
52.3630039673
 10
-138.8382006226
 20
52.7915774689
  0
LINE
  5
38F
100
AcDbEntity
  8
RACCORDO
100
AcDbLine
 62
250
  6
CONTINUOUS
 10
-131.6458201906
 20
42.4220726233
 11
-130.1196522125
 21
42.5020556979
  0
LINE
  5
390
100
AcDbEntity
  8
RACCORDO
100
AcDbLine
 62
7
  6
CONTINUOUS
 10
-131.6458201906
 20
43.9200169255
 11
-130.1196522125
 21
44.0
  0
LINE
  5
391
100
AcDbEntity
  8
RACCORDO
100
AcDbLine
 62
250
  6
CONTINUOUS
 10
-129.7825697957
 20
42.5010625408
 11
-129.6095560667
 21
42.5056034607
  0
LWPOLYLINE
  5
392
100
AcDbEntity
  8
RACCORDO
100
AcDbPolyline
 62
250
  6
CONTINUOUS
 90
3
 70
0
 10
-129.7825599309
 20
42.5006185861
 10
-129.8574735379
 20
42.5001740275
 10
-129.8949290964
 20
42.5001739553
  0
LINE
  5
393
100
AcDbEntity
  8
RACCORDO
100
AcDbLine
 62
250
  6
CONTINUOUS
 10
-129.781965379
 20
42.4572818769
 11
-129.6096808432
 21
42.4573504316
  0
LINE
  5
394
100
AcDbEntity
  8
RACCORDO
100
AcDbLine
 62
250
  6
CONTINUOUS
 10
-124.3196522125
 20
42.4148907673
 11
-124.5161617312
 21
42.4148907673
  0
LINE
  5
395
100
AcDbEntity
  8
RACCORDO
100
AcDbLine
 62
250
  6
CONTINUOUS
 10
-132.1196522125
 20
42.4220726233
 11
-131.6458201906
 21
42.4220726233
  0
LWPOLYLINE
  5
396
100
AcDbEntity
  8
0
100
AcDbPolyline
 62
7
  6
CONTINUOUS
 90
6
 70
0
 43
0.3500000006
 10
-138.4090334473
 20
60.2359511719
 10
-137.3376110229
 20
60.2359511719
 10
-137.1233265381
 20
60.4502356567
 10
-137.1233265381
 20
61.5216580811
 10
-137.5518955078
 20
61.9502361145
 10
-137.9804644775
 20
61.9502361145
  0
LINE
  5
397
100
AcDbEntity
  8
RACCORDO
100
AcDbLine
 62
250
  6
CONTINUOUS
 10
-129.8949290964
 20
42.5001739553
 11
-130.1196522125
 21
42.5019525623
  0
LINE
  5
398
100
AcDbEntity
  8
RACCORDO
100
AcDbLine
 62
250
  6
CONTINUOUS
 10
-124.5161617312
 20
42.4148907673
 11
-129.4096322407
 21
42.5003066128
  0
LINE
  5
399
100
AcDbEntity
  8
RACCORDO
100
AcDbLine
 62
7
  6
CONTINUOUS
 10
-124.5161617312
 20
43.1147841539
 11
-129.4096216056
 21
43.2001998138
  0
LINE
  5
39A
100
AcDbEntity
  8
RACCORDO
100
AcDbLine
 62
7
  6
CONTINUOUS
 10
-129.7825467002
 20
43.6941158014
 11
-130.1196522125
 21
43.7
  0
LWPOLYLINE
  5
39B
100
AcDbEntity
  8
RACCORDO
100
AcDbPolyline
 62
250
  6
CONTINUOUS
 90
13
 70
0
 10
-129.7825563952
 20
43.6941159706
 10
-129.7648634636
 20
43.6930209006
 10
-129.7473370602
 20
43.6903624408
 10
-129.7301149632
 20
43.6861614901
 10
-129.7133325589
 20
43.6804510735
 10
-129.6971217769
 20
43.6732760818
 10
-129.6816100534
 20
43.6646929194
 10
-129.6669193289
 20
43.6547690607
 10
-129.6531650896
 20
43.6435825191
 10
-129.6404554602
 20
43.6312212347
 10
-129.6288903531
 20
43.617782382
 10
-129.6185606835
 20
43.6033716068
 10
-129.6095476544
 20
43.5881021949
  0
ARC
  5
39C
100
AcDbEntity
  8
RACCORDO
100
AcDbCircle
 62
7
  6
CONTINUOUS
 10
-131.6196522125
 20
-43.4207021581
 40
0.5
100
AcDbArc
 50
180.0
 51
267.0
  0
ARC
  5
39D
100
AcDbEntity
  8
RACCORDO
100
AcDbCircle
 62
7
  6
CONTINUOUS
 10
-129.7854558798
 20
-43.4941361157
 40
0.2
100
AcDbArc
 50
271.0
 51
331.4997889727
  0
ARC
  5
39E
100
AcDbEntity
  8
RACCORDO
100
AcDbCircle
 62
7
  6
CONTINUOUS
 10
-131.6196522125
 20
43.4207021581
 40
0.5
100
AcDbArc
 50
93.0
 51
180.0
  0
ARC
  5
39F
100
AcDbEntity
  8
RACCORDO
100
AcDbCircle
 62
7
  6
CONTINUOUS
 10
-129.7854558798
 20
43.4941361157
 40
0.2
100
AcDbArc
 50
28.5002110273
 51
89.0
  0
ARC
  5
3A0
100
AcDbEntity
  8
RACCORDO
100
AcDbCircle
 62
7
  6
CONTINUOUS
 10
-124.5196522125
 20
-42.9148146149
 40
0.2
100
AcDbArc
 50
271.0
 51
360.0
  0
ARC
  5
3A1
100
AcDbEntity
  8
RACCORDO
100
AcDbCircle
 62
7
  6
CONTINUOUS
 10
-123.3761710121
 20
-14.6561478147
 40
1.0
100
AcDbArc
 50
55.0
 51
89.0
  0
ARC
  5
3A2
100
AcDbEntity
  8
RACCORDO
100
AcDbCircle
 62
7
  6
CONTINUOUS
 10
-123.3761710121
 20
-11.6438521853
 40
1.0
100
AcDbArc
 50
271.0
 51
305.0
  0
ARC
  5
3A3
100
AcDbEntity
  8
RACCORDO
100
AcDbCircle
 62
7
  6
CONTINUOUS
 10
-122.2196522125
 20
-14.8172159683
 40
0.4
100
AcDbArc
 50
284.5
 51
360.0
  0
ARC
  5
3A4
100
AcDbEntity
  8
RACCORDO
100
AcDbCircle
 62
7
  6
CONTINUOUS
 10
-122.2196522125
 20
-14.733486243
 40
0.4
100
AcDbArc
 50
0.0
 51
55.0
  0
ARC
  5
3A5
100
AcDbEntity
  8
RACCORDO
100
AcDbCircle
 62
7
  6
CONTINUOUS
 10
-122.2196522125
 20
-11.566513757
 40
0.4
100
AcDbArc
 50
305.0
 51
360.0
  0
ARC
  5
3A6
100
AcDbEntity
  8
RACCORDO
100
AcDbCircle
 62
7
  6
CONTINUOUS
 10
-122.2196522125
 20
-11.4827840317
 40
0.4
100
AcDbArc
 50
0.0
 51
75.5
  0
ARC
  5
3A7
100
AcDbEntity
  8
RACCORDO
100
AcDbCircle
 62
7
  6
CONTINUOUS
 10
-123.3761710121
 20
14.6561478147
 40
1.0
100
AcDbArc
 50
271.0
 51
305.0
  0
ARC
  5
3A8
100
AcDbEntity
  8
RACCORDO
100
AcDbCircle
 62
7
  6
CONTINUOUS
 10
-123.3761710121
 20
11.6438521853
 40
1.0
100
AcDbArc
 50
55.0
 51
89.0
  0
ARC
  5
3A9
100
AcDbEntity
  8
RACCORDO
100
AcDbCircle
 62
7
  6
CONTINUOUS
 10
-124.5196522125
 20
42.9148146135
 40
0.2
100
AcDbArc
 50
0.0
 51
89.0
  0
ARC
  5
3AA
100
AcDbEntity
  8
RACCORDO
100
AcDbCircle
 62
7
  6
CONTINUOUS
 10
-122.2196522125
 20
14.8172159683
 40
0.4
100
AcDbArc
 50
0.0
 51
75.5
  0
ARC
  5
3AB
100
AcDbEntity
  8
RACCORDO
100
AcDbCircle
 62
7
  6
CONTINUOUS
 10
-122.2196522125
 20
14.733486243
 40
0.4
100
AcDbArc
 50
305.0
 51
360.0
  0
ARC
  5
3AC
100
AcDbEntity
  8
RACCORDO
100
AcDbCircle
 62
7
  6
CONTINUOUS
 10
-122.2196522125
 20
11.4827840317
 40
0.4
100
AcDbArc
 50
284.5
 51
360.0
  0
ARC
  5
3AD
100
AcDbEntity
  8
RACCORDO
100
AcDbCircle
 62
7
  6
CONTINUOUS
 10
-122.2196522125
 20
11.566513757
 40
0.4
100
AcDbArc
 50
0.0
 51
55.0
  0
ELLIPSE
  5
3AE
100
AcDbEntity
  8
RACCORDO
100
AcDbEllipse
 62
7
  6
CONTINUOUS
 10
-102.747941481
 20
-42.497941481
 30
0.0
 11
1.0635693652
 21
1.0635693652
 31
0.0
 40
0.9972646886
 41
2.3575640181
 42
3.9256212891
  0
ELLIPSE
  5
3AF
100
AcDbEntity
  8
RACCORDO
100
AcDbEllipse
 62
7
  6
CONTINUOUS
 10
102.747941481
 20
-42.497941481
 30
0.0
 11
1.0635693652
 21
-1.0635693652
 31
0.0
 40
0.9972646886
 41
-0.7840286355
 42
0.7840286355
  0
ELLIPSE
  5
3B0
100
AcDbEntity
  8
RACCORDO
100
AcDbEllipse
 62
7
  6
CONTINUOUS
 10
102.747941481
 20
42.497941481
 30
0.0
 11
1.0635693652
 21
1.0635693652
 31
0.0
 40
0.9972646886
 41
-0.7840286355
 42
0.7840286355
  0
ELLIPSE
  5
3B1
100
AcDbEntity
  8
RACCORDO
100
AcDbEllipse
 62
7
  6
CONTINUOUS
 10
-102.747941481
 20
42.497941481
 30
0.0
 11
1.0635693652
 21
-1.0635693652
 31
0.0
 40
0.9972646886
 41
2.3575640181
 42
3.9256212891
  0
ELLIPSE
  5
3B2
100
AcDbEntity
  8
RACCORDO
100
AcDbEllipse
 62
7
  6
CONTINUOUS
 10
-78.524923836
 20
26.324923836
 30
0.0
 11
0.3536610946
 21
-0.3536610946
 31
0.0
 40
0.9996954599
 41
2.3563467834
 42
3.9268385237
  0
ELLIPSE
  5
3B3
100
AcDbEntity
  8
RACCORDO
100
AcDbEllipse
 62
7
  6
CONTINUOUS
 10
-78.524923836
 20
-26.324923836
 30
0.0
 11
0.3536610946
 21
0.3536610946
 31
0.0
 40
0.9996954599
 41
2.3563467834
 42
3.9268385237
  0
ELLIPSE
  5
3B4
100
AcDbEntity
  8
RACCORDO
100
AcDbEllipse
 62
7
  6
CONTINUOUS
 10
78.524923836
 20
-26.324923836
 30
0.0
 11
-0.3536610946
 21
0.3536610946
 31
0.0
 40
0.9996954599
 41
2.3563467834
 42
3.9268385237
  0
ELLIPSE
  5
3B5
100
AcDbEntity
  8
RACCORDO
100
AcDbEllipse
 62
7
  6
CONTINUOUS
 10
78.524923836
 20
26.324923836
 30
0.0
 11
-0.3536610946
 21
-0.3536610946
 31
0.0
 40
0.9996954599
 41
2.3563467834
 42
3.9268385237
  0
ELLIPSE
  5
3B6
100
AcDbEntity
  8
RACCORDO
100
AcDbEllipse
 62
7
  6
CONTINUOUS
 10
-124.0518767352
 20
13.844231465
 30
0.0
 11
0.3363608344
 21
-0.1941536676
 31
0.0
 40
0.0044942767
 41
-1.5781252965
 42
-0.0074812688
  0
ELLIPSE
  5
3B7
100
AcDbEntity
  8
RACCORDO
100
AcDbEllipse
 62
7
  6
CONTINUOUS
 10
-124.0518767352
 20
12.455768535
 30
0.0
 11
0.3363608344
 21
0.1941536676
 31
0.0
 40
0.0044942767
 41
0.0617652424
 42
1.5781252965
  0
ELLIPSE
  5
3B8
100
AcDbEntity
  8
RACCORDO
100
AcDbEllipse
 62
7
  6
CONTINUOUS
 10
-124.0518767352
 20
-13.844231465
 30
0.0
 11
0.3363608344
 21
0.1941536676
 31
0.0
 40
0.0044942767
 41
0.0617652424
 42
1.5781252965
  0
ELLIPSE
  5
3B9
100
AcDbEntity
  8
RACCORDO
100
AcDbEllipse
 62
7
  6
CONTINUOUS
 10
-124.0518767352
 20
-12.455768535
 30
0.0
 11
0.3363608344
 21
-0.1941536676
 31
0.0
 40
0.0044942767
 41
-1.5781252965
 42
-0.0074812688
  0
ELLIPSE
  5
3BA
100
AcDbEntity
  8
RACCORDO
100
AcDbEllipse
 62
7
  6
CONTINUOUS
 10
-124.0024251262
 20
13.845094646
 30
0.0
 11
0.3362624204
 21
-0.1941553872
 31
0.0
 40
0.0044949007
 41
-0.0074800953
 42
1.5631639324
  0
ELLIPSE
  5
3BB
100
AcDbEntity
  8
RACCORDO
100
AcDbEllipse
 62
7
  6
CONTINUOUS
 10
-124.0024251262
 20
12.454905354
 30
0.0
 11
0.3362624204
 21
0.1941553872
 31
0.0
 40
0.0044949007
 41
-1.5631639324
 42
0.0074800953
  0
ELLIPSE
  5
3BC
100
AcDbEntity
  8
RACCORDO
100
AcDbEllipse
 62
7
  6
CONTINUOUS
 10
-124.0024251262
 20
-13.845094646
 30
0.0
 11
0.3362624204
 21
0.1941553872
 31
0.0
 40
0.0044949007
 41
-1.5631639324
 42
0.0074800953
  0
ELLIPSE
  5
3BD
100
AcDbEntity
  8
RACCORDO
100
AcDbEllipse
 62
7
  6
CONTINUOUS
 10
-124.0024251262
 20
-12.454905354
 30
0.0
 11
0.3362624204
 21
-0.1941553872
 31
0.0
 40
0.0044949007
 41
-0.0074800953
 42
1.5631639324
  0
ENDSEC
  0
SECTION
  2
OBJECTS
  0
DICTIONARY
  5
C
100
AcDbDictionary
280
0
281
1
  3
ACAD_GROUP
350
D
  3
ACAD_MLINESTYLE
350
17
  3
ACAD_LAYOUT
350
1A
  3
ACAD_PLOTSETTINGS
350
19
  3
ACAD_PLOTSTYLENAME
350
E
  0
DICTIONARY
  5
D
102
{ACAD_REACTORS
330
C
102
}
100
AcDbDictionary
280
0
281
1
  0
ACDBDICTIONARYWDFLT
  5
E
102
{ACAD_REACTORS
330
C
102
}
100
AcDbDictionary
281
1
  3
Normal
350
F
100
AcDbDictionaryWithDefault
340
F
  0
DICTIONARY
  5
17
102
{ACAD_REACTORS
330
C
102
}
100
AcDbDictionary
280
0
281
1
  3
Standard
350
18
  0
DICTIONARY
  5
19
102
{ACAD_REACTORS
330
C
102
}
100
AcDbDictionary
281
1
  0
DICTIONARY
  5
1A
102
{ACAD_REACTORS
330
C
102
}
100
AcDbDictionary
281
1
  3
Model
350
3BE
  3
Layout1
350
3BF
  0
ACDBPLACEHOLDER
  5
F
102
{ACAD_REACTORS
330
E
102
}
  0
MLINESTYLE
  5
18
102
{ACAD_REACTORS
330
17
102
}
100
AcDbMlineStyle
  2
STANDARD
 70
0
  3

 62
256
 51
90.0
 52
90.0
 71
2
 49
0.5
 62
256
  6
BYLAYER
 49
-0.5
 62
256
  6
BYLAYER
  0
LAYOUT
  5
3BE
102
{ACAD_REACTORS
330
1A
102
}
100
AcDbPlotSettings
  1

  2
none_device
  4
ISO_A4_(297.00_x_210.00_MM)
  6

 40
0.0
 41
0.0
 42
0.0
 43
0.0
 44
297.0
 45
210.0
 46
0.0
 47
0.0
 48
0.0
 49
0.0
140
0.0
141
0.0
142
1.0
143
1.0
 70
1024
 72
1
 73
0
 74
0
  7

 75
0
147
1.0
148
0.0
149
0.0
100
AcDbLayout
  1
Model
 70
0
 71
0
 10
0.0
 20
0.0
 11
297.0
 21
210.0
 12
0.0
 22
0.0
 32
0.0
 14
0.0
 24
0.0
 34
0.0
 15
0.0
 25
0.0
 35
0.0
146
0.0
 13
0.0
 23
0.0
 33
0.0
 16
1.0
 26
0.0
 36
0.0
 17
0.0
 27
1.0
 37
0.0
 76
0
330
212
345
0
346
0
  0
LAYOUT
  5
3BF
102
{ACAD_REACTORS
330
1A
102
}
100
AcDbPlotSettings
  1

  2
none_device
  4
ISO_A4_(297.00_x_210.00_MM)
  6

 40
0.0
 41
0.0
 42
0.0
 43
0.0
 44
297.0
 45
210.0
 46
0.0
 47
0.0
 48
0.0
 49
0.0
140
0.0
141
0.0
142
1.0
143
1.0
 70
0
 72
1
 73
0
 74
0
  7

 75
0
147
1.0
148
0.0
149
0.0
100
AcDbLayout
  1
Layout1
 70
0
 71
1
 10
0.0
 20
0.0
 11
297.0
 21
210.0
 12
0.0
 22
0.0
 32
0.0
 14
0.0
 24
0.0
 34
0.0
 15
0.0
 25
0.0
 35
0.0
146
0.0
 13
0.0
 23
0.0
 33
0.0
 16
1.0
 26
0.0
 36
0.0
 17
0.0
 27
1.0
 37
0.0
 76
0
330
213
345
0
346
0
  0
ENDSEC
  0
EOF
