  0
SECTION
  2
HEADER
  9
$ACADVER
  1
AC1024
  9
$DWGCODEPAGE
  3
ANSI_1252
  9
$EXTMAX
 10
297.0
 20
210.0
 30
0.0
  9
$EXTMIN
 10
0.0
 20
0.0
 30
0.0
  9
$LIMMIN
 10
0.0
 20
0.0
  9
$LIMMAX
 10
297.0
 20
210.0
  9
$VIEWCTR
 10
148.5
 20
105.0
  9
$VIEWSIZE
 40
210.0
  9
$CLAYER
  8
0
  9
$LTSCALE
 40
16.335
  9
$CELTYPE
  6
BYLAYER
  9
$DIMSCALE
 40
1.0
  9
$DIMASZ
 40
3.0
  9
$DIMEXO
 40
0.5
  9
$DIMDLI
 40
11.286
  9
$DIMEXE
 40
1.5
  9
$DIMCEN
 40
2.673
  9
$DIMLFAC
 40
1.0
  9
$DIMBLK
  1
_FILLED
  9
$DIMALT
 70
0
  9
$DIMALTF
 40
0.0393700787
  9
$DIMTXT
 40
3.0
  9
$DIMTOL
 70
1
  9
$DIMLIM
 70
0
  9
$DIMTFAC
 40
1.0
  9
$DIMTP
 40
0.01
  9
$DIMTM
 40
0.01
  9
$DIMGAP
 40
0.625
  9
$DIMDSEP
 70
44
  9
$AUNITS
 70
0
  9
$PDMODE
 70
3
  9
$PDSIZE
 40
3.0
  9
$HANDSEED
  5
470
  9
$TILEMODE
 70
1
  9
$MEASUREMENT
 70
1
  9
$INSUNITS
 70
4
  0
ENDSEC
  0
SECTION
  2
CLASSES
  0
CLASS
  1
ACDBDICTIONARYWDFLT
  2
AcDbDictionaryWithDefault
  3
AutoCAD 2000
 90
0
 91
1
280
0
281
0
  0
CLASS
  1
ACDBPLACEHOLDER
  2
AcDbPlaceHolder
  3
AutoCAD 2000
 90
0
 91
1
280
0
281
0
  0
CLASS
  1
LAYOUT
  2
AcDbLayout
  3
AutoCAD 2000
 90
0
 91
0
280
0
281
0
  0
ENDSEC
  0
SECTION
  2
TABLES
  0
TABLE
  2
VPORT
  5
8
100
AcDbSymbolTable
 70
2
  0
VPORT
  5
1F4
100
AcDbSymbolTableRecord
100
AcDbViewportTableRecord
  2
*ACTIVE
 70
0
 10
0.0
 20
0.0
 11
1.0
 21
1.0
 12
148.5
 22
105.0
 13
0.0
 23
0.0
 14
1.0
 24
1.0
 15
0.0
 25
0.0
 16
0.0
 26
0.0
 36
1.0
 17
0.0
 27
0.0
 37
0.0
 40
210.0
 41
1.4142857143
 42
50.0
 43
0.0
 44
0.0
 50
0.0
 51
0.0
 71
0
 72
100
 73
1
 74
1
 75
0
 76
0
 77
0
 78
0
  0
ENDTAB
  0
TABLE
  2
LTYPE
  5
5
100
AcDbSymbolTable
 70
6
  0
LTYPE
  5
14
100
AcDbSymbolTableRecord
100
AcDbLinetypeTableRecord
  2
BYBLOCK
 70
0
  3

 72
65
 73
0
 40
0.0
  0
LTYPE
  5
15
100
AcDbSymbolTableRecord
100
AcDbLinetypeTableRecord
  2
BYLAYER
 70
0
  3

 72
65
 73
0
 40
0.0
  0
LTYPE
  5
16
100
AcDbSymbolTableRecord
100
AcDbLinetypeTableRecord
  2
CONTINUOUS
 70
64
  3
Solid line
 72
65
 73
0
 40
0.0
  0
LTYPE
  5
1F5
100
AcDbSymbolTableRecord
100
AcDbLinetypeTableRecord
  2
CENTER
 70
64
  3
____ _ ____ _ ____ _ ____ _ ____ _ ____ _ ____
 72
65
 73
4
 40
0.6
 49
0.375
 74
0
 49
-0.075
 74
0
 49
0.075
 74
0
 49
-0.075
 74
0
  0
LTYPE
  5
1F6
100
AcDbSymbolTableRecord
100
AcDbLinetypeTableRecord
  2
HIDDEN
 70
64
  3
- - - - - - - - - - - - - - - - - - - -
 72
65
 73
2
 40
0.2
 49
0.1
 74
0
 49
-0.1
 74
0
  0
LTYPE
  5
1F7
100
AcDbSymbolTableRecord
100
AcDbLinetypeTableRecord
  2
PHANTOM
 70
64
  3
_____ _ _ _____ _ _ _____ _ _ _____
 72
65
 73
6
 40
0.8
 49
0.45
 74
0
 49
-0.05
 74
0
 49
0.1
 74
0
 49
-0.05
 74
0
 49
0.1
 74
0
 49
-0.05
 74
0
  0
LTYPE
  5
1F8
100
AcDbSymbolTableRecord
100
AcDbLinetypeTableRecord
  2
DOT
 70
64
  3
. . . . . . . . . . . . . . . . . . . .
 72
65
 73
2
 40
0.2
 49
0.1
 74
0
 49
-0.1
 74
0
  0
LTYPE
  5
1F9
100
AcDbSymbolTableRecord
100
AcDbLinetypeTableRecord
  2
DASHED
 70
64
  3
- - - - - - - - - - - - - - - - - - - -
 72
65
 73
2
 40
0.2
 49
0.1
 74
0
 49
-0.1
 74
0
  0
ENDTAB
  0
TABLE
  2
LAYER
  5
2
100
AcDbSymbolTable
 70
36
  0
LAYER
  5
10
100
AcDbSymbolTableRecord
100
AcDbLayerTableRecord
  2
0
 70
0
 62
7
  6
CONTINUOUS
370
-3
390
F
  0
LAYER
  5
1FA
100
AcDbSymbolTableRecord
100
AcDbLayerTableRecord
  2
DEFAULT_1
 70
0
 62
7
  6
CENTER
370
-3
390
F
  0
LAYER
  5
1FB
100
AcDbSymbolTableRecord
100
AcDbLayerTableRecord
  2
DEFAULT_2
 70
0
 62
7
  6
HIDDEN
370
-3
390
F
  0
LAYER
  5
1FC
100
AcDbSymbolTableRecord
100
AcDbLayerTableRecord
  2
DEFAULT_3
 70
0
 62
7
  6
PHANTOM
370
-3
390
F
  0
LAYER
  5
1FD
100
AcDbSymbolTableRecord
100
AcDbLayerTableRecord
  2
ASSI
 70
0
 62
7
  6
CONTINUOUS
370
-3
390
F
  0
LAYER
  5
1FE
100
AcDbSymbolTableRecord
100
AcDbLayerTableRecord
  2
COORDINATE
 70
0
 62
7
  6
CONTINUOUS
370
-3
390
F
  0
LAYER
  5
1FF
100
AcDbSymbolTableRecord
100
AcDbLayerTableRecord
  2
COPY_PUBLISH
 70
0
 62
7
  6
CONTINUOUS
370
-3
390
F
  0
LAYER
  5
200
100
AcDbSymbolTableRecord
100
AcDbLayerTableRecord
  2
COSMETICI
 70
0
 62
7
  6
CONTINUOUS
370
-3
390
F
  0
LAYER
  5
201
100
AcDbSymbolTableRecord
100
AcDbLayerTableRecord
  2
CURVE
 70
0
 62
7
  6
CONTINUOUS
370
-3
390
F
  0
LAYER
  5
202
100
AcDbSymbolTableRecord
100
AcDbLayerTableRecord
  2
DRAFT
 70
0
 62
7
  6
CONTINUOUS
370
-3
390
F
  0
LAYER
  5
203
100
AcDbSymbolTableRecord
100
AcDbLayerTableRecord
  2
IMPORT_IGES
 70
0
 62
7
  6
CONTINUOUS
370
-3
390
F
  0
LAYER
  5
204
100
AcDbSymbolTableRecord
100
AcDbLayerTableRecord
  2
INTF_1
 70
0
 62
7
  6
CONTINUOUS
370
-3
390
F
  0
LAYER
  5
205
100
AcDbSymbolTableRecord
100
AcDbLayerTableRecord
  2
INTF_11
 70
0
 62
7
  6
CONTINUOUS
370
-3
390
F
  0
LAYER
  5
206
100
AcDbSymbolTableRecord
100
AcDbLayerTableRecord
  2
INTF_13
 70
0
 62
7
  6
CONTINUOUS
370
-3
390
F
  0
LAYER
  5
207
100
AcDbSymbolTableRecord
100
AcDbLayerTableRecord
  2
INTF_2
 70
0
 62
7
  6
CONTINUOUS
370
-3
390
F
  0
LAYER
  5
208
100
AcDbSymbolTableRecord
100
AcDbLayerTableRecord
  2
NONE
 70
0
 62
7
  6
CONTINUOUS
370
-3
390
F
  0
LAYER
  5
209
100
AcDbSymbolTableRecord
100
AcDbLayerTableRecord
  2
NOTE
 70
0
 62
7
  6
CONTINUOUS
370
-3
390
F
  0
LAYER
  5
20A
100
AcDbSymbolTableRecord
100
AcDbLayerTableRecord
  2
PIANI
 70
0
 62
7
  6
CONTINUOUS
370
-3
390
F
  0
LAYER
  5
20B
100
AcDbSymbolTableRecord
100
AcDbLayerTableRecord
  2
PUNTI
 70
0
 62
7
  6
CONTINUOUS
370
-3
390
F
  0
LAYER
  5
20C
100
AcDbSymbolTableRecord
100
AcDbLayerTableRecord
  2
RACCORDO
 70
0
 62
7
  6
CONTINUOUS
370
-3
390
F
  0
LAYER
  5
20D
100
AcDbSymbolTableRecord
100
AcDbLayerTableRecord
  2
SIMBOLI
 70
0
 62
7
  6
CONTINUOUS
370
-3
390
F
  0
LAYER
  5
20E
100
AcDbSymbolTableRecord
100
AcDbLayerTableRecord
  2
SMUSSO
 70
0
 62
7
  6
CONTINUOUS
370
-3
390
F
  0
LAYER
  5
20F
100
AcDbSymbolTableRecord
100
AcDbLayerTableRecord
  2
SUPERFICI
 70
0
 62
7
  6
CONTINUOUS
370
-3
390
F
  0
LAYER
  5
210
100
AcDbSymbolTableRecord
100
AcDbLayerTableRecord
  2
TRASH
 70
0
 62
7
  6
CONTINUOUS
370
-3
390
F
  0
ENDTAB
  0
TABLE
  2
STYLE
  5
3
100
AcDbSymbolTable
 70
1
  0
STYLE
  5
11
100
AcDbSymbolTableRecord
100
AcDbTextStyleTableRecord
  2
STANDARD
 70
0
 40
0.0
 41
0.8
 50
0.0
 71
0
 42
0.2
  3
txt
  4

  0
STYLE
  5
211
100
AcDbSymbolTableRecord
100
AcDbTextStyleTableRecord
  2
TEXTSTYLE_1
 70
0
 40
0.0
 41
0.8
 50
0.0
 71
0
 42
0.2
  3
gdt
  4

  0
ENDTAB
  0
TABLE
  2
VIEW
  5
6
100
AcDbSymbolTable
 70
0
  0
ENDTAB
  0
TABLE
  2
UCS
  5
7
100
AcDbSymbolTable
 70
0
  0
ENDTAB
  0
TABLE
  2
APPID
  5
9
100
AcDbSymbolTable
 70
1
  0
APPID
  5
212
100
AcDbSymbolTableRecord
100
AcDbRegAppTableRecord
  2
ACAD
 70
0
  0
ENDTAB
  0
TABLE
  2
BLOCK_RECORD
  5
1
100
AcDbSymbolTable
 70
0
  0
BLOCK_RECORD
  5
213
100
AcDbSymbolTableRecord
100
AcDbBlockTableRecord
  2
*Model_Space
  0
BLOCK_RECORD
  5
214
100
AcDbSymbolTableRecord
100
AcDbBlockTableRecord
  2
*Paper_Space
  0
BLOCK_RECORD
  5
215
100
AcDbSymbolTableRecord
100
AcDbBlockTableRecord
  2
_FILLED
  0
BLOCK_RECORD
  5
216
100
AcDbSymbolTableRecord
100
AcDbBlockTableRecord
  2
*D0
  0
BLOCK_RECORD
  5
217
100
AcDbSymbolTableRecord
100
AcDbBlockTableRecord
  2
*D1
  0
BLOCK_RECORD
  5
218
100
AcDbSymbolTableRecord
100
AcDbBlockTableRecord
  2
*D2
  0
BLOCK_RECORD
  5
219
100
AcDbSymbolTableRecord
100
AcDbBlockTableRecord
  2
*D3
  0
ENDTAB
  0
TABLE
  2
DIMSTYLE
  5
A
100
AcDbSymbolTable
 70
1
100
AcDbDimStyleTable
 71
0
  0
DIMSTYLE
105
21A
100
AcDbSymbolTableRecord
100
AcDbDimStyleTableRecord
  2
STANDARD
 70
0
  3

  4

 40
1.0
 41
3.0
 42
0.5
 43
0.38
 44
1.5
 45
0.0
 46
0.0
 47
0.01
 48
0.01
140
3.0
141
0.09
142
0.0
143
25.4
144
1.0
145
0.0
146
1.0
147
0.625
 71
1
 72
0
 73
0
 74
0
 75
0
 76
0
 77
1
 78
8
 79
2
170
0
171
1
172
0
173
0
174
0
175
0
176
0
177
0
178
0
270
2
179
2
271
2
272
2
273
2
274
2
275
0
280
0
281
0
282
0
283
1
284
8
285
0
286
0
287
3
288
0
340
11
278
44
341
215
342
215
343
215
344
215
  0
DIMSTYLE
105
21B
100
AcDbSymbolTableRecord
100
AcDbDimStyleTableRecord
  2
DIMSTYLE_1
 70
0
  3

  4

 40
1.0
 41
3.0
 42
0.5
 43
0.38
 44
1.5
 45
0.0
 46
0.0
 47
0.0
 48
0.0
140
3.0
141
0.09
142
0.0
143
25.4
144
1.0
145
0.0
146
1.0
147
0.75
 71
0
 72
0
 73
0
 74
0
 75
0
 76
0
 77
1
 78
8
 79
2
170
0
171
1
172
0
173
0
174
0
175
0
176
0
177
0
178
0
270
2
179
2
271
2
272
2
273
2
274
2
275
0
280
0
281
0
282
0
283
1
284
8
285
0
286
0
287
3
288
0
340
11
278
44
341
215
342
215
343
215
344
215
  0
DIMSTYLE
105
21C
100
AcDbSymbolTableRecord
100
AcDbDimStyleTableRecord
  2
DIMSTYLE_2
 70
0
  3

  4

 40
1.0
 41
3.0
 42
0.5
 43
0.38
 44
1.5
 45
0.0
 46
0.0
 47
0.0
 48
0.0
140
3.0
141
0.09
142
0.0
143
25.4
144
1.0
145
0.0
146
1.0
147
0.75
 71
0
 72
0
 73
0
 74
0
 75
0
 76
0
 77
1
 78
8
 79
2
170
0
171
1
172
0
173
0
174
0
175
0
176
0
177
0
178
0
270
2
179
2
271
1
272
1
273
2
274
2
275
0
280
0
281
0
282
0
283
1
284
8
285
0
286
0
287
3
288
0
340
11
278
44
341
215
342
215
343
215
344
215
  0
ENDTAB
  0
ENDSEC
  0
SECTION
  2
BLOCKS
  0
BLOCK
  5
20
100
AcDbEntity
  8
0
100
AcDbBlockBegin
  2
*Model_Space
 70
0
 10
0.0
 20
0.0
 30
0.0
  3
*Model_Space
  1

  0
ENDBLK
  5
21
100
AcDbEntity
  8
0
100
AcDbBlockEnd
  0
BLOCK
  5
1C
100
AcDbEntity
  8
0
100
AcDbBlockBegin
  2
*Paper_Space
 70
0
 10
0.0
 20
0.0
 30
0.0
  3
*Paper_Space
  1

  0
ENDBLK
  5
1D
100
AcDbEntity
  8
0
100
AcDbBlockEnd
  0
BLOCK
  5
21D
100
AcDbEntity
  8
0
100
AcDbBlockBegin
  2
_FILLED
 70
64
 10
0.0
 20
0.0
  3
_FILLED
  1

  0
SOLID
  5
21E
100
AcDbEntity
  8
0
  6
BYBLOCK
 62
0
100
AcDbTrace
 10
0.0
 20
0.0
 11
-1.0
 21
0.3166666667
 12
-1.0
 22
-0.3166666667
 13
-1.0
 23
-0.3166666667
  0
ENDBLK
  5
21F
100
AcDbEntity
  8
0
  6
BYBLOCK
 62
0
100
AcDbBlockEnd
  0
BLOCK
  5
220
100
AcDbEntity
  8
0
100
AcDbBlockBegin
 62
7
  6
CONTINUOUS
  2
*D0
 70
65
 10
0.0
 20
0.0
  3
*D0
  1

  0
LINE
  5
221
100
AcDbEntity
  8
0
100
AcDbLine
 62
7
  6
CONTINUOUS
 10
-102.1578940052
 20
44.148609663
 11
-102.1578940052
 21
54.8106744408
  0
LINE
  5
222
100
AcDbEntity
  8
0
100
AcDbLine
 62
7
  6
CONTINUOUS
 10
-96.5578940052
 20
43.3547008391
 11
-96.5578940052
 21
54.8106744408
  0
LINE
  5
223
100
AcDbEntity
  8
0
100
AcDbLine
 62
7
  6
CONTINUOUS
 10
-102.1578940052
 20
53.3106744408
 11
-111.3629683449
 21
53.3106744408
  0
LINE
  5
224
100
AcDbEntity
  8
0
100
AcDbLine
 62
7
  6
CONTINUOUS
 10
-111.3629683449
 20
53.3106744408
 11
-99.3578940052
 21
53.3106744408
  0
LINE
  5
225
100
AcDbEntity
  8
0
100
AcDbLine
 62
7
  6
CONTINUOUS
 10
-96.5578940052
 20
53.3106744408
 11
-92.5578940052
 21
53.3106744408
  0
LINE
  5
226
100
AcDbEntity
  8
0
100
AcDbLine
 62
7
  6
CONTINUOUS
 10
-92.5578940052
 20
53.3106744408
 11
-99.3578940052
 21
53.3106744408
  0
INSERT
  5
227
100
AcDbEntity
  8
0
100
AcDbBlockReference
 62
7
  6
CONTINUOUS
  2
_FILLED
 10
-102.1578940052
 20
53.3106744408
 41
3.0
 42
3.0
 43
3.0
  0
INSERT
  5
228
100
AcDbEntity
  8
0
100
AcDbBlockReference
 62
7
  6
CONTINUOUS
  2
_FILLED
 10
-96.5578940052
 20
53.3106744408
 41
3.0
 42
3.0
 43
3.0
 50
180.0
  0
ENDBLK
  5
229
100
AcDbEntity
  8
0
  6
BYBLOCK
 62
0
100
AcDbBlockEnd
  0
BLOCK
  5
22A
100
AcDbEntity
  8
0
100
AcDbBlockBegin
 62
7
  6
CONTINUOUS
  2
*D1
 70
65
 10
0.0
 20
0.0
  3
*D1
  1

  0
LINE
  5
22B
100
AcDbEntity
  8
0
100
AcDbLine
 62
7
  6
CONTINUOUS
 10
-102.1578940052
 20
44.1799344371
 11
-102.1578940052
 21
62.7517735764
  0
LINE
  5
22C
100
AcDbEntity
  8
0
100
AcDbLine
 62
7
  6
CONTINUOUS
 10
-91.8453530642
 20
22.8957345985
 11
-91.8453530642
 21
62.7517735764
  0
LINE
  5
22D
100
AcDbEntity
  8
0
100
AcDbLine
 62
7
  6
CONTINUOUS
 10
-102.1578940052
 20
61.2517735764
 11
-97.0016235347
 21
61.2517735764
  0
LINE
  5
22E
100
AcDbEntity
  8
0
100
AcDbLine
 62
7
  6
CONTINUOUS
 10
-97.0016235347
 20
61.2517735764
 11
-112.9977517353
 21
61.2517735764
  0
LINE
  5
22F
100
AcDbEntity
  8
0
100
AcDbLine
 62
7
  6
CONTINUOUS
 10
-91.8453530642
 20
61.2517735764
 11
-97.0016235347
 21
61.2517735764
  0
INSERT
  5
230
100
AcDbEntity
  8
0
100
AcDbBlockReference
 62
7
  6
CONTINUOUS
  2
_FILLED
 10
-102.1578940052
 20
61.2517735764
 41
3.0
 42
3.0
 43
3.0
 50
180.0
  0
INSERT
  5
231
100
AcDbEntity
  8
0
100
AcDbBlockReference
 62
7
  6
CONTINUOUS
  2
_FILLED
 10
-91.8453530642
 20
61.2517735764
 41
3.0
 42
3.0
 43
3.0
  0
ENDBLK
  5
232
100
AcDbEntity
  8
0
  6
BYBLOCK
 62
0
100
AcDbBlockEnd
  0
BLOCK
  5
233
100
AcDbEntity
  8
0
100
AcDbBlockBegin
 62
7
  6
CONTINUOUS
  2
*D2
 70
65
 10
0.0
 20
0.0
  3
*D2
  1

  0
LINE
  5
234
100
AcDbEntity
  8
0
100
AcDbLine
 62
7
  6
CONTINUOUS
 10
-73.3
 20
43.7313597138
 11
-73.3
 21
54.3815582586
  0
LINE
  5
235
100
AcDbEntity
  8
0
100
AcDbLine
 62
7
  6
CONTINUOUS
 10
73.3
 20
43.5709128303
 11
73.3
 21
54.3815582586
  0
LINE
  5
236
100
AcDbEntity
  8
0
100
AcDbLine
 62
7
  6
CONTINUOUS
 10
-73.3
 20
52.8815582586
 11
0.0
 21
52.8815582586
  0
LINE
  5
237
100
AcDbEntity
  8
0
100
AcDbLine
 62
7
  6
CONTINUOUS
 10
73.3
 20
52.8815582586
 11
0.0
 21
52.8815582586
  0
INSERT
  5
238
100
AcDbEntity
  8
0
100
AcDbBlockReference
 62
7
  6
CONTINUOUS
  2
_FILLED
 10
-73.3
 20
52.8815582586
 41
3.0
 42
3.0
 43
3.0
 50
180.0
  0
INSERT
  5
239
100
AcDbEntity
  8
0
100
AcDbBlockReference
 62
7
  6
CONTINUOUS
  2
_FILLED
 10
73.3
 20
52.8815582586
 41
3.0
 42
3.0
 43
3.0
  0
ENDBLK
  5
23A
100
AcDbEntity
  8
0
  6
BYBLOCK
 62
0
100
AcDbBlockEnd
  0
BLOCK
  5
23B
100
AcDbEntity
  8
0
100
AcDbBlockBegin
 62
7
  6
CONTINUOUS
  2
*D3
 70
65
 10
0.0
 20
0.0
  3
*D3
  1

  0
LINE
  5
23C
100
AcDbEntity
  8
0
100
AcDbLine
 62
7
  6
CONTINUOUS
 10
72.9000849909
 20
44.0
 11
84.5100099352
 21
44.0
  0
LINE
  5
23D
100
AcDbEntity
  8
0
100
AcDbLine
 62
7
  6
CONTINUOUS
 10
73.0131271134
 20
-44.0
 11
84.5100099352
 21
-44.0
  0
LINE
  5
23E
100
AcDbEntity
  8
0
100
AcDbLine
 62
7
  6
CONTINUOUS
 10
83.0100099352
 20
44.0
 11
83.0100099352
 21
0.0
  0
LINE
  5
23F
100
AcDbEntity
  8
0
100
AcDbLine
 62
7
  6
CONTINUOUS
 10
83.0100099352
 20
-44.0
 11
83.0100099352
 21
0.0
  0
INSERT
  5
240
100
AcDbEntity
  8
0
100
AcDbBlockReference
 62
7
  6
CONTINUOUS
  2
_FILLED
 10
83.0100099352
 20
44.0
 41
3.0
 42
3.0
 43
3.0
 50
90.0
  0
INSERT
  5
241
100
AcDbEntity
  8
0
100
AcDbBlockReference
 62
7
  6
CONTINUOUS
  2
_FILLED
 10
83.0100099352
 20
-44.0
 41
3.0
 42
3.0
 43
3.0
 50
270.0
  0
ENDBLK
  5
242
100
AcDbEntity
  8
0
  6
BYBLOCK
 62
0
100
AcDbBlockEnd
  0
ENDSEC
  0
SECTION
  2
ENTITIES
  0
DIMENSION
  5
243
100
AcDbEntity
  8
0
100
AcDbDimension
 62
7
  6
CONTINUOUS
  2
*D0
 10
-96.5578940052
 20
53.3106744408
 11
-111.3629683449
 21
53.3106744408
 70
160
 71
3
 72
2
 41
0.9
 42
5.6
  3
DIMSTYLE_1
100
AcDbAlignedDimension
 13
-102.1578940052
 23
43.648609663
 14
-96.5578940052
 24
42.8547008391
100
AcDbRotatedDimension
  0
DIMENSION
  5
244
100
AcDbEntity
  8
0
100
AcDbDimension
 62
7
  6
CONTINUOUS
  2
*D1
 10
-91.8453530642
 20
61.2517735764
 11
-112.9977517353
 21
61.2517735764
 70
160
 71
3
 72
2
 41
0.9
 42
10.3125409409
  3
DIMSTYLE_2
100
AcDbAlignedDimension
 13
-102.1578940052
 23
43.6799344371
 14
-91.8453530642
 24
22.3957345985
100
AcDbRotatedDimension
  0
DIMENSION
  5
245
100
AcDbEntity
  8
0
100
AcDbDimension
 62
7
  6
CONTINUOUS
  2
*D2
 10
73.3
 20
52.8815582586
 11
-5.25
 21
52.8815582586
 70
160
 71
2
 72
2
 41
0.9
 42
146.6
  3
DIMSTYLE_1
100
AcDbAlignedDimension
 13
-73.3
 23
43.2313597138
 14
73.3
 24
43.0709128303
100
AcDbRotatedDimension
  0
DIMENSION
  5
246
100
AcDbEntity
  8
0
100
AcDbDimension
 62
7
  6
CONTINUOUS
  2
*D3
 10
83.0100099352
 20
-44.0
 11
83.0100099352
 21
-2.3571428571
 70
160
 71
2
 72
2
 41
0.9
 42
88.0
  3
DIMSTYLE_1
100
AcDbAlignedDimension
 13
72.4000849909
 23
44.0
 14
72.5131271134
 24
-44.0
 50
270.0
100
AcDbRotatedDimension
  0
LWPOLYLINE
  5
247
100
AcDbEntity
  8
RACCORDO
100
AcDbPolyline
 62
250
  6
CONTINUOUS
 90
31
 70
0
 10
-72.7207021581
 20
-42.4220726233
 10
-72.7191441102
 20
-42.4751182905
 10
-72.7150485018
 20
-42.5272353588
 10
-72.708415333
 20
-42.5784238283
 10
-72.6992277405
 20
-42.628611237
 10
-72.6875025875
 20
-42.6778700469
 10
-72.6732904638
 20
-42.7264176439
 10
-72.6565497541
 20
-42.7744832997
 10
-72.6373220736
 20
-42.8218377425
 10
-72.615782858
 20
-42.8680105433
 10
-72.5919263788
 20
-42.9129496173
 10
-72.5657583645
 20
-42.9567070493
 10
-72.5374714361
 20
-42.998968664
 10
-72.5070486717
 20
-43.0397297316
 10
-72.4745069932
 20
-43.0789949821
 10
-72.4400897878
 20
-43.1164644296
 10
-72.4037540402
 20
-43.1521416109
 10
-72.3655427659
 20
-43.1860229893
 10
-72.3258283984
 20
-43.2177979691
 10
-72.2848580269
 20
-43.2473388638
 10
-72.2423845623
 20
-43.2747733599
 10
-72.1980391716
 20
-43.3001739212
 10
-72.1516708091
 20
-43.3237111674
 10
-72.1034305205
 20
-43.345214479
 10
-72.0534026093
 20
-43.3642444608
 10
-72.0013852158
 20
-43.3808362582
 10
-71.9475801998
 20
-43.3949547259
 10
-71.8926774442
 20
-43.4060550328
 10
-71.8369069101
 20
-43.4139555687
 10
-71.7800386365
 20
-43.4188379438
 10
-71.7220726233
 20
-43.4207021581
  0
LWPOLYLINE
  5
248
100
AcDbEntity
  8
RACCORDO
100
AcDbPolyline
 62
250
  6
CONTINUOUS
 90
31
 70
0
 10
-73.2200169255
 20
-42.4220726233
 10
-73.2178542982
 20
-42.5012541259
 10
-73.2115989862
 20
-42.5794320153
 10
-73.201389943
 20
-42.6564026766
 10
-73.1874374452
 20
-42.7316799749
 10
-73.1698627909
 20
-42.8053907021
 10
-73.1485484613
 20
-42.8782392348
 10
-73.1234046201
 20
-42.9503680514
 10
-73.0945695735
 20
-43.021238776
 10
-73.062172219
 20
-43.0905137463
 10
-73.0263346675
 20
-43.1579562993
 10
-72.9871274984
 20
-43.223456196
 10
-72.94463318
 20
-43.2868790218
 10
-72.8989554106
 20
-43.3480670404
 10
-72.850216686
 20
-43.4068536346
 10
-72.7985332363
 20
-43.4630951989
 10
-72.7440001676
 20
-43.5166779358
 10
-72.686790058
 20
-43.5674228808
 10
-72.6271588084
 20
-43.6151131643
 10
-72.5656236767
 20
-43.65939952
 10
-72.5020264327
 20
-43.7004569364
 10
-72.435536995
 20
-43.7387391202
 10
-72.3659946274
 20
-43.7741330381
 10
-72.2937580256
 20
-43.8062524644
 10
-72.2186921825
 20
-43.8349549569
 10
-72.1406994385
 20
-43.8600314318
 10
-72.0601762935
 20
-43.8811088565
 10
-71.9777668581
 20
-43.8978332522
 10
-71.8938530865
 20
-43.9099943413
 10
-71.8085333363
 20
-43.9174453331
 10
-71.7220726233
 20
-43.9200169255
  0
LINE
  5
249
100
AcDbEntity
  8
RACCORDO
100
AcDbLine
 62
7
  6
CONTINUOUS
 10
-73.3
 20
42.5020556979
 11
-73.3
 21
-42.5020556979
  0
LINE
  5
24A
100
AcDbEntity
  8
RACCORDO
100
AcDbLine
 62
250
  6
CONTINUOUS
 10
-73.2200169255
 20
42.4220726233
 11
-73.2200169255
 21
-42.4220726233
  0
LINE
  5
24B
100
AcDbEntity
  8
RACCORDO
100
AcDbLine
 62
250
  6
CONTINUOUS
 10
-72.7207021581
 20
42.4220726233
 11
-72.7207021581
 21
-42.4220726233
  0
LINE
  5
24C
100
AcDbEntity
  8
RACCORDO
100
AcDbLine
 62
250
  6
CONTINUOUS
 10
-71.7220726233
 20
-43.4207021581
 11
-71.7220726233
 21
-43.9200169255
  0
LINE
  5
24D
100
AcDbEntity
  8
RACCORDO
100
AcDbLine
 62
250
  6
CONTINUOUS
 10
-71.7220726233
 20
43.4207021581
 11
-71.7220726233
 21
43.9200169255
  0
LINE
  5
24E
100
AcDbEntity
  8
RACCORDO
100
AcDbLine
 62
250
  6
CONTINUOUS
 10
-45.5907552568
 20
-26.3408771007
 11
-45.5907552568
 21
26.3408771007
  0
LINE
  5
24F
100
AcDbEntity
  8
RACCORDO
100
AcDbLine
 62
250
  6
CONTINUOUS
 10
-45.2908009483
 20
-26.3408771007
 11
-45.2908009483
 21
26.3408771007
  0
LINE
  5
250
100
AcDbEntity
  8
RACCORDO
100
AcDbLine
 62
7
  6
CONTINUOUS
 10
-45.275
 20
-26.3250761524
 11
-45.275
 21
26.3250761524
  0
LWPOLYLINE
  5
251
100
AcDbEntity
  8
RACCORDO
100
AcDbPolyline
 62
250
  6
CONTINUOUS
 90
25
 70
0
 10
-45.2908009456
 20
26.340877098
 10
-45.2897431862
 20
26.3734811295
 10
-45.2865528164
 20
26.4060164596
 10
-45.2812295483
 20
26.4383427644
 10
-45.2737739565
 20
26.4703508032
 10
-45.2642087576
 20
26.501866628
 10
-45.2525995159
 20
26.5326584811
 10
-45.239013729
 20
26.5625699946
 10
-45.2235059287
 20
26.5915005653
 10
-45.2061559051
 20
26.6193154198
 10
-45.1870526435
 20
26.6458896384
 10
-45.166278526
 20
26.6711247553
 10
-45.1439133196
 20
26.6949333724
 10
-45.1200404876
 20
26.7172295205
 10
-45.0947776408
 20
26.7379061196
 10
-45.0682662203
 20
26.7568572751
 10
-45.0406751945
 20
26.7739828708
 10
-45.0120811491
 20
26.7892551358
 10
-44.982484845
 20
26.8026715566
 10
-44.9519519322
 20
26.8141797587
 10
-44.9206573214
 20
26.8236917567
 10
-44.888763022
 20
26.8311459313
 10
-44.8564147994
 20
26.8365003786
 10
-44.823739521
 20
26.8397262637
 10
-44.790877098
 20
26.8408009455
  0
LWPOLYLINE
  5
252
100
AcDbEntity
  8
RACCORDO
100
AcDbPolyline
 62
250
  6
CONTINUOUS
 90
25
 70
0
 10
-45.5907552568
 20
26.3408771007
 10
-45.5890294277
 20
26.3934094973
 10
-45.5839161192
 20
26.4453826241
 10
-45.5754153312
 20
26.496796481
 10
-45.5634532481
 20
26.5479182227
 10
-45.5481036856
 20
26.5984806945
 10
-45.5295880907
 20
26.6476824328
 10
-45.50786088
 20
26.6954565768
 10
-45.4829676369
 20
26.7418699873
 10
-45.4552665591
 20
26.7863217829
 10
-45.4247351491
 20
26.8287690043
 10
-45.3913959044
 20
26.8692546107
 10
-45.3556745148
 20
26.9073065992
 10
-45.3175190941
 20
26.9429107894
 10
-45.2769815285
 20
26.9760813616
 10
-45.234643166
 20
27.0063888537
 10
-45.1905677952
 20
27.0337630286
 10
-45.1446916275
 20
27.0582741234
 10
-45.0974046453
 20
27.0797033869
 10
-45.0486130837
 20
27.0980655963
 10
-44.9984107076
 20
27.1133459745
 10
-44.9474687935
 20
27.1252814379
 10
-44.8960111005
 20
27.1337842922
 10
-44.8438138696
 20
27.1389422319
 10
-44.7908771007
 20
27.1407552568
  0
LWPOLYLINE
  5
253
100
AcDbEntity
  8
RACCORDO
100
AcDbPolyline
 62
250
  6
CONTINUOUS
 90
31
 70
0
 10
71.7220726233
 20
-43.4207021581
 10
71.7751182905
 20
-43.4191441102
 10
71.8272353588
 20
-43.4150485018
 10
71.8784238283
 20
-43.408415333
 10
71.928611237
 20
-43.3992277405
 10
71.9778700469
 20
-43.3875025875
 10
72.0264176439
 20
-43.3732904638
 10
72.0744832997
 20
-43.3565497541
 10
72.1218377425
 20
-43.3373220736
 10
72.1680105433
 20
-43.315782858
 10
72.2129496173
 20
-43.2919263788
 10
72.2567070493
 20
-43.2657583645
 10
72.298968664
 20
-43.2374714361
 10
72.3397297316
 20
-43.2070486717
 10
72.3789949821
 20
-43.1745069932
 10
72.4164644296
 20
-43.1400897878
 10
72.4521416109
 20
-43.1037540402
 10
72.4860229893
 20
-43.0655427659
 10
72.5177979691
 20
-43.0258283984
 10
72.5473388638
 20
-42.9848580269
 10
72.5747733599
 20
-42.9423845623
 10
72.6001739212
 20
-42.8980391716
 10
72.6237111674
 20
-42.8516708091
 10
72.645214479
 20
-42.8034305205
 10
72.6642444608
 20
-42.7534026093
 10
72.6808362582
 20
-42.7013852158
 10
72.6949547259
 20
-42.6475801998
 10
72.7060550328
 20
-42.5926774442
 10
72.7139555687
 20
-42.5369069101
 10
72.7188379438
 20
-42.4800386365
 10
72.7207021581
 20
-42.4220726233
  0
LWPOLYLINE
  5
254
100
AcDbEntity
  8
RACCORDO
100
AcDbPolyline
 62
250
  6
CONTINUOUS
 90
31
 70
0
 10
71.7220726233
 20
-43.9200169255
 10
71.8012541259
 20
-43.9178542982
 10
71.8794320153
 20
-43.9115989862
 10
71.9564026766
 20
-43.901389943
 10
72.0316799749
 20
-43.8874374452
 10
72.1053907021
 20
-43.8698627909
 10
72.1782392348
 20
-43.8485484613
 10
72.2503680514
 20
-43.8234046201
 10
72.321238776
 20
-43.7945695735
 10
72.3905137463
 20
-43.762172219
 10
72.4579562993
 20
-43.7263346675
 10
72.523456196
 20
-43.6871274984
 10
72.5868790218
 20
-43.64463318
 10
72.6480670404
 20
-43.5989554106
 10
72.7068536346
 20
-43.550216686
 10
72.7630951989
 20
-43.4985332363
 10
72.8166779358
 20
-43.4440001676
 10
72.8674228808
 20
-43.386790058
 10
72.9151131643
 20
-43.3271588084
 10
72.95939952
 20
-43.2656236767
 10
73.0004569364
 20
-43.2020264327
 10
73.0387391202
 20
-43.135536995
 10
73.0741330381
 20
-43.0659946274
 10
73.1062524644
 20
-42.9937580256
 10
73.1349549569
 20
-42.9186921825
 10
73.1600314318
 20
-42.8406994385
 10
73.1811088565
 20
-42.7601762935
 10
73.1978332522
 20
-42.6777668581
 10
73.2099943413
 20
-42.5938530865
 10
73.2174453331
 20
-42.5085333363
 10
73.2200169255
 20
-42.4220726233
  0
LINE
  5
255
100
AcDbEntity
  8
RACCORDO
100
AcDbLine
 62
250
  6
CONTINUOUS
 10
-44.7908771007
 20
27.1407552568
 11
-44.7908771007
 21
26.8408009483
  0
LINE
  5
256
100
AcDbEntity
  8
RACCORDO
100
AcDbLine
 62
250
  6
CONTINUOUS
 10
-44.7908771007
 20
-27.1407552568
 11
-44.7908771007
 21
-26.8408009483
  0
LWPOLYLINE
  5
257
100
AcDbEntity
  8
0
100
AcDbPolyline
 62
7
  6
CONTINUOUS
 90
3
 70
0
 43
0.3500000006
 10
-5.2499999027
 20
55.7744162292
 10
-4.3928571482
 20
56.6315541687
 10
-4.3928571482
 20
53.631557785
  0
LWPOLYLINE
  5
258
100
AcDbEntity
  8
0
100
AcDbPolyline
 62
7
  6
CONTINUOUS
 90
10
 70
0
 43
0.3500000006
 10
-0.1071428532
 20
56.6315541687
 10
-0.7500000165
 20
55.9887007141
 10
-1.1785713937
 20
55.1315582428
 10
-1.1785713937
 20
54.0601312866
 10
-0.7500000165
 20
53.631557785
 10
-0.1071428532
 20
53.631557785
 10
0.3214285684
 20
54.0601312866
 10
0.3214285684
 20
54.9172737579
 10
-0.1071428532
 20
55.3458427277
 10
-1.035714268
 20
55.3458427277
  0
LINE
  5
259
100
AcDbEntity
  8
RACCORDO
100
AcDbLine
 62
7
  6
CONTINUOUS
 10
-71.8020556979
 20
-44.0
 11
71.8020556979
 21
-44.0
  0
LINE
  5
25A
100
AcDbEntity
  8
RACCORDO
100
AcDbLine
 62
250
  6
CONTINUOUS
 10
-71.7220726233
 20
-43.9200169255
 11
71.7220726233
 21
-43.9200169255
  0
LINE
  5
25B
100
AcDbEntity
  8
RACCORDO
100
AcDbLine
 62
250
  6
CONTINUOUS
 10
-71.7220726233
 20
-43.4207021581
 11
71.7220726233
 21
-43.4207021581
  0
LINE
  5
25C
100
AcDbEntity
  8
RACCORDO
100
AcDbLine
 62
250
  6
CONTINUOUS
 10
72.7207021581
 20
-42.4220726233
 11
73.2200169255
 21
-42.4220726233
  0
LINE
  5
25D
100
AcDbEntity
  8
RACCORDO
100
AcDbLine
 62
250
  6
CONTINUOUS
 10
-72.7207021581
 20
-42.4220726233
 11
-73.2200169255
 21
-42.4220726233
  0
LWPOLYLINE
  5
25E
100
AcDbEntity
  8
0
100
AcDbPolyline
 62
7
  6
CONTINUOUS
 90
10
 70
0
 43
0.3500000006
 10
3.9642856293
 20
56.6315541687
 10
3.3214284925
 20
55.9887007141
 10
2.8928572569
 20
55.1315582428
 10
2.8928572569
 20
54.0601312866
 10
3.3214284925
 20
53.631557785
 10
3.9642856293
 20
53.631557785
 10
4.3928571482
 20
54.0601312866
 10
4.3928571482
 20
54.9172737579
 10
3.9642856293
 20
55.3458427277
 10
3.035714241
 20
55.3458427277
  0
LWPOLYLINE
  5
25F
100
AcDbEntity
  8
RACCORDO
100
AcDbPolyline
 62
250
  6
CONTINUOUS
 90
25
 70
0
 10
-44.790877098
 20
-26.8408009456
 10
-44.8234811295
 20
-26.8397431862
 10
-44.8560164596
 20
-26.8365528164
 10
-44.8883427644
 20
-26.8312295483
 10
-44.9203508032
 20
-26.8237739565
 10
-44.951866628
 20
-26.8142087576
 10
-44.9826584811
 20
-26.8025995159
 10
-45.0125699946
 20
-26.789013729
 10
-45.0415005653
 20
-26.7735059287
 10
-45.0693154198
 20
-26.7561559051
 10
-45.0958896384
 20
-26.7370526435
 10
-45.1211247553
 20
-26.716278526
 10
-45.1449333724
 20
-26.6939133196
 10
-45.1672295205
 20
-26.6700404876
 10
-45.1879061196
 20
-26.6447776408
 10
-45.2068572751
 20
-26.6182662203
 10
-45.2239828708
 20
-26.5906751945
 10
-45.2392551358
 20
-26.5620811491
 10
-45.2526715566
 20
-26.532484845
 10
-45.2641797587
 20
-26.5019519322
 10
-45.2736917567
 20
-26.4706573214
 10
-45.2811459313
 20
-26.438763022
 10
-45.2865003786
 20
-26.4064147994
 10
-45.2897262637
 20
-26.373739521
 10
-45.2908009455
 20
-26.340877098
  0
LWPOLYLINE
  5
260
100
AcDbEntity
  8
RACCORDO
100
AcDbPolyline
 62
250
  6
CONTINUOUS
 90
25
 70
0
 10
-44.7908771007
 20
-27.1407552568
 10
-44.8434094973
 20
-27.1390294277
 10
-44.8953826241
 20
-27.1339161192
 10
-44.946796481
 20
-27.1254153312
 10
-44.9979182227
 20
-27.1134532481
 10
-45.0484806945
 20
-27.0981036856
 10
-45.0976824328
 20
-27.0795880907
 10
-45.1454565768
 20
-27.05786088
 10
-45.1918699873
 20
-27.0329676369
 10
-45.2363217829
 20
-27.0052665591
 10
-45.2787690043
 20
-26.9747351491
 10
-45.3192546107
 20
-26.9413959044
 10
-45.3573065992
 20
-26.9056745148
 10
-45.3929107894
 20
-26.8675190941
 10
-45.4260813616
 20
-26.8269815285
 10
-45.4563888537
 20
-26.784643166
 10
-45.4837630286
 20
-26.7405677952
 10
-45.5082741234
 20
-26.6946916275
 10
-45.5297033869
 20
-26.6474046453
 10
-45.5480655963
 20
-26.5986130837
 10
-45.5633459745
 20
-26.5484107076
 10
-45.5752814379
 20
-26.4974687935
 10
-45.5837842922
 20
-26.4460111005
 10
-45.5889422319
 20
-26.3938138696
 10
-45.5907552568
 20
-26.3408771007
  0
LINE
  5
261
100
AcDbEntity
  8
RACCORDO
100
AcDbLine
 62
250
  6
CONTINUOUS
 10
44.7908771007
 20
-27.1407552568
 11
-44.7908771007
 21
-27.1407552568
  0
LINE
  5
262
100
AcDbEntity
  8
RACCORDO
100
AcDbLine
 62
250
  6
CONTINUOUS
 10
44.7908771007
 20
-26.8408009483
 11
-44.7908771007
 21
-26.8408009483
  0
LINE
  5
263
100
AcDbEntity
  8
RACCORDO
100
AcDbLine
 62
7
  6
CONTINUOUS
 10
-44.7750761524
 20
-26.825
 11
44.7750761524
 21
-26.825
  0
LINE
  5
264
100
AcDbEntity
  8
RACCORDO
100
AcDbLine
 62
250
  6
CONTINUOUS
 10
-45.5907552568
 20
-26.3408771007
 11
-45.2908009483
 21
-26.3408771007
  0
LINE
  5
265
100
AcDbEntity
  8
RACCORDO
100
AcDbLine
 62
250
  6
CONTINUOUS
 10
45.5907552568
 20
-26.3408771007
 11
45.2908009483
 21
-26.3408771007
  0
LINE
  5
266
100
AcDbEntity
  8
RACCORDO
100
AcDbLine
 62
250
  6
CONTINUOUS
 10
-73.2200169255
 20
-42.4220726233
 11
-73.3
 21
-42.5020556979
  0
LINE
  5
267
100
AcDbEntity
  8
RACCORDO
100
AcDbLine
 62
250
  6
CONTINUOUS
 10
-71.7220726233
 20
-43.9200169255
 11
-71.8020556979
 21
-44.0
  0
LINE
  5
268
100
AcDbEntity
  8
RACCORDO
100
AcDbLine
 62
250
  6
CONTINUOUS
 10
-73.2200169255
 20
42.4220726233
 11
-73.3
 21
42.5020556979
  0
LINE
  5
269
100
AcDbEntity
  8
RACCORDO
100
AcDbLine
 62
250
  6
CONTINUOUS
 10
-71.7220726233
 20
43.9200169255
 11
-71.8020556979
 21
44.0
  0
LWPOLYLINE
  5
26A
100
AcDbEntity
  8
0
100
AcDbPolyline
 62
7
  6
CONTINUOUS
 90
3
 70
0
 43
0.3500000006
 10
1.8928570933
 20
53.9172734528
 10
1.8214286013
 20
53.7029889679
 10
1.6785714755
 20
53.4172733002
  0
LINE
  5
26B
100
AcDbEntity
  8
RACCORDO
100
AcDbLine
 62
250
  6
CONTINUOUS
 10
-45.2908009483
 20
-26.3408771007
 11
-45.275
 21
-26.3250761524
  0
LINE
  5
26C
100
AcDbEntity
  8
RACCORDO
100
AcDbLine
 62
250
  6
CONTINUOUS
 10
-44.7908771007
 20
-26.8408009483
 11
-44.7750761524
 21
-26.825
  0
LINE
  5
26D
100
AcDbEntity
  8
RACCORDO
100
AcDbLine
 62
250
  6
CONTINUOUS
 10
-45.2908009483
 20
26.3408771007
 11
-45.275
 21
26.3250761524
  0
LINE
  5
26E
100
AcDbEntity
  8
RACCORDO
100
AcDbLine
 62
250
  6
CONTINUOUS
 10
-44.7908771007
 20
26.8408009483
 11
-44.7750761524
 21
26.825
  0
LWPOLYLINE
  5
26F
100
AcDbEntity
  8
0
100
AcDbPolyline
 62
7
  6
CONTINUOUS
 90
2
 70
0
 43
0.3500000006
 10
-2.5357143717
 20
53.631557785
 10
-2.5357143717
 20
55.1315582428
  0
LWPOLYLINE
  5
270
100
AcDbEntity
  8
0
100
AcDbPolyline
 62
7
  6
CONTINUOUS
 90
4
 70
0
 43
0.3500000006
 10
81.8314398193
 20
-2.3571432495
 10
80.9742928162
 20
-2.3571432495
 10
80.5457238464
 20
-1.9285708809
 10
80.5457238464
 20
-1.2857140274
  0
LWPOLYLINE
  5
271
100
AcDbEntity
  8
0
100
AcDbPolyline
 62
7
  6
CONTINUOUS
 90
4
 70
0
 43
0.3500000006
 10
81.8314398193
 20
-0.0000003204
 10
80.9742928162
 20
-0.0000003204
 10
80.5457238464
 20
0.4285709152
 10
80.5457238464
 20
1.0714289017
  0
LINE
  5
272
100
AcDbEntity
  8
RACCORDO
100
AcDbLine
 62
250
  6
CONTINUOUS
 10
44.7908771007
 20
26.8408009483
 11
44.7750761524
 21
26.825
  0
LINE
  5
273
100
AcDbEntity
  8
RACCORDO
100
AcDbLine
 62
250
  6
CONTINUOUS
 10
45.2908009483
 20
26.3408771007
 11
45.275
 21
26.3250761524
  0
LINE
  5
274
100
AcDbEntity
  8
RACCORDO
100
AcDbLine
 62
250
  6
CONTINUOUS
 10
44.7908771007
 20
-26.8408009483
 11
44.7750761524
 21
-26.825
  0
LINE
  5
275
100
AcDbEntity
  8
RACCORDO
100
AcDbLine
 62
250
  6
CONTINUOUS
 10
45.2908009483
 20
-26.3408771007
 11
45.275
 21
-26.3250761524
  0
LINE
  5
276
100
AcDbEntity
  8
RACCORDO
100
AcDbLine
 62
250
  6
CONTINUOUS
 10
71.7220726233
 20
43.9200169255
 11
71.8020556979
 21
44.0
  0
LINE
  5
277
100
AcDbEntity
  8
RACCORDO
100
AcDbLine
 62
250
  6
CONTINUOUS
 10
73.2200169255
 20
42.4220726233
 11
73.3
 21
42.5020556979
  0
LINE
  5
278
100
AcDbEntity
  8
RACCORDO
100
AcDbLine
 62
250
  6
CONTINUOUS
 10
71.7220726233
 20
-43.9200169255
 11
71.8020556979
 21
-44.0
  0
LINE
  5
279
100
AcDbEntity
  8
RACCORDO
100
AcDbLine
 62
250
  6
CONTINUOUS
 10
73.2200169255
 20
-42.4220726233
 11
73.3
 21
-42.5020556979
  0
LINE
  5
27A
100
AcDbEntity
  8
RACCORDO
100
AcDbLine
 62
250
  6
CONTINUOUS
 10
-45.5907552568
 20
26.3408771007
 11
-45.2908009483
 21
26.3408771007
  0
LINE
  5
27B
100
AcDbEntity
  8
RACCORDO
100
AcDbLine
 62
250
  6
CONTINUOUS
 10
45.5907552568
 20
26.3408771007
 11
45.2908009483
 21
26.3408771007
  0
LINE
  5
27C
100
AcDbEntity
  8
RACCORDO
100
AcDbLine
 62
7
  6
CONTINUOUS
 10
44.7750761524
 20
26.825
 11
-44.7750761524
 21
26.825
  0
LINE
  5
27D
100
AcDbEntity
  8
RACCORDO
100
AcDbLine
 62
250
  6
CONTINUOUS
 10
-44.7908771007
 20
26.8408009483
 11
44.7908771007
 21
26.8408009483
  0
LINE
  5
27E
100
AcDbEntity
  8
RACCORDO
100
AcDbLine
 62
250
  6
CONTINUOUS
 10
-44.7908771007
 20
27.1407552568
 11
44.7908771007
 21
27.1407552568
  0
LWPOLYLINE
  5
27F
100
AcDbEntity
  8
RACCORDO
100
AcDbPolyline
 62
250
  6
CONTINUOUS
 90
25
 70
0
 10
44.790877098
 20
26.8408009456
 10
44.8234811295
 20
26.8397431862
 10
44.8560164596
 20
26.8365528164
 10
44.8883427644
 20
26.8312295483
 10
44.9203508032
 20
26.8237739565
 10
44.951866628
 20
26.8142087576
 10
44.9826584811
 20
26.8025995159
 10
45.0125699946
 20
26.789013729
 10
45.0415005653
 20
26.7735059287
 10
45.0693154198
 20
26.7561559051
 10
45.0958896384
 20
26.7370526435
 10
45.1211247553
 20
26.716278526
 10
45.1449333724
 20
26.6939133196
 10
45.1672295205
 20
26.6700404876
 10
45.1879061196
 20
26.6447776408
 10
45.2068572751
 20
26.6182662203
 10
45.2239828708
 20
26.5906751945
 10
45.2392551358
 20
26.5620811491
 10
45.2526715566
 20
26.532484845
 10
45.2641797587
 20
26.5019519322
 10
45.2736917567
 20
26.4706573214
 10
45.2811459313
 20
26.438763022
 10
45.2865003786
 20
26.4064147994
 10
45.2897262637
 20
26.373739521
 10
45.2908009455
 20
26.340877098
  0
LWPOLYLINE
  5
280
100
AcDbEntity
  8
RACCORDO
100
AcDbPolyline
 62
250
  6
CONTINUOUS
 90
25
 70
0
 10
44.7908771007
 20
27.1407552568
 10
44.8434094973
 20
27.1390294277
 10
44.8953826241
 20
27.1339161192
 10
44.946796481
 20
27.1254153312
 10
44.9979182227
 20
27.1134532481
 10
45.0484806945
 20
27.0981036856
 10
45.0976824328
 20
27.0795880907
 10
45.1454565768
 20
27.05786088
 10
45.1918699873
 20
27.0329676369
 10
45.2363217829
 20
27.0052665591
 10
45.2787690043
 20
26.9747351491
 10
45.3192546107
 20
26.9413959044
 10
45.3573065992
 20
26.9056745148
 10
45.3929107894
 20
26.8675190941
 10
45.4260813616
 20
26.8269815285
 10
45.4563888537
 20
26.784643166
 10
45.4837630286
 20
26.7405677952
 10
45.5082741234
 20
26.6946916275
 10
45.5297033869
 20
26.6474046453
 10
45.5480655963
 20
26.5986130837
 10
45.5633459745
 20
26.5484107076
 10
45.5752814379
 20
26.4974687935
 10
45.5837842922
 20
26.4460111005
 10
45.5889422319
 20
26.3938138696
 10
45.5907552568
 20
26.3408771007
  0
LWPOLYLINE
  5
281
100
AcDbEntity
  8
0
100
AcDbPolyline
 62
7
  6
CONTINUOUS
 90
10
 70
0
 43
0.3500000006
 10
1.8214286013
 20
54.1315579376
 10
1.8928570933
 20
53.9887001038
 10
1.8928570933
 20
53.9172734528
 10
1.7499999676
 20
53.7744156189
 10
1.6785714755
 20
53.7744156189
 10
1.6071428418
 20
53.8458422699
 10
1.6071428418
 20
53.9172734528
 10
1.6785714755
 20
54.0601312866
 10
1.7499999676
 20
54.1315579376
 10
1.8214286013
 20
54.1315579376
  0
LINE
  5
282
100
AcDbEntity
  8
RACCORDO
100
AcDbLine
 62
250
  6
CONTINUOUS
 10
44.7908771007
 20
27.1407552568
 11
44.7908771007
 21
26.8408009483
  0
LINE
  5
283
100
AcDbEntity
  8
RACCORDO
100
AcDbLine
 62
250
  6
CONTINUOUS
 10
44.7908771007
 20
-27.1407552568
 11
44.7908771007
 21
-26.8408009483
  0
LINE
  5
284
100
AcDbEntity
  8
RACCORDO
100
AcDbLine
 62
7
  6
CONTINUOUS
 10
45.275
 20
-26.3250761524
 11
45.275
 21
26.3250761524
  0
LINE
  5
285
100
AcDbEntity
  8
RACCORDO
100
AcDbLine
 62
250
  6
CONTINUOUS
 10
45.2908009483
 20
26.3408771007
 11
45.2908009483
 21
-26.3408771007
  0
LINE
  5
286
100
AcDbEntity
  8
RACCORDO
100
AcDbLine
 62
250
  6
CONTINUOUS
 10
45.5907552568
 20
26.3408771007
 11
45.5907552568
 21
-26.3408771007
  0
LWPOLYLINE
  5
287
100
AcDbEntity
  8
RACCORDO
100
AcDbPolyline
 62
250
  6
CONTINUOUS
 90
25
 70
0
 10
45.2908009456
 20
-26.340877098
 10
45.2897431862
 20
-26.3734811295
 10
45.2865528164
 20
-26.4060164596
 10
45.2812295483
 20
-26.4383427644
 10
45.2737739565
 20
-26.4703508032
 10
45.2642087576
 20
-26.501866628
 10
45.2525995159
 20
-26.5326584811
 10
45.239013729
 20
-26.5625699946
 10
45.2235059287
 20
-26.5915005653
 10
45.2061559051
 20
-26.6193154198
 10
45.1870526435
 20
-26.6458896384
 10
45.166278526
 20
-26.6711247553
 10
45.1439133196
 20
-26.6949333724
 10
45.1200404876
 20
-26.7172295205
 10
45.0947776408
 20
-26.7379061196
 10
45.0682662203
 20
-26.7568572751
 10
45.0406751945
 20
-26.7739828708
 10
45.0120811491
 20
-26.7892551358
 10
44.982484845
 20
-26.8026715566
 10
44.9519519322
 20
-26.8141797587
 10
44.9206573214
 20
-26.8236917567
 10
44.888763022
 20
-26.8311459313
 10
44.8564147994
 20
-26.8365003786
 10
44.823739521
 20
-26.8397262637
 10
44.790877098
 20
-26.8408009455
  0
LWPOLYLINE
  5
288
100
AcDbEntity
  8
RACCORDO
100
AcDbPolyline
 62
250
  6
CONTINUOUS
 90
31
 70
0
 10
-71.7220726233
 20
43.4207021581
 10
-71.7751182905
 20
43.4191441102
 10
-71.8272353588
 20
43.4150485018
 10
-71.8784238283
 20
43.408415333
 10
-71.928611237
 20
43.3992277405
 10
-71.9778700469
 20
43.3875025875
 10
-72.0264176439
 20
43.3732904638
 10
-72.0744832997
 20
43.3565497541
 10
-72.1218377425
 20
43.3373220736
 10
-72.1680105433
 20
43.315782858
 10
-72.2129496173
 20
43.2919263788
 10
-72.2567070493
 20
43.2657583645
 10
-72.298968664
 20
43.2374714361
 10
-72.3397297316
 20
43.2070486717
 10
-72.3789949821
 20
43.1745069932
 10
-72.4164644296
 20
43.1400897878
 10
-72.4521416109
 20
43.1037540402
 10
-72.4860229893
 20
43.0655427659
 10
-72.5177979691
 20
43.0258283984
 10
-72.5473388638
 20
42.9848580269
 10
-72.5747733599
 20
42.9423845623
 10
-72.6001739212
 20
42.8980391716
 10
-72.6237111674
 20
42.8516708091
 10
-72.645214479
 20
42.8034305205
 10
-72.6642444608
 20
42.7534026093
 10
-72.6808362582
 20
42.7013852158
 10
-72.6949547259
 20
42.6475801998
 10
-72.7060550328
 20
42.5926774442
 10
-72.7139555687
 20
42.5369069101
 10
-72.7188379438
 20
42.4800386365
 10
-72.7207021581
 20
42.4220726233
  0
LWPOLYLINE
  5
289
100
AcDbEntity
  8
RACCORDO
100
AcDbPolyline
 62
250
  6
CONTINUOUS
 90
31
 70
0
 10
-71.7220726233
 20
43.9200169255
 10
-71.8012541259
 20
43.9178542982
 10
-71.8794320153
 20
43.9115989862
 10
-71.9564026766
 20
43.901389943
 10
-72.0316799749
 20
43.8874374452
 10
-72.1053907021
 20
43.8698627909
 10
-72.1782392348
 20
43.8485484613
 10
-72.2503680514
 20
43.8234046201
 10
-72.321238776
 20
43.7945695735
 10
-72.3905137463
 20
43.762172219
 10
-72.4579562993
 20
43.7263346675
 10
-72.523456196
 20
43.6871274984
 10
-72.5868790218
 20
43.64463318
 10
-72.6480670404
 20
43.5989554106
 10
-72.7068536346
 20
43.550216686
 10
-72.7630951989
 20
43.4985332363
 10
-72.8166779358
 20
43.4440001676
 10
-72.8674228808
 20
43.386790058
 10
-72.9151131643
 20
43.3271588084
 10
-72.95939952
 20
43.2656236767
 10
-73.0004569364
 20
43.2020264327
 10
-73.0387391202
 20
43.135536995
 10
-73.0741330381
 20
43.0659946274
 10
-73.1062524644
 20
42.9937580256
 10
-73.1349549569
 20
42.9186921825
 10
-73.1600314318
 20
42.8406994385
 10
-73.1811088565
 20
42.7601762935
 10
-73.1978332522
 20
42.6777668581
 10
-73.2099943413
 20
42.5938530865
 10
-73.2174453331
 20
42.5085333363
 10
-73.2200169255
 20
42.4220726233
  0
LINE
  5
28A
100
AcDbEntity
  8
RACCORDO
100
AcDbLine
 62
250
  6
CONTINUOUS
 10
72.7207021581
 20
42.4220726233
 11
73.2200169255
 21
42.4220726233
  0
LINE
  5
28B
100
AcDbEntity
  8
RACCORDO
100
AcDbLine
 62
250
  6
CONTINUOUS
 10
-72.7207021581
 20
42.4220726233
 11
-73.2200169255
 21
42.4220726233
  0
LINE
  5
28C
100
AcDbEntity
  8
RACCORDO
100
AcDbLine
 62
250
  6
CONTINUOUS
 10
71.7220726233
 20
43.4207021581
 11
-71.7220726233
 21
43.4207021581
  0
LINE
  5
28D
100
AcDbEntity
  8
RACCORDO
100
AcDbLine
 62
250
  6
CONTINUOUS
 10
71.7220726233
 20
43.9200169255
 11
-71.7220726233
 21
43.9200169255
  0
LINE
  5
28E
100
AcDbEntity
  8
RACCORDO
100
AcDbLine
 62
7
  6
CONTINUOUS
 10
71.8020556979
 20
44.0
 11
-71.8020556979
 21
44.0
  0
LWPOLYLINE
  5
28F
100
AcDbEntity
  8
RACCORDO
100
AcDbPolyline
 62
250
  6
CONTINUOUS
 90
25
 70
0
 10
45.5907552568
 20
-26.3408771007
 10
45.5890294277
 20
-26.3934094973
 10
45.5839161192
 20
-26.4453826241
 10
45.5754153312
 20
-26.496796481
 10
45.5634532481
 20
-26.5479182227
 10
45.5481036856
 20
-26.5984806945
 10
45.5295880907
 20
-26.6476824328
 10
45.50786088
 20
-26.6954565768
 10
45.4829676369
 20
-26.7418699873
 10
45.4552665591
 20
-26.7863217829
 10
45.4247351491
 20
-26.8287690043
 10
45.3913959044
 20
-26.8692546107
 10
45.3556745148
 20
-26.9073065992
 10
45.3175190941
 20
-26.9429107894
 10
45.2769815285
 20
-26.9760813616
 10
45.234643166
 20
-27.0063888537
 10
45.1905677952
 20
-27.0337630286
 10
45.1446916275
 20
-27.0582741234
 10
45.0974046453
 20
-27.0797033869
 10
45.0486130837
 20
-27.0980655963
 10
44.9984107076
 20
-27.1133459745
 10
44.9474687935
 20
-27.1252814379
 10
44.8960111005
 20
-27.1337842922
 10
44.8438138696
 20
-27.1389422319
 10
44.7908771007
 20
-27.1407552568
  0
LWPOLYLINE
  5
290
100
AcDbEntity
  8
0
100
AcDbPolyline
 62
7
  6
CONTINUOUS
 90
3
 70
0
 43
0.3500000006
 10
-2.0357142191
 20
54.2744157715
 10
-3.5357143936
 20
54.2744157715
 10
-2.8928572569
 20
56.6315541687
  0
LWPOLYLINE
  5
291
100
AcDbEntity
  8
0
100
AcDbPolyline
 62
7
  6
CONTINUOUS
 90
13
 70
0
 43
0.3500000006
 10
80.5457238464
 20
0.4285709152
 10
80.3314393616
 20
0.1428575134
 10
79.6885768433
 20
0.1428575134
 10
79.2600078735
 20
0.4285709152
 10
79.2600078735
 20
1.0714289017
 10
79.6885768433
 20
1.3571423035
 10
80.3314393616
 20
1.3571423035
 10
80.5457238464
 20
1.0714289017
 10
80.9742928162
 20
1.5000001373
 10
81.8314398193
 20
1.5000001373
 10
82.2600087891
 20
1.0714289017
 10
82.2600087891
 20
0.4285709152
 10
81.8314398193
 20
-0.0000003204
  0
LWPOLYLINE
  5
292
100
AcDbEntity
  8
0
100
AcDbPolyline
 62
7
  6
CONTINUOUS
 90
13
 70
0
 43
0.3500000006
 10
80.5457238464
 20
-1.9285708809
 10
80.3314393616
 20
-2.2142854156
 10
79.6885768433
 20
-2.2142854156
 10
79.2600078735
 20
-1.9285708809
 10
79.2600078735
 20
-1.2857140274
 10
79.6885768433
 20
-1.0000006256
 10
80.3314393616
 20
-1.0000006256
 10
80.5457238464
 20
-1.2857140274
 10
80.9742928162
 20
-0.8571427917
 10
81.8314398193
 20
-0.8571427917
 10
82.2600087891
 20
-1.2857140274
 10
82.2600087891
 20
-1.9285708809
 10
81.8314398193
 20
-2.3571432495
  0
LWPOLYLINE
  5
293
100
AcDbEntity
  8
RACCORDO
100
AcDbPolyline
 62
250
  6
CONTINUOUS
 90
31
 70
0
 10
72.7207021581
 20
42.4220726233
 10
72.7191441102
 20
42.4751182905
 10
72.7150485018
 20
42.5272353588
 10
72.708415333
 20
42.5784238283
 10
72.6992277405
 20
42.628611237
 10
72.6875025875
 20
42.6778700469
 10
72.6732904638
 20
42.7264176439
 10
72.6565497541
 20
42.7744832997
 10
72.6373220736
 20
42.8218377425
 10
72.615782858
 20
42.8680105433
 10
72.5919263788
 20
42.9129496173
 10
72.5657583645
 20
42.9567070493
 10
72.5374714361
 20
42.998968664
 10
72.5070486717
 20
43.0397297316
 10
72.4745069932
 20
43.0789949821
 10
72.4400897878
 20
43.1164644296
 10
72.4037540402
 20
43.1521416109
 10
72.3655427659
 20
43.1860229893
 10
72.3258283984
 20
43.2177979691
 10
72.2848580269
 20
43.2473388638
 10
72.2423845623
 20
43.2747733599
 10
72.1980391716
 20
43.3001739212
 10
72.1516708091
 20
43.3237111674
 10
72.1034305205
 20
43.345214479
 10
72.0534026093
 20
43.3642444608
 10
72.0013852158
 20
43.3808362582
 10
71.9475801998
 20
43.3949547259
 10
71.8926774442
 20
43.4060550328
 10
71.8369069101
 20
43.4139555687
 10
71.7800386365
 20
43.4188379438
 10
71.7220726233
 20
43.4207021581
  0
LWPOLYLINE
  5
294
100
AcDbEntity
  8
RACCORDO
100
AcDbPolyline
 62
250
  6
CONTINUOUS
 90
31
 70
0
 10
73.2200169255
 20
42.4220726233
 10
73.2178542982
 20
42.5012541259
 10
73.2115989862
 20
42.5794320153
 10
73.201389943
 20
42.6564026766
 10
73.1874374452
 20
42.7316799749
 10
73.1698627909
 20
42.8053907021
 10
73.1485484613
 20
42.8782392348
 10
73.1234046201
 20
42.9503680514
 10
73.0945695735
 20
43.021238776
 10
73.062172219
 20
43.0905137463
 10
73.0263346675
 20
43.1579562993
 10
72.9871274984
 20
43.223456196
 10
72.94463318
 20
43.2868790218
 10
72.8989554106
 20
43.3480670404
 10
72.850216686
 20
43.4068536346
 10
72.7985332363
 20
43.4630951989
 10
72.7440001676
 20
43.5166779358
 10
72.686790058
 20
43.5674228808
 10
72.6271588084
 20
43.6151131643
 10
72.5656236767
 20
43.65939952
 10
72.5020264327
 20
43.7004569364
 10
72.435536995
 20
43.7387391202
 10
72.3659946274
 20
43.7741330381
 10
72.2937580256
 20
43.8062524644
 10
72.2186921825
 20
43.8349549569
 10
72.1406994385
 20
43.8600314318
 10
72.0601762935
 20
43.8811088565
 10
71.9777668581
 20
43.8978332522
 10
71.8938530865
 20
43.9099943413
 10
71.8085333363
 20
43.9174453331
 10
71.7220726233
 20
43.9200169255
  0
LINE
  5
295
100
AcDbEntity
  8
RACCORDO
100
AcDbLine
 62
250
  6
CONTINUOUS
 10
71.7220726233
 20
-43.4207021581
 11
71.7220726233
 21
-43.9200169255
  0
LINE
  5
296
100
AcDbEntity
  8
RACCORDO
100
AcDbLine
 62
250
  6
CONTINUOUS
 10
71.7220726233
 20
43.4207021581
 11
71.7220726233
 21
43.9200169255
  0
LINE
  5
297
100
AcDbEntity
  8
RACCORDO
100
AcDbLine
 62
250
  6
CONTINUOUS
 10
72.7207021581
 20
-42.4220726233
 11
72.7207021581
 21
42.4220726233
  0
LINE
  5
298
100
AcDbEntity
  8
RACCORDO
100
AcDbLine
 62
250
  6
CONTINUOUS
 10
73.2200169255
 20
-42.4220726233
 11
73.2200169255
 21
42.4220726233
  0
LINE
  5
299
100
AcDbEntity
  8
RACCORDO
100
AcDbLine
 62
7
  6
CONTINUOUS
 10
73.3
 20
-42.5020556979
 11
73.3
 21
42.5020556979
  0
LWPOLYLINE
  5
29A
100
AcDbEntity
  8
0
100
AcDbPolyline
 62
7
  6
CONTINUOUS
 90
3
 70
0
 43
0.3500000006
 10
-112.9977504272
 20
64.1446263428
 10
-112.1406124878
 20
65.0017733459
 10
-112.1406124878
 20
62.0017724304
  0
LWPOLYLINE
  5
29B
100
AcDbEntity
  8
0
100
AcDbPolyline
 62
7
  6
CONTINUOUS
 90
10
 70
0
 43
0.3500000006
 10
-106.4343930359
 20
57.0606760254
 10
-107.0772555542
 20
56.4178135071
 10
-107.5058245239
 20
55.5606755676
 10
-107.5058245239
 20
54.4892440796
 10
-107.0772555542
 20
54.0606751099
 10
-106.4343930359
 20
54.0606751099
 10
-106.0058240662
 20
54.4892440796
 10
-106.0058240662
 20
55.3463865509
 10
-106.4343930359
 20
55.7749600525
 10
-107.3629712219
 20
55.7749600525
  0
LWPOLYLINE
  5
29C
100
AcDbEntity
  8
0
100
AcDbPolyline
 62
7
  6
CONTINUOUS
 90
5
 70
0
 43
0.3500000006
 10
-106.3548951416
 20
63.716057373
 10
-105.997748291
 20
63.9303418579
 10
-105.997748291
 20
64.5732043762
 10
-106.3548951416
 20
65.0017733459
 10
-107.2120330811
 20
65.0017733459
  0
LINE
  5
29D
100
AcDbEntity
  8
RACCORDO
100
AcDbLine
 62
7
  6
CONTINUOUS
 10
-101.6840619833
 20
-43.9200169255
 11
-100.1578940052
 21
-44.0
  0
LWPOLYLINE
  5
29E
100
AcDbEntity
  8
RACCORDO
100
AcDbPolyline
 62
250
  6
CONTINUOUS
 90
5
 70
0
 10
-99.8201752729
 20
-43.6940353337
 10
-99.7967919729
 20
-43.6922534947
 10
-99.773778178
 20
-43.6877468633
 10
-99.7514503129
 20
-43.6805774047
 10
-99.730115371
 20
-43.6708436962
  0
LINE
  5
29F
100
AcDbEntity
  8
RACCORDO
100
AcDbLine
 62
250
  6
CONTINUOUS
 10
-99.6749093147
 20
-42.5116940871
 11
-99.6479049546
 21
-42.5111324581
  0
LINE
  5
2A0
100
AcDbEntity
  8
RACCORDO
100
AcDbLine
 62
7
  6
CONTINUOUS
 10
-99.8202075895
 20
-43.6941056617
 11
-100.1578940052
 21
-43.7
  0
LINE
  5
2A1
100
AcDbEntity
  8
RACCORDO
100
AcDbLine
 62
7
  6
CONTINUOUS
 10
-96.7544035239
 20
-43.1531852954
 11
-99.4364161527
 21
-43.2
  0
LINE
  5
2A2
100
AcDbEntity
  8
RACCORDO
100
AcDbLine
 62
250
  6
CONTINUOUS
 10
-96.7544035239
 20
-42.4532919088
 11
-99.436416153
 21
-42.5001066133
  0
LINE
  5
2A3
100
AcDbEntity
  8
RACCORDO
100
AcDbLine
 62
250
  6
CONTINUOUS
 10
-99.7301154484
 20
-42.5124631242
 11
-99.6749093147
 21
-42.5116940871
  0
LINE
  5
2A4
100
AcDbEntity
  8
RACCORDO
100
AcDbLine
 62
250
  6
CONTINUOUS
 10
-99.820175273
 20
-42.513209154
 11
-99.7301154484
 21
-42.5124631242
  0
LINE
  5
2A5
100
AcDbEntity
  8
RACCORDO
100
AcDbLine
 62
7
  6
CONTINUOUS
 10
-99.8202075899
 20
-42.5017500454
 11
-100.1578940052
 21
-42.5018413017
  0
LINE
  5
2A6
100
AcDbEntity
  8
RACCORDO
100
AcDbLine
 62
250
  6
CONTINUOUS
 10
-99.8202075893
 20
-42.4999712739
 11
-99.6479352571
 21
-42.499971274
  0
LINE
  5
2A7
100
AcDbEntity
  8
RACCORDO
100
AcDbLine
 62
250
  6
CONTINUOUS
 10
-96.5578940052
 20
-42.4532919088
 11
-96.7544035239
 21
-42.4532919088
  0
LINE
  5
2A8
100
AcDbEntity
  8
RACCORDO
100
AcDbLine
 62
250
  6
CONTINUOUS
 10
-102.1578940052
 20
-42.4220726233
 11
-101.6840619833
 21
-42.4220726233
  0
LINE
  5
2A9
100
AcDbEntity
  8
RACCORDO
100
AcDbLine
 62
250
  6
CONTINUOUS
 10
-101.6840619833
 20
-42.4220726233
 11
-100.1578940052
 21
-42.5020556979
  0
LINE
  5
2AA
100
AcDbEntity
  8
RACCORDO
100
AcDbLine
 62
250
  6
CONTINUOUS
 10
-99.4356605321
 20
-42.5440051575
 11
-99.6479049546
 21
-42.5111324581
  0
LWPOLYLINE
  5
2AB
100
AcDbEntity
  8
0
100
AcDbPolyline
 62
7
  6
CONTINUOUS
 90
3
 70
0
 43
0.3500000006
 10
-108.2120333862
 20
62.2874880981
 10
-108.2834645691
 20
62.0732036133
 10
-108.4263269348
 20
61.7874879456
  0
LINE
  5
2AC
100
AcDbEntity
  8
0
100
AcDbLine
 62
7
  6
CONTINUOUS
 10
-102.1578940052
 20
-31.5801797807
 11
-102.2578940052
 21
-31.5801797807
  0
LINE
  5
2AD
100
AcDbEntity
  8
0
100
AcDbLine
 62
250
  6
CONTINUOUS
 10
-102.1578940052
 20
-30.9036074326
 11
-102.2578940052
 21
-30.9036074326
  0
LINE
  5
2AE
100
AcDbEntity
  8
0
100
AcDbLine
 62
7
  6
CONTINUOUS
 10
-102.1578940052
 20
-30.4133253901
 11
-102.2578940052
 21
-30.4133253901
  0
LINE
  5
2AF
100
AcDbEntity
  8
0
100
AcDbLine
 62
7
  6
CONTINUOUS
 10
-102.1578940052
 20
-30.3985541322
 11
-102.2578940052
 21
-30.3985541322
  0
LWPOLYLINE
  5
2B0
100
AcDbEntity
  8
0
100
AcDbPolyline
 62
7
  6
CONTINUOUS
 90
3
 70
0
 43
0.3500000006
 10
-108.5058248291
 20
54.3463907776
 10
-108.577256012
 20
54.1321017609
 10
-108.720109314
 20
53.846390625
  0
LINE
  5
2B1
100
AcDbEntity
  8
0
100
AcDbLine
 62
250
  6
CONTINUOUS
 10
-102.1578940052
 20
-29.1359677442
 11
-102.2578940052
 21
-29.1359677442
  0
LINE
  5
2B2
100
AcDbEntity
  8
0
100
AcDbLine
 62
7
  6
CONTINUOUS
 10
-102.1578940052
 20
-29.051114715
 11
-102.2578940052
 21
-29.051114715
  0
LWPOLYLINE
  5
2B3
100
AcDbEntity
  8
RACCORDO
100
AcDbPolyline
 62
250
  6
CONTINUOUS
 90
10
 70
0
 10
-101.6840619833
 20
-43.9200169255
 10
-101.6853998481
 20
-43.9178542982
 10
-101.6866523575
 20
-43.9115989862
 10
-101.6878161227
 20
-43.901389943
 10
-101.688881414
 20
-43.8874374452
 10
-101.6898565058
 20
-43.8698627909
 10
-101.6907579721
 20
-43.8485484613
 10
-101.6915786639
 20
-43.8234046201
 10
-101.6923075223
 20
-43.7945695735
 10
-101.6929491483
 20
-43.762172219
  0
LWPOLYLINE
  5
2B4
100
AcDbEntity
  8
RACCORDO
100
AcDbPolyline
 62
7
  6
CONTINUOUS
 90
4
 70
0
 10
-92.0579778203
 20
-22.3023791047
 10
-92.0838425608
 20
-22.3093260046
 10
-92.110644481
 20
-22.3139926313
 10
-92.1277510161
 20
-22.3156809921
  0
LINE
  5
2B5
100
AcDbEntity
  8
RACCORDO
100
AcDbLine
 62
7
  6
CONTINUOUS
 10
-95.6755421268
 20
-22.4642399945
 11
-96.5578940052
 21
-22.6924317059
  0
LINE
  5
2B6
100
AcDbEntity
  8
RACCORDO
100
AcDbLine
 62
250
  6
CONTINUOUS
 10
-95.7238728205
 20
-22.2706104665
 11
-96.5578940052
 21
-22.4863030105
  0
LINE
  5
2B7
100
AcDbEntity
  8
RACCORDO
100
AcDbLine
 62
7
  6
CONTINUOUS
 10
-92.084109289
 20
-22.3098630067
 11
-92.0593040391
 21
-22.3035759372
  0
LWPOLYLINE
  5
2B8
100
AcDbEntity
  8
RACCORDO
100
AcDbPolyline
 62
7
  6
CONTINUOUS
 90
17
 70
0
 10
-92.105924797
 20
-22.3113865773
 10
-92.0811195471
 20
-22.3050995078
 10
-92.0569403469
 20
-22.2967212217
 10
-92.0335631333
 20
-22.2863126828
 10
-92.0111580066
 20
-22.2739496274
 10
-91.9898879945
 20
-22.2597220134
 10
-91.9699078674
 20
-22.2437333669
 10
-91.9513630105
 20
-22.2261000294
 10
-91.9343883611
 20
-22.2069503058
 10
-91.9191074358
 20
-22.1864235398
 10
-91.9056314301
 20
-22.164669103
 10
-91.8940584082
 20
-22.1418452727
 10
-91.8844725698
 20
-22.1181181422
 10
-91.8769436237
 20
-22.0936604309
 10
-91.8715263158
 20
-22.0686501317
 10
-91.8682600514
 20
-22.0432692087
 10
-91.8671685723
 20
-22.0177023418
  0
LINE
  5
2B9
100
AcDbEntity
  8
RACCORDO
100
AcDbLine
 62
7
  6
CONTINUOUS
 10
-92.109360095
 20
-22.3140131124
 11
-92.084109289
 21
-22.3098630067
  0
LINE
  5
2BA
100
AcDbEntity
  8
RACCORDO
100
AcDbLine
 62
7
  6
CONTINUOUS
 10
-92.1311756031
 20
-22.315536683
 11
-92.105924797
 21
-22.3113865773
  0
LINE
  5
2BB
100
AcDbEntity
  8
RACCORDO
100
AcDbLine
 62
7
  6
CONTINUOUS
 10
-95.335968488
 20
-20.8400121858
 11
-96.5578940052
 21
-21.0009755947
  0
LINE
  5
2BC
100
AcDbEntity
  8
RACCORDO
100
AcDbLine
 62
7
  6
CONTINUOUS
 10
-95.3455073232
 20
-20.8119116834
 11
-96.5578940052
 21
-20.9714322882
  0
LINE
  5
2BD
100
AcDbEntity
  8
RACCORDO
100
AcDbLine
 62
7
  6
CONTINUOUS
 10
-92.127751022
 20
-22.3156809925
 11
-92.1244414066
 21
-22.3154498526
  0
LINE
  5
2BE
100
AcDbEntity
  8
RACCORDO
100
AcDbLine
 62
7
  6
CONTINUOUS
 10
-92.1495698531
 20
-22.3172047952
 11
-92.1462569147
 21
-22.3169734233
  0
LINE
  5
2BF
100
AcDbEntity
  8
RACCORDO
100
AcDbLine
 62
7
  6
CONTINUOUS
 10
-92.1495698473
 20
-22.3172047948
 11
-92.1600016797
 21
-22.3177510346
  0
LINE
  5
2C0
100
AcDbEntity
  8
RACCORDO
100
AcDbLine
 62
7
  6
CONTINUOUS
 10
-92.1277510161
 20
-22.3156809921
 11
-92.1381828485
 21
-22.3162272319
  0
LWPOLYLINE
  5
2C1
100
AcDbEntity
  8
RACCORDO
100
AcDbPolyline
 62
250
  6
CONTINUOUS
 90
16
 70
0
 10
-95.4652910451
 20
-22.2331177187
 10
-95.4820263071
 20
-22.2338235861
 10
-95.4986813722
 20
-22.2347532383
 10
-95.5152562403
 20
-22.2359066751
 10
-95.5316995068
 20
-22.2372780659
 10
-95.5480625764
 20
-22.2388732415
 10
-95.5644996629
 20
-22.2407096939
 10
-95.580990998
 20
-22.2427739918
 10
-95.5975563501
 20
-22.2450795666
 10
-95.6144092376
 20
-22.2476842037
 10
-95.6315511676
 20
-22.2505737369
 10
-95.648980633
 20
-22.2537623324
 10
-95.6669066313
 20
-22.2573502747
 10
-95.6853988282
 20
-22.2613709918
 10
-95.7043875579
 20
-22.2657910558
 10
-95.7238728205
 20
-22.2706104665
  0
LWPOLYLINE
  5
2C2
100
AcDbEntity
  8
RACCORDO
100
AcDbPolyline
 62
7
  6
CONTINUOUS
 90
16
 70
0
 10
-95.4600567186
 20
-22.4329958841
 10
-95.4739986448
 20
-22.4335801897
 10
-95.4878787574
 20
-22.434355687
 10
-95.501694496
 20
-22.4353200441
 10
-95.515397758
 20
-22.4364667709
 10
-95.5290318336
 20
-22.4377963695
 10
-95.5427307947
 20
-22.439322589
 10
-95.5564737577
 20
-22.4410462608
 10
-95.5702755974
 20
-22.4429724319
 10
-95.5843222218
 20
-22.4451347103
 10
-95.5986072885
 20
-22.4475440078
 10
-95.6131275182
 20
-22.4502119179
 10
-95.6280701709
 20
-22.4531898006
 10
-95.6434915402
 20
-22.4565124894
 10
-95.6593186595
 20
-22.4601887226
 10
-95.6755421268
 20
-22.4642399945
  0
LINE
  5
2C3
100
AcDbEntity
  8
RACCORDO
100
AcDbLine
 62
7
  6
CONTINUOUS
 10
-92.1600016797
 20
-22.3177510346
 11
-95.4600567186
 21
-22.4329958841
  0
LINE
  5
2C4
100
AcDbEntity
  8
RACCORDO
100
AcDbLine
 62
250
  6
CONTINUOUS
 10
-92.1652360061
 20
-22.1178728692
 11
-95.4652910451
 21
-22.2331177187
  0
LINE
  5
2C5
100
AcDbEntity
  8
RACCORDO
100
AcDbLine
 62
7
  6
CONTINUOUS
 10
-91.8671685723
 20
-21.5152361117
 11
-91.8486484897
 21
-21.5145895978
  0
LINE
  5
2C6
100
AcDbEntity
  8
RACCORDO
100
AcDbLine
 62
250
  6
CONTINUOUS
 10
-91.8704673209
 20
-22.0179327227
 11
-92.0687143984
 21
-22.0179327227
  0
LINE
  5
2C7
100
AcDbEntity
  8
RACCORDO
100
AcDbLine
 62
250
  6
CONTINUOUS
 10
-91.8486484897
 20
-22.01640892
 11
-91.8671685723
 21
-22.0164089235
  0
LINE
  5
2C8
100
AcDbEntity
  8
RACCORDO
100
AcDbLine
 62
250
  6
CONTINUOUS
 10
-91.8704673209
 20
-21.1420782911
 11
-92.0687143984
 21
-21.1420782911
  0
LWPOLYLINE
  5
2C9
100
AcDbEntity
  8
RACCORDO
100
AcDbPolyline
 62
250
  6
CONTINUOUS
 90
10
 70
0
 10
-93.4254324109
 20
-18.7873309744
 10
-93.3715739974
 20
-18.7855191472
 10
-93.3183213353
 20
-18.780151967
 10
-93.2656744248
 20
-18.7712294336
 10
-93.2134827482
 20
-18.7587640937
 10
-93.161896823
 20
-18.7427434007
 10
-93.1113682019
 20
-18.7231297152
 10
-93.0620474024
 20
-18.6999104908
 10
-93.0137839069
 20
-18.6730982738
 10
-92.9665777155
 20
-18.6426930643
  0
LWPOLYLINE
  5
2CA
100
AcDbEntity
  8
RACCORDO
100
AcDbPolyline
 62
250
  6
CONTINUOUS
 90
10
 70
0
 10
-93.427177718
 20
-18.987323359
 10
-93.3603600879
 20
-18.9850923957
 10
-93.2936938927
 20
-18.9783820331
 10
-93.2274814002
 20
-18.9671927396
 10
-93.1621581529
 20
-18.9515818218
 10
-93.0978900891
 20
-18.931572335
 10
-93.0345995509
 20
-18.9070651426
 10
-92.9724972339
 20
-18.8780048767
 10
-92.9120530756
 20
-18.8444692362
 10
-92.8536121034
 20
-18.806517235
  0
LINE
  5
2CB
100
AcDbEntity
  8
RACCORDO
100
AcDbLine
 62
250
  6
CONTINUOUS
 10
-94.0974204157
 20
-20.212720203
 11
-93.4254324109
 21
-20.2126690256
  0
LINE
  5
2CC
100
AcDbEntity
  8
RACCORDO
100
AcDbLine
 62
7
  6
CONTINUOUS
 10
-93.7544906301
 20
-20.0127015685
 11
-93.427177718
 21
-20.012676641
  0
LINE
  5
2CD
100
AcDbEntity
  8
RACCORDO
100
AcDbLine
 62
7
  6
CONTINUOUS
 10
-93.4191936553
 20
-19.0126455708
 11
-93.7544886978
 21
-19.0126711062
  0
LINE
  5
2CE
100
AcDbEntity
  8
RACCORDO
100
AcDbLine
 62
250
  6
CONTINUOUS
 10
-92.0687143984
 20
-17.8579217089
 11
-91.8704673209
 21
-17.8579217089
  0
LINE
  5
2CF
100
AcDbEntity
  8
RACCORDO
100
AcDbLine
 62
7
  6
CONTINUOUS
 10
-93.4191936553
 20
-19.9873544292
 11
-93.7544886978
 21
-19.9873288938
  0
LINE
  5
2D0
100
AcDbEntity
  8
RACCORDO
100
AcDbLine
 62
7
  6
CONTINUOUS
 10
-93.7544906301
 20
-18.9872984315
 11
-93.427177718
 21
-18.987323359
  0
LINE
  5
2D1
100
AcDbEntity
  8
RACCORDO
100
AcDbLine
 62
250
  6
CONTINUOUS
 10
-94.0974204157
 20
-18.787279797
 11
-93.4254324109
 21
-18.7873309744
  0
LWPOLYLINE
  5
2D2
100
AcDbEntity
  8
RACCORDO
100
AcDbPolyline
 62
250
  6
CONTINUOUS
 90
13
 70
0
 10
-93.427177718
 20
-20.012676641
 10
-93.3775407048
 20
-20.0139064916
 10
-93.3279675091
 20
-20.017604472
 10
-93.2785812815
 20
-20.0237701855
 10
-93.2296051456
 20
-20.0323769619
 10
-93.1810605086
 20
-20.0434222587
 10
-93.1327780018
 20
-20.0569770667
 10
-93.0848970677
 20
-20.0730587937
 10
-93.0375541026
 20
-20.0916794928
 10
-92.9906081763
 20
-20.1129803004
 10
-92.9441354112
 20
-20.137050978
 10
-92.8984089891
 20
-20.1638792381
 10
-92.8536121034
 20
-20.193482765
  0
LWPOLYLINE
  5
2D3
100
AcDbEntity
  8
RACCORDO
100
AcDbPolyline
 62
250
  6
CONTINUOUS
 90
13
 70
0
 10
-93.4254324109
 20
-20.2126690256
 10
-93.3855581668
 20
-20.2136608906
 10
-93.3459322143
 20
-20.2166184204
 10
-93.3065545534
 20
-20.221541615
 10
-93.2674002862
 20
-20.2284102361
 10
-93.2284943106
 20
-20.237244522
 10
-93.1899113205
 20
-20.2481051878
 10
-93.1516305748
 20
-20.2609620143
 10
-93.1136728146
 20
-20.2758452205
 10
-93.0761749569
 20
-20.2929061786
 10
-93.0391826406
 20
-20.3121953458
 10
-93.0026502268
 20
-20.3336622649
 10
-92.9665777155
 20
-20.3573069357
  0
LINE
  5
2D4
100
AcDbEntity
  8
RACCORDO
100
AcDbLine
 62
7
  6
CONTINUOUS
 10
-96.5578940052
 20
-18.0285677118
 11
-95.3455073232
 21
-18.1880883166
  0
LINE
  5
2D5
100
AcDbEntity
  8
RACCORDO
100
AcDbLine
 62
7
  6
CONTINUOUS
 10
-96.5578940052
 20
-17.9990244053
 11
-95.335968488
 21
-18.1599878142
  0
LWPOLYLINE
  5
2D6
100
AcDbEntity
  8
RACCORDO
100
AcDbPolyline
 62
7
  6
CONTINUOUS
 90
10
 70
0
 10
-92.8456500767
 20
20.1682304427
 10
-92.9017929034
 20
20.1316554456
 10
-92.9603558377
 20
20.0988721857
 10
-93.0210858195
 20
20.0700474763
 10
-93.0835868557
 20
20.0453780775
 10
-93.1477083757
 20
20.0249320306
 10
-93.2135748276
 20
20.0087370944
 10
-93.2810463876
 20
19.9969524136
 10
-93.3496912408
 20
19.9897773928
 10
-93.4191936553
 20
19.9873544292
  0
LINE
  5
2D7
100
AcDbEntity
  8
RACCORDO
100
AcDbLine
 62
7
  6
CONTINUOUS
 10
-94.0974204157
 20
18.787279797
 11
-94.9665179701
 21
18.2854296617
  0
LINE
  5
2D8
100
AcDbEntity
  8
RACCORDO
100
AcDbLine
 62
7
  6
CONTINUOUS
 10
-94.1112145806
 20
18.8127060222
 11
-94.9760383619
 21
18.3134758318
  0
LINE
  5
2D9
100
AcDbEntity
  8
RACCORDO
100
AcDbLine
 62
250
  6
CONTINUOUS
 10
-91.8486484897
 20
-16.98359108
 11
-91.8671685723
 21
-16.9835910799
  0
LINE
  5
2DA
100
AcDbEntity
  8
RACCORDO
100
AcDbLine
 62
250
  6
CONTINUOUS
 10
-92.0687143984
 20
-16.9820672773
 11
-91.8704673209
 21
-16.9820672773
  0
LINE
  5
2DB
100
AcDbEntity
  8
RACCORDO
100
AcDbLine
 62
7
  6
CONTINUOUS
 10
-91.8486484897
 20
-17.4854104022
 11
-91.8671685723
 21
-17.4847638883
  0
LINE
  5
2DC
100
AcDbEntity
  8
RACCORDO
100
AcDbLine
 62
250
  6
CONTINUOUS
 10
-92.1652360061
 20
-16.8821271308
 11
-95.4652910451
 21
-16.7668822813
  0
LINE
  5
2DD
100
AcDbEntity
  8
RACCORDO
100
AcDbLine
 62
7
  6
CONTINUOUS
 10
-92.1600016797
 20
-16.6822489654
 11
-95.4600567186
 21
-16.5670041159
  0
LWPOLYLINE
  5
2DE
100
AcDbEntity
  8
RACCORDO
100
AcDbPolyline
 62
7
  6
CONTINUOUS
 90
10
 70
0
 10
-95.4600567186
 20
-16.5670041159
 10
-95.4876281978
 20
-16.5656600281
 10
-95.5143083885
 20
-16.5636313367
 10
-95.5400833153
 20
-16.5609872795
 10
-95.5649342749
 20
-16.557796261
 10
-95.5888618861
 20
-16.5541226972
 10
-95.6118855147
 20
-16.5500249612
 10
-95.6340106471
 20
-16.545560396
 10
-95.6552289447
 20
-16.5407872061
 10
-95.6755421268
 20
-16.5357600055
  0
LINE
  5
2DF
100
AcDbEntity
  8
RACCORDO
100
AcDbLine
 62
7
  6
CONTINUOUS
 10
-92.1381828485
 20
-16.6837727681
 11
-92.1277510157
 21
-16.684319008
  0
LINE
  5
2E0
100
AcDbEntity
  8
RACCORDO
100
AcDbLine
 62
7
  6
CONTINUOUS
 10
-92.1495698456
 20
-16.6827952053
 11
-92.1600016797
 21
-16.6822489654
  0
LWPOLYLINE
  5
2E1
100
AcDbEntity
  8
RACCORDO
100
AcDbPolyline
 62
250
  6
CONTINUOUS
 90
10
 70
0
 10
-95.4652910451
 20
-16.7668822813
 10
-95.4983981789
 20
-16.7651349674
 10
-95.5304087293
 20
-16.7627282554
 10
-95.5613226964
 20
-16.7596621452
 10
-95.5911365775
 20
-16.7558636218
 10
-95.6198538753
 20
-16.7514057002
 10
-95.6474850977
 20
-16.7465074261
 10
-95.6740337474
 20
-16.7412418145
 10
-95.6994963216
 20
-16.7355358503
 10
-95.7238728205
 20
-16.7293895335
  0
LINE
  5
2E2
100
AcDbEntity
  8
RACCORDO
100
AcDbLine
 62
7
  6
CONTINUOUS
 10
-92.127751021
 20
-16.6843190076
 11
-92.1244414055
 21
-16.6845501474
  0
LINE
  5
2E3
100
AcDbEntity
  8
RACCORDO
100
AcDbLine
 62
7
  6
CONTINUOUS
 10
-92.1495698472
 20
-16.6827952052
 11
-92.146256265
 21
-16.6830266221
  0
LINE
  5
2E4
100
AcDbEntity
  8
RACCORDO
100
AcDbLine
 62
7
  6
CONTINUOUS
 10
-92.1277510157
 20
-16.684319008
 11
-92.1093595512
 21
-16.6859869533
  0
LINE
  5
2E5
100
AcDbEntity
  8
RACCORDO
100
AcDbLine
 62
7
  6
CONTINUOUS
 10
-92.1119722966
 20
-16.685840791
 11
-92.0841082134
 21
-16.6901372174
  0
LINE
  5
2E6
100
AcDbEntity
  8
RACCORDO
100
AcDbLine
 62
7
  6
CONTINUOUS
 10
-92.086404136
 20
-16.6901189698
 11
-92.0593024559
 21
-16.6964245366
  0
LINE
  5
2E7
100
AcDbEntity
  8
RACCORDO
100
AcDbLine
 62
250
  6
CONTINUOUS
 10
-95.7238728205
 20
-16.7293895335
 11
-96.5578940052
 21
-16.5136969895
  0
LINE
  5
2E8
100
AcDbEntity
  8
RACCORDO
100
AcDbLine
 62
7
  6
CONTINUOUS
 10
-95.6755421268
 20
-16.5357600055
 11
-96.5578940052
 21
-16.3075682941
  0
LINE
  5
2E9
100
AcDbEntity
  8
RACCORDO
100
AcDbLine
 62
7
  6
CONTINUOUS
 10
-94.9760383619
 20
-18.3134758318
 11
-94.1112145806
 21
-18.8127060222
  0
LINE
  5
2EA
100
AcDbEntity
  8
RACCORDO
100
AcDbLine
 62
7
  6
CONTINUOUS
 10
-94.9665179701
 20
-18.2854296617
 11
-94.0974204157
 21
-18.787279797
  0
LWPOLYLINE
  5
2EB
100
AcDbEntity
  8
RACCORDO
100
AcDbPolyline
 62
7
  6
CONTINUOUS
 90
13
 70
0
 10
-92.8456500767
 20
-20.1682304427
 10
-92.8871336115
 20
-20.1406937752
 10
-92.929951099
 20
-20.1152477581
 10
-92.9739976181
 20
-20.0919576995
 10
-93.0190624827
 20
-20.0709284204
 10
-93.0651328934
 20
-20.0521594969
 10
-93.1124152194
 20
-20.035596711
 10
-93.1608051498
 20
-20.0213324494
 10
-93.210197625
 20
-20.0094530229
 10
-93.2608186967
 20
-19.9999865547
 10
-93.31266833
 20
-19.9930517946
 10
-93.3655065262
 20
-19.9888002574
 10
-93.4191936553
 20
-19.9873544292
  0
LWPOLYLINE
  5
2EC
100
AcDbEntity
  8
0
100
AcDbPolyline
 62
7
  6
CONTINUOUS
 90
13
 70
0
 43
0.3500000006
 10
-111.2834654846
 20
62.8589194336
 10
-111.2834654846
 20
64.1446263428
 10
-111.0691809998
 20
64.5732043762
 10
-110.64061203
 20
65.0017733459
 10
-110.4263275452
 20
65.0017733459
 10
-109.9977495117
 20
64.5732043762
 10
-109.7834650269
 20
64.1446263428
 10
-109.7834650269
 20
62.8589194336
 10
-109.9977495117
 20
62.4303414001
 10
-110.4263275452
 20
62.0017724304
 10
-110.64061203
 20
62.0017724304
 10
-111.0691809998
 20
62.4303414001
 10
-111.2834654846
 20
62.8589194336
  0
LWPOLYLINE
  5
2ED
100
AcDbEntity
  8
RACCORDO
100
AcDbPolyline
 62
250
  6
CONTINUOUS
 90
16
 70
0
 10
-92.1966463395
 20
20.896347107
 10
-92.1818084439
 20
20.9074602436
 10
-92.1677927998
 20
20.9193320626
 10
-92.1545994073
 20
20.9319625641
 10
-92.142219728
 20
20.9453402228
 10
-92.1306623003
 20
20.9594765639
 10
-92.1199527388
 20
20.9744061632
 10
-92.1100432472
 20
20.9901430509
 10
-92.1009816218
 20
21.0066731969
 10
-92.0929368656
 20
21.0239890856
 10
-92.0858781346
 20
21.0421730897
 10
-92.0798362728
 20
21.0611428367
 10
-92.0750728148
 20
21.0806436936
 10
-92.0716749389
 20
21.1005907828
 10
-92.0695554667
 20
21.121068982
 10
-92.0687143984
 20
21.1420782911
  0
LWPOLYLINE
  5
2EE
100
AcDbEntity
  8
RACCORDO
100
AcDbPolyline
 62
250
  6
CONTINUOUS
 90
16
 70
0
 10
-92.0836807273
 20
20.7325229363
 10
-92.0590774467
 20
20.7509007853
 10
-92.0356921653
 20
20.770715271
 10
-92.0136058347
 20
20.7918837636
 10
-91.9929746269
 20
20.8142261387
 10
-91.9737754274
 20
20.837735162
 10
-91.9558637837
 20
20.8626243432
 10
-91.9393307621
 20
20.8888723587
 10
-91.9243164823
 20
20.9163733191
 10
-91.9108387609
 20
20.9452632929
 10
-91.899008986
 20
20.9755767288
 10
-91.8890282198
 20
21.0071219416
 10
-91.8810656595
 20
21.0396878044
 10
-91.8752477176
 20
21.0731131773
 10
-91.8716793592
 20
21.107294052
 10
-91.8704673209
 20
21.1420782911
  0
LINE
  5
2EF
100
AcDbEntity
  8
RACCORDO
100
AcDbLine
 62
7
  6
CONTINUOUS
 10
-92.058546986
 20
20.7194391387
 11
-92.8456500767
 21
20.1682304427
  0
LINE
  5
2F0
100
AcDbEntity
  8
RACCORDO
100
AcDbLine
 62
250
  6
CONTINUOUS
 10
-92.9665777155
 20
20.3573069357
 11
-92.1966463395
 21
20.896347107
  0
LINE
  5
2F1
100
AcDbEntity
  8
RACCORDO
100
AcDbLine
 62
7
  6
CONTINUOUS
 10
-92.8536121034
 20
20.193482765
 11
-92.0836807273
 21
20.7325229363
  0
LINE
  5
2F2
100
AcDbEntity
  8
RACCORDO
100
AcDbLine
 62
250
  6
CONTINUOUS
 10
-92.0836807273
 20
18.2674770637
 11
-92.058546986
 21
18.2805608613
  0
LINE
  5
2F3
100
AcDbEntity
  8
RACCORDO
100
AcDbLine
 62
250
  6
CONTINUOUS
 10
-91.8704673209
 20
17.8579217089
 11
-91.8453530642
 21
17.8709953634
  0
LWPOLYLINE
  5
2F4
100
AcDbEntity
  8
RACCORDO
100
AcDbPolyline
 62
7
  6
CONTINUOUS
 90
12
 70
0
 10
-92.0593040391
 20
16.6964240628
 10
-92.0351248389
 20
16.7048023489
 10
-92.0117476252
 20
16.7152108878
 10
-91.9893424986
 20
16.7275739433
 10
-91.9680724865
 20
16.7418015573
 10
-91.9480923594
 20
16.7577902037
 10
-91.9295475024
 20
16.7754235413
 10
-91.9125728531
 20
16.7945732648
 10
-91.8972919278
 20
16.8151000308
 10
-91.8838159221
 20
16.8368544676
 10
-91.8722429002
 20
16.859678298
 10
-91.8626570617
 20
16.8834054284
  0
LINE
  5
2F5
100
AcDbEntity
  8
RACCORDO
100
AcDbLine
 62
7
  6
CONTINUOUS
 10
-92.061653594
 20
-16.6964813124
 11
-92.0351227805
 21
-16.7048031617
  0
LWPOLYLINE
  5
2F6
100
AcDbEntity
  8
RACCORDO
100
AcDbPolyline
 62
7
  6
CONTINUOUS
 90
8
 70
0
 10
-92.0546320281
 20
-16.7053323456
 10
-92.0678021329
 20
-16.7001808914
 10
-92.0814721103
 20
-16.6955712476
 10
-92.0956337865
 20
-16.6915502866
 10
-92.1105606108
 20
-16.6881090564
 10
-92.126333616
 20
-16.6853307782
 10
-92.1428269094
 20
-16.6833425862
 10
-92.1495698456
 20
-16.6827952053
  0
LINE
  5
2F7
100
AcDbEntity
  8
RACCORDO
100
AcDbLine
 62
7
  6
CONTINUOUS
 10
-92.0379933848
 20
-16.7047443492
 11
-92.0117451391
 21
-16.7152121239
  0
LINE
  5
2F8
100
AcDbEntity
  8
RACCORDO
100
AcDbLine
 62
250
  6
CONTINUOUS
 10
-92.0836807273
 20
-18.2674770637
 11
-92.058546986
 21
-18.2805608613
  0
LINE
  5
2F9
100
AcDbEntity
  8
RACCORDO
100
AcDbLine
 62
250
  6
CONTINUOUS
 10
-91.8704673209
 20
-17.8579217089
 11
-91.8453530642
 21
-17.8709953634
  0
LWPOLYLINE
  5
2FA
100
AcDbEntity
  8
RACCORDO
100
AcDbPolyline
 62
7
  6
CONTINUOUS
 90
10
 70
0
 10
-92.0154356827
 20
-16.7147893922
 10
-91.989339652
 20
-16.7275756758
 10
-91.9680693617
 20
-16.7418038455
 10
-91.9480890394
 20
-16.7577931004
 10
-91.9295440673
 20
-16.7754270975
 10
-91.9125693279
 20
-16.7945775998
 10
-91.8972884202
 20
-16.8151051865
 10
-91.883812686
 20
-16.8368602249
 10
-91.8722401325
 20
-16.8596843846
 10
-91.862654889
 20
-16.8834115425
  0
LINE
  5
2FB
100
AcDbEntity
  8
RACCORDO
100
AcDbLine
 62
250
  6
CONTINUOUS
 10
-92.9665777155
 20
-20.3573069357
 11
-92.1966463395
 21
-20.896347107
  0
LINE
  5
2FC
100
AcDbEntity
  8
RACCORDO
100
AcDbLine
 62
7
  6
CONTINUOUS
 10
-92.8536121034
 20
-20.193482765
 11
-92.0836807273
 21
-20.7325229363
  0
LINE
  5
2FD
100
AcDbEntity
  8
RACCORDO
100
AcDbLine
 62
7
  6
CONTINUOUS
 10
-92.058546986
 20
-20.7194391387
 11
-92.8456500767
 21
-20.1682304427
  0
LWPOLYLINE
  5
2FE
100
AcDbEntity
  8
RACCORDO
100
AcDbPolyline
 62
250
  6
CONTINUOUS
 90
16
 70
0
 10
-92.0836807273
 20
-20.7325229363
 10
-92.0591151763
 20
-20.7508707602
 10
-92.0358283744
 20
-20.7705925411
 10
-92.0138898977
 20
-20.7915945546
 10
-91.993457765
 20
-20.813670726
 10
-91.9744788503
 20
-20.83682057
 10
-91.956756268
 20
-20.8613049047
 10
-91.9403943399
 20
-20.887070215
 10
-91.9255025294
 20
-20.9140442246
 10
-91.9120174946
 20
-20.9425333082
 10
-91.9000716738
 20
-20.9725980329
 10
-91.889899235
 20
-21.0040527712
 10
-91.8816685425
 20
-21.0368477207
 10
-91.8755631888
 20
-21.0708850267
 10
-91.8717702634
 20
-21.1060146944
 10
-91.8704673209
 20
-21.1420782911
  0
LWPOLYLINE
  5
2FF
100
AcDbEntity
  8
RACCORDO
100
AcDbPolyline
 62
250
  6
CONTINUOUS
 90
16
 70
0
 10
-92.1966463395
 20
-20.896347107
 10
-92.1818436346
 20
-20.9074518042
 10
-92.1678848057
 20
-20.9192657828
 10
-92.1547698527
 20
-20.9317890427
 10
-92.1425046055
 20
-20.9450020435
 10
-92.1310832343
 20
-20.9589243256
 10
-92.1204882494
 20
-20.9736145105
 10
-92.1106694851
 20
-20.9890572936
 10
-92.1016771072
 20
-21.0052679796
 10
-92.093644123
 20
-21.0223511037
 10
-92.0865091312
 20
-21.0403897272
 10
-92.0803335331
 20
-21.0593007888
 10
-92.0754345397
 20
-21.0789396408
 10
-92.0719178879
 20
-21.0992580672
 10
-92.0696778408
 20
-21.120304284
 10
-92.0687143984
 20
-21.1420782911
  0
LWPOLYLINE
  5
300
100
AcDbEntity
  8
RACCORDO
100
AcDbPolyline
 62
7
  6
CONTINUOUS
 90
10
 70
0
 10
-91.9937742918
 20
-16.7266592795
 10
-91.9730518137
 20
-16.7403509488
 10
-91.9535273971
 20
-16.7557145382
 10
-91.9353450664
 20
-16.7726370012
 10
-91.9187117154
 20
-16.7909020142
 10
-91.9036407287
 20
-16.8104690942
 10
-91.8900424661
 20
-16.8315286796
 10
-91.8780433482
 20
-16.8540807433
 10
-91.8678756834
 20
-16.8779183838
 10
-91.8596889778
 20
-16.9029530643
  0
LINE
  5
301
100
AcDbEntity
  8
RACCORDO
100
AcDbLine
 62
250
  6
CONTINUOUS
 10
-92.8632905851
 20
18.7916893665
 11
-92.8750517171
 21
18.7744441664
  0
LINE
  5
302
100
AcDbEntity
  8
RACCORDO
100
AcDbLine
 62
250
  6
CONTINUOUS
 10
-92.0933593289
 20
18.2526490262
 11
-92.1051205647
 21
18.2354036791
  0
LINE
  5
303
100
AcDbEntity
  8
RACCORDO
100
AcDbLine
 62
250
  6
CONTINUOUS
 10
-92.8750517171
 20
18.7744441664
 11
-92.9099139439
 21
18.7239625531
  0
LINE
  5
304
100
AcDbEntity
  8
RACCORDO
100
AcDbLine
 62
250
  6
CONTINUOUS
 10
-92.1051205647
 20
18.2354036791
 11
-92.139982898
 21
18.1849219156
  0
LINE
  5
305
100
AcDbEntity
  8
RACCORDO
100
AcDbLine
 62
250
  6
CONTINUOUS
 10
-92.9099139439
 20
18.7239625531
 11
-92.9665777155
 21
18.6426930643
  0
LINE
  5
306
100
AcDbEntity
  8
RACCORDO
100
AcDbLine
 62
250
  6
CONTINUOUS
 10
-92.139982898
 20
18.1849219156
 11
-92.1966463395
 21
18.103652893
  0
LINE
  5
307
100
AcDbEntity
  8
RACCORDO
100
AcDbLine
 62
250
  6
CONTINUOUS
 10
-92.9665777155
 20
-18.6426930643
 11
-92.8999984664
 21
-18.7382660725
  0
LINE
  5
308
100
AcDbEntity
  8
RACCORDO
100
AcDbLine
 62
250
  6
CONTINUOUS
 10
-92.1966463395
 20
-18.103652893
 11
-92.1300671084
 21
-18.1992258764
  0
LINE
  5
309
100
AcDbEntity
  8
RACCORDO
100
AcDbLine
 62
250
  6
CONTINUOUS
 10
-92.8999984664
 20
-18.7382660725
 11
-92.8750517171
 21
-18.7744441664
  0
LINE
  5
30A
100
AcDbEntity
  8
RACCORDO
100
AcDbLine
 62
250
  6
CONTINUOUS
 10
-92.1300671084
 20
-18.1992258764
 11
-92.1051203534
 21
-18.2354039783
  0
LWPOLYLINE
  5
30B
100
AcDbEntity
  8
RACCORDO
100
AcDbPolyline
 62
250
  6
CONTINUOUS
 90
6
 70
0
 10
-92.8750517171
 20
-18.7744441664
 10
-92.8632905851
 20
-18.7916893665
 10
-92.859077369
 20
-18.7979482257
 10
-92.8560402545
 20
-18.8025356604
 10
-92.8542119383
 20
-18.8054022839
 10
-92.8536121034
 20
-18.806517235
  0
LWPOLYLINE
  5
30C
100
AcDbEntity
  8
RACCORDO
100
AcDbPolyline
 62
250
  6
CONTINUOUS
 90
6
 70
0
 10
-92.1051203534
 20
-18.2354039783
 10
-92.0933592158
 20
-18.2526491863
 10
-92.0891459971
 20
-18.258908049
 10
-92.0861088805
 20
-18.2634954865
 10
-92.0842805629
 20
-18.2663621119
 10
-92.0836807273
 20
-18.2674770637
  0
LINE
  5
30D
100
AcDbEntity
  8
0
100
AcDbLine
 62
7
  6
CONTINUOUS
 10
-99.4358913838
 20
-42.5366970839
 11
-99.4319711728
 21
-42.6650376419
  0
LINE
  5
30E
100
AcDbEntity
  8
0
100
AcDbLine
 62
7
  6
CONTINUOUS
 10
-99.4319711728
 20
-42.6650376419
 11
-99.4288643612
 21
-42.7865357293
  0
LINE
  5
30F
100
AcDbEntity
  8
0
100
AcDbLine
 62
7
  6
CONTINUOUS
 10
-99.4288643612
 20
-42.7865357293
 11
-99.4272997281
 21
-42.8633597538
  0
LINE
  5
310
100
AcDbEntity
  8
RACCORDO
100
AcDbLine
 62
250
  6
CONTINUOUS
 10
-101.6840619833
 20
42.4220726233
 11
-101.6898565058
 21
42.8053907021
  0
LWPOLYLINE
  5
311
100
AcDbEntity
  8
0
100
AcDbPolyline
 62
7
  6
CONTINUOUS
 90
16
 70
0
 10
-99.4272997281
 20
-42.8633597538
 10
-99.4263023834
 20
-42.9354241705
 10
-99.4260364873
 20
-42.9692603664
 10
-99.4259647786
 20
-43.0012043661
 10
-99.4261146282
 20
-43.0311230531
 10
-99.4264583933
 20
-43.0589059154
 10
-99.4269494225
 20
-43.084318691
 10
-99.4275845817
 20
-43.1073290597
 10
-99.428363303
 20
-43.1278464643
 10
-99.4292395568
 20
-43.1456691318
 10
-99.430212782
 20
-43.1609179003
 10
-99.4312757308
 20
-43.1735427692
 10
-99.4323660183
 20
-43.1833661988
 10
-99.4334556892
 20
-43.1905916675
 10
-99.4345561589
 20
-43.195585483
 10
-99.435660533
 20
-43.1986083209
  0
LINE
  5
312
100
AcDbEntity
  8
RACCORDO
100
AcDbLine
 62
250
  6
CONTINUOUS
 10
-101.6929491483
 20
-43.762172219
 11
-101.6939567452
 21
-43.6871274984
  0
LWPOLYLINE
  5
313
100
AcDbEntity
  8
0
100
AcDbPolyline
 62
7
  6
CONTINUOUS
 90
5
 70
0
 10
-99.436395176
 20
-42.5074287122
 10
-99.4363321968
 20
-42.5147496097
 10
-99.4362272291
 20
-42.5220685048
 10
-99.4360802869
 20
-42.5293845966
 10
-99.4358913838
 20
-42.5366970839
  0
LINE
  5
314
100
AcDbEntity
  8
RACCORDO
100
AcDbLine
 62
250
  6
CONTINUOUS
 10
-101.6898565058
 20
42.8053907021
 11
-101.6935006039
 21
43.1579562993
  0
LINE
  5
315
100
AcDbEntity
  8
RACCORDO
100
AcDbLine
 62
250
  6
CONTINUOUS
 10
-101.6939567452
 20
-43.6871274984
 11
-101.6945922464
 21
-43.5989554106
  0
LINE
  5
316
100
AcDbEntity
  8
RACCORDO
100
AcDbLine
 62
250
  6
CONTINUOUS
 10
-101.6935006039
 20
43.1579562993
 11
-101.694766462
 21
43.4068536346
  0
LINE
  5
317
100
AcDbEntity
  8
RACCORDO
100
AcDbLine
 62
250
  6
CONTINUOUS
 10
-99.6474503753
 20
43.4685443476
 11
-99.6474825365
 21
43.5362542434
  0
LINE
  5
318
100
AcDbEntity
  8
0
100
AcDbLine
 62
7
  6
CONTINUOUS
 10
-102.2578940052
 20
-31.5801797807
 11
-102.2578940052
 21
-29.051114715
  0
LINE
  5
319
100
AcDbEntity
  8
RACCORDO
100
AcDbLine
 62
7
  6
CONTINUOUS
 10
-102.1578940052
 20
-43.4207021581
 11
-102.1578940052
 21
43.4207021581
  0
LINE
  5
31A
100
AcDbEntity
  8
RACCORDO
100
AcDbLine
 62
250
  6
CONTINUOUS
 10
-101.6840619833
 20
-42.4220726233
 11
-101.6840619833
 21
42.4220726233
  0
LINE
  5
31B
100
AcDbEntity
  8
RACCORDO
100
AcDbLine
 62
7
  6
CONTINUOUS
 10
-100.1578940052
 20
-44.0
 11
-100.1578940052
 21
44.0
  0
LINE
  5
31C
100
AcDbEntity
  8
RACCORDO
100
AcDbLine
 62
250
  6
CONTINUOUS
 10
-99.8180799763
 20
43.3240134926
 11
-99.8187226885
 21
43.6023307692
  0
LINE
  5
31D
100
AcDbEntity
  8
RACCORDO
100
AcDbLine
 62
250
  6
CONTINUOUS
 10
-101.6945922464
 20
-43.5989554106
 11
-101.6948300929
 21
-43.4440001676
  0
LINE
  5
31E
100
AcDbEntity
  8
RACCORDO
100
AcDbLine
 62
250
  6
CONTINUOUS
 10
-99.647480021
 20
-43.5336711661
 11
-99.6474402288
 21
-43.456090616
  0
LINE
  5
31F
100
AcDbEntity
  8
RACCORDO
100
AcDbLine
 62
250
  6
CONTINUOUS
 10
-101.694766462
 20
43.4068536346
 11
-101.6947181939
 21
43.5674228808
  0
LINE
  5
320
100
AcDbEntity
  8
RACCORDO
100
AcDbLine
 62
250
  6
CONTINUOUS
 10
-99.8182186559
 20
-43.456933695
 11
-99.8202062358
 21
-42.5017500444
  0
LINE
  5
321
100
AcDbEntity
  8
RACCORDO
100
AcDbLine
 62
250
  6
CONTINUOUS
 10
-99.6472520175
 20
-43.3152810876
 11
-99.6472568178
 21
43.3207540142
  0
LINE
  5
322
100
AcDbEntity
  8
RACCORDO
100
AcDbLine
 62
250
  6
CONTINUOUS
 10
-99.8202075899
 20
-42.5017500454
 11
-99.819911154
 21
42.5946605186
  0
LINE
  5
323
100
AcDbEntity
  8
RACCORDO
100
AcDbLine
 62
250
  6
CONTINUOUS
 10
-99.819911154
 20
42.5946605186
 11
-99.8180799763
 21
43.3240134926
  0
LINE
  5
324
100
AcDbEntity
  8
RACCORDO
100
AcDbLine
 62
250
  6
CONTINUOUS
 10
-99.8187386061
 20
-43.6056091437
 11
-99.8182186559
 21
-43.456933695
  0
LINE
  5
325
100
AcDbEntity
  8
RACCORDO
100
AcDbLine
 62
250
  6
CONTINUOUS
 10
-101.6948300929
 20
-43.4440001676
 11
-101.6938103528
 21
-43.2020264327
  0
LINE
  5
326
100
AcDbEntity
  8
RACCORDO
100
AcDbLine
 62
250
  6
CONTINUOUS
 10
-101.6947181939
 20
43.5674228808
 11
-101.6942034827
 21
43.65939952
  0
LINE
  5
327
100
AcDbEntity
  8
RACCORDO
100
AcDbLine
 62
250
  6
CONTINUOUS
 10
-101.6938103528
 20
-43.2020264327
 11
-101.6912254587
 21
-42.9186921825
  0
LINE
  5
328
100
AcDbEntity
  8
0
100
AcDbLine
 62
7
  6
CONTINUOUS
 10
-99.4260375348
 20
42.9690001915
 11
-99.4267261805
 21
42.8998850084
  0
LWPOLYLINE
  5
329
100
AcDbEntity
  8
RACCORDO
100
AcDbPolyline
 62
250
  6
CONTINUOUS
 90
11
 70
0
 10
-101.6942034827
 20
43.65939952
 10
-101.6933249249
 20
43.7387391202
 10
-101.6927318638
 20
43.7741330381
 10
-101.6920307143
 20
43.8062524644
 10
-101.6912254587
 20
43.8349549569
 10
-101.6903086788
 20
43.8600314318
 10
-101.6892729469
 20
43.8811088565
 10
-101.6881260179
 20
43.8978332522
 10
-101.6868744058
 20
43.9099943413
 10
-101.6855180555
 20
43.9174453331
 10
-101.6840619833
 20
43.9200169255
  0
LWPOLYLINE
  5
32A
100
AcDbEntity
  8
RACCORDO
100
AcDbPolyline
 62
250
  6
CONTINUOUS
 90
3
 70
0
 10
-101.6912254587
 20
-42.9186921825
 10
-101.6855180555
 20
-42.5085333363
 10
-101.6840619833
 20
-42.4220726233
  0
LINE
  5
32B
100
AcDbEntity
  8
0
100
AcDbLine
 62
7
  6
CONTINUOUS
 10
-99.4267261805
 20
42.8998850084
 11
-99.4280296063
 21
42.8253569856
  0
LWPOLYLINE
  5
32C
100
AcDbEntity
  8
0
100
AcDbPolyline
 62
7
  6
CONTINUOUS
 90
6
 70
0
 10
-99.4358913671
 20
42.5366980742
 10
-99.4360802599
 20
42.5293861818
 10
-99.4362271984
 20
42.5220702889
 10
-99.4363321692
 20
42.5147511959
 10
-99.4363951586
 20
42.5074297038
 10
-99.436395176
 20
-42.5074287122
  0
LINE
  5
32D
100
AcDbEntity
  8
0
100
AcDbLine
 62
7
  6
CONTINUOUS
 10
-99.4280296063
 20
42.8253569856
 11
-99.4308557778
 21
42.7057982596
  0
LWPOLYLINE
  5
32E
100
AcDbEntity
  8
0
100
AcDbPolyline
 62
7
  6
CONTINUOUS
 90
3
 70
0
 10
-99.4308557778
 20
42.7057982596
 10
-99.4343738414
 20
42.5840047575
 10
-99.4358913671
 20
42.5366980742
  0
LWPOLYLINE
  5
32F
100
AcDbEntity
  8
RACCORDO
100
AcDbPolyline
 62
250
  6
CONTINUOUS
 90
5
 70
0
 10
-95.6791950564
 20
22.4473738463
 10
-95.6774814229
 20
22.45465866
 10
-95.6762937205
 20
22.4599326039
 10
-95.6756449256
 20
22.4631380561
 10
-95.6755421268
 20
22.4642399945
  0
LINE
  5
330
100
AcDbEntity
  8
RACCORDO
100
AcDbLine
 62
250
  6
CONTINUOUS
 10
-95.6841196834
 20
22.4271110793
 11
-95.6791950564
 21
22.4473738463
  0
LINE
  5
331
100
AcDbEntity
  8
RACCORDO
100
AcDbLine
 62
250
  6
CONTINUOUS
 10
-95.6948089005
 20
22.3842863667
 11
-95.6841196834
 21
22.4271110793
  0
LWPOLYLINE
  5
332
100
AcDbEntity
  8
RACCORDO
100
AcDbPolyline
 62
250
  6
CONTINUOUS
 90
3
 70
0
 10
-95.7238728205
 20
22.2706104665
 10
-95.7186556274
 20
22.2908222613
 10
-95.6948089005
 20
22.3842863667
  0
LINE
  5
333
100
AcDbEntity
  8
RACCORDO
100
AcDbLine
 62
250
  6
CONTINUOUS
 10
-95.3455073232
 20
20.8119116834
 11
-95.335968488
 21
20.8400121858
  0
LINE
  5
334
100
AcDbEntity
  8
RACCORDO
100
AcDbLine
 62
250
  6
CONTINUOUS
 10
-94.9760383619
 20
20.6865241682
 11
-94.9665179701
 21
20.7145703383
  0
LWPOLYLINE
  5
335
100
AcDbEntity
  8
RACCORDO
100
AcDbPolyline
 62
250
  6
CONTINUOUS
 90
5
 70
0
 10
-92.8536121034
 20
18.806517235
 10
-92.8542119383
 20
18.8054022839
 10
-92.8560402545
 20
18.8025356604
 10
-92.859077369
 20
18.7979482257
 10
-92.8632905851
 20
18.7916893665
  0
LWPOLYLINE
  5
336
100
AcDbEntity
  8
RACCORDO
100
AcDbPolyline
 62
250
  6
CONTINUOUS
 90
5
 70
0
 10
-92.0836807273
 20
18.2674770637
 10
-92.0842805721
 20
18.266362099
 10
-92.0861089138
 20
18.2634954397
 10
-92.0891460659
 20
18.2589079518
 10
-92.0933593289
 20
18.2526490262
  0
LINE
  5
337
100
AcDbEntity
  8
RACCORDO
100
AcDbLine
 62
250
  6
CONTINUOUS
 10
-95.3455073232
 20
-20.8119116834
 11
-95.335968488
 21
-20.8400121858
  0
LINE
  5
338
100
AcDbEntity
  8
RACCORDO
100
AcDbLine
 62
250
  6
CONTINUOUS
 10
-94.9760383619
 20
-20.6865241682
 11
-94.9665179701
 21
-20.7145703383
  0
LINE
  5
339
100
AcDbEntity
  8
RACCORDO
100
AcDbLine
 62
250
  6
CONTINUOUS
 10
-95.699101448
 20
-22.3673033055
 11
-95.7238728205
 21
-22.2706104665
  0
LINE
  5
33A
100
AcDbEntity
  8
RACCORDO
100
AcDbLine
 62
250
  6
CONTINUOUS
 10
-95.6872768716
 20
-22.4143545125
 11
-95.699101448
 21
-22.3673033055
  0
LWPOLYLINE
  5
33B
100
AcDbEntity
  8
RACCORDO
100
AcDbPolyline
 62
250
  6
CONTINUOUS
 90
7
 70
0
 10
-95.6755421268
 20
-22.4642399945
 10
-95.6756449256
 20
-22.4631380561
 10
-95.6762937205
 20
-22.4599326039
 10
-95.6774814229
 20
-22.45465866
 10
-95.6791950564
 20
-22.4473738463
 10
-95.681415898
 20
-22.4381577551
 10
-95.6872768716
 20
-22.4143545125
  0
LWPOLYLINE
  5
33C
100
AcDbEntity
  8
RACCORDO
100
AcDbPolyline
 62
250
  6
CONTINUOUS
 90
7
 70
0
 10
-99.8198743154
 20
43.6895888851
 10
-99.8199234846
 20
43.6907446802
 10
-99.8199699159
 20
43.691733758
 10
-99.820017883
 20
43.6925738761
 10
-99.8200688105
 20
43.6932532699
 10
-99.8201212738
 20
43.693746366
 10
-99.8201752729
 20
43.6940353356
  0
LINE
  5
33D
100
AcDbEntity
  8
RACCORDO
100
AcDbLine
 62
250
  6
CONTINUOUS
 10
-99.8196440284
 20
43.6831619283
 11
-99.8197648857
 21
43.6867879503
  0
LINE
  5
33E
100
AcDbEntity
  8
RACCORDO
100
AcDbLine
 62
250
  6
CONTINUOUS
 10
-99.8195136499
 20
43.678540358
 11
-99.8196440284
 21
43.6831619283
  0
LINE
  5
33F
100
AcDbEntity
  8
RACCORDO
100
AcDbLine
 62
250
  6
CONTINUOUS
 10
-99.819379852
 20
43.6727408189
 11
-99.8195136499
 21
43.678540358
  0
LINE
  5
340
100
AcDbEntity
  8
RACCORDO
100
AcDbLine
 62
250
  6
CONTINUOUS
 10
-99.6477182231
 20
43.5784528995
 11
-99.6478677921
 21
43.5869374769
  0
LINE
  5
341
100
AcDbEntity
  8
RACCORDO
100
AcDbLine
 62
250
  6
CONTINUOUS
 10
-99.8191853814
 20
43.661415742
 11
-99.819379852
 21
43.6727408189
  0
LINE
  5
342
100
AcDbEntity
  8
RACCORDO
100
AcDbLine
 62
250
  6
CONTINUOUS
 10
-99.6479028581
 20
43.5893706395
 11
-99.6479049545
 21
43.589513915
  0
LINE
  5
343
100
AcDbEntity
  8
RACCORDO
100
AcDbLine
 62
250
  6
CONTINUOUS
 10
-99.6476263914
 20
43.5711452794
 11
-99.6477182231
 21
43.5784528995
  0
LINE
  5
344
100
AcDbEntity
  8
RACCORDO
100
AcDbLine
 62
250
  6
CONTINUOUS
 10
-99.8190106945
 20
43.6463338801
 11
-99.8191853814
 21
43.661415742
  0
LINE
  5
345
100
AcDbEntity
  8
RACCORDO
100
AcDbLine
 62
250
  6
CONTINUOUS
 10
-99.6475495336
 20
43.5610281585
 11
-99.6476263914
 21
43.5711452794
  0
LINE
  5
346
100
AcDbEntity
  8
RACCORDO
100
AcDbLine
 62
250
  6
CONTINUOUS
 10
-99.8187226885
 20
43.6023307692
 11
-99.8190106945
 21
43.6463338801
  0
LINE
  5
347
100
AcDbEntity
  8
RACCORDO
100
AcDbLine
 62
250
  6
CONTINUOUS
 10
-99.6474825365
 20
43.5362542434
 11
-99.6475495336
 21
43.5610281585
  0
LINE
  5
348
100
AcDbEntity
  8
RACCORDO
100
AcDbLine
 62
250
  6
CONTINUOUS
 10
-99.6472568178
 20
43.3207540142
 11
-99.6474503753
 21
43.4685443476
  0
LINE
  5
349
100
AcDbEntity
  8
RACCORDO
100
AcDbLine
 62
250
  6
CONTINUOUS
 10
-96.7544035239
 20
-42.4532919088
 11
-96.7529595232
 21
-42.9378528056
  0
LINE
  5
34A
100
AcDbEntity
  8
RACCORDO
100
AcDbLine
 62
250
  6
CONTINUOUS
 10
-96.7544035239
 20
42.4532919088
 11
-96.7544035239
 21
-42.4532919088
  0
LINE
  5
34B
100
AcDbEntity
  8
RACCORDO
100
AcDbLine
 62
250
  6
CONTINUOUS
 10
-99.6474402288
 20
-43.456090616
 11
-99.6473789339
 21
-43.4108314042
  0
LINE
  5
34C
100
AcDbEntity
  8
RACCORDO
100
AcDbLine
 62
250
  6
CONTINUOUS
 10
-99.6473789339
 20
-43.4108314042
 11
-99.6472520175
 21
-43.3152810876
  0
LINE
  5
34D
100
AcDbEntity
  8
RACCORDO
100
AcDbLine
 62
250
  6
CONTINUOUS
 10
-96.7529595232
 20
-42.9378528056
 11
-96.7530292109
 21
-43.0245848793
  0
LINE
  5
34E
100
AcDbEntity
  8
RACCORDO
100
AcDbLine
 62
250
  6
CONTINUOUS
 10
-96.753068836
 20
43.041197374
 11
-96.7530930502
 21
42.8201602189
  0
LINE
  5
34F
100
AcDbEntity
  8
RACCORDO
100
AcDbLine
 62
250
  6
CONTINUOUS
 10
-99.6475480627
 20
-43.5607348326
 11
-99.647480021
 21
-43.5336711661
  0
LINE
  5
350
100
AcDbEntity
  8
RACCORDO
100
AcDbLine
 62
250
  6
CONTINUOUS
 10
-96.7530930502
 20
42.8201602189
 11
-96.7544035239
 21
42.4532919088
  0
LINE
  5
351
100
AcDbEntity
  8
RACCORDO
100
AcDbLine
 62
250
  6
CONTINUOUS
 10
-99.818995461
 20
-43.6446889602
 11
-99.8187386061
 21
-43.6056091437
  0
LINE
  5
352
100
AcDbEntity
  8
RACCORDO
100
AcDbLine
 62
250
  6
CONTINUOUS
 10
-99.6476314835
 20
-43.5716412633
 11
-99.6475480627
 21
-43.5607348326
  0
LINE
  5
353
100
AcDbEntity
  8
RACCORDO
100
AcDbLine
 62
250
  6
CONTINUOUS
 10
-99.6478937208
 20
-43.5887916685
 11
-99.647886984
 21
-43.5882599708
  0
LINE
  5
354
100
AcDbEntity
  8
RACCORDO
100
AcDbLine
 62
250
  6
CONTINUOUS
 10
-99.819180842
 20
-43.661087784
 11
-99.818995461
 21
-43.6446889602
  0
LINE
  5
355
100
AcDbEntity
  8
RACCORDO
100
AcDbLine
 62
250
  6
CONTINUOUS
 10
-99.6477315253
 20
-43.579314506
 11
-99.6476314835
 21
-43.5716412633
  0
LINE
  5
356
100
AcDbEntity
  8
RACCORDO
100
AcDbLine
 62
250
  6
CONTINUOUS
 10
-99.8193195823
 20
-43.6696582807
 11
-99.819180842
 21
-43.661087784
  0
LINE
  5
357
100
AcDbEntity
  8
RACCORDO
100
AcDbLine
 62
250
  6
CONTINUOUS
 10
-99.64786506
 20
-43.5867250529
 11
-99.6477315253
 21
-43.579314506
  0
LINE
  5
358
100
AcDbEntity
  8
RACCORDO
100
AcDbLine
 62
250
  6
CONTINUOUS
 10
-99.6479049545
 20
-43.589513915
 11
-99.6479031463
 21
-43.5894205743
  0
LINE
  5
359
100
AcDbEntity
  8
RACCORDO
100
AcDbLine
 62
250
  6
CONTINUOUS
 10
-99.8194647708
 20
-43.6765450453
 11
-99.8193195823
 21
-43.6696582807
  0
LINE
  5
35A
100
AcDbEntity
  8
RACCORDO
100
AcDbLine
 62
250
  6
CONTINUOUS
 10
-99.8196073105
 20
-43.6819663184
 11
-99.8194647708
 21
-43.6765450453
  0
LWPOLYLINE
  5
35B
100
AcDbEntity
  8
RACCORDO
100
AcDbPolyline
 62
250
  6
CONTINUOUS
 90
3
 70
0
 10
-99.8198030752
 20
-43.6878231906
 10
-99.8197419862
 20
-43.6861363591
 10
-99.8196073105
 20
-43.6819663184
  0
LINE
  5
35C
100
AcDbEntity
  8
RACCORDO
100
AcDbLine
 62
250
  6
CONTINUOUS
 10
-99.8199132303
 20
-43.6904900469
 11
-99.8198603881
 21
-43.6892674177
  0
LWPOLYLINE
  5
35D
100
AcDbEntity
  8
RACCORDO
100
AcDbPolyline
 62
250
  6
CONTINUOUS
 90
7
 70
0
 10
-95.4600567186
 20
16.5670041159
 10
-95.4599125195
 20
16.5680990694
 10
-95.4598463706
 20
16.5713719333
 10
-95.4598589966
 20
16.5767868496
 10
-95.4599502593
 20
16.5842844911
 10
-95.4601191586
 20
16.5937827123
 10
-95.4606816352
 20
16.6183438568
  0
LINE
  5
35E
100
AcDbEntity
  8
RACCORDO
100
AcDbLine
 62
7
  6
CONTINUOUS
 10
-93.7612893566
 20
19.9873283758
 11
-93.7544906301
 21
20.0127015685
  0
LWPOLYLINE
  5
35F
100
AcDbEntity
  8
RACCORDO
100
AcDbPolyline
 62
7
  6
CONTINUOUS
 90
5
 70
0
 10
-91.8626570617
 20
16.8834054284
 10
-91.8551281156
 20
16.9078631398
 10
-91.8497108078
 20
16.9328734389
 10
-91.8464445433
 20
16.958254362
 10
-91.8453530642
 20
16.9838212288
  0
LINE
  5
360
100
AcDbEntity
  8
RACCORDO
100
AcDbLine
 62
250
  6
CONTINUOUS
 10
-93.427177718
 20
18.987323359
 11
-93.4191936553
 21
19.0126455708
  0
LINE
  5
361
100
AcDbEntity
  8
RACCORDO
100
AcDbLine
 62
250
  6
CONTINUOUS
 10
-92.8536121034
 20
18.806517235
 11
-92.8456500767
 21
18.8317695573
  0
LWPOLYLINE
  5
362
100
AcDbEntity
  8
RACCORDO
100
AcDbPolyline
 62
7
  6
CONTINUOUS
 90
12
 70
0
 10
-91.8661100821
 20
16.8827340609
 10
-91.8753616111
 20
16.8598398849
 10
-91.8864682035
 20
16.8377776591
 10
-91.8994283044
 20
16.8165900909
 10
-91.9141012162
 20
16.7965414098
 10
-91.9303789753
 20
16.7777795191
 10
-91.9480526387
 20
16.7605187433
 10
-91.9670822176
 20
16.7447739051
 10
-91.9876548326
 20
16.7304488188
 10
-92.0097748483
 20
16.7176698496
 10
-92.0332436111
 20
16.7066763777
 10
-92.0579778203
 20
16.6976208953
  0
LINE
  5
363
100
AcDbEntity
  8
RACCORDO
100
AcDbLine
 62
250
  6
CONTINUOUS
 10
-99.4364161553
 20
0.0
 11
-99.8202071908
 21
0.0
  0
LINE
  5
364
100
AcDbEntity
  8
RACCORDO
100
AcDbLine
 62
250
  6
CONTINUOUS
 10
-93.427177718
 20
-18.987323359
 11
-93.4191936553
 21
-19.0126455708
  0
LINE
  5
365
100
AcDbEntity
  8
RACCORDO
100
AcDbLine
 62
250
  6
CONTINUOUS
 10
-92.8536121034
 20
-18.806517235
 11
-92.8456500767
 21
-18.8317695573
  0
LWPOLYLINE
  5
366
100
AcDbEntity
  8
RACCORDO
100
AcDbPolyline
 62
7
  6
CONTINUOUS
 90
5
 70
0
 10
-91.862654889
 20
-16.8834115425
 10
-91.8551266595
 20
-16.9078686998
 10
-91.849710064
 20
-16.9328777503
 10
-91.8464443333
 20
-16.9582568122
 10
-91.8453530642
 20
-16.9838212288
  0
LINE
  5
367
100
AcDbEntity
  8
RACCORDO
100
AcDbLine
 62
7
  6
CONTINUOUS
 10
-93.7612893566
 20
-19.9873283758
 11
-93.7544906301
 21
-20.0127015685
  0
LWPOLYLINE
  5
368
100
AcDbEntity
  8
RACCORDO
100
AcDbPolyline
 62
250
  6
CONTINUOUS
 90
7
 70
0
 10
-95.6755421268
 20
16.5357600055
 10
-95.6756449256
 20
16.5368619439
 10
-95.6762937205
 20
16.5400673961
 10
-95.6774814229
 20
16.54534134
 10
-95.6791950564
 20
16.5526261537
 10
-95.681415898
 20
16.5618422449
 10
-95.6872768716
 20
16.5856454875
  0
LWPOLYLINE
  5
369
100
AcDbEntity
  8
RACCORDO
100
AcDbPolyline
 62
7
  6
CONTINUOUS
 90
15
 70
0
 10
-91.8463039273
 20
-21.0981904225
 10
-91.8491300664
 20
-21.0676700364
 10
-91.8537882992
 20
-21.0375551608
 10
-91.8601943031
 20
-21.0080925848
 10
-91.8683110604
 20
-20.9792395249
 10
-91.8782327112
 20
-20.9506868449
 10
-91.8899645833
 20
-20.9225583421
 10
-91.9035073966
 20
-20.8949719212
 10
-91.9190853738
 20
-20.8676715183
 10
-91.9368221808
 20
-20.8407305136
 10
-91.9566998429
 20
-20.8144438274
 10
-91.9787963917
 20
-20.7889510309
 10
-92.0031496665
 20
-20.7644535001
 10
-92.0297412327
 20
-20.7412027115
 10
-92.058546986
 20
-20.7194391387
  0
LINE
  5
36A
100
AcDbEntity
  8
RACCORDO
100
AcDbLine
 62
250
  6
CONTINUOUS
 10
-95.4620350551
 20
-22.3330568016
 11
-95.4652910451
 21
-22.2331177187
  0
LINE
  5
36B
100
AcDbEntity
  8
RACCORDO
100
AcDbLine
 62
250
  6
CONTINUOUS
 10
-95.4620350551
 20
16.6669431984
 11
-95.4652910451
 21
16.7668822813
  0
LINE
  5
36C
100
AcDbEntity
  8
RACCORDO
100
AcDbLine
 62
250
  6
CONTINUOUS
 10
-95.4606816352
 20
-22.3816561432
 11
-95.4620350551
 21
-22.3330568016
  0
LINE
  5
36D
100
AcDbEntity
  8
RACCORDO
100
AcDbLine
 62
250
  6
CONTINUOUS
 10
-95.4606816352
 20
16.6183438568
 11
-95.4620350551
 21
16.6669431984
  0
LINE
  5
36E
100
AcDbEntity
  8
RACCORDO
100
AcDbLine
 62
250
  6
CONTINUOUS
 10
-96.753635009
 20
43.1304865248
 11
-96.7533536686
 21
43.1026158721
  0
LINE
  5
36F
100
AcDbEntity
  8
RACCORDO
100
AcDbLine
 62
250
  6
CONTINUOUS
 10
-96.7533536686
 20
43.1026158721
 11
-96.753068836
 21
43.041197374
  0
LINE
  5
370
100
AcDbEntity
  8
RACCORDO
100
AcDbLine
 62
7
  6
CONTINUOUS
 10
-96.5578940052
 20
-42.9532157563
 11
-96.5578940052
 21
42.9532157563
  0
LINE
  5
371
100
AcDbEntity
  8
RACCORDO
100
AcDbLine
 62
250
  6
CONTINUOUS
 10
-96.7530292109
 20
-43.0245848793
 11
-96.7532818731
 21
-43.0919696585
  0
LWPOLYLINE
  5
372
100
AcDbEntity
  8
RACCORDO
100
AcDbPolyline
 62
250
  6
CONTINUOUS
 90
6
 70
0
 10
-96.7532818731
 20
-43.0919696585
 10
-96.7535627208
 20
-43.1249534787
 10
-96.753739319
 20
-43.1370443674
 10
-96.7539382262
 20
-43.1458937428
 10
-96.7541600012
 20
-43.1513327116
 10
-96.7544035239
 20
-43.1531852954
  0
LWPOLYLINE
  5
373
100
AcDbEntity
  8
RACCORDO
100
AcDbPolyline
 62
250
  6
CONTINUOUS
 90
5
 70
0
 10
-95.459950258
 20
22.4157155947
 10
-95.4598589963
 20
22.4232132016
 10
-95.4598463708
 20
22.4286280908
 10
-95.4599125198
 20
22.431900937
 10
-95.4600567186
 20
22.4329958841
  0
LWPOLYLINE
  5
374
100
AcDbEntity
  8
RACCORDO
100
AcDbPolyline
 62
250
  6
CONTINUOUS
 90
5
 70
0
 10
-95.459950258
 20
-16.5842844053
 10
-95.4598589963
 20
-16.5767867984
 10
-95.4598463708
 20
-16.5713719092
 10
-95.4599125198
 20
-16.568099063
 10
-95.4600567186
 20
-16.5670041159
  0
LINE
  5
375
100
AcDbEntity
  8
RACCORDO
100
AcDbLine
 62
250
  6
CONTINUOUS
 10
-95.4603638405
 20
22.3948227164
 11
-95.459950258
 21
22.4157155947
  0
LINE
  5
376
100
AcDbEntity
  8
RACCORDO
100
AcDbLine
 62
250
  6
CONTINUOUS
 10
-95.4603638405
 20
-16.6051772836
 11
-95.459950258
 21
-16.5842844053
  0
LINE
  5
377
100
AcDbEntity
  8
RACCORDO
100
AcDbLine
 62
250
  6
CONTINUOUS
 10
-95.4615218363
 20
22.350603406
 11
-95.4603638405
 21
22.3948227164
  0
LINE
  5
378
100
AcDbEntity
  8
RACCORDO
100
AcDbLine
 62
250
  6
CONTINUOUS
 10
-95.4615218363
 20
-16.649396594
 11
-95.4603638405
 21
-16.6051772836
  0
LWPOLYLINE
  5
379
100
AcDbEntity
  8
RACCORDO
100
AcDbPolyline
 62
250
  6
CONTINUOUS
 90
3
 70
0
 10
-95.4652910451
 20
22.2331177187
 10
-95.4645710327
 20
22.2540107638
 10
-95.4615218363
 20
22.350603406
  0
LWPOLYLINE
  5
37A
100
AcDbEntity
  8
RACCORDO
100
AcDbPolyline
 62
250
  6
CONTINUOUS
 90
3
 70
0
 10
-95.4652910451
 20
-16.7668822813
 10
-95.4645710327
 20
-16.7459892362
 10
-95.4615218363
 20
-16.649396594
  0
LWPOLYLINE
  5
37B
100
AcDbEntity
  8
RACCORDO
100
AcDbPolyline
 62
7
  6
CONTINUOUS
 90
15
 70
0
 10
-91.8463332591
 20
21.0977190972
 10
-91.849246674
 20
21.0667339629
 10
-91.8540487484
 20
21.0361661539
 10
-91.8606588504
 20
21.0062436551
 10
-91.8690349482
 20
20.9769529642
 10
-91.8792443747
 20
20.9480589189
 10
-91.8912799052
 20
20.9196811542
 10
-91.9051264316
 20
20.8919404255
 10
-91.9209505876
 20
20.864653144
 10
-91.9388458447
 20
20.8378837507
 10
-91.9587688829
 20
20.8119044336
 10
-91.9807234449
 20
20.7868854668
 10
-92.0046960576
 20
20.7630080111
 10
-92.0306535382
 20
20.740461992
 10
-92.058546986
 20
20.7194391387
  0
LWPOLYLINE
  5
37C
100
AcDbEntity
  8
RACCORDO
100
AcDbPolyline
 62
250
  6
CONTINUOUS
 90
7
 70
0
 10
-92.1600016797
 20
16.6822489654
 10
-92.1598574806
 20
16.6833439189
 10
-92.1597913317
 20
16.6866167828
 10
-92.1598039577
 20
16.6920316991
 10
-92.1598952204
 20
16.6995293407
 10
-92.1600641197
 20
16.7090275619
 10
-92.1606265963
 20
16.7335887064
  0
LWPOLYLINE
  5
37D
100
AcDbEntity
  8
RACCORDO
100
AcDbPolyline
 62
7
  6
CONTINUOUS
 90
4
 70
0
 10
-91.8498004412
 20
16.9573254428
 10
-91.8531835299
 20
16.9316244785
 10
-91.858678004
 20
16.9066677032
 10
-91.8661100821
 20
16.8827340609
  0
LWPOLYLINE
  5
37E
100
AcDbEntity
  8
RACCORDO
100
AcDbPolyline
 62
7
  6
CONTINUOUS
 90
4
 70
0
 10
-91.8596889778
 20
-16.9029530643
 10
-91.8536490181
 20
-16.9290440109
 10
-91.8499206364
 20
-16.9559919859
 10
-91.8486484897
 20
-16.98359108
  0
LWPOLYLINE
  5
37F
100
AcDbEntity
  8
RACCORDO
100
AcDbPolyline
 62
250
  6
CONTINUOUS
 90
6
 70
0
 10
-93.427177718
 20
-20.012676641
 10
-93.4269962851
 20
-20.0139415442
 10
-93.4268168182
 20
-20.0173597017
 10
-93.4266412619
 20
-20.0228940682
 10
-93.4264715181
 20
-20.0304846717
 10
-93.4263094262
 20
-20.040049257
  0
LINE
  5
380
100
AcDbEntity
  8
RACCORDO
100
AcDbLine
 62
250
  6
CONTINUOUS
 10
-92.1598574806
 20
-16.6833439189
 11
-92.1600016797
 21
-16.6822489654
  0
LWPOLYLINE
  5
381
100
AcDbEntity
  8
RACCORDO
100
AcDbPolyline
 62
7
  6
CONTINUOUS
 90
19
 70
0
 10
-91.8671685723
 20
-16.9822976582
 10
-91.8682597966
 20
-16.9567304142
 10
-91.8715259265
 20
-16.93134923
 10
-91.8769431902
 20
-16.9063387882
 10
-91.8844721699
 20
-16.8818810676
 10
-91.8940580705
 20
-16.8581540349
 10
-91.9056311145
 20
-16.8353303478
 10
-91.9191070612
 20
-16.813576101
 10
-91.9343878654
 20
-16.79304955
 10
-91.9513623883
 20
-16.7738999875
 10
-91.9699071463
 20
-16.7562667408
 10
-91.9898871926
 20
-16.7402781435
 10
-92.0111571532
 20
-16.726050542
 10
-92.0335622546
 20
-16.7136874662
 10
-92.0569394862
 20
-16.7032788914
 10
-92.0811187815
 20
-16.6949005723
 10
-92.1059242123
 20
-16.6886134745
 10
-92.1311752739
 20
-16.684463342
 10
-92.1462567155
 20
-16.6830265906
  0
LWPOLYLINE
  5
382
100
AcDbEntity
  8
RACCORDO
100
AcDbPolyline
 62
7
  6
CONTINUOUS
 90
19
 70
0
 10
-91.8671685723
 20
22.0177023418
 10
-91.8682597966
 20
22.0432695858
 10
-91.8715259265
 20
22.06865077
 10
-91.8769431902
 20
22.0936612118
 10
-91.8844721699
 20
22.1181189324
 10
-91.8940580705
 20
22.1418459651
 10
-91.9056311145
 20
22.1646696522
 10
-91.9191070612
 20
22.186423899
 10
-91.9343878654
 20
22.20695045
 10
-91.9513623883
 20
22.2261000125
 10
-91.9699071463
 20
22.2437332592
 10
-91.9898871926
 20
22.2597218565
 10
-92.0111571532
 20
22.273949458
 10
-92.0335622546
 20
22.2863125338
 10
-92.0569394862
 20
22.2967211086
 10
-92.0811187815
 20
22.3050994277
 10
-92.1059242123
 20
22.3113865255
 10
-92.1311752739
 20
22.315536658
 10
-92.1462567155
 20
22.3169734094
  0
LINE
  5
383
100
AcDbEntity
  8
RACCORDO
100
AcDbLine
 62
7
  6
CONTINUOUS
 10
-91.8453530642
 20
-21.1290046366
 11
-91.8463039273
 21
-21.0981904225
  0
LINE
  5
384
100
AcDbEntity
  8
RACCORDO
100
AcDbLine
 62
7
  6
CONTINUOUS
 10
-91.8453530642
 20
17.8709953634
 11
-91.8463039273
 21
17.9018095775
  0
LINE
  5
385
100
AcDbEntity
  8
RACCORDO
100
AcDbLine
 62
250
  6
CONTINUOUS
 10
-92.1619800162
 20
-22.2178119519
 11
-92.1652360061
 21
-22.1178728692
  0
LINE
  5
386
100
AcDbEntity
  8
RACCORDO
100
AcDbLine
 62
250
  6
CONTINUOUS
 10
-92.1619800162
 20
16.7821880481
 11
-92.1652360061
 21
16.8821271308
  0
LINE
  5
387
100
AcDbEntity
  8
RACCORDO
100
AcDbLine
 62
250
  6
CONTINUOUS
 10
-92.1606265963
 20
-22.2664112936
 11
-92.1619800162
 21
-22.2178119519
  0
LINE
  5
388
100
AcDbEntity
  8
RACCORDO
100
AcDbLine
 62
250
  6
CONTINUOUS
 10
-92.1606265963
 20
16.7335887064
 11
-92.1619800162
 21
16.7821880481
  0
LWPOLYLINE
  5
389
100
AcDbEntity
  8
RACCORDO
100
AcDbPolyline
 62
7
  6
CONTINUOUS
 90
26
 70
0
 10
-91.8704673209
 20
-16.9820672773
 10
-91.8707189346
 20
-16.969781919
 10
-91.87148755
 20
-16.9573459896
 10
-91.8727931879
 20
-16.9447822658
 10
-91.8746555263
 20
-16.9321127333
 10
-91.8770927075
 20
-16.9193662416
 10
-91.8801201108
 20
-16.9065782958
 10
-91.8837598652
 20
-16.8937557567
 10
-91.8880208529
 20
-16.8809530823
 10
-91.8928855429
 20
-16.8682760695
 10
-91.8983487387
 20
-16.8557678268
 10
-91.9044146145
 20
-16.843445416
 10
-91.9110629545
 20
-16.8313708106
 10
-91.9182850262
 20
-16.8195738114
 10
-91.9260718672
 20
-16.8080819811
 10
-91.9343926316
 20
-16.7969490788
 10
-91.9432277576
 20
-16.7862046391
 10
-91.9525633224
 20
-16.7758687652
 10
-91.9623698112
 20
-16.7659761049
 10
-91.9726284843
 20
-16.7565462027
 10
-91.9833153391
 20
-16.7476017336
 10
-91.9943877102
 20
-16.7391765076
 10
-92.0057996591
 20
-16.7312994142
 10
-92.0175439262
 20
-16.7239696117
 10
-92.0296363576
 20
-16.7171774408
 10
-92.0419860816
 20
-16.7109721292
  0
LWPOLYLINE
  5
38A
100
AcDbEntity
  8
RACCORDO
100
AcDbPolyline
 62
7
  6
CONTINUOUS
 90
26
 70
0
 10
-91.8704673209
 20
22.0179327227
 10
-91.8707189346
 20
22.030218081
 10
-91.87148755
 20
22.0426540104
 10
-91.8727931879
 20
22.0552177342
 10
-91.8746555263
 20
22.0678872667
 10
-91.8770927075
 20
22.0806337584
 10
-91.8801201108
 20
22.0934217042
 10
-91.8837598652
 20
22.1062442433
 10
-91.8880208529
 20
22.1190469177
 10
-91.8928855429
 20
22.1317239305
 10
-91.8983487387
 20
22.1442321732
 10
-91.9044146145
 20
22.156554584
 10
-91.9110629545
 20
22.1686291894
 10
-91.9182850262
 20
22.1804261886
 10
-91.9260718672
 20
22.1919180189
 10
-91.9343926316
 20
22.2030509212
 10
-91.9432277576
 20
22.2137953609
 10
-91.9525633224
 20
22.2241312348
 10
-91.9623698112
 20
22.2340238951
 10
-91.9726284843
 20
22.2434537973
 10
-91.9833153391
 20
22.2523982664
 10
-91.9943877102
 20
22.2608234924
 10
-92.0057996591
 20
22.2687005858
 10
-92.0175439262
 20
22.2760303883
 10
-92.0296363576
 20
22.2828225592
 10
-92.0419860816
 20
22.2890278708
  0
LWPOLYLINE
  5
38B
100
AcDbEntity
  8
RACCORDO
100
AcDbPolyline
 62
250
  6
CONTINUOUS
 90
34
 70
0
 10
-92.0687143984
 20
-16.9820672773
 10
-92.0687876258
 20
-16.9779585322
 10
-92.0690460964
 20
-16.9738157503
 10
-92.0694898102
 20
-16.9696389315
 10
-92.0701133661
 20
-16.9654179439
 10
-92.0709221652
 20
-16.9611629194
 10
-92.071932411
 20
-16.9569042544
 10
-92.0731498324
 20
-16.9526336214
 10
-92.0745687004
 20
-16.9483593478
 10
-92.0761880324
 20
-16.9441368123
 10
-92.0780107073
 20
-16.9399710602
 10
-92.0800338461
 20
-16.9358570462
 10
-92.0822478285
 20
-16.9318350133
 10
-92.0846556803
 20
-16.9279064595
 10
-92.0872543757
 20
-16.9240698868
 10
-92.0900252179
 20
-16.9203610447
 10
-92.0929694665
 20
-16.9167829037
 10
-92.0960858618
 20
-16.9133324933
 10
-92.0993519281
 20
-16.9100366514
 10
-92.102770174
 20
-16.9068965812
 10
-92.1063380908
 20
-16.9039110795
 10
-92.1100256765
 20
-16.9011033744
 10
-92.1138268026
 20
-16.8984787149
 10
-92.1177475977
 20
-16.8960318521
 10
-92.1217764448
 20
-16.893770267
 10
-92.1258887835
 20
-16.8916974139
 10
-92.1301091743
 20
-16.8898098386
 10
-92.1344996818
 20
-16.8881046589
 10
-92.1390551906
 20
-16.8865650251
 10
-92.1437808163
 20
-16.885207787
 10
-92.1487539695
 20
-16.8840806118
 10
-92.1540004541
 20
-16.8831993886
 10
-92.1594944663
 20
-16.8825482282
 10
-92.1652360061
 20
-16.8821271308
  0
LWPOLYLINE
  5
38C
100
AcDbEntity
  8
RACCORDO
100
AcDbPolyline
 62
250
  6
CONTINUOUS
 90
34
 70
0
 10
-92.0687143984
 20
22.0179327227
 10
-92.0687876258
 20
22.0220414678
 10
-92.0690460964
 20
22.0261842497
 10
-92.0694898102
 20
22.0303610685
 10
-92.0701133661
 20
22.0345820561
 10
-92.0709221652
 20
22.0388370806
 10
-92.071932411
 20
22.0430957456
 10
-92.0731498324
 20
22.0473663786
 10
-92.0745687004
 20
22.0516406522
 10
-92.0761880324
 20
22.0558631877
 10
-92.0780107073
 20
22.0600289398
 10
-92.0800338461
 20
22.0641429538
 10
-92.0822478285
 20
22.0681649867
 10
-92.0846556803
 20
22.0720935405
 10
-92.0872543757
 20
22.0759301132
 10
-92.0900252179
 20
22.0796389553
 10
-92.0929694665
 20
22.0832170963
 10
-92.0960858618
 20
22.0866675067
 10
-92.0993519281
 20
22.0899633486
 10
-92.102770174
 20
22.0931034188
 10
-92.1063380908
 20
22.0960889205
 10
-92.1100256765
 20
22.0988966256
 10
-92.1138268026
 20
22.1015212851
 10
-92.1177475977
 20
22.1039681479
 10
-92.1217764448
 20
22.106229733
 10
-92.1258887835
 20
22.1083025861
 10
-92.1301091743
 20
22.1101901614
 10
-92.1344996818
 20
22.1118953411
 10
-92.1390551906
 20
22.1134349749
 10
-92.1437808163
 20
22.114792213
 10
-92.1487539695
 20
22.1159193882
 10
-92.1540004541
 20
22.1168006114
 10
-92.1594944663
 20
22.1174517718
 10
-92.1652360061
 20
22.1178728692
  0
LINE
  5
38D
100
AcDbEntity
  8
RACCORDO
100
AcDbLine
 62
250
  6
CONTINUOUS
 10
-93.4264715181
 20
18.9695153283
 11
-93.4261567426
 21
18.948515829
  0
LINE
  5
38E
100
AcDbEntity
  8
RACCORDO
100
AcDbLine
 62
250
  6
CONTINUOUS
 10
-93.4263094262
 20
-20.040049257
 11
-93.4260151215
 21
-20.064665502
  0
LINE
  5
38F
100
AcDbEntity
  8
RACCORDO
100
AcDbLine
 62
250
  6
CONTINUOUS
 10
-93.4261567426
 20
18.948515829
 11
-93.4257710682
 21
18.904321295
  0
LINE
  5
390
100
AcDbEntity
  8
RACCORDO
100
AcDbLine
 62
250
  6
CONTINUOUS
 10
-93.4260151215
 20
-20.064665502
 11
-93.4255878141
 21
-20.131748273
  0
LWPOLYLINE
  5
391
100
AcDbEntity
  8
RACCORDO
100
AcDbPolyline
 62
250
  6
CONTINUOUS
 90
3
 70
0
 10
-93.4257710682
 20
18.904321295
 10
-93.4254434498
 20
18.808120519
 10
-93.4254324109
 20
18.7873309744
  0
LINE
  5
392
100
AcDbEntity
  8
RACCORDO
100
AcDbLine
 62
250
  6
CONTINUOUS
 10
-93.4255878141
 20
-20.131748273
 11
-93.4254324109
 21
-20.2126690256
  0
LINE
  5
393
100
AcDbEntity
  8
RACCORDO
100
AcDbLine
 62
250
  6
CONTINUOUS
 10
-92.0687143984
 20
17.8579217089
 11
-92.0687143984
 21
16.9820672773
  0
LINE
  5
394
100
AcDbEntity
  8
RACCORDO
100
AcDbLine
 62
250
  6
CONTINUOUS
 10
-92.0687143984
 20
-21.1420782911
 11
-92.0687143984
 21
-22.0179327227
  0
LINE
  5
395
100
AcDbEntity
  8
RACCORDO
100
AcDbLine
 62
250
  6
CONTINUOUS
 10
-92.0687143984
 20
-17.8579217089
 11
-92.0687143984
 21
-16.9820672773
  0
LINE
  5
396
100
AcDbEntity
  8
RACCORDO
100
AcDbLine
 62
250
  6
CONTINUOUS
 10
-92.0687143984
 20
21.1420782911
 11
-92.0687143984
 21
22.0179327227
  0
LINE
  5
397
100
AcDbEntity
  8
RACCORDO
100
AcDbLine
 62
7
  6
CONTINUOUS
 10
-91.8704673209
 20
17.8579217089
 11
-91.8704673209
 21
16.9820672773
  0
LINE
  5
398
100
AcDbEntity
  8
RACCORDO
100
AcDbLine
 62
7
  6
CONTINUOUS
 10
-91.8704673209
 20
-21.1420782911
 11
-91.8704673209
 21
-22.0179327227
  0
LINE
  5
399
100
AcDbEntity
  8
RACCORDO
100
AcDbLine
 62
7
  6
CONTINUOUS
 10
-91.8704673209
 20
-17.8579217089
 11
-91.8704673209
 21
-16.9820672773
  0
LINE
  5
39A
100
AcDbEntity
  8
RACCORDO
100
AcDbLine
 62
7
  6
CONTINUOUS
 10
-91.8704673209
 20
21.1420782911
 11
-91.8704673209
 21
22.0179327227
  0
LINE
  5
39B
100
AcDbEntity
  8
RACCORDO
100
AcDbLine
 62
7
  6
CONTINUOUS
 10
-91.8486484897
 20
22.01640892
 11
-91.8486484897
 21
21.5145895978
  0
LINE
  5
39C
100
AcDbEntity
  8
RACCORDO
100
AcDbLine
 62
7
  6
CONTINUOUS
 10
-91.8486484897
 20
17.4854104022
 11
-91.8486484897
 21
16.98359108
  0
LINE
  5
39D
100
AcDbEntity
  8
RACCORDO
100
AcDbLine
 62
7
  6
CONTINUOUS
 10
-91.8486484897
 20
-16.98359108
 11
-91.8486484897
 21
-17.4854104022
  0
LINE
  5
39E
100
AcDbEntity
  8
RACCORDO
100
AcDbLine
 62
7
  6
CONTINUOUS
 10
-91.8486484897
 20
-21.5145895978
 11
-91.8486484897
 21
-22.01640892
  0
LINE
  5
39F
100
AcDbEntity
  8
RACCORDO
100
AcDbLine
 62
7
  6
CONTINUOUS
 10
-91.8453530642
 20
21.5152361117
 11
-91.8453530642
 21
21.1290046366
  0
LINE
  5
3A0
100
AcDbEntity
  8
RACCORDO
100
AcDbLine
 62
7
  6
CONTINUOUS
 10
-91.8453530642
 20
-17.4847638883
 11
-91.8453530642
 21
-17.8709953634
  0
LINE
  5
3A1
100
AcDbEntity
  8
RACCORDO
100
AcDbLine
 62
7
  6
CONTINUOUS
 10
-91.8453530642
 20
-21.5152361117
 11
-91.8453530642
 21
-21.1290046366
  0
LINE
  5
3A2
100
AcDbEntity
  8
RACCORDO
100
AcDbLine
 62
7
  6
CONTINUOUS
 10
-91.8453530642
 20
17.4847638883
 11
-91.8453530642
 21
17.8709953634
  0
LINE
  5
3A3
100
AcDbEntity
  8
RACCORDO
100
AcDbLine
 62
250
  6
CONTINUOUS
 10
-93.4254324109
 20
20.2126690256
 11
-93.4256712813
 21
20.1131748046
  0
LINE
  5
3A4
100
AcDbEntity
  8
RACCORDO
100
AcDbLine
 62
250
  6
CONTINUOUS
 10
-93.4254324109
 20
-18.7873309744
 11
-93.4256712813
 21
-18.8868251954
  0
LINE
  5
3A5
100
AcDbEntity
  8
RACCORDO
100
AcDbLine
 62
250
  6
CONTINUOUS
 10
-93.4256712813
 20
20.1131748046
 11
-93.4260151222
 21
20.0646657354
  0
LINE
  5
3A6
100
AcDbEntity
  8
RACCORDO
100
AcDbLine
 62
250
  6
CONTINUOUS
 10
-93.4256712813
 20
-18.8868251954
 11
-93.4260151222
 21
-18.9353342646
  0
LWPOLYLINE
  5
3A7
100
AcDbEntity
  8
RACCORDO
100
AcDbPolyline
 62
250
  6
CONTINUOUS
 90
4
 70
0
 10
-92.1598952204
 20
22.3004706593
 10
-92.1598039577
 20
22.3079683009
 10
-92.1597913317
 20
22.3133832172
 10
-92.1598574806
 20
22.3166560811
  0
LWPOLYLINE
  5
3A8
100
AcDbEntity
  8
RACCORDO
100
AcDbPolyline
 62
250
  6
CONTINUOUS
 90
4
 70
0
 10
-92.1598952204
 20
-16.6995293407
 10
-92.1598039577
 20
-16.6920316991
 10
-92.1597913317
 20
-16.6866167828
 10
-92.1598574806
 20
-16.6833439189
  0
LWPOLYLINE
  5
3A9
100
AcDbEntity
  8
RACCORDO
100
AcDbPolyline
 62
250
  6
CONTINUOUS
 90
7
 70
0
 10
-93.4260151222
 20
20.0646657354
 10
-93.4263094264
 20
20.0400494041
 10
-93.4264715182
 20
20.0304847733
 10
-93.4266412618
 20
20.0228941295
 10
-93.4268168181
 20
20.0173597311
 10
-93.4269962849
 20
20.0139415523
 10
-93.4271777177
 20
20.012676641
  0
LWPOLYLINE
  5
3AA
100
AcDbEntity
  8
RACCORDO
100
AcDbPolyline
 62
250
  6
CONTINUOUS
 90
7
 70
0
 10
-93.4260151222
 20
-18.9353342646
 10
-93.4263094264
 20
-18.9599505959
 10
-93.4264715182
 20
-18.9695152267
 10
-93.4266412618
 20
-18.9771058705
 10
-93.4268168181
 20
-18.9826402689
 10
-93.4269962849
 20
-18.9860584477
 10
-93.4271777177
 20
-18.987323359
  0
LINE
  5
3AB
100
AcDbEntity
  8
RACCORDO
100
AcDbLine
 62
250
  6
CONTINUOUS
 10
-92.1603088053
 20
22.2795777018
 11
-92.1598952204
 21
22.3004706593
  0
LINE
  5
3AC
100
AcDbEntity
  8
RACCORDO
100
AcDbLine
 62
250
  6
CONTINUOUS
 10
-92.1603088053
 20
-16.7204222982
 11
-92.1598952204
 21
-16.6995293407
  0
LINE
  5
3AD
100
AcDbEntity
  8
RACCORDO
100
AcDbLine
 62
250
  6
CONTINUOUS
 10
-92.1614668045
 20
22.2353583071
 11
-92.1603088053
 21
22.2795777018
  0
LINE
  5
3AE
100
AcDbEntity
  8
RACCORDO
100
AcDbLine
 62
250
  6
CONTINUOUS
 10
-92.1614668045
 20
-16.7646416929
 11
-92.1603088053
 21
-16.7204222982
  0
LINE
  5
3AF
100
AcDbEntity
  8
RACCORDO
100
AcDbLine
 62
7
  6
CONTINUOUS
 10
-91.8453530642
 20
21.1290046366
 11
-91.8463332591
 21
21.0977190972
  0
LINE
  5
3B0
100
AcDbEntity
  8
RACCORDO
100
AcDbLine
 62
7
  6
CONTINUOUS
 10
-91.8453530642
 20
-17.8709953634
 11
-91.8463332591
 21
-17.9022809028
  0
LWPOLYLINE
  5
3B1
100
AcDbEntity
  8
RACCORDO
100
AcDbPolyline
 62
250
  6
CONTINUOUS
 90
3
 70
0
 10
-92.1652360061
 20
22.1178728692
 10
-92.1645159967
 20
22.1387658267
 10
-92.1614668045
 20
22.2353583071
  0
LWPOLYLINE
  5
3B2
100
AcDbEntity
  8
RACCORDO
100
AcDbPolyline
 62
250
  6
CONTINUOUS
 90
3
 70
0
 10
-92.1652360061
 20
-16.8821271308
 10
-92.1645159967
 20
-16.8612341733
 10
-92.1614668045
 20
-16.7646416929
  0
LWPOLYLINE
  5
3B3
100
AcDbEntity
  8
RACCORDO
100
AcDbPolyline
 62
7
  6
CONTINUOUS
 90
19
 70
0
 10
-91.8704673209
 20
16.9820672773
 10
-91.8716192724
 20
16.95580164
 10
-91.8750023611
 20
16.9301006758
 10
-91.8804968352
 20
16.9051439005
 10
-91.8879289133
 20
16.8812102582
 10
-91.8971804422
 20
16.8583160821
 10
-91.9082870346
 20
16.8362538564
 10
-91.9212471356
 20
16.8150662882
 10
-91.9359200474
 20
16.7950176071
 10
-91.9521978065
 20
16.7762557164
 10
-91.9698714699
 20
16.7589949405
 10
-91.9889010487
 20
16.7432501024
 10
-92.0094736638
 20
16.728925016
 10
-92.0315936795
 20
16.7161460469
 10
-92.0550624422
 20
16.705152575
 10
-92.0797966514
 20
16.6960970926
 10
-92.1056613919
 20
16.6891501927
 10
-92.1324633122
 20
16.684483566
 10
-92.1495698473
 20
16.6827952052
  0
LINE
  5
3B4
100
AcDbEntity
  8
RACCORDO
100
AcDbLine
 62
7
  6
CONTINUOUS
 10
-91.8486484897
 20
16.98359108
 11
-91.8498004412
 21
16.9573254428
  0
LWPOLYLINE
  5
3B5
100
AcDbEntity
  8
RACCORDO
100
AcDbPolyline
 62
7
  6
CONTINUOUS
 90
19
 70
0
 10
-91.8704673209
 20
-22.0179327227
 10
-91.8716192724
 20
-22.04419836
 10
-91.8750023611
 20
-22.0698993242
 10
-91.8804968352
 20
-22.0948560995
 10
-91.8879289133
 20
-22.1187897418
 10
-91.8971804422
 20
-22.1416839179
 10
-91.9082870346
 20
-22.1637461436
 10
-91.9212471356
 20
-22.1849337118
 10
-91.9359200474
 20
-22.2049823929
 10
-91.9521978065
 20
-22.2237442836
 10
-91.9698714699
 20
-22.2410050595
 10
-91.9889010487
 20
-22.2567498976
 10
-92.0094736638
 20
-22.271074984
 10
-92.0315936795
 20
-22.2838539531
 10
-92.0550624422
 20
-22.294847425
 10
-92.0797966514
 20
-22.3039029074
 10
-92.1056613919
 20
-22.3108498073
 10
-92.1324633122
 20
-22.315516434
 10
-92.1495698473
 20
-22.3172047948
  0
LINE
  5
3B6
100
AcDbEntity
  8
RACCORDO
100
AcDbLine
 62
7
  6
CONTINUOUS
 10
-91.8486484897
 20
-22.01640892
 11
-91.8498004412
 21
-22.0426745572
  0
LWPOLYLINE
  5
3B7
100
AcDbEntity
  8
RACCORDO
100
AcDbPolyline
 62
250
  6
CONTINUOUS
 90
19
 70
0
 10
-92.0687143984
 20
16.9820672773
 10
-92.0691710632
 20
16.9732226991
 10
-92.0702855971
 20
16.9646756472
 10
-92.0720579999
 20
16.9564261216
 10
-92.0745085222
 20
16.9484635224
 10
-92.0776169135
 20
16.9407984495
 10
-92.0813224224
 20
16.9334627023
 10
-92.0856388204
 20
16.9264202686
 10
-92.0905523359
 20
16.9197071605
 10
-92.0959609033
 20
16.9134632134
 10
-92.1018344264
 20
16.9077123807
 10
-92.1082030012
 20
16.902430709
 10
-92.1150548503
 20
16.8976861739
 10
-92.1224251273
 20
16.8934461619
 10
-92.1302786786
 20
16.8897432865
 10
-92.138498266
 20
16.8867433641
 10
-92.14704481
 20
16.8845016667
 10
-92.15595739
 20
16.8829629223
 10
-92.1652360061
 20
16.8821271308
  0
LWPOLYLINE
  5
3B8
100
AcDbEntity
  8
RACCORDO
100
AcDbPolyline
 62
250
  6
CONTINUOUS
 90
19
 70
0
 10
-92.0687143984
 20
-22.0179327227
 10
-92.0691710632
 20
-22.0267773009
 10
-92.0702855971
 20
-22.0353243528
 10
-92.0720579999
 20
-22.0435738784
 10
-92.0745085222
 20
-22.0515364776
 10
-92.0776169135
 20
-22.0592015505
 10
-92.0813224224
 20
-22.0665372977
 10
-92.0856388204
 20
-22.0735797314
 10
-92.0905523359
 20
-22.0802928395
 10
-92.0959609033
 20
-22.0865367866
 10
-92.1018344264
 20
-22.0922876193
 10
-92.1082030012
 20
-22.097569291
 10
-92.1150548503
 20
-22.1023138261
 10
-92.1224251273
 20
-22.1065538381
 10
-92.1302786786
 20
-22.1102567135
 10
-92.138498266
 20
-22.1132566359
 10
-92.14704481
 20
-22.1154983333
 10
-92.15595739
 20
-22.1170370777
 10
-92.1652360061
 20
-22.1178728692
  0
LWPOLYLINE
  5
3B9
100
AcDbEntity
  8
RACCORDO
100
AcDbPolyline
 62
250
  6
CONTINUOUS
 90
7
 70
0
 10
-95.4600567186
 20
-22.4329958841
 10
-95.4599125195
 20
-22.4319009306
 10
-95.4598463706
 20
-22.4286280667
 10
-95.4598589966
 20
-22.4232131504
 10
-95.4599502593
 20
-22.4157155089
 10
-95.4601191586
 20
-22.4062172877
 10
-95.4606816352
 20
-22.3816561432
  0
LWPOLYLINE
  5
3BA
100
AcDbEntity
  8
RACCORDO
100
AcDbPolyline
 62
250
  6
CONTINUOUS
 90
5
 70
0
 10
-95.6791950564
 20
-16.5526261537
 10
-95.6774814229
 20
-16.54534134
 10
-95.6762937205
 20
-16.5400673961
 10
-95.6756449256
 20
-16.5368619439
 10
-95.6755421268
 20
-16.5357600055
  0
LINE
  5
3BB
100
AcDbEntity
  8
RACCORDO
100
AcDbLine
 62
250
  6
CONTINUOUS
 10
-95.6841196834
 20
-16.5728889207
 11
-95.6791950564
 21
-16.5526261537
  0
LINE
  5
3BC
100
AcDbEntity
  8
RACCORDO
100
AcDbLine
 62
250
  6
CONTINUOUS
 10
-95.6948089005
 20
-16.6157136333
 11
-95.6841196834
 21
-16.5728889207
  0
LWPOLYLINE
  5
3BD
100
AcDbEntity
  8
RACCORDO
100
AcDbPolyline
 62
250
  6
CONTINUOUS
 90
3
 70
0
 10
-95.7238728205
 20
-16.7293895335
 10
-95.7186556274
 20
-16.7091777387
 10
-95.6948089005
 20
-16.6157136333
  0
LINE
  5
3BE
100
AcDbEntity
  8
RACCORDO
100
AcDbLine
 62
250
  6
CONTINUOUS
 10
-95.699101448
 20
16.6326966945
 11
-95.7238728205
 21
16.7293895335
  0
LINE
  5
3BF
100
AcDbEntity
  8
RACCORDO
100
AcDbLine
 62
250
  6
CONTINUOUS
 10
-95.6872768716
 20
16.5856454875
 11
-95.699101448
 21
16.6326966945
  0
LWPOLYLINE
  5
3C0
100
AcDbEntity
  8
RACCORDO
100
AcDbPolyline
 62
250
  6
CONTINUOUS
 90
5
 70
0
 10
-93.427177718
 20
18.987323359
 10
-93.4269962851
 20
18.9860584558
 10
-93.4268168182
 20
18.9826402983
 10
-93.4266412619
 20
18.9771059318
 10
-93.4264715181
 20
18.9695153283
  0
LWPOLYLINE
  5
3C1
100
AcDbEntity
  8
RACCORDO
100
AcDbPolyline
 62
7
  6
CONTINUOUS
 90
15
 70
0
 10
-91.8463039273
 20
17.9018095775
 10
-91.8491300664
 20
17.9323299636
 10
-91.8537882992
 20
17.9624448392
 10
-91.8601943031
 20
17.9919074152
 10
-91.8683110604
 20
18.0207604751
 10
-91.8782327112
 20
18.0493131551
 10
-91.8899645833
 20
18.0774416579
 10
-91.9035073966
 20
18.1050280788
 10
-91.9190853738
 20
18.1323284817
 10
-91.9368221808
 20
18.1592694864
 10
-91.9566998429
 20
18.1855561726
 10
-91.9787963917
 20
18.2110489691
 10
-92.0031496665
 20
18.2355464999
 10
-92.0297412327
 20
18.2587972885
 10
-92.058546986
 20
18.2805608613
  0
LWPOLYLINE
  5
3C2
100
AcDbEntity
  8
RACCORDO
100
AcDbPolyline
 62
7
  6
CONTINUOUS
 90
15
 70
0
 10
-91.8463332591
 20
-17.9022809028
 10
-91.849246674
 20
-17.9332660371
 10
-91.8540487484
 20
-17.9638338461
 10
-91.8606588504
 20
-17.9937563449
 10
-91.8690349482
 20
-18.0230470358
 10
-91.8792443747
 20
-18.0519410811
 10
-91.8912799052
 20
-18.0803188458
 10
-91.9051264316
 20
-18.1080595745
 10
-91.9209505876
 20
-18.135346856
 10
-91.9388458447
 20
-18.1621162493
 10
-91.9587688829
 20
-18.1880955664
 10
-91.9807234449
 20
-18.2131145332
 10
-92.0046960576
 20
-18.2369919889
 10
-92.0306535382
 20
-18.259538008
 10
-92.058546986
 20
-18.2805608613
  0
LWPOLYLINE
  5
3C3
100
AcDbEntity
  8
RACCORDO
100
AcDbPolyline
 62
250
  6
CONTINUOUS
 90
7
 70
0
 10
-92.1600016797
 20
-22.3177510346
 10
-92.1598574806
 20
-22.3166560811
 10
-92.1597913317
 20
-22.3133832172
 10
-92.1598039577
 20
-22.3079683009
 10
-92.1598952204
 20
-22.3004706593
 10
-92.1600641197
 20
-22.2909724381
 10
-92.1606265963
 20
-22.2664112936
  0
LWPOLYLINE
  5
3C4
100
AcDbEntity
  8
RACCORDO
100
AcDbPolyline
 62
7
  6
CONTINUOUS
 90
4
 70
0
 10
-91.8498004412
 20
-22.0426745572
 10
-91.8531835299
 20
-22.0683755215
 10
-91.858678004
 20
-22.0933322968
 10
-91.8661100821
 20
-22.1172659391
  0
LWPOLYLINE
  5
3C5
100
AcDbEntity
  8
RACCORDO
100
AcDbPolyline
 62
250
  6
CONTINUOUS
 90
6
 70
0
 10
-99.8201752729
 20
-43.6940353356
 10
-99.8201315918
 20
-43.6938302756
 10
-99.8200879136
 20
-43.6934830888
 10
-99.8200442383
 20
-43.692984776
 10
-99.8200020572
 20
-43.6923288758
 10
-99.8199598791
 20
-43.6915043863
  0
LINE
  5
3C6
100
AcDbEntity
  8
RACCORDO
100
AcDbLine
 62
7
  6
CONTINUOUS
 10
-93.7612893566
 20
-19.0126716242
 11
-93.7544906301
 21
-18.9872984315
  0
LINE
  5
3C7
100
AcDbEntity
  8
RACCORDO
100
AcDbLine
 62
250
  6
CONTINUOUS
 10
-95.3455073232
 20
-18.1880883166
 11
-95.335968488
 21
-18.1599878142
  0
LINE
  5
3C8
100
AcDbEntity
  8
RACCORDO
100
AcDbLine
 62
250
  6
CONTINUOUS
 10
-94.9760383619
 20
-18.3134758318
 11
-94.9665179701
 21
-18.2854296617
  0
LINE
  5
3C9
100
AcDbEntity
  8
RACCORDO
100
AcDbLine
 62
250
  6
CONTINUOUS
 10
-95.3455073232
 20
18.1880883166
 11
-95.335968488
 21
18.1599878142
  0
LINE
  5
3CA
100
AcDbEntity
  8
RACCORDO
100
AcDbLine
 62
250
  6
CONTINUOUS
 10
-94.9760383619
 20
18.3134758318
 11
-94.9665179701
 21
18.2854296617
  0
LINE
  5
3CB
100
AcDbEntity
  8
RACCORDO
100
AcDbLine
 62
7
  6
CONTINUOUS
 10
-93.7612893566
 20
19.0126716242
 11
-93.7544906301
 21
18.9872984315
  0
LWPOLYLINE
  5
3CC
100
AcDbEntity
  8
RACCORDO
100
AcDbPolyline
 62
250
  6
CONTINUOUS
 90
5
 70
0
 10
-96.7544035239
 20
43.1531852954
 10
-96.7541903696
 20
43.1517489743
 10
-96.7539892809
 20
43.1474628443
 10
-96.7538028539
 20
43.1403583332
 10
-96.753635009
 20
43.1304865248
  0
LINE
  5
3CD
100
AcDbEntity
  8
RACCORDO
100
AcDbLine
 62
250
  6
CONTINUOUS
 10
-92.1598574806
 20
22.3166560811
 11
-92.1600016797
 21
22.3177510346
  0
LWPOLYLINE
  5
3CE
100
AcDbEntity
  8
RACCORDO
100
AcDbPolyline
 62
7
  6
CONTINUOUS
 90
5
 70
0
 10
-91.8626570617
 20
-22.1165945716
 10
-91.8551281156
 20
-22.0921368602
 10
-91.8497108078
 20
-22.0671265611
 10
-91.8464445433
 20
-22.041745638
 10
-91.8453530642
 20
-22.0161787712
  0
LINE
  5
3CF
100
AcDbEntity
  8
RACCORDO
100
AcDbLine
 62
250
  6
CONTINUOUS
 10
-93.427177718
 20
-20.012676641
 11
-93.4191936553
 21
-19.9873544292
  0
LINE
  5
3D0
100
AcDbEntity
  8
RACCORDO
100
AcDbLine
 62
250
  6
CONTINUOUS
 10
-92.8536121034
 20
-20.193482765
 11
-92.8456500767
 21
-20.1682304427
  0
LINE
  5
3D1
100
AcDbEntity
  8
RACCORDO
100
AcDbLine
 62
250
  6
CONTINUOUS
 10
-93.427177718
 20
20.012676641
 11
-93.4191936553
 21
19.9873544292
  0
LINE
  5
3D2
100
AcDbEntity
  8
RACCORDO
100
AcDbLine
 62
250
  6
CONTINUOUS
 10
-92.8536121034
 20
20.193482765
 11
-92.8456500767
 21
20.1682304427
  0
LWPOLYLINE
  5
3D3
100
AcDbEntity
  8
RACCORDO
100
AcDbPolyline
 62
7
  6
CONTINUOUS
 90
5
 70
0
 10
-91.862654889
 20
22.1165884575
 10
-91.8551266595
 20
22.0921313002
 10
-91.849710064
 20
22.0671222497
 10
-91.8464443333
 20
22.0417431878
 10
-91.8453530642
 20
22.0161787712
  0
LWPOLYLINE
  5
3D4
100
AcDbEntity
  8
RACCORDO
100
AcDbPolyline
 62
7
  6
CONTINUOUS
 90
4
 70
0
 10
-91.8596889778
 20
22.0970469357
 10
-91.8536490181
 20
22.0709559891
 10
-91.8499206364
 20
22.0440080141
 10
-91.8486484897
 20
22.01640892
  0
LWPOLYLINE
  5
3D5
100
AcDbEntity
  8
RACCORDO
100
AcDbPolyline
 62
7
  6
CONTINUOUS
 90
12
 70
0
 10
-91.8661100821
 20
-22.1172659391
 10
-91.8753616111
 20
-22.1401601151
 10
-91.8864682035
 20
-22.1622223409
 10
-91.8994283044
 20
-22.1834099091
 10
-91.9141012162
 20
-22.2034585902
 10
-91.9303789753
 20
-22.2222204809
 10
-91.9480526387
 20
-22.2394812567
 10
-91.9670822176
 20
-22.2552260949
 10
-91.9876548326
 20
-22.2695511812
 10
-92.0097748483
 20
-22.2823301504
 10
-92.0332436111
 20
-22.2933236223
 10
-92.0579778203
 20
-22.3023791047
  0
LINE
  5
3D6
100
AcDbEntity
  8
RACCORDO
100
AcDbLine
 62
250
  6
CONTINUOUS
 10
-99.8202062357
 20
-43.6941057664
 11
-99.8201752729
 21
-43.6940353356
  0
LWPOLYLINE
  5
3D7
100
AcDbEntity
  8
RACCORDO
100
AcDbPolyline
 62
250
  6
CONTINUOUS
 90
5
 70
0
 10
-92.8536121034
 20
-20.193482765
 10
-92.8542119383
 20
-20.1945977161
 10
-92.8560402545
 20
-20.1974643396
 10
-92.859077369
 20
-20.2020517743
 10
-92.8632905851
 20
-20.2083106335
  0
LWPOLYLINE
  5
3D8
100
AcDbEntity
  8
RACCORDO
100
AcDbPolyline
 62
250
  6
CONTINUOUS
 90
5
 70
0
 10
-92.0836807273
 20
-20.7325229363
 10
-92.0842805721
 20
-20.733637901
 10
-92.0861089138
 20
-20.7365045603
 10
-92.0891460659
 20
-20.7410920482
 10
-92.0933593289
 20
-20.7473509738
  0
LINE
  5
3D9
100
AcDbEntity
  8
RACCORDO
100
AcDbLine
 62
250
  6
CONTINUOUS
 10
-92.8632905851
 20
-20.2083106335
 11
-92.8750517171
 21
-20.2255558336
  0
LINE
  5
3DA
100
AcDbEntity
  8
RACCORDO
100
AcDbLine
 62
250
  6
CONTINUOUS
 10
-92.8750517171
 20
-20.2255558336
 11
-92.9099139439
 21
-20.2760374469
  0
LINE
  5
3DB
100
AcDbEntity
  8
RACCORDO
100
AcDbLine
 62
250
  6
CONTINUOUS
 10
-92.9099139439
 20
-20.2760374469
 11
-92.9665777155
 21
-20.3573069357
  0
LWPOLYLINE
  5
3DC
100
AcDbEntity
  8
RACCORDO
100
AcDbPolyline
 62
7
  6
CONTINUOUS
 90
4
 70
0
 10
-92.0579778203
 20
16.6976208953
 10
-92.0838425608
 20
16.6906739954
 10
-92.110644481
 20
16.6860073687
 10
-92.1277510161
 20
16.6843190079
  0
LINE
  5
3DD
100
AcDbEntity
  8
RACCORDO
100
AcDbLine
 62
7
  6
CONTINUOUS
 10
-92.084109289
 20
16.6901369933
 11
-92.0593040391
 21
16.6964240628
  0
LWPOLYLINE
  5
3DE
100
AcDbEntity
  8
RACCORDO
100
AcDbPolyline
 62
7
  6
CONTINUOUS
 90
17
 70
0
 10
-92.105924797
 20
16.6886134227
 10
-92.0811195471
 20
16.6949004922
 10
-92.0569403469
 20
16.7032787783
 10
-92.0335631333
 20
16.7136873172
 10
-92.0111580066
 20
16.7260503726
 10
-91.9898879945
 20
16.7402779866
 10
-91.9699078674
 20
16.7562666331
 10
-91.9513630105
 20
16.7738999706
 10
-91.9343883611
 20
16.7930496942
 10
-91.9191074358
 20
16.8135764602
 10
-91.9056314301
 20
16.835330897
 10
-91.8940584082
 20
16.8581547273
 10
-91.8844725698
 20
16.8818818578
 10
-91.8769436237
 20
16.9063395691
 10
-91.8715263158
 20
16.9313498683
 10
-91.8682600514
 20
16.9567307913
 10
-91.8671685723
 20
16.9822976582
  0
LINE
  5
3DF
100
AcDbEntity
  8
RACCORDO
100
AcDbLine
 62
250
  6
CONTINUOUS
 10
-92.9665777155
 20
20.3573069357
 11
-92.8999984664
 21
20.2617339275
  0
LINE
  5
3E0
100
AcDbEntity
  8
RACCORDO
100
AcDbLine
 62
250
  6
CONTINUOUS
 10
-92.8999984664
 20
20.2617339275
 11
-92.8750517171
 21
20.2255558336
  0
LWPOLYLINE
  5
3E1
100
AcDbEntity
  8
RACCORDO
100
AcDbPolyline
 62
250
  6
CONTINUOUS
 90
6
 70
0
 10
-92.8750517171
 20
20.2255558336
 10
-92.8632905851
 20
20.2083106335
 10
-92.859077369
 20
20.2020517743
 10
-92.8560402545
 20
20.1974643396
 10
-92.8542119383
 20
20.1945977161
 10
-92.8536121034
 20
20.193482765
  0
LWPOLYLINE
  5
3E2
100
AcDbEntity
  8
0
100
AcDbPolyline
 62
7
  6
CONTINUOUS
 90
10
 70
0
 43
0.3500000006
 10
-108.577256012
 20
54.5606752625
 10
-108.5058248291
 20
54.4178174286
 10
-108.5058248291
 20
54.3463907776
 10
-108.6486781311
 20
54.2035329437
 10
-108.720109314
 20
54.2035329437
 10
-108.7915404968
 20
54.2749595947
 10
-108.7915404968
 20
54.3463907776
 10
-108.720109314
 20
54.4892440796
 10
-108.6486781311
 20
54.5606752625
 10
-108.577256012
 20
54.5606752625
  0
LINE
  5
3E3
100
AcDbEntity
  8
RACCORDO
100
AcDbLine
 62
250
  6
CONTINUOUS
 10
-99.8201752729
 20
43.6940353356
 11
-99.8202062359
 21
43.6941057665
  0
LWPOLYLINE
  5
3E4
100
AcDbEntity
  8
0
100
AcDbPolyline
 62
7
  6
CONTINUOUS
 90
14
 70
0
 10
-99.435660533
 20
43.1986083209
 10
-99.4345513934
 20
43.1955688341
 10
-99.4334472366
 20
43.1905462438
 10
-99.4323549348
 20
43.1832819736
 10
-99.4312630826
 20
43.1734117522
 10
-99.4301995566
 20
43.1607351431
 10
-99.4292265563
 20
43.1454343626
 10
-99.4283512093
 20
43.1275626744
 10
-99.4275740388
 20
43.1070032395
 10
-99.4269409563
 20
43.0839651774
 10
-99.4264526537
 20
43.058549177
 10
-99.4261118577
 20
43.0307867293
 10
-99.4259643758
 20
43.0009001406
 10
-99.4260375348
 20
42.9690001915
  0
LINE
  5
3E5
100
AcDbEntity
  8
RACCORDO
100
AcDbLine
 62
250
  6
CONTINUOUS
 10
-92.0933593289
 20
-20.7473509738
 11
-92.1051205647
 21
-20.7645963209
  0
LINE
  5
3E6
100
AcDbEntity
  8
RACCORDO
100
AcDbLine
 62
250
  6
CONTINUOUS
 10
-92.1051205647
 20
-20.7645963209
 11
-92.139982898
 21
-20.8150780844
  0
LINE
  5
3E7
100
AcDbEntity
  8
RACCORDO
100
AcDbLine
 62
250
  6
CONTINUOUS
 10
-92.139982898
 20
-20.8150780844
 11
-92.1966463395
 21
-20.896347107
  0
LWPOLYLINE
  5
3E8
100
AcDbEntity
  8
RACCORDO
100
AcDbPolyline
 62
250
  6
CONTINUOUS
 90
16
 70
0
 10
-92.1966463395
 20
-18.103652893
 10
-92.1818084439
 20
-18.0925397564
 10
-92.1677927998
 20
-18.0806679374
 10
-92.1545994073
 20
-18.0680374359
 10
-92.142219728
 20
-18.0546597772
 10
-92.1306623003
 20
-18.0405234361
 10
-92.1199527388
 20
-18.0255938368
 10
-92.1100432472
 20
-18.0098569491
 10
-92.1009816218
 20
-17.9933268031
 10
-92.0929368656
 20
-17.9760109144
 10
-92.0858781346
 20
-17.9578269103
 10
-92.0798362728
 20
-17.9388571633
 10
-92.0750728148
 20
-17.9193563064
 10
-92.0716749389
 20
-17.8994092172
 10
-92.0695554667
 20
-17.878931018
 10
-92.0687143984
 20
-17.8579217089
  0
LWPOLYLINE
  5
3E9
100
AcDbEntity
  8
RACCORDO
100
AcDbPolyline
 62
250
  6
CONTINUOUS
 90
16
 70
0
 10
-92.0836807273
 20
-18.2674770637
 10
-92.0590774467
 20
-18.2490992147
 10
-92.0356921653
 20
-18.229284729
 10
-92.0136058347
 20
-18.2081162364
 10
-91.9929746269
 20
-18.1857738613
 10
-91.9737754274
 20
-18.162264838
 10
-91.9558637837
 20
-18.1373756568
 10
-91.9393307621
 20
-18.1111276413
 10
-91.9243164823
 20
-18.0836266809
 10
-91.9108387609
 20
-18.0547367071
 10
-91.899008986
 20
-18.0244232712
 10
-91.8890282198
 20
-17.9928780584
 10
-91.8810656595
 20
-17.9603121956
 10
-91.8752477176
 20
-17.9268868227
 10
-91.8716793592
 20
-17.892705948
 10
-91.8704673209
 20
-17.8579217089
  0
LINE
  5
3EA
100
AcDbEntity
  8
RACCORDO
100
AcDbLine
 62
7
  6
CONTINUOUS
 10
-92.058546986
 20
-18.2805608613
 11
-92.8456500767
 21
-18.8317695573
  0
LINE
  5
3EB
100
AcDbEntity
  8
RACCORDO
100
AcDbLine
 62
250
  6
CONTINUOUS
 10
-92.9665777155
 20
-18.6426930643
 11
-92.1966463395
 21
-18.103652893
  0
LINE
  5
3EC
100
AcDbEntity
  8
RACCORDO
100
AcDbLine
 62
7
  6
CONTINUOUS
 10
-92.8536121034
 20
-18.806517235
 11
-92.0836807273
 21
-18.2674770637
  0
LWPOLYLINE
  5
3ED
100
AcDbEntity
  8
RACCORDO
100
AcDbPolyline
 62
7
  6
CONTINUOUS
 90
10
 70
0
 10
-92.8456500767
 20
-18.8317695573
 10
-92.9017929034
 20
-18.8683445544
 10
-92.9603558377
 20
-18.9011278143
 10
-93.0210858195
 20
-18.9299525237
 10
-93.0835868557
 20
-18.9546219225
 10
-93.1477083757
 20
-18.9750679694
 10
-93.2135748276
 20
-18.9912629056
 10
-93.2810463876
 20
-19.0030475864
 10
-93.3496912408
 20
-19.0102226072
 10
-93.4191936553
 20
-19.0126455708
  0
LINE
  5
3EE
100
AcDbEntity
  8
RACCORDO
100
AcDbLine
 62
7
  6
CONTINUOUS
 10
-95.6755421268
 20
16.5357600055
 11
-96.5578940052
 21
16.3075682941
  0
LINE
  5
3EF
100
AcDbEntity
  8
RACCORDO
100
AcDbLine
 62
250
  6
CONTINUOUS
 10
-95.7238728205
 20
16.7293895335
 11
-96.5578940052
 21
16.5136969895
  0
LINE
  5
3F0
100
AcDbEntity
  8
RACCORDO
100
AcDbLine
 62
7
  6
CONTINUOUS
 10
-92.109360095
 20
16.6859868876
 11
-92.084109289
 21
16.6901369933
  0
LINE
  5
3F1
100
AcDbEntity
  8
RACCORDO
100
AcDbLine
 62
7
  6
CONTINUOUS
 10
-92.1311756031
 20
16.684463317
 11
-92.105924797
 21
16.6886134227
  0
LINE
  5
3F2
100
AcDbEntity
  8
RACCORDO
100
AcDbLine
 62
7
  6
CONTINUOUS
 10
-95.335968488
 20
18.1599878142
 11
-96.5578940052
 21
17.9990244053
  0
LINE
  5
3F3
100
AcDbEntity
  8
RACCORDO
100
AcDbLine
 62
7
  6
CONTINUOUS
 10
-95.3455073232
 20
18.1880883166
 11
-96.5578940052
 21
18.0285677118
  0
LINE
  5
3F4
100
AcDbEntity
  8
RACCORDO
100
AcDbLine
 62
7
  6
CONTINUOUS
 10
-92.1495698531
 20
16.6827952048
 11
-92.1462569147
 21
16.6830265767
  0
LINE
  5
3F5
100
AcDbEntity
  8
RACCORDO
100
AcDbLine
 62
7
  6
CONTINUOUS
 10
-92.127751022
 20
16.6843190075
 11
-92.1244414066
 21
16.6845501474
  0
LINE
  5
3F6
100
AcDbEntity
  8
RACCORDO
100
AcDbLine
 62
7
  6
CONTINUOUS
 10
-92.1495698473
 20
16.6827952052
 11
-92.1600016797
 21
16.6822489654
  0
LINE
  5
3F7
100
AcDbEntity
  8
RACCORDO
100
AcDbLine
 62
7
  6
CONTINUOUS
 10
-92.1277510161
 20
16.6843190079
 11
-92.1381828485
 21
16.6837727681
  0
LWPOLYLINE
  5
3F8
100
AcDbEntity
  8
RACCORDO
100
AcDbPolyline
 62
250
  6
CONTINUOUS
 90
16
 70
0
 10
-95.4652910451
 20
16.7668822813
 10
-95.4820263071
 20
16.7661764139
 10
-95.4986813722
 20
16.7652467617
 10
-95.5152562403
 20
16.7640933249
 10
-95.5316995068
 20
16.7627219341
 10
-95.5480625764
 20
16.7611267585
 10
-95.5644996629
 20
16.7592903061
 10
-95.580990998
 20
16.7572260082
 10
-95.5975563501
 20
16.7549204334
 10
-95.6144092376
 20
16.7523157963
 10
-95.6315511676
 20
16.7494262631
 10
-95.648980633
 20
16.7462376676
 10
-95.6669066313
 20
16.7426497253
 10
-95.6853988282
 20
16.7386290082
 10
-95.7043875579
 20
16.7342089442
 10
-95.7238728205
 20
16.7293895335
  0
LWPOLYLINE
  5
3F9
100
AcDbEntity
  8
RACCORDO
100
AcDbPolyline
 62
7
  6
CONTINUOUS
 90
16
 70
0
 10
-95.4600567186
 20
16.5670041159
 10
-95.4739986448
 20
16.5664198103
 10
-95.4878787574
 20
16.565644313
 10
-95.501694496
 20
16.5646799559
 10
-95.515397758
 20
16.5635332291
 10
-95.5290318336
 20
16.5622036305
 10
-95.5427307947
 20
16.560677411
 10
-95.5564737577
 20
16.5589537392
 10
-95.5702755974
 20
16.5570275681
 10
-95.5843222218
 20
16.5548652897
 10
-95.5986072885
 20
16.5524559922
 10
-95.6131275182
 20
16.5497880821
 10
-95.6280701709
 20
16.5468101994
 10
-95.6434915402
 20
16.5434875106
 10
-95.6593186595
 20
16.5398112774
 10
-95.6755421268
 20
16.5357600055
  0
LINE
  5
3FA
100
AcDbEntity
  8
RACCORDO
100
AcDbLine
 62
7
  6
CONTINUOUS
 10
-92.1600016797
 20
16.6822489654
 11
-95.4600567186
 21
16.5670041159
  0
LINE
  5
3FB
100
AcDbEntity
  8
RACCORDO
100
AcDbLine
 62
250
  6
CONTINUOUS
 10
-92.1652360061
 20
16.8821271308
 11
-95.4652910451
 21
16.7668822813
  0
LINE
  5
3FC
100
AcDbEntity
  8
RACCORDO
100
AcDbLine
 62
7
  6
CONTINUOUS
 10
-91.8671685723
 20
17.4847638883
 11
-91.8486484897
 21
17.4854104022
  0
LINE
  5
3FD
100
AcDbEntity
  8
RACCORDO
100
AcDbLine
 62
250
  6
CONTINUOUS
 10
-91.8704673209
 20
16.9820672773
 11
-92.0687143984
 21
16.9820672773
  0
LINE
  5
3FE
100
AcDbEntity
  8
RACCORDO
100
AcDbLine
 62
250
  6
CONTINUOUS
 10
-91.8486484897
 20
16.98359108
 11
-91.8671685723
 21
16.9835910765
  0
LINE
  5
3FF
100
AcDbEntity
  8
RACCORDO
100
AcDbLine
 62
250
  6
CONTINUOUS
 10
-91.8704673209
 20
17.8579217089
 11
-92.0687143984
 21
17.8579217089
  0
LWPOLYLINE
  5
400
100
AcDbEntity
  8
RACCORDO
100
AcDbPolyline
 62
7
  6
CONTINUOUS
 90
13
 70
0
 10
-92.8456500767
 20
18.8317695573
 10
-92.8871336115
 20
18.8593062248
 10
-92.929951099
 20
18.8847522419
 10
-92.9739976181
 20
18.9080423005
 10
-93.0190624827
 20
18.9290715796
 10
-93.0651328934
 20
18.9478405031
 10
-93.1124152194
 20
18.964403289
 10
-93.1608051498
 20
18.9786675506
 10
-93.210197625
 20
18.9905469771
 10
-93.2608186967
 20
19.0000134453
 10
-93.31266833
 20
19.0069482054
 10
-93.3655065262
 20
19.0111997426
 10
-93.4191936553
 20
19.0126455708
  0
LINE
  5
401
100
AcDbEntity
  8
RACCORDO
100
AcDbLine
 62
250
  6
CONTINUOUS
 10
-92.9665777155
 20
18.6426930643
 11
-92.1966463395
 21
18.103652893
  0
LINE
  5
402
100
AcDbEntity
  8
RACCORDO
100
AcDbLine
 62
7
  6
CONTINUOUS
 10
-92.8536121034
 20
18.806517235
 11
-92.0836807273
 21
18.2674770637
  0
LINE
  5
403
100
AcDbEntity
  8
RACCORDO
100
AcDbLine
 62
7
  6
CONTINUOUS
 10
-92.058546986
 20
18.2805608613
 11
-92.8456500767
 21
18.8317695573
  0
LWPOLYLINE
  5
404
100
AcDbEntity
  8
RACCORDO
100
AcDbPolyline
 62
250
  6
CONTINUOUS
 90
16
 70
0
 10
-92.0836807273
 20
18.2674770637
 10
-92.0591151763
 20
18.2491292398
 10
-92.0358283744
 20
18.2294074589
 10
-92.0138898977
 20
18.2084054454
 10
-91.993457765
 20
18.186329274
 10
-91.9744788503
 20
18.16317943
 10
-91.956756268
 20
18.1386950953
 10
-91.9403943399
 20
18.112929785
 10
-91.9255025294
 20
18.0859557754
 10
-91.9120174946
 20
18.0574666918
 10
-91.9000716738
 20
18.0274019671
 10
-91.889899235
 20
17.9959472288
 10
-91.8816685425
 20
17.9631522793
 10
-91.8755631888
 20
17.9291149733
 10
-91.8717702634
 20
17.8939853056
 10
-91.8704673209
 20
17.8579217089
  0
LWPOLYLINE
  5
405
100
AcDbEntity
  8
RACCORDO
100
AcDbPolyline
 62
250
  6
CONTINUOUS
 90
16
 70
0
 10
-92.1966463395
 20
18.103652893
 10
-92.1818436346
 20
18.0925481958
 10
-92.1678848057
 20
18.0807342172
 10
-92.1547698527
 20
18.0682109573
 10
-92.1425046055
 20
18.0549979565
 10
-92.1310832343
 20
18.0410756744
 10
-92.1204882494
 20
18.0263854895
 10
-92.1106694851
 20
18.0109427064
 10
-92.1016771072
 20
17.9947320204
 10
-92.093644123
 20
17.9776488963
 10
-92.0865091312
 20
17.9596102728
 10
-92.0803335331
 20
17.9406992112
 10
-92.0754345397
 20
17.9210603592
 10
-92.0719178879
 20
17.9007419328
 10
-92.0696778408
 20
17.879695716
 10
-92.0687143984
 20
17.8579217089
  0
LINE
  5
406
100
AcDbEntity
  8
RACCORDO
100
AcDbLine
 62
250
  6
CONTINUOUS
 10
-92.1966463395
 20
20.896347107
 11
-92.1300671084
 21
20.8007741236
  0
LINE
  5
407
100
AcDbEntity
  8
RACCORDO
100
AcDbLine
 62
250
  6
CONTINUOUS
 10
-92.1300671084
 20
20.8007741236
 11
-92.1051203534
 21
20.7645960217
  0
LWPOLYLINE
  5
408
100
AcDbEntity
  8
RACCORDO
100
AcDbPolyline
 62
250
  6
CONTINUOUS
 90
6
 70
0
 10
-92.1051203534
 20
20.7645960217
 10
-92.0933592158
 20
20.7473508137
 10
-92.0891459971
 20
20.741091951
 10
-92.0861088805
 20
20.7365045135
 10
-92.0842805629
 20
20.7336378881
 10
-92.0836807273
 20
20.7325229363
  0
LWPOLYLINE
  5
409
100
AcDbEntity
  8
0
100
AcDbPolyline
 62
7
  6
CONTINUOUS
 90
10
 70
0
 43
0.3500000006
 10
-108.2834645691
 20
62.501772583
 10
-108.2120333862
 20
62.358919281
 10
-108.2120333862
 20
62.2874880981
 10
-108.354895752
 20
62.1446347961
 10
-108.4263269348
 20
62.1446347961
 10
-108.497749054
 20
62.2160569153
 10
-108.497749054
 20
62.2874880981
 10
-108.4263269348
 20
62.4303414001
 10
-108.354895752
 20
62.501772583
 10
-108.2834645691
 20
62.501772583
  0
LINE
  5
40A
100
AcDbEntity
  8
RACCORDO
100
AcDbLine
 62
7
  6
CONTINUOUS
 10
-99.4364161541
 20
-43.1999999992
 11
-99.6479049545
 21
-43.589513915
  0
LINE
  5
40B
100
AcDbEntity
  8
0
100
AcDbLine
 62
7
  6
CONTINUOUS
 10
-99.435660533
 20
-43.1986083209
 11
-99.4362218389
 21
-43.1996421152
  0
LINE
  5
40C
100
AcDbEntity
  8
RACCORDO
100
AcDbLine
 62
7
  6
CONTINUOUS
 10
-99.6602839152
 20
-43.6094300611
 11
-99.6479049545
 21
-43.589513915
  0
LINE
  5
40D
100
AcDbEntity
  8
RACCORDO
100
AcDbLine
 62
7
  6
CONTINUOUS
 10
-94.0974204157
 20
-20.212720203
 11
-94.9665179701
 21
-20.7145703383
  0
LINE
  5
40E
100
AcDbEntity
  8
RACCORDO
100
AcDbLine
 62
7
  6
CONTINUOUS
 10
-94.1112145806
 20
-20.1872939778
 11
-94.9760383619
 21
-20.6865241682
  0
LINE
  5
40F
100
AcDbEntity
  8
RACCORDO
100
AcDbLine
 62
250
  6
CONTINUOUS
 10
-92.0836807273
 20
-20.7325229363
 11
-92.058546986
 21
-20.7194391387
  0
LWPOLYLINE
  5
410
100
AcDbEntity
  8
RACCORDO
100
AcDbPolyline
 62
250
  6
CONTINUOUS
 90
10
 70
0
 10
-93.4254324109
 20
20.2126690256
 10
-93.3715739974
 20
20.2144808528
 10
-93.3183213353
 20
20.219848033
 10
-93.2656744248
 20
20.2287705664
 10
-93.2134827482
 20
20.2412359063
 10
-93.161896823
 20
20.2572565993
 10
-93.1113682019
 20
20.2768702848
 10
-93.0620474024
 20
20.3000895092
 10
-93.0137839069
 20
20.3269017262
 10
-92.9665777155
 20
20.3573069357
  0
LWPOLYLINE
  5
411
100
AcDbEntity
  8
RACCORDO
100
AcDbPolyline
 62
250
  6
CONTINUOUS
 90
10
 70
0
 10
-93.427177718
 20
20.012676641
 10
-93.3603600879
 20
20.0149076043
 10
-93.2936938927
 20
20.0216179669
 10
-93.2274814002
 20
20.0328072604
 10
-93.1621581529
 20
20.0484181782
 10
-93.0978900891
 20
20.068427665
 10
-93.0345995509
 20
20.0929348574
 10
-92.9724972339
 20
20.1219951233
 10
-92.9120530756
 20
20.1555307638
 10
-92.8536121034
 20
20.193482765
  0
LINE
  5
412
100
AcDbEntity
  8
RACCORDO
100
AcDbLine
 62
250
  6
CONTINUOUS
 10
-94.0974204157
 20
18.787279797
 11
-93.4254324109
 21
18.7873309744
  0
LINE
  5
413
100
AcDbEntity
  8
RACCORDO
100
AcDbLine
 62
7
  6
CONTINUOUS
 10
-93.7544906301
 20
18.9872984315
 11
-93.427177718
 21
18.987323359
  0
LINE
  5
414
100
AcDbEntity
  8
RACCORDO
100
AcDbLine
 62
7
  6
CONTINUOUS
 10
-93.4191936553
 20
19.9873544292
 11
-93.7544886978
 21
19.9873288938
  0
LINE
  5
415
100
AcDbEntity
  8
RACCORDO
100
AcDbLine
 62
7
  6
CONTINUOUS
 10
-93.4191936553
 20
19.0126455708
 11
-93.7544886978
 21
19.0126711062
  0
LINE
  5
416
100
AcDbEntity
  8
RACCORDO
100
AcDbLine
 62
7
  6
CONTINUOUS
 10
-93.7544906301
 20
20.0127015685
 11
-93.427177718
 21
20.012676641
  0
LINE
  5
417
100
AcDbEntity
  8
RACCORDO
100
AcDbLine
 62
250
  6
CONTINUOUS
 10
-94.0974204157
 20
20.212720203
 11
-93.4254324109
 21
20.2126690256
  0
LWPOLYLINE
  5
418
100
AcDbEntity
  8
RACCORDO
100
AcDbPolyline
 62
250
  6
CONTINUOUS
 90
13
 70
0
 10
-93.427177718
 20
18.987323359
 10
-93.3775407048
 20
18.9860935084
 10
-93.3279675091
 20
18.982395528
 10
-93.2785812815
 20
18.9762298145
 10
-93.2296051456
 20
18.9676230381
 10
-93.1810605086
 20
18.9565777413
 10
-93.1327780018
 20
18.9430229333
 10
-93.0848970677
 20
18.9269412063
 10
-93.0375541026
 20
18.9083205072
 10
-92.9906081763
 20
18.8870196996
 10
-92.9441354112
 20
18.862949022
 10
-92.8984089891
 20
18.8361207619
 10
-92.8536121034
 20
18.806517235
  0
LWPOLYLINE
  5
419
100
AcDbEntity
  8
RACCORDO
100
AcDbPolyline
 62
250
  6
CONTINUOUS
 90
13
 70
0
 10
-93.4254324109
 20
18.7873309744
 10
-93.3855581668
 20
18.7863391094
 10
-93.3459322143
 20
18.7833815796
 10
-93.3065545534
 20
18.778458385
 10
-93.2674002862
 20
18.7715897639
 10
-93.2284943106
 20
18.762755478
 10
-93.1899113205
 20
18.7518948122
 10
-93.1516305748
 20
18.7390379857
 10
-93.1136728146
 20
18.7241547795
 10
-93.0761749569
 20
18.7070938214
 10
-93.0391826406
 20
18.6878046542
 10
-93.0026502268
 20
18.6663377351
 10
-92.9665777155
 20
18.6426930643
  0
LINE
  5
41A
100
AcDbEntity
  8
RACCORDO
100
AcDbLine
 62
7
  6
CONTINUOUS
 10
-96.5578940052
 20
20.9714322882
 11
-95.3455073232
 21
20.8119116834
  0
LINE
  5
41B
100
AcDbEntity
  8
RACCORDO
100
AcDbLine
 62
7
  6
CONTINUOUS
 10
-96.5578940052
 20
21.0009755947
 11
-95.335968488
 21
20.8400121858
  0
LINE
  5
41C
100
AcDbEntity
  8
RACCORDO
100
AcDbLine
 62
250
  6
CONTINUOUS
 10
-92.0836807273
 20
20.7325229363
 11
-92.058546986
 21
20.7194391387
  0
LINE
  5
41D
100
AcDbEntity
  8
RACCORDO
100
AcDbLine
 62
7
  6
CONTINUOUS
 10
-94.9760383619
 20
20.6865241682
 11
-94.1112145806
 21
20.1872939778
  0
LINE
  5
41E
100
AcDbEntity
  8
RACCORDO
100
AcDbLine
 62
7
  6
CONTINUOUS
 10
-94.9665179701
 20
20.7145703383
 11
-94.0974204157
 21
20.212720203
  0
LINE
  5
41F
100
AcDbEntity
  8
RACCORDO
100
AcDbLine
 62
7
  6
CONTINUOUS
 10
-99.6604679182
 20
43.609678705
 11
-99.6479054069
 21
43.5895147481
  0
LINE
  5
420
100
AcDbEntity
  8
RACCORDO
100
AcDbLine
 62
7
  6
CONTINUOUS
 10
-99.4364161541
 20
43.1999999992
 11
-99.6479049545
 21
43.589513915
  0
LINE
  5
421
100
AcDbEntity
  8
RACCORDO
100
AcDbLine
 62
250
  6
CONTINUOUS
 10
-91.8704673209
 20
-21.1420782911
 11
-91.8453530642
 21
-21.1290046366
  0
LWPOLYLINE
  5
422
100
AcDbEntity
  8
RACCORDO
100
AcDbPolyline
 62
7
  6
CONTINUOUS
 90
12
 70
0
 10
-92.0593040391
 20
-22.3035759372
 10
-92.0351248389
 20
-22.2951976511
 10
-92.0117476252
 20
-22.2847891122
 10
-91.9893424986
 20
-22.2724260567
 10
-91.9680724865
 20
-22.2581984427
 10
-91.9480923594
 20
-22.2422097963
 10
-91.9295475024
 20
-22.2245764587
 10
-91.9125728531
 20
-22.2054267352
 10
-91.8972919278
 20
-22.1848999692
 10
-91.8838159221
 20
-22.1631455324
 10
-91.8722429002
 20
-22.140321702
 10
-91.8626570617
 20
-22.1165945716
  0
LINE
  5
423
100
AcDbEntity
  8
RACCORDO
100
AcDbLine
 62
250
  6
CONTINUOUS
 10
-92.0687143984
 20
21.1420782911
 11
-91.8704673209
 21
21.1420782911
  0
LINE
  5
424
100
AcDbEntity
  8
RACCORDO
100
AcDbLine
 62
250
  6
CONTINUOUS
 10
-91.8486484897
 20
22.01640892
 11
-91.8671685723
 21
22.0164089201
  0
LINE
  5
425
100
AcDbEntity
  8
RACCORDO
100
AcDbLine
 62
250
  6
CONTINUOUS
 10
-92.0687143984
 20
22.0179327227
 11
-91.8704673209
 21
22.0179327227
  0
LINE
  5
426
100
AcDbEntity
  8
RACCORDO
100
AcDbLine
 62
7
  6
CONTINUOUS
 10
-91.8486484897
 20
21.5145895978
 11
-91.8671685723
 21
21.5152361117
  0
LINE
  5
427
100
AcDbEntity
  8
RACCORDO
100
AcDbLine
 62
250
  6
CONTINUOUS
 10
-92.1652360061
 20
22.1178728692
 11
-95.4652910451
 21
22.2331177187
  0
LINE
  5
428
100
AcDbEntity
  8
RACCORDO
100
AcDbLine
 62
7
  6
CONTINUOUS
 10
-92.1600016797
 20
22.3177510346
 11
-95.4600567186
 21
22.4329958841
  0
LWPOLYLINE
  5
429
100
AcDbEntity
  8
RACCORDO
100
AcDbPolyline
 62
7
  6
CONTINUOUS
 90
10
 70
0
 10
-95.4600567186
 20
22.4329958841
 10
-95.4876281978
 20
22.4343399719
 10
-95.5143083885
 20
22.4363686633
 10
-95.5400833153
 20
22.4390127205
 10
-95.5649342749
 20
22.442203739
 10
-95.5888618861
 20
22.4458773028
 10
-95.6118855147
 20
22.4499750388
 10
-95.6340106471
 20
22.454439604
 10
-95.6552289447
 20
22.4592127939
 10
-95.6755421268
 20
22.4642399945
  0
LINE
  5
42A
100
AcDbEntity
  8
RACCORDO
100
AcDbLine
 62
7
  6
CONTINUOUS
 10
-92.1381828485
 20
22.3162272319
 11
-92.1277510157
 21
22.315680992
  0
LINE
  5
42B
100
AcDbEntity
  8
RACCORDO
100
AcDbLine
 62
7
  6
CONTINUOUS
 10
-92.1495698456
 20
22.3172047947
 11
-92.1600016797
 21
22.3177510346
  0
LWPOLYLINE
  5
42C
100
AcDbEntity
  8
RACCORDO
100
AcDbPolyline
 62
250
  6
CONTINUOUS
 90
10
 70
0
 10
-95.4652910451
 20
22.2331177187
 10
-95.4983981789
 20
22.2348650326
 10
-95.5304087293
 20
22.2372717446
 10
-95.5613226964
 20
22.2403378548
 10
-95.5911365775
 20
22.2441363782
 10
-95.6198538753
 20
22.2485942998
 10
-95.6474850977
 20
22.2534925739
 10
-95.6740337474
 20
22.2587581855
 10
-95.6994963216
 20
22.2644641497
 10
-95.7238728205
 20
22.2706104665
  0
LINE
  5
42D
100
AcDbEntity
  8
RACCORDO
100
AcDbLine
 62
7
  6
CONTINUOUS
 10
-92.127751021
 20
22.3156809924
 11
-92.1244414055
 21
22.3154498526
  0
LINE
  5
42E
100
AcDbEntity
  8
RACCORDO
100
AcDbLine
 62
7
  6
CONTINUOUS
 10
-92.1495698472
 20
22.3172047948
 11
-92.146256265
 21
22.3169733779
  0
LINE
  5
42F
100
AcDbEntity
  8
RACCORDO
100
AcDbLine
 62
7
  6
CONTINUOUS
 10
-92.1277510157
 20
22.315680992
 11
-92.1093595512
 21
22.3140130467
  0
LINE
  5
430
100
AcDbEntity
  8
RACCORDO
100
AcDbLine
 62
7
  6
CONTINUOUS
 10
-92.1119722966
 20
22.314159209
 11
-92.0841082134
 21
22.3098627826
  0
LINE
  5
431
100
AcDbEntity
  8
RACCORDO
100
AcDbLine
 62
7
  6
CONTINUOUS
 10
-92.086404136
 20
22.3098810302
 11
-92.0593024559
 21
22.3035754634
  0
LINE
  5
432
100
AcDbEntity
  8
RACCORDO
100
AcDbLine
 62
250
  6
CONTINUOUS
 10
-95.7238728205
 20
22.2706104665
 11
-96.5578940052
 21
22.4863030105
  0
LINE
  5
433
100
AcDbEntity
  8
RACCORDO
100
AcDbLine
 62
7
  6
CONTINUOUS
 10
-95.6755421268
 20
22.4642399945
 11
-96.5578940052
 21
22.6924317059
  0
LINE
  5
434
100
AcDbEntity
  8
RACCORDO
100
AcDbLine
 62
7
  6
CONTINUOUS
 10
-92.061653594
 20
22.3035186876
 11
-92.0351227805
 21
22.2951968383
  0
LWPOLYLINE
  5
435
100
AcDbEntity
  8
RACCORDO
100
AcDbPolyline
 62
7
  6
CONTINUOUS
 90
8
 70
0
 10
-92.0546320281
 20
22.2946676544
 10
-92.0678021329
 20
22.2998191086
 10
-92.0814721103
 20
22.3044287524
 10
-92.0956337865
 20
22.3084497134
 10
-92.1105606108
 20
22.3118909436
 10
-92.126333616
 20
22.3146692218
 10
-92.1428269094
 20
22.3166574138
 10
-92.1495698456
 20
22.3172047947
  0
LINE
  5
436
100
AcDbEntity
  8
RACCORDO
100
AcDbLine
 62
7
  6
CONTINUOUS
 10
-92.0379933848
 20
22.2952556508
 11
-92.0117451391
 21
22.2847878761
  0
LINE
  5
437
100
AcDbEntity
  8
RACCORDO
100
AcDbLine
 62
250
  6
CONTINUOUS
 10
-91.8704673209
 20
21.1420782911
 11
-91.8453530642
 21
21.1290046366
  0
LWPOLYLINE
  5
438
100
AcDbEntity
  8
RACCORDO
100
AcDbPolyline
 62
7
  6
CONTINUOUS
 90
10
 70
0
 10
-92.0154356827
 20
22.2852106078
 10
-91.989339652
 20
22.2724243242
 10
-91.9680693617
 20
22.2581961545
 10
-91.9480890394
 20
22.2422068996
 10
-91.9295440673
 20
22.2245729025
 10
-91.9125693279
 20
22.2054224002
 10
-91.8972884202
 20
22.1848948135
 10
-91.883812686
 20
22.1631397751
 10
-91.8722401325
 20
22.1403156154
 10
-91.862654889
 20
22.1165884575
  0
LWPOLYLINE
  5
439
100
AcDbEntity
  8
RACCORDO
100
AcDbPolyline
 62
7
  6
CONTINUOUS
 90
10
 70
0
 10
-91.9937742918
 20
22.2733407205
 10
-91.9730518137
 20
22.2596490512
 10
-91.9535273971
 20
22.2442854618
 10
-91.9353450664
 20
22.2273629988
 10
-91.9187117154
 20
22.2090979858
 10
-91.9036407287
 20
22.1895309058
 10
-91.8900424661
 20
22.1684713204
 10
-91.8780433482
 20
22.1459192567
 10
-91.8678756834
 20
22.1220816162
 10
-91.8596889778
 20
22.0970469357
  0
LINE
  5
43A
100
AcDbEntity
  8
RACCORDO
100
AcDbLine
 62
7
  6
CONTINUOUS
 10
-99.6656080952
 20
43.6166235193
 11
-99.6604679182
 21
43.609678705
  0
LINE
  5
43B
100
AcDbEntity
  8
RACCORDO
100
AcDbLine
 62
7
  6
CONTINUOUS
 10
-99.6694698179
 20
-43.6214481606
 11
-99.6606327275
 21
-43.6098864191
  0
LINE
  5
43C
100
AcDbEntity
  8
RACCORDO
100
AcDbLine
 62
250
  6
CONTINUOUS
 10
-99.6749092704
 20
-43.6277601927
 11
-99.6694698179
 21
-43.6214481606
  0
LINE
  5
43D
100
AcDbEntity
  8
RACCORDO
100
AcDbLine
 62
250
  6
CONTINUOUS
 10
-99.6749098071
 20
43.6277608084
 11
-99.6656080952
 21
43.6166235193
  0
LWPOLYLINE
  5
43E
100
AcDbEntity
  8
RACCORDO
100
AcDbPolyline
 62
250
  6
CONTINUOUS
 90
4
 70
0
 10
-99.730115371
 20
-43.6708436962
 10
-99.7100666928
 20
-43.6586795719
 10
-99.6915799328
 20
-43.6442522818
 10
-99.6749092704
 20
-43.6277601927
  0
LWPOLYLINE
  5
43F
100
AcDbEntity
  8
RACCORDO
100
AcDbPolyline
 62
250
  6
CONTINUOUS
 90
4
 70
0
 10
-99.7301158202
 20
43.6708439775
 10
-99.7100671986
 20
43.6586799599
 10
-99.6915804681
 20
43.6442527828
 10
-99.6749098071
 20
43.6277608084
  0
LINE
  5
440
100
AcDbEntity
  8
RACCORDO
100
AcDbLine
 62
250
  6
CONTINUOUS
 10
-99.4356605321
 20
42.5440051575
 11
-99.6479049546
 21
42.5111324581
  0
LINE
  5
441
100
AcDbEntity
  8
RACCORDO
100
AcDbLine
 62
250
  6
CONTINUOUS
 10
-101.6840619833
 20
42.4220726233
 11
-100.1578940052
 21
42.5020556979
  0
LINE
  5
442
100
AcDbEntity
  8
RACCORDO
100
AcDbLine
 62
7
  6
CONTINUOUS
 10
-101.6840619833
 20
43.9200169255
 11
-100.1578940052
 21
44.0
  0
LINE
  5
443
100
AcDbEntity
  8
RACCORDO
100
AcDbLine
 62
250
  6
CONTINUOUS
 10
-102.1578940052
 20
42.4220726233
 11
-101.6840619833
 21
42.4220726233
  0
LINE
  5
444
100
AcDbEntity
  8
RACCORDO
100
AcDbLine
 62
250
  6
CONTINUOUS
 10
-96.5578940052
 20
42.4532919088
 11
-96.7544035239
 21
42.4532919088
  0
LINE
  5
445
100
AcDbEntity
  8
RACCORDO
100
AcDbLine
 62
250
  6
CONTINUOUS
 10
-99.820207577
 20
42.4999712709
 11
-99.6479346363
 21
42.4999712709
  0
LWPOLYLINE
  5
446
100
AcDbEntity
  8
0
100
AcDbPolyline
 62
7
  6
CONTINUOUS
 90
8
 70
0
 43
0.3500000006
 10
-111.3629724426
 20
54.0606751099
 10
-110.5058254395
 20
54.0606751099
 10
-110.0772564697
 20
54.4892440796
 10
-110.0772564697
 20
55.3463865509
 10
-110.5058254395
 20
55.7749600525
 10
-111.3629724426
 20
55.7749600525
 10
-111.3629724426
 20
57.0606760254
 10
-110.0772564697
 20
57.0606760254
  0
LWPOLYLINE
  5
447
100
AcDbEntity
  8
0
100
AcDbPolyline
 62
7
  6
CONTINUOUS
 90
6
 70
0
 43
0.3500000006
 10
-107.2120330811
 20
62.0017724304
 10
-106.1406106567
 20
62.0017724304
 10
-105.9263261719
 20
62.2160569153
 10
-105.9263261719
 20
63.2874884033
 10
-106.3548951416
 20
63.716057373
 10
-106.7834641113
 20
63.716057373
  0
LINE
  5
448
100
AcDbEntity
  8
RACCORDO
100
AcDbLine
 62
7
  6
CONTINUOUS
 10
-99.8202075896
 20
42.5017500919
 11
-100.1578940052
 21
42.5018413014
  0
LINE
  5
449
100
AcDbEntity
  8
RACCORDO
100
AcDbLine
 62
250
  6
CONTINUOUS
 10
-99.820175273
 20
42.5132091545
 11
-99.7301153523
 21
42.5124684886
  0
LINE
  5
44A
100
AcDbEntity
  8
RACCORDO
100
AcDbLine
 62
250
  6
CONTINUOUS
 10
-99.7301153523
 20
42.5124684886
 11
-99.6749092424
 21
42.5116978005
  0
LINE
  5
44B
100
AcDbEntity
  8
RACCORDO
100
AcDbLine
 62
250
  6
CONTINUOUS
 10
-96.7544035239
 20
42.4532919088
 11
-99.436416153
 21
42.5001066133
  0
LINE
  5
44C
100
AcDbEntity
  8
RACCORDO
100
AcDbLine
 62
7
  6
CONTINUOUS
 10
-96.7544035239
 20
43.1531852954
 11
-99.4364161527
 21
43.2
  0
LINE
  5
44D
100
AcDbEntity
  8
RACCORDO
100
AcDbLine
 62
7
  6
CONTINUOUS
 10
-99.8202075897
 20
43.6941056617
 11
-100.1578940052
 21
43.7
  0
LINE
  5
44E
100
AcDbEntity
  8
RACCORDO
100
AcDbLine
 62
250
  6
CONTINUOUS
 10
-99.6749092424
 20
42.5116978005
 11
-99.6479049269
 21
42.5111324624
  0
LWPOLYLINE
  5
44F
100
AcDbEntity
  8
RACCORDO
100
AcDbPolyline
 62
250
  6
CONTINUOUS
 90
5
 70
0
 10
-99.8201752729
 20
43.6940353337
 10
-99.7967921112
 20
43.6922535355
 10
-99.7737784401
 20
43.6877469668
 10
-99.75145068
 20
43.6805775896
 10
-99.7301158202
 20
43.6708439775
  0
ARC
  5
450
100
AcDbEntity
  8
RACCORDO
100
AcDbCircle
 62
7
  6
CONTINUOUS
 10
-101.6578940052
 20
-43.4207021581
 40
0.5
100
AcDbArc
 50
180.0
 51
267.0
  0
ARC
  5
451
100
AcDbEntity
  8
RACCORDO
100
AcDbCircle
 62
7
  6
CONTINUOUS
 10
-101.6578940052
 20
43.4207021581
 40
0.5
100
AcDbArc
 50
93.0
 51
180.0
  0
ARC
  5
452
100
AcDbEntity
  8
RACCORDO
100
AcDbCircle
 62
7
  6
CONTINUOUS
 10
-96.7578940052
 20
42.9532157563
 40
0.2
100
AcDbArc
 50
0.0
 51
89.0
  0
ARC
  5
453
100
AcDbEntity
  8
RACCORDO
100
AcDbCircle
 62
7
  6
CONTINUOUS
 10
-96.7578940052
 20
-42.9532157563
 40
0.2
100
AcDbArc
 50
271.0
 51
360.0
  0
ARC
  5
454
100
AcDbEntity
  8
RACCORDO
100
AcDbCircle
 62
7
  6
CONTINUOUS
 10
-99.8236980582
 20
-43.4941368289
 40
0.2
100
AcDbArc
 50
270.999999996
 51
331.4999996435
  0
ARC
  5
455
100
AcDbEntity
  8
RACCORDO
100
AcDbCircle
 62
7
  6
CONTINUOUS
 10
-99.8236980582
 20
43.4941368289
 40
0.1999992936
100
AcDbArc
 50
28.5000003565
 51
89.000000002
  0
ELLIPSE
  5
456
100
AcDbEntity
  8
RACCORDO
100
AcDbEllipse
 62
7
  6
CONTINUOUS
 10
-71.797941481
 20
-42.497941481
 30
0.0
 11
1.0635693652
 21
1.0635693652
 31
0.0
 40
0.9972646886
 41
-3.9256212891
 42
-2.3575640181
  0
ELLIPSE
  5
457
100
AcDbEntity
  8
RACCORDO
100
AcDbEllipse
 62
7
  6
CONTINUOUS
 10
71.797941481
 20
-42.497941481
 30
0.0
 11
1.0635693652
 21
-1.0635693652
 31
0.0
 40
0.9972646886
 41
-0.7840286355
 42
0.7840286355
  0
ELLIPSE
  5
458
100
AcDbEntity
  8
RACCORDO
100
AcDbEllipse
 62
7
  6
CONTINUOUS
 10
71.797941481
 20
42.497941481
 30
0.0
 11
1.0635693652
 21
1.0635693652
 31
0.0
 40
0.9972646886
 41
-0.7840286355
 42
0.7840286355
  0
ELLIPSE
  5
459
100
AcDbEntity
  8
RACCORDO
100
AcDbEllipse
 62
7
  6
CONTINUOUS
 10
-71.797941481
 20
42.497941481
 30
0.0
 11
1.0635693652
 21
-1.0635693652
 31
0.0
 40
0.9972646886
 41
2.3575640181
 42
3.9256212891
  0
ELLIPSE
  5
45A
100
AcDbEntity
  8
RACCORDO
100
AcDbEllipse
 62
7
  6
CONTINUOUS
 10
-44.774923836
 20
26.324923836
 30
0.0
 11
0.3536610946
 21
-0.3536610946
 31
0.0
 40
0.9996954599
 41
2.3563467834
 42
3.9268385237
  0
ELLIPSE
  5
45B
100
AcDbEntity
  8
RACCORDO
100
AcDbEllipse
 62
7
  6
CONTINUOUS
 10
-44.774923836
 20
-26.324923836
 30
0.0
 11
0.3536610946
 21
0.3536610946
 31
0.0
 40
0.9996954599
 41
2.3563467834
 42
3.9268385237
  0
ELLIPSE
  5
45C
100
AcDbEntity
  8
RACCORDO
100
AcDbEllipse
 62
7
  6
CONTINUOUS
 10
44.774923836
 20
-26.324923836
 30
0.0
 11
-0.3536610946
 21
0.3536610946
 31
0.0
 40
0.9996954599
 41
2.3563467834
 42
3.9268385237
  0
ELLIPSE
  5
45D
100
AcDbEntity
  8
RACCORDO
100
AcDbEllipse
 62
7
  6
CONTINUOUS
 10
44.774923836
 20
26.324923836
 30
0.0
 11
-0.3536610946
 21
-0.3536610946
 31
0.0
 40
0.9996954599
 41
2.3563467834
 42
3.9268385237
  0
ELLIPSE
  5
45E
100
AcDbEntity
  8
RACCORDO
100
AcDbEllipse
 62
7
  6
CONTINUOUS
 10
-95.4760567628
 20
-19.8204214475
 30
0.0
 11
0.6834624321
 21
-0.7300969116
 31
0.0
 40
0.9999021658
 41
-0.6215488028
 42
-0.2288648691
  0
ELLIPSE
  5
45F
100
AcDbEntity
  8
RACCORDO
100
AcDbEllipse
 62
7
  6
CONTINUOUS
 10
-95.4760567628
 20
-19.1795785525
 30
0.0
 11
0.6834624322
 21
0.7300969116
 31
0.0
 40
0.9999021658
 41
0.2288648691
 42
0.6215488029
  0
ELLIPSE
  5
460
100
AcDbEntity
  8
RACCORDO
100
AcDbEllipse
 62
7
  6
CONTINUOUS
 10
-95.4760567628
 20
19.8204214475
 30
0.0
 11
0.6834624321
 21
0.7300969116
 31
0.0
 40
0.9999021658
 41
0.2288648691
 42
0.6215488028
  0
ELLIPSE
  5
461
100
AcDbEntity
  8
RACCORDO
100
AcDbEllipse
 62
7
  6
CONTINUOUS
 10
-95.4760567628
 20
19.1795785525
 30
0.0
 11
0.6834624322
 21
-0.7300969116
 31
0.0
 40
0.9999021658
 41
-0.6215488028
 42
-0.2288648691
  0
ELLIPSE
  5
462
100
AcDbEntity
  8
RACCORDO
100
AcDbEllipse
 62
7
  6
CONTINUOUS
 10
-94.1077238596
 20
-18.8127056234
 30
0.0
 11
0.3464337197
 21
-0.1999679042
 31
0.0
 40
0.0043635941
 41
4.7048314247
 42
6.2843540655
  0
ELLIPSE
  5
463
100
AcDbEntity
  8
RACCORDO
100
AcDbEllipse
 62
7
  6
CONTINUOUS
 10
-94.1077238596
 20
-20.1872943766
 30
0.0
 11
0.3464337197
 21
0.1999679042
 31
0.0
 40
0.0043635941
 41
0.4540078029
 42
1.5783538825
  0
ELLIPSE
  5
464
100
AcDbEntity
  8
RACCORDO
100
AcDbEllipse
 62
7
  6
CONTINUOUS
 10
-94.1077238596
 20
18.8127056234
 30
0.0
 11
0.3464337197
 21
0.1999679042
 31
0.0
 40
0.0043635941
 41
0.4540078029
 42
1.5783538825
  0
ELLIPSE
  5
465
100
AcDbEntity
  8
RACCORDO
100
AcDbEllipse
 62
7
  6
CONTINUOUS
 10
-94.1077238596
 20
20.1872943766
 30
0.0
 11
0.3464337197
 21
-0.1999679042
 31
0.0
 40
0.0043635941
 41
4.7048314247
 42
6.2843540655
  0
ELLIPSE
  5
466
100
AcDbEntity
  8
RACCORDO
100
AcDbEllipse
 62
7
  6
CONTINUOUS
 10
-95.4665114107
 20
-19.8485411478
 30
0.0
 11
0.35225342
 21
0.9359525223
 31
0.0
 40
0.9999250355
 41
-2.6506877208
 42
-2.258003787
  0
ELLIPSE
  5
467
100
AcDbEntity
  8
RACCORDO
100
AcDbEllipse
 62
7
  6
CONTINUOUS
 10
-95.4665114107
 20
-19.1514588522
 30
0.0
 11
-0.35225342
 21
0.9359525224
 31
0.0
 40
0.9999250355
 41
-0.8835888665
 42
-0.4909049328
  0
ELLIPSE
  5
468
100
AcDbEntity
  8
RACCORDO
100
AcDbEllipse
 62
7
  6
CONTINUOUS
 10
-95.4665114107
 20
19.8485411478
 30
0.0
 11
-0.35225342
 21
0.9359525223
 31
0.0
 40
0.9999250355
 41
-0.8835888666
 42
-0.4909049328
  0
ELLIPSE
  5
469
100
AcDbEntity
  8
RACCORDO
100
AcDbEllipse
 62
7
  6
CONTINUOUS
 10
-95.4665114107
 20
19.1514588522
 30
0.0
 11
0.35225342
 21
0.9359525223
 31
0.0
 40
0.9999250355
 41
-2.6506877208
 42
-2.258003787
  0
ELLIPSE
  5
46A
100
AcDbEntity
  8
RACCORDO
100
AcDbEllipse
 62
7
  6
CONTINUOUS
 10
-94.1009109943
 20
-18.7872796641
 30
0.0
 11
0.3464195806
 21
-0.2000206714
 31
0.0
 40
0.0043631076
 41
0.0011692449
 42
1.5632392577
  0
ELLIPSE
  5
46B
100
AcDbEntity
  8
RACCORDO
100
AcDbEllipse
 62
7
  6
CONTINUOUS
 10
-94.1009109943
 20
-20.2127203359
 30
0.0
 11
0.3464195806
 21
0.2000206714
 31
0.0
 40
0.0043631076
 41
-1.5632392577
 42
-0.0011692448
  0
ELLIPSE
  5
46C
100
AcDbEntity
  8
RACCORDO
100
AcDbEllipse
 62
7
  6
CONTINUOUS
 10
-94.1009109943
 20
18.7872796641
 30
0.0
 11
0.3464195806
 21
0.2000206714
 31
0.0
 40
0.0043631076
 41
-1.5632392577
 42
-0.0011692448
  0
ELLIPSE
  5
46D
100
AcDbEntity
  8
RACCORDO
100
AcDbEllipse
 62
7
  6
CONTINUOUS
 10
-94.1009109943
 20
20.2127203359
 30
0.0
 11
0.3464195806
 21
-0.2000206714
 31
0.0
 40
0.0043631076
 41
0.0011692448
 42
1.5632392577
  0
ENDSEC
  0
SECTION
  2
OBJECTS
  0
DICTIONARY
  5
C
100
AcDbDictionary
280
0
281
1
  3
ACAD_GROUP
350
D
  3
ACAD_MLINESTYLE
350
17
  3
ACAD_LAYOUT
350
1A
  3
ACAD_PLOTSETTINGS
350
19
  3
ACAD_PLOTSTYLENAME
350
E
  0
DICTIONARY
  5
D
102
{ACAD_REACTORS
330
C
102
}
100
AcDbDictionary
280
0
281
1
  0
ACDBDICTIONARYWDFLT
  5
E
102
{ACAD_REACTORS
330
C
102
}
100
AcDbDictionary
281
1
  3
Normal
350
F
100
AcDbDictionaryWithDefault
340
F
  0
DICTIONARY
  5
17
102
{ACAD_REACTORS
330
C
102
}
100
AcDbDictionary
280
0
281
1
  3
Standard
350
18
  0
DICTIONARY
  5
19
102
{ACAD_REACTORS
330
C
102
}
100
AcDbDictionary
281
1
  0
DICTIONARY
  5
1A
102
{ACAD_REACTORS
330
C
102
}
100
AcDbDictionary
281
1
  3
Model
350
46E
  3
Layout1
350
46F
  0
ACDBPLACEHOLDER
  5
F
102
{ACAD_REACTORS
330
E
102
}
  0
MLINESTYLE
  5
18
102
{ACAD_REACTORS
330
17
102
}
100
AcDbMlineStyle
  2
STANDARD
 70
0
  3

 62
256
 51
90.0
 52
90.0
 71
2
 49
0.5
 62
256
  6
BYLAYER
 49
-0.5
 62
256
  6
BYLAYER
  0
LAYOUT
  5
46E
102
{ACAD_REACTORS
330
1A
102
}
100
AcDbPlotSettings
  1

  2
none_device
  4
ISO_A4_(297.00_x_210.00_MM)
  6

 40
0.0
 41
0.0
 42
0.0
 43
0.0
 44
297.0
 45
210.0
 46
0.0
 47
0.0
 48
0.0
 49
0.0
140
0.0
141
0.0
142
1.0
143
1.0
 70
1024
 72
1
 73
0
 74
0
  7

 75
0
147
1.0
148
0.0
149
0.0
100
AcDbLayout
  1
Model
 70
0
 71
0
 10
0.0
 20
0.0
 11
297.0
 21
210.0
 12
0.0
 22
0.0
 32
0.0
 14
0.0
 24
0.0
 34
0.0
 15
0.0
 25
0.0
 35
0.0
146
0.0
 13
0.0
 23
0.0
 33
0.0
 16
1.0
 26
0.0
 36
0.0
 17
0.0
 27
1.0
 37
0.0
 76
0
330
213
345
0
346
0
  0
LAYOUT
  5
46F
102
{ACAD_REACTORS
330
1A
102
}
100
AcDbPlotSettings
  1

  2
none_device
  4
ISO_A4_(297.00_x_210.00_MM)
  6

 40
0.0
 41
0.0
 42
0.0
 43
0.0
 44
297.0
 45
210.0
 46
0.0
 47
0.0
 48
0.0
 49
0.0
140
0.0
141
0.0
142
1.0
143
1.0
 70
0
 72
1
 73
0
 74
0
  7

 75
0
147
1.0
148
0.0
149
0.0
100
AcDbLayout
  1
Layout1
 70
0
 71
1
 10
0.0
 20
0.0
 11
297.0
 21
210.0
 12
0.0
 22
0.0
 32
0.0
 14
0.0
 24
0.0
 34
0.0
 15
0.0
 25
0.0
 35
0.0
146
0.0
 13
0.0
 23
0.0
 33
0.0
 16
1.0
 26
0.0
 36
0.0
 17
0.0
 27
1.0
 37
0.0
 76
0
330
214
345
0
346
0
  0
ENDSEC
  0
EOF
