  0
SECTION
  2
HEADER
  9
$ACADVER
  1
AC1024
  9
$DWGCODEPAGE
  3
ANSI_1252
  9
$EXTMAX
 10
297.0
 20
210.0
 30
0.0
  9
$EXTMIN
 10
0.0
 20
0.0
 30
0.0
  9
$LIMMIN
 10
0.0
 20
0.0
  9
$LIMMAX
 10
297.0
 20
210.0
  9
$VIEWCTR
 10
148.5
 20
105.0
  9
$VIEWSIZE
 40
210.0
  9
$CLAYER
  8
0
  9
$LTSCALE
 40
16.335
  9
$CELTYPE
  6
BYLAYER
  9
$DIMSCALE
 40
1.0
  9
$DIMASZ
 40
3.0
  9
$DIMEXO
 40
0.5
  9
$DIMDLI
 40
11.286
  9
$DIMEXE
 40
1.5
  9
$DIMCEN
 40
2.673
  9
$DIMLFAC
 40
1.0
  9
$DIMBLK
  1
_FILLED
  9
$DIMALT
 70
0
  9
$DIMALTF
 40
0.0393700787
  9
$DIMTXT
 40
3.0
  9
$DIMTOL
 70
1
  9
$DIMLIM
 70
0
  9
$DIMTFAC
 40
1.0
  9
$DIMTP
 40
0.01
  9
$DIMTM
 40
0.01
  9
$DIMGAP
 40
0.625
  9
$DIMDSEP
 70
44
  9
$AUNITS
 70
0
  9
$PDMODE
 70
3
  9
$PDSIZE
 40
3.0
  9
$HANDSEED
  5
42E
  9
$TILEMODE
 70
1
  9
$MEASUREMENT
 70
1
  9
$INSUNITS
 70
4
  0
ENDSEC
  0
SECTION
  2
CLASSES
  0
CLASS
  1
ACDBDICTIONARYWDFLT
  2
AcDbDictionaryWithDefault
  3
AutoCAD 2000
 90
0
 91
1
280
0
281
0
  0
CLASS
  1
ACDBPLACEHOLDER
  2
AcDbPlaceHolder
  3
AutoCAD 2000
 90
0
 91
1
280
0
281
0
  0
CLASS
  1
LAYOUT
  2
AcDbLayout
  3
AutoCAD 2000
 90
0
 91
0
280
0
281
0
  0
ENDSEC
  0
SECTION
  2
TABLES
  0
TABLE
  2
VPORT
  5
8
100
AcDbSymbolTable
 70
2
  0
VPORT
  5
1F4
100
AcDbSymbolTableRecord
100
AcDbViewportTableRecord
  2
*ACTIVE
 70
0
 10
0.0
 20
0.0
 11
1.0
 21
1.0
 12
148.5
 22
105.0
 13
0.0
 23
0.0
 14
1.0
 24
1.0
 15
0.0
 25
0.0
 16
0.0
 26
0.0
 36
1.0
 17
0.0
 27
0.0
 37
0.0
 40
210.0
 41
1.4142857143
 42
50.0
 43
0.0
 44
0.0
 50
0.0
 51
0.0
 71
0
 72
100
 73
1
 74
1
 75
0
 76
0
 77
0
 78
0
  0
ENDTAB
  0
TABLE
  2
LTYPE
  5
5
100
AcDbSymbolTable
 70
6
  0
LTYPE
  5
14
100
AcDbSymbolTableRecord
100
AcDbLinetypeTableRecord
  2
BYBLOCK
 70
0
  3

 72
65
 73
0
 40
0.0
  0
LTYPE
  5
15
100
AcDbSymbolTableRecord
100
AcDbLinetypeTableRecord
  2
BYLAYER
 70
0
  3

 72
65
 73
0
 40
0.0
  0
LTYPE
  5
16
100
AcDbSymbolTableRecord
100
AcDbLinetypeTableRecord
  2
CONTINUOUS
 70
64
  3
Solid line
 72
65
 73
0
 40
0.0
  0
LTYPE
  5
1F5
100
AcDbSymbolTableRecord
100
AcDbLinetypeTableRecord
  2
CENTER
 70
64
  3
____ _ ____ _ ____ _ ____ _ ____ _ ____ _ ____
 72
65
 73
4
 40
0.6
 49
0.375
 74
0
 49
-0.075
 74
0
 49
0.075
 74
0
 49
-0.075
 74
0
  0
LTYPE
  5
1F6
100
AcDbSymbolTableRecord
100
AcDbLinetypeTableRecord
  2
HIDDEN
 70
64
  3
- - - - - - - - - - - - - - - - - - - -
 72
65
 73
2
 40
0.2
 49
0.1
 74
0
 49
-0.1
 74
0
  0
LTYPE
  5
1F7
100
AcDbSymbolTableRecord
100
AcDbLinetypeTableRecord
  2
PHANTOM
 70
64
  3
_____ _ _ _____ _ _ _____ _ _ _____
 72
65
 73
6
 40
0.8
 49
0.45
 74
0
 49
-0.05
 74
0
 49
0.1
 74
0
 49
-0.05
 74
0
 49
0.1
 74
0
 49
-0.05
 74
0
  0
LTYPE
  5
1F8
100
AcDbSymbolTableRecord
100
AcDbLinetypeTableRecord
  2
DOT
 70
64
  3
. . . . . . . . . . . . . . . . . . . .
 72
65
 73
2
 40
0.2
 49
0.1
 74
0
 49
-0.1
 74
0
  0
LTYPE
  5
1F9
100
AcDbSymbolTableRecord
100
AcDbLinetypeTableRecord
  2
DASHED
 70
64
  3
- - - - - - - - - - - - - - - - - - - -
 72
65
 73
2
 40
0.2
 49
0.1
 74
0
 49
-0.1
 74
0
  0
ENDTAB
  0
TABLE
  2
LAYER
  5
2
100
AcDbSymbolTable
 70
36
  0
LAYER
  5
10
100
AcDbSymbolTableRecord
100
AcDbLayerTableRecord
  2
0
 70
0
 62
7
  6
CONTINUOUS
370
-3
390
F
  0
LAYER
  5
1FA
100
AcDbSymbolTableRecord
100
AcDbLayerTableRecord
  2
DEFAULT_1
 70
0
 62
7
  6
CENTER
370
-3
390
F
  0
LAYER
  5
1FB
100
AcDbSymbolTableRecord
100
AcDbLayerTableRecord
  2
DEFAULT_2
 70
0
 62
7
  6
HIDDEN
370
-3
390
F
  0
LAYER
  5
1FC
100
AcDbSymbolTableRecord
100
AcDbLayerTableRecord
  2
DEFAULT_3
 70
0
 62
7
  6
PHANTOM
370
-3
390
F
  0
LAYER
  5
1FD
100
AcDbSymbolTableRecord
100
AcDbLayerTableRecord
  2
ASSI
 70
0
 62
7
  6
CONTINUOUS
370
-3
390
F
  0
LAYER
  5
1FE
100
AcDbSymbolTableRecord
100
AcDbLayerTableRecord
  2
COORDINATE
 70
0
 62
7
  6
CONTINUOUS
370
-3
390
F
  0
LAYER
  5
1FF
100
AcDbSymbolTableRecord
100
AcDbLayerTableRecord
  2
COPY_PUBLISH
 70
0
 62
7
  6
CONTINUOUS
370
-3
390
F
  0
LAYER
  5
200
100
AcDbSymbolTableRecord
100
AcDbLayerTableRecord
  2
COSMETICI
 70
0
 62
7
  6
CONTINUOUS
370
-3
390
F
  0
LAYER
  5
201
100
AcDbSymbolTableRecord
100
AcDbLayerTableRecord
  2
CURVE
 70
0
 62
7
  6
CONTINUOUS
370
-3
390
F
  0
LAYER
  5
202
100
AcDbSymbolTableRecord
100
AcDbLayerTableRecord
  2
DRAFT
 70
0
 62
7
  6
CONTINUOUS
370
-3
390
F
  0
LAYER
  5
203
100
AcDbSymbolTableRecord
100
AcDbLayerTableRecord
  2
IMPORT_IGES
 70
0
 62
7
  6
CONTINUOUS
370
-3
390
F
  0
LAYER
  5
204
100
AcDbSymbolTableRecord
100
AcDbLayerTableRecord
  2
INTF_1
 70
0
 62
7
  6
CONTINUOUS
370
-3
390
F
  0
LAYER
  5
205
100
AcDbSymbolTableRecord
100
AcDbLayerTableRecord
  2
INTF_11
 70
0
 62
7
  6
CONTINUOUS
370
-3
390
F
  0
LAYER
  5
206
100
AcDbSymbolTableRecord
100
AcDbLayerTableRecord
  2
INTF_13
 70
0
 62
7
  6
CONTINUOUS
370
-3
390
F
  0
LAYER
  5
207
100
AcDbSymbolTableRecord
100
AcDbLayerTableRecord
  2
INTF_2
 70
0
 62
7
  6
CONTINUOUS
370
-3
390
F
  0
LAYER
  5
208
100
AcDbSymbolTableRecord
100
AcDbLayerTableRecord
  2
NONE
 70
0
 62
7
  6
CONTINUOUS
370
-3
390
F
  0
LAYER
  5
209
100
AcDbSymbolTableRecord
100
AcDbLayerTableRecord
  2
NOTE
 70
0
 62
7
  6
CONTINUOUS
370
-3
390
F
  0
LAYER
  5
20A
100
AcDbSymbolTableRecord
100
AcDbLayerTableRecord
  2
PIANI
 70
0
 62
7
  6
CONTINUOUS
370
-3
390
F
  0
LAYER
  5
20B
100
AcDbSymbolTableRecord
100
AcDbLayerTableRecord
  2
PUNTI
 70
0
 62
7
  6
CONTINUOUS
370
-3
390
F
  0
LAYER
  5
20C
100
AcDbSymbolTableRecord
100
AcDbLayerTableRecord
  2
RACCORDO
 70
0
 62
7
  6
CONTINUOUS
370
-3
390
F
  0
LAYER
  5
20D
100
AcDbSymbolTableRecord
100
AcDbLayerTableRecord
  2
SIMBOLI
 70
0
 62
7
  6
CONTINUOUS
370
-3
390
F
  0
LAYER
  5
20E
100
AcDbSymbolTableRecord
100
AcDbLayerTableRecord
  2
SMUSSO
 70
0
 62
7
  6
CONTINUOUS
370
-3
390
F
  0
LAYER
  5
20F
100
AcDbSymbolTableRecord
100
AcDbLayerTableRecord
  2
SUPERFICI
 70
0
 62
7
  6
CONTINUOUS
370
-3
390
F
  0
LAYER
  5
210
100
AcDbSymbolTableRecord
100
AcDbLayerTableRecord
  2
TRASH
 70
0
 62
7
  6
CONTINUOUS
370
-3
390
F
  0
ENDTAB
  0
TABLE
  2
STYLE
  5
3
100
AcDbSymbolTable
 70
1
  0
STYLE
  5
11
100
AcDbSymbolTableRecord
100
AcDbTextStyleTableRecord
  2
STANDARD
 70
0
 40
0.0
 41
0.8
 50
0.0
 71
0
 42
0.2
  3
txt
  4

  0
STYLE
  5
211
100
AcDbSymbolTableRecord
100
AcDbTextStyleTableRecord
  2
TEXTSTYLE_1
 70
0
 40
0.0
 41
0.8
 50
0.0
 71
0
 42
0.2
  3
gdt
  4

  0
ENDTAB
  0
TABLE
  2
VIEW
  5
6
100
AcDbSymbolTable
 70
0
  0
ENDTAB
  0
TABLE
  2
UCS
  5
7
100
AcDbSymbolTable
 70
0
  0
ENDTAB
  0
TABLE
  2
APPID
  5
9
100
AcDbSymbolTable
 70
1
  0
APPID
  5
212
100
AcDbSymbolTableRecord
100
AcDbRegAppTableRecord
  2
ACAD
 70
0
  0
ENDTAB
  0
TABLE
  2
BLOCK_RECORD
  5
1
100
AcDbSymbolTable
 70
0
  0
BLOCK_RECORD
  5
213
100
AcDbSymbolTableRecord
100
AcDbBlockTableRecord
  2
*Model_Space
  0
BLOCK_RECORD
  5
214
100
AcDbSymbolTableRecord
100
AcDbBlockTableRecord
  2
*Paper_Space
  0
BLOCK_RECORD
  5
215
100
AcDbSymbolTableRecord
100
AcDbBlockTableRecord
  2
_FILLED
  0
BLOCK_RECORD
  5
216
100
AcDbSymbolTableRecord
100
AcDbBlockTableRecord
  2
*D0
  0
BLOCK_RECORD
  5
217
100
AcDbSymbolTableRecord
100
AcDbBlockTableRecord
  2
*D1
  0
BLOCK_RECORD
  5
218
100
AcDbSymbolTableRecord
100
AcDbBlockTableRecord
  2
*D2
  0
BLOCK_RECORD
  5
219
100
AcDbSymbolTableRecord
100
AcDbBlockTableRecord
  2
*D3
  0
ENDTAB
  0
TABLE
  2
DIMSTYLE
  5
A
100
AcDbSymbolTable
 70
1
100
AcDbDimStyleTable
 71
0
  0
DIMSTYLE
105
21A
100
AcDbSymbolTableRecord
100
AcDbDimStyleTableRecord
  2
STANDARD
 70
0
  3

  4

 40
1.0
 41
3.0
 42
0.5
 43
0.38
 44
1.5
 45
0.0
 46
0.0
 47
0.01
 48
0.01
140
3.0
141
0.09
142
0.0
143
25.4
144
1.0
145
0.0
146
1.0
147
0.625
 71
1
 72
0
 73
0
 74
0
 75
0
 76
0
 77
1
 78
8
 79
2
170
0
171
1
172
0
173
0
174
0
175
0
176
0
177
0
178
0
270
2
179
2
271
2
272
2
273
2
274
2
275
0
280
0
281
0
282
0
283
1
284
8
285
0
286
0
287
3
288
0
340
11
278
44
341
215
342
215
343
215
344
215
  0
DIMSTYLE
105
21B
100
AcDbSymbolTableRecord
100
AcDbDimStyleTableRecord
  2
DIMSTYLE_1
 70
0
  3

  4

 40
1.0
 41
3.0
 42
0.5
 43
0.38
 44
1.5
 45
0.0
 46
0.0
 47
0.0
 48
0.0
140
3.0
141
0.09
142
0.0
143
25.4
144
1.0
145
0.0
146
1.0
147
0.75
 71
0
 72
0
 73
0
 74
0
 75
0
 76
0
 77
1
 78
8
 79
2
170
0
171
1
172
0
173
0
174
0
175
0
176
0
177
0
178
0
270
2
179
2
271
2
272
2
273
2
274
2
275
0
280
0
281
0
282
0
283
1
284
8
285
0
286
0
287
3
288
0
340
11
278
44
341
215
342
215
343
215
344
215
  0
ENDTAB
  0
ENDSEC
  0
SECTION
  2
BLOCKS
  0
BLOCK
  5
20
100
AcDbEntity
  8
0
100
AcDbBlockBegin
  2
*Model_Space
 70
0
 10
0.0
 20
0.0
 30
0.0
  3
*Model_Space
  1

  0
ENDBLK
  5
21
100
AcDbEntity
  8
0
100
AcDbBlockEnd
  0
BLOCK
  5
1C
100
AcDbEntity
  8
0
100
AcDbBlockBegin
  2
*Paper_Space
 70
0
 10
0.0
 20
0.0
 30
0.0
  3
*Paper_Space
  1

  0
ENDBLK
  5
1D
100
AcDbEntity
  8
0
100
AcDbBlockEnd
  0
BLOCK
  5
21C
100
AcDbEntity
  8
0
100
AcDbBlockBegin
  2
_FILLED
 70
64
 10
0.0
 20
0.0
  3
_FILLED
  1

  0
SOLID
  5
21D
100
AcDbEntity
  8
0
  6
BYBLOCK
 62
0
100
AcDbTrace
 10
0.0
 20
0.0
 11
-1.0
 21
0.3166666667
 12
-1.0
 22
-0.3166666667
 13
-1.0
 23
-0.3166666667
  0
ENDBLK
  5
21E
100
AcDbEntity
  8
0
  6
BYBLOCK
 62
0
100
AcDbBlockEnd
  0
BLOCK
  5
21F
100
AcDbEntity
  8
0
100
AcDbBlockBegin
 62
7
  6
CONTINUOUS
  2
*D0
 70
65
 10
0.0
 20
0.0
  3
*D0
  1

  0
LINE
  5
220
100
AcDbEntity
  8
0
100
AcDbLine
 62
7
  6
CONTINUOUS
 10
-61.4
 20
44.0083035405
 11
-61.4
 21
52.8169435719
  0
LINE
  5
221
100
AcDbEntity
  8
0
100
AcDbLine
 62
7
  6
CONTINUOUS
 10
61.4
 20
43.6675209378
 11
61.4
 21
52.8169435719
  0
LINE
  5
222
100
AcDbEntity
  8
0
100
AcDbLine
 62
7
  6
CONTINUOUS
 10
-61.4
 20
51.3169435719
 11
0.0
 21
51.3169435719
  0
LINE
  5
223
100
AcDbEntity
  8
0
100
AcDbLine
 62
7
  6
CONTINUOUS
 10
61.4
 20
51.3169435719
 11
0.0
 21
51.3169435719
  0
INSERT
  5
224
100
AcDbEntity
  8
0
100
AcDbBlockReference
 62
7
  6
CONTINUOUS
  2
_FILLED
 10
-61.4
 20
51.3169435719
 41
3.0
 42
3.0
 43
3.0
 50
180.0
  0
INSERT
  5
225
100
AcDbEntity
  8
0
100
AcDbBlockReference
 62
7
  6
CONTINUOUS
  2
_FILLED
 10
61.4
 20
51.3169435719
 41
3.0
 42
3.0
 43
3.0
  0
ENDBLK
  5
226
100
AcDbEntity
  8
0
  6
BYBLOCK
 62
0
100
AcDbBlockEnd
  0
BLOCK
  5
227
100
AcDbEntity
  8
0
100
AcDbBlockBegin
 62
7
  6
CONTINUOUS
  2
*D1
 70
65
 10
0.0
 20
0.0
  3
*D1
  1

  0
LINE
  5
228
100
AcDbEntity
  8
0
100
AcDbLine
 62
7
  6
CONTINUOUS
 10
61.0675209378
 20
44.0
 11
72.6069854774
 21
44.0
  0
LINE
  5
229
100
AcDbEntity
  8
0
100
AcDbLine
 62
7
  6
CONTINUOUS
 10
61.2483557501
 20
-44.0
 11
72.6069854774
 21
-44.0
  0
LINE
  5
22A
100
AcDbEntity
  8
0
100
AcDbLine
 62
7
  6
CONTINUOUS
 10
71.1069854774
 20
44.0
 11
71.1069854774
 21
0.0
  0
LINE
  5
22B
100
AcDbEntity
  8
0
100
AcDbLine
 62
7
  6
CONTINUOUS
 10
71.1069854774
 20
-44.0
 11
71.1069854774
 21
0.0
  0
INSERT
  5
22C
100
AcDbEntity
  8
0
100
AcDbBlockReference
 62
7
  6
CONTINUOUS
  2
_FILLED
 10
71.1069854774
 20
44.0
 41
3.0
 42
3.0
 43
3.0
 50
90.0
  0
INSERT
  5
22D
100
AcDbEntity
  8
0
100
AcDbBlockReference
 62
7
  6
CONTINUOUS
  2
_FILLED
 10
71.1069854774
 20
-44.0
 41
3.0
 42
3.0
 43
3.0
 50
270.0
  0
ENDBLK
  5
22E
100
AcDbEntity
  8
0
  6
BYBLOCK
 62
0
100
AcDbBlockEnd
  0
BLOCK
  5
22F
100
AcDbEntity
  8
0
100
AcDbBlockBegin
 62
7
  6
CONTINUOUS
  2
*D2
 70
65
 10
0.0
 20
0.0
  3
*D2
  1

  0
LINE
  5
230
100
AcDbEntity
  8
0
100
AcDbLine
 62
7
  6
CONTINUOUS
 10
-89.6715355545
 20
44.2322911684
 11
-89.6715355545
 21
60.2877307887
  0
LINE
  5
231
100
AcDbEntity
  8
0
100
AcDbLine
 62
7
  6
CONTINUOUS
 10
-79.3715355545
 20
22.8426419542
 11
-79.3715355545
 21
60.2877307887
  0
LINE
  5
232
100
AcDbEntity
  8
0
100
AcDbLine
 62
7
  6
CONTINUOUS
 10
-89.6715355545
 20
58.7877307887
 11
-101.0635403476
 21
58.7877307887
  0
LINE
  5
233
100
AcDbEntity
  8
0
100
AcDbLine
 62
7
  6
CONTINUOUS
 10
-101.0635403476
 20
58.7877307887
 11
-84.5215355545
 21
58.7877307887
  0
LINE
  5
234
100
AcDbEntity
  8
0
100
AcDbLine
 62
7
  6
CONTINUOUS
 10
-79.3715355545
 20
58.7877307887
 11
-75.3715355545
 21
58.7877307887
  0
LINE
  5
235
100
AcDbEntity
  8
0
100
AcDbLine
 62
7
  6
CONTINUOUS
 10
-75.3715355545
 20
58.7877307887
 11
-84.5215355545
 21
58.7877307887
  0
INSERT
  5
236
100
AcDbEntity
  8
0
100
AcDbBlockReference
 62
7
  6
CONTINUOUS
  2
_FILLED
 10
-89.6715355545
 20
58.7877307887
 41
3.0
 42
3.0
 43
3.0
  0
INSERT
  5
237
100
AcDbEntity
  8
0
100
AcDbBlockReference
 62
7
  6
CONTINUOUS
  2
_FILLED
 10
-79.3715355545
 20
58.7877307887
 41
3.0
 42
3.0
 43
3.0
 50
180.0
  0
ENDBLK
  5
238
100
AcDbEntity
  8
0
  6
BYBLOCK
 62
0
100
AcDbBlockEnd
  0
BLOCK
  5
239
100
AcDbEntity
  8
0
100
AcDbBlockBegin
 62
7
  6
CONTINUOUS
  2
*D3
 70
65
 10
0.0
 20
0.0
  3
*D3
  1

  0
LINE
  5
23A
100
AcDbEntity
  8
0
100
AcDbLine
 62
7
  6
CONTINUOUS
 10
-84.0715355545
 20
43.3557910458
 11
-84.0715355545
 21
52.5034684562
  0
LINE
  5
23B
100
AcDbEntity
  8
0
100
AcDbLine
 62
7
  6
CONTINUOUS
 10
-89.6715355545
 20
44.1353683645
 11
-89.6715355545
 21
52.5034684562
  0
LINE
  5
23C
100
AcDbEntity
  8
0
100
AcDbLine
 62
7
  6
CONTINUOUS
 10
-84.0715355545
 20
51.0034684562
 11
-80.0715355545
 21
51.0034684562
  0
LINE
  5
23D
100
AcDbEntity
  8
0
100
AcDbLine
 62
7
  6
CONTINUOUS
 10
-80.0715355545
 20
51.0034684562
 11
-86.8715355545
 21
51.0034684562
  0
LINE
  5
23E
100
AcDbEntity
  8
0
100
AcDbLine
 62
7
  6
CONTINUOUS
 10
-89.6715355545
 20
51.0034684562
 11
-98.9862736683
 21
51.0034684562
  0
LINE
  5
23F
100
AcDbEntity
  8
0
100
AcDbLine
 62
7
  6
CONTINUOUS
 10
-98.9862736683
 20
51.0034684562
 11
-86.8715355545
 21
51.0034684562
  0
INSERT
  5
240
100
AcDbEntity
  8
0
100
AcDbBlockReference
 62
7
  6
CONTINUOUS
  2
_FILLED
 10
-84.0715355545
 20
51.0034684562
 41
3.0
 42
3.0
 43
3.0
 50
180.0
  0
INSERT
  5
241
100
AcDbEntity
  8
0
100
AcDbBlockReference
 62
7
  6
CONTINUOUS
  2
_FILLED
 10
-89.6715355545
 20
51.0034684562
 41
3.0
 42
3.0
 43
3.0
  0
ENDBLK
  5
242
100
AcDbEntity
  8
0
  6
BYBLOCK
 62
0
100
AcDbBlockEnd
  0
ENDSEC
  0
SECTION
  2
ENTITIES
  0
DIMENSION
  5
243
100
AcDbEntity
  8
0
100
AcDbDimension
 62
7
  6
CONTINUOUS
  2
*D0
 10
61.4
 20
51.3169435719
 11
-5.25
 21
51.3169435719
 70
160
 71
2
 72
2
 41
0.9
 42
122.8
  3
DIMSTYLE_1
100
AcDbAlignedDimension
 13
-61.4
 23
43.5083035405
 14
61.4
 24
43.1675209378
100
AcDbRotatedDimension
  0
DIMENSION
  5
244
100
AcDbEntity
  8
0
100
AcDbDimension
 62
7
  6
CONTINUOUS
  2
*D1
 10
71.1069854774
 20
-44.0
 11
71.1069854774
 21
-2.3571428571
 70
160
 71
2
 72
2
 41
0.9
 42
88.0
  3
DIMSTYLE_1
100
AcDbAlignedDimension
 13
60.5675209378
 23
44.0
 14
60.7483557501
 24
-44.0
 50
270.0
100
AcDbRotatedDimension
  0
DIMENSION
  5
245
100
AcDbEntity
  8
0
100
AcDbDimension
 62
7
  6
CONTINUOUS
  2
*D2
 10
-79.3715355545
 20
58.7877307887
 11
-101.0635403476
 21
58.7877307887
 70
160
 71
3
 72
2
 41
0.9
 42
10.3
  3
DIMSTYLE_1
100
AcDbAlignedDimension
 13
-89.6715355545
 23
43.7322911684
 14
-79.3715355545
 24
22.3426419542
100
AcDbRotatedDimension
  0
DIMENSION
  5
246
100
AcDbEntity
  8
0
100
AcDbDimension
 62
7
  6
CONTINUOUS
  2
*D3
 10
-89.6715355545
 20
51.0034684562
 11
-98.9862736683
 21
51.0034684562
 70
160
 71
3
 72
2
 41
0.9
 42
5.6
  3
DIMSTYLE_1
100
AcDbAlignedDimension
 13
-84.0715355545
 23
42.8557910458
 14
-89.6715355545
 24
43.6353683645
 50
180.0
100
AcDbRotatedDimension
  0
LWPOLYLINE
  5
247
100
AcDbEntity
  8
RACCORDO
100
AcDbPolyline
 62
250
  6
CONTINUOUS
 90
28
 70
0
 10
-60.8207021581
 20
-42.4220726233
 10
-60.8188767081
 20
-42.4808640231
 10
-60.813802262
 20
-42.5388314263
 10
-60.8054788198
 20
-42.595974833
 10
-60.7938630328
 20
-42.6523870149
 10
-60.7789982497
 20
-42.7079752002
 10
-60.7610145165
 20
-42.7624610741
 10
-60.7398719383
 20
-42.815936817
 10
-60.71561041
 20
-42.8683102486
 10
-60.6884796625
 20
-42.9190265127
 10
-60.6584557331
 20
-42.9680542602
 10
-60.6255625845
 20
-43.0154248402
 10
-60.5901218358
 20
-43.0606774445
 10
-60.5521048979
 20
-43.1037950574
 10
-60.5115403598
 20
-43.1447946945
 10
-60.4688356082
 20
-43.1832665939
 10
-60.4240524892
 20
-43.2191527217
 10
-60.3771291567
 20
-43.2525111118
 10
-60.3282874589
 20
-43.283106103
 10
-60.2774414825
 20
-43.310983634
 10
-60.2246771408
 20
-43.3360977661
 10
-60.1704740219
 20
-43.358075023
 10
-60.1147670826
 20
-43.3768877668
 10
-60.0576213662
 20
-43.3925636353
 10
-59.9997115902
 20
-43.4048120651
 10
-59.9412626607
 20
-43.4135362015
 10
-59.8820496718
 20
-43.4188328992
 10
-59.8220726233
 20
-43.4207021581
  0
LWPOLYLINE
  5
248
100
AcDbEntity
  8
RACCORDO
100
AcDbPolyline
 62
250
  6
CONTINUOUS
 90
28
 70
0
 10
-61.3200169255
 20
-42.4220726233
 10
-61.3173758154
 20
-42.5097169816
 10
-61.3096620904
 20
-42.596692014
 10
-61.2969652171
 20
-42.6827092253
 10
-61.2794224554
 20
-42.7673562274
 10
-61.2571371715
 20
-42.8505009175
 10
-61.2301020779
 20
-42.932271918
 10
-61.198336785
 20
-43.0125414908
 10
-61.1619838967
 20
-43.0908909097
 10
-61.1211850393
 20
-43.167005314
 10
-61.0760899486
 20
-43.2406135296
 10
-61.0268391622
 20
-43.3114941653
 10
-60.9735891679
 20
-43.379422581
 10
-60.9165103795
 20
-43.4441795803
 10
-60.855796582
 20
-43.5055440701
 10
-60.791658047
 20
-43.5633045255
 10
-60.7244155401
 20
-43.6171899254
 10
-60.6541947182
 20
-43.6671165436
 10
-60.5808914242
 20
-43.7131193909
 10
-60.5045980421
 20
-43.7550493054
 10
-60.4256484726
 20
-43.7926342295
 10
-60.3442844107
 20
-43.8256859089
 10
-60.2607045608
 20
-43.8540459997
 10
-60.1752290918
 20
-43.8775300247
 10
-60.0883101684
 20
-43.8959608924
 10
-60.0003024639
 20
-43.9092313697
 10
-59.9114531887
 20
-43.9172717849
 10
-59.8220726233
 20
-43.9200169255
  0
LINE
  5
249
100
AcDbEntity
  8
RACCORDO
100
AcDbLine
 62
7
  6
CONTINUOUS
 10
-61.4
 20
42.5020556979
 11
-61.4
 21
-42.5020556979
  0
LINE
  5
24A
100
AcDbEntity
  8
RACCORDO
100
AcDbLine
 62
250
  6
CONTINUOUS
 10
-61.3200169255
 20
42.4220726233
 11
-61.3200169255
 21
-42.4220726233
  0
LINE
  5
24B
100
AcDbEntity
  8
RACCORDO
100
AcDbLine
 62
250
  6
CONTINUOUS
 10
-60.8207021581
 20
42.4220726233
 11
-60.8207021581
 21
-42.4220726233
  0
LINE
  5
24C
100
AcDbEntity
  8
RACCORDO
100
AcDbLine
 62
250
  6
CONTINUOUS
 10
-59.8220726233
 20
-43.4207021581
 11
-59.8220726233
 21
-43.9200169255
  0
LINE
  5
24D
100
AcDbEntity
  8
RACCORDO
100
AcDbLine
 62
250
  6
CONTINUOUS
 10
-59.8220726233
 20
43.4207021581
 11
-59.8220726233
 21
43.9200169255
  0
LWPOLYLINE
  5
24E
100
AcDbEntity
  8
RACCORDO
100
AcDbPolyline
 62
250
  6
CONTINUOUS
 90
28
 70
0
 10
59.8220726233
 20
-43.4207021581
 10
59.8808640231
 20
-43.4188767081
 10
59.9388314263
 20
-43.413802262
 10
59.995974833
 20
-43.4054788198
 10
60.0523870149
 20
-43.3938630328
 10
60.1079752002
 20
-43.3789982497
 10
60.1624610741
 20
-43.3610145165
 10
60.215936817
 20
-43.3398719383
 10
60.2683102486
 20
-43.31561041
 10
60.3190265127
 20
-43.2884796625
 10
60.3680542602
 20
-43.2584557331
 10
60.4154248402
 20
-43.2255625845
 10
60.4606774445
 20
-43.1901218358
 10
60.5037950574
 20
-43.1521048979
 10
60.5447946945
 20
-43.1115403598
 10
60.5832665939
 20
-43.0688356082
 10
60.6191527217
 20
-43.0240524892
 10
60.6525111118
 20
-42.9771291567
 10
60.683106103
 20
-42.9282874589
 10
60.710983634
 20
-42.8774414825
 10
60.7360977661
 20
-42.8246771408
 10
60.758075023
 20
-42.7704740219
 10
60.7768877668
 20
-42.7147670826
 10
60.7925636353
 20
-42.6576213662
 10
60.8048120651
 20
-42.5997115902
 10
60.8135362015
 20
-42.5412626607
 10
60.8188328992
 20
-42.4820496718
 10
60.8207021581
 20
-42.4220726233
  0
LWPOLYLINE
  5
24F
100
AcDbEntity
  8
RACCORDO
100
AcDbPolyline
 62
250
  6
CONTINUOUS
 90
28
 70
0
 10
59.8220726233
 20
-43.9200169255
 10
59.9097169816
 20
-43.9173758154
 10
59.996692014
 20
-43.9096620904
 10
60.0827092253
 20
-43.8969652171
 10
60.1673562274
 20
-43.8794224554
 10
60.2505009175
 20
-43.8571371715
 10
60.332271918
 20
-43.8301020779
 10
60.4125414908
 20
-43.798336785
 10
60.4908909097
 20
-43.7619838967
 10
60.567005314
 20
-43.7211850393
 10
60.6406135296
 20
-43.6760899486
 10
60.7114941653
 20
-43.6268391622
 10
60.779422581
 20
-43.5735891679
 10
60.8441795803
 20
-43.5165103795
 10
60.9055440701
 20
-43.455796582
 10
60.9633045255
 20
-43.391658047
 10
61.0171899254
 20
-43.3244155401
 10
61.0671165436
 20
-43.2541947182
 10
61.1131193909
 20
-43.1808914242
 10
61.1550493054
 20
-43.1045980421
 10
61.1926342295
 20
-43.0256484726
 10
61.2256859089
 20
-42.9442844107
 10
61.2540459997
 20
-42.8607045608
 10
61.2775300247
 20
-42.7752290918
 10
61.2959608924
 20
-42.6883101684
 10
61.3092313697
 20
-42.6003024639
 10
61.3172717849
 20
-42.5114531887
 10
61.3200169255
 20
-42.4220726233
  0
LWPOLYLINE
  5
250
100
AcDbEntity
  8
0
100
AcDbPolyline
 62
7
  6
CONTINUOUS
 90
3
 70
0
 43
0.3500000006
 10
-5.2499999027
 20
54.2098005066
 10
-4.3928571482
 20
55.0669429779
 10
-4.3928571482
 20
52.0669420624
  0
LINE
  5
251
100
AcDbEntity
  8
RACCORDO
100
AcDbLine
 62
7
  6
CONTINUOUS
 10
-59.9020556979
 20
-44.0
 11
59.9020556979
 21
-44.0
  0
LINE
  5
252
100
AcDbEntity
  8
RACCORDO
100
AcDbLine
 62
250
  6
CONTINUOUS
 10
-59.8220726233
 20
-43.9200169255
 11
59.8220726233
 21
-43.9200169255
  0
LINE
  5
253
100
AcDbEntity
  8
RACCORDO
100
AcDbLine
 62
250
  6
CONTINUOUS
 10
-59.8220726233
 20
-43.4207021581
 11
59.8220726233
 21
-43.4207021581
  0
LINE
  5
254
100
AcDbEntity
  8
RACCORDO
100
AcDbLine
 62
250
  6
CONTINUOUS
 10
60.8207021581
 20
-42.4220726233
 11
61.3200169255
 21
-42.4220726233
  0
LINE
  5
255
100
AcDbEntity
  8
RACCORDO
100
AcDbLine
 62
250
  6
CONTINUOUS
 10
-60.8207021581
 20
-42.4220726233
 11
-61.3200169255
 21
-42.4220726233
  0
LWPOLYLINE
  5
256
100
AcDbEntity
  8
RACCORDO
100
AcDbPolyline
 62
250
  6
CONTINUOUS
 90
25
 70
0
 10
-34.0408009456
 20
26.3408770981
 10
-34.0397278345
 20
26.3737153606
 10
-34.0365160545
 20
26.4062958349
 10
-34.0312020442
 20
26.4384812089
 10
-34.0238425059
 20
26.4700947285
 10
-34.0144844979
 20
26.5010530813
 10
-34.0031370513
 20
26.5313584091
 10
-33.9898217912
 20
26.5609282285
 10
-33.9746076129
 20
26.589588426
 10
-33.9575647616
 20
26.6172020273
 10
-33.9387616377
 20
26.6436564914
 10
-33.9182796507
 20
26.6688358198
 10
-33.89622751
 20
26.6926106618
 10
-33.8727187941
 20
26.7148703144
 10
-33.8478416015
 20
26.7355424068
 10
-33.8216756534
 20
26.7545640545
 10
-33.7944014112
 20
26.7718130544
 10
-33.7660666837
 20
26.7872677272
 10
-33.7365292654
 20
26.8009736037
 10
-33.7057671809
 20
26.8128650877
 10
-33.6740108208
 20
26.8227786721
 10
-33.6414921327
 20
26.830593808
 10
-33.6083848463
 20
26.8362363282
 10
-33.5747967022
 20
26.8396556989
 10
-33.5408770977
 20
26.8408009453
  0
LWPOLYLINE
  5
257
100
AcDbEntity
  8
RACCORDO
100
AcDbPolyline
 62
250
  6
CONTINUOUS
 90
25
 70
0
 10
-34.3407552568
 20
26.3408771007
 10
-34.3389093679
 20
26.393763639
 10
-34.3337813754
 20
26.4458105913
 10
-34.3253712792
 20
26.4970179575
 10
-34.3136222494
 20
26.547522415
 10
-34.298591116
 20
26.5971872864
 10
-34.2804483689
 20
26.6456025399
 10
-34.25914757
 20
26.6928330447
 10
-34.2347351574
 20
26.7388139317
 10
-34.2075209358
 20
26.7829405611
 10
-34.1774570363
 20
26.8251903597
 10
-34.1445913278
 20
26.8655859009
 10
-34.109377222
 20
26.9035902648
 10
-34.0718105981
 20
26.9391482527
 10
-34.0318955769
 20
26.9723150635
 10
-33.9900979325
 20
27.0027193741
 10
-33.9465312118
 20
27.0303112137
 10
-33.9010818679
 20
27.0551405531
 10
-33.8538750346
 20
27.0769859818
 10
-33.804696865
 20
27.0959291911
 10
-33.753761206
 20
27.1118884898
 10
-33.7018347326
 20
27.124397394
 10
-33.649173003
 20
27.1333004093
 10
-33.5955204591
 20
27.1387530303
 10
-33.5408771007
 20
27.1407552568
  0
LINE
  5
258
100
AcDbEntity
  8
RACCORDO
100
AcDbLine
 62
250
  6
CONTINUOUS
 10
-34.3407552568
 20
-26.3408771007
 11
-34.3407552568
 21
26.3408771007
  0
LINE
  5
259
100
AcDbEntity
  8
RACCORDO
100
AcDbLine
 62
250
  6
CONTINUOUS
 10
-34.0408009483
 20
-26.3408771007
 11
-34.0408009483
 21
26.3408771007
  0
LINE
  5
25A
100
AcDbEntity
  8
RACCORDO
100
AcDbLine
 62
7
  6
CONTINUOUS
 10
-34.025
 20
-26.3250761524
 11
-34.025
 21
26.3250761524
  0
LINE
  5
25B
100
AcDbEntity
  8
RACCORDO
100
AcDbLine
 62
250
  6
CONTINUOUS
 10
-33.5408771007
 20
27.1407552568
 11
-33.5408771007
 21
26.8408009483
  0
LINE
  5
25C
100
AcDbEntity
  8
RACCORDO
100
AcDbLine
 62
250
  6
CONTINUOUS
 10
-33.5408771007
 20
-27.1407552568
 11
-33.5408771007
 21
-26.8408009483
  0
LINE
  5
25D
100
AcDbEntity
  8
RACCORDO
100
AcDbLine
 62
250
  6
CONTINUOUS
 10
33.5408771007
 20
-27.1407552568
 11
-33.5408771007
 21
-27.1407552568
  0
LINE
  5
25E
100
AcDbEntity
  8
RACCORDO
100
AcDbLine
 62
250
  6
CONTINUOUS
 10
33.5408771007
 20
-26.8408009483
 11
-33.5408771007
 21
-26.8408009483
  0
LINE
  5
25F
100
AcDbEntity
  8
RACCORDO
100
AcDbLine
 62
7
  6
CONTINUOUS
 10
-33.5250761524
 20
-26.825
 11
33.5250761524
 21
-26.825
  0
LINE
  5
260
100
AcDbEntity
  8
RACCORDO
100
AcDbLine
 62
250
  6
CONTINUOUS
 10
-34.3407552568
 20
-26.3408771007
 11
-34.0408009483
 21
-26.3408771007
  0
LINE
  5
261
100
AcDbEntity
  8
RACCORDO
100
AcDbLine
 62
250
  6
CONTINUOUS
 10
34.3407552568
 20
-26.3408771007
 11
34.0408009483
 21
-26.3408771007
  0
LWPOLYLINE
  5
262
100
AcDbEntity
  8
RACCORDO
100
AcDbPolyline
 62
250
  6
CONTINUOUS
 90
25
 70
0
 10
-33.5408770981
 20
-26.8408009456
 10
-33.5737153606
 20
-26.8397278345
 10
-33.6062958349
 20
-26.8365160545
 10
-33.6384812089
 20
-26.8312020442
 10
-33.6700947285
 20
-26.8238425059
 10
-33.7010530813
 20
-26.8144844979
 10
-33.7313584091
 20
-26.8031370513
 10
-33.7609282285
 20
-26.7898217912
 10
-33.789588426
 20
-26.7746076129
 10
-33.8172020273
 20
-26.7575647616
 10
-33.8436564914
 20
-26.7387616377
 10
-33.8688358198
 20
-26.7182796507
 10
-33.8926106618
 20
-26.69622751
 10
-33.9148703144
 20
-26.6727187941
 10
-33.9355424068
 20
-26.6478416015
 10
-33.9545640545
 20
-26.6216756534
 10
-33.9718130544
 20
-26.5944014112
 10
-33.9872677272
 20
-26.5660666837
 10
-34.0009736037
 20
-26.5365292654
 10
-34.0128650877
 20
-26.5057671809
 10
-34.0227786721
 20
-26.4740108208
 10
-34.030593808
 20
-26.4414921327
 10
-34.0362363282
 20
-26.4083848463
 10
-34.0396556989
 20
-26.3747967022
 10
-34.0408009453
 20
-26.3408770977
  0
LWPOLYLINE
  5
263
100
AcDbEntity
  8
RACCORDO
100
AcDbPolyline
 62
250
  6
CONTINUOUS
 90
25
 70
0
 10
-33.5408771007
 20
-27.1407552568
 10
-33.593763639
 20
-27.1389093679
 10
-33.6458105913
 20
-27.1337813754
 10
-33.6970179575
 20
-27.1253712792
 10
-33.747522415
 20
-27.1136222494
 10
-33.7971872864
 20
-27.098591116
 10
-33.8456025399
 20
-27.0804483689
 10
-33.8928330447
 20
-27.05914757
 10
-33.9388139317
 20
-27.0347351574
 10
-33.9829405611
 20
-27.0075209358
 10
-34.0251903597
 20
-26.9774570363
 10
-34.0655859009
 20
-26.9445913278
 10
-34.1035902648
 20
-26.909377222
 10
-34.1391482527
 20
-26.8718105981
 10
-34.1723150635
 20
-26.8318955769
 10
-34.2027193741
 20
-26.7900979325
 10
-34.2303112137
 20
-26.7465312118
 10
-34.2551405531
 20
-26.7010818679
 10
-34.2769859818
 20
-26.6538750346
 10
-34.2959291911
 20
-26.604696865
 10
-34.3118884898
 20
-26.553761206
 10
-34.324397394
 20
-26.5018347326
 10
-34.3333004093
 20
-26.449173003
 10
-34.3387530303
 20
-26.3955204591
 10
-34.3407552568
 20
-26.3408771007
  0
LWPOLYLINE
  5
264
100
AcDbEntity
  8
0
100
AcDbPolyline
 62
7
  6
CONTINUOUS
 90
3
 70
0
 43
0.3500000006
 10
1.8928570933
 20
52.3526577301
 10
1.8214286013
 20
52.1383732452
 10
1.6785714755
 20
51.8526575775
  0
LINE
  5
265
100
AcDbEntity
  8
RACCORDO
100
AcDbLine
 62
250
  6
CONTINUOUS
 10
-61.3200169255
 20
-42.4220726233
 11
-61.4
 21
-42.5020556979
  0
LINE
  5
266
100
AcDbEntity
  8
RACCORDO
100
AcDbLine
 62
250
  6
CONTINUOUS
 10
-59.8220726233
 20
-43.9200169255
 11
-59.9020556979
 21
-44.0
  0
LINE
  5
267
100
AcDbEntity
  8
RACCORDO
100
AcDbLine
 62
250
  6
CONTINUOUS
 10
-61.3200169255
 20
42.4220726233
 11
-61.4
 21
42.5020556979
  0
LINE
  5
268
100
AcDbEntity
  8
RACCORDO
100
AcDbLine
 62
250
  6
CONTINUOUS
 10
-59.8220726233
 20
43.9200169255
 11
-59.9020556979
 21
44.0
  0
LINE
  5
269
100
AcDbEntity
  8
RACCORDO
100
AcDbLine
 62
250
  6
CONTINUOUS
 10
-34.0408009483
 20
-26.3408771007
 11
-34.025
 21
-26.3250761524
  0
LINE
  5
26A
100
AcDbEntity
  8
RACCORDO
100
AcDbLine
 62
250
  6
CONTINUOUS
 10
-33.5408771007
 20
-26.8408009483
 11
-33.5250761524
 21
-26.825
  0
LINE
  5
26B
100
AcDbEntity
  8
RACCORDO
100
AcDbLine
 62
250
  6
CONTINUOUS
 10
-34.0408009483
 20
26.3408771007
 11
-34.025
 21
26.3250761524
  0
LINE
  5
26C
100
AcDbEntity
  8
RACCORDO
100
AcDbLine
 62
250
  6
CONTINUOUS
 10
-33.5408771007
 20
26.8408009483
 11
-33.5250761524
 21
26.825
  0
LWPOLYLINE
  5
26D
100
AcDbEntity
  8
0
100
AcDbPolyline
 62
7
  6
CONTINUOUS
 90
4
 70
0
 43
0.3500000006
 10
69.9284134369
 20
-2.3571432495
 10
69.0712709656
 20
-2.3571432495
 10
68.6427019958
 20
-1.9285708809
 10
68.6427019958
 20
-1.2857140274
  0
LWPOLYLINE
  5
26E
100
AcDbEntity
  8
0
100
AcDbPolyline
 62
7
  6
CONTINUOUS
 90
4
 70
0
 43
0.3500000006
 10
69.9284134369
 20
-0.0000003204
 10
69.0712709656
 20
-0.0000003204
 10
68.6427019958
 20
0.4285709152
 10
68.6427019958
 20
1.0714289017
  0
LWPOLYLINE
  5
26F
100
AcDbEntity
  8
0
100
AcDbPolyline
 62
7
  6
CONTINUOUS
 90
4
 70
0
 43
0.3500000006
 10
2.8928572569
 20
52.495515564
 10
2.8928572569
 20
53.3526580353
 10
3.3214284925
 20
53.7812315369
 10
3.9642856293
 20
53.7812315369
  0
LINE
  5
270
100
AcDbEntity
  8
RACCORDO
100
AcDbLine
 62
250
  6
CONTINUOUS
 10
33.5408771007
 20
26.8408009483
 11
33.5250761524
 21
26.825
  0
LINE
  5
271
100
AcDbEntity
  8
RACCORDO
100
AcDbLine
 62
250
  6
CONTINUOUS
 10
34.0408009483
 20
26.3408771007
 11
34.025
 21
26.3250761524
  0
LINE
  5
272
100
AcDbEntity
  8
RACCORDO
100
AcDbLine
 62
250
  6
CONTINUOUS
 10
33.5408771007
 20
-26.8408009483
 11
33.5250761524
 21
-26.825
  0
LINE
  5
273
100
AcDbEntity
  8
RACCORDO
100
AcDbLine
 62
250
  6
CONTINUOUS
 10
34.0408009483
 20
-26.3408771007
 11
34.025
 21
-26.3250761524
  0
LINE
  5
274
100
AcDbEntity
  8
RACCORDO
100
AcDbLine
 62
250
  6
CONTINUOUS
 10
59.8220726233
 20
43.9200169255
 11
59.9020556979
 21
44.0
  0
LINE
  5
275
100
AcDbEntity
  8
RACCORDO
100
AcDbLine
 62
250
  6
CONTINUOUS
 10
61.3200169255
 20
42.4220726233
 11
61.4
 21
42.5020556979
  0
LINE
  5
276
100
AcDbEntity
  8
RACCORDO
100
AcDbLine
 62
250
  6
CONTINUOUS
 10
59.8220726233
 20
-43.9200169255
 11
59.9020556979
 21
-44.0
  0
LINE
  5
277
100
AcDbEntity
  8
RACCORDO
100
AcDbLine
 62
250
  6
CONTINUOUS
 10
61.3200169255
 20
-42.4220726233
 11
61.4
 21
-42.5020556979
  0
LWPOLYLINE
  5
278
100
AcDbEntity
  8
0
100
AcDbPolyline
 62
7
  6
CONTINUOUS
 90
10
 70
0
 43
0.3500000006
 10
1.8214286013
 20
52.566942215
 10
1.8928570933
 20
52.4240843811
 10
1.8928570933
 20
52.3526577301
 10
1.7499999676
 20
52.2097998962
 10
1.6785714755
 20
52.2097998962
 10
1.6071428418
 20
52.2812310791
 10
1.6071428418
 20
52.3526577301
 10
1.6785714755
 20
52.495515564
 10
1.7499999676
 20
52.566942215
 10
1.8214286013
 20
52.566942215
  0
LINE
  5
279
100
AcDbEntity
  8
RACCORDO
100
AcDbLine
 62
250
  6
CONTINUOUS
 10
-34.3407552568
 20
26.3408771007
 11
-34.0408009483
 21
26.3408771007
  0
LINE
  5
27A
100
AcDbEntity
  8
RACCORDO
100
AcDbLine
 62
250
  6
CONTINUOUS
 10
34.3407552568
 20
26.3408771007
 11
34.0408009483
 21
26.3408771007
  0
LINE
  5
27B
100
AcDbEntity
  8
RACCORDO
100
AcDbLine
 62
7
  6
CONTINUOUS
 10
33.5250761524
 20
26.825
 11
-33.5250761524
 21
26.825
  0
LINE
  5
27C
100
AcDbEntity
  8
RACCORDO
100
AcDbLine
 62
250
  6
CONTINUOUS
 10
-33.5408771007
 20
26.8408009483
 11
33.5408771007
 21
26.8408009483
  0
LINE
  5
27D
100
AcDbEntity
  8
RACCORDO
100
AcDbLine
 62
250
  6
CONTINUOUS
 10
-33.5408771007
 20
27.1407552568
 11
33.5408771007
 21
27.1407552568
  0
LWPOLYLINE
  5
27E
100
AcDbEntity
  8
RACCORDO
100
AcDbPolyline
 62
250
  6
CONTINUOUS
 90
25
 70
0
 10
33.5408770981
 20
26.8408009456
 10
33.5737153606
 20
26.8397278345
 10
33.6062958349
 20
26.8365160545
 10
33.6384812089
 20
26.8312020442
 10
33.6700947285
 20
26.8238425059
 10
33.7010530813
 20
26.8144844979
 10
33.7313584091
 20
26.8031370513
 10
33.7609282285
 20
26.7898217912
 10
33.789588426
 20
26.7746076129
 10
33.8172020273
 20
26.7575647616
 10
33.8436564914
 20
26.7387616377
 10
33.8688358198
 20
26.7182796507
 10
33.8926106618
 20
26.69622751
 10
33.9148703144
 20
26.6727187941
 10
33.9355424068
 20
26.6478416015
 10
33.9545640545
 20
26.6216756534
 10
33.9718130544
 20
26.5944014112
 10
33.9872677272
 20
26.5660666837
 10
34.0009736037
 20
26.5365292654
 10
34.0128650877
 20
26.5057671809
 10
34.0227786721
 20
26.4740108208
 10
34.030593808
 20
26.4414921327
 10
34.0362363282
 20
26.4083848463
 10
34.0396556989
 20
26.3747967022
 10
34.0408009453
 20
26.3408770977
  0
LWPOLYLINE
  5
27F
100
AcDbEntity
  8
RACCORDO
100
AcDbPolyline
 62
250
  6
CONTINUOUS
 90
25
 70
0
 10
33.5408771007
 20
27.1407552568
 10
33.593763639
 20
27.1389093679
 10
33.6458105913
 20
27.1337813754
 10
33.6970179575
 20
27.1253712792
 10
33.747522415
 20
27.1136222494
 10
33.7971872864
 20
27.098591116
 10
33.8456025399
 20
27.0804483689
 10
33.8928330447
 20
27.05914757
 10
33.9388139317
 20
27.0347351574
 10
33.9829405611
 20
27.0075209358
 10
34.0251903597
 20
26.9774570363
 10
34.0655859009
 20
26.9445913278
 10
34.1035902648
 20
26.909377222
 10
34.1391482527
 20
26.8718105981
 10
34.1723150635
 20
26.8318955769
 10
34.2027193741
 20
26.7900979325
 10
34.2303112137
 20
26.7465312118
 10
34.2551405531
 20
26.7010818679
 10
34.2769859818
 20
26.6538750346
 10
34.2959291911
 20
26.604696865
 10
34.3118884898
 20
26.553761206
 10
34.324397394
 20
26.5018347326
 10
34.3333004093
 20
26.449173003
 10
34.3387530303
 20
26.3955204591
 10
34.3407552568
 20
26.3408771007
  0
LINE
  5
280
100
AcDbEntity
  8
RACCORDO
100
AcDbLine
 62
250
  6
CONTINUOUS
 10
33.5408771007
 20
27.1407552568
 11
33.5408771007
 21
26.8408009483
  0
LINE
  5
281
100
AcDbEntity
  8
RACCORDO
100
AcDbLine
 62
250
  6
CONTINUOUS
 10
33.5408771007
 20
-27.1407552568
 11
33.5408771007
 21
-26.8408009483
  0
LINE
  5
282
100
AcDbEntity
  8
RACCORDO
100
AcDbLine
 62
7
  6
CONTINUOUS
 10
34.025
 20
-26.3250761524
 11
34.025
 21
26.3250761524
  0
LINE
  5
283
100
AcDbEntity
  8
RACCORDO
100
AcDbLine
 62
250
  6
CONTINUOUS
 10
34.0408009483
 20
26.3408771007
 11
34.0408009483
 21
-26.3408771007
  0
LINE
  5
284
100
AcDbEntity
  8
RACCORDO
100
AcDbLine
 62
250
  6
CONTINUOUS
 10
34.3407552568
 20
26.3408771007
 11
34.3407552568
 21
-26.3408771007
  0
LWPOLYLINE
  5
285
100
AcDbEntity
  8
RACCORDO
100
AcDbPolyline
 62
250
  6
CONTINUOUS
 90
25
 70
0
 10
34.0408009456
 20
-26.3408770981
 10
34.0397278345
 20
-26.3737153606
 10
34.0365160545
 20
-26.4062958349
 10
34.0312020442
 20
-26.4384812089
 10
34.0238425059
 20
-26.4700947285
 10
34.0144844979
 20
-26.5010530813
 10
34.0031370513
 20
-26.5313584091
 10
33.9898217912
 20
-26.5609282285
 10
33.9746076129
 20
-26.589588426
 10
33.9575647616
 20
-26.6172020273
 10
33.9387616377
 20
-26.6436564914
 10
33.9182796507
 20
-26.6688358198
 10
33.89622751
 20
-26.6926106618
 10
33.8727187941
 20
-26.7148703144
 10
33.8478416015
 20
-26.7355424068
 10
33.8216756534
 20
-26.7545640545
 10
33.7944014112
 20
-26.7718130544
 10
33.7660666837
 20
-26.7872677272
 10
33.7365292654
 20
-26.8009736037
 10
33.7057671809
 20
-26.8128650877
 10
33.6740108208
 20
-26.8227786721
 10
33.6414921327
 20
-26.830593808
 10
33.6083848463
 20
-26.8362363282
 10
33.5747967022
 20
-26.8396556989
 10
33.5408770977
 20
-26.8408009453
  0
LWPOLYLINE
  5
286
100
AcDbEntity
  8
RACCORDO
100
AcDbPolyline
 62
250
  6
CONTINUOUS
 90
25
 70
0
 10
34.3407552568
 20
-26.3408771007
 10
34.3389093679
 20
-26.393763639
 10
34.3337813754
 20
-26.4458105913
 10
34.3253712792
 20
-26.4970179575
 10
34.3136222494
 20
-26.547522415
 10
34.298591116
 20
-26.5971872864
 10
34.2804483689
 20
-26.6456025399
 10
34.25914757
 20
-26.6928330447
 10
34.2347351574
 20
-26.7388139317
 10
34.2075209358
 20
-26.7829405611
 10
34.1774570363
 20
-26.8251903597
 10
34.1445913278
 20
-26.8655859009
 10
34.109377222
 20
-26.9035902648
 10
34.0718105981
 20
-26.9391482527
 10
34.0318955769
 20
-26.9723150635
 10
33.9900979325
 20
-27.0027193741
 10
33.9465312118
 20
-27.0303112137
 10
33.9010818679
 20
-27.0551405531
 10
33.8538750346
 20
-27.0769859818
 10
33.804696865
 20
-27.0959291911
 10
33.753761206
 20
-27.1118884898
 10
33.7018347326
 20
-27.124397394
 10
33.649173003
 20
-27.1333004093
 10
33.5955204591
 20
-27.1387530303
 10
33.5408771007
 20
-27.1407552568
  0
LWPOLYLINE
  5
287
100
AcDbEntity
  8
RACCORDO
100
AcDbPolyline
 62
250
  6
CONTINUOUS
 90
28
 70
0
 10
-59.8220726233
 20
43.4207021581
 10
-59.8808640231
 20
43.4188767081
 10
-59.9388314263
 20
43.413802262
 10
-59.995974833
 20
43.4054788198
 10
-60.0523870149
 20
43.3938630328
 10
-60.1079752002
 20
43.3789982497
 10
-60.1624610741
 20
43.3610145165
 10
-60.215936817
 20
43.3398719383
 10
-60.2683102486
 20
43.31561041
 10
-60.3190265127
 20
43.2884796625
 10
-60.3680542602
 20
43.2584557331
 10
-60.4154248402
 20
43.2255625845
 10
-60.4606774445
 20
43.1901218358
 10
-60.5037950574
 20
43.1521048979
 10
-60.5447946945
 20
43.1115403598
 10
-60.5832665939
 20
43.0688356082
 10
-60.6191527217
 20
43.0240524892
 10
-60.6525111118
 20
42.9771291567
 10
-60.683106103
 20
42.9282874589
 10
-60.710983634
 20
42.8774414825
 10
-60.7360977661
 20
42.8246771408
 10
-60.758075023
 20
42.7704740219
 10
-60.7768877668
 20
42.7147670826
 10
-60.7925636353
 20
42.6576213662
 10
-60.8048120651
 20
42.5997115902
 10
-60.8135362015
 20
42.5412626607
 10
-60.8188328992
 20
42.4820496718
 10
-60.8207021581
 20
42.4220726233
  0
LWPOLYLINE
  5
288
100
AcDbEntity
  8
RACCORDO
100
AcDbPolyline
 62
250
  6
CONTINUOUS
 90
28
 70
0
 10
-59.8220726233
 20
43.9200169255
 10
-59.9097169816
 20
43.9173758154
 10
-59.996692014
 20
43.9096620904
 10
-60.0827092253
 20
43.8969652171
 10
-60.1673562274
 20
43.8794224554
 10
-60.2505009175
 20
43.8571371715
 10
-60.332271918
 20
43.8301020779
 10
-60.4125414908
 20
43.798336785
 10
-60.4908909097
 20
43.7619838967
 10
-60.567005314
 20
43.7211850393
 10
-60.6406135296
 20
43.6760899486
 10
-60.7114941653
 20
43.6268391622
 10
-60.779422581
 20
43.5735891679
 10
-60.8441795803
 20
43.5165103795
 10
-60.9055440701
 20
43.455796582
 10
-60.9633045255
 20
43.391658047
 10
-61.0171899254
 20
43.3244155401
 10
-61.0671165436
 20
43.2541947182
 10
-61.1131193909
 20
43.1808914242
 10
-61.1550493054
 20
43.1045980421
 10
-61.1926342295
 20
43.0256484726
 10
-61.2256859089
 20
42.9442844107
 10
-61.2540459997
 20
42.8607045608
 10
-61.2775300247
 20
42.7752290918
 10
-61.2959608924
 20
42.6883101684
 10
-61.3092313697
 20
42.6003024639
 10
-61.3172717849
 20
42.5114531887
 10
-61.3200169255
 20
42.4220726233
  0
LINE
  5
289
100
AcDbEntity
  8
RACCORDO
100
AcDbLine
 62
250
  6
CONTINUOUS
 10
60.8207021581
 20
42.4220726233
 11
61.3200169255
 21
42.4220726233
  0
LINE
  5
28A
100
AcDbEntity
  8
RACCORDO
100
AcDbLine
 62
250
  6
CONTINUOUS
 10
-60.8207021581
 20
42.4220726233
 11
-61.3200169255
 21
42.4220726233
  0
LINE
  5
28B
100
AcDbEntity
  8
RACCORDO
100
AcDbLine
 62
250
  6
CONTINUOUS
 10
59.8220726233
 20
43.4207021581
 11
-59.8220726233
 21
43.4207021581
  0
LINE
  5
28C
100
AcDbEntity
  8
RACCORDO
100
AcDbLine
 62
250
  6
CONTINUOUS
 10
59.8220726233
 20
43.9200169255
 11
-59.8220726233
 21
43.9200169255
  0
LINE
  5
28D
100
AcDbEntity
  8
RACCORDO
100
AcDbLine
 62
7
  6
CONTINUOUS
 10
59.9020556979
 20
44.0
 11
-59.9020556979
 21
44.0
  0
LWPOLYLINE
  5
28E
100
AcDbEntity
  8
0
100
AcDbPolyline
 62
7
  6
CONTINUOUS
 90
13
 70
0
 43
0.3500000006
 10
3.3214284925
 20
53.7812315369
 10
3.035714241
 20
53.9955160217
 10
3.035714241
 20
54.6383740082
 10
3.3214284925
 20
55.0669429779
 10
3.9642856293
 20
55.0669429779
 10
4.2499998808
 20
54.6383740082
 10
4.2499998808
 20
53.9955160217
 10
3.9642856293
 20
53.7812315369
 10
4.3928571482
 20
53.3526580353
 10
4.3928571482
 20
52.495515564
 10
3.9642856293
 20
52.0669420624
 10
3.3214284925
 20
52.0669420624
 10
2.8928572569
 20
52.495515564
  0
LWPOLYLINE
  5
28F
100
AcDbEntity
  8
0
100
AcDbPolyline
 62
7
  6
CONTINUOUS
 90
13
 70
0
 43
0.3500000006
 10
68.6427019958
 20
0.4285709152
 10
68.4284129791
 20
0.1428575134
 10
67.7855549927
 20
0.1428575134
 10
67.3569860229
 20
0.4285709152
 10
67.3569860229
 20
1.0714289017
 10
67.7855549927
 20
1.3571423035
 10
68.4284129791
 20
1.3571423035
 10
68.6427019958
 20
1.0714289017
 10
69.0712709656
 20
1.5000001373
 10
69.9284134369
 20
1.5000001373
 10
70.3569869385
 20
1.0714289017
 10
70.3569869385
 20
0.4285709152
 10
69.9284134369
 20
-0.0000003204
  0
LWPOLYLINE
  5
290
100
AcDbEntity
  8
0
100
AcDbPolyline
 62
7
  6
CONTINUOUS
 90
7
 70
0
 43
0.3500000006
 10
0.3214285684
 20
52.0669420624
 10
-1.1785713937
 20
52.0669420624
 10
0.3214285684
 20
54.2098005066
 10
0.3214285684
 20
54.6383740082
 10
-0.1071428532
 20
55.0669429779
 10
-0.7500000165
 20
55.0669429779
 10
-1.1785713937
 20
54.4240849915
  0
LWPOLYLINE
  5
291
100
AcDbEntity
  8
0
100
AcDbPolyline
 62
7
  6
CONTINUOUS
 90
7
 70
0
 43
0.3500000006
 10
-2.0357142191
 20
52.0669420624
 10
-3.5357143936
 20
52.0669420624
 10
-2.0357142191
 20
54.2098005066
 10
-2.0357142191
 20
54.6383740082
 10
-2.464285738
 20
55.0669429779
 10
-3.1071428747
 20
55.0669429779
 10
-3.5357143936
 20
54.4240849915
  0
LINE
  5
292
100
AcDbEntity
  8
RACCORDO
100
AcDbLine
 62
250
  6
CONTINUOUS
 10
59.8220726233
 20
-43.4207021581
 11
59.8220726233
 21
-43.9200169255
  0
LINE
  5
293
100
AcDbEntity
  8
RACCORDO
100
AcDbLine
 62
250
  6
CONTINUOUS
 10
59.8220726233
 20
43.4207021581
 11
59.8220726233
 21
43.9200169255
  0
LINE
  5
294
100
AcDbEntity
  8
RACCORDO
100
AcDbLine
 62
250
  6
CONTINUOUS
 10
60.8207021581
 20
-42.4220726233
 11
60.8207021581
 21
42.4220726233
  0
LWPOLYLINE
  5
295
100
AcDbEntity
  8
0
100
AcDbPolyline
 62
7
  6
CONTINUOUS
 90
13
 70
0
 43
0.3500000006
 10
68.6427019958
 20
-1.9285708809
 10
68.4284129791
 20
-2.2142854156
 10
67.7855549927
 20
-2.2142854156
 10
67.3569860229
 20
-1.9285708809
 10
67.3569860229
 20
-1.2857140274
 10
67.7855549927
 20
-1.0000006256
 10
68.4284129791
 20
-1.0000006256
 10
68.6427019958
 20
-1.2857140274
 10
69.0712709656
 20
-0.8571427917
 10
69.9284134369
 20
-0.8571427917
 10
70.3569869385
 20
-1.2857140274
 10
70.3569869385
 20
-1.9285708809
 10
69.9284134369
 20
-2.3571432495
  0
LWPOLYLINE
  5
296
100
AcDbEntity
  8
RACCORDO
100
AcDbPolyline
 62
250
  6
CONTINUOUS
 90
28
 70
0
 10
60.8207021581
 20
42.4220726233
 10
60.8188767081
 20
42.4808640231
 10
60.813802262
 20
42.5388314263
 10
60.8054788198
 20
42.595974833
 10
60.7938630328
 20
42.6523870149
 10
60.7789982497
 20
42.7079752002
 10
60.7610145165
 20
42.7624610741
 10
60.7398719383
 20
42.815936817
 10
60.71561041
 20
42.8683102486
 10
60.6884796625
 20
42.9190265127
 10
60.6584557331
 20
42.9680542602
 10
60.6255625845
 20
43.0154248402
 10
60.5901218358
 20
43.0606774445
 10
60.5521048979
 20
43.1037950574
 10
60.5115403598
 20
43.1447946945
 10
60.4688356082
 20
43.1832665939
 10
60.4240524892
 20
43.2191527217
 10
60.3771291567
 20
43.2525111118
 10
60.3282874589
 20
43.283106103
 10
60.2774414825
 20
43.310983634
 10
60.2246771408
 20
43.3360977661
 10
60.1704740219
 20
43.358075023
 10
60.1147670826
 20
43.3768877668
 10
60.0576213662
 20
43.3925636353
 10
59.9997115902
 20
43.4048120651
 10
59.9412626607
 20
43.4135362015
 10
59.8820496718
 20
43.4188328992
 10
59.8220726233
 20
43.4207021581
  0
LWPOLYLINE
  5
297
100
AcDbEntity
  8
RACCORDO
100
AcDbPolyline
 62
250
  6
CONTINUOUS
 90
28
 70
0
 10
61.3200169255
 20
42.4220726233
 10
61.3173758154
 20
42.5097169816
 10
61.3096620904
 20
42.596692014
 10
61.2969652171
 20
42.6827092253
 10
61.2794224554
 20
42.7673562274
 10
61.2571371715
 20
42.8505009175
 10
61.2301020779
 20
42.932271918
 10
61.198336785
 20
43.0125414908
 10
61.1619838967
 20
43.0908909097
 10
61.1211850393
 20
43.167005314
 10
61.0760899486
 20
43.2406135296
 10
61.0268391622
 20
43.3114941653
 10
60.9735891679
 20
43.379422581
 10
60.9165103795
 20
43.4441795803
 10
60.855796582
 20
43.5055440701
 10
60.791658047
 20
43.5633045255
 10
60.7244155401
 20
43.6171899254
 10
60.6541947182
 20
43.6671165436
 10
60.5808914242
 20
43.7131193909
 10
60.5045980421
 20
43.7550493054
 10
60.4256484726
 20
43.7926342295
 10
60.3442844107
 20
43.8256859089
 10
60.2607045608
 20
43.8540459997
 10
60.1752290918
 20
43.8775300247
 10
60.0883101684
 20
43.8959608924
 10
60.0003024639
 20
43.9092313697
 10
59.9114531887
 20
43.9172717849
 10
59.8220726233
 20
43.9200169255
  0
LINE
  5
298
100
AcDbEntity
  8
RACCORDO
100
AcDbLine
 62
250
  6
CONTINUOUS
 10
61.3200169255
 20
-42.4220726233
 11
61.3200169255
 21
42.4220726233
  0
LINE
  5
299
100
AcDbEntity
  8
RACCORDO
100
AcDbLine
 62
7
  6
CONTINUOUS
 10
61.4
 20
-42.5020556979
 11
61.4
 21
42.5020556979
  0
LWPOLYLINE
  5
29A
100
AcDbEntity
  8
0
100
AcDbPolyline
 62
7
  6
CONTINUOUS
 90
3
 70
0
 43
0.3500000006
 10
-101.0635403137
 20
61.6805904236
 10
-100.2063933105
 20
62.537728363
 10
-100.2063933105
 20
59.5377274475
  0
LWPOLYLINE
  5
29B
100
AcDbEntity
  8
0
100
AcDbPolyline
 62
7
  6
CONTINUOUS
 90
10
 70
0
 43
0.3500000006
 10
-94.0577011414
 20
54.7534696655
 10
-94.7005636597
 20
54.1106116791
 10
-95.1291326294
 20
53.2534692078
 10
-95.1291326294
 20
52.1820377197
 10
-94.7005636597
 20
51.75346875
 10
-94.0577011414
 20
51.75346875
 10
-93.6291321716
 20
52.1820377197
 10
-93.6291321716
 20
53.0391847229
 10
-94.0577011414
 20
53.4677536926
 10
-94.9862702637
 20
53.4677536926
  0
LWPOLYLINE
  5
29C
100
AcDbEntity
  8
0
100
AcDbPolyline
 62
7
  6
CONTINUOUS
 90
5
 70
0
 43
0.3500000006
 10
-94.4206850281
 20
61.2520123901
 10
-94.0635381775
 20
61.4663059387
 10
-94.0635381775
 20
62.1091593933
 10
-94.4206850281
 20
62.537728363
 10
-95.2778229675
 20
62.537728363
  0
LINE
  5
29D
100
AcDbEntity
  8
RACCORDO
100
AcDbLine
 62
7
  6
CONTINUOUS
 10
-89.1977035326
 20
-43.9200169255
 11
-87.6715355545
 21
-44.0
  0
LWPOLYLINE
  5
29E
100
AcDbEntity
  8
RACCORDO
100
AcDbPolyline
 62
250
  6
CONTINUOUS
 90
5
 70
0
 10
-87.333816823
 20
-43.6940353336
 10
-87.3104335227
 20
-43.6922534947
 10
-87.2874197276
 20
-43.6877468632
 10
-87.2650918624
 20
-43.6805774044
 10
-87.2437569205
 20
-43.6708436958
  0
LINE
  5
29F
100
AcDbEntity
  8
RACCORDO
100
AcDbLine
 62
250
  6
CONTINUOUS
 10
-87.1885508652
 20
-42.5116940982
 11
-87.1615465053
 21
-42.5111324688
  0
LINE
  5
2A0
100
AcDbEntity
  8
RACCORDO
100
AcDbLine
 62
7
  6
CONTINUOUS
 10
-87.33384914
 20
-43.6941056617
 11
-87.6715355545
 21
-43.7
  0
LINE
  5
2A1
100
AcDbEntity
  8
RACCORDO
100
AcDbLine
 62
7
  6
CONTINUOUS
 10
-84.2680450732
 20
-43.1531852954
 11
-86.9500577039
 21
-43.2
  0
LINE
  5
2A2
100
AcDbEntity
  8
RACCORDO
100
AcDbLine
 62
250
  6
CONTINUOUS
 10
-84.2680450732
 20
-42.4532919088
 11
-86.9500577089
 21
-42.5001066135
  0
LINE
  5
2A3
100
AcDbEntity
  8
RACCORDO
100
AcDbLine
 62
250
  6
CONTINUOUS
 10
-87.2437569994
 20
-42.5124631357
 11
-87.1885508652
 21
-42.5116940982
  0
LINE
  5
2A4
100
AcDbEntity
  8
RACCORDO
100
AcDbLine
 62
250
  6
CONTINUOUS
 10
-87.3338168254
 20
-42.5132091658
 11
-87.2437569994
 21
-42.5124631357
  0
LINE
  5
2A5
100
AcDbEntity
  8
RACCORDO
100
AcDbLine
 62
7
  6
CONTINUOUS
 10
-87.3338491423
 20
-42.5017500453
 11
-87.6715355545
 21
-42.5018413017
  0
LINE
  5
2A6
100
AcDbEntity
  8
RACCORDO
100
AcDbLine
 62
250
  6
CONTINUOUS
 10
-87.3338491417
 20
-42.4999712739
 11
-87.1615768078
 21
-42.4999712741
  0
LINE
  5
2A7
100
AcDbEntity
  8
RACCORDO
100
AcDbLine
 62
250
  6
CONTINUOUS
 10
-84.0715355545
 20
-42.4532919088
 11
-84.2680450732
 21
-42.4532919088
  0
LINE
  5
2A8
100
AcDbEntity
  8
RACCORDO
100
AcDbLine
 62
250
  6
CONTINUOUS
 10
-89.6715355545
 20
-42.4220726233
 11
-89.1977035326
 21
-42.4220726233
  0
LINE
  5
2A9
100
AcDbEntity
  8
RACCORDO
100
AcDbLine
 62
250
  6
CONTINUOUS
 10
-89.1977035326
 20
-42.4220726233
 11
-87.6715355545
 21
-42.5020556979
  0
LINE
  5
2AA
100
AcDbEntity
  8
RACCORDO
100
AcDbLine
 62
250
  6
CONTINUOUS
 10
-86.949302089
 20
-42.5440051633
 11
-87.1615465053
 21
-42.5111324688
  0
LWPOLYLINE
  5
2AB
100
AcDbEntity
  8
0
100
AcDbPolyline
 62
7
  6
CONTINUOUS
 90
3
 70
0
 43
0.3500000006
 10
-96.2778232727
 20
59.8234431152
 10
-96.3492544556
 20
59.6091586304
 10
-96.4921077576
 20
59.3234429626
  0
LINE
  5
2AC
100
AcDbEntity
  8
0
100
AcDbLine
 62
7
  6
CONTINUOUS
 10
-89.6715355545
 20
-31.5801797807
 11
-89.7715355545
 21
-31.5801797807
  0
LINE
  5
2AD
100
AcDbEntity
  8
0
100
AcDbLine
 62
250
  6
CONTINUOUS
 10
-89.6715355545
 20
-30.9036074326
 11
-89.7715355545
 21
-30.9036074326
  0
LINE
  5
2AE
100
AcDbEntity
  8
0
100
AcDbLine
 62
7
  6
CONTINUOUS
 10
-89.6715355545
 20
-30.4133253901
 11
-89.7715355545
 21
-30.4133253901
  0
LINE
  5
2AF
100
AcDbEntity
  8
0
100
AcDbLine
 62
7
  6
CONTINUOUS
 10
-89.6715355545
 20
-30.3985541322
 11
-89.7715355545
 21
-30.3985541322
  0
LWPOLYLINE
  5
2B0
100
AcDbEntity
  8
0
100
AcDbPolyline
 62
7
  6
CONTINUOUS
 90
3
 70
0
 43
0.3500000006
 10
-96.1291329346
 20
52.0391844177
 10
-96.2005550537
 20
51.824895401
 10
-96.3434174194
 20
51.5391842651
  0
LINE
  5
2B1
100
AcDbEntity
  8
0
100
AcDbLine
 62
250
  6
CONTINUOUS
 10
-89.6715355545
 20
-29.1359677442
 11
-89.7715355545
 21
-29.1359677442
  0
LINE
  5
2B2
100
AcDbEntity
  8
0
100
AcDbLine
 62
7
  6
CONTINUOUS
 10
-89.6715355545
 20
-29.051114715
 11
-89.7715355545
 21
-29.051114715
  0
LWPOLYLINE
  5
2B3
100
AcDbEntity
  8
RACCORDO
100
AcDbPolyline
 62
250
  6
CONTINUOUS
 90
9
 70
0
 10
-89.1977035326
 20
-43.9200169255
 10
-89.1991726922
 20
-43.9173758154
 10
-89.2005544803
 20
-43.9096620904
 10
-89.2018384663
 20
-43.8969652171
 10
-89.2030076972
 20
-43.8794224554
 10
-89.2040632012
 20
-43.8571371715
 10
-89.2050189392
 20
-43.8301020779
 10
-89.2058664159
 20
-43.798336785
 10
-89.2065939889
 20
-43.7619838967
  0
LINE
  5
2B4
100
AcDbEntity
  8
RACCORDO
100
AcDbLine
 62
7
  6
CONTINUOUS
 10
-83.0538340352
 20
-22.4292361974
 11
-84.0715355545
 21
-22.6924317059
  0
LINE
  5
2B5
100
AcDbEntity
  8
RACCORDO
100
AcDbLine
 62
250
  6
CONTINUOUS
 10
-83.1021647289
 20
-22.2356066693
 11
-84.0715355545
 21
-22.4863030105
  0
LINE
  5
2B6
100
AcDbEntity
  8
RACCORDO
100
AcDbLine
 62
7
  6
CONTINUOUS
 10
-82.8496100373
 20
-20.8400121858
 11
-84.0715355545
 21
-21.0009755947
  0
LINE
  5
2B7
100
AcDbEntity
  8
RACCORDO
100
AcDbLine
 62
7
  6
CONTINUOUS
 10
-82.8591488725
 20
-20.8119116834
 11
-84.0715355545
 21
-20.9714322882
  0
LWPOLYLINE
  5
2B8
100
AcDbEntity
  8
RACCORDO
100
AcDbPolyline
 62
250
  6
CONTINUOUS
 90
16
 70
0
 10
-82.8435881201
 20
-22.1981148453
 10
-82.8603266842
 20
-22.1988208342
 10
-82.8769853575
 20
-22.1997507501
 10
-82.89356414
 20
-22.2009045932
 10
-82.910011863
 20
-22.2022765562
 10
-82.9263796953
 20
-22.2038724464
 10
-82.9428211426
 20
-22.2057096854
 10
-82.9593166227
 20
-22.2077749188
 10
-82.9758857179
 20
-22.2100815011
 10
-82.9927406803
 20
-22.2126869179
 10
-83.0098831289
 20
-22.2155771181
 10
-83.0273114449
 20
-22.2187661528
 10
-83.0452330233
 20
-22.2223536613
 10
-83.063716996
 20
-22.2263728568
 10
-83.0826942312
 20
-22.2307905261
 10
-83.1021647289
 20
-22.2356066693
  0
LINE
  5
2B9
100
AcDbEntity
  8
RACCORDO
100
AcDbLine
 62
7
  6
CONTINUOUS
 10
-79.6610657055
 20
-22.2870396751
 11
-82.8383535279
 21
-22.3979930107
  0
LINE
  5
2BA
100
AcDbEntity
  8
RACCORDO
100
AcDbLine
 62
250
  6
CONTINUOUS
 10
-79.6663002978
 20
-22.0871615097
 11
-82.8435881201
 21
-22.1981148453
  0
LINE
  5
2BB
100
AcDbEntity
  8
RACCORDO
100
AcDbLine
 62
250
  6
CONTINUOUS
 10
-79.3715355545
 20
-21.987222427
 11
-79.5697902474
 21
-21.987222427
  0
LINE
  5
2BC
100
AcDbEntity
  8
RACCORDO
100
AcDbLine
 62
250
  6
CONTINUOUS
 10
-79.3715355545
 20
-21.150895613
 11
-79.5697902474
 21
-21.150895613
  0
LWPOLYLINE
  5
2BD
100
AcDbEntity
  8
RACCORDO
100
AcDbPolyline
 62
250
  6
CONTINUOUS
 90
10
 70
0
 10
-80.9408192673
 20
-18.987323359
 10
-80.8749909283
 20
-18.9851581013
 10
-80.8090766301
 20
-18.9786148978
 10
-80.7433729227
 20
-18.9676484646
 10
-80.6783435815
 20
-18.9522772416
 10
-80.6141319581
 20
-18.9324749966
 10
-80.5505924229
 20
-18.9080651025
 10
-80.4879354387
 20
-18.8789196704
 10
-80.4266930586
 20
-18.8450684281
 10
-80.3672536527
 20
-18.806517235
  0
LWPOLYLINE
  5
2BE
100
AcDbEntity
  8
RACCORDO
100
AcDbPolyline
 62
250
  6
CONTINUOUS
 90
10
 70
0
 10
-80.9390739602
 20
-18.7873309744
 10
-80.8860065328
 20
-18.7856327923
 10
-80.8333538668
 20
-18.7803871285
 10
-80.7811159623
 20
-18.7715939832
 10
-80.7291513103
 20
-18.7593142797
 10
-80.6776014198
 20
-18.7434870947
 10
-80.6268908174
 20
-18.7239296577
 10
-80.5771610118
 20
-18.7005810452
 10
-80.5282704943
 20
-18.6735021808
 10
-80.4802192649
 20
-18.6426930643
  0
LINE
  5
2BF
100
AcDbEntity
  8
RACCORDO
100
AcDbLine
 62
250
  6
CONTINUOUS
 10
-81.6110619651
 20
-20.212720203
 11
-80.9390739602
 21
-20.2126690256
  0
LINE
  5
2C0
100
AcDbEntity
  8
RACCORDO
100
AcDbLine
 62
7
  6
CONTINUOUS
 10
-81.2681321795
 20
-20.0127015685
 11
-80.9408192673
 21
-20.012676641
  0
LINE
  5
2C1
100
AcDbEntity
  8
RACCORDO
100
AcDbLine
 62
7
  6
CONTINUOUS
 10
-80.9328352046
 20
-19.0126455708
 11
-81.2681302472
 21
-19.0126711062
  0
LINE
  5
2C2
100
AcDbEntity
  8
RACCORDO
100
AcDbLine
 62
250
  6
CONTINUOUS
 10
-79.5697902474
 20
-17.849104387
 11
-79.3715355545
 21
-17.849104387
  0
LINE
  5
2C3
100
AcDbEntity
  8
RACCORDO
100
AcDbLine
 62
7
  6
CONTINUOUS
 10
-80.9328352046
 20
-19.9873544292
 11
-81.2681302472
 21
-19.9873288938
  0
LINE
  5
2C4
100
AcDbEntity
  8
RACCORDO
100
AcDbLine
 62
7
  6
CONTINUOUS
 10
-81.2681321795
 20
-18.9872984315
 11
-80.9408192673
 21
-18.987323359
  0
LINE
  5
2C5
100
AcDbEntity
  8
RACCORDO
100
AcDbLine
 62
250
  6
CONTINUOUS
 10
-81.6110619651
 20
-18.787279797
 11
-80.9390739602
 21
-18.7873309744
  0
LWPOLYLINE
  5
2C6
100
AcDbEntity
  8
RACCORDO
100
AcDbPolyline
 62
250
  6
CONTINUOUS
 90
10
 70
0
 10
-80.9390739602
 20
-20.2126690256
 10
-80.8870512016
 20
-20.2142197602
 10
-80.8351908269
 20
-20.2193071572
 10
-80.783492836
 20
-20.2279312166
 10
-80.7318274397
 20
-20.23996744
 10
-80.6803244272
 20
-20.2555403257
 10
-80.6293731666
 20
-20.2750233686
 10
-80.5791034474
 20
-20.2985410671
 10
-80.5293854802
 20
-20.3259689228
 10
-80.4802192649
 20
-20.3573069357
  0
LWPOLYLINE
  5
2C7
100
AcDbEntity
  8
RACCORDO
100
AcDbPolyline
 62
250
  6
CONTINUOUS
 90
10
 70
0
 10
-80.9408192673
 20
-20.012676641
 10
-80.8762971882
 20
-20.0147566502
 10
-80.8113757531
 20
-20.0210823877
 10
-80.746343999
 20
-20.0317579846
 10
-80.6817022786
 20
-20.0468156221
 10
-80.6175642437
 20
-20.0663457962
 10
-80.5536953461
 20
-20.0906261382
 10
-80.4903058268
 20
-20.1198803781
 10
-80.4280096627
 20
-20.1541438507
 10
-80.3672536527
 20
-20.193482765
  0
LINE
  5
2C8
100
AcDbEntity
  8
RACCORDO
100
AcDbLine
 62
7
  6
CONTINUOUS
 10
-84.0715355545
 20
-18.0285677118
 11
-82.8591488725
 21
-18.1880883166
  0
LINE
  5
2C9
100
AcDbEntity
  8
RACCORDO
100
AcDbLine
 62
7
  6
CONTINUOUS
 10
-84.0715355545
 20
-17.9990244053
 11
-82.8496100373
 21
-18.1599878142
  0
LWPOLYLINE
  5
2CA
100
AcDbEntity
  8
0
100
AcDbPolyline
 62
7
  6
CONTINUOUS
 90
13
 70
0
 43
0.3500000006
 10
-99.3492553711
 20
60.3948744507
 10
-99.3492553711
 20
61.6805904236
 10
-99.1349708862
 20
62.1091593933
 10
-98.7064019165
 20
62.537728363
 10
-98.4921083679
 20
62.537728363
 10
-98.0635393982
 20
62.1091593933
 10
-97.8492549133
 20
61.6805904236
 10
-97.8492549133
 20
60.3948744507
 10
-98.0635393982
 20
59.966305481
 10
-98.4921083679
 20
59.5377274475
 10
-98.7064019165
 20
59.5377274475
 10
-99.1349708862
 20
59.966305481
 10
-99.3492553711
 20
60.3948744507
  0
LWPOLYLINE
  5
2CB
100
AcDbEntity
  8
RACCORDO
100
AcDbPolyline
 62
7
  6
CONTINUOUS
 90
10
 70
0
 10
-80.3592916261
 20
20.1682304427
 10
-80.4149140087
 20
20.1319703931
 10
-80.4729847626
 20
20.0993959498
 10
-80.5332645718
 20
20.0706838324
 10
-80.5952750298
 20
20.0460764648
 10
-80.658966708
 20
20.0256076727
 10
-80.7247692843
 20
20.0092546391
 10
-80.7926618112
 20
19.9972372972
 10
-80.8621234667
 20
19.9898624763
 10
-80.9328352046
 20
19.9873544292
  0
LINE
  5
2CC
100
AcDbEntity
  8
RACCORDO
100
AcDbLine
 62
7
  6
CONTINUOUS
 10
-81.6110619651
 20
18.787279797
 11
-82.4801595194
 21
18.2854296617
  0
LINE
  5
2CD
100
AcDbEntity
  8
RACCORDO
100
AcDbLine
 62
7
  6
CONTINUOUS
 10
-81.62485613
 20
18.8127060222
 11
-82.4896799113
 21
18.3134758318
  0
LINE
  5
2CE
100
AcDbEntity
  8
RACCORDO
100
AcDbLine
 62
250
  6
CONTINUOUS
 10
-79.5697902474
 20
-17.012777573
 11
-79.3715355545
 21
-17.012777573
  0
LINE
  5
2CF
100
AcDbEntity
  8
RACCORDO
100
AcDbLine
 62
250
  6
CONTINUOUS
 10
-79.6663002978
 20
-16.9128384903
 11
-82.8435881201
 21
-16.8018851547
  0
LINE
  5
2D0
100
AcDbEntity
  8
RACCORDO
100
AcDbLine
 62
7
  6
CONTINUOUS
 10
-79.6610657055
 20
-16.7129603249
 11
-82.8383535279
 21
-16.6020069893
  0
LWPOLYLINE
  5
2D1
100
AcDbEntity
  8
RACCORDO
100
AcDbPolyline
 62
250
  6
CONTINUOUS
 90
10
 70
0
 10
-82.8435881201
 20
-16.8018851547
 10
-82.8766631014
 20
-16.800140979
 10
-82.908649442
 20
-16.7977370762
 10
-82.9395471418
 20
-16.7946734464
 10
-82.9693527623
 20
-16.7908776474
 10
-82.9980697419
 20
-16.7864221214
 10
-83.0257083968
 20
-16.7815241941
 10
-83.0522721656
 20
-16.7762563076
 10
-83.0777576097
 20
-16.7705460198
 10
-83.1021647289
 20
-16.7643933307
  0
LINE
  5
2D2
100
AcDbEntity
  8
RACCORDO
100
AcDbLine
 62
250
  6
CONTINUOUS
 10
-83.1021647289
 20
-16.7643933307
 11
-84.0715355545
 21
-16.5136969895
  0
LINE
  5
2D3
100
AcDbEntity
  8
RACCORDO
100
AcDbLine
 62
7
  6
CONTINUOUS
 10
-83.0538340352
 20
-16.5707638026
 11
-84.0715355545
 21
-16.3075682941
  0
LINE
  5
2D4
100
AcDbEntity
  8
RACCORDO
100
AcDbLine
 62
7
  6
CONTINUOUS
 10
-82.4896799113
 20
-18.3134758318
 11
-81.62485613
 21
-18.8127060222
  0
LINE
  5
2D5
100
AcDbEntity
  8
RACCORDO
100
AcDbLine
 62
7
  6
CONTINUOUS
 10
-82.4801595194
 20
-18.2854296617
 11
-81.6110619651
 21
-18.787279797
  0
LWPOLYLINE
  5
2D6
100
AcDbEntity
  8
RACCORDO
100
AcDbPolyline
 62
7
  6
CONTINUOUS
 90
10
 70
0
 10
-80.3592916261
 20
-20.1682304427
 10
-80.4134704708
 20
-20.1328462147
 10
-80.4703681372
 20
-20.1007561432
 10
-80.5298007921
 20
-20.0722017576
 10
-80.5913443689
 20
-20.0474956691
 10
-80.6549793455
 20
-20.0267523782
 10
-80.7211391203
 20
-20.0100341878
 10
-80.7898106922
 20
-19.9976453417
 10
-80.8604851556
 20
-19.9899800906
 10
-80.9328352046
 20
-19.9873544292
  0
LINE
  5
2D7
100
AcDbEntity
  8
RACCORDO
100
AcDbLine
 62
7
  6
CONTINUOUS
 10
-79.5562092756
 20
20.7321894381
 11
-79.5847582564
 21
20.7106365567
  0
LWPOLYLINE
  5
2D8
100
AcDbEntity
  8
RACCORDO
100
AcDbPolyline
 62
250
  6
CONTINUOUS
 90
16
 70
0
 10
-79.6977238685
 20
20.9051433606
 10
-79.6830286909
 20
20.9161452938
 10
-79.6691427791
 20
20.927885431
 10
-79.6560661332
 20
20.9403637723
 10
-79.6437977974
 20
20.953556792
 10
-79.6323387276
 20
20.9674880158
 10
-79.6216917907
 20
20.9822280207
 10
-79.6118013354
 20
20.9977826974
 10
-79.6027230131
 20
21.0141461552
 10
-79.5946266452
 20
21.0313713001
 10
-79.5874658346
 20
21.0495508708
 10
-79.5812869785
 20
21.0685921286
 10
-79.5763990904
 20
21.0882697627
 10
-79.5729051748
 20
21.1085086697
 10
-79.5707022271
 20
21.1293839531
 10
-79.5697902474
 20
21.150895613
  0
LWPOLYLINE
  5
2D9
100
AcDbEntity
  8
RACCORDO
100
AcDbPolyline
 62
250
  6
CONTINUOUS
 90
8
 70
0
 10
-79.5847582564
 20
20.7413191899
 10
-79.5603850073
 20
20.759512724
 10
-79.537216168
 20
20.779106948
 10
-79.5153286975
 20
20.8000197932
 10
-79.4948883663
 20
20.8220570091
 10
-79.4758528105
 20
20.8452262947
 10
-79.4580381266
 20
20.8697925034
 10
-79.454280411
 20
20.8754009221
  0
LINE
  5
2DA
100
AcDbEntity
  8
RACCORDO
100
AcDbLine
 62
7
  6
CONTINUOUS
 10
-79.5847582564
 20
20.7106365567
 11
-80.3592916261
 21
20.1682304427
  0
LINE
  5
2DB
100
AcDbEntity
  8
RACCORDO
100
AcDbLine
 62
250
  6
CONTINUOUS
 10
-80.4802192649
 20
20.3573069357
 11
-79.6977238685
 21
20.9051433606
  0
LINE
  5
2DC
100
AcDbEntity
  8
RACCORDO
100
AcDbLine
 62
7
  6
CONTINUOUS
 10
-80.3672536527
 20
20.193482765
 11
-79.5847582564
 21
20.7413191899
  0
LINE
  5
2DD
100
AcDbEntity
  8
RACCORDO
100
AcDbLine
 62
250
  6
CONTINUOUS
 10
-80.4802192649
 20
-20.3573069357
 11
-79.6977238685
 21
-20.9051433606
  0
LINE
  5
2DE
100
AcDbEntity
  8
RACCORDO
100
AcDbLine
 62
7
  6
CONTINUOUS
 10
-80.3672536527
 20
-20.193482765
 11
-79.5847582564
 21
-20.7413191899
  0
LINE
  5
2DF
100
AcDbEntity
  8
RACCORDO
100
AcDbLine
 62
7
  6
CONTINUOUS
 10
-79.5847582564
 20
-20.7106365567
 11
-80.3592916261
 21
-20.1682304427
  0
LWPOLYLINE
  5
2E0
100
AcDbEntity
  8
RACCORDO
100
AcDbPolyline
 62
250
  6
CONTINUOUS
 90
6
 70
0
 10
-79.5847582564
 20
-20.74131919
 10
-79.5529971161
 20
-20.7655012317
 10
-79.5232652918
 20
-20.7921412823
 10
-79.4957525885
 20
-20.8210698089
 10
-79.470641341
 20
-20.8520937518
 10
-79.4617181241
 20
-20.8644542524
  0
LINE
  5
2E1
100
AcDbEntity
  8
RACCORDO
100
AcDbLine
 62
7
  6
CONTINUOUS
 10
-79.5528665128
 20
-20.7349301663
 11
-79.5847582564
 21
-20.710636556
  0
LWPOLYLINE
  5
2E2
100
AcDbEntity
  8
RACCORDO
100
AcDbPolyline
 62
250
  6
CONTINUOUS
 90
13
 70
0
 10
-79.6977238685
 20
-20.9051433606
 10
-79.6784919322
 20
-20.9198362214
 10
-79.6606907986
 20
-20.9357864073
 10
-79.6443204678
 20
-20.9529939182
 10
-79.6292965629
 20
-20.971577374
 10
-79.6157034607
 20
-20.9914181549
 10
-79.603794292
 20
-21.0121604016
 10
-79.5935948373
 20
-21.0338313218
 10
-79.5850793161
 20
-21.0564037078
 10
-79.5784235175
 20
-21.0794400781
 10
-79.5736860381
 20
-21.1027946054
 10
-79.5708082814
 20
-21.1266131171
 10
-79.5697902474
 20
-21.150895613
  0
LWPOLYLINE
  5
2E3
100
AcDbEntity
  8
RACCORDO
100
AcDbPolyline
 62
7
  6
CONTINUOUS
 90
10
 70
0
 10
-79.454280411
 20
20.8754009221
 10
-79.4415436739
 20
20.8957359216
 10
-79.4265107817
 20
20.9229641882
 10
-79.4129295509
 20
20.9516959287
 10
-79.4009270375
 20
20.9819941145
 10
-79.3907373463
 20
21.0136614479
 10
-79.3825502928
 20
21.046523524
 10
-79.37652529
 20
21.0804334829
 10
-79.3728058451
 20
21.1152767861
 10
-79.3715355545
 20
21.150895613
  0
LINE
  5
2E4
100
AcDbEntity
  8
RACCORDO
100
AcDbLine
 62
250
  6
CONTINUOUS
 10
-80.3769321345
 20
18.7916893665
 11
-80.3886932664
 21
18.7744441664
  0
LINE
  5
2E5
100
AcDbEntity
  8
RACCORDO
100
AcDbLine
 62
250
  6
CONTINUOUS
 10
-79.5944370939
 20
18.2438524271
 11
-79.6061985378
 21
18.2266067824
  0
LINE
  5
2E6
100
AcDbEntity
  8
RACCORDO
100
AcDbLine
 62
250
  6
CONTINUOUS
 10
-80.3886932664
 20
18.7744441664
 11
-80.4235554932
 21
18.7239625531
  0
LINE
  5
2E7
100
AcDbEntity
  8
RACCORDO
100
AcDbLine
 62
250
  6
CONTINUOUS
 10
-79.6061985378
 20
18.2266067824
 11
-79.6410610865
 21
18.1761247163
  0
LINE
  5
2E8
100
AcDbEntity
  8
RACCORDO
100
AcDbLine
 62
250
  6
CONTINUOUS
 10
-80.4235554932
 20
18.7239625531
 11
-80.4802192649
 21
18.6426930643
  0
LINE
  5
2E9
100
AcDbEntity
  8
RACCORDO
100
AcDbLine
 62
250
  6
CONTINUOUS
 10
-79.6410610865
 20
18.1761247163
 11
-79.6977238685
 21
18.0948566394
  0
LINE
  5
2EA
100
AcDbEntity
  8
RACCORDO
100
AcDbLine
 62
250
  6
CONTINUOUS
 10
-80.4802192649
 20
-18.6426930643
 11
-80.4136400158
 21
-18.7382660725
  0
LINE
  5
2EB
100
AcDbEntity
  8
RACCORDO
100
AcDbLine
 62
250
  6
CONTINUOUS
 10
-79.6977238685
 20
-18.0948566394
 11
-79.6311446374
 21
-18.1904296227
  0
LINE
  5
2EC
100
AcDbEntity
  8
RACCORDO
100
AcDbLine
 62
250
  6
CONTINUOUS
 10
-80.4136400158
 20
-18.7382660725
 11
-80.3886932664
 21
-18.7744441664
  0
LINE
  5
2ED
100
AcDbEntity
  8
RACCORDO
100
AcDbLine
 62
250
  6
CONTINUOUS
 10
-79.6311446374
 20
-18.1904296227
 11
-79.6061978824
 21
-18.2266077246
  0
LWPOLYLINE
  5
2EE
100
AcDbEntity
  8
RACCORDO
100
AcDbPolyline
 62
250
  6
CONTINUOUS
 90
6
 70
0
 10
-80.3886932664
 20
-18.7744441664
 10
-80.3769321345
 20
-18.7916893665
 10
-80.3727189183
 20
-18.7979482257
 10
-80.3696818039
 20
-18.8025356604
 10
-80.3678534877
 20
-18.8054022839
 10
-80.3672536527
 20
-18.806517235
  0
LWPOLYLINE
  5
2EF
100
AcDbEntity
  8
RACCORDO
100
AcDbPolyline
 62
250
  6
CONTINUOUS
 90
6
 70
0
 10
-79.6061978824
 20
-18.2266077246
 10
-79.5944367448
 20
-18.2438529326
 10
-79.5902235261
 20
-18.2501117953
 10
-79.5871864096
 20
-18.2546992329
 10
-79.5853580919
 20
-18.2575658582
 10
-79.5847582564
 20
-18.2586808101
  0
LWPOLYLINE
  5
2F0
100
AcDbEntity
  8
RACCORDO
100
AcDbPolyline
 62
7
  6
CONTINUOUS
 90
8
 70
0
 10
-79.4617181241
 20
-20.8644542524
 10
-79.4480839079
 20
-20.885023398
 10
-79.4282089621
 20
-20.9196786496
 10
-79.4111434396
 20
-20.9558594559
 10
-79.3970139909
 20
-20.9933221394
 10
-79.385924338
 20
-21.0318079254
 10
-79.3779497815
 20
-21.0710634437
 10
-79.3731422064
 20
-21.1108443751
  0
LINE
  5
2F1
100
AcDbEntity
  8
0
100
AcDbLine
 62
7
  6
CONTINUOUS
 10
-86.94953294
 20
-42.5366970819
 11
-86.9456037748
 21
-42.6653510594
  0
LINE
  5
2F2
100
AcDbEntity
  8
0
100
AcDbLine
 62
7
  6
CONTINUOUS
 10
-86.9456037748
 20
-42.6653510594
 11
-86.9424966991
 21
-42.7869482567
  0
LINE
  5
2F3
100
AcDbEntity
  8
0
100
AcDbLine
 62
7
  6
CONTINUOUS
 10
-86.9424966991
 20
-42.7869482567
 11
-86.9409313247
 21
-42.8639165123
  0
LINE
  5
2F4
100
AcDbEntity
  8
RACCORDO
100
AcDbLine
 62
250
  6
CONTINUOUS
 10
-89.1977035326
 20
42.4220726233
 11
-89.2040632012
 21
42.8505009175
  0
LWPOLYLINE
  5
2F5
100
AcDbEntity
  8
0
100
AcDbPolyline
 62
7
  6
CONTINUOUS
 90
16
 70
0
 10
-86.9409313247
 20
-42.8639165123
 10
-86.9399370136
 20
-42.9361585131
 10
-86.9396746665
 20
-42.9700867506
 10
-86.9396076159
 20
-43.0020863068
 10
-86.939763568
 20
-43.032025041
 10
-86.9401142756
 20
-43.059796974
 10
-86.9406111082
 20
-43.0851513653
 10
-86.9412499306
 20
-43.1080563288
 10
-86.9420305297
 20
-43.1284434821
 10
-86.9429068646
 20
-43.1461304964
 10
-86.9438777655
 20
-43.1612405347
 10
-86.9449362376
 20
-43.1737390799
 10
-86.9460215898
 20
-43.1834717277
 10
-86.9471066569
 20
-43.1906407295
 10
-86.9482024135
 20
-43.1956009597
 10
-86.9493020847
 20
-43.1986083223
  0
LINE
  5
2F6
100
AcDbEntity
  8
RACCORDO
100
AcDbLine
 62
250
  6
CONTINUOUS
 10
-89.2065939889
 20
-43.7619838967
 11
-89.2077070281
 21
-43.6760899486
  0
LWPOLYLINE
  5
2F7
100
AcDbEntity
  8
0
100
AcDbPolyline
 62
7
  6
CONTINUOUS
 90
5
 70
0
 10
-86.9500367321
 20
-42.5074287097
 10
-86.9499737529
 20
-42.5147496057
 10
-86.9498687853
 20
-42.5220685004
 10
-86.9497218431
 20
-42.5293845928
 10
-86.94953294
 20
-42.5366970819
  0
LINE
  5
2F8
100
AcDbEntity
  8
RACCORDO
100
AcDbLine
 62
250
  6
CONTINUOUS
 10
-89.2040632012
 20
42.8505009175
 11
-89.2072086676
 21
43.167005314
  0
LINE
  5
2F9
100
AcDbEntity
  8
RACCORDO
100
AcDbLine
 62
250
  6
CONTINUOUS
 10
-89.2077070281
 20
-43.6760899486
 11
-89.2083369564
 21
-43.5735891679
  0
LINE
  5
2FA
100
AcDbEntity
  8
RACCORDO
100
AcDbLine
 62
250
  6
CONTINUOUS
 10
-89.2072086676
 20
43.167005314
 11
-89.2083369564
 21
43.379422581
  0
LINE
  5
2FB
100
AcDbEntity
  8
RACCORDO
100
AcDbLine
 62
250
  6
CONTINUOUS
 10
-87.1608963489
 20
-43.2248820213
 11
-87.1610795915
 21
-43.0311387454
  0
LINE
  5
2FC
100
AcDbEntity
  8
RACCORDO
100
AcDbLine
 62
250
  6
CONTINUOUS
 10
-87.1610917638
 20
43.4682368953
 11
-87.1611190764
 21
43.5298080732
  0
LINE
  5
2FD
100
AcDbEntity
  8
0
100
AcDbLine
 62
7
  6
CONTINUOUS
 10
-89.7715355545
 20
-31.5801797807
 11
-89.7715355545
 21
-29.051114715
  0
LINE
  5
2FE
100
AcDbEntity
  8
RACCORDO
100
AcDbLine
 62
7
  6
CONTINUOUS
 10
-89.6715355545
 20
-43.4207021581
 11
-89.6715355545
 21
43.4207021581
  0
LINE
  5
2FF
100
AcDbEntity
  8
RACCORDO
100
AcDbLine
 62
250
  6
CONTINUOUS
 10
-89.1977035326
 20
-42.4220726233
 11
-89.1977035326
 21
42.4220726233
  0
LINE
  5
300
100
AcDbEntity
  8
RACCORDO
100
AcDbLine
 62
7
  6
CONTINUOUS
 10
-87.6715355545
 20
-44.0
 11
-87.6715355545
 21
44.0
  0
LINE
  5
301
100
AcDbEntity
  8
RACCORDO
100
AcDbLine
 62
250
  6
CONTINUOUS
 10
-87.3317220011
 20
43.3230366546
 11
-87.3323633299
 21
43.6021281206
  0
LINE
  5
302
100
AcDbEntity
  8
RACCORDO
100
AcDbLine
 62
250
  6
CONTINUOUS
 10
-87.1608942917
 20
-43.3162775504
 11
-87.1608963489
 21
-43.2248820213
  0
LINE
  5
303
100
AcDbEntity
  8
RACCORDO
100
AcDbLine
 62
250
  6
CONTINUOUS
 10
-87.1611216658
 20
-43.5337235461
 11
-87.16109282
 21
-43.4692373028
  0
LINE
  5
304
100
AcDbEntity
  8
RACCORDO
100
AcDbLine
 62
250
  6
CONTINUOUS
 10
-89.2083369564
 20
-43.5735891679
 11
-89.2083709114
 21
-43.391658047
  0
LINE
  5
305
100
AcDbEntity
  8
RACCORDO
100
AcDbLine
 62
250
  6
CONTINUOUS
 10
-89.2083369564
 20
43.379422581
 11
-89.2083709114
 21
43.5633045255
  0
LINE
  5
306
100
AcDbEntity
  8
RACCORDO
100
AcDbLine
 62
250
  6
CONTINUOUS
 10
-87.3318623083
 20
-43.4577817076
 11
-87.3338477882
 21
-42.5017500443
  0
LINE
  5
307
100
AcDbEntity
  8
RACCORDO
100
AcDbLine
 62
250
  6
CONTINUOUS
 10
-87.1610795915
 20
-43.0311387454
 11
-87.1608976555
 21
43.319935021
  0
LINE
  5
308
100
AcDbEntity
  8
RACCORDO
100
AcDbLine
 62
250
  6
CONTINUOUS
 10
-87.3338491423
 20
-42.5017500453
 11
-87.3335525717
 21
42.5947135166
  0
LINE
  5
309
100
AcDbEntity
  8
RACCORDO
100
AcDbLine
 62
250
  6
CONTINUOUS
 10
-87.3335525717
 20
42.5947135166
 11
-87.3317220011
 21
43.3230366546
  0
LINE
  5
30A
100
AcDbEntity
  8
RACCORDO
100
AcDbLine
 62
250
  6
CONTINUOUS
 10
-87.3323336405
 20
-43.5957504931
 11
-87.3318623083
 21
-43.4577817076
  0
LINE
  5
30B
100
AcDbEntity
  8
RACCORDO
100
AcDbLine
 62
250
  6
CONTINUOUS
 10
-89.2083709114
 20
43.5633045255
 11
-89.207784459
 21
43.6671165436
  0
LINE
  5
30C
100
AcDbEntity
  8
RACCORDO
100
AcDbLine
 62
250
  6
CONTINUOUS
 10
-89.2083709114
 20
-43.391658047
 11
-89.2067128485
 21
-43.1045980421
  0
LINE
  5
30D
100
AcDbEntity
  8
0
100
AcDbLine
 62
7
  6
CONTINUOUS
 10
-86.9396756755
 20
42.9698256425
 11
-86.9403585029
 21
42.9005273884
  0
LINE
  5
30E
100
AcDbEntity
  8
RACCORDO
100
AcDbLine
 62
250
  6
CONTINUOUS
 10
-89.2067128485
 20
-43.1045980421
 11
-89.2031148893
 21
-42.7752290918
  0
LWPOLYLINE
  5
30F
100
AcDbEntity
  8
RACCORDO
100
AcDbPolyline
 62
250
  6
CONTINUOUS
 90
10
 70
0
 10
-89.207784459
 20
43.6671165436
 10
-89.2067128485
 20
43.7550493054
 10
-89.2059941923
 20
43.7926342295
 10
-89.2051511477
 20
43.8256859089
 10
-89.2041905994
 20
43.8540459997
 10
-89.2031148893
 20
43.8775300247
 10
-89.2019184677
 20
43.8959608924
 10
-89.2006076474
 20
43.9092313697
 10
-89.1991983879
 20
43.9172717849
 10
-89.1977035326
 20
43.9200169255
  0
LINE
  5
310
100
AcDbEntity
  8
RACCORDO
100
AcDbLine
 62
250
  6
CONTINUOUS
 10
-89.2031148893
 20
-42.7752290918
 11
-89.1977035326
 21
-42.4220726233
  0
LINE
  5
311
100
AcDbEntity
  8
0
100
AcDbLine
 62
7
  6
CONTINUOUS
 10
-86.9403585029
 20
42.9005273884
 11
-86.9416614671
 21
42.8258375806
  0
LWPOLYLINE
  5
312
100
AcDbEntity
  8
0
100
AcDbPolyline
 62
7
  6
CONTINUOUS
 90
6
 70
0
 10
-86.9495329233
 20
42.5366980721
 10
-86.9497218161
 20
42.5293861781
 10
-86.9498687545
 20
42.5220702845
 10
-86.9499737253
 20
42.514751192
 10
-86.9500367146
 20
42.5074297013
 10
-86.9500367321
 20
-42.5074287097
  0
LINE
  5
313
100
AcDbEntity
  8
0
100
AcDbLine
 62
7
  6
CONTINUOUS
 10
-86.9416614671
 20
42.8258375806
 11
-86.9444879564
 21
42.706147096
  0
LWPOLYLINE
  5
314
100
AcDbEntity
  8
0
100
AcDbPolyline
 62
7
  6
CONTINUOUS
 90
3
 70
0
 10
-86.9444879564
 20
42.706147096
 10
-86.9480115076
 20
42.5841273802
 10
-86.9495329233
 20
42.5366980721
  0
LWPOLYLINE
  5
315
100
AcDbEntity
  8
RACCORDO
100
AcDbPolyline
 62
250
  6
CONTINUOUS
 90
5
 70
0
 10
-83.0574869648
 20
22.4123700491
 10
-83.0557733314
 20
22.4196548628
 10
-83.0545856289
 20
22.4249288067
 10
-83.053936834
 20
22.4281342589
 10
-83.0538340352
 20
22.4292361974
  0
LINE
  5
316
100
AcDbEntity
  8
RACCORDO
100
AcDbLine
 62
250
  6
CONTINUOUS
 10
-83.0624115918
 20
22.3921072821
 11
-83.0574869648
 21
22.4123700491
  0
LINE
  5
317
100
AcDbEntity
  8
RACCORDO
100
AcDbLine
 62
250
  6
CONTINUOUS
 10
-83.073100809
 20
22.3492825695
 11
-83.0624115918
 21
22.3921072821
  0
LWPOLYLINE
  5
318
100
AcDbEntity
  8
RACCORDO
100
AcDbPolyline
 62
250
  6
CONTINUOUS
 90
3
 70
0
 10
-83.1021647289
 20
22.2356066693
 10
-83.0969475359
 20
22.2558184641
 10
-83.073100809
 20
22.3492825695
  0
LINE
  5
319
100
AcDbEntity
  8
RACCORDO
100
AcDbLine
 62
250
  6
CONTINUOUS
 10
-82.8591488725
 20
20.8119116834
 11
-82.8496100373
 21
20.8400121858
  0
LINE
  5
31A
100
AcDbEntity
  8
RACCORDO
100
AcDbLine
 62
250
  6
CONTINUOUS
 10
-82.4896799113
 20
20.6865241682
 11
-82.4801595194
 21
20.7145703383
  0
LWPOLYLINE
  5
31B
100
AcDbEntity
  8
RACCORDO
100
AcDbPolyline
 62
250
  6
CONTINUOUS
 90
5
 70
0
 10
-80.3672536527
 20
18.806517235
 10
-80.3678534877
 20
18.8054022839
 10
-80.3696818039
 20
18.8025356604
 10
-80.3727189183
 20
18.7979482257
 10
-80.3769321345
 20
18.7916893665
  0
LWPOLYLINE
  5
31C
100
AcDbEntity
  8
RACCORDO
100
AcDbPolyline
 62
250
  6
CONTINUOUS
 90
5
 70
0
 10
-79.5847582564
 20
18.2586808101
 10
-79.5853581192
 20
18.2575658166
 10
-79.5871865105
 20
18.254699084
 10
-79.5902237372
 20
18.2501114876
 10
-79.5944370939
 20
18.2438524271
  0
LINE
  5
31D
100
AcDbEntity
  8
RACCORDO
100
AcDbLine
 62
250
  6
CONTINUOUS
 10
-82.8591488725
 20
-20.8119116834
 11
-82.8496100373
 21
-20.8400121858
  0
LINE
  5
31E
100
AcDbEntity
  8
RACCORDO
100
AcDbLine
 62
250
  6
CONTINUOUS
 10
-82.4896799113
 20
-20.6865241682
 11
-82.4801595194
 21
-20.7145703383
  0
LINE
  5
31F
100
AcDbEntity
  8
RACCORDO
100
AcDbLine
 62
250
  6
CONTINUOUS
 10
-83.0773933564
 20
-22.3322995083
 11
-83.1021647289
 21
-22.2356066693
  0
LINE
  5
320
100
AcDbEntity
  8
RACCORDO
100
AcDbLine
 62
250
  6
CONTINUOUS
 10
-83.06556878
 20
-22.3793507153
 11
-83.0773933564
 21
-22.3322995083
  0
LWPOLYLINE
  5
321
100
AcDbEntity
  8
RACCORDO
100
AcDbPolyline
 62
250
  6
CONTINUOUS
 90
7
 70
0
 10
-83.0538340352
 20
-22.4292361974
 10
-83.053936834
 20
-22.4281342589
 10
-83.0545856289
 20
-22.4249288067
 10
-83.0557733314
 20
-22.4196548628
 10
-83.0574869648
 20
-22.4123700491
 10
-83.0597078064
 20
-22.4031539579
 10
-83.06556878
 20
-22.3793507153
  0
LWPOLYLINE
  5
322
100
AcDbEntity
  8
RACCORDO
100
AcDbPolyline
 62
250
  6
CONTINUOUS
 90
7
 70
0
 10
-87.3335156995
 20
43.6895838581
 10
-87.3335649196
 20
43.6907410873
 10
-87.333611392
 20
43.6917313137
 10
-87.333659391
 20
43.6925723802
 10
-87.3337103416
 20
43.6932525206
 10
-87.333762819
 20
43.6937461209
 10
-87.333816823
 20
43.6940353355
  0
LINE
  5
323
100
AcDbEntity
  8
RACCORDO
100
AcDbLine
 62
250
  6
CONTINUOUS
 10
-87.3332851268
 20
43.683147475
 11
-87.3334061304
 21
43.6867790289
  0
LINE
  5
324
100
AcDbEntity
  8
RACCORDO
100
AcDbLine
 62
250
  6
CONTINUOUS
 10
-87.3331546106
 20
43.6785182373
 11
-87.3332851268
 21
43.683147475
  0
LINE
  5
325
100
AcDbEntity
  8
RACCORDO
100
AcDbLine
 62
250
  6
CONTINUOUS
 10
-87.3330206986
 20
43.6727080162
 11
-87.3331546106
 21
43.6785182373
  0
LINE
  5
326
100
AcDbEntity
  8
RACCORDO
100
AcDbLine
 62
250
  6
CONTINUOUS
 10
-87.1613594903
 20
43.5784370361
 11
-87.1615093312
 21
43.5869344078
  0
LINE
  5
327
100
AcDbEntity
  8
RACCORDO
100
AcDbLine
 62
250
  6
CONTINUOUS
 10
-87.3328261278
 20
43.6613594678
 11
-87.3330206986
 21
43.6727080162
  0
LINE
  5
328
100
AcDbEntity
  8
RACCORDO
100
AcDbLine
 62
250
  6
CONTINUOUS
 10
-87.161522064
 20
43.5877632947
 11
-87.1615320477
 21
43.5884616283
  0
LINE
  5
329
100
AcDbEntity
  8
RACCORDO
100
AcDbLine
 62
250
  6
CONTINUOUS
 10
-87.1615444346
 20
43.5893705189
 11
-87.1615465043
 21
43.5895139143
  0
LINE
  5
32A
100
AcDbEntity
  8
RACCORDO
100
AcDbLine
 62
250
  6
CONTINUOUS
 10
-87.1612675995
 20
43.5711160421
 11
-87.1613594903
 21
43.5784370361
  0
LINE
  5
32B
100
AcDbEntity
  8
RACCORDO
100
AcDbLine
 62
250
  6
CONTINUOUS
 10
-87.3326514195
 20
43.6462434073
 11
-87.3328261278
 21
43.6613594678
  0
LINE
  5
32C
100
AcDbEntity
  8
RACCORDO
100
AcDbLine
 62
250
  6
CONTINUOUS
 10
-87.1611907919
 20
43.5609776758
 11
-87.1612675995
 21
43.5711160421
  0
LINE
  5
32D
100
AcDbEntity
  8
RACCORDO
100
AcDbLine
 62
250
  6
CONTINUOUS
 10
-87.3323633299
 20
43.6021281206
 11
-87.3326514195
 21
43.6462434073
  0
LINE
  5
32E
100
AcDbEntity
  8
RACCORDO
100
AcDbLine
 62
250
  6
CONTINUOUS
 10
-87.1608976555
 20
43.319935021
 11
-87.1610917638
 21
43.4682368953
  0
LINE
  5
32F
100
AcDbEntity
  8
RACCORDO
100
AcDbLine
 62
250
  6
CONTINUOUS
 10
-87.1611190764
 20
43.5298080732
 11
-87.1611907919
 21
43.5609776758
  0
LINE
  5
330
100
AcDbEntity
  8
RACCORDO
100
AcDbLine
 62
250
  6
CONTINUOUS
 10
-84.2680450732
 20
-42.4532919088
 11
-84.2666042377
 21
-42.9266852055
  0
LINE
  5
331
100
AcDbEntity
  8
RACCORDO
100
AcDbLine
 62
250
  6
CONTINUOUS
 10
-84.2680450732
 20
42.4532919088
 11
-84.2680450732
 21
-42.4532919088
  0
LINE
  5
332
100
AcDbEntity
  8
RACCORDO
100
AcDbLine
 62
250
  6
CONTINUOUS
 10
-87.16109282
 20
-43.4692373028
 11
-87.1610214697
 21
-43.4114352955
  0
LINE
  5
333
100
AcDbEntity
  8
RACCORDO
100
AcDbLine
 62
250
  6
CONTINUOUS
 10
-87.1610214697
 20
-43.4114352955
 11
-87.1608942917
 21
-43.3162775504
  0
LINE
  5
334
100
AcDbEntity
  8
RACCORDO
100
AcDbLine
 62
250
  6
CONTINUOUS
 10
-84.2666042377
 20
-42.9266852055
 11
-84.2666797207
 21
-43.0288841347
  0
LINE
  5
335
100
AcDbEntity
  8
RACCORDO
100
AcDbLine
 62
250
  6
CONTINUOUS
 10
-84.2666892615
 20
43.0331116291
 11
-84.266865939
 21
42.7612190679
  0
LINE
  5
336
100
AcDbEntity
  8
RACCORDO
100
AcDbLine
 62
250
  6
CONTINUOUS
 10
-87.1611896164
 20
-43.560738773
 11
-87.1611216658
 21
-43.5337235461
  0
LINE
  5
337
100
AcDbEntity
  8
RACCORDO
100
AcDbLine
 62
250
  6
CONTINUOUS
 10
-84.266865939
 20
42.7612190679
 11
-84.2680450273
 21
42.453291908
  0
LINE
  5
338
100
AcDbEntity
  8
RACCORDO
100
AcDbLine
 62
250
  6
CONTINUOUS
 10
-87.3326373127
 20
-43.6447186726
 11
-87.3323336405
 21
-43.5957504931
  0
LINE
  5
339
100
AcDbEntity
  8
RACCORDO
100
AcDbLine
 62
250
  6
CONTINUOUS
 10
-87.1612729226
 20
-43.5716348741
 11
-87.1611896164
 21
-43.560738773
  0
LINE
  5
33A
100
AcDbEntity
  8
RACCORDO
100
AcDbLine
 62
250
  6
CONTINUOUS
 10
-87.1615353078
 20
-43.5887905914
 11
-87.1615285603
 21
-43.5882581474
  0
LINE
  5
33B
100
AcDbEntity
  8
RACCORDO
100
AcDbLine
 62
250
  6
CONTINUOUS
 10
-87.3328224508
 20
-43.6610922329
 11
-87.3326373127
 21
-43.6447186726
  0
LINE
  5
33C
100
AcDbEntity
  8
RACCORDO
100
AcDbLine
 62
250
  6
CONTINUOUS
 10
-87.1613729102
 20
-43.5793063622
 11
-87.1612729226
 21
-43.5716348741
  0
LINE
  5
33D
100
AcDbEntity
  8
RACCORDO
100
AcDbLine
 62
250
  6
CONTINUOUS
 10
-87.3329610254
 20
-43.6696536797
 11
-87.3328224508
 21
-43.6610922329
  0
LINE
  5
33E
100
AcDbEntity
  8
RACCORDO
100
AcDbLine
 62
250
  6
CONTINUOUS
 10
-87.1615465042
 20
-43.5895139143
 11
-87.1615447192
 21
-43.5894204594
  0
LINE
  5
33F
100
AcDbEntity
  8
RACCORDO
100
AcDbLine
 62
250
  6
CONTINUOUS
 10
-87.1615065876
 20
-43.5867214081
 11
-87.1613729102
 21
-43.5793063622
  0
LINE
  5
340
100
AcDbEntity
  8
RACCORDO
100
AcDbLine
 62
250
  6
CONTINUOUS
 10
-87.3331060906
 20
-43.6765364024
 11
-87.3329610254
 21
-43.6696536797
  0
LINE
  5
341
100
AcDbEntity
  8
RACCORDO
100
AcDbLine
 62
250
  6
CONTINUOUS
 10
-87.333248579
 20
-43.6819570857
 11
-87.3331060906
 21
-43.6765364024
  0
LWPOLYLINE
  5
342
100
AcDbEntity
  8
RACCORDO
100
AcDbPolyline
 62
250
  6
CONTINUOUS
 90
3
 70
0
 10
-87.3334443994
 20
-43.6878165335
 10
-87.3333832775
 20
-43.6861286135
 10
-87.333248579
 20
-43.6819570857
  0
LINE
  5
343
100
AcDbEntity
  8
RACCORDO
100
AcDbLine
 62
250
  6
CONTINUOUS
 10
-87.3335546407
 20
-43.6904857702
 11
-87.3335017573
 21
-43.6892619669
  0
LWPOLYLINE
  5
344
100
AcDbEntity
  8
RACCORDO
100
AcDbPolyline
 62
250
  6
CONTINUOUS
 90
7
 70
0
 10
-82.8383535279
 20
16.6020069893
 10
-82.8382095728
 20
16.6031078804
 10
-82.8381436379
 20
16.6063857732
 10
-82.8381564454
 20
16.6118047685
 10
-82.8382478549
 20
16.6193055175
 10
-82.8384168654
 20
16.6288058723
 10
-82.8389794555
 20
16.653368449
  0
LINE
  5
345
100
AcDbEntity
  8
RACCORDO
100
AcDbLine
 62
7
  6
CONTINUOUS
 10
-81.274930906
 20
19.9873283758
 11
-81.2681321795
 21
20.0127015685
  0
LINE
  5
346
100
AcDbEntity
  8
RACCORDO
100
AcDbLine
 62
250
  6
CONTINUOUS
 10
-80.9408192673
 20
18.987323359
 11
-80.9328352046
 21
19.0126455708
  0
LINE
  5
347
100
AcDbEntity
  8
RACCORDO
100
AcDbLine
 62
250
  6
CONTINUOUS
 10
-80.3672536527
 20
18.806517235
 11
-80.3592916261
 21
18.8317695573
  0
LWPOLYLINE
  5
348
100
AcDbEntity
  8
RACCORDO
100
AcDbPolyline
 62
7
  6
CONTINUOUS
 90
10
 70
0
 10
-79.3948160996
 20
20.9694406488
 10
-79.4048524218
 20
20.9407701928
 10
-79.4166808183
 20
20.9126092362
 10
-79.4302979648
 20
20.8850513335
 10
-79.4459261895
 20
20.8578240976
 10
-79.4636854155
 20
20.8309909625
 10
-79.4835466971
 20
20.8048467723
 10
-79.5055771257
 20
20.7795284506
 10
-79.5298058391
 20
20.7552295689
 10
-79.5562092756
 20
20.7321894381
  0
LINE
  5
349
100
AcDbEntity
  8
RACCORDO
100
AcDbLine
 62
250
  6
CONTINUOUS
 10
-86.9500577047
 20
0.0
 11
-87.3338487401
 21
0.0
  0
LWPOLYLINE
  5
34A
100
AcDbEntity
  8
RACCORDO
100
AcDbPolyline
 62
7
  6
CONTINUOUS
 90
8
 70
0
 10
-79.3968340124
 20
-20.9632035002
 10
-79.4108695475
 20
-20.925844011
 10
-79.4278563906
 20
-20.8896907757
 10
-79.447704361
 20
-20.8549615015
 10
-79.4702862839
 20
-20.8219008265
 10
-79.4954507938
 20
-20.7907412879
 10
-79.5230342929
 20
-20.7616899417
 10
-79.5528665128
 20
-20.7349301663
  0
LINE
  5
34B
100
AcDbEntity
  8
RACCORDO
100
AcDbLine
 62
250
  6
CONTINUOUS
 10
-80.9408192673
 20
-18.987323359
 11
-80.9328352046
 21
-19.0126455708
  0
LINE
  5
34C
100
AcDbEntity
  8
RACCORDO
100
AcDbLine
 62
250
  6
CONTINUOUS
 10
-80.3672536527
 20
-18.806517235
 11
-80.3592916261
 21
-18.8317695573
  0
LINE
  5
34D
100
AcDbEntity
  8
RACCORDO
100
AcDbLine
 62
7
  6
CONTINUOUS
 10
-81.274930906
 20
-19.9873283758
 11
-81.2681321795
 21
-20.0127015685
  0
LWPOLYLINE
  5
34E
100
AcDbEntity
  8
RACCORDO
100
AcDbPolyline
 62
250
  6
CONTINUOUS
 90
7
 70
0
 10
-83.0538340352
 20
16.5707638026
 10
-83.053936834
 20
16.5718657411
 10
-83.0545856289
 20
16.5750711933
 10
-83.0557733314
 20
16.5803451372
 10
-83.0574869648
 20
16.5876299509
 10
-83.0597078064
 20
16.5968460421
 10
-83.06556878
 20
16.6206492847
  0
LINE
  5
34F
100
AcDbEntity
  8
RACCORDO
100
AcDbLine
 62
250
  6
CONTINUOUS
 10
-82.8403327879
 20
-22.2980363598
 11
-82.8435881201
 21
-22.1981148453
  0
LINE
  5
350
100
AcDbEntity
  8
RACCORDO
100
AcDbLine
 62
250
  6
CONTINUOUS
 10
-82.8403327879
 20
16.7019636402
 11
-82.8435881201
 21
16.8018851547
  0
LINE
  5
351
100
AcDbEntity
  8
RACCORDO
100
AcDbLine
 62
250
  6
CONTINUOUS
 10
-82.8389794555
 20
-22.346631551
 11
-82.8403327879
 21
-22.2980363598
  0
LINE
  5
352
100
AcDbEntity
  8
RACCORDO
100
AcDbLine
 62
250
  6
CONTINUOUS
 10
-82.8389794555
 20
16.653368449
 11
-82.8403327879
 21
16.7019636402
  0
LINE
  5
353
100
AcDbEntity
  8
RACCORDO
100
AcDbLine
 62
250
  6
CONTINUOUS
 10
-84.2671744147
 20
43.1223951458
 11
-84.2668817056
 21
43.0847566747
  0
LINE
  5
354
100
AcDbEntity
  8
RACCORDO
100
AcDbLine
 62
250
  6
CONTINUOUS
 10
-84.2668817056
 20
43.0847566747
 11
-84.2666892615
 21
43.0331116291
  0
LINE
  5
355
100
AcDbEntity
  8
RACCORDO
100
AcDbLine
 62
7
  6
CONTINUOUS
 10
-84.0715355545
 20
-42.9532157563
 11
-84.0715355545
 21
42.9532157563
  0
LWPOLYLINE
  5
356
100
AcDbEntity
  8
RACCORDO
100
AcDbPolyline
 62
250
  6
CONTINUOUS
 90
7
 70
0
 10
-84.2666797207
 20
-43.0288841347
 10
-84.2669991615
 20
-43.1031882071
 10
-84.2671581211
 20
-43.1209650845
 10
-84.2673451119
 20
-43.1349535384
 10
-84.2675584984
 20
-43.1450383218
 10
-84.267793181
 20
-43.1511379724
 10
-84.2680450273
 20
-43.1531852946
  0
LWPOLYLINE
  5
357
100
AcDbEntity
  8
RACCORDO
100
AcDbPolyline
 62
250
  6
CONTINUOUS
 90
5
 70
0
 10
-82.8382478536
 20
22.3806945684
 10
-82.838156445
 20
22.3881952827
 10
-82.8381436381
 20
22.3936142509
 10
-82.8382095731
 20
22.396892126
 10
-82.8383535279
 20
22.3979930107
  0
LWPOLYLINE
  5
358
100
AcDbEntity
  8
RACCORDO
100
AcDbPolyline
 62
250
  6
CONTINUOUS
 90
5
 70
0
 10
-82.8382478536
 20
-16.6193054316
 10
-82.838156445
 20
-16.6118047173
 10
-82.8381436381
 20
-16.6063857491
 10
-82.8382095731
 20
-16.603107874
 10
-82.8383535279
 20
-16.6020069893
  0
LINE
  5
359
100
AcDbEntity
  8
RACCORDO
100
AcDbLine
 62
250
  6
CONTINUOUS
 10
-82.838661622
 20
22.3597983796
 11
-82.8382478536
 21
22.3806945684
  0
LINE
  5
35A
100
AcDbEntity
  8
RACCORDO
100
AcDbLine
 62
250
  6
CONTINUOUS
 10
-82.838661622
 20
-16.6402016204
 11
-82.8382478536
 21
-16.6193054316
  0
LINE
  5
35B
100
AcDbEntity
  8
RACCORDO
100
AcDbLine
 62
250
  6
CONTINUOUS
 10
-82.8398196303
 20
22.3155808382
 11
-82.838661622
 21
22.3597983796
  0
LINE
  5
35C
100
AcDbEntity
  8
RACCORDO
100
AcDbLine
 62
250
  6
CONTINUOUS
 10
-82.8398196303
 20
-16.6844191618
 11
-82.838661622
 21
-16.6402016204
  0
LWPOLYLINE
  5
35D
100
AcDbEntity
  8
RACCORDO
100
AcDbPolyline
 62
250
  6
CONTINUOUS
 90
3
 70
0
 10
-82.8435881201
 20
22.1981148453
 10
-82.8428682727
 20
22.2190038554
 10
-82.8398196303
 20
22.3155808382
  0
LWPOLYLINE
  5
35E
100
AcDbEntity
  8
RACCORDO
100
AcDbPolyline
 62
250
  6
CONTINUOUS
 90
3
 70
0
 10
-82.8435881201
 20
-16.8018851547
 10
-82.8428682727
 20
-16.7809961446
 10
-82.8398196303
 20
-16.6844191618
  0
LWPOLYLINE
  5
35F
100
AcDbEntity
  8
RACCORDO
100
AcDbPolyline
 62
250
  6
CONTINUOUS
 90
7
 70
0
 10
-79.6610657055
 20
16.7129603249
 10
-79.6609217504
 20
16.714061216
 10
-79.6608558156
 20
16.7173391089
 10
-79.660868623
 20
16.7227581042
 10
-79.6609600325
 20
16.7302588532
 10
-79.661129043
 20
16.739759208
 10
-79.6616916331
 20
16.7643217849
  0
LWPOLYLINE
  5
360
100
AcDbEntity
  8
RACCORDO
100
AcDbPolyline
 62
7
  6
CONTINUOUS
 90
4
 70
0
 10
-79.3753663771
 20
21.0584608652
 10
-79.3800894516
 20
21.0281443772
 10
-79.3865865117
 20
20.9984789517
 10
-79.3948160996
 20
20.9694406488
  0
LWPOLYLINE
  5
361
100
AcDbEntity
  8
RACCORDO
100
AcDbPolyline
 62
250
  6
CONTINUOUS
 90
6
 70
0
 10
-80.9408192673
 20
-20.012676641
 10
-80.9406378345
 20
-20.0139415442
 10
-80.9404583676
 20
-20.0173597017
 10
-80.9402828112
 20
-20.0228940682
 10
-80.9401130675
 20
-20.0304846717
 10
-80.9399509756
 20
-20.040049257
  0
LWPOLYLINE
  5
362
100
AcDbEntity
  8
RACCORDO
100
AcDbPolyline
 62
7
  6
CONTINUOUS
 90
4
 70
0
 10
-79.373129886
 20
-21.0803389557
 10
-79.3779023737
 20
-21.0406975496
 10
-79.3858220795
 20
-21.00156525
 10
-79.3968340124
 20
-20.9632035002
  0
LWPOLYLINE
  5
363
100
AcDbEntity
  8
RACCORDO
100
AcDbPolyline
 62
250
  6
CONTINUOUS
 90
19
 70
0
 10
-79.5697902474
 20
-17.012777573
 10
-79.5702187423
 20
-17.0040540228
 10
-79.5713119038
 20
-16.9955874752
 10
-79.5730697318
 20
-16.9873779302
 10
-79.5755117128
 20
-16.9794016738
 10
-79.5786183603
 20
-16.9716824201
 10
-79.5823312151
 20
-16.9642913104
 10
-79.5866634318
 20
-16.9572045541
 10
-79.5916018559
 20
-16.9504459418
 10
-79.5970485645
 20
-16.9441579872
 10
-79.6029839322
 20
-16.9383598963
 10
-79.6094275844
 20
-16.9330324629
 10
-79.6163404747
 20
-16.9282605819
 10
-79.6237574923
 20
-16.9240217068
 10
-79.6316437481
 20
-16.9203383841
 10
-79.6398555279
 20
-16.9173631477
 10
-79.6483449271
 20
-16.9151468422
 10
-79.6571598504
 20
-16.9136386231
 10
-79.6663002978
 20
-16.9128384903
  0
LWPOLYLINE
  5
364
100
AcDbEntity
  8
RACCORDO
100
AcDbPolyline
 62
250
  6
CONTINUOUS
 90
19
 70
0
 10
-79.5697902474
 20
21.987222427
 10
-79.5702187423
 20
21.9959459772
 10
-79.5713119038
 20
22.0044125248
 10
-79.5730697318
 20
22.0126220698
 10
-79.5755117128
 20
22.0205983262
 10
-79.5786183603
 20
22.0283175799
 10
-79.5823312151
 20
22.0357086896
 10
-79.5866634318
 20
22.0427954459
 10
-79.5916018559
 20
22.0495540582
 10
-79.5970485645
 20
22.0558420128
 10
-79.6029839322
 20
22.0616401037
 10
-79.6094275844
 20
22.0669675371
 10
-79.6163404747
 20
22.0717394181
 10
-79.6237574923
 20
22.0759782932
 10
-79.6316437481
 20
22.0796616159
 10
-79.6398555279
 20
22.0826368523
 10
-79.6483449271
 20
22.0848531578
 10
-79.6571598504
 20
22.0863613769
 10
-79.6663002978
 20
22.0871615097
  0
LINE
  5
365
100
AcDbEntity
  8
RACCORDO
100
AcDbLine
 62
7
  6
CONTINUOUS
 10
-79.3715355545
 20
-21.1508956135
 11
-79.373129886
 21
-21.0803389557
  0
LINE
  5
366
100
AcDbEntity
  8
RACCORDO
100
AcDbLine
 62
7
  6
CONTINUOUS
 10
-79.373129886
 20
17.9196610443
 11
-79.3715355545
 21
17.8491043865
  0
LINE
  5
367
100
AcDbEntity
  8
RACCORDO
100
AcDbLine
 62
250
  6
CONTINUOUS
 10
-79.6630449655
 20
-22.1870830239
 11
-79.6663002978
 21
-22.0871615097
  0
LINE
  5
368
100
AcDbEntity
  8
RACCORDO
100
AcDbLine
 62
250
  6
CONTINUOUS
 10
-79.6630449655
 20
16.8129169761
 11
-79.6663002978
 21
16.9128384903
  0
LINE
  5
369
100
AcDbEntity
  8
RACCORDO
100
AcDbLine
 62
250
  6
CONTINUOUS
 10
-79.6616916331
 20
-22.2356782151
 11
-79.6630449655
 21
-22.1870830239
  0
LINE
  5
36A
100
AcDbEntity
  8
RACCORDO
100
AcDbLine
 62
250
  6
CONTINUOUS
 10
-79.6616916331
 20
16.7643217849
 11
-79.6630449655
 21
16.8129169761
  0
LINE
  5
36B
100
AcDbEntity
  8
RACCORDO
100
AcDbLine
 62
250
  6
CONTINUOUS
 10
-80.9401130675
 20
18.9695153283
 11
-80.9397982919
 21
18.948515829
  0
LINE
  5
36C
100
AcDbEntity
  8
RACCORDO
100
AcDbLine
 62
250
  6
CONTINUOUS
 10
-80.9399509756
 20
-20.040049257
 11
-80.9396566709
 21
-20.064665502
  0
LINE
  5
36D
100
AcDbEntity
  8
RACCORDO
100
AcDbLine
 62
250
  6
CONTINUOUS
 10
-80.9397982919
 20
18.948515829
 11
-80.9394126176
 21
18.904321295
  0
LINE
  5
36E
100
AcDbEntity
  8
RACCORDO
100
AcDbLine
 62
250
  6
CONTINUOUS
 10
-80.9396566709
 20
-20.064665502
 11
-80.9392293635
 21
-20.131748273
  0
LWPOLYLINE
  5
36F
100
AcDbEntity
  8
RACCORDO
100
AcDbPolyline
 62
250
  6
CONTINUOUS
 90
3
 70
0
 10
-80.9394126176
 20
18.904321295
 10
-80.9390849992
 20
18.808120519
 10
-80.9390739602
 20
18.7873309744
  0
LINE
  5
370
100
AcDbEntity
  8
RACCORDO
100
AcDbLine
 62
250
  6
CONTINUOUS
 10
-80.9392293635
 20
-20.131748273
 11
-80.9390739602
 21
-20.2126690256
  0
LINE
  5
371
100
AcDbEntity
  8
RACCORDO
100
AcDbLine
 62
250
  6
CONTINUOUS
 10
-79.5847582564
 20
20.7413191899
 11
-79.5847582564
 21
20.7106365567
  0
LINE
  5
372
100
AcDbEntity
  8
RACCORDO
100
AcDbLine
 62
250
  6
CONTINUOUS
 10
-79.5847582564
 20
-18.2586808101
 11
-79.5847582564
 21
-18.2893634433
  0
LINE
  5
373
100
AcDbEntity
  8
RACCORDO
100
AcDbLine
 62
250
  6
CONTINUOUS
 10
-79.5847582564
 20
-20.7413191899
 11
-79.5847582564
 21
-20.7106365567
  0
LINE
  5
374
100
AcDbEntity
  8
RACCORDO
100
AcDbLine
 62
250
  6
CONTINUOUS
 10
-79.5847582564
 20
18.2586808101
 11
-79.5847582564
 21
18.2893634433
  0
LINE
  5
375
100
AcDbEntity
  8
RACCORDO
100
AcDbLine
 62
250
  6
CONTINUOUS
 10
-79.5697902474
 20
17.849104387
 11
-79.5697902474
 21
17.012777573
  0
LINE
  5
376
100
AcDbEntity
  8
RACCORDO
100
AcDbLine
 62
250
  6
CONTINUOUS
 10
-79.5697902474
 20
-21.150895613
 11
-79.5697902474
 21
-21.987222427
  0
LINE
  5
377
100
AcDbEntity
  8
RACCORDO
100
AcDbLine
 62
250
  6
CONTINUOUS
 10
-79.5697902474
 20
-17.849104387
 11
-79.5697902474
 21
-17.012777573
  0
LINE
  5
378
100
AcDbEntity
  8
RACCORDO
100
AcDbLine
 62
250
  6
CONTINUOUS
 10
-79.5697902474
 20
21.150895613
 11
-79.5697902474
 21
21.987222427
  0
LINE
  5
379
100
AcDbEntity
  8
RACCORDO
100
AcDbLine
 62
7
  6
CONTINUOUS
 10
-79.3715355545
 20
-21.1202367682
 11
-79.3715355545
 21
-21.987222427
  0
LINE
  5
37A
100
AcDbEntity
  8
RACCORDO
100
AcDbLine
 62
7
  6
CONTINUOUS
 10
-79.3715355545
 20
-17.8797632318
 11
-79.3715355545
 21
-17.012777573
  0
LINE
  5
37B
100
AcDbEntity
  8
RACCORDO
100
AcDbLine
 62
7
  6
CONTINUOUS
 10
-79.3715355545
 20
17.012777573
 11
-79.3715355545
 21
17.8797632318
  0
LINE
  5
37C
100
AcDbEntity
  8
RACCORDO
100
AcDbLine
 62
7
  6
CONTINUOUS
 10
-79.3715355545
 20
21.1202367682
 11
-79.3715355545
 21
21.987222427
  0
LINE
  5
37D
100
AcDbEntity
  8
RACCORDO
100
AcDbLine
 62
250
  6
CONTINUOUS
 10
-80.9390739602
 20
20.2126690256
 11
-80.9393128307
 21
20.1131748046
  0
LINE
  5
37E
100
AcDbEntity
  8
RACCORDO
100
AcDbLine
 62
250
  6
CONTINUOUS
 10
-80.9390739602
 20
-18.7873309744
 11
-80.9393128307
 21
-18.8868251954
  0
LINE
  5
37F
100
AcDbEntity
  8
RACCORDO
100
AcDbLine
 62
250
  6
CONTINUOUS
 10
-80.9393128307
 20
20.1131748046
 11
-80.9396566715
 21
20.0646657354
  0
LINE
  5
380
100
AcDbEntity
  8
RACCORDO
100
AcDbLine
 62
250
  6
CONTINUOUS
 10
-80.9393128307
 20
-18.8868251954
 11
-80.9396566715
 21
-18.9353342646
  0
LWPOLYLINE
  5
381
100
AcDbEntity
  8
RACCORDO
100
AcDbPolyline
 62
250
  6
CONTINUOUS
 90
5
 70
0
 10
-79.6609600325
 20
22.2697411468
 10
-79.660868623
 20
22.2772418958
 10
-79.6608558156
 20
22.2826608911
 10
-79.6609217504
 20
22.285938784
 10
-79.6610657055
 20
22.2870396751
  0
LWPOLYLINE
  5
382
100
AcDbEntity
  8
RACCORDO
100
AcDbPolyline
 62
250
  6
CONTINUOUS
 90
5
 70
0
 10
-79.6609600325
 20
-16.7302588532
 10
-79.660868623
 20
-16.7227581042
 10
-79.6608558156
 20
-16.7173391089
 10
-79.6609217504
 20
-16.714061216
 10
-79.6610657055
 20
-16.7129603249
  0
LWPOLYLINE
  5
383
100
AcDbEntity
  8
RACCORDO
100
AcDbPolyline
 62
250
  6
CONTINUOUS
 90
7
 70
0
 10
-80.9396566715
 20
20.0646657354
 10
-80.9399509758
 20
20.0400494041
 10
-80.9401130675
 20
20.0304847733
 10
-80.9402828112
 20
20.0228941295
 10
-80.9404583675
 20
20.0173597311
 10
-80.9406378343
 20
20.0139415523
 10
-80.9408192671
 20
20.012676641
  0
LWPOLYLINE
  5
384
100
AcDbEntity
  8
RACCORDO
100
AcDbPolyline
 62
250
  6
CONTINUOUS
 90
7
 70
0
 10
-80.9396566715
 20
-18.9353342646
 10
-80.9399509758
 20
-18.9599505959
 10
-80.9401130675
 20
-18.9695152267
 10
-80.9402828112
 20
-18.9771058705
 10
-80.9404583675
 20
-18.9826402689
 10
-80.9406378343
 20
-18.9860584477
 10
-80.9408192671
 20
-18.987323359
  0
LINE
  5
385
100
AcDbEntity
  8
RACCORDO
100
AcDbLine
 62
250
  6
CONTINUOUS
 10
-79.6613738034
 20
22.2488448789
 11
-79.6609600325
 21
22.2697411468
  0
LINE
  5
386
100
AcDbEntity
  8
RACCORDO
100
AcDbLine
 62
250
  6
CONTINUOUS
 10
-79.6613738034
 20
-16.7511551211
 11
-79.6609600325
 21
-16.7302588532
  0
LINE
  5
387
100
AcDbEntity
  8
RACCORDO
100
AcDbLine
 62
250
  6
CONTINUOUS
 10
-79.662531815
 20
22.2046272531
 11
-79.6613738034
 21
22.2488448789
  0
LINE
  5
388
100
AcDbEntity
  8
RACCORDO
100
AcDbLine
 62
250
  6
CONTINUOUS
 10
-79.662531815
 20
-16.7953727469
 11
-79.6613738034
 21
-16.7511551211
  0
LWPOLYLINE
  5
389
100
AcDbEntity
  8
RACCORDO
100
AcDbPolyline
 62
7
  6
CONTINUOUS
 90
3
 70
0
 10
-79.3715355545
 20
21.1202367682
 10
-79.3724999685
 20
21.0891963072
 10
-79.3753663771
 20
21.0584608652
  0
LWPOLYLINE
  5
38A
100
AcDbEntity
  8
RACCORDO
100
AcDbPolyline
 62
7
  6
CONTINUOUS
 90
3
 70
0
 10
-79.3715355545
 20
-17.8797632318
 10
-79.3724999685
 20
-17.9108036928
 10
-79.3753663771
 20
-17.9415391348
  0
LWPOLYLINE
  5
38B
100
AcDbEntity
  8
RACCORDO
100
AcDbPolyline
 62
250
  6
CONTINUOUS
 90
3
 70
0
 10
-79.6663002978
 20
22.0871615097
 10
-79.6655804533
 20
22.1080504321
 10
-79.662531815
 20
22.2046272531
  0
LWPOLYLINE
  5
38C
100
AcDbEntity
  8
RACCORDO
100
AcDbPolyline
 62
250
  6
CONTINUOUS
 90
3
 70
0
 10
-79.6663002978
 20
-16.9128384903
 10
-79.6655804533
 20
-16.8919495679
 10
-79.662531815
 20
-16.7953727469
  0
LWPOLYLINE
  5
38D
100
AcDbEntity
  8
RACCORDO
100
AcDbPolyline
 62
250
  6
CONTINUOUS
 90
19
 70
0
 10
-79.5697902474
 20
17.012777573
 10
-79.5702697611
 20
17.0038615801
 10
-79.5713934034
 20
16.9952798022
 10
-79.5731611742
 20
16.9870322393
 10
-79.5755922711
 20
16.9791232424
 10
-79.5786674966
 20
16.9715484605
 10
-79.5823292578
 20
16.964294841
 10
-79.5865920685
 20
16.9573118345
 10
-79.591441415
 20
16.9506499904
 10
-79.5967761635
 20
16.9444479048
 10
-79.6025531344
 20
16.9387348103
 10
-79.6088155074
 20
16.9334814744
 10
-79.615591688
 20
16.9287387953
 10
-79.6229205985
 20
16.9244596587
 10
-79.6307633166
 20
16.920691179
 10
-79.6390314817
 20
16.9176255981
 10
-79.6476956401
 20
16.9153269967
 10
-79.6567852455
 20
16.9137312941
 10
-79.6663002978
 20
16.9128384903
  0
LWPOLYLINE
  5
38E
100
AcDbEntity
  8
RACCORDO
100
AcDbPolyline
 62
250
  6
CONTINUOUS
 90
19
 70
0
 10
-79.5697902474
 20
-21.987222427
 10
-79.5702697611
 20
-21.9961384199
 10
-79.5713934034
 20
-22.0047201978
 10
-79.5731611742
 20
-22.0129677607
 10
-79.5755922711
 20
-22.0208767576
 10
-79.5786674966
 20
-22.0284515395
 10
-79.5823292578
 20
-22.035705159
 10
-79.5865920685
 20
-22.0426881655
 10
-79.591441415
 20
-22.0493500096
 10
-79.5967761635
 20
-22.0555520952
 10
-79.6025531344
 20
-22.0612651897
 10
-79.6088155074
 20
-22.0665185256
 10
-79.615591688
 20
-22.0712612047
 10
-79.6229205985
 20
-22.0755403413
 10
-79.6307633166
 20
-22.079308821
 10
-79.6390314817
 20
-22.0823744019
 10
-79.6476956401
 20
-22.0846730033
 10
-79.6567852455
 20
-22.0862687059
 10
-79.6663002978
 20
-22.0871615097
  0
LWPOLYLINE
  5
38F
100
AcDbEntity
  8
RACCORDO
100
AcDbPolyline
 62
250
  6
CONTINUOUS
 90
7
 70
0
 10
-82.8383535279
 20
-22.3979930107
 10
-82.8382095728
 20
-22.3968921196
 10
-82.8381436379
 20
-22.3936142268
 10
-82.8381564454
 20
-22.3881952315
 10
-82.8382478549
 20
-22.3806944825
 10
-82.8384168654
 20
-22.3711941277
 10
-82.8389794555
 20
-22.346631551
  0
LWPOLYLINE
  5
390
100
AcDbEntity
  8
RACCORDO
100
AcDbPolyline
 62
250
  6
CONTINUOUS
 90
5
 70
0
 10
-83.0574869648
 20
-16.5876299509
 10
-83.0557733314
 20
-16.5803451372
 10
-83.0545856289
 20
-16.5750711933
 10
-83.053936834
 20
-16.5718657411
 10
-83.0538340352
 20
-16.5707638026
  0
LINE
  5
391
100
AcDbEntity
  8
RACCORDO
100
AcDbLine
 62
250
  6
CONTINUOUS
 10
-83.0624115918
 20
-16.6078927179
 11
-83.0574869648
 21
-16.5876299509
  0
LINE
  5
392
100
AcDbEntity
  8
RACCORDO
100
AcDbLine
 62
250
  6
CONTINUOUS
 10
-83.073100809
 20
-16.6507174305
 11
-83.0624115918
 21
-16.6078927179
  0
LWPOLYLINE
  5
393
100
AcDbEntity
  8
RACCORDO
100
AcDbPolyline
 62
250
  6
CONTINUOUS
 90
3
 70
0
 10
-83.1021647289
 20
-16.7643933307
 10
-83.0969475359
 20
-16.7441815359
 10
-83.073100809
 20
-16.6507174305
  0
LINE
  5
394
100
AcDbEntity
  8
RACCORDO
100
AcDbLine
 62
250
  6
CONTINUOUS
 10
-83.0773933564
 20
16.6677004917
 11
-83.1021647289
 21
16.7643933307
  0
LINE
  5
395
100
AcDbEntity
  8
RACCORDO
100
AcDbLine
 62
250
  6
CONTINUOUS
 10
-83.06556878
 20
16.6206492847
 11
-83.0773933564
 21
16.6677004917
  0
LWPOLYLINE
  5
396
100
AcDbEntity
  8
RACCORDO
100
AcDbPolyline
 62
250
  6
CONTINUOUS
 90
5
 70
0
 10
-80.9408192673
 20
18.987323359
 10
-80.9406378345
 20
18.9860584558
 10
-80.9404583676
 20
18.9826402983
 10
-80.9402828112
 20
18.9771059318
 10
-80.9401130675
 20
18.9695153283
  0
LWPOLYLINE
  5
397
100
AcDbEntity
  8
RACCORDO
100
AcDbPolyline
 62
250
  6
CONTINUOUS
 90
5
 70
0
 10
-84.2680450732
 20
43.1531852954
 10
-84.2677990353
 20
43.1512336633
 10
-84.2675688977
 20
43.1454114259
 10
-84.2673587331
 20
43.135770237
 10
-84.2671744147
 20
43.1223951458
  0
LWPOLYLINE
  5
398
100
AcDbEntity
  8
RACCORDO
100
AcDbPolyline
 62
250
  6
CONTINUOUS
 90
7
 70
0
 10
-79.6610657055
 20
-22.2870396751
 10
-79.6609217504
 20
-22.285938784
 10
-79.6608558156
 20
-22.2826608911
 10
-79.660868623
 20
-22.2772418958
 10
-79.6609600325
 20
-22.2697411468
 10
-79.661129043
 20
-22.260240792
 10
-79.6616916331
 20
-22.2356782151
  0
LWPOLYLINE
  5
399
100
AcDbEntity
  8
RACCORDO
100
AcDbPolyline
 62
7
  6
CONTINUOUS
 90
4
 70
0
 10
-79.3753663771
 20
-17.9415391348
 10
-79.3800894516
 20
-17.9718556228
 10
-79.3865865117
 20
-18.0015210483
 10
-79.3948160996
 20
-18.0305593512
  0
LWPOLYLINE
  5
39A
100
AcDbEntity
  8
RACCORDO
100
AcDbPolyline
 62
250
  6
CONTINUOUS
 90
6
 70
0
 10
-87.333816823
 20
-43.6940353355
 10
-87.3337731267
 20
-43.6938300289
 10
-87.3337294301
 20
-43.6934823774
 10
-87.3336857333
 20
-43.6929834047
 10
-87.3336435274
 20
-43.6923266692
 10
-87.3336013213
 20
-43.6915011965
  0
LINE
  5
39B
100
AcDbEntity
  8
RACCORDO
100
AcDbLine
 62
7
  6
CONTINUOUS
 10
-81.274930906
 20
-19.0126716242
 11
-81.2681321795
 21
-18.9872984315
  0
LINE
  5
39C
100
AcDbEntity
  8
RACCORDO
100
AcDbLine
 62
250
  6
CONTINUOUS
 10
-82.8591488725
 20
-18.1880883166
 11
-82.8496100373
 21
-18.1599878142
  0
LINE
  5
39D
100
AcDbEntity
  8
RACCORDO
100
AcDbLine
 62
250
  6
CONTINUOUS
 10
-82.4896799113
 20
-18.3134758318
 11
-82.4801595194
 21
-18.2854296617
  0
LINE
  5
39E
100
AcDbEntity
  8
RACCORDO
100
AcDbLine
 62
250
  6
CONTINUOUS
 10
-82.8591488725
 20
18.1880883166
 11
-82.8496100373
 21
18.1599878142
  0
LINE
  5
39F
100
AcDbEntity
  8
RACCORDO
100
AcDbLine
 62
250
  6
CONTINUOUS
 10
-82.4896799113
 20
18.3134758318
 11
-82.4801595194
 21
18.2854296617
  0
LINE
  5
3A0
100
AcDbEntity
  8
RACCORDO
100
AcDbLine
 62
7
  6
CONTINUOUS
 10
-81.274930906
 20
19.0126716242
 11
-81.2681321795
 21
18.9872984315
  0
LWPOLYLINE
  5
3A1
100
AcDbEntity
  8
RACCORDO
100
AcDbPolyline
 62
7
  6
CONTINUOUS
 90
4
 70
0
 10
-79.373129886
 20
17.9196610443
 10
-79.3779023737
 20
17.9593024504
 10
-79.3858220795
 20
17.99843475
 10
-79.3968340124
 20
18.0367964998
  0
LINE
  5
3A2
100
AcDbEntity
  8
RACCORDO
100
AcDbLine
 62
250
  6
CONTINUOUS
 10
-80.9408192673
 20
-20.012676641
 11
-80.9328352046
 21
-19.9873544292
  0
LINE
  5
3A3
100
AcDbEntity
  8
RACCORDO
100
AcDbLine
 62
250
  6
CONTINUOUS
 10
-80.3672536527
 20
-20.193482765
 11
-80.3592916261
 21
-20.1682304427
  0
LWPOLYLINE
  5
3A4
100
AcDbEntity
  8
RACCORDO
100
AcDbPolyline
 62
7
  6
CONTINUOUS
 90
10
 70
0
 10
-79.3948160996
 20
-18.0305593512
 10
-79.4048524218
 20
-18.0592298072
 10
-79.4166808183
 20
-18.0873907638
 10
-79.4302979648
 20
-18.1149486665
 10
-79.4459261895
 20
-18.1421759024
 10
-79.4636854155
 20
-18.1690090375
 10
-79.4835466971
 20
-18.1951532277
 10
-79.5055771257
 20
-18.2204715494
 10
-79.5298058391
 20
-18.2447704311
 10
-79.5562092756
 20
-18.2678105619
  0
LWPOLYLINE
  5
3A5
100
AcDbEntity
  8
RACCORDO
100
AcDbPolyline
 62
7
  6
CONTINUOUS
 90
8
 70
0
 10
-79.3968340124
 20
18.0367964998
 10
-79.4108695475
 20
18.074155989
 10
-79.4278563906
 20
18.1103092243
 10
-79.447704361
 20
18.1450384985
 10
-79.4702862839
 20
18.1780991735
 10
-79.4954507938
 20
18.2092587121
 10
-79.5230342929
 20
18.2383100583
 10
-79.5528665128
 20
18.2650698337
  0
LINE
  5
3A6
100
AcDbEntity
  8
RACCORDO
100
AcDbLine
 62
250
  6
CONTINUOUS
 10
-80.9408192673
 20
20.012676641
 11
-80.9328352046
 21
19.9873544292
  0
LINE
  5
3A7
100
AcDbEntity
  8
RACCORDO
100
AcDbLine
 62
250
  6
CONTINUOUS
 10
-80.3672536527
 20
20.193482765
 11
-80.3592916261
 21
20.1682304427
  0
LINE
  5
3A8
100
AcDbEntity
  8
RACCORDO
100
AcDbLine
 62
250
  6
CONTINUOUS
 10
-87.3338477859
 20
-43.6941057664
 11
-87.333816823
 21
-43.6940353355
  0
LWPOLYLINE
  5
3A9
100
AcDbEntity
  8
RACCORDO
100
AcDbPolyline
 62
250
  6
CONTINUOUS
 90
5
 70
0
 10
-80.3672536527
 20
-20.193482765
 10
-80.3678534877
 20
-20.1945977161
 10
-80.3696818039
 20
-20.1974643396
 10
-80.3727189183
 20
-20.2020517743
 10
-80.3769321345
 20
-20.2083106335
  0
LWPOLYLINE
  5
3AA
100
AcDbEntity
  8
RACCORDO
100
AcDbPolyline
 62
250
  6
CONTINUOUS
 90
5
 70
0
 10
-79.5847582564
 20
-20.7413191899
 10
-79.5853581192
 20
-20.7424341834
 10
-79.5871865105
 20
-20.745300916
 10
-79.5902237372
 20
-20.7498885124
 10
-79.5944370939
 20
-20.7561475729
  0
LWPOLYLINE
  5
3AB
100
AcDbEntity
  8
RACCORDO
100
AcDbPolyline
 62
7
  6
CONTINUOUS
 90
10
 70
0
 10
-79.454280411
 20
-18.1245990779
 10
-79.4415436739
 20
-18.1042640784
 10
-79.4265107817
 20
-18.0770358118
 10
-79.4129295509
 20
-18.0483040713
 10
-79.4009270375
 20
-18.0180058855
 10
-79.3907373463
 20
-17.9863385521
 10
-79.3825502928
 20
-17.953476476
 10
-79.37652529
 20
-17.9195665171
 10
-79.3728058451
 20
-17.8847232139
 10
-79.3715355545
 20
-17.849104387
  0
LINE
  5
3AC
100
AcDbEntity
  8
RACCORDO
100
AcDbLine
 62
250
  6
CONTINUOUS
 10
-80.3769321345
 20
-20.2083106335
 11
-80.3886932664
 21
-20.2255558336
  0
LINE
  5
3AD
100
AcDbEntity
  8
RACCORDO
100
AcDbLine
 62
250
  6
CONTINUOUS
 10
-80.3886932664
 20
-20.2255558336
 11
-80.4235554932
 21
-20.2760374469
  0
LINE
  5
3AE
100
AcDbEntity
  8
RACCORDO
100
AcDbLine
 62
250
  6
CONTINUOUS
 10
-80.4235554932
 20
-20.2760374469
 11
-80.4802192649
 21
-20.3573069357
  0
LINE
  5
3AF
100
AcDbEntity
  8
RACCORDO
100
AcDbLine
 62
250
  6
CONTINUOUS
 10
-80.4802192649
 20
20.3573069357
 11
-80.4136400158
 21
20.2617339275
  0
LINE
  5
3B0
100
AcDbEntity
  8
RACCORDO
100
AcDbLine
 62
250
  6
CONTINUOUS
 10
-80.4136400158
 20
20.2617339275
 11
-80.3886932664
 21
20.2255558336
  0
LWPOLYLINE
  5
3B1
100
AcDbEntity
  8
RACCORDO
100
AcDbPolyline
 62
250
  6
CONTINUOUS
 90
6
 70
0
 10
-80.3886932664
 20
20.2255558336
 10
-80.3769321345
 20
20.2083106335
 10
-80.3727189183
 20
20.2020517743
 10
-80.3696818039
 20
20.1974643396
 10
-80.3678534877
 20
20.1945977161
 10
-80.3672536527
 20
20.193482765
  0
LWPOLYLINE
  5
3B2
100
AcDbEntity
  8
RACCORDO
100
AcDbPolyline
 62
7
  6
CONTINUOUS
 90
8
 70
0
 10
-79.4617181241
 20
18.1355457476
 10
-79.4480839079
 20
18.114976602
 10
-79.4282089621
 20
18.0803213504
 10
-79.4111434396
 20
18.0441405441
 10
-79.3970139909
 20
18.0066778606
 10
-79.385924338
 20
17.9681920746
 10
-79.3779497815
 20
17.9289365563
 10
-79.3731422064
 20
17.8891556249
  0
LWPOLYLINE
  5
3B3
100
AcDbEntity
  8
0
100
AcDbPolyline
 62
7
  6
CONTINUOUS
 90
10
 70
0
 43
0.3500000006
 10
-96.2005550537
 20
52.2534689026
 10
-96.1291329346
 20
52.1106110687
 10
-96.1291329346
 20
52.0391844177
 10
-96.2719862366
 20
51.8963265839
 10
-96.3434174194
 20
51.8963265839
 10
-96.4148486023
 20
51.9677532349
 10
-96.4148486023
 20
52.0391844177
 10
-96.3434174194
 20
52.1820377197
 10
-96.2719862366
 20
52.2534689026
 10
-96.2005550537
 20
52.2534689026
  0
LINE
  5
3B4
100
AcDbEntity
  8
RACCORDO
100
AcDbLine
 62
250
  6
CONTINUOUS
 10
-87.333816823
 20
43.6940353355
 11
-87.3338477861
 21
43.6941057665
  0
LWPOLYLINE
  5
3B5
100
AcDbEntity
  8
0
100
AcDbPolyline
 62
7
  6
CONTINUOUS
 90
14
 70
0
 10
-86.9493020847
 20
43.1986083223
 10
-86.9481974625
 20
43.1955836985
 10
-86.947097865
 20
43.1905936266
 10
-86.946010045
 20
43.1833843346
 10
-86.9449230271
 20
43.1736028799
 10
-86.9438639095
 20
43.1610501766
 10
-86.9428932256
 20
43.1458859598
 10
-86.9420178613
 20
43.1281487296
 10
-86.9412389191
 20
43.1077193662
 10
-86.940602285
 20
43.0847872913
 10
-86.9401082928
 20
43.0594312954
 10
-86.9397606622
 20
43.0316825066
 10
-86.9396071497
 20
43.0017786793
 10
-86.9396756755
 20
42.9698256425
  0
LINE
  5
3B6
100
AcDbEntity
  8
RACCORDO
100
AcDbLine
 62
250
  6
CONTINUOUS
 10
-79.5944370939
 20
-20.7561475729
 11
-79.6061985378
 21
-20.7733932176
  0
LINE
  5
3B7
100
AcDbEntity
  8
RACCORDO
100
AcDbLine
 62
250
  6
CONTINUOUS
 10
-79.6061985378
 20
-20.7733932176
 11
-79.6410610865
 21
-20.8238752837
  0
LINE
  5
3B8
100
AcDbEntity
  8
RACCORDO
100
AcDbLine
 62
250
  6
CONTINUOUS
 10
-79.6410610865
 20
-20.8238752837
 11
-79.6977238685
 21
-20.9051433606
  0
LINE
  5
3B9
100
AcDbEntity
  8
RACCORDO
100
AcDbLine
 62
7
  6
CONTINUOUS
 10
-79.5562092756
 20
-18.2678105619
 11
-79.5847582564
 21
-18.2893634433
  0
LWPOLYLINE
  5
3BA
100
AcDbEntity
  8
RACCORDO
100
AcDbPolyline
 62
250
  6
CONTINUOUS
 90
16
 70
0
 10
-79.6977238685
 20
-18.0948566394
 10
-79.6830286909
 20
-18.0838547062
 10
-79.6691427791
 20
-18.072114569
 10
-79.6560661332
 20
-18.0596362277
 10
-79.6437977974
 20
-18.046443208
 10
-79.6323387276
 20
-18.0325119842
 10
-79.6216917907
 20
-18.0177719793
 10
-79.6118013354
 20
-18.0022173026
 10
-79.6027230131
 20
-17.9858538448
 10
-79.5946266452
 20
-17.9686286999
 10
-79.5874658346
 20
-17.9504491292
 10
-79.5812869785
 20
-17.9314078714
 10
-79.5763990904
 20
-17.9117302373
 10
-79.5729051748
 20
-17.8914913303
 10
-79.5707022271
 20
-17.8706160469
 10
-79.5697902474
 20
-17.849104387
  0
LWPOLYLINE
  5
3BB
100
AcDbEntity
  8
RACCORDO
100
AcDbPolyline
 62
250
  6
CONTINUOUS
 90
8
 70
0
 10
-79.5847582564
 20
-18.2586808101
 10
-79.5603850073
 20
-18.240487276
 10
-79.537216168
 20
-18.220893052
 10
-79.5153286975
 20
-18.1999802068
 10
-79.4948883663
 20
-18.1779429909
 10
-79.4758528105
 20
-18.1547737053
 10
-79.4580381266
 20
-18.1302074966
 10
-79.454280411
 20
-18.1245990779
  0
LINE
  5
3BC
100
AcDbEntity
  8
RACCORDO
100
AcDbLine
 62
7
  6
CONTINUOUS
 10
-79.5847582564
 20
-18.2893634433
 11
-80.3592916261
 21
-18.8317695573
  0
LINE
  5
3BD
100
AcDbEntity
  8
RACCORDO
100
AcDbLine
 62
250
  6
CONTINUOUS
 10
-80.4802192649
 20
-18.6426930643
 11
-79.6977238685
 21
-18.0948566394
  0
LINE
  5
3BE
100
AcDbEntity
  8
RACCORDO
100
AcDbLine
 62
7
  6
CONTINUOUS
 10
-80.3672536527
 20
-18.806517235
 11
-79.5847582564
 21
-18.2586808101
  0
LWPOLYLINE
  5
3BF
100
AcDbEntity
  8
RACCORDO
100
AcDbPolyline
 62
7
  6
CONTINUOUS
 90
10
 70
0
 10
-80.3592916261
 20
-18.8317695573
 10
-80.4149140087
 20
-18.8680296069
 10
-80.4729847626
 20
-18.9006040502
 10
-80.5332645718
 20
-18.9293161676
 10
-80.5952750298
 20
-18.9539235352
 10
-80.658966708
 20
-18.9743923273
 10
-80.7247692843
 20
-18.9907453609
 10
-80.7926618112
 20
-19.0027627028
 10
-80.8621234667
 20
-19.0101375237
 10
-80.9328352046
 20
-19.0126455708
  0
LINE
  5
3C0
100
AcDbEntity
  8
RACCORDO
100
AcDbLine
 62
7
  6
CONTINUOUS
 10
-83.0538340352
 20
16.5707638026
 11
-84.0715355545
 21
16.3075682941
  0
LINE
  5
3C1
100
AcDbEntity
  8
RACCORDO
100
AcDbLine
 62
250
  6
CONTINUOUS
 10
-83.1021647289
 20
16.7643933307
 11
-84.0715355545
 21
16.5136969895
  0
LINE
  5
3C2
100
AcDbEntity
  8
RACCORDO
100
AcDbLine
 62
7
  6
CONTINUOUS
 10
-82.8496100373
 20
18.1599878142
 11
-84.0715355545
 21
17.9990244053
  0
LINE
  5
3C3
100
AcDbEntity
  8
RACCORDO
100
AcDbLine
 62
7
  6
CONTINUOUS
 10
-82.8591488725
 20
18.1880883166
 11
-84.0715355545
 21
18.0285677118
  0
LWPOLYLINE
  5
3C4
100
AcDbEntity
  8
RACCORDO
100
AcDbPolyline
 62
250
  6
CONTINUOUS
 90
16
 70
0
 10
-82.8435881201
 20
16.8018851547
 10
-82.8603266842
 20
16.8011791658
 10
-82.8769853575
 20
16.8002492499
 10
-82.89356414
 20
16.7990954068
 10
-82.910011863
 20
16.7977234438
 10
-82.9263796953
 20
16.7961275536
 10
-82.9428211426
 20
16.7942903146
 10
-82.9593166227
 20
16.7922250812
 10
-82.9758857179
 20
16.7899184989
 10
-82.9927406803
 20
16.7873130821
 10
-83.0098831289
 20
16.7844228819
 10
-83.0273114449
 20
16.7812338472
 10
-83.0452330233
 20
16.7776463387
 10
-83.063716996
 20
16.7736271432
 10
-83.0826942312
 20
16.7692094739
 10
-83.1021647289
 20
16.7643933307
  0
LINE
  5
3C5
100
AcDbEntity
  8
RACCORDO
100
AcDbLine
 62
7
  6
CONTINUOUS
 10
-79.6610657055
 20
16.7129603249
 11
-82.8383535279
 21
16.6020069893
  0
LINE
  5
3C6
100
AcDbEntity
  8
RACCORDO
100
AcDbLine
 62
250
  6
CONTINUOUS
 10
-79.6663002978
 20
16.9128384903
 11
-82.8435881201
 21
16.8018851547
  0
LINE
  5
3C7
100
AcDbEntity
  8
RACCORDO
100
AcDbLine
 62
250
  6
CONTINUOUS
 10
-79.3715355545
 20
17.012777573
 11
-79.5697902474
 21
17.012777573
  0
LINE
  5
3C8
100
AcDbEntity
  8
RACCORDO
100
AcDbLine
 62
250
  6
CONTINUOUS
 10
-79.3715355545
 20
17.849104387
 11
-79.5697902474
 21
17.849104387
  0
LWPOLYLINE
  5
3C9
100
AcDbEntity
  8
RACCORDO
100
AcDbPolyline
 62
7
  6
CONTINUOUS
 90
10
 70
0
 10
-80.3592916261
 20
18.8317695573
 10
-80.4134704708
 20
18.8671537853
 10
-80.4703681372
 20
18.8992438568
 10
-80.5298007921
 20
18.9277982424
 10
-80.5913443689
 20
18.9525043309
 10
-80.6549793455
 20
18.9732476218
 10
-80.7211391203
 20
18.9899658122
 10
-80.7898106922
 20
19.0023546583
 10
-80.8604851556
 20
19.0100199094
 10
-80.9328352046
 20
19.0126455708
  0
LINE
  5
3CA
100
AcDbEntity
  8
RACCORDO
100
AcDbLine
 62
250
  6
CONTINUOUS
 10
-80.4802192649
 20
18.6426930643
 11
-79.6977238685
 21
18.0948566394
  0
LINE
  5
3CB
100
AcDbEntity
  8
RACCORDO
100
AcDbLine
 62
7
  6
CONTINUOUS
 10
-80.3672536527
 20
18.806517235
 11
-79.5847582564
 21
18.2586808101
  0
LINE
  5
3CC
100
AcDbEntity
  8
RACCORDO
100
AcDbLine
 62
7
  6
CONTINUOUS
 10
-79.5847582564
 20
18.2893634433
 11
-80.3592916261
 21
18.8317695573
  0
LWPOLYLINE
  5
3CD
100
AcDbEntity
  8
RACCORDO
100
AcDbPolyline
 62
250
  6
CONTINUOUS
 90
6
 70
0
 10
-79.5847582564
 20
18.25868081
 10
-79.5529971161
 20
18.2344987683
 10
-79.5232652918
 20
18.2078587177
 10
-79.4957525885
 20
18.1789301911
 10
-79.470641341
 20
18.1479062482
 10
-79.4617181241
 20
18.1355457476
  0
LINE
  5
3CE
100
AcDbEntity
  8
RACCORDO
100
AcDbLine
 62
7
  6
CONTINUOUS
 10
-79.5528665128
 20
18.2650698337
 11
-79.5847582564
 21
18.289363444
  0
LWPOLYLINE
  5
3CF
100
AcDbEntity
  8
RACCORDO
100
AcDbPolyline
 62
250
  6
CONTINUOUS
 90
13
 70
0
 10
-79.6977238685
 20
18.0948566394
 10
-79.6784919322
 20
18.0801637786
 10
-79.6606907986
 20
18.0642135927
 10
-79.6443204678
 20
18.0470060818
 10
-79.6292965629
 20
18.028422626
 10
-79.6157034607
 20
18.0085818451
 10
-79.603794292
 20
17.9878395984
 10
-79.5935948373
 20
17.9661686782
 10
-79.5850793161
 20
17.9435962922
 10
-79.5784235175
 20
17.9205599219
 10
-79.5736860381
 20
17.8972053946
 10
-79.5708082814
 20
17.8733868829
 10
-79.5697902474
 20
17.849104387
  0
LINE
  5
3D0
100
AcDbEntity
  8
RACCORDO
100
AcDbLine
 62
250
  6
CONTINUOUS
 10
-79.6977238685
 20
20.9051433606
 11
-79.6311446374
 21
20.8095703773
  0
LINE
  5
3D1
100
AcDbEntity
  8
RACCORDO
100
AcDbLine
 62
250
  6
CONTINUOUS
 10
-79.6311446374
 20
20.8095703773
 11
-79.6061978824
 21
20.7733922754
  0
LWPOLYLINE
  5
3D2
100
AcDbEntity
  8
RACCORDO
100
AcDbPolyline
 62
250
  6
CONTINUOUS
 90
6
 70
0
 10
-79.6061978824
 20
20.7733922754
 10
-79.5944367448
 20
20.7561470674
 10
-79.5902235261
 20
20.7498882047
 10
-79.5871864096
 20
20.7453007671
 10
-79.5853580919
 20
20.7424341418
 10
-79.5847582564
 20
20.7413191899
  0
LWPOLYLINE
  5
3D3
100
AcDbEntity
  8
0
100
AcDbPolyline
 62
7
  6
CONTINUOUS
 90
10
 70
0
 43
0.3500000006
 10
-96.3492544556
 20
60.0377276001
 10
-96.2778232727
 20
59.8948742981
 10
-96.2778232727
 20
59.8234431152
 10
-96.4206856384
 20
59.6805898132
 10
-96.4921077576
 20
59.6805898132
 10
-96.5635389404
 20
59.7520209961
 10
-96.5635389404
 20
59.8234431152
 10
-96.4921077576
 20
59.966305481
 10
-96.4206856384
 20
60.0377276001
 10
-96.3492544556
 20
60.0377276001
  0
LINE
  5
3D4
100
AcDbEntity
  8
RACCORDO
100
AcDbLine
 62
7
  6
CONTINUOUS
 10
-86.9500577043
 20
-43.1999999998
 11
-87.1615465042
 21
-43.5895139143
  0
LINE
  5
3D5
100
AcDbEntity
  8
0
100
AcDbLine
 62
7
  6
CONTINUOUS
 10
-86.9493020847
 20
-43.1986083223
 11
-86.9498671089
 21
-43.1996489667
  0
LINE
  5
3D6
100
AcDbEntity
  8
RACCORDO
100
AcDbLine
 62
7
  6
CONTINUOUS
 10
-87.1739254648
 20
-43.6094300603
 11
-87.1615465042
 21
-43.5895139143
  0
LINE
  5
3D7
100
AcDbEntity
  8
RACCORDO
100
AcDbLine
 62
7
  6
CONTINUOUS
 10
-81.6110619651
 20
-20.212720203
 11
-82.4801595194
 21
-20.7145703383
  0
LINE
  5
3D8
100
AcDbEntity
  8
RACCORDO
100
AcDbLine
 62
7
  6
CONTINUOUS
 10
-81.62485613
 20
-20.1872939778
 11
-82.4896799113
 21
-20.6865241682
  0
LWPOLYLINE
  5
3D9
100
AcDbEntity
  8
RACCORDO
100
AcDbPolyline
 62
250
  6
CONTINUOUS
 90
10
 70
0
 10
-80.9408192673
 20
20.012676641
 10
-80.8749909283
 20
20.0148418987
 10
-80.8090766301
 20
20.0213851022
 10
-80.7433729227
 20
20.0323515354
 10
-80.6783435815
 20
20.0477227584
 10
-80.6141319581
 20
20.0675250034
 10
-80.5505924229
 20
20.0919348975
 10
-80.4879354387
 20
20.1210803296
 10
-80.4266930586
 20
20.1549315719
 10
-80.3672536527
 20
20.193482765
  0
LWPOLYLINE
  5
3DA
100
AcDbEntity
  8
RACCORDO
100
AcDbPolyline
 62
250
  6
CONTINUOUS
 90
10
 70
0
 10
-80.9390739602
 20
20.2126690256
 10
-80.8860065328
 20
20.2143672077
 10
-80.8333538668
 20
20.2196128715
 10
-80.7811159623
 20
20.2284060168
 10
-80.7291513103
 20
20.2406857203
 10
-80.6776014198
 20
20.2565129053
 10
-80.6268908174
 20
20.2760703423
 10
-80.5771610118
 20
20.2994189548
 10
-80.5282704943
 20
20.3264978192
 10
-80.4802192649
 20
20.3573069357
  0
LINE
  5
3DB
100
AcDbEntity
  8
RACCORDO
100
AcDbLine
 62
250
  6
CONTINUOUS
 10
-81.6110619651
 20
18.787279797
 11
-80.9390739602
 21
18.7873309744
  0
LINE
  5
3DC
100
AcDbEntity
  8
RACCORDO
100
AcDbLine
 62
7
  6
CONTINUOUS
 10
-81.2681321795
 20
18.9872984315
 11
-80.9408192673
 21
18.987323359
  0
LINE
  5
3DD
100
AcDbEntity
  8
RACCORDO
100
AcDbLine
 62
7
  6
CONTINUOUS
 10
-80.9328352046
 20
19.9873544292
 11
-81.2681302472
 21
19.9873288938
  0
LINE
  5
3DE
100
AcDbEntity
  8
RACCORDO
100
AcDbLine
 62
7
  6
CONTINUOUS
 10
-80.9328352046
 20
19.0126455708
 11
-81.2681302472
 21
19.0126711062
  0
LINE
  5
3DF
100
AcDbEntity
  8
RACCORDO
100
AcDbLine
 62
7
  6
CONTINUOUS
 10
-81.2681321795
 20
20.0127015685
 11
-80.9408192673
 21
20.012676641
  0
LINE
  5
3E0
100
AcDbEntity
  8
RACCORDO
100
AcDbLine
 62
250
  6
CONTINUOUS
 10
-81.6110619651
 20
20.212720203
 11
-80.9390739602
 21
20.2126690256
  0
LWPOLYLINE
  5
3E1
100
AcDbEntity
  8
RACCORDO
100
AcDbPolyline
 62
250
  6
CONTINUOUS
 90
10
 70
0
 10
-80.9390739602
 20
18.7873309744
 10
-80.8870512016
 20
18.7857802398
 10
-80.8351908269
 20
18.7806928428
 10
-80.783492836
 20
18.7720687834
 10
-80.7318274397
 20
18.76003256
 10
-80.6803244272
 20
18.7444596743
 10
-80.6293731666
 20
18.7249766314
 10
-80.5791034474
 20
18.7014589329
 10
-80.5293854802
 20
18.6740310772
 10
-80.4802192649
 20
18.6426930643
  0
LWPOLYLINE
  5
3E2
100
AcDbEntity
  8
RACCORDO
100
AcDbPolyline
 62
250
  6
CONTINUOUS
 90
10
 70
0
 10
-80.9408192673
 20
18.987323359
 10
-80.8762971882
 20
18.9852433498
 10
-80.8113757531
 20
18.9789176123
 10
-80.746343999
 20
18.9682420154
 10
-80.6817022786
 20
18.9531843779
 10
-80.6175642437
 20
18.9336542038
 10
-80.5536953461
 20
18.9093738618
 10
-80.4903058268
 20
18.8801196219
 10
-80.4280096627
 20
18.8458561493
 10
-80.3672536527
 20
18.806517235
  0
LINE
  5
3E3
100
AcDbEntity
  8
RACCORDO
100
AcDbLine
 62
7
  6
CONTINUOUS
 10
-84.0715355545
 20
20.9714322882
 11
-82.8591488725
 21
20.8119116834
  0
LINE
  5
3E4
100
AcDbEntity
  8
RACCORDO
100
AcDbLine
 62
7
  6
CONTINUOUS
 10
-84.0715355545
 20
21.0009755947
 11
-82.8496100373
 21
20.8400121858
  0
LINE
  5
3E5
100
AcDbEntity
  8
RACCORDO
100
AcDbLine
 62
7
  6
CONTINUOUS
 10
-82.4896799113
 20
20.6865241682
 11
-81.62485613
 21
20.1872939778
  0
LINE
  5
3E6
100
AcDbEntity
  8
RACCORDO
100
AcDbLine
 62
7
  6
CONTINUOUS
 10
-82.4801595194
 20
20.7145703383
 11
-81.6110619651
 21
20.212720203
  0
LINE
  5
3E7
100
AcDbEntity
  8
RACCORDO
100
AcDbLine
 62
7
  6
CONTINUOUS
 10
-87.1741095307
 20
43.6096787832
 11
-87.1615469583
 21
43.5895147506
  0
LINE
  5
3E8
100
AcDbEntity
  8
RACCORDO
100
AcDbLine
 62
7
  6
CONTINUOUS
 10
-86.9500577043
 20
43.1999999998
 11
-87.1615465043
 21
43.5895139143
  0
LINE
  5
3E9
100
AcDbEntity
  8
RACCORDO
100
AcDbLine
 62
250
  6
CONTINUOUS
 10
-79.5697902474
 20
21.150895613
 11
-79.3715355545
 21
21.150895613
  0
LINE
  5
3EA
100
AcDbEntity
  8
RACCORDO
100
AcDbLine
 62
250
  6
CONTINUOUS
 10
-79.5697902474
 20
21.987222427
 11
-79.3715355545
 21
21.987222427
  0
LINE
  5
3EB
100
AcDbEntity
  8
RACCORDO
100
AcDbLine
 62
250
  6
CONTINUOUS
 10
-79.6663002978
 20
22.0871615097
 11
-82.8435881201
 21
22.1981148453
  0
LINE
  5
3EC
100
AcDbEntity
  8
RACCORDO
100
AcDbLine
 62
7
  6
CONTINUOUS
 10
-79.6610657055
 20
22.2870396751
 11
-82.8383535279
 21
22.3979930107
  0
LWPOLYLINE
  5
3ED
100
AcDbEntity
  8
RACCORDO
100
AcDbPolyline
 62
250
  6
CONTINUOUS
 90
10
 70
0
 10
-82.8435881201
 20
22.1981148453
 10
-82.8766631014
 20
22.199859021
 10
-82.908649442
 20
22.2022629238
 10
-82.9395471418
 20
22.2053265536
 10
-82.9693527623
 20
22.2091223526
 10
-82.9980697419
 20
22.2135778786
 10
-83.0257083968
 20
22.2184758059
 10
-83.0522721656
 20
22.2237436924
 10
-83.0777576097
 20
22.2294539802
 10
-83.1021647289
 20
22.2356066693
  0
LINE
  5
3EE
100
AcDbEntity
  8
RACCORDO
100
AcDbLine
 62
250
  6
CONTINUOUS
 10
-83.1021647289
 20
22.2356066693
 11
-84.0715355545
 21
22.4863030105
  0
LINE
  5
3EF
100
AcDbEntity
  8
RACCORDO
100
AcDbLine
 62
7
  6
CONTINUOUS
 10
-83.0538340352
 20
22.4292361974
 11
-84.0715355545
 21
22.6924317059
  0
LINE
  5
3F0
100
AcDbEntity
  8
RACCORDO
100
AcDbLine
 62
7
  6
CONTINUOUS
 10
-87.1792526057
 20
43.6166273373
 11
-87.1741095307
 21
43.6096787832
  0
LINE
  5
3F1
100
AcDbEntity
  8
RACCORDO
100
AcDbLine
 62
7
  6
CONTINUOUS
 10
-87.1831158454
 20
-43.6214535803
 11
-87.1742745803
 21
-43.6098867985
  0
LINE
  5
3F2
100
AcDbEntity
  8
RACCORDO
100
AcDbLine
 62
250
  6
CONTINUOUS
 10
-87.1885508199
 20
-43.627760192
 11
-87.1831158454
 21
-43.6214535803
  0
LINE
  5
3F3
100
AcDbEntity
  8
RACCORDO
100
AcDbLine
 62
250
  6
CONTINUOUS
 10
-87.1885513586
 20
43.62776081
 11
-87.1792526057
 21
43.6166273373
  0
LWPOLYLINE
  5
3F4
100
AcDbEntity
  8
RACCORDO
100
AcDbPolyline
 62
250
  6
CONTINUOUS
 90
4
 70
0
 10
-87.2437569205
 20
-43.6708436958
 10
-87.2237082422
 20
-43.6586795714
 10
-87.2052214822
 20
-43.6442522811
 10
-87.1885508199
 20
-43.627760192
  0
LWPOLYLINE
  5
3F5
100
AcDbEntity
  8
RACCORDO
100
AcDbPolyline
 62
250
  6
CONTINUOUS
 90
4
 70
0
 10
-87.2437573714
 20
43.670843978
 10
-87.22370875
 20
43.6586799608
 10
-87.2052220196
 20
43.6442527839
 10
-87.1885513586
 20
43.62776081
  0
LINE
  5
3F6
100
AcDbEntity
  8
RACCORDO
100
AcDbLine
 62
250
  6
CONTINUOUS
 10
-86.949302089
 20
42.5440051633
 11
-87.1615465053
 21
42.5111324688
  0
LINE
  5
3F7
100
AcDbEntity
  8
RACCORDO
100
AcDbLine
 62
250
  6
CONTINUOUS
 10
-89.1977035326
 20
42.4220726233
 11
-87.6715355545
 21
42.5020556979
  0
LINE
  5
3F8
100
AcDbEntity
  8
RACCORDO
100
AcDbLine
 62
7
  6
CONTINUOUS
 10
-89.1977035326
 20
43.9200169255
 11
-87.6715355545
 21
44.0
  0
LINE
  5
3F9
100
AcDbEntity
  8
RACCORDO
100
AcDbLine
 62
250
  6
CONTINUOUS
 10
-89.6715355545
 20
42.4220726233
 11
-89.1977035326
 21
42.4220726233
  0
LINE
  5
3FA
100
AcDbEntity
  8
RACCORDO
100
AcDbLine
 62
250
  6
CONTINUOUS
 10
-84.0715355545
 20
42.4532919088
 11
-84.2680450732
 21
42.4532919088
  0
LINE
  5
3FB
100
AcDbEntity
  8
RACCORDO
100
AcDbLine
 62
250
  6
CONTINUOUS
 10
-87.3338491294
 20
42.4999712709
 11
-87.161576187
 21
42.499971271
  0
LWPOLYLINE
  5
3FC
100
AcDbEntity
  8
0
100
AcDbPolyline
 62
7
  6
CONTINUOUS
 90
8
 70
0
 43
0.3500000006
 10
-98.9862714844
 20
51.75346875
 10
-98.1291335449
 20
51.75346875
 10
-97.7005555115
 20
52.1820377197
 10
-97.7005555115
 20
53.0391847229
 10
-98.1291335449
 20
53.4677536926
 10
-98.9862714844
 20
53.4677536926
 10
-98.9862714844
 20
54.7534696655
 10
-97.7005555115
 20
54.7534696655
  0
LWPOLYLINE
  5
3FD
100
AcDbEntity
  8
0
100
AcDbPolyline
 62
7
  6
CONTINUOUS
 90
6
 70
0
 43
0.3500000006
 10
-95.2778229675
 20
59.5377274475
 10
-94.2064005432
 20
59.5377274475
 10
-93.9921160583
 20
59.7520209961
 10
-93.9921160583
 20
60.8234434204
 10
-94.4206850281
 20
61.2520123901
 10
-94.8492539978
 20
61.2520123901
  0
LINE
  5
3FE
100
AcDbEntity
  8
RACCORDO
100
AcDbLine
 62
7
  6
CONTINUOUS
 10
-87.333849142
 20
42.5017500919
 11
-87.6715355545
 21
42.5018413014
  0
LINE
  5
3FF
100
AcDbEntity
  8
RACCORDO
100
AcDbLine
 62
250
  6
CONTINUOUS
 10
-87.3338168254
 20
42.5132091663
 11
-87.2437569041
 21
42.5124685008
  0
LINE
  5
400
100
AcDbEntity
  8
RACCORDO
100
AcDbLine
 62
250
  6
CONTINUOUS
 10
-87.2437569041
 20
42.5124685008
 11
-87.1885507942
 21
42.5116978119
  0
LINE
  5
401
100
AcDbEntity
  8
RACCORDO
100
AcDbLine
 62
250
  6
CONTINUOUS
 10
-84.2680450732
 20
42.4532919088
 11
-86.9500577089
 21
42.5001066135
  0
LINE
  5
402
100
AcDbEntity
  8
RACCORDO
100
AcDbLine
 62
7
  6
CONTINUOUS
 10
-84.2680450732
 20
43.1531852954
 11
-86.9500577039
 21
43.2
  0
LINE
  5
403
100
AcDbEntity
  8
RACCORDO
100
AcDbLine
 62
7
  6
CONTINUOUS
 10
-87.3338491398
 20
43.6941056617
 11
-87.6715355545
 21
43.7
  0
LINE
  5
404
100
AcDbEntity
  8
RACCORDO
100
AcDbLine
 62
250
  6
CONTINUOUS
 10
-87.1885507942
 20
42.5116978119
 11
-87.1615464788
 21
42.5111324729
  0
LWPOLYLINE
  5
405
100
AcDbEntity
  8
RACCORDO
100
AcDbPolyline
 62
250
  6
CONTINUOUS
 90
5
 70
0
 10
-87.333816823
 20
43.6940353337
 10
-87.3104336616
 20
43.6922535355
 10
-87.2874199908
 20
43.6877469669
 10
-87.2650922309
 20
43.6805775899
 10
-87.2437573714
 20
43.670843978
  0
ARC
  5
406
100
AcDbEntity
  8
RACCORDO
100
AcDbCircle
 62
7
  6
CONTINUOUS
 10
-89.1715355545
 20
-43.4207021581
 40
0.5
100
AcDbArc
 50
180.0
 51
267.0
  0
ARC
  5
407
100
AcDbEntity
  8
RACCORDO
100
AcDbCircle
 62
7
  6
CONTINUOUS
 10
-87.3373396084
 20
-43.494136829
 40
0.2
100
AcDbArc
 50
270.999999996
 51
331.4999998947
  0
ARC
  5
408
100
AcDbEntity
  8
RACCORDO
100
AcDbCircle
 62
7
  6
CONTINUOUS
 10
-89.1715355545
 20
43.4207021581
 40
0.5
100
AcDbArc
 50
93.0
 51
180.0
  0
ARC
  5
409
100
AcDbEntity
  8
RACCORDO
100
AcDbCircle
 62
7
  6
CONTINUOUS
 10
-87.3373396084
 20
43.494136829
 40
0.1999992936
100
AcDbArc
 50
28.5000001053
 51
89.000000002
  0
ARC
  5
40A
100
AcDbEntity
  8
RACCORDO
100
AcDbCircle
 62
7
  6
CONTINUOUS
 10
-84.2715355545
 20
-42.9532157563
 40
0.2
100
AcDbArc
 50
271.0
 51
360.0
  0
ARC
  5
40B
100
AcDbEntity
  8
RACCORDO
100
AcDbCircle
 62
7
  6
CONTINUOUS
 10
-82.8034540312
 20
-15.6026161623
 40
1.0
100
AcDbArc
 50
255.5
 51
268.0
  0
ARC
  5
40C
100
AcDbEntity
  8
RACCORDO
100
AcDbCircle
 62
7
  6
CONTINUOUS
 10
-82.8034540312
 20
-23.3973838377
 40
1.0
100
AcDbArc
 50
92.0
 51
104.5
  0
ARC
  5
40D
100
AcDbEntity
  8
RACCORDO
100
AcDbCircle
 62
7
  6
CONTINUOUS
 10
-79.6715355545
 20
-21.987222427
 40
0.3
100
AcDbArc
 50
272.0
 51
360.0
  0
ARC
  5
40E
100
AcDbEntity
  8
RACCORDO
100
AcDbCircle
 62
7
  6
CONTINUOUS
 10
-79.6715355545
 20
-17.012777573
 40
0.3
100
AcDbArc
 50
0.0
 51
88.0
  0
ARC
  5
40F
100
AcDbEntity
  8
RACCORDO
100
AcDbCircle
 62
7
  6
CONTINUOUS
 10
-82.8034540312
 20
15.6026161623
 40
1.0
100
AcDbArc
 50
92.0
 51
104.5
  0
ARC
  5
410
100
AcDbEntity
  8
RACCORDO
100
AcDbCircle
 62
7
  6
CONTINUOUS
 10
-82.8034540312
 20
23.3973838377
 40
1.0
100
AcDbArc
 50
255.5
 51
268.0
  0
ARC
  5
411
100
AcDbEntity
  8
RACCORDO
100
AcDbCircle
 62
7
  6
CONTINUOUS
 10
-84.2715355545
 20
42.9532157563
 40
0.2
100
AcDbArc
 50
0.0
 51
89.0
  0
ARC
  5
412
100
AcDbEntity
  8
RACCORDO
100
AcDbCircle
 62
7
  6
CONTINUOUS
 10
-79.6715355545
 20
17.012777573
 40
0.3
100
AcDbArc
 50
272.0
 51
360.0
  0
ARC
  5
413
100
AcDbEntity
  8
RACCORDO
100
AcDbCircle
 62
7
  6
CONTINUOUS
 10
-79.6715355545
 20
21.987222427
 40
0.3
100
AcDbArc
 50
0.0
 51
88.0
  0
ELLIPSE
  5
414
100
AcDbEntity
  8
RACCORDO
100
AcDbEllipse
 62
7
  6
CONTINUOUS
 10
-59.897941481
 20
-42.497941481
 30
0.0
 11
1.0635693652
 21
1.0635693652
 31
0.0
 40
0.9972646886
 41
-3.9256212891
 42
-2.3575640181
  0
ELLIPSE
  5
415
100
AcDbEntity
  8
RACCORDO
100
AcDbEllipse
 62
7
  6
CONTINUOUS
 10
59.897941481
 20
-42.497941481
 30
0.0
 11
1.0635693652
 21
-1.0635693652
 31
0.0
 40
0.9972646886
 41
-0.7840286355
 42
0.7840286355
  0
ELLIPSE
  5
416
100
AcDbEntity
  8
RACCORDO
100
AcDbEllipse
 62
7
  6
CONTINUOUS
 10
59.897941481
 20
42.497941481
 30
0.0
 11
1.0635693652
 21
1.0635693652
 31
0.0
 40
0.9972646886
 41
-0.7840286355
 42
0.7840286355
  0
ELLIPSE
  5
417
100
AcDbEntity
  8
RACCORDO
100
AcDbEllipse
 62
7
  6
CONTINUOUS
 10
-59.897941481
 20
42.497941481
 30
0.0
 11
1.0635693652
 21
-1.0635693652
 31
0.0
 40
0.9972646886
 41
2.3575640181
 42
3.9256212891
  0
ELLIPSE
  5
418
100
AcDbEntity
  8
RACCORDO
100
AcDbEllipse
 62
7
  6
CONTINUOUS
 10
-33.524923836
 20
26.324923836
 30
0.0
 11
0.3536610946
 21
-0.3536610946
 31
0.0
 40
0.9996954599
 41
2.3563467834
 42
3.9268385237
  0
ELLIPSE
  5
419
100
AcDbEntity
  8
RACCORDO
100
AcDbEllipse
 62
7
  6
CONTINUOUS
 10
-33.524923836
 20
-26.324923836
 30
0.0
 11
0.3536610946
 21
0.3536610946
 31
0.0
 40
0.9996954599
 41
2.3563467834
 42
3.9268385237
  0
ELLIPSE
  5
41A
100
AcDbEntity
  8
RACCORDO
100
AcDbEllipse
 62
7
  6
CONTINUOUS
 10
33.524923836
 20
-26.324923836
 30
0.0
 11
-0.3536610946
 21
0.3536610946
 31
0.0
 40
0.9996954599
 41
2.3563467834
 42
3.9268385237
  0
ELLIPSE
  5
41B
100
AcDbEntity
  8
RACCORDO
100
AcDbEllipse
 62
7
  6
CONTINUOUS
 10
33.524923836
 20
26.324923836
 30
0.0
 11
-0.3536610946
 21
-0.3536610946
 31
0.0
 40
0.9996954599
 41
2.3563467834
 42
3.9268385237
  0
ELLIPSE
  5
41C
100
AcDbEntity
  8
RACCORDO
100
AcDbEllipse
 62
7
  6
CONTINUOUS
 10
-82.9896983121
 20
-19.1795785525
 30
0.0
 11
0.6834624322
 21
0.7300969116
 31
0.0
 40
0.9999021658
 41
0.2288648691
 42
0.6215488029
  0
ELLIPSE
  5
41D
100
AcDbEntity
  8
RACCORDO
100
AcDbEllipse
 62
7
  6
CONTINUOUS
 10
-82.9896983121
 20
-19.8204214475
 30
0.0
 11
0.6834624321
 21
-0.7300969116
 31
0.0
 40
0.9999021658
 41
-0.6215488028
 42
-0.2288648691
  0
ELLIPSE
  5
41E
100
AcDbEntity
  8
RACCORDO
100
AcDbEllipse
 62
7
  6
CONTINUOUS
 10
-82.9896983121
 20
19.1795785525
 30
0.0
 11
0.6834624322
 21
-0.7300969116
 31
0.0
 40
0.9999021658
 41
-0.6215488029
 42
-0.2288648691
  0
ELLIPSE
  5
41F
100
AcDbEntity
  8
RACCORDO
100
AcDbEllipse
 62
7
  6
CONTINUOUS
 10
-82.9896983121
 20
19.8204214475
 30
0.0
 11
0.6834624322
 21
0.7300969116
 31
0.0
 40
0.9999021658
 41
0.2288648691
 42
0.6215488029
  0
ELLIPSE
  5
420
100
AcDbEntity
  8
RACCORDO
100
AcDbEllipse
 62
7
  6
CONTINUOUS
 10
-81.6213654089
 20
-18.8127056234
 30
0.0
 11
0.3464337197
 21
-0.1999679042
 31
0.0
 40
0.0043635941
 41
4.7048314247
 42
6.2843540655
  0
ELLIPSE
  5
421
100
AcDbEntity
  8
RACCORDO
100
AcDbEllipse
 62
7
  6
CONTINUOUS
 10
-81.6213654089
 20
-20.1872943766
 30
0.0
 11
0.3464337197
 21
0.1999679042
 31
0.0
 40
0.0043635941
 41
0.4575316521
 42
1.5783538825
  0
ELLIPSE
  5
422
100
AcDbEntity
  8
RACCORDO
100
AcDbEllipse
 62
7
  6
CONTINUOUS
 10
-81.6213654089
 20
18.8127056234
 30
0.0
 11
0.3464337197
 21
0.1999679042
 31
0.0
 40
0.0043635941
 41
0.4575316521
 42
1.5783538825
  0
ELLIPSE
  5
423
100
AcDbEntity
  8
RACCORDO
100
AcDbEllipse
 62
7
  6
CONTINUOUS
 10
-81.6213654089
 20
20.1872943766
 30
0.0
 11
0.3464337197
 21
-0.1999679042
 31
0.0
 40
0.0043635941
 41
4.7048314247
 42
6.2843540655
  0
ELLIPSE
  5
424
100
AcDbEntity
  8
RACCORDO
100
AcDbEllipse
 62
7
  6
CONTINUOUS
 10
-82.9801529601
 20
-19.1514588522
 30
0.0
 11
-0.3522534199
 21
0.9359525224
 31
0.0
 40
0.9999250355
 41
-0.8835888665
 42
-0.4909049327
  0
ELLIPSE
  5
425
100
AcDbEntity
  8
RACCORDO
100
AcDbEllipse
 62
7
  6
CONTINUOUS
 10
-82.9801529601
 20
-19.8485411478
 30
0.0
 11
0.3522534199
 21
0.9359525224
 31
0.0
 40
0.9999250355
 41
-2.6506877208
 42
-2.2580037871
  0
ELLIPSE
  5
426
100
AcDbEntity
  8
RACCORDO
100
AcDbEllipse
 62
7
  6
CONTINUOUS
 10
-82.9801529601
 20
19.1514588522
 30
0.0
 11
0.3522534199
 21
0.9359525224
 31
0.0
 40
0.9999250355
 41
-2.6506877208
 42
-2.2580037871
  0
ELLIPSE
  5
427
100
AcDbEntity
  8
RACCORDO
100
AcDbEllipse
 62
7
  6
CONTINUOUS
 10
-82.9801529601
 20
19.8485411478
 30
0.0
 11
-0.3522534199
 21
0.9359525224
 31
0.0
 40
0.9999250355
 41
-0.8835888665
 42
-0.4909049328
  0
ELLIPSE
  5
428
100
AcDbEntity
  8
RACCORDO
100
AcDbEllipse
 62
7
  6
CONTINUOUS
 10
-81.6145525437
 20
-18.7872796641
 30
0.0
 11
0.3464195806
 21
-0.2000206714
 31
0.0
 40
0.0043631076
 41
0.0011692448
 42
1.5632392577
  0
ELLIPSE
  5
429
100
AcDbEntity
  8
RACCORDO
100
AcDbEllipse
 62
7
  6
CONTINUOUS
 10
-81.6145525437
 20
-20.2127203359
 30
0.0
 11
0.3464195806
 21
0.2000206714
 31
0.0
 40
0.0043631076
 41
-1.5632392577
 42
-0.0011692448
  0
ELLIPSE
  5
42A
100
AcDbEntity
  8
RACCORDO
100
AcDbEllipse
 62
7
  6
CONTINUOUS
 10
-81.6145525437
 20
18.7872796641
 30
0.0
 11
0.3464195806
 21
0.2000206714
 31
0.0
 40
0.0043631076
 41
-1.5632392577
 42
-0.0011692448
  0
ELLIPSE
  5
42B
100
AcDbEntity
  8
RACCORDO
100
AcDbEllipse
 62
7
  6
CONTINUOUS
 10
-81.6145525437
 20
20.2127203359
 30
0.0
 11
0.3464195806
 21
-0.2000206714
 31
0.0
 40
0.0043631076
 41
0.0011692448
 42
1.5632392577
  0
ENDSEC
  0
SECTION
  2
OBJECTS
  0
DICTIONARY
  5
C
100
AcDbDictionary
280
0
281
1
  3
ACAD_GROUP
350
D
  3
ACAD_MLINESTYLE
350
17
  3
ACAD_LAYOUT
350
1A
  3
ACAD_PLOTSETTINGS
350
19
  3
ACAD_PLOTSTYLENAME
350
E
  0
DICTIONARY
  5
D
102
{ACAD_REACTORS
330
C
102
}
100
AcDbDictionary
280
0
281
1
  0
ACDBDICTIONARYWDFLT
  5
E
102
{ACAD_REACTORS
330
C
102
}
100
AcDbDictionary
281
1
  3
Normal
350
F
100
AcDbDictionaryWithDefault
340
F
  0
DICTIONARY
  5
17
102
{ACAD_REACTORS
330
C
102
}
100
AcDbDictionary
280
0
281
1
  3
Standard
350
18
  0
DICTIONARY
  5
19
102
{ACAD_REACTORS
330
C
102
}
100
AcDbDictionary
281
1
  0
DICTIONARY
  5
1A
102
{ACAD_REACTORS
330
C
102
}
100
AcDbDictionary
281
1
  3
Model
350
42C
  3
Layout1
350
42D
  0
ACDBPLACEHOLDER
  5
F
102
{ACAD_REACTORS
330
E
102
}
  0
MLINESTYLE
  5
18
102
{ACAD_REACTORS
330
17
102
}
100
AcDbMlineStyle
  2
STANDARD
 70
0
  3

 62
256
 51
90.0
 52
90.0
 71
2
 49
0.5
 62
256
  6
BYLAYER
 49
-0.5
 62
256
  6
BYLAYER
  0
LAYOUT
  5
42C
102
{ACAD_REACTORS
330
1A
102
}
100
AcDbPlotSettings
  1

  2
none_device
  4
ISO_A4_(297.00_x_210.00_MM)
  6

 40
0.0
 41
0.0
 42
0.0
 43
0.0
 44
297.0
 45
210.0
 46
0.0
 47
0.0
 48
0.0
 49
0.0
140
0.0
141
0.0
142
1.0
143
1.0
 70
1024
 72
1
 73
0
 74
0
  7

 75
0
147
1.0
148
0.0
149
0.0
100
AcDbLayout
  1
Model
 70
0
 71
0
 10
0.0
 20
0.0
 11
297.0
 21
210.0
 12
0.0
 22
0.0
 32
0.0
 14
0.0
 24
0.0
 34
0.0
 15
0.0
 25
0.0
 35
0.0
146
0.0
 13
0.0
 23
0.0
 33
0.0
 16
1.0
 26
0.0
 36
0.0
 17
0.0
 27
1.0
 37
0.0
 76
0
330
213
345
0
346
0
  0
LAYOUT
  5
42D
102
{ACAD_REACTORS
330
1A
102
}
100
AcDbPlotSettings
  1

  2
none_device
  4
ISO_A4_(297.00_x_210.00_MM)
  6

 40
0.0
 41
0.0
 42
0.0
 43
0.0
 44
297.0
 45
210.0
 46
0.0
 47
0.0
 48
0.0
 49
0.0
140
0.0
141
0.0
142
1.0
143
1.0
 70
0
 72
1
 73
0
 74
0
  7

 75
0
147
1.0
148
0.0
149
0.0
100
AcDbLayout
  1
Layout1
 70
0
 71
1
 10
0.0
 20
0.0
 11
297.0
 21
210.0
 12
0.0
 22
0.0
 32
0.0
 14
0.0
 24
0.0
 34
0.0
 15
0.0
 25
0.0
 35
0.0
146
0.0
 13
0.0
 23
0.0
 33
0.0
 16
1.0
 26
0.0
 36
0.0
 17
0.0
 27
1.0
 37
0.0
 76
0
330
214
345
0
346
0
  0
ENDSEC
  0
EOF
