  0
SECTION
  2
HEADER
  9
$ACADVER
  1
AC1024
  9
$DWGCODEPAGE
  3
ANSI_1252
  9
$EXTMAX
 10
210.0
 20
297.0
 30
0.0
  9
$EXTMIN
 10
0.0
 20
0.0
 30
0.0
  9
$LIMMIN
 10
0.0
 20
0.0
  9
$LIMMAX
 10
210.0
 20
297.0
  9
$VIEWCTR
 10
105.0
 20
148.5
  9
$VIEWSIZE
 40
297.0
  9
$CLAYER
  8
0
  9
$LTSCALE
 40
19.36
  9
$CELTYPE
  6
BYLAYER
  9
$DIMSCALE
 40
1.0
  9
$DIMASZ
 40
3.0
  9
$DIMEXO
 40
0.5
  9
$DIMDLI
 40
13.376
  9
$DIMEXE
 40
1.5
  9
$DIMCEN
 40
3.168
  9
$DIMLFAC
 40
1.0
  9
$DIMBLK
  1
_FILLED
  9
$DIMALT
 70
0
  9
$DIMALTF
 40
0.0393700787
  9
$DIMTXT
 40
3.0
  9
$DIMTOL
 70
1
  9
$DIMLIM
 70
0
  9
$DIMTFAC
 40
1.0
  9
$DIMTP
 40
0.01
  9
$DIMTM
 40
0.01
  9
$DIMGAP
 40
0.625
  9
$DIMDSEP
 70
44
  9
$AUNITS
 70
0
  9
$PDMODE
 70
3
  9
$PDSIZE
 40
3.0
  9
$HANDSEED
  5
30F
  9
$TILEMODE
 70
1
  9
$MEASUREMENT
 70
1
  9
$INSUNITS
 70
4
  0
ENDSEC
  0
SECTION
  2
CLASSES
  0
CLASS
  1
ACDBDICTIONARYWDFLT
  2
AcDbDictionaryWithDefault
  3
AutoCAD 2000
 90
0
 91
1
280
0
281
0
  0
CLASS
  1
ACDBPLACEHOLDER
  2
AcDbPlaceHolder
  3
AutoCAD 2000
 90
0
 91
1
280
0
281
0
  0
CLASS
  1
LAYOUT
  2
AcDbLayout
  3
AutoCAD 2000
 90
0
 91
0
280
0
281
0
  0
ENDSEC
  0
SECTION
  2
TABLES
  0
TABLE
  2
VPORT
  5
8
100
AcDbSymbolTable
 70
2
  0
VPORT
  5
1F4
100
AcDbSymbolTableRecord
100
AcDbViewportTableRecord
  2
*ACTIVE
 70
0
 10
0.0
 20
0.0
 11
1.0
 21
1.0
 12
105.0
 22
148.5
 13
0.0
 23
0.0
 14
1.0
 24
1.0
 15
0.0
 25
0.0
 16
0.0
 26
0.0
 36
1.0
 17
0.0
 27
0.0
 37
0.0
 40
297.0
 41
0.7070707071
 42
50.0
 43
0.0
 44
0.0
 50
0.0
 51
0.0
 71
0
 72
100
 73
1
 74
1
 75
0
 76
0
 77
0
 78
0
  0
ENDTAB
  0
TABLE
  2
LTYPE
  5
5
100
AcDbSymbolTable
 70
6
  0
LTYPE
  5
14
100
AcDbSymbolTableRecord
100
AcDbLinetypeTableRecord
  2
BYBLOCK
 70
0
  3

 72
65
 73
0
 40
0.0
  0
LTYPE
  5
15
100
AcDbSymbolTableRecord
100
AcDbLinetypeTableRecord
  2
BYLAYER
 70
0
  3

 72
65
 73
0
 40
0.0
  0
LTYPE
  5
16
100
AcDbSymbolTableRecord
100
AcDbLinetypeTableRecord
  2
CONTINUOUS
 70
64
  3
Solid line
 72
65
 73
0
 40
0.0
  0
LTYPE
  5
1F5
100
AcDbSymbolTableRecord
100
AcDbLinetypeTableRecord
  2
CENTER
 70
64
  3
____ _ ____ _ ____ _ ____ _ ____ _ ____ _ ____
 72
65
 73
4
 40
0.6
 49
0.375
 74
0
 49
-0.075
 74
0
 49
0.075
 74
0
 49
-0.075
 74
0
  0
LTYPE
  5
1F6
100
AcDbSymbolTableRecord
100
AcDbLinetypeTableRecord
  2
HIDDEN
 70
64
  3
- - - - - - - - - - - - - - - - - - - -
 72
65
 73
2
 40
0.2
 49
0.1
 74
0
 49
-0.1
 74
0
  0
LTYPE
  5
1F7
100
AcDbSymbolTableRecord
100
AcDbLinetypeTableRecord
  2
PHANTOM
 70
64
  3
_____ _ _ _____ _ _ _____ _ _ _____
 72
65
 73
6
 40
0.8
 49
0.45
 74
0
 49
-0.05
 74
0
 49
0.1
 74
0
 49
-0.05
 74
0
 49
0.1
 74
0
 49
-0.05
 74
0
  0
LTYPE
  5
1F8
100
AcDbSymbolTableRecord
100
AcDbLinetypeTableRecord
  2
DOT
 70
64
  3
. . . . . . . . . . . . . . . . . . . .
 72
65
 73
2
 40
0.2
 49
0.1
 74
0
 49
-0.1
 74
0
  0
LTYPE
  5
1F9
100
AcDbSymbolTableRecord
100
AcDbLinetypeTableRecord
  2
DASHED
 70
64
  3
- - - - - - - - - - - - - - - - - - - -
 72
65
 73
2
 40
0.2
 49
0.1
 74
0
 49
-0.1
 74
0
  0
ENDTAB
  0
TABLE
  2
LAYER
  5
2
100
AcDbSymbolTable
 70
36
  0
LAYER
  5
10
100
AcDbSymbolTableRecord
100
AcDbLayerTableRecord
  2
0
 70
0
 62
7
  6
CONTINUOUS
370
-3
390
F
  0
LAYER
  5
1FA
100
AcDbSymbolTableRecord
100
AcDbLayerTableRecord
  2
DEFAULT_1
 70
0
 62
7
  6
CENTER
370
-3
390
F
  0
LAYER
  5
1FB
100
AcDbSymbolTableRecord
100
AcDbLayerTableRecord
  2
DEFAULT_2
 70
0
 62
7
  6
HIDDEN
370
-3
390
F
  0
LAYER
  5
1FC
100
AcDbSymbolTableRecord
100
AcDbLayerTableRecord
  2
DEFAULT_3
 70
0
 62
7
  6
PHANTOM
370
-3
390
F
  0
LAYER
  5
1FD
100
AcDbSymbolTableRecord
100
AcDbLayerTableRecord
  2
ASSI
 70
0
 62
7
  6
CONTINUOUS
370
-3
390
F
  0
LAYER
  5
1FE
100
AcDbSymbolTableRecord
100
AcDbLayerTableRecord
  2
COORDINATE
 70
0
 62
7
  6
CONTINUOUS
370
-3
390
F
  0
LAYER
  5
1FF
100
AcDbSymbolTableRecord
100
AcDbLayerTableRecord
  2
COPY_PUBLISH
 70
0
 62
7
  6
CONTINUOUS
370
-3
390
F
  0
LAYER
  5
200
100
AcDbSymbolTableRecord
100
AcDbLayerTableRecord
  2
COSMETICI
 70
0
 62
7
  6
CONTINUOUS
370
-3
390
F
  0
LAYER
  5
201
100
AcDbSymbolTableRecord
100
AcDbLayerTableRecord
  2
CURVE
 70
0
 62
7
  6
CONTINUOUS
370
-3
390
F
  0
LAYER
  5
202
100
AcDbSymbolTableRecord
100
AcDbLayerTableRecord
  2
DRAFT
 70
0
 62
7
  6
CONTINUOUS
370
-3
390
F
  0
LAYER
  5
203
100
AcDbSymbolTableRecord
100
AcDbLayerTableRecord
  2
IMPORT_IGES
 70
0
 62
7
  6
CONTINUOUS
370
-3
390
F
  0
LAYER
  5
204
100
AcDbSymbolTableRecord
100
AcDbLayerTableRecord
  2
INTF_1
 70
0
 62
7
  6
CONTINUOUS
370
-3
390
F
  0
LAYER
  5
205
100
AcDbSymbolTableRecord
100
AcDbLayerTableRecord
  2
INTF_11
 70
0
 62
7
  6
CONTINUOUS
370
-3
390
F
  0
LAYER
  5
206
100
AcDbSymbolTableRecord
100
AcDbLayerTableRecord
  2
INTF_13
 70
0
 62
7
  6
CONTINUOUS
370
-3
390
F
  0
LAYER
  5
207
100
AcDbSymbolTableRecord
100
AcDbLayerTableRecord
  2
INTF_2
 70
0
 62
7
  6
CONTINUOUS
370
-3
390
F
  0
LAYER
  5
208
100
AcDbSymbolTableRecord
100
AcDbLayerTableRecord
  2
NOTE
 70
0
 62
7
  6
CONTINUOUS
370
-3
390
F
  0
LAYER
  5
209
100
AcDbSymbolTableRecord
100
AcDbLayerTableRecord
  2
PIANI
 70
0
 62
7
  6
CONTINUOUS
370
-3
390
F
  0
LAYER
  5
20A
100
AcDbSymbolTableRecord
100
AcDbLayerTableRecord
  2
PUNTI
 70
0
 62
7
  6
CONTINUOUS
370
-3
390
F
  0
LAYER
  5
20B
100
AcDbSymbolTableRecord
100
AcDbLayerTableRecord
  2
RACCORDO
 70
0
 62
7
  6
CONTINUOUS
370
-3
390
F
  0
LAYER
  5
20C
100
AcDbSymbolTableRecord
100
AcDbLayerTableRecord
  2
SIMBOLI
 70
0
 62
7
  6
CONTINUOUS
370
-3
390
F
  0
LAYER
  5
20D
100
AcDbSymbolTableRecord
100
AcDbLayerTableRecord
  2
SMUSSO
 70
0
 62
7
  6
CONTINUOUS
370
-3
390
F
  0
LAYER
  5
20E
100
AcDbSymbolTableRecord
100
AcDbLayerTableRecord
  2
SNAPLINE
 70
0
 62
7
  6
CONTINUOUS
370
-3
390
F
  0
LAYER
  5
20F
100
AcDbSymbolTableRecord
100
AcDbLayerTableRecord
  2
SUPERFICI
 70
0
 62
7
  6
CONTINUOUS
370
-3
390
F
  0
LAYER
  5
210
100
AcDbSymbolTableRecord
100
AcDbLayerTableRecord
  2
TRASH
 70
0
 62
7
  6
CONTINUOUS
370
-3
390
F
  0
ENDTAB
  0
TABLE
  2
STYLE
  5
3
100
AcDbSymbolTable
 70
1
  0
STYLE
  5
11
100
AcDbSymbolTableRecord
100
AcDbTextStyleTableRecord
  2
STANDARD
 70
0
 40
0.0
 41
0.8
 50
0.0
 71
0
 42
0.2
  3
txt
  4

  0
STYLE
  5
211
100
AcDbSymbolTableRecord
100
AcDbTextStyleTableRecord
  2
TEXTSTYLE_1
 70
0
 40
0.0
 41
0.8
 50
0.0
 71
0
 42
0.2
  3
gdt
  4

  0
ENDTAB
  0
TABLE
  2
VIEW
  5
6
100
AcDbSymbolTable
 70
0
  0
ENDTAB
  0
TABLE
  2
UCS
  5
7
100
AcDbSymbolTable
 70
0
  0
ENDTAB
  0
TABLE
  2
APPID
  5
9
100
AcDbSymbolTable
 70
1
  0
APPID
  5
212
100
AcDbSymbolTableRecord
100
AcDbRegAppTableRecord
  2
ACAD
 70
0
  0
ENDTAB
  0
TABLE
  2
BLOCK_RECORD
  5
1
100
AcDbSymbolTable
 70
0
  0
BLOCK_RECORD
  5
213
100
AcDbSymbolTableRecord
100
AcDbBlockTableRecord
  2
*Model_Space
  0
BLOCK_RECORD
  5
214
100
AcDbSymbolTableRecord
100
AcDbBlockTableRecord
  2
*Paper_Space
  0
BLOCK_RECORD
  5
215
100
AcDbSymbolTableRecord
100
AcDbBlockTableRecord
  2
_FILLED
  0
BLOCK_RECORD
  5
216
100
AcDbSymbolTableRecord
100
AcDbBlockTableRecord
  2
*D0
  0
BLOCK_RECORD
  5
217
100
AcDbSymbolTableRecord
100
AcDbBlockTableRecord
  2
*D1
  0
BLOCK_RECORD
  5
218
100
AcDbSymbolTableRecord
100
AcDbBlockTableRecord
  2
*D2
  0
ENDTAB
  0
TABLE
  2
DIMSTYLE
  5
A
100
AcDbSymbolTable
 70
1
100
AcDbDimStyleTable
 71
0
  0
DIMSTYLE
105
219
100
AcDbSymbolTableRecord
100
AcDbDimStyleTableRecord
  2
STANDARD
 70
0
  3

  4

 40
1.0
 41
3.0
 42
0.5
 43
0.38
 44
1.5
 45
0.0
 46
0.0
 47
0.01
 48
0.01
140
3.0
141
0.09
142
0.0
143
25.4
144
1.0
145
0.0
146
1.0
147
0.625
 71
1
 72
0
 73
0
 74
0
 75
0
 76
0
 77
1
 78
8
 79
2
170
0
171
1
172
0
173
0
174
0
175
0
176
0
177
0
178
0
270
2
179
2
271
2
272
2
273
2
274
2
275
0
280
0
281
0
282
0
283
1
284
8
285
0
286
0
287
3
288
0
340
11
278
44
341
215
342
215
343
215
344
215
  0
DIMSTYLE
105
21A
100
AcDbSymbolTableRecord
100
AcDbDimStyleTableRecord
  2
DIMSTYLE_1
 70
0
  3

  4

 40
1.0
 41
3.0
 42
0.5
 43
0.38
 44
1.5
 45
0.0
 46
0.0
 47
0.0
 48
0.0
140
3.0
141
0.09
142
0.0
143
25.4
144
1.0
145
0.0
146
1.0
147
0.75
 71
0
 72
0
 73
0
 74
0
 75
0
 76
0
 77
1
 78
8
 79
2
170
0
171
1
172
0
173
0
174
0
175
0
176
0
177
0
178
0
270
2
179
2
271
2
272
2
273
2
274
2
275
0
280
0
281
0
282
0
283
1
284
8
285
0
286
0
287
3
288
0
340
11
278
44
341
215
342
215
343
215
344
215
  0
ENDTAB
  0
ENDSEC
  0
SECTION
  2
BLOCKS
  0
BLOCK
  5
20
100
AcDbEntity
  8
0
100
AcDbBlockBegin
  2
*Model_Space
 70
0
 10
0.0
 20
0.0
 30
0.0
  3
*Model_Space
  1

  0
ENDBLK
  5
21
100
AcDbEntity
  8
0
100
AcDbBlockEnd
  0
BLOCK
  5
1C
100
AcDbEntity
  8
0
100
AcDbBlockBegin
  2
*Paper_Space
 70
0
 10
0.0
 20
0.0
 30
0.0
  3
*Paper_Space
  1

  0
ENDBLK
  5
1D
100
AcDbEntity
  8
0
100
AcDbBlockEnd
  0
BLOCK
  5
21B
100
AcDbEntity
  8
0
100
AcDbBlockBegin
  2
_FILLED
 70
64
 10
0.0
 20
0.0
  3
_FILLED
  1

  0
SOLID
  5
21C
100
AcDbEntity
  8
0
  6
BYBLOCK
 62
0
100
AcDbTrace
 10
0.0
 20
0.0
 11
-1.0
 21
0.3166666667
 12
-1.0
 22
-0.3166666667
 13
-1.0
 23
-0.3166666667
  0
ENDBLK
  5
21D
100
AcDbEntity
  8
0
  6
BYBLOCK
 62
0
100
AcDbBlockEnd
  0
BLOCK
  5
21E
100
AcDbEntity
  8
0
100
AcDbBlockBegin
 62
7
  6
CONTINUOUS
  2
*D0
 70
65
 10
0.0
 20
0.0
  3
*D0
  1

  0
LINE
  5
21F
100
AcDbEntity
  8
0
100
AcDbLine
 62
7
  6
CONTINUOUS
 10
-45.0
 20
43.830472192
 11
-45.0
 21
53.5
  0
LINE
  5
220
100
AcDbEntity
  8
0
100
AcDbLine
 62
7
  6
CONTINUOUS
 10
45.0
 20
43.4762259738
 11
45.0
 21
53.5
  0
LINE
  5
221
100
AcDbEntity
  8
0
100
AcDbLine
 62
7
  6
CONTINUOUS
 10
-45.0
 20
52.0
 11
0.0
 21
52.0
  0
LINE
  5
222
100
AcDbEntity
  8
0
100
AcDbLine
 62
7
  6
CONTINUOUS
 10
45.0
 20
52.0
 11
0.0
 21
52.0
  0
INSERT
  5
223
100
AcDbEntity
  8
0
100
AcDbBlockReference
 62
7
  6
CONTINUOUS
  2
_FILLED
 10
-45.0
 20
52.0
 41
3.0
 42
3.0
 43
3.0
 50
180.0
  0
INSERT
  5
224
100
AcDbEntity
  8
0
100
AcDbBlockReference
 62
7
  6
CONTINUOUS
  2
_FILLED
 10
45.0
 20
52.0
 41
3.0
 42
3.0
 43
3.0
 50
0.0
  0
ENDBLK
  5
225
100
AcDbEntity
  8
0
  6
BYBLOCK
 62
0
100
AcDbBlockEnd
  0
BLOCK
  5
226
100
AcDbEntity
  8
0
100
AcDbBlockBegin
 62
7
  6
CONTINUOUS
  2
*D1
 70
65
 10
0.0
 20
0.0
  3
*D1
  1

  0
LINE
  5
227
100
AcDbEntity
  8
0
100
AcDbLine
 62
7
  6
CONTINUOUS
 10
44.5442582557
 20
44.0
 11
54.5
 21
44.0
  0
LINE
  5
228
100
AcDbEntity
  8
0
100
AcDbLine
 62
7
  6
CONTINUOUS
 10
45.115136
 20
-44.0
 11
54.5
 21
-44.0
  0
LINE
  5
229
100
AcDbEntity
  8
0
100
AcDbLine
 62
7
  6
CONTINUOUS
 10
53.0
 20
44.0
 11
53.0
 21
0.0
  0
LINE
  5
22A
100
AcDbEntity
  8
0
100
AcDbLine
 62
7
  6
CONTINUOUS
 10
53.0
 20
-44.0
 11
53.0
 21
0.0
  0
INSERT
  5
22B
100
AcDbEntity
  8
0
100
AcDbBlockReference
 62
7
  6
CONTINUOUS
  2
_FILLED
 10
53.0
 20
44.0
 41
3.0
 42
3.0
 43
3.0
 50
90.0
  0
INSERT
  5
22C
100
AcDbEntity
  8
0
100
AcDbBlockReference
 62
7
  6
CONTINUOUS
  2
_FILLED
 10
53.0
 20
-44.0
 41
3.0
 42
3.0
 43
3.0
 50
270.0
  0
ENDBLK
  5
22D
100
AcDbEntity
  8
0
  6
BYBLOCK
 62
0
100
AcDbBlockEnd
  0
BLOCK
  5
22E
100
AcDbEntity
  8
0
100
AcDbBlockBegin
 62
7
  6
CONTINUOUS
  2
*D2
 70
65
 10
0.0
 20
0.0
  3
*D2
  1

  0
LINE
  5
22F
100
AcDbEntity
  8
0
100
AcDbLine
 62
7
  6
CONTINUOUS
 10
-91.0952225604
 20
44.622016
 11
-91.0952225604
 21
53.4997309103
  0
LINE
  5
230
100
AcDbEntity
  8
0
100
AcDbLine
 62
7
  6
CONTINUOUS
 10
-83.2952225604
 20
43.0649933343
 11
-83.2952225604
 21
53.4997309103
  0
LINE
  5
231
100
AcDbEntity
  8
0
100
AcDbLine
 62
7
  6
CONTINUOUS
 10
-91.0952225604
 20
51.9997309103
 11
-101.1767143323
 21
51.9997309103
  0
LINE
  5
232
100
AcDbEntity
  8
0
100
AcDbLine
 62
7
  6
CONTINUOUS
 10
-101.1767143323
 20
51.9997309103
 11
-87.1952225604
 21
51.9997309103
  0
LINE
  5
233
100
AcDbEntity
  8
0
100
AcDbLine
 62
7
  6
CONTINUOUS
 10
-83.2952225604
 20
51.9997309103
 11
-79.2952225604
 21
51.9997309103
  0
LINE
  5
234
100
AcDbEntity
  8
0
100
AcDbLine
 62
7
  6
CONTINUOUS
 10
-79.2952225604
 20
51.9997309103
 11
-87.1952225604
 21
51.9997309103
  0
INSERT
  5
235
100
AcDbEntity
  8
0
100
AcDbBlockReference
 62
7
  6
CONTINUOUS
  2
_FILLED
 10
-91.0952225604
 20
51.9997309103
 41
3.0
 42
3.0
 43
3.0
  0
INSERT
  5
236
100
AcDbEntity
  8
0
100
AcDbBlockReference
 62
7
  6
CONTINUOUS
  2
_FILLED
 10
-83.2952225604
 20
51.9997309103
 41
3.0
 42
3.0
 43
3.0
 50
180.0
  0
ENDBLK
  5
237
100
AcDbEntity
  8
0
  6
BYBLOCK
 62
0
100
AcDbBlockEnd
  0
ENDSEC
  0
SECTION
  2
ENTITIES
  0
DIMENSION
  5
238
100
AcDbEntity
  8
0
100
AcDbDimension
 62
7
  6
CONTINUOUS
  2
*D0
 10
45.0
 20
52.0
 11
-2.3571428571
 21
52.0
 70
160
 71
2
 72
2
 41
0.9
 42
90.0
  3
DIMSTYLE_1
100
AcDbAlignedDimension
 13
-45.0
 23
43.330472192
 14
45.0
 24
42.9762259738
100
AcDbRotatedDimension
  0
DIMENSION
  5
239
100
AcDbEntity
  8
0
100
AcDbDimension
 62
7
  6
CONTINUOUS
  2
*D1
 10
53.0
 20
-44.0
 11
53.0
 21
-2.3571428571
 70
160
 71
2
 72
2
 41
0.9
 42
88.0
  3
DIMSTYLE_1
100
AcDbAlignedDimension
 13
44.0442582557
 23
44.0
 14
44.615136
 24
-44.0
 50
270.0
100
AcDbRotatedDimension
  0
DIMENSION
  5
23A
100
AcDbEntity
  8
0
100
AcDbDimension
 62
7
  6
CONTINUOUS
  2
*D2
 10
-83.2952225604
 20
51.9997309103
 11
-101.1767143323
 21
51.9997309103
 70
160
 71
3
 72
2
 41
0.9
 42
7.8
  3
DIMSTYLE_1
100
AcDbAlignedDimension
 13
-91.0952225604
 23
44.122016
 14
-83.2952225604
 24
42.5649933343
100
AcDbRotatedDimension
  0
LINE
  5
23B
100
AcDbEntity
  8
0
100
AcDbLine
 62
7
  6
CONTINUOUS
 10
-45.0
 20
42.5
 11
-45.0
 21
-42.5
  0
LINE
  5
23C
100
AcDbEntity
  8
RACCORDO
100
AcDbLine
 62
7
  6
CONTINUOUS
 10
-45.0
 20
42.5
 11
-45.0
 21
-42.5
  0
LINE
  5
23D
100
AcDbEntity
  8
0
100
AcDbLine
 62
250
  6
CONTINUOUS
 10
-44.5
 20
42.5
 11
-44.5
 21
-42.5
  0
LINE
  5
23E
100
AcDbEntity
  8
RACCORDO
100
AcDbLine
 62
250
  6
CONTINUOUS
 10
-44.5
 20
42.5
 11
-44.5
 21
-42.5
  0
LINE
  5
23F
100
AcDbEntity
  8
0
100
AcDbLine
 62
250
  6
CONTINUOUS
 10
-43.5
 20
-43.5
 11
-43.5
 21
-44.0
  0
LINE
  5
240
100
AcDbEntity
  8
RACCORDO
100
AcDbLine
 62
250
  6
CONTINUOUS
 10
-43.5
 20
-43.5
 11
-43.5
 21
-44.0
  0
LINE
  5
241
100
AcDbEntity
  8
0
100
AcDbLine
 62
250
  6
CONTINUOUS
 10
-43.5
 20
43.5
 11
-43.5
 21
44.0
  0
LINE
  5
242
100
AcDbEntity
  8
RACCORDO
100
AcDbLine
 62
250
  6
CONTINUOUS
 10
-43.5
 20
43.5
 11
-43.5
 21
44.0
  0
LINE
  5
243
100
AcDbEntity
  8
0
100
AcDbLine
 62
7
  6
CONTINUOUS
 10
-43.5
 20
-44.0
 11
43.5
 21
-44.0
  0
LINE
  5
244
100
AcDbEntity
  8
RACCORDO
100
AcDbLine
 62
7
  6
CONTINUOUS
 10
-43.5
 20
-44.0
 11
43.5
 21
-44.0
  0
LINE
  5
245
100
AcDbEntity
  8
0
100
AcDbLine
 62
250
  6
CONTINUOUS
 10
-43.5
 20
-43.5
 11
43.5
 21
-43.5
  0
LINE
  5
246
100
AcDbEntity
  8
RACCORDO
100
AcDbLine
 62
250
  6
CONTINUOUS
 10
-43.5
 20
-43.5
 11
43.5
 21
-43.5
  0
LINE
  5
247
100
AcDbEntity
  8
0
100
AcDbLine
 62
250
  6
CONTINUOUS
 10
-44.5
 20
-42.5
 11
-45.0
 21
-42.5
  0
LINE
  5
248
100
AcDbEntity
  8
RACCORDO
100
AcDbLine
 62
250
  6
CONTINUOUS
 10
-44.5
 20
-42.5
 11
-45.0
 21
-42.5
  0
LINE
  5
249
100
AcDbEntity
  8
0
100
AcDbLine
 62
250
  6
CONTINUOUS
 10
44.5
 20
-42.5
 11
45.0
 21
-42.5
  0
LINE
  5
24A
100
AcDbEntity
  8
RACCORDO
100
AcDbLine
 62
250
  6
CONTINUOUS
 10
44.5
 20
-42.5
 11
45.0
 21
-42.5
  0
LWPOLYLINE
  5
24B
100
AcDbEntity
  8
0
100
AcDbPolyline
 62
7
  6
CONTINUOUS
 90
10
 70
0
 43
0.3500000019
 10
-1.9285722656
 20
52.7500004883
 10
-1.0714262695
 20
53.6071411133
 10
-0.8571411133
 20
54.4642871094
 10
-0.8571411133
 20
55.3214277344
 10
-1.2857167969
 20
55.7499980469
 10
-1.9285722656
 20
55.7499980469
 10
-2.3571425781
 20
55.3214277344
 10
-2.3571425781
 20
54.4642871094
 10
-1.9285722656
 20
54.0357167969
 10
-1.0000014648
 20
54.0357167969
  0
LINE
  5
24C
100
AcDbEntity
  8
0
100
AcDbLine
 62
250
  6
CONTINUOUS
 10
22.175
 20
-27.125
 11
-22.175
 21
-27.125
  0
LINE
  5
24D
100
AcDbEntity
  8
RACCORDO
100
AcDbLine
 62
250
  6
CONTINUOUS
 10
22.175
 20
-27.125
 11
-22.175
 21
-27.125
  0
LINE
  5
24E
100
AcDbEntity
  8
0
100
AcDbLine
 62
7
  6
CONTINUOUS
 10
22.175
 20
-26.825
 11
-22.175
 21
-26.825
  0
LINE
  5
24F
100
AcDbEntity
  8
RACCORDO
100
AcDbLine
 62
7
  6
CONTINUOUS
 10
22.175
 20
-26.825
 11
-22.175
 21
-26.825
  0
LINE
  5
250
100
AcDbEntity
  8
0
100
AcDbLine
 62
250
  6
CONTINUOUS
 10
23.075
 20
-26.225
 11
22.775
 21
-26.225
  0
LINE
  5
251
100
AcDbEntity
  8
RACCORDO
100
AcDbLine
 62
250
  6
CONTINUOUS
 10
23.075
 20
-26.225
 11
22.775
 21
-26.225
  0
LINE
  5
252
100
AcDbEntity
  8
0
100
AcDbLine
 62
250
  6
CONTINUOUS
 10
-23.075
 20
-26.225
 11
-22.775
 21
-26.225
  0
LINE
  5
253
100
AcDbEntity
  8
RACCORDO
100
AcDbLine
 62
250
  6
CONTINUOUS
 10
-23.075
 20
-26.225
 11
-22.775
 21
-26.225
  0
LINE
  5
254
100
AcDbEntity
  8
0
100
AcDbLine
 62
250
  6
CONTINUOUS
 10
-23.075
 20
-26.225
 11
-23.075
 21
26.225
  0
LINE
  5
255
100
AcDbEntity
  8
RACCORDO
100
AcDbLine
 62
250
  6
CONTINUOUS
 10
-23.075
 20
-26.225
 11
-23.075
 21
26.225
  0
LINE
  5
256
100
AcDbEntity
  8
0
100
AcDbLine
 62
7
  6
CONTINUOUS
 10
-22.775
 20
-26.225
 11
-22.775
 21
26.225
  0
LINE
  5
257
100
AcDbEntity
  8
RACCORDO
100
AcDbLine
 62
7
  6
CONTINUOUS
 10
-22.775
 20
-26.225
 11
-22.775
 21
26.225
  0
LINE
  5
258
100
AcDbEntity
  8
0
100
AcDbLine
 62
250
  6
CONTINUOUS
 10
-22.175
 20
27.125
 11
-22.175
 21
26.825
  0
LINE
  5
259
100
AcDbEntity
  8
RACCORDO
100
AcDbLine
 62
250
  6
CONTINUOUS
 10
-22.175
 20
27.125
 11
-22.175
 21
26.825
  0
LINE
  5
25A
100
AcDbEntity
  8
0
100
AcDbLine
 62
250
  6
CONTINUOUS
 10
-22.175
 20
-27.125
 11
-22.175
 21
-26.825
  0
LINE
  5
25B
100
AcDbEntity
  8
RACCORDO
100
AcDbLine
 62
250
  6
CONTINUOUS
 10
-22.175
 20
-27.125
 11
-22.175
 21
-26.825
  0
LWPOLYLINE
  5
25C
100
AcDbEntity
  8
0
100
AcDbPolyline
 62
7
  6
CONTINUOUS
 90
13
 70
0
 43
0.3500000019
 10
-0.0000004883
 20
53.6071411133
 10
-0.0000004883
 20
54.8928574219
 10
0.214284668
 20
55.3214277344
 10
0.6428549805
 20
55.7499980469
 10
0.8571455078
 20
55.7499980469
 10
1.2857158203
 20
55.3214277344
 10
1.5000009766
 20
54.8928574219
 10
1.5000009766
 20
53.6071411133
 10
1.2857158203
 20
53.1785708008
 10
0.8571455078
 20
52.7500004883
 10
0.6428549805
 20
52.7500004883
 10
0.214284668
 20
53.1785708008
 10
-0.0000004883
 20
53.6071411133
  0
LWPOLYLINE
  5
25D
100
AcDbEntity
  8
0
100
AcDbPolyline
 62
7
  6
CONTINUOUS
 90
4
 70
0
 43
0.3500000019
 10
51.8214238281
 20
-2.3571429291
 10
50.9642832031
 20
-2.3571429291
 10
50.5357128906
 20
-1.9285714417
 10
50.5357128906
 20
-1.2857142944
  0
LWPOLYLINE
  5
25E
100
AcDbEntity
  8
0
100
AcDbPolyline
 62
7
  6
CONTINUOUS
 90
4
 70
0
 43
0.3500000019
 10
51.8214238281
 20
0.0
 10
50.9642832031
 20
0.0
 10
50.5357128906
 20
0.4285714455
 10
50.5357128906
 20
1.0714285507
  0
LINE
  5
25F
100
AcDbEntity
  8
0
100
AcDbLine
 62
250
  6
CONTINUOUS
 10
22.175
 20
27.125
 11
22.175
 21
26.825
  0
LINE
  5
260
100
AcDbEntity
  8
RACCORDO
100
AcDbLine
 62
250
  6
CONTINUOUS
 10
22.175
 20
27.125
 11
22.175
 21
26.825
  0
LINE
  5
261
100
AcDbEntity
  8
0
100
AcDbLine
 62
250
  6
CONTINUOUS
 10
22.175
 20
-27.125
 11
22.175
 21
-26.825
  0
LINE
  5
262
100
AcDbEntity
  8
RACCORDO
100
AcDbLine
 62
250
  6
CONTINUOUS
 10
22.175
 20
-27.125
 11
22.175
 21
-26.825
  0
LINE
  5
263
100
AcDbEntity
  8
0
100
AcDbLine
 62
7
  6
CONTINUOUS
 10
22.775
 20
26.225
 11
22.775
 21
-26.225
  0
LINE
  5
264
100
AcDbEntity
  8
RACCORDO
100
AcDbLine
 62
7
  6
CONTINUOUS
 10
22.775
 20
26.225
 11
22.775
 21
-26.225
  0
LINE
  5
265
100
AcDbEntity
  8
0
100
AcDbLine
 62
250
  6
CONTINUOUS
 10
23.075
 20
26.225
 11
23.075
 21
-26.225
  0
LINE
  5
266
100
AcDbEntity
  8
RACCORDO
100
AcDbLine
 62
250
  6
CONTINUOUS
 10
23.075
 20
26.225
 11
23.075
 21
-26.225
  0
LINE
  5
267
100
AcDbEntity
  8
0
100
AcDbLine
 62
250
  6
CONTINUOUS
 10
23.075
 20
26.225
 11
22.775
 21
26.225
  0
LINE
  5
268
100
AcDbEntity
  8
RACCORDO
100
AcDbLine
 62
250
  6
CONTINUOUS
 10
23.075
 20
26.225
 11
22.775
 21
26.225
  0
LINE
  5
269
100
AcDbEntity
  8
0
100
AcDbLine
 62
250
  6
CONTINUOUS
 10
-23.075
 20
26.225
 11
-22.775
 21
26.225
  0
LINE
  5
26A
100
AcDbEntity
  8
RACCORDO
100
AcDbLine
 62
250
  6
CONTINUOUS
 10
-23.075
 20
26.225
 11
-22.775
 21
26.225
  0
LINE
  5
26B
100
AcDbEntity
  8
0
100
AcDbLine
 62
7
  6
CONTINUOUS
 10
-22.175
 20
26.825
 11
22.175
 21
26.825
  0
LINE
  5
26C
100
AcDbEntity
  8
RACCORDO
100
AcDbLine
 62
7
  6
CONTINUOUS
 10
-22.175
 20
26.825
 11
22.175
 21
26.825
  0
LINE
  5
26D
100
AcDbEntity
  8
0
100
AcDbLine
 62
250
  6
CONTINUOUS
 10
-22.175
 20
27.125
 11
22.175
 21
27.125
  0
LINE
  5
26E
100
AcDbEntity
  8
RACCORDO
100
AcDbLine
 62
250
  6
CONTINUOUS
 10
-22.175
 20
27.125
 11
22.175
 21
27.125
  0
LWPOLYLINE
  5
26F
100
AcDbEntity
  8
0
100
AcDbPolyline
 62
7
  6
CONTINUOUS
 90
13
 70
0
 43
0.3500000019
 10
50.5357128906
 20
0.4285714455
 10
50.3214277344
 20
0.1428571415
 10
49.6785722656
 20
0.1428571415
 10
49.2500019531
 20
0.4285714455
 10
49.2500019531
 20
1.0714285507
 10
49.6785722656
 20
1.3571428757
 10
50.3214277344
 20
1.3571428757
 10
50.5357128906
 20
1.0714285507
 10
50.9642832031
 20
1.4999999542
 10
51.8214238281
 20
1.4999999542
 10
52.2500048828
 20
1.0714285507
 10
52.2500048828
 20
0.4285714455
 10
51.8214238281
 20
0.0
  0
LWPOLYLINE
  5
270
100
AcDbEntity
  8
0
100
AcDbPolyline
 62
7
  6
CONTINUOUS
 90
13
 70
0
 43
0.3500000019
 10
50.5357128906
 20
-1.9285714417
 10
50.3214277344
 20
-2.2142857666
 10
49.6785722656
 20
-2.2142857666
 10
49.2500019531
 20
-1.9285714417
 10
49.2500019531
 20
-1.2857142944
 10
49.6785722656
 20
-0.9999999695
 10
50.3214277344
 20
-0.9999999695
 10
50.5357128906
 20
-1.2857142944
 10
50.9642832031
 20
-0.8571428909
 10
51.8214238281
 20
-0.8571428909
 10
52.2500048828
 20
-1.2857142944
 10
52.2500048828
 20
-1.9285714417
 10
51.8214238281
 20
-2.3571429291
  0
LINE
  5
271
100
AcDbEntity
  8
0
100
AcDbLine
 62
250
  6
CONTINUOUS
 10
-44.5
 20
42.5
 11
-45.0
 21
42.5
  0
LINE
  5
272
100
AcDbEntity
  8
RACCORDO
100
AcDbLine
 62
250
  6
CONTINUOUS
 10
-44.5
 20
42.5
 11
-45.0
 21
42.5
  0
LINE
  5
273
100
AcDbEntity
  8
0
100
AcDbLine
 62
250
  6
CONTINUOUS
 10
44.5
 20
42.5
 11
45.0
 21
42.5
  0
LINE
  5
274
100
AcDbEntity
  8
RACCORDO
100
AcDbLine
 62
250
  6
CONTINUOUS
 10
44.5
 20
42.5
 11
45.0
 21
42.5
  0
LINE
  5
275
100
AcDbEntity
  8
0
100
AcDbLine
 62
250
  6
CONTINUOUS
 10
43.5
 20
-43.5
 11
43.5
 21
-44.0
  0
LINE
  5
276
100
AcDbEntity
  8
RACCORDO
100
AcDbLine
 62
250
  6
CONTINUOUS
 10
43.5
 20
-43.5
 11
43.5
 21
-44.0
  0
LINE
  5
277
100
AcDbEntity
  8
0
100
AcDbLine
 62
250
  6
CONTINUOUS
 10
43.5
 20
43.5
 11
43.5
 21
44.0
  0
LINE
  5
278
100
AcDbEntity
  8
RACCORDO
100
AcDbLine
 62
250
  6
CONTINUOUS
 10
43.5
 20
43.5
 11
43.5
 21
44.0
  0
LINE
  5
279
100
AcDbEntity
  8
0
100
AcDbLine
 62
250
  6
CONTINUOUS
 10
44.5
 20
-42.5
 11
44.5
 21
42.5
  0
LINE
  5
27A
100
AcDbEntity
  8
RACCORDO
100
AcDbLine
 62
250
  6
CONTINUOUS
 10
44.5
 20
-42.5
 11
44.5
 21
42.5
  0
LINE
  5
27B
100
AcDbEntity
  8
0
100
AcDbLine
 62
7
  6
CONTINUOUS
 10
45.0
 20
-42.5
 11
45.0
 21
42.5
  0
LINE
  5
27C
100
AcDbEntity
  8
RACCORDO
100
AcDbLine
 62
7
  6
CONTINUOUS
 10
45.0
 20
-42.5
 11
45.0
 21
42.5
  0
LINE
  5
27D
100
AcDbEntity
  8
0
100
AcDbLine
 62
250
  6
CONTINUOUS
 10
43.5
 20
43.5
 11
-43.5
 21
43.5
  0
LINE
  5
27E
100
AcDbEntity
  8
RACCORDO
100
AcDbLine
 62
250
  6
CONTINUOUS
 10
43.5
 20
43.5
 11
-43.5
 21
43.5
  0
LINE
  5
27F
100
AcDbEntity
  8
0
100
AcDbLine
 62
7
  6
CONTINUOUS
 10
43.5
 20
44.0
 11
-43.5
 21
44.0
  0
LINE
  5
280
100
AcDbEntity
  8
RACCORDO
100
AcDbLine
 62
7
  6
CONTINUOUS
 10
43.5
 20
44.0
 11
-43.5
 21
44.0
  0
LINE
  5
281
100
AcDbEntity
  8
0
100
AcDbLine
 62
7
  6
CONTINUOUS
 10
-90.5952225604
 20
-44.0
 11
-86.1952225604
 21
-44.0
  0
LINE
  5
282
100
AcDbEntity
  8
RACCORDO
100
AcDbLine
 62
7
  6
CONTINUOUS
 10
-90.5952225604
 20
-44.0
 11
-86.1952225604
 21
-44.0
  0
LINE
  5
283
100
AcDbEntity
  8
RACCORDO
100
AcDbLine
 62
7
  6
CONTINUOUS
 10
-83.4899871707
 20
-42.4213051418
 11
-86.1954281302
 21
-42.4921496066
  0
LINE
  5
284
100
AcDbEntity
  8
RACCORDO
100
AcDbLine
 62
250
  6
CONTINUOUS
 10
-83.4899871707
 20
-41.7215450143
 11
-86.1952225604
 21
-41.792384096
  0
LINE
  5
285
100
AcDbEntity
  8
0
100
AcDbLine
 62
250
  6
CONTINUOUS
 10
-91.0952225604
 20
-42.5
 11
-86.1952225604
 21
-42.5
  0
LINE
  5
286
100
AcDbEntity
  8
RACCORDO
100
AcDbLine
 62
250
  6
CONTINUOUS
 10
-91.0952225604
 20
-42.5
 11
-86.1952225604
 21
-42.5
  0
LINE
  5
287
100
AcDbEntity
  8
RACCORDO
100
AcDbLine
 62
250
  6
CONTINUOUS
 10
-83.2952225604
 20
-41.7215450143
 11
-83.4899871707
 21
-41.7215450143
  0
LINE
  5
288
100
AcDbEntity
  8
CURVE
100
AcDbLine
 62
250
  6
CONTINUOUS
 10
-88.2715245604
 20
-37.66486
 11
-89.6480755604
 21
-38.046066
  0
LINE
  5
289
100
AcDbEntity
  8
CURVE
100
AcDbLine
 62
250
  6
CONTINUOUS
 10
-87.6482375604
 20
-36.699936
 11
-89.6481955604
 21
-36.699936
  0
LINE
  5
28A
100
AcDbEntity
  8
CURVE
100
AcDbLine
 62
250
  6
CONTINUOUS
 10
-89.6481955604
 20
-36.282492
 11
-87.6482375604
 21
-36.282492
  0
LINE
  5
28B
100
AcDbEntity
  8
CURVE
100
AcDbLine
 62
250
  6
CONTINUOUS
 10
-87.6482375604
 20
-35.65841
 11
-88.9540945604
 21
-35.568326
  0
LINE
  5
28C
100
AcDbEntity
  8
CURVE
100
AcDbLine
 62
250
  6
CONTINUOUS
 10
-89.6480755604
 20
-35.877194
 11
-87.6482375604
 21
-36.057768
  0
LINE
  5
28D
100
AcDbEntity
  8
CURVE
100
AcDbLine
 62
250
  6
CONTINUOUS
 10
-89.6480755604
 20
-37.272011
 11
-88.2715245604
 21
-37.66486
  0
LINE
  5
28E
100
AcDbEntity
  8
CURVE
100
AcDbLine
 62
250
  6
CONTINUOUS
 10
-87.6482375604
 20
-37.497679
 11
-89.6480755604
 21
-36.854851
  0
LINE
  5
28F
100
AcDbEntity
  8
CURVE
100
AcDbLine
 62
250
  6
CONTINUOUS
 10
-87.6482375604
 20
-34.029587
 11
-89.6480755604
 21
-34.216594
  0
LINE
  5
290
100
AcDbEntity
  8
CURVE
100
AcDbLine
 62
250
  6
CONTINUOUS
 10
-88.9486495604
 20
-34.523725
 11
-87.6482375604
 21
-34.437958
  0
LINE
  5
291
100
AcDbEntity
  8
CURVE
100
AcDbLine
 62
250
  6
CONTINUOUS
 10
-87.6482372951
 20
-32.1967511684
 11
-89.6247101422
 21
-32.1967511684
  0
LINE
  5
292
100
AcDbEntity
  8
CURVE
100
AcDbLine
 62
250
  6
CONTINUOUS
 10
-88.3564055604
 20
-33.350542
 11
-89.0985705604
 21
-33.14269
  0
LINE
  5
293
100
AcDbEntity
  8
CURVE
100
AcDbLine
 62
250
  6
CONTINUOUS
 10
-87.6482375604
 20
-33.551121
 11
-88.0474765604
 21
-33.435933
  0
LINE
  5
294
100
AcDbEntity
  8
CURVE
100
AcDbLine
 62
250
  6
CONTINUOUS
 10
-89.6480755604
 20
-33.33676
 11
-87.6482375604
 21
-33.964037
  0
LINE
  5
295
100
AcDbEntity
  8
CURVE
100
AcDbLine
 62
250
  6
CONTINUOUS
 10
-89.6480755604
 20
-34.629615
 11
-88.5377595604
 21
-35.047059
  0
LINE
  5
296
100
AcDbEntity
  8
CURVE
100
AcDbLine
 62
250
  6
CONTINUOUS
 10
-87.6482375604
 20
-35.020066
 11
-88.9486495604
 21
-34.523725
  0
LINE
  5
297
100
AcDbEntity
  8
CURVE
100
AcDbLine
 62
250
  6
CONTINUOUS
 10
-87.9166121496
 20
-31.2199102629
 11
-88.0017706878
 21
-31.2440582621
  0
LINE
  5
298
100
AcDbEntity
  8
CURVE
100
AcDbLine
 62
250
  6
CONTINUOUS
 10
-88.0474765604
 20
-32.867443
 11
-87.6482375604
 21
-32.759302
  0
LINE
  5
299
100
AcDbEntity
  8
CURVE
100
AcDbLine
 62
250
  6
CONTINUOUS
 10
-88.2359502409
 20
-30.8954949237
 11
-88.1172373361
 21
-30.8633952647
  0
LINE
  5
29A
100
AcDbEntity
  8
CURVE
100
AcDbLine
 62
250
  6
CONTINUOUS
 10
-87.7196351229
 20
-30.7592400308
 11
-87.6482372951
 21
-30.7401943813
  0
LINE
  5
29B
100
AcDbEntity
  8
CURVE
100
AcDbLine
 62
250
  6
CONTINUOUS
 10
-88.1172373361
 20
-30.8633952647
 11
-87.9725716861
 21
-30.8251863529
  0
LINE
  5
29C
100
AcDbEntity
  8
CURVE
100
AcDbLine
 62
250
  6
CONTINUOUS
 10
-87.9725716861
 20
-30.8251863529
 11
-87.7196351229
 21
-30.7592400308
  0
LINE
  5
29D
100
AcDbEntity
  8
CURVE
100
AcDbLine
 62
250
  6
CONTINUOUS
 10
-89.0985705604
 20
-33.14269
 11
-88.3564055604
 21
-32.950869
  0
LWPOLYLINE
  5
29E
100
AcDbEntity
  8
CURVE
100
AcDbPolyline
 62
250
  6
CONTINUOUS
 90
49
 70
0
 10
-89.0691622336
 20
-31.231991874
 10
-89.076830105
 20
-31.2322358837
 10
-89.0845144961
 20
-31.2327267928
 10
-89.0922063689
 20
-31.2334621803
 10
-89.0998966854
 20
-31.2344396254
 10
-89.1075764076
 20
-31.2356567071
 10
-89.1152364974
 20
-31.2371110043
 10
-89.1228679169
 20
-31.2388000961
 10
-89.130461628
 20
-31.2407215615
 10
-89.1380085927
 20
-31.2428729797
 10
-89.145499773
 20
-31.2452519295
 10
-89.152926131
 20
-31.2478559901
 10
-89.1602786285
 20
-31.2506827405
 10
-89.1675482276
 20
-31.2537297597
 10
-89.1747258903
 20
-31.2569946267
 10
-89.1818025785
 20
-31.2604749206
 10
-89.1887692543
 20
-31.2641682205
 10
-89.1956168796
 20
-31.2680721052
 10
-89.2023364164
 20
-31.272184154
 10
-89.2089188267
 20
-31.2765019458
 10
-89.2153550725
 20
-31.2810230596
 10
-89.2216361158
 20
-31.2857450745
 10
-89.2277529186
 20
-31.2906655695
 10
-89.2336964428
 20
-31.2957821237
 10
-89.2394576505
 20
-31.3010923161
 10
-89.2450588997
 20
-31.3066233836
 10
-89.2504661111
 20
-31.3123393403
 10
-89.2556787031
 20
-31.318231758
 10
-89.2606960944
 20
-31.3242922083
 10
-89.2655177034
 20
-31.330512263
 10
-89.2701429487
 20
-31.3368834939
 10
-89.2745712487
 20
-31.3433974725
 10
-89.278802022
 20
-31.3500457708
 10
-89.2828346872
 20
-31.3568199603
 10
-89.2866686626
 20
-31.3637116128
 10
-89.2903033669
 20
-31.3707123
 10
-89.2937382186
 20
-31.3778135937
 10
-89.2969726361
 20
-31.3850070656
 10
-89.3000060381
 20
-31.3922842874
 10
-89.3028378429
 20
-31.3996368308
 10
-89.3054674692
 20
-31.4070562675
 10
-89.3078943355
 20
-31.4145341693
 10
-89.3101178602
 20
-31.4220621079
 10
-89.3121374619
 20
-31.4296316551
 10
-89.3139525592
 20
-31.4372343824
 10
-89.3155625705
 20
-31.4448618617
 10
-89.3169669143
 20
-31.4525056648
 10
-89.3181650092
 20
-31.4601573632
 10
-89.3191562737
 20
-31.4678085288
  0
LINE
  5
29F
100
AcDbEntity
  8
CURVE
100
AcDbLine
 62
250
  6
CONTINUOUS
 10
-89.3073827364
 20
-31.7948281153
 11
-88.7583883286
 21
-31.7948281153
  0
LINE
  5
2A0
100
AcDbEntity
  8
CURVE
100
AcDbLine
 62
250
  6
CONTINUOUS
 10
-88.4308632557
 20
-31.7809862819
 11
-87.6482372951
 21
-31.7809862819
  0
LINE
  5
2A1
100
AcDbEntity
  8
CURVE
100
AcDbLine
 62
250
  6
CONTINUOUS
 10
-88.5935610357
 20
-31.1235216885
 11
-88.5817437391
 21
-31.1235216885
  0
LWPOLYLINE
  5
2A2
100
AcDbEntity
  8
0
100
AcDbPolyline
 62
7
  6
CONTINUOUS
 90
3
 70
0
 43
0.3500000019
 10
-98.105286377
 20
53.0354472656
 10
-98.1767138672
 20
52.8211621094
 10
-98.3195715332
 20
52.5354467773
  0
LWPOLYLINE
  5
2A3
100
AcDbEntity
  8
0
100
AcDbPolyline
 62
7
  6
CONTINUOUS
 90
4
 70
0
 43
0.3500000019
 10
-101.1767141113
 20
55.1068740234
 10
-101.1767141113
 20
55.7497294922
 10
-99.676715332
 20
55.7497294922
 10
-100.533855957
 20
52.7497319336
  0
LWPOLYLINE
  5
2A4
100
AcDbEntity
  8
0
100
AcDbPolyline
 62
7
  6
CONTINUOUS
 90
4
 70
0
 43
0.3500000019
 10
-97.1052854004
 20
53.1783022461
 10
-97.1052854004
 20
54.0354428711
 10
-96.6767150879
 20
54.4640185547
 10
-96.0338569336
 20
54.4640185547
  0
LWPOLYLINE
  5
2A5
100
AcDbEntity
  8
CURVE
100
AcDbPolyline
 62
250
  6
CONTINUOUS
 90
32
 70
0
 10
-89.6247101422
 20
-32.1967511684
 10
-89.6302104991
 20
-32.1586840046
 10
-89.6354999087
 20
-32.1205575843
 10
-89.6405481809
 20
-32.0823760299
 10
-89.6453251253
 20
-32.0441434637
 10
-89.6498005516
 20
-32.0058640082
 10
-89.6539442695
 20
-31.9675417857
 10
-89.6577260887
 20
-31.9291809186
 10
-89.661115819
 20
-31.8907855293
 10
-89.66408327
 20
-31.8523597402
 10
-89.6665982514
 20
-31.8139076737
 10
-89.6686305729
 20
-31.7754334521
 10
-89.6701500443
 20
-31.7369411979
 10
-89.6711264752
 20
-31.6984350334
 10
-89.6715296753
 20
-31.6599190811
 10
-89.6713294544
 20
-31.6213974633
 10
-89.6704956221
 20
-31.5828743023
 10
-89.6689979881
 20
-31.5443537207
 10
-89.6668063622
 20
-31.5058398407
 10
-89.663890554
 20
-31.4673367847
 10
-89.6615318739
 20
-31.4417475231
 10
-89.6588050092
 20
-31.4161853589
 10
-89.6556752724
 20
-31.390670782
 10
-89.652107976
 20
-31.3652242823
 10
-89.6480684324
 20
-31.3398663495
 10
-89.6435219542
 20
-31.3146174736
 10
-89.638433854
 20
-31.2894981443
 10
-89.6327694441
 20
-31.2645288515
 10
-89.6264940372
 20
-31.2397300851
 10
-89.6195729457
 20
-31.2151223348
 10
-89.6119714821
 20
-31.1907260906
 10
-89.603654959
 20
-31.1665618423
  0
LINE
  5
2A6
100
AcDbEntity
  8
0
100
AcDbLine
 62
7
  6
CONTINUOUS
 10
-91.0952225604
 20
-43.5
 11
-91.0952225604
 21
43.5
  0
LINE
  5
2A7
100
AcDbEntity
  8
RACCORDO
100
AcDbLine
 62
7
  6
CONTINUOUS
 10
-91.0952225604
 20
-43.5
 11
-91.0952225604
 21
43.5
  0
LINE
  5
2A8
100
AcDbEntity
  8
0
100
AcDbLine
 62
250
  6
CONTINUOUS
 10
-90.5952225604
 20
-44.0
 11
-90.5952225604
 21
44.0
  0
LINE
  5
2A9
100
AcDbEntity
  8
RACCORDO
100
AcDbLine
 62
250
  6
CONTINUOUS
 10
-90.5952225604
 20
-44.0
 11
-90.5952225604
 21
44.0
  0
LWPOLYLINE
  5
2AA
100
AcDbEntity
  8
CURVE
100
AcDbPolyline
 62
250
  6
CONTINUOUS
 90
59
 70
0
 10
-88.7583883286
 20
-31.5562626914
 10
-88.758634764
 20
-31.5477016859
 10
-88.7589969891
 20
-31.5390816118
 10
-88.759480823
 20
-31.5304127246
 10
-88.7600920849
 20
-31.5217052798
 10
-88.7608365938
 20
-31.512969533
 10
-88.761720169
 20
-31.5042157396
 10
-88.7627486296
 20
-31.4954541553
 10
-88.7639277946
 20
-31.4866950355
 10
-88.7652634833
 20
-31.4779486357
 10
-88.7667615147
 20
-31.4692252115
 10
-88.7684277079
 20
-31.4605350184
 10
-88.7702678822
 20
-31.451888312
 10
-88.7722878567
 20
-31.4432953477
 10
-88.7744934504
 20
-31.4347663811
 10
-88.7768904826
 20
-31.4263116677
 10
-88.7794847722
 20
-31.4179414631
 10
-88.7822821386
 20
-31.4096660227
 10
-88.7852884008
 20
-31.4014956021
 10
-88.7885093779
 20
-31.3934404569
 10
-88.7919508891
 20
-31.3855108425
 10
-88.7956187535
 20
-31.3777170144
 10
-88.7995187902
 20
-31.3700692283
 10
-88.8036568184
 20
-31.3625777396
 10
-88.8080386572
 20
-31.3552528038
 10
-88.8126701257
 20
-31.3481046765
 10
-88.8175570432
 20
-31.3411436132
 10
-88.8227052286
 20
-31.3343798695
 10
-88.8281205011
 20
-31.3278237008
 10
-88.8338851115
 20
-31.3213987303
 10
-88.8399181338
 20
-31.3151974709
 10
-88.8462075838
 20
-31.3092198248
 10
-88.8527414775
 20
-31.3034656942
 10
-88.8595078305
 20
-31.2979349813
 10
-88.8664946587
 20
-31.2926275884
 10
-88.8736899779
 20
-31.2875434175
 10
-88.881081804
 20
-31.282682371
 10
-88.8886581527
 20
-31.2780443511
 10
-88.89640704
 20
-31.2736292599
 10
-88.9043164815
 20
-31.2694369996
 10
-88.9123744932
 20
-31.2654674726
 10
-88.9205690909
 20
-31.2617205809
 10
-88.9288882903
 20
-31.2581962268
 10
-88.9373201073
 20
-31.2548943124
 10
-88.9458525578
 20
-31.2518147401
 10
-88.9544736575
 20
-31.248957412
 10
-88.9631714223
 20
-31.2463222303
 10
-88.9719338679
 20
-31.2439090973
 10
-88.9807490103
 20
-31.241717915
 10
-88.9896048652
 20
-31.2397485858
 10
-88.9984894484
 20
-31.2380010119
 10
-89.0073907758
 20
-31.2364750954
 10
-89.0162968632
 20
-31.2351707385
 10
-89.0251957264
 20
-31.2340878435
 10
-89.0340753813
 20
-31.2332263126
 10
-89.0429238436
 20
-31.232586048
 10
-89.0517291292
 20
-31.2321669519
 10
-89.0604792539
 20
-31.2319689265
 10
-89.0691622336
 20
-31.231991874
  0
LINE
  5
2AB
100
AcDbEntity
  8
CURVE
100
AcDbLine
 62
250
  6
CONTINUOUS
 10
-89.6481955604
 20
-36.699936
 11
-89.6481955604
 21
-36.282492
  0
LINE
  5
2AC
100
AcDbEntity
  8
CURVE
100
AcDbLine
 62
250
  6
CONTINUOUS
 10
-89.6480755604
 20
-32.932933
 11
-89.6480755604
 21
-33.33676
  0
LINE
  5
2AD
100
AcDbEntity
  8
CURVE
100
AcDbLine
 62
250
  6
CONTINUOUS
 10
-89.6480755604
 20
-34.216594
 11
-89.6480755604
 21
-34.629615
  0
LINE
  5
2AE
100
AcDbEntity
  8
CURVE
100
AcDbLine
 62
250
  6
CONTINUOUS
 10
-89.6480755604
 20
-35.460095
 11
-89.6480755604
 21
-35.877194
  0
LINE
  5
2AF
100
AcDbEntity
  8
CURVE
100
AcDbLine
 62
250
  6
CONTINUOUS
 10
-89.6480755604
 20
-36.854851
 11
-89.6480755604
 21
-37.272011
  0
LINE
  5
2B0
100
AcDbEntity
  8
CURVE
100
AcDbLine
 62
250
  6
CONTINUOUS
 10
-89.6480755604
 20
-38.046066
 11
-89.6480755604
 21
-38.499539
  0
LINE
  5
2B1
100
AcDbEntity
  8
CURVE
100
AcDbLine
 62
250
  6
CONTINUOUS
 10
-88.7583883286
 20
-31.7948281153
 11
-88.7583883286
 21
-31.5562626914
  0
LINE
  5
2B2
100
AcDbEntity
  8
CURVE
100
AcDbLine
 62
250
  6
CONTINUOUS
 10
-88.4308632557
 20
-31.5571624855
 11
-88.4308632557
 21
-31.7809862819
  0
LINE
  5
2B3
100
AcDbEntity
  8
CURVE
100
AcDbLine
 62
250
  6
CONTINUOUS
 10
-88.3564055604
 20
-32.950869
 11
-88.3564055604
 21
-33.350542
  0
LINE
  5
2B4
100
AcDbEntity
  8
CURVE
100
AcDbLine
 62
250
  6
CONTINUOUS
 10
-88.0474765604
 20
-33.435933
 11
-88.0474765604
 21
-32.867443
  0
LINE
  5
2B5
100
AcDbEntity
  8
CURVE
100
AcDbLine
 62
250
  6
CONTINUOUS
 10
-87.6482375604
 20
-37.865552
 11
-87.6482375604
 21
-37.497679
  0
LINE
  5
2B6
100
AcDbEntity
  8
CURVE
100
AcDbLine
 62
250
  6
CONTINUOUS
 10
-87.6482375604
 20
-36.057768
 11
-87.6482375604
 21
-35.65841
  0
LINE
  5
2B7
100
AcDbEntity
  8
CURVE
100
AcDbLine
 62
250
  6
CONTINUOUS
 10
-87.6482375604
 20
-35.078612
 11
-87.6482375604
 21
-35.020066
  0
LINE
  5
2B8
100
AcDbEntity
  8
CURVE
100
AcDbLine
 62
250
  6
CONTINUOUS
 10
-87.6482375604
 20
-34.437958
 11
-87.6482375604
 21
-34.029587
  0
LINE
  5
2B9
100
AcDbEntity
  8
CURVE
100
AcDbLine
 62
250
  6
CONTINUOUS
 10
-87.6482375604
 20
-33.964037
 11
-87.6482375604
 21
-33.551121
  0
LINE
  5
2BA
100
AcDbEntity
  8
CURVE
100
AcDbLine
 62
250
  6
CONTINUOUS
 10
-87.6482375604
 20
-32.759302
 11
-87.6482375604
 21
-32.319333
  0
LINE
  5
2BB
100
AcDbEntity
  8
CURVE
100
AcDbLine
 62
250
  6
CONTINUOUS
 10
-87.6482375604
 20
-36.282492
 11
-87.6482375604
 21
-36.699936
  0
LINE
  5
2BC
100
AcDbEntity
  8
CURVE
100
AcDbLine
 62
250
  6
CONTINUOUS
 10
-87.6482372951
 20
-30.7401943813
 11
-87.6482372951
 21
-31.1417275236
  0
LINE
  5
2BD
100
AcDbEntity
  8
CURVE
100
AcDbLine
 62
250
  6
CONTINUOUS
 10
-87.6482372951
 20
-31.7809862819
 11
-87.6482372951
 21
-32.1967511684
  0
LINE
  5
2BE
100
AcDbEntity
  8
0
100
AcDbLine
 62
7
  6
CONTINUOUS
 10
-86.1952225604
 20
44.0
 11
-86.1952225604
 21
-44.0
  0
LINE
  5
2BF
100
AcDbEntity
  8
RACCORDO
100
AcDbLine
 62
7
  6
CONTINUOUS
 10
-86.1952225604
 20
44.0
 11
-86.1952225604
 21
-44.0
  0
LWPOLYLINE
  5
2C0
100
AcDbEntity
  8
CURVE
100
AcDbPolyline
 62
250
  6
CONTINUOUS
 90
22
 70
0
 10
-89.3191562736
 20
-31.4678085288
 10
-89.3208759876
 20
-31.4836707516
 10
-89.322357495
 20
-31.4995669657
 10
-89.323600873
 20
-31.5154922152
 10
-89.3246061988
 20
-31.5314415442
 10
-89.3253735495
 20
-31.5474099967
 10
-89.3259030023
 20
-31.5633926167
 10
-89.3261946343
 20
-31.5793844484
 10
-89.3262485228
 20
-31.5953805357
 10
-89.3260647447
 20
-31.6113759229
 10
-89.3256433775
 20
-31.6273656538
 10
-89.3249844981
 20
-31.6433447725
 10
-89.3240881837
 20
-31.6593083232
 10
-89.3229545116
 20
-31.6752513498
 10
-89.3215835588
 20
-31.6911688965
 10
-89.3199754025
 20
-31.7070560072
 10
-89.3182768109
 20
-31.7217458829
 10
-89.316393288
 20
-31.7364079063
 10
-89.3143434766
 20
-31.7510446095
 10
-89.3121460191
 20
-31.7656585241
 10
-89.3098195582
 20
-31.7802521821
 10
-89.3073827364
 20
-31.7948281153
  0
LINE
  5
2C1
100
AcDbEntity
  8
RACCORDO
100
AcDbLine
 62
250
  6
CONTINUOUS
 10
-83.4886838414
 20
42.390507565
 11
-83.4882499784
 21
42.3536774896
  0
LINE
  5
2C2
100
AcDbEntity
  8
RACCORDO
100
AcDbLine
 62
250
  6
CONTINUOUS
 10
-83.4899871707
 20
-41.7215450143
 11
-83.4879650328
 21
-42.1092007053
  0
LINE
  5
2C3
100
AcDbEntity
  8
RACCORDO
100
AcDbLine
 62
250
  6
CONTINUOUS
 10
-83.4882499784
 20
42.3536774896
 11
-83.4878763032
 21
42.2729490941
  0
LINE
  5
2C4
100
AcDbEntity
  8
RACCORDO
100
AcDbLine
 62
250
  6
CONTINUOUS
 10
-83.4899871707
 20
41.7215450143
 11
-83.4899871707
 21
-41.7215450143
  0
LINE
  5
2C5
100
AcDbEntity
  8
RACCORDO
100
AcDbLine
 62
7
  6
CONTINUOUS
 10
-83.2952225604
 20
42.2213736768
 11
-83.2952225604
 21
-42.2213736768
  0
LINE
  5
2C6
100
AcDbEntity
  8
RACCORDO
100
AcDbLine
 62
250
  6
CONTINUOUS
 10
-83.4879650328
 20
-42.1092007053
 11
-83.4879247543
 21
-42.2919170682
  0
LINE
  5
2C7
100
AcDbEntity
  8
RACCORDO
100
AcDbLine
 62
250
  6
CONTINUOUS
 10
-83.4878763032
 20
42.2729490941
 11
-83.4880411106
 21
42.0822574428
  0
LINE
  5
2C8
100
AcDbEntity
  8
RACCORDO
100
AcDbLine
 62
250
  6
CONTINUOUS
 10
-83.4879247543
 20
-42.2919170682
 11
-83.4881890234
 21
-42.3458278439
  0
LINE
  5
2C9
100
AcDbEntity
  8
RACCORDO
100
AcDbLine
 62
250
  6
CONTINUOUS
 10
-83.4880411106
 20
42.0822574428
 11
-83.4899870946
 21
41.7215450123
  0
LWPOLYLINE
  5
2CA
100
AcDbEntity
  8
RACCORDO
100
AcDbPolyline
 62
250
  6
CONTINUOUS
 90
6
 70
0
 10
-83.4881890234
 20
-42.3458278439
 10
-83.4886217532
 20
-42.3868174775
 10
-83.4889047355
 20
-42.4016789362
 10
-83.489229241
 20
-42.4124804482
 10
-83.4895916134
 20
-42.41907198
 10
-83.4899870938
 20
-42.4213051398
  0
LWPOLYLINE
  5
2CB
100
AcDbEntity
  8
CURVE
100
AcDbPolyline
 62
250
  6
CONTINUOUS
 90
73
 70
0
 10
-89.603654959
 20
-31.1665618423
 10
-89.5985294621
 20
-31.1532862826
 10
-89.5928407879
 20
-31.1402339642
 10
-89.5866320031
 20
-31.1274042205
 10
-89.5799461743
 20
-31.1147963847
 10
-89.5728263681
 20
-31.1024097903
 10
-89.5653156511
 20
-31.0902437707
 10
-89.55745709
 20
-31.0782976593
 10
-89.5461719188
 20
-31.0622684765
 10
-89.5343244765
 20
-31.0466704294
 10
-89.5219261347
 20
-31.0315220038
 10
-89.5089882653
 20
-31.0168416856
 10
-89.4955222401
 20
-31.0026479606
 10
-89.4815394309
 20
-30.9889593147
 10
-89.4670512095
 20
-30.9757942337
 10
-89.4511759695
 20
-30.9624457154
 10
-89.4347782877
 20
-30.9497230282
 10
-89.417889561
 20
-30.9376443428
 10
-89.4005411863
 20
-30.92622783
 10
-89.3827645605
 20
-30.9154916607
 10
-89.3645910805
 20
-30.9054540057
 10
-89.346052143
 20
-30.8961330358
 10
-89.3271791452
 20
-30.8875469218
 10
-89.309574672
 20
-30.8803197728
 10
-89.2917371687
 20
-30.87372348
 10
-89.273688999
 20
-30.8677534804
 10
-89.2554525266
 20
-30.8624052106
 10
-89.2370501153
 20
-30.8576741073
 10
-89.2164095248
 20
-30.8531276592
 10
-89.1956168699
 20
-30.849315743
 10
-89.1746977712
 20
-30.8462147481
 10
-89.1536778493
 20
-30.8438010639
 10
-89.132582725
 20
-30.8420510798
 10
-89.110896691
 20
-30.8409273876
 10
-89.0891858524
 20
-30.8404899123
 10
-89.0674775555
 20
-30.8407516167
 10
-89.0457991465
 20
-30.8417254639
 10
-89.0241779717
 20
-30.8434244169
 10
-89.0026413772
 20
-30.8458614386
 10
-88.9838919695
 20
-30.8486084569
 10
-88.9652386857
 20
-30.851938136
 10
-88.9466920064
 20
-30.8558584682
 10
-88.9282624123
 20
-30.860377446
 10
-88.9099603842
 20
-30.8655030617
 10
-88.8917964029
 20
-30.8712433078
 10
-88.873769785
 20
-30.8776093929
 10
-88.8559327354
 20
-30.8845903379
 10
-88.8383260265
 20
-30.8921772547
 10
-88.8209904305
 20
-30.9003612546
 10
-88.8039667199
 20
-30.9091334495
 10
-88.7872956668
 20
-30.9184849508
 10
-88.7710180437
 20
-30.9284068701
 10
-88.7551746229
 20
-30.9388903191
 10
-88.7398061767
 20
-30.9499264093
 10
-88.7249534774
 20
-30.9615062523
 10
-88.7116814427
 20
-30.9727032529
 10
-88.6988273836
 20
-30.9843407867
 10
-88.6863321793
 20
-30.9964008551
 10
-88.674136709
 20
-31.0088654595
 10
-88.662181852
 20
-31.0217166011
 10
-88.6504084876
 20
-31.0349362812
 10
-88.6387574949
 20
-31.0485065014
 10
-88.6271697534
 20
-31.0624092628
 10
-88.6225857325
 20
-31.0680211751
 10
-88.6180763155
 20
-31.073699421
 10
-88.6137154551
 20
-31.0794607362
 10
-88.6095771038
 20
-31.0853218566
 10
-88.6057352143
 20
-31.0912995178
 10
-88.6022637392
 20
-31.0974104556
 10
-88.5992366312
 20
-31.1036714059
 10
-88.5967278429
 20
-31.1100991043
 10
-88.5948113268
 20
-31.1167102865
 10
-88.5935610357
 20
-31.1235216885
  0
LWPOLYLINE
  5
2CC
100
AcDbEntity
  8
CURVE
100
AcDbPolyline
 62
250
  6
CONTINUOUS
 90
45
 70
0
 10
-88.5817437391
 20
-31.1235216885
 10
-88.5783261489
 20
-31.1154178632
 10
-88.5746102063
 20
-31.1074839411
 10
-88.570604601
 20
-31.0997180967
 10
-88.5663180227
 20
-31.0921185047
 10
-88.5617591613
 20
-31.0846833394
 10
-88.5569367065
 20
-31.0774107755
 10
-88.5518593479
 20
-31.0702989875
 10
-88.5465357754
 20
-31.06334615
 10
-88.5409746787
 20
-31.0565504375
 10
-88.5351847476
 20
-31.0499100246
 10
-88.5291746718
 20
-31.0434230858
 10
-88.522953141
 20
-31.0370877957
 10
-88.5165288449
 20
-31.0309023287
 10
-88.5099104735
 20
-31.0248648596
 10
-88.5031067163
 20
-31.0189735627
 10
-88.4961262631
 20
-31.0132266128
 10
-88.4889778037
 20
-31.0076221842
 10
-88.4816700279
 20
-31.0021584516
 10
-88.4742116253
 20
-30.9968335895
 10
-88.4666112857
 20
-30.9916457724
 10
-88.4588776989
 20
-30.986593175
 10
-88.4510195546
 20
-30.9816739717
 10
-88.4430455425
 20
-30.9768863372
 10
-88.4349643525
 20
-30.9722284459
 10
-88.4267846742
 20
-30.9676984724
 10
-88.4185151974
 20
-30.9632945912
 10
-88.4101646118
 20
-30.959014977
 10
-88.4017416072
 20
-30.9548578042
 10
-88.3932548734
 20
-30.9508212474
 10
-88.3847131
 20
-30.9469034811
 10
-88.3761249769
 20
-30.94310268
 10
-88.3674991938
 20
-30.9394170185
 10
-88.3588444404
 20
-30.9358446712
 10
-88.3501694064
 20
-30.9323838126
 10
-88.3414827817
 20
-30.9290326173
 10
-88.3327932559
 20
-30.9257892599
 10
-88.3241095189
 20
-30.9226519149
 10
-88.3154402603
 20
-30.9196187568
 10
-88.3067941699
 20
-30.9166879602
 10
-88.2981799374
 20
-30.9138576997
 10
-88.2824990258
 20
-30.9089202629
 10
-88.2669219217
 20
-30.9042539868
 10
-88.2514164014
 20
-30.8997988732
 10
-88.2359502409
 20
-30.8954949237
  0
LWPOLYLINE
  5
2CD
100
AcDbEntity
  8
RACCORDO
100
AcDbPolyline
 62
250
  6
CONTINUOUS
 90
5
 70
0
 10
-83.4899871707
 20
42.4213051418
 10
-83.4896117883
 20
42.4193076195
 10
-83.4892664069
 20
42.4134113502
 10
-83.48895497
 20
42.4037451269
 10
-83.4886838414
 20
42.390507565
  0
LWPOLYLINE
  5
2CE
100
AcDbEntity
  8
0
100
AcDbPolyline
 62
7
  6
CONTINUOUS
 90
10
 70
0
 43
0.3500000019
 10
-98.1767138672
 20
53.2497324219
 10
-98.105286377
 20
53.1068720703
 10
-98.105286377
 20
53.0354472656
 10
-98.248144043
 20
52.8925869141
 10
-98.3195715332
 20
52.8925869141
 10
-98.3909990234
 20
52.9640170898
 10
-98.3909990234
 20
53.0354472656
 10
-98.3195715332
 20
53.1783022461
 10
-98.248144043
 20
53.2497324219
 10
-98.1767138672
 20
53.2497324219
  0
LWPOLYLINE
  5
2CF
100
AcDbEntity
  8
CURVE
100
AcDbPolyline
 62
250
  6
CONTINUOUS
 90
48
 70
0
 10
-88.2546535667
 20
-31.3242657647
 10
-88.2608091516
 20
-31.326649044
 10
-88.266945191
 20
-31.3291719021
 10
-88.2730556336
 20
-31.3318329503
 10
-88.2791344279
 20
-31.3346307998
 10
-88.2851755225
 20
-31.3375640617
 10
-88.2911728661
 20
-31.3406313473
 10
-88.2971204072
 20
-31.3438312679
 10
-88.3030120944
 20
-31.3471624345
 10
-88.3088418763
 20
-31.3506234583
 10
-88.3146037015
 20
-31.3542129507
 10
-88.3202915187
 20
-31.3579295228
 10
-88.3258992763
 20
-31.3617717858
 10
-88.331420923
 20
-31.3657383508
 10
-88.3368504075
 20
-31.3698278292
 10
-88.3421816782
 20
-31.3740388321
 10
-88.3474086837
 20
-31.3783699706
 10
-88.3525253728
 20
-31.3828198561
 10
-88.3575256939
 20
-31.3873870997
 10
-88.3624035956
 20
-31.3920703126
 10
-88.3671530266
 20
-31.3968681061
 10
-88.3717679355
 20
-31.4017790912
 10
-88.3762422708
 20
-31.4068018792
 10
-88.3805699811
 20
-31.4119350814
 10
-88.3847450151
 20
-31.4171773089
 10
-88.3887613213
 20
-31.422527173
 10
-88.3926128483
 20
-31.4279832847
 10
-88.3962935447
 20
-31.4335442554
 10
-88.3997973591
 20
-31.4392086962
 10
-88.4031182401
 20
-31.4449752184
 10
-88.4062501364
 20
-31.4508424331
 10
-88.4091176001
 20
-31.4566586364
 10
-88.4118009335
 20
-31.4625626552
 10
-88.414301472
 20
-31.4685478744
 10
-88.4166205507
 20
-31.4746076787
 10
-88.4187595049
 20
-31.4807354532
 10
-88.4207196697
 20
-31.4869245824
 10
-88.4225023803
 20
-31.4931684514
 10
-88.424108972
 20
-31.4994604449
 10
-88.42554078
 20
-31.5057939477
 10
-88.4267991395
 20
-31.5121623447
 10
-88.4278853857
 20
-31.5185590206
 10
-88.4288008538
 20
-31.5249773604
 10
-88.429546879
 20
-31.5314107488
 10
-88.4301247966
 20
-31.5378525707
 10
-88.4305359418
 20
-31.5442962109
 10
-88.4307816497
 20
-31.5507350543
 10
-88.4308632557
 20
-31.5571624855
  0
LWPOLYLINE
  5
2D0
100
AcDbEntity
  8
CURVE
100
AcDbPolyline
 62
250
  6
CONTINUOUS
 90
8
 70
0
 10
-88.0584867453
 20
-31.2603511118
 10
-88.0867806293
 20
-31.2686907042
 10
-88.1150107482
 20
-31.277219036
 10
-88.1431613507
 20
-31.285981078
 10
-88.1712166852
 20
-31.2950218011
 10
-88.1991610003
 20
-31.304386176
 10
-88.2269785447
 20
-31.3141191737
 10
-88.2546535667
 20
-31.3242657647
  0
LINE
  5
2D1
100
AcDbEntity
  8
CURVE
100
AcDbLine
 62
250
  6
CONTINUOUS
 10
-87.6482372951
 20
-31.1417275236
 11
-87.9166121496
 21
-31.2199102629
  0
LINE
  5
2D2
100
AcDbEntity
  8
CURVE
100
AcDbLine
 62
250
  6
CONTINUOUS
 10
-88.0017706878
 20
-31.2440582621
 11
-88.0584867453
 21
-31.2603511118
  0
LINE
  5
2D3
100
AcDbEntity
  8
CURVE
100
AcDbLine
 62
250
  6
CONTINUOUS
 10
-88.9540945604
 20
-35.568326
 11
-87.6482375604
 21
-35.078612
  0
LINE
  5
2D4
100
AcDbEntity
  8
CURVE
100
AcDbLine
 62
250
  6
CONTINUOUS
 10
-88.5377595604
 20
-35.047059
 11
-89.6480755604
 21
-35.460095
  0
LINE
  5
2D5
100
AcDbEntity
  8
CURVE
100
AcDbLine
 62
250
  6
CONTINUOUS
 10
-87.6482375604
 20
-32.319333
 11
-89.6480755604
 21
-32.932933
  0
LINE
  5
2D6
100
AcDbEntity
  8
CURVE
100
AcDbLine
 62
250
  6
CONTINUOUS
 10
-89.6480755604
 20
-38.499539
 11
-87.6482375604
 21
-37.865552
  0
LWPOLYLINE
  5
2D7
100
AcDbEntity
  8
0
100
AcDbPolyline
 62
7
  6
CONTINUOUS
 90
13
 70
0
 43
0.3500000019
 10
-96.6767150879
 20
54.4640185547
 10
-96.9624277344
 20
54.6783037109
 10
-96.9624277344
 20
55.3211591797
 10
-96.6767150879
 20
55.7497294922
 10
-96.0338569336
 20
55.7497294922
 10
-95.7481416016
 20
55.3211591797
 10
-95.7481416016
 20
54.6783037109
 10
-96.0338569336
 20
54.4640185547
 10
-95.6052866211
 20
54.0354428711
 10
-95.6052866211
 20
53.1783022461
 10
-96.0338569336
 20
52.7497319336
 10
-96.6767150879
 20
52.7497319336
 10
-97.1052854004
 20
53.1783022461
  0
LINE
  5
2D8
100
AcDbEntity
  8
RACCORDO
100
AcDbLine
 62
250
  6
CONTINUOUS
 10
-83.2952225604
 20
41.7215450143
 11
-83.4899871707
 21
41.7215450143
  0
LINE
  5
2D9
100
AcDbEntity
  8
0
100
AcDbLine
 62
250
  6
CONTINUOUS
 10
-91.0952225604
 20
42.5
 11
-86.1952225604
 21
42.5
  0
LINE
  5
2DA
100
AcDbEntity
  8
RACCORDO
100
AcDbLine
 62
250
  6
CONTINUOUS
 10
-91.0952225604
 20
42.5
 11
-86.1952225604
 21
42.5
  0
LINE
  5
2DB
100
AcDbEntity
  8
0
100
AcDbLine
 62
7
  6
CONTINUOUS
 10
-90.5952225604
 20
44.0
 11
-86.1952225604
 21
44.0
  0
LINE
  5
2DC
100
AcDbEntity
  8
RACCORDO
100
AcDbLine
 62
7
  6
CONTINUOUS
 10
-90.5952225604
 20
44.0
 11
-86.1952225604
 21
44.0
  0
LINE
  5
2DD
100
AcDbEntity
  8
RACCORDO
100
AcDbLine
 62
250
  6
CONTINUOUS
 10
-86.1952225604
 20
41.792384096
 11
-83.4899871707
 21
41.7215450143
  0
LINE
  5
2DE
100
AcDbEntity
  8
RACCORDO
100
AcDbLine
 62
7
  6
CONTINUOUS
 10
-86.1954281302
 20
42.4921496066
 11
-83.4899871707
 21
42.4213051418
  0
ARC
  5
2DF
100
AcDbEntity
  8
0
100
AcDbCircle
 62
7
  6
CONTINUOUS
 10
-43.5
 20
-42.5
 40
1.5
100
AcDbArc
 50
180.0
 51
270.0
  0
ARC
  5
2E0
100
AcDbEntity
  8
RACCORDO
100
AcDbCircle
 62
7
  6
CONTINUOUS
 10
-43.5
 20
-42.5
 40
1.5
100
AcDbArc
 50
180.0
 51
270.0
  0
ARC
  5
2E1
100
AcDbEntity
  8
0
100
AcDbCircle
 62
250
  6
CONTINUOUS
 10
-43.5
 20
-42.5
 40
1.0
100
AcDbArc
 50
180.0
 51
270.0
  0
ARC
  5
2E2
100
AcDbEntity
  8
RACCORDO
100
AcDbCircle
 62
250
  6
CONTINUOUS
 10
-43.5
 20
-42.5
 40
1.0
100
AcDbArc
 50
180.0
 51
270.0
  0
ARC
  5
2E3
100
AcDbEntity
  8
0
100
AcDbCircle
 62
250
  6
CONTINUOUS
 10
-22.175
 20
-26.225
 40
0.9
100
AcDbArc
 50
180.0
 51
270.0
  0
ARC
  5
2E4
100
AcDbEntity
  8
RACCORDO
100
AcDbCircle
 62
250
  6
CONTINUOUS
 10
-22.175
 20
-26.225
 40
0.9
100
AcDbArc
 50
180.0
 51
270.0
  0
ARC
  5
2E5
100
AcDbEntity
  8
RACCORDO
100
AcDbCircle
 62
7
  6
CONTINUOUS
 10
-23.35
 20
-18.3
 40
0.6
100
AcDbArc
 50
343.4651348951
 51
16.5348650741
  0
ARC
  5
2E6
100
AcDbEntity
  8
0
100
AcDbCircle
 62
7
  6
CONTINUOUS
 10
-22.175
 20
-26.225
 40
0.6
100
AcDbArc
 50
180.0
 51
270.0
  0
ARC
  5
2E7
100
AcDbEntity
  8
RACCORDO
100
AcDbCircle
 62
7
  6
CONTINUOUS
 10
-22.175
 20
-26.225
 40
0.6
100
AcDbArc
 50
180.0
 51
270.0
  0
ARC
  5
2E8
100
AcDbEntity
  8
RACCORDO
100
AcDbCircle
 62
250
  6
CONTINUOUS
 10
-23.35
 20
-18.3
 40
0.5981935669
100
AcDbArc
 50
344.1445843028
 51
15.8554156919
  0
ARC
  5
2E9
100
AcDbEntity
  8
0
100
AcDbCircle
 62
7
  6
CONTINUOUS
 10
-43.5
 20
42.5
 40
1.5
100
AcDbArc
 50
90.0
 51
180.0
  0
ARC
  5
2EA
100
AcDbEntity
  8
RACCORDO
100
AcDbCircle
 62
7
  6
CONTINUOUS
 10
-43.5
 20
42.5
 40
1.5
100
AcDbArc
 50
90.0
 51
180.0
  0
ARC
  5
2EB
100
AcDbEntity
  8
0
100
AcDbCircle
 62
250
  6
CONTINUOUS
 10
-43.5
 20
42.5
 40
1.0
100
AcDbArc
 50
90.0
 51
180.0
  0
ARC
  5
2EC
100
AcDbEntity
  8
RACCORDO
100
AcDbCircle
 62
250
  6
CONTINUOUS
 10
-43.5
 20
42.5
 40
1.0
100
AcDbArc
 50
90.0
 51
180.0
  0
ARC
  5
2ED
100
AcDbEntity
  8
0
100
AcDbCircle
 62
250
  6
CONTINUOUS
 10
-22.175
 20
26.225
 40
0.9
100
AcDbArc
 50
90.0
 51
180.0
  0
ARC
  5
2EE
100
AcDbEntity
  8
RACCORDO
100
AcDbCircle
 62
250
  6
CONTINUOUS
 10
-22.175
 20
26.225
 40
0.9
100
AcDbArc
 50
90.0
 51
180.0
  0
ARC
  5
2EF
100
AcDbEntity
  8
RACCORDO
100
AcDbCircle
 62
7
  6
CONTINUOUS
 10
-23.35
 20
18.3
 40
0.6
100
AcDbArc
 50
343.4651349026
 51
16.5348651026
  0
ARC
  5
2F0
100
AcDbEntity
  8
0
100
AcDbCircle
 62
7
  6
CONTINUOUS
 10
-22.175
 20
26.225
 40
0.6
100
AcDbArc
 50
90.0
 51
180.0
  0
ARC
  5
2F1
100
AcDbEntity
  8
RACCORDO
100
AcDbCircle
 62
7
  6
CONTINUOUS
 10
-22.175
 20
26.225
 40
0.6
100
AcDbArc
 50
90.0
 51
180.0
  0
ARC
  5
2F2
100
AcDbEntity
  8
RACCORDO
100
AcDbCircle
 62
250
  6
CONTINUOUS
 10
-23.35
 20
18.3
 40
0.5981935669
100
AcDbArc
 50
344.1445843027
 51
15.8554157027
  0
ARC
  5
2F3
100
AcDbEntity
  8
0
100
AcDbCircle
 62
7
  6
CONTINUOUS
 10
43.5
 20
-42.5
 40
1.5
100
AcDbArc
 50
270.0
 51
360.0
  0
ARC
  5
2F4
100
AcDbEntity
  8
RACCORDO
100
AcDbCircle
 62
7
  6
CONTINUOUS
 10
43.5
 20
-42.5
 40
1.5
100
AcDbArc
 50
270.0
 51
360.0
  0
ARC
  5
2F5
100
AcDbEntity
  8
0
100
AcDbCircle
 62
250
  6
CONTINUOUS
 10
43.5
 20
-42.5
 40
1.0
100
AcDbArc
 50
270.0
 51
360.0
  0
ARC
  5
2F6
100
AcDbEntity
  8
RACCORDO
100
AcDbCircle
 62
250
  6
CONTINUOUS
 10
43.5
 20
-42.5
 40
1.0
100
AcDbArc
 50
270.0
 51
360.0
  0
ARC
  5
2F7
100
AcDbEntity
  8
0
100
AcDbCircle
 62
250
  6
CONTINUOUS
 10
22.175
 20
-26.225
 40
0.9
100
AcDbArc
 50
270.0
 51
360.0
  0
ARC
  5
2F8
100
AcDbEntity
  8
RACCORDO
100
AcDbCircle
 62
250
  6
CONTINUOUS
 10
22.175
 20
-26.225
 40
0.9
100
AcDbArc
 50
270.0
 51
360.0
  0
ARC
  5
2F9
100
AcDbEntity
  8
RACCORDO
100
AcDbCircle
 62
7
  6
CONTINUOUS
 10
23.35
 20
-18.3
 40
0.6
100
AcDbArc
 50
163.4651349026
 51
196.5348651026
  0
ARC
  5
2FA
100
AcDbEntity
  8
0
100
AcDbCircle
 62
7
  6
CONTINUOUS
 10
22.175
 20
-26.225
 40
0.6
100
AcDbArc
 50
270.0
 51
360.0
  0
ARC
  5
2FB
100
AcDbEntity
  8
RACCORDO
100
AcDbCircle
 62
7
  6
CONTINUOUS
 10
22.175
 20
-26.225
 40
0.6
100
AcDbArc
 50
270.0
 51
360.0
  0
ARC
  5
2FC
100
AcDbEntity
  8
RACCORDO
100
AcDbCircle
 62
250
  6
CONTINUOUS
 10
23.35
 20
-18.3
 40
0.5981935669
100
AcDbArc
 50
164.1445843027
 51
195.8554157027
  0
ARC
  5
2FD
100
AcDbEntity
  8
0
100
AcDbCircle
 62
7
  6
CONTINUOUS
 10
43.5
 20
42.5
 40
1.5
100
AcDbArc
 50
0.0
 51
90.0
  0
ARC
  5
2FE
100
AcDbEntity
  8
RACCORDO
100
AcDbCircle
 62
7
  6
CONTINUOUS
 10
43.5
 20
42.5
 40
1.5
100
AcDbArc
 50
0.0
 51
90.0
  0
ARC
  5
2FF
100
AcDbEntity
  8
0
100
AcDbCircle
 62
250
  6
CONTINUOUS
 10
43.5
 20
42.5
 40
1.0
100
AcDbArc
 50
0.0
 51
90.0
  0
ARC
  5
300
100
AcDbEntity
  8
RACCORDO
100
AcDbCircle
 62
250
  6
CONTINUOUS
 10
43.5
 20
42.5
 40
1.0
100
AcDbArc
 50
0.0
 51
90.0
  0
ARC
  5
301
100
AcDbEntity
  8
0
100
AcDbCircle
 62
250
  6
CONTINUOUS
 10
22.175
 20
26.225
 40
0.9
100
AcDbArc
 50
0.0
 51
90.0
  0
ARC
  5
302
100
AcDbEntity
  8
RACCORDO
100
AcDbCircle
 62
250
  6
CONTINUOUS
 10
22.175
 20
26.225
 40
0.9
100
AcDbArc
 50
0.0
 51
90.0
  0
ARC
  5
303
100
AcDbEntity
  8
RACCORDO
100
AcDbCircle
 62
7
  6
CONTINUOUS
 10
23.35
 20
18.3
 40
0.6
100
AcDbArc
 50
163.4651348951
 51
196.5348650741
  0
ARC
  5
304
100
AcDbEntity
  8
0
100
AcDbCircle
 62
7
  6
CONTINUOUS
 10
22.175
 20
26.225
 40
0.6
100
AcDbArc
 50
0.0
 51
90.0
  0
ARC
  5
305
100
AcDbEntity
  8
RACCORDO
100
AcDbCircle
 62
7
  6
CONTINUOUS
 10
22.175
 20
26.225
 40
0.6
100
AcDbArc
 50
0.0
 51
90.0
  0
ARC
  5
306
100
AcDbEntity
  8
RACCORDO
100
AcDbCircle
 62
250
  6
CONTINUOUS
 10
23.35
 20
18.3
 40
0.5981935669
100
AcDbArc
 50
164.1445843028
 51
195.8554156919
  0
ARC
  5
307
100
AcDbEntity
  8
0
100
AcDbCircle
 62
7
  6
CONTINUOUS
 10
-90.5952225604
 20
-43.5
 40
0.5
100
AcDbArc
 50
180.0
 51
270.0
  0
ARC
  5
308
100
AcDbEntity
  8
0
100
AcDbCircle
 62
7
  6
CONTINUOUS
 10
-90.5952225604
 20
43.5
 40
0.5
100
AcDbArc
 50
90.0
 51
180.0
  0
ARC
  5
309
100
AcDbEntity
  8
RACCORDO
100
AcDbCircle
 62
7
  6
CONTINUOUS
 10
-90.5952225604
 20
43.5
 40
0.5
100
AcDbArc
 50
90.0
 51
180.0
  0
ARC
  5
30A
100
AcDbEntity
  8
RACCORDO
100
AcDbCircle
 62
7
  6
CONTINUOUS
 10
-90.5952225604
 20
-43.5
 40
0.5
100
AcDbArc
 50
180.0
 51
270.0
  0
ARC
  5
30B
100
AcDbEntity
  8
RACCORDO
100
AcDbCircle
 62
7
  6
CONTINUOUS
 10
-83.4952225604
 20
42.2213736768
 40
0.2
100
AcDbArc
 50
0.0
 51
88.5
  0
ARC
  5
30C
100
AcDbEntity
  8
RACCORDO
100
AcDbCircle
 62
7
  6
CONTINUOUS
 10
-83.4952225604
 20
-42.2213736768
 40
0.2
100
AcDbArc
 50
271.5
 51
360.0
  0
ENDSEC
  0
SECTION
  2
OBJECTS
  0
DICTIONARY
  5
C
100
AcDbDictionary
280
0
281
1
  3
ACAD_GROUP
350
D
  3
ACAD_MLINESTYLE
350
17
  3
ACAD_LAYOUT
350
1A
  3
ACAD_PLOTSETTINGS
350
19
  3
ACAD_PLOTSTYLENAME
350
E
  0
DICTIONARY
  5
D
102
{ACAD_REACTORS
330
C
102
}
100
AcDbDictionary
280
0
281
1
  0
ACDBDICTIONARYWDFLT
  5
E
102
{ACAD_REACTORS
330
C
102
}
100
AcDbDictionary
281
1
  3
Normal
350
F
100
AcDbDictionaryWithDefault
340
F
  0
DICTIONARY
  5
17
102
{ACAD_REACTORS
330
C
102
}
100
AcDbDictionary
280
0
281
1
  3
Standard
350
18
  0
DICTIONARY
  5
19
102
{ACAD_REACTORS
330
C
102
}
100
AcDbDictionary
281
1
  0
DICTIONARY
  5
1A
102
{ACAD_REACTORS
330
C
102
}
100
AcDbDictionary
281
1
  3
Model
350
30D
  3
Layout1
350
30E
  0
ACDBPLACEHOLDER
  5
F
102
{ACAD_REACTORS
330
E
102
}
  0
MLINESTYLE
  5
18
102
{ACAD_REACTORS
330
17
102
}
100
AcDbMlineStyle
  2
STANDARD
 70
0
  3

 62
256
 51
90.0
 52
90.0
 71
2
 49
0.5
 62
256
  6
BYLAYER
 49
-0.5
 62
256
  6
BYLAYER
  0
LAYOUT
  5
30D
102
{ACAD_REACTORS
330
1A
102
}
100
AcDbPlotSettings
  1

  2
none_device
  4

  6

 40
0.0
 41
0.0
 42
0.0
 43
0.0
 44
210.0
 45
297.0
 46
0.0
 47
0.0
 48
0.0
 49
0.0
140
0.0
141
0.0
142
1.0
143
1.0
 70
1024
 72
1
 73
0
 74
0
  7

 75
0
147
1.0
148
0.0
149
0.0
100
AcDbLayout
  1
Model
 70
0
 71
0
 10
0.0
 20
0.0
 11
210.0
 21
297.0
 12
0.0
 22
0.0
 32
0.0
 14
0.0
 24
0.0
 34
0.0
 15
0.0
 25
0.0
 35
0.0
146
0.0
 13
0.0
 23
0.0
 33
0.0
 16
1.0
 26
0.0
 36
0.0
 17
0.0
 27
1.0
 37
0.0
 76
0
330
213
345
0
346
0
  0
LAYOUT
  5
30E
102
{ACAD_REACTORS
330
1A
102
}
100
AcDbPlotSettings
  1

  2
none_device
  4

  6

 40
0.0
 41
0.0
 42
0.0
 43
0.0
 44
210.0
 45
297.0
 46
0.0
 47
0.0
 48
0.0
 49
0.0
140
0.0
141
0.0
142
1.0
143
1.0
 70
0
 72
1
 73
0
 74
0
  7

 75
0
147
1.0
148
0.0
149
0.0
100
AcDbLayout
  1
Layout1
 70
0
 71
1
 10
0.0
 20
0.0
 11
210.0
 21
297.0
 12
0.0
 22
0.0
 32
0.0
 14
0.0
 24
0.0
 34
0.0
 15
0.0
 25
0.0
 35
0.0
146
0.0
 13
0.0
 23
0.0
 33
0.0
 16
1.0
 26
0.0
 36
0.0
 17
0.0
 27
1.0
 37
0.0
 76
0
330
214
345
0
346
0
  0
ENDSEC
  0
EOF
