  0
SECTION
  2
HEADER
  9
$ACADVER
  1
AC1024
  9
$DWGCODEPAGE
  3
ANSI_1252
  9
$EXTMAX
 10
297.0
 20
210.0
 30
0.0
  9
$EXTMIN
 10
0.0
 20
0.0
 30
0.0
  9
$LIMMIN
 10
0.0
 20
0.0
  9
$LIMMAX
 10
297.0
 20
210.0
  9
$VIEWCTR
 10
148.5
 20
105.0
  9
$VIEWSIZE
 40
210.0
  9
$CLAYER
  8
0
  9
$LTSCALE
 40
16.335
  9
$CELTYPE
  6
BYLAYER
  9
$DIMSCALE
 40
1.0
  9
$DIMASZ
 40
3.0
  9
$DIMEXO
 40
0.5
  9
$DIMDLI
 40
11.286
  9
$DIMEXE
 40
1.5
  9
$DIMCEN
 40
2.673
  9
$DIMLFAC
 40
1.0
  9
$DIMBLK
  1
_FILLED
  9
$DIMALT
 70
0
  9
$DIMALTF
 40
0.0393700787
  9
$DIMTXT
 40
3.0
  9
$DIMTOL
 70
1
  9
$DIMLIM
 70
0
  9
$DIMTFAC
 40
1.0
  9
$DIMTP
 40
0.01
  9
$DIMTM
 40
0.01
  9
$DIMGAP
 40
0.625
  9
$DIMDSEP
 70
44
  9
$AUNITS
 70
0
  9
$PDMODE
 70
3
  9
$PDSIZE
 40
3.0
  9
$HANDSEED
  5
6FD
  9
$TILEMODE
 70
1
  9
$MEASUREMENT
 70
1
  9
$INSUNITS
 70
4
  0
ENDSEC
  0
SECTION
  2
CLASSES
  0
CLASS
  1
ACDBDICTIONARYWDFLT
  2
AcDbDictionaryWithDefault
  3
AutoCAD 2000
 90
0
 91
1
280
0
281
0
  0
CLASS
  1
ACDBPLACEHOLDER
  2
AcDbPlaceHolder
  3
AutoCAD 2000
 90
0
 91
1
280
0
281
0
  0
CLASS
  1
LAYOUT
  2
AcDbLayout
  3
AutoCAD 2000
 90
0
 91
0
280
0
281
0
  0
ENDSEC
  0
SECTION
  2
TABLES
  0
TABLE
  2
VPORT
  5
8
100
AcDbSymbolTable
 70
2
  0
VPORT
  5
1F4
100
AcDbSymbolTableRecord
100
AcDbViewportTableRecord
  2
*ACTIVE
 70
0
 10
0.0
 20
0.0
 11
1.0
 21
1.0
 12
148.5
 22
105.0
 13
0.0
 23
0.0
 14
1.0
 24
1.0
 15
0.0
 25
0.0
 16
0.0
 26
0.0
 36
1.0
 17
0.0
 27
0.0
 37
0.0
 40
210.0
 41
1.4142857143
 42
50.0
 43
0.0
 44
0.0
 50
0.0
 51
0.0
 71
0
 72
100
 73
1
 74
1
 75
0
 76
0
 77
0
 78
0
  0
ENDTAB
  0
TABLE
  2
LTYPE
  5
5
100
AcDbSymbolTable
 70
6
  0
LTYPE
  5
14
100
AcDbSymbolTableRecord
100
AcDbLinetypeTableRecord
  2
BYBLOCK
 70
0
  3

 72
65
 73
0
 40
0.0
  0
LTYPE
  5
15
100
AcDbSymbolTableRecord
100
AcDbLinetypeTableRecord
  2
BYLAYER
 70
0
  3

 72
65
 73
0
 40
0.0
  0
LTYPE
  5
16
100
AcDbSymbolTableRecord
100
AcDbLinetypeTableRecord
  2
CONTINUOUS
 70
64
  3
Solid line
 72
65
 73
0
 40
0.0
  0
LTYPE
  5
1F5
100
AcDbSymbolTableRecord
100
AcDbLinetypeTableRecord
  2
CENTER
 70
64
  3
____ _ ____ _ ____ _ ____ _ ____ _ ____ _ ____
 72
65
 73
4
 40
0.6
 49
0.375
 74
0
 49
-0.075
 74
0
 49
0.075
 74
0
 49
-0.075
 74
0
  0
LTYPE
  5
1F6
100
AcDbSymbolTableRecord
100
AcDbLinetypeTableRecord
  2
HIDDEN
 70
64
  3
- - - - - - - - - - - - - - - - - - - -
 72
65
 73
2
 40
0.2
 49
0.1
 74
0
 49
-0.1
 74
0
  0
LTYPE
  5
1F7
100
AcDbSymbolTableRecord
100
AcDbLinetypeTableRecord
  2
PHANTOM
 70
64
  3
_____ _ _ _____ _ _ _____ _ _ _____
 72
65
 73
6
 40
0.8
 49
0.45
 74
0
 49
-0.05
 74
0
 49
0.1
 74
0
 49
-0.05
 74
0
 49
0.1
 74
0
 49
-0.05
 74
0
  0
LTYPE
  5
1F8
100
AcDbSymbolTableRecord
100
AcDbLinetypeTableRecord
  2
DOT
 70
64
  3
. . . . . . . . . . . . . . . . . . . .
 72
65
 73
2
 40
0.2
 49
0.1
 74
0
 49
-0.1
 74
0
  0
LTYPE
  5
1F9
100
AcDbSymbolTableRecord
100
AcDbLinetypeTableRecord
  2
DASHED
 70
64
  3
- - - - - - - - - - - - - - - - - - - -
 72
65
 73
2
 40
0.2
 49
0.1
 74
0
 49
-0.1
 74
0
  0
ENDTAB
  0
TABLE
  2
LAYER
  5
2
100
AcDbSymbolTable
 70
36
  0
LAYER
  5
10
100
AcDbSymbolTableRecord
100
AcDbLayerTableRecord
  2
0
 70
0
 62
7
  6
CONTINUOUS
370
-3
390
F
  0
LAYER
  5
1FA
100
AcDbSymbolTableRecord
100
AcDbLayerTableRecord
  2
DEFAULT_1
 70
0
 62
7
  6
CENTER
370
-3
390
F
  0
LAYER
  5
1FB
100
AcDbSymbolTableRecord
100
AcDbLayerTableRecord
  2
DEFAULT_2
 70
0
 62
7
  6
HIDDEN
370
-3
390
F
  0
LAYER
  5
1FC
100
AcDbSymbolTableRecord
100
AcDbLayerTableRecord
  2
DEFAULT_3
 70
0
 62
7
  6
PHANTOM
370
-3
390
F
  0
LAYER
  5
1FD
100
AcDbSymbolTableRecord
100
AcDbLayerTableRecord
  2
ASSI
 70
0
 62
7
  6
CONTINUOUS
370
-3
390
F
  0
LAYER
  5
1FE
100
AcDbSymbolTableRecord
100
AcDbLayerTableRecord
  2
COORDINATE
 70
0
 62
7
  6
CONTINUOUS
370
-3
390
F
  0
LAYER
  5
1FF
100
AcDbSymbolTableRecord
100
AcDbLayerTableRecord
  2
COORD_ORIGINE
 70
0
 62
7
  6
CONTINUOUS
370
-3
390
F
  0
LAYER
  5
200
100
AcDbSymbolTableRecord
100
AcDbLayerTableRecord
  2
COPY_PUBLISH
 70
0
 62
7
  6
CONTINUOUS
370
-3
390
F
  0
LAYER
  5
201
100
AcDbSymbolTableRecord
100
AcDbLayerTableRecord
  2
COSMETICHE
 70
0
 62
7
  6
CONTINUOUS
370
-3
390
F
  0
LAYER
  5
202
100
AcDbSymbolTableRecord
100
AcDbLayerTableRecord
  2
COSMETICI
 70
0
 62
7
  6
CONTINUOUS
370
-3
390
F
  0
LAYER
  5
203
100
AcDbSymbolTableRecord
100
AcDbLayerTableRecord
  2
CURVE
 70
0
 62
7
  6
CONTINUOUS
370
-3
390
F
  0
LAYER
  5
204
100
AcDbSymbolTableRecord
100
AcDbLayerTableRecord
  2
DRAFT
 70
0
 62
7
  6
CONTINUOUS
370
-3
390
F
  0
LAYER
  5
205
100
AcDbSymbolTableRecord
100
AcDbLayerTableRecord
  2
IMPORT_IGES
 70
0
 62
7
  6
CONTINUOUS
370
-3
390
F
  0
LAYER
  5
206
100
AcDbSymbolTableRecord
100
AcDbLayerTableRecord
  2
INTF_1
 70
0
 62
7
  6
CONTINUOUS
370
-3
390
F
  0
LAYER
  5
207
100
AcDbSymbolTableRecord
100
AcDbLayerTableRecord
  2
INTF_10
 70
0
 62
7
  6
CONTINUOUS
370
-3
390
F
  0
LAYER
  5
208
100
AcDbSymbolTableRecord
100
AcDbLayerTableRecord
  2
INTF_11
 70
0
 62
7
  6
CONTINUOUS
370
-3
390
F
  0
LAYER
  5
209
100
AcDbSymbolTableRecord
100
AcDbLayerTableRecord
  2
INTF_12
 70
0
 62
7
  6
CONTINUOUS
370
-3
390
F
  0
LAYER
  5
20A
100
AcDbSymbolTableRecord
100
AcDbLayerTableRecord
  2
INTF_13
 70
0
 62
7
  6
CONTINUOUS
370
-3
390
F
  0
LAYER
  5
20B
100
AcDbSymbolTableRecord
100
AcDbLayerTableRecord
  2
INTF_14
 70
0
 62
7
  6
CONTINUOUS
370
-3
390
F
  0
LAYER
  5
20C
100
AcDbSymbolTableRecord
100
AcDbLayerTableRecord
  2
INTF_2
 70
0
 62
7
  6
CONTINUOUS
370
-3
390
F
  0
LAYER
  5
20D
100
AcDbSymbolTableRecord
100
AcDbLayerTableRecord
  2
INTF_8
 70
0
 62
7
  6
CONTINUOUS
370
-3
390
F
  0
LAYER
  5
20E
100
AcDbSymbolTableRecord
100
AcDbLayerTableRecord
  2
INTF_9
 70
0
 62
7
  6
CONTINUOUS
370
-3
390
F
  0
LAYER
  5
20F
100
AcDbSymbolTableRecord
100
AcDbLayerTableRecord
  2
NOTE
 70
0
 62
7
  6
CONTINUOUS
370
-3
390
F
  0
LAYER
  5
210
100
AcDbSymbolTableRecord
100
AcDbLayerTableRecord
  2
PIANI
 70
0
 62
7
  6
CONTINUOUS
370
-3
390
F
  0
LAYER
  5
211
100
AcDbSymbolTableRecord
100
AcDbLayerTableRecord
  2
PIANI_ORIGINE
 70
0
 62
7
  6
CONTINUOUS
370
-3
390
F
  0
LAYER
  5
212
100
AcDbSymbolTableRecord
100
AcDbLayerTableRecord
  2
PUNTI
 70
0
 62
7
  6
CONTINUOUS
370
-3
390
F
  0
LAYER
  5
213
100
AcDbSymbolTableRecord
100
AcDbLayerTableRecord
  2
RACCORDO
 70
0
 62
7
  6
CONTINUOUS
370
-3
390
F
  0
LAYER
  5
214
100
AcDbSymbolTableRecord
100
AcDbLayerTableRecord
  2
RGB__255__255__255__
 70
0
 62
7
  6
CONTINUOUS
370
-3
390
F
  0
LAYER
  5
215
100
AcDbSymbolTableRecord
100
AcDbLayerTableRecord
  2
RGB____0____0____0__
 70
0
 62
7
  6
CONTINUOUS
370
-3
390
F
  0
LAYER
  5
216
100
AcDbSymbolTableRecord
100
AcDbLayerTableRecord
  2
SIMBOLI
 70
0
 62
7
  6
CONTINUOUS
370
-3
390
F
  0
LAYER
  5
217
100
AcDbSymbolTableRecord
100
AcDbLayerTableRecord
  2
SMUSSO
 70
0
 62
7
  6
CONTINUOUS
370
-3
390
F
  0
LAYER
  5
218
100
AcDbSymbolTableRecord
100
AcDbLayerTableRecord
  2
SNAPLINE
 70
0
 62
7
  6
CONTINUOUS
370
-3
390
F
  0
LAYER
  5
219
100
AcDbSymbolTableRecord
100
AcDbLayerTableRecord
  2
SUPERFICI
 70
0
 62
7
  6
CONTINUOUS
370
-3
390
F
  0
LAYER
  5
21A
100
AcDbSymbolTableRecord
100
AcDbLayerTableRecord
  2
TRASH
 70
0
 62
7
  6
CONTINUOUS
370
-3
390
F
  0
LAYER
  5
21B
100
AcDbSymbolTableRecord
100
AcDbLayerTableRecord
  2
XSEC_DATUMS
 70
0
 62
7
  6
CONTINUOUS
370
-3
390
F
  0
ENDTAB
  0
TABLE
  2
STYLE
  5
3
100
AcDbSymbolTable
 70
1
  0
STYLE
  5
11
100
AcDbSymbolTableRecord
100
AcDbTextStyleTableRecord
  2
STANDARD
 70
0
 40
0.0
 41
0.8
 50
0.0
 71
0
 42
0.2
  3
txt
  4

  0
STYLE
  5
21C
100
AcDbSymbolTableRecord
100
AcDbTextStyleTableRecord
  2
TEXTSTYLE_1
 70
0
 40
0.0
 41
0.8
 50
0.0
 71
0
 42
0.2
  3
gdt
  4

  0
ENDTAB
  0
TABLE
  2
VIEW
  5
6
100
AcDbSymbolTable
 70
0
  0
ENDTAB
  0
TABLE
  2
UCS
  5
7
100
AcDbSymbolTable
 70
0
  0
ENDTAB
  0
TABLE
  2
APPID
  5
9
100
AcDbSymbolTable
 70
1
  0
APPID
  5
21D
100
AcDbSymbolTableRecord
100
AcDbRegAppTableRecord
  2
ACAD
 70
0
  0
ENDTAB
  0
TABLE
  2
BLOCK_RECORD
  5
1
100
AcDbSymbolTable
 70
0
  0
BLOCK_RECORD
  5
21E
100
AcDbSymbolTableRecord
100
AcDbBlockTableRecord
  2
*Model_Space
  0
BLOCK_RECORD
  5
21F
100
AcDbSymbolTableRecord
100
AcDbBlockTableRecord
  2
*Paper_Space
  0
BLOCK_RECORD
  5
220
100
AcDbSymbolTableRecord
100
AcDbBlockTableRecord
  2
_FILLED
  0
BLOCK_RECORD
  5
221
100
AcDbSymbolTableRecord
100
AcDbBlockTableRecord
  2
*D0
  0
BLOCK_RECORD
  5
222
100
AcDbSymbolTableRecord
100
AcDbBlockTableRecord
  2
*D1
  0
BLOCK_RECORD
  5
223
100
AcDbSymbolTableRecord
100
AcDbBlockTableRecord
  2
*D2
  0
BLOCK_RECORD
  5
224
100
AcDbSymbolTableRecord
100
AcDbBlockTableRecord
  2
*D3
  0
ENDTAB
  0
TABLE
  2
DIMSTYLE
  5
A
100
AcDbSymbolTable
 70
1
100
AcDbDimStyleTable
 71
0
  0
DIMSTYLE
105
225
100
AcDbSymbolTableRecord
100
AcDbDimStyleTableRecord
  2
STANDARD
 70
0
  3

  4

 40
1.0
 41
3.0
 42
0.5
 43
0.38
 44
1.5
 45
0.0
 46
0.0
 47
0.01
 48
0.01
140
3.0
141
0.09
142
0.0
143
25.4
144
1.0
145
0.0
146
1.0
147
0.625
 71
1
 72
0
 73
0
 74
0
 75
0
 76
0
 77
1
 78
8
 79
2
170
0
171
1
172
0
173
0
174
0
175
0
176
0
177
0
178
0
270
2
179
2
271
2
272
2
273
2
274
2
275
0
280
0
281
0
282
0
283
1
284
8
285
0
286
0
287
3
288
0
340
11
278
44
341
220
342
220
343
220
344
220
  0
DIMSTYLE
105
226
100
AcDbSymbolTableRecord
100
AcDbDimStyleTableRecord
  2
DIMSTYLE_1
 70
0
  3

  4

 40
1.0
 41
3.0
 42
0.5
 43
0.38
 44
1.5
 45
0.0
 46
0.0
 47
0.0
 48
0.0
140
3.0
141
0.09
142
0.0
143
25.4
144
1.0
145
0.0
146
1.0
147
0.75
 71
0
 72
0
 73
0
 74
0
 75
0
 76
0
 77
1
 78
8
 79
2
170
0
171
1
172
0
173
0
174
0
175
0
176
0
177
0
178
0
270
2
179
2
271
2
272
2
273
2
274
2
275
0
280
0
281
0
282
0
283
1
284
8
285
0
286
0
287
3
288
0
340
11
278
44
341
220
342
220
343
220
344
220
  0
ENDTAB
  0
ENDSEC
  0
SECTION
  2
BLOCKS
  0
BLOCK
  5
20
100
AcDbEntity
  8
0
100
AcDbBlockBegin
  2
*Model_Space
 70
0
 10
0.0
 20
0.0
 30
0.0
  3
*Model_Space
  1

  0
ENDBLK
  5
21
100
AcDbEntity
  8
0
100
AcDbBlockEnd
  0
BLOCK
  5
1C
100
AcDbEntity
  8
0
100
AcDbBlockBegin
  2
*Paper_Space
 70
0
 10
0.0
 20
0.0
 30
0.0
  3
*Paper_Space
  1

  0
ENDBLK
  5
1D
100
AcDbEntity
  8
0
100
AcDbBlockEnd
  0
BLOCK
  5
227
100
AcDbEntity
  8
0
100
AcDbBlockBegin
  2
_FILLED
 70
64
 10
0.0
 20
0.0
  3
_FILLED
  1

  0
SOLID
  5
228
100
AcDbEntity
  8
0
  6
BYBLOCK
 62
0
100
AcDbTrace
 10
0.0
 20
0.0
 11
-1.0
 21
0.3166666667
 12
-1.0
 22
-0.3166666667
 13
-1.0
 23
-0.3166666667
  0
ENDBLK
  5
229
100
AcDbEntity
  8
0
  6
BYBLOCK
 62
0
100
AcDbBlockEnd
  0
BLOCK
  5
22A
100
AcDbEntity
  8
0
100
AcDbBlockBegin
 62
7
  6
CONTINUOUS
  2
*D0
 70
65
 10
0.0
 20
0.0
  3
*D0
  1

  0
LINE
  5
22B
100
AcDbEntity
  8
0
100
AcDbLine
 62
7
  6
CONTINUOUS
 10
-14.9024781816
 20
25.0604463126
 11
-14.9024781816
 21
44.8600582687
  0
LINE
  5
22C
100
AcDbEntity
  8
0
100
AcDbLine
 62
7
  6
CONTINUOUS
 10
11.8975218184
 20
-7.72796875
 11
11.8975218184
 21
44.8600582687
  0
LINE
  5
22D
100
AcDbEntity
  8
0
100
AcDbLine
 62
7
  6
CONTINUOUS
 10
-14.9024781816
 20
43.3600582687
 11
-1.5024781816
 21
43.3600582687
  0
LINE
  5
22E
100
AcDbEntity
  8
0
100
AcDbLine
 62
7
  6
CONTINUOUS
 10
11.8975218184
 20
43.3600582687
 11
-1.5024781816
 21
43.3600582687
  0
INSERT
  5
22F
100
AcDbEntity
  8
0
100
AcDbBlockReference
 62
7
  6
CONTINUOUS
  2
_FILLED
 10
-14.9024781816
 20
43.3600582687
 41
3.0
 42
3.0
 43
3.0
 50
180.0
  0
INSERT
  5
230
100
AcDbEntity
  8
0
100
AcDbBlockReference
 62
7
  6
CONTINUOUS
  2
_FILLED
 10
11.8975218184
 20
43.3600582687
 41
3.0
 42
3.0
 43
3.0
  0
ENDBLK
  5
231
100
AcDbEntity
  8
0
  6
BYBLOCK
 62
0
100
AcDbBlockEnd
  0
BLOCK
  5
232
100
AcDbEntity
  8
0
100
AcDbBlockBegin
 62
7
  6
CONTINUOUS
  2
*D1
 70
65
 10
0.0
 20
0.0
  3
*D1
  1

  0
LINE
  5
233
100
AcDbEntity
  8
0
100
AcDbLine
 62
7
  6
CONTINUOUS
 10
-9.2024781816
 20
21.4013992562
 11
-9.2024781816
 21
34.8600582687
  0
LINE
  5
234
100
AcDbEntity
  8
0
100
AcDbLine
 62
7
  6
CONTINUOUS
 10
11.8975218184
 20
-7.72796875
 11
11.8975218184
 21
34.8600582687
  0
LINE
  5
235
100
AcDbEntity
  8
0
100
AcDbLine
 62
7
  6
CONTINUOUS
 10
-9.2024781816
 20
33.3600582687
 11
1.3475218184
 21
33.3600582687
  0
LINE
  5
236
100
AcDbEntity
  8
0
100
AcDbLine
 62
7
  6
CONTINUOUS
 10
11.8975218184
 20
33.3600582687
 11
1.3475218184
 21
33.3600582687
  0
INSERT
  5
237
100
AcDbEntity
  8
0
100
AcDbBlockReference
 62
7
  6
CONTINUOUS
  2
_FILLED
 10
-9.2024781816
 20
33.3600582687
 41
3.0
 42
3.0
 43
3.0
 50
180.0
  0
INSERT
  5
238
100
AcDbEntity
  8
0
100
AcDbBlockReference
 62
7
  6
CONTINUOUS
  2
_FILLED
 10
11.8975218184
 20
33.3600582687
 41
3.0
 42
3.0
 43
3.0
  0
ENDBLK
  5
239
100
AcDbEntity
  8
0
  6
BYBLOCK
 62
0
100
AcDbBlockEnd
  0
BLOCK
  5
23A
100
AcDbEntity
  8
0
100
AcDbBlockBegin
 62
7
  6
CONTINUOUS
  2
*D2
 70
65
 10
0.0
 20
0.0
  3
*D2
  1

  0
LINE
  5
23B
100
AcDbEntity
  8
0
100
AcDbLine
 62
7
  6
CONTINUOUS
 10
47.998359375
 20
25.1472025875
 11
47.998359375
 21
34.8600582687
  0
LINE
  5
23C
100
AcDbEntity
  8
0
100
AcDbLine
 62
7
  6
CONTINUOUS
 10
70.198359375
 20
25.1472025875
 11
70.198359375
 21
34.8600582687
  0
LINE
  5
23D
100
AcDbEntity
  8
0
100
AcDbLine
 62
7
  6
CONTINUOUS
 10
47.998359375
 20
33.3600582687
 11
59.098359375
 21
33.3600582687
  0
LINE
  5
23E
100
AcDbEntity
  8
0
100
AcDbLine
 62
7
  6
CONTINUOUS
 10
70.198359375
 20
33.3600582687
 11
59.098359375
 21
33.3600582687
  0
INSERT
  5
23F
100
AcDbEntity
  8
0
100
AcDbBlockReference
 62
7
  6
CONTINUOUS
  2
_FILLED
 10
47.998359375
 20
33.3600582687
 41
3.0
 42
3.0
 43
3.0
 50
180.0
  0
INSERT
  5
240
100
AcDbEntity
  8
0
100
AcDbBlockReference
 62
7
  6
CONTINUOUS
  2
_FILLED
 10
70.198359375
 20
33.3600582687
 41
3.0
 42
3.0
 43
3.0
  0
ENDBLK
  5
241
100
AcDbEntity
  8
0
  6
BYBLOCK
 62
0
100
AcDbBlockEnd
  0
BLOCK
  5
242
100
AcDbEntity
  8
0
100
AcDbBlockBegin
 62
7
  6
CONTINUOUS
  2
*D3
 70
65
 10
0.0
 20
0.0
  3
*D3
  1

  0
LINE
  5
243
100
AcDbEntity
  8
0
100
AcDbLine
 62
7
  6
CONTINUOUS
 10
70.1985307125
 20
25.14703125
 11
104.5594723895
 21
25.14703125
  0
LINE
  5
244
100
AcDbEntity
  8
0
100
AcDbLine
 62
7
  6
CONTINUOUS
 10
70.1985307125
 20
-27.65296875
 11
104.5594723895
 21
-27.65296875
  0
LINE
  5
245
100
AcDbEntity
  8
0
100
AcDbLine
 62
7
  6
CONTINUOUS
 10
103.0594723895
 20
25.14703125
 11
103.0594723895
 21
-1.25296875
  0
LINE
  5
246
100
AcDbEntity
  8
0
100
AcDbLine
 62
7
  6
CONTINUOUS
 10
103.0594723895
 20
-27.65296875
 11
103.0594723895
 21
-1.25296875
  0
INSERT
  5
247
100
AcDbEntity
  8
0
100
AcDbBlockReference
 62
7
  6
CONTINUOUS
  2
_FILLED
 10
103.0594723895
 20
25.14703125
 41
3.0
 42
3.0
 43
3.0
 50
90.0
  0
INSERT
  5
248
100
AcDbEntity
  8
0
100
AcDbBlockReference
 62
7
  6
CONTINUOUS
  2
_FILLED
 10
103.0594723895
 20
-27.65296875
 41
3.0
 42
3.0
 43
3.0
 50
270.0
  0
ENDBLK
  5
249
100
AcDbEntity
  8
0
  6
BYBLOCK
 62
0
100
AcDbBlockEnd
  0
ENDSEC
  0
SECTION
  2
ENTITIES
  0
DIMENSION
  5
24A
100
AcDbEntity
  8
0
100
AcDbDimension
 62
7
  6
CONTINUOUS
  2
*D0
 10
11.8975218184
 20
43.3600582687
 11
-5.8953353244
 21
43.3600582687
 70
160
 71
2
 72
2
 41
0.9
 42
26.8
  3
DIMSTYLE_1
100
AcDbAlignedDimension
 13
-14.9024781816
 23
24.5604463126
 14
11.8975218184
 24
-8.22796875
100
AcDbRotatedDimension
  0
DIMENSION
  5
24B
100
AcDbEntity
  8
0
100
AcDbDimension
 62
7
  6
CONTINUOUS
  2
*D1
 10
11.8975218184
 20
33.3600582687
 11
-2.4024781816
 21
33.3600582687
 70
160
 71
2
 72
2
 41
0.9
 42
21.1
  3
DIMSTYLE_1
100
AcDbAlignedDimension
 13
-9.2024781816
 23
20.9013992562
 14
11.8975218184
 24
-8.22796875
100
AcDbRotatedDimension
  0
DIMENSION
  5
24C
100
AcDbEntity
  8
0
100
AcDbDimension
 62
7
  6
CONTINUOUS
  2
*D2
 10
70.198359375
 20
33.3600582687
 11
54.7055022321
 21
33.3600582687
 70
160
 71
2
 72
2
 41
0.9
 42
22.2
  3
DIMSTYLE_1
100
AcDbAlignedDimension
 13
47.998359375
 23
24.6472025875
 14
70.198359375
 24
24.6472025875
100
AcDbRotatedDimension
  0
DIMENSION
  5
24D
100
AcDbEntity
  8
0
100
AcDbDimension
 62
7
  6
CONTINUOUS
  2
*D3
 10
103.0594723895
 20
-27.65296875
 11
103.0594723895
 21
-5.5386830357
 70
160
 71
2
 72
2
 41
0.9
 42
52.8
  3
DIMSTYLE_1
100
AcDbAlignedDimension
 13
69.6985307125
 23
25.14703125
 14
69.6985307125
 24
-27.65296875
 50
270.0
100
AcDbRotatedDimension
  0
LINE
  5
24E
100
AcDbEntity
  8
DRAFT
100
AcDbLine
 62
7
  6
CONTINUOUS
 10
55.5805020021
 20
-27.65296875
 11
55.848359375
 21
-27.6267918017
  0
LINE
  5
24F
100
AcDbEntity
  8
DRAFT
100
AcDbLine
 62
7
  6
CONTINUOUS
 10
48.4981880375
 20
-27.65296875
 11
55.5805020021
 21
-27.65296875
  0
LINE
  5
250
100
AcDbEntity
  8
DRAFT
100
AcDbLine
 62
7
  6
CONTINUOUS
 10
62.6162167479
 20
-27.65296875
 11
69.6985307125
 21
-27.65296875
  0
LINE
  5
251
100
AcDbEntity
  8
DRAFT
100
AcDbLine
 62
7
  6
CONTINUOUS
 10
55.848359375
 20
-27.6267918017
 11
62.348359375
 21
-27.6267918017
  0
LINE
  5
252
100
AcDbEntity
  8
0
100
AcDbLine
 62
250
  6
CONTINUOUS
 10
48.5849443124
 20
-27.5662124751
 11
69.6117744376
 21
-27.5662124751
  0
LINE
  5
253
100
AcDbEntity
  8
0
100
AcDbLine
 62
250
  6
CONTINUOUS
 10
48.0851156499
 20
-27.0663838126
 11
70.1116031001
 21
-27.0663838126
  0
LINE
  5
254
100
AcDbEntity
  8
DRAFT
100
AcDbLine
 62
7
  6
CONTINUOUS
 10
62.6162167479
 20
-27.65296875
 11
62.348359375
 21
-27.6267918017
  0
LINE
  5
255
100
AcDbEntity
  8
0
100
AcDbLine
 62
7
  6
CONTINUOUS
 10
60.1292615257
 20
-19.95296875
 11
59.7292615257
 21
-19.95296875
  0
LINE
  5
256
100
AcDbEntity
  8
DRAFT
100
AcDbLine
 62
7
  6
CONTINUOUS
 10
59.7292615257
 20
-19.95296875
 11
60.1292615257
 21
-19.95296875
  0
LINE
  5
257
100
AcDbEntity
  8
0
100
AcDbLine
 62
7
  6
CONTINUOUS
 10
58.3212846493
 20
-18.8325619598
 11
56.1397337383
 21
-18.8325619598
  0
LINE
  5
258
100
AcDbEntity
  8
DRAFT
100
AcDbLine
 62
7
  6
CONTINUOUS
 10
56.1397337383
 20
-18.8325619598
 11
58.3212846493
 21
-18.8325619598
  0
LINE
  5
259
100
AcDbEntity
  8
0
100
AcDbLine
 62
7
  6
CONTINUOUS
 10
61.5058198091
 20
-19.9876983855
 11
61.111896708
 21
-19.9182391145
  0
LINE
  5
25A
100
AcDbEntity
  8
DRAFT
100
AcDbLine
 62
7
  6
CONTINUOUS
 10
61.1118967079
 20
-19.9182391145
 11
61.5058198091
 21
-19.9876983855
  0
LINE
  5
25B
100
AcDbEntity
  8
0
100
AcDbLine
 62
7
  6
CONTINUOUS
 10
55.619766201
 20
-17.5732078621
 11
55.046246367
 21
-17.6743348828
  0
LINE
  5
25C
100
AcDbEntity
  8
DRAFT
100
AcDbLine
 62
7
  6
CONTINUOUS
 10
55.046246367
 20
-17.6743348828
 11
55.619766201
 21
-17.5732078621
  0
LINE
  5
25D
100
AcDbEntity
  8
DRAFT
100
AcDbLine
 62
7
  6
CONTINUOUS
 10
55.7984017933
 20
-16.9324536203
 11
54.9420574603
 21
-17.083450231
  0
LINE
  5
25E
100
AcDbEntity
  8
0
100
AcDbLine
 62
7
  6
CONTINUOUS
 10
54.9420574603
 20
-17.083450231
 11
55.7984017933
 21
-16.9324536203
  0
LINE
  5
25F
100
AcDbEntity
  8
DRAFT
100
AcDbLine
 62
7
  6
CONTINUOUS
 10
58.0805091938
 20
-18.2325619598
 11
56.3805091938
 21
-18.2325619598
  0
LINE
  5
260
100
AcDbEntity
  8
0
100
AcDbLine
 62
7
  6
CONTINUOUS
 10
56.3805091938
 20
-18.2325619598
 11
58.0805091938
 21
-18.2325619598
  0
LINE
  5
261
100
AcDbEntity
  8
0
100
AcDbLine
 62
7
  6
CONTINUOUS
 10
59.2562534156
 20
-17.6463837757
 11
58.8412521867
 21
-17.5732078621
  0
LINE
  5
262
100
AcDbEntity
  8
DRAFT
100
AcDbLine
 62
7
  6
CONTINUOUS
 10
58.8412521867
 20
-17.5732078621
 11
59.2562534158
 21
-17.6463837758
  0
LINE
  5
263
100
AcDbEntity
  8
DRAFT
100
AcDbLine
 62
7
  6
CONTINUOUS
 10
59.3604423224
 20
-17.055499124
 11
58.6626165944
 21
-16.9324536203
  0
LINE
  5
264
100
AcDbEntity
  8
0
100
AcDbLine
 62
7
  6
CONTINUOUS
 10
58.6626165944
 20
-16.9324536203
 11
59.3604423223
 21
-17.055499124
  0
LINE
  5
265
100
AcDbEntity
  8
DRAFT
100
AcDbLine
 62
7
  6
CONTINUOUS
 10
62.073489026
 20
-16.7682862766
 11
61.6795659248
 21
-16.6988270055
  0
LINE
  5
266
100
AcDbEntity
  8
0
100
AcDbLine
 62
7
  6
CONTINUOUS
 10
61.6795659248
 20
-16.6988270055
 11
62.073489026
 21
-16.7682862766
  0
LWPOLYLINE
  5
267
100
AcDbEntity
  8
0
100
AcDbPolyline
 62
250
  6
CONTINUOUS
 90
16
 70
0
 10
48.0851156499
 20
-27.0663838126
 10
48.087903985
 20
-27.1187662815
 10
48.0961664567
 20
-27.1705716672
 10
48.1098120137
 20
-27.2212294212
 10
48.1286928093
 20
-27.2701872086
 10
48.1525995305
 20
-27.3168997747
 10
48.1812579964
 20
-27.3608377936
 10
48.2143400538
 20
-27.4015120919
 10
48.2514833219
 20
-27.4384891857
 10
48.2922891681
 20
-27.4713766846
 10
48.336372957
 20
-27.4998504307
 10
48.3831937336
 20
-27.5235478898
 10
48.4320405471
 20
-27.5421457644
 10
48.4822897856
 20
-27.5554870028
 10
48.5334439636
 20
-27.5635169119
 10
48.5849443126
 20
-27.5662124749
  0
LWPOLYLINE
  5
268
100
AcDbEntity
  8
0
100
AcDbPolyline
 62
250
  6
CONTINUOUS
 90
16
 70
0
 10
48.0851156499
 20
24.5604463126
 10
48.0879036144
 20
24.6128252876
 10
48.0961650238
 20
24.6646274653
 10
48.1098089039
 20
24.7152823964
 10
48.1286875935
 20
24.7642380459
 10
48.1525918263
 20
24.8109489887
 10
48.1812471062
 20
24.8548853694
 10
48.2143244853
 20
24.8955573769
 10
48.2514621138
 20
24.9325326762
 10
48.2922634458
 20
24.9654205875
 10
48.336344949
 20
24.9938968555
 10
48.3831655283
 20
25.017597926
 10
48.4320149202
 20
25.0362000118
 10
48.4822698195
 20
25.0495452988
 10
48.5334325958
 20
25.0575782265
 10
48.5849443124
 20
25.0602749751
  0
LINE
  5
269
100
AcDbEntity
  8
0
100
AcDbLine
 62
7
  6
CONTINUOUS
 10
63.4670455265
 20
-15.1996821619
 11
62.6985165668
 21
-15.0641697708
  0
LINE
  5
26A
100
AcDbEntity
  8
0
100
AcDbLine
 62
7
  6
CONTINUOUS
 10
61.6750743284
 20
-14.883709291
 11
60.9065453688
 21
-14.7481969
  0
LINE
  5
26B
100
AcDbEntity
  8
DRAFT
100
AcDbLine
 62
7
  6
CONTINUOUS
 10
60.9065453687
 20
-14.7481969
 11
61.6750743284
 21
-14.883709291
  0
LINE
  5
26C
100
AcDbEntity
  8
DRAFT
100
AcDbLine
 62
7
  6
CONTINUOUS
 10
62.6985165668
 20
-15.0641697708
 11
63.4670455265
 21
-15.1996821619
  0
LINE
  5
26D
100
AcDbEntity
  8
DRAFT
100
AcDbLine
 62
7
  6
CONTINUOUS
 10
63.5712344331
 20
-14.6087975101
 11
62.8027054734
 21
-14.473285119
  0
LINE
  5
26E
100
AcDbEntity
  8
DRAFT
100
AcDbLine
 62
7
  6
CONTINUOUS
 10
61.779263235
 20
-14.2928246392
 11
61.0107342753
 21
-14.1573122482
  0
LINE
  5
26F
100
AcDbEntity
  8
0
100
AcDbLine
 62
7
  6
CONTINUOUS
 10
61.0107342753
 20
-14.1573122482
 11
61.779263235
 21
-14.2928246392
  0
LINE
  5
270
100
AcDbEntity
  8
0
100
AcDbLine
 62
7
  6
CONTINUOUS
 10
62.8027054734
 20
-14.473285119
 11
63.5712344331
 21
-14.6087975101
  0
LINE
  5
271
100
AcDbEntity
  8
0
100
AcDbLine
 62
7
  6
CONTINUOUS
 10
47.998359375
 20
24.6472025875
 11
47.998359375
 21
-27.1531400875
  0
LINE
  5
272
100
AcDbEntity
  8
RACCORDO
100
AcDbLine
 62
7
  6
CONTINUOUS
 10
47.998359375
 20
-18.8041895521
 11
47.998359375
 21
16.2982520521
  0
LINE
  5
273
100
AcDbEntity
  8
0
100
AcDbLine
 62
250
  6
CONTINUOUS
 10
48.0851156499
 20
-27.0663838126
 11
48.0851156499
 21
24.5604463126
  0
LINE
  5
274
100
AcDbEntity
  8
0
100
AcDbLine
 62
250
  6
CONTINUOUS
 10
48.5849443124
 20
-27.5662124751
 11
48.5849443124
 21
25.0602749751
  0
LWPOLYLINE
  5
275
100
AcDbEntity
  8
0
100
AcDbPolyline
 62
7
  6
CONTINUOUS
 90
3
 70
0
 43
0.3500000006
 10
60.1340752716
 20
34.3957728882
 10
60.0626440887
 20
34.1814884033
 10
59.9197862549
 20
33.8957727356
  0
LINE
  5
276
100
AcDbEntity
  8
0
100
AcDbLine
 62
250
  6
CONTINUOUS
 10
69.6985307125
 20
25.14703125
 11
69.6117744376
 21
25.0602749751
  0
LINE
  5
277
100
AcDbEntity
  8
0
100
AcDbLine
 62
250
  6
CONTINUOUS
 10
70.198359375
 20
24.6472025875
 11
70.1116031001
 21
24.5604463126
  0
LINE
  5
278
100
AcDbEntity
  8
0
100
AcDbLine
 62
7
  6
CONTINUOUS
 10
61.4921961362
 20
-15.8795169475
 11
61.185778359
 21
-15.6224019038
  0
LINE
  5
279
100
AcDbEntity
  8
DRAFT
100
AcDbLine
 62
7
  6
CONTINUOUS
 10
61.1857783587
 20
-15.6224019035
 11
61.492196136
 21
-15.8795169473
  0
LINE
  5
27A
100
AcDbEntity
  8
0
100
AcDbLine
 62
250
  6
CONTINUOUS
 10
69.6117744376
 20
-27.5662124751
 11
69.6985307125
 21
-27.65296875
  0
LINE
  5
27B
100
AcDbEntity
  8
0
100
AcDbLine
 62
250
  6
CONTINUOUS
 10
70.1116031001
 20
-27.0663838126
 11
70.198359375
 21
-27.1531400875
  0
LINE
  5
27C
100
AcDbEntity
  8
DRAFT
100
AcDbLine
 62
7
  6
CONTINUOUS
 10
63.2920014431
 20
-13.7345925066
 11
62.9855836658
 21
-13.4774774627
  0
LINE
  5
27D
100
AcDbEntity
  8
0
100
AcDbLine
 62
7
  6
CONTINUOUS
 10
62.9855836656
 20
-13.4774774626
 11
63.292001443
 21
-13.7345925065
  0
LINE
  5
27E
100
AcDbEntity
  8
0
100
AcDbLine
 62
7
  6
CONTINUOUS
 10
56.3228747009
 20
-13.3207590311
 11
56.0897459343
 21
-12.8208127777
  0
LINE
  5
27F
100
AcDbEntity
  8
DRAFT
100
AcDbLine
 62
7
  6
CONTINUOUS
 10
56.0897459343
 20
-12.8208127779
 11
56.3228747009
 21
-13.3207590312
  0
LINE
  5
280
100
AcDbEntity
  8
0
100
AcDbLine
 62
7
  6
CONTINUOUS
 10
55.8468449362
 20
-18.5974938442
 11
55.619766201
 21
-17.5732078621
  0
LINE
  5
281
100
AcDbEntity
  8
DRAFT
100
AcDbLine
 62
7
  6
CONTINUOUS
 10
55.619766201
 20
-17.5732078621
 11
55.8468449362
 21
-18.597493844
  0
LINE
  5
282
100
AcDbEntity
  8
DRAFT
100
AcDbLine
 62
7
  6
CONTINUOUS
 10
56.3805091938
 20
-18.2325619598
 11
56.1433850487
 21
-17.162964062
  0
LINE
  5
283
100
AcDbEntity
  8
0
100
AcDbLine
 62
7
  6
CONTINUOUS
 10
56.1433850486
 20
-17.1629640617
 11
56.3805091938
 21
-18.2325619598
  0
LINE
  5
284
100
AcDbEntity
  8
0
100
AcDbLine
 62
7
  6
CONTINUOUS
 10
54.9304007739
 20
-17.5932189253
 11
54.8609415028
 21
-17.1992958241
  0
LINE
  5
285
100
AcDbEntity
  8
DRAFT
100
AcDbLine
 62
7
  6
CONTINUOUS
 10
54.8609415028
 20
-17.1992958241
 11
54.9304007739
 21
-17.5932189253
  0
LINE
  5
286
100
AcDbEntity
  8
DRAFT
100
AcDbLine
 62
7
  6
CONTINUOUS
 10
57.5604230379
 20
15.5396947411
 11
57.5604230379
 21
10.79703125
  0
LINE
  5
287
100
AcDbEntity
  8
0
100
AcDbLine
 62
7
  6
CONTINUOUS
 10
57.5604230379
 20
10.79703125
 11
57.5604230379
 21
15.539694741
  0
LINE
  5
288
100
AcDbEntity
  8
0
100
AcDbLine
 62
7
  6
CONTINUOUS
 10
62.401608301
 20
-16.002703655
 11
62.1347009943
 21
-15.2693818568
  0
LINE
  5
289
100
AcDbEntity
  8
0
100
AcDbLine
 62
7
  6
CONTINUOUS
 10
61.779263235
 20
-14.2928246392
 11
61.5123559283
 21
-13.5595028411
  0
LINE
  5
28A
100
AcDbEntity
  8
DRAFT
100
AcDbLine
 62
7
  6
CONTINUOUS
 10
61.5123559283
 20
-13.559502841
 11
61.779263235
 21
-14.2928246392
  0
LINE
  5
28B
100
AcDbEntity
  8
DRAFT
100
AcDbLine
 62
7
  6
CONTINUOUS
 10
62.1347009943
 20
-15.2693818568
 11
62.401608301
 21
-16.002703655
  0
LINE
  5
28C
100
AcDbEntity
  8
DRAFT
100
AcDbLine
 62
7
  6
CONTINUOUS
 10
62.9654238735
 20
-15.7974915691
 11
62.6985165668
 21
-15.0641697708
  0
LINE
  5
28D
100
AcDbEntity
  8
DRAFT
100
AcDbLine
 62
7
  6
CONTINUOUS
 10
62.3430788075
 20
-14.0876125532
 11
62.0761715008
 21
-13.354290755
  0
LINE
  5
28E
100
AcDbEntity
  8
0
100
AcDbLine
 62
7
  6
CONTINUOUS
 10
62.0761715008
 20
-13.354290755
 11
62.3430788075
 21
-14.0876125532
  0
LINE
  5
28F
100
AcDbEntity
  8
0
100
AcDbLine
 62
7
  6
CONTINUOUS
 10
62.6985165668
 20
-15.0641697708
 11
62.9654238735
 21
-15.797491569
  0
LINE
  5
290
100
AcDbEntity
  8
DRAFT
100
AcDbLine
 62
7
  6
CONTINUOUS
 10
59.6292615257
 20
-18.0909175308
 11
59.6292615257
 21
-19.85296875
  0
LINE
  5
291
100
AcDbEntity
  8
0
100
AcDbLine
 62
7
  6
CONTINUOUS
 10
59.6292615257
 20
-19.85296875
 11
59.6292615257
 21
-18.0909175309
  0
LINE
  5
292
100
AcDbEntity
  8
0
100
AcDbLine
 62
7
  6
CONTINUOUS
 10
60.2292615257
 20
-18.0909175309
 11
60.2292615257
 21
-19.85296875
  0
LINE
  5
293
100
AcDbEntity
  8
DRAFT
100
AcDbLine
 62
7
  6
CONTINUOUS
 10
60.2292615257
 20
-19.85296875
 11
60.2292615257
 21
-18.0909175308
  0
LINE
  5
294
100
AcDbEntity
  8
0
100
AcDbLine
 62
7
  6
CONTINUOUS
 10
60.6362957121
 20
13.4347446181
 11
60.6362957121
 21
10.79703125
  0
LINE
  5
295
100
AcDbEntity
  8
DRAFT
100
AcDbLine
 62
7
  6
CONTINUOUS
 10
60.6362957121
 20
10.79703125
 11
60.6362957121
 21
13.4347446183
  0
LINE
  5
296
100
AcDbEntity
  8
DRAFT
100
AcDbLine
 62
7
  6
CONTINUOUS
 10
58.3176333389
 20
-17.162964062
 11
58.0805091938
 21
-18.2325619598
  0
LINE
  5
297
100
AcDbEntity
  8
0
100
AcDbLine
 62
7
  6
CONTINUOUS
 10
58.0805091938
 20
-18.2325619598
 11
58.3176333389
 21
-17.1629640623
  0
LINE
  5
298
100
AcDbEntity
  8
0
100
AcDbLine
 62
7
  6
CONTINUOUS
 10
58.8412521867
 20
-17.5732078621
 11
58.6141734516
 21
-18.5974938436
  0
LINE
  5
299
100
AcDbEntity
  8
DRAFT
100
AcDbLine
 62
7
  6
CONTINUOUS
 10
58.6141734515
 20
-18.597493844
 11
58.8412521867
 21
-17.5732078621
  0
LWPOLYLINE
  5
29A
100
AcDbEntity
  8
0
100
AcDbPolyline
 62
7
  6
CONTINUOUS
 90
4
 70
0
 43
0.3500000006
 10
101.880897583
 20
0.675602623
 10
101.0237596436
 20
0.675602623
 10
100.5951906738
 20
1.1041738586
 10
100.5951906738
 20
1.7470318451
  0
LINE
  5
29B
100
AcDbEntity
  8
DRAFT
100
AcDbLine
 62
7
  6
CONTINUOUS
 10
60.8948886822
 20
-14.2384282057
 11
60.8254294111
 21
-14.6323513069
  0
LINE
  5
29C
100
AcDbEntity
  8
0
100
AcDbLine
 62
7
  6
CONTINUOUS
 10
60.8254294112
 20
-14.6323513064
 11
60.8948886822
 21
-14.2384282057
  0
LINE
  5
29D
100
AcDbEntity
  8
DRAFT
100
AcDbLine
 62
7
  6
CONTINUOUS
 10
61.5637203317
 20
-16.779942963
 11
61.0307807504
 21
-19.8023935214
  0
LINE
  5
29E
100
AcDbEntity
  8
0
100
AcDbLine
 62
7
  6
CONTINUOUS
 10
61.0307807504
 20
-19.8023935214
 11
61.5637203317
 21
-16.7799429631
  0
LINE
  5
29F
100
AcDbEntity
  8
0
100
AcDbLine
 62
7
  6
CONTINUOUS
 10
62.1546049835
 20
-16.8841318696
 11
61.6216654022
 21
-19.9065824279
  0
LINE
  5
2A0
100
AcDbEntity
  8
DRAFT
100
AcDbLine
 62
7
  6
CONTINUOUS
 10
61.6216654022
 20
-19.906582428
 11
62.1546049835
 21
-16.8841318697
  0
LINE
  5
2A1
100
AcDbEntity
  8
0
100
AcDbLine
 62
7
  6
CONTINUOUS
 10
58.3712724534
 20
-12.8208127777
 11
58.1381436868
 21
-13.3207590311
  0
LINE
  5
2A2
100
AcDbEntity
  8
DRAFT
100
AcDbLine
 62
7
  6
CONTINUOUS
 10
58.1381436868
 20
-13.3207590312
 11
58.3712724534
 21
-12.8208127779
  0
LINE
  5
2A3
100
AcDbEntity
  8
0
100
AcDbLine
 62
7
  6
CONTINUOUS
 10
63.6523503906
 20
-14.7246431037
 11
63.5828911196
 21
-15.1185662044
  0
LINE
  5
2A4
100
AcDbEntity
  8
DRAFT
100
AcDbLine
 62
7
  6
CONTINUOUS
 10
63.5828911196
 20
-15.1185662044
 11
63.6523503907
 21
-14.7246431032
  0
LINE
  5
2A5
100
AcDbEntity
  8
0
100
AcDbLine
 62
250
  6
CONTINUOUS
 10
69.6117744376
 20
25.0602749751
 11
69.6117744376
 21
-27.5662124751
  0
LINE
  5
2A6
100
AcDbEntity
  8
0
100
AcDbLine
 62
250
  6
CONTINUOUS
 10
70.1116031001
 20
24.5604463126
 11
70.1116031001
 21
-27.0663838126
  0
LINE
  5
2A7
100
AcDbEntity
  8
RACCORDO
100
AcDbLine
 62
7
  6
CONTINUOUS
 10
70.198359375
 20
16.2982520521
 11
70.198359375
 21
-18.8041895521
  0
LINE
  5
2A8
100
AcDbEntity
  8
0
100
AcDbLine
 62
7
  6
CONTINUOUS
 10
70.198359375
 20
-27.1531400875
 11
70.198359375
 21
24.6472025875
  0
LINE
  5
2A9
100
AcDbEntity
  8
DRAFT
100
AcDbLine
 62
7
  6
CONTINUOUS
 10
62.8447004606
 20
-13.489803146
 11
62.3430788075
 21
-14.0876125532
  0
LINE
  5
2AA
100
AcDbEntity
  8
DRAFT
100
AcDbLine
 62
7
  6
CONTINUOUS
 10
61.6750743284
 20
-14.883709291
 11
61.1734526754
 21
-15.4815186982
  0
LINE
  5
2AB
100
AcDbEntity
  8
0
100
AcDbLine
 62
7
  6
CONTINUOUS
 10
61.1734526753
 20
-15.4815186984
 11
61.6750743284
 21
-14.883709291
  0
LINE
  5
2AC
100
AcDbEntity
  8
0
100
AcDbLine
 62
7
  6
CONTINUOUS
 10
62.3430788075
 20
-14.0876125532
 11
62.8447004608
 21
-13.4898031459
  0
LINE
  5
2AD
100
AcDbEntity
  8
0
100
AcDbLine
 62
7
  6
CONTINUOUS
 10
63.3043271264
 20
-13.8754757119
 11
62.8027054734
 21
-14.473285119
  0
LINE
  5
2AE
100
AcDbEntity
  8
0
100
AcDbLine
 62
7
  6
CONTINUOUS
 10
62.1347009943
 20
-15.2693818568
 11
61.6330793413
 21
-15.8671912639
  0
LINE
  5
2AF
100
AcDbEntity
  8
DRAFT
100
AcDbLine
 62
7
  6
CONTINUOUS
 10
61.6330793412
 20
-15.867191264
 11
62.1347009943
 21
-15.2693818568
  0
LINE
  5
2B0
100
AcDbEntity
  8
DRAFT
100
AcDbLine
 62
7
  6
CONTINUOUS
 10
62.8027054734
 20
-14.473285119
 11
63.3043271264
 21
-13.8754757119
  0
LINE
  5
2B1
100
AcDbEntity
  8
0
100
AcDbLine
 62
250
  6
CONTINUOUS
 10
47.998359375
 20
-27.1531400875
 11
48.0851156499
 21
-27.0663838126
  0
LINE
  5
2B2
100
AcDbEntity
  8
0
100
AcDbLine
 62
250
  6
CONTINUOUS
 10
48.4981880375
 20
-27.65296875
 11
48.5849443124
 21
-27.5662124751
  0
LINE
  5
2B3
100
AcDbEntity
  8
DRAFT
100
AcDbLine
 62
7
  6
CONTINUOUS
 10
61.9480002244
 20
-13.2945235073
 11
61.5721231761
 21
-13.4313315646
  0
LINE
  5
2B4
100
AcDbEntity
  8
0
100
AcDbLine
 62
7
  6
CONTINUOUS
 10
61.5721231761
 20
-13.4313315646
 11
61.9480002248
 21
-13.2945235072
  0
LINE
  5
2B5
100
AcDbEntity
  8
0
100
AcDbLine
 62
7
  6
CONTINUOUS
 10
60.3362957121
 20
10.49703125
 11
57.8604230379
 21
10.49703125
  0
LINE
  5
2B6
100
AcDbEntity
  8
DRAFT
100
AcDbLine
 62
7
  6
CONTINUOUS
 10
57.8604230379
 20
10.49703125
 11
60.3362957121
 21
10.49703125
  0
LINE
  5
2B7
100
AcDbEntity
  8
0
100
AcDbLine
 62
250
  6
CONTINUOUS
 10
48.0851156499
 20
24.5604463126
 11
47.998359375
 21
24.6472025875
  0
LINE
  5
2B8
100
AcDbEntity
  8
0
100
AcDbLine
 62
250
  6
CONTINUOUS
 10
48.5849443124
 20
25.0602749751
 11
48.4981880375
 21
25.14703125
  0
LWPOLYLINE
  5
2B9
100
AcDbEntity
  8
0
100
AcDbPolyline
 62
250
  6
CONTINUOUS
 90
16
 70
0
 10
70.1116031001
 20
24.5604463126
 10
70.108814765
 20
24.6128287815
 10
70.1005522933
 20
24.6646341672
 10
70.0869067363
 20
24.7152919212
 10
70.0680259407
 20
24.7642497086
 10
70.0441192195
 20
24.8109622747
 10
70.0154607536
 20
24.8549002936
 10
69.9823786962
 20
24.8955745919
 10
69.9452354281
 20
24.9325516857
 10
69.9044295819
 20
24.9654391846
 10
69.860345793
 20
24.9939129307
 10
69.8135250164
 20
25.0176103898
 10
69.7646782029
 20
25.0362082644
 10
69.7144289644
 20
25.0495495028
 10
69.6632747864
 20
25.0575794119
 10
69.6117744374
 20
25.0602749749
  0
LWPOLYLINE
  5
2BA
100
AcDbEntity
  8
0
100
AcDbPolyline
 62
250
  6
CONTINUOUS
 90
16
 70
0
 10
70.1116031001
 20
-27.0663838126
 10
70.1088151356
 20
-27.1187627876
 10
70.1005537262
 20
-27.1705649653
 10
70.0869098461
 20
-27.2212198964
 10
70.0680311565
 20
-27.2701755459
 10
70.0441269237
 20
-27.3168864887
 10
70.0154716438
 20
-27.3608228694
 10
69.9823942647
 20
-27.4014948769
 10
69.9452566362
 20
-27.4384701762
 10
69.9044553042
 20
-27.4713580875
 10
69.860373801
 20
-27.4998343555
 10
69.8135532217
 20
-27.523535426
 10
69.7647038298
 20
-27.5421375118
 10
69.7144489305
 20
-27.5554827988
 10
69.6632861542
 20
-27.5635157265
 10
69.6117744376
 20
-27.5662124751
  0
LINE
  5
2BB
100
AcDbEntity
  8
0
100
AcDbLine
 62
7
  6
CONTINUOUS
 10
62.9056566257
 20
-15.9256628455
 11
62.5297795775
 21
-16.0624709028
  0
LINE
  5
2BC
100
AcDbEntity
  8
DRAFT
100
AcDbLine
 62
7
  6
CONTINUOUS
 10
62.5297795774
 20
-16.0624709028
 11
62.9056566257
 21
-15.9256628455
  0
LWPOLYLINE
  5
2BD
100
AcDbEntity
  8
0
100
AcDbPolyline
 62
7
  6
CONTINUOUS
 90
3
 70
0
 43
0.3500000006
 10
102.0237599487
 20
-0.3243976822
 10
102.2380444336
 20
-0.3958265991
 10
102.5237601013
 20
-0.5386821671
  0
LINE
  5
2BE
100
AcDbEntity
  8
DRAFT
100
AcDbLine
 62
7
  6
CONTINUOUS
 10
59.9222311582
 20
14.4545344877
 11
58.8459702832
 21
14.8462614105
  0
LINE
  5
2BF
100
AcDbEntity
  8
0
100
AcDbLine
 62
7
  6
CONTINUOUS
 10
58.8459702834
 20
14.8462614104
 11
59.9222311581
 21
14.4545344877
  0
LINE
  5
2C0
100
AcDbEntity
  8
0
100
AcDbLine
 62
7
  6
CONTINUOUS
 10
60.4781663455
 20
15.5396947411
 11
59.9735341796
 21
15.5396947411
  0
LINE
  5
2C1
100
AcDbEntity
  8
DRAFT
100
AcDbLine
 62
7
  6
CONTINUOUS
 10
59.9735341796
 20
15.5396947411
 11
60.4781663455
 21
15.5396947411
  0
LWPOLYLINE
  5
2C2
100
AcDbEntity
  8
0
100
AcDbPolyline
 62
7
  6
CONTINUOUS
 90
10
 70
0
 43
0.3500000006
 10
60.0626440887
 20
34.610057373
 10
60.1340752716
 20
34.4671995392
 10
60.1340752716
 20
34.3957728882
 10
59.9912174377
 20
34.2529150543
 10
59.9197862549
 20
34.2529150543
 10
59.8483596039
 20
34.3243462372
 10
59.8483596039
 20
34.3957728882
 10
59.9197862549
 20
34.538630722
 10
59.9912174377
 20
34.610057373
 10
60.0626440887
 20
34.610057373
  0
LWPOLYLINE
  5
2C3
100
AcDbEntity
  8
0
100
AcDbPolyline
 62
7
  6
CONTINUOUS
 90
10
 70
0
 43
0.3500000006
 10
101.8094754639
 20
-0.3958265991
 10
101.9523287659
 20
-0.3243976822
 10
102.0237599487
 20
-0.3243976822
 10
102.1666132507
 20
-0.4672555161
 10
102.1666132507
 20
-0.5386821671
 10
102.0951911316
 20
-0.610111084
 10
102.0237599487
 20
-0.610111084
 10
101.880897583
 20
-0.5386821671
 10
101.8094754639
 20
-0.4672555161
 10
101.8094754639
 20
-0.3958265991
  0
LINE
  5
2C4
100
AcDbEntity
  8
DRAFT
100
AcDbLine
 62
7
  6
CONTINUOUS
 10
62.6162167479
 20
25.14703125
 11
62.348359375
 21
25.1208543017
  0
LINE
  5
2C5
100
AcDbEntity
  8
0
100
AcDbLine
 62
250
  6
CONTINUOUS
 10
48.0851156499
 20
24.5604463126
 11
70.1116031001
 21
24.5604463126
  0
LINE
  5
2C6
100
AcDbEntity
  8
0
100
AcDbLine
 62
250
  6
CONTINUOUS
 10
69.6117744376
 20
25.0602749751
 11
48.5849443124
 21
25.0602749751
  0
LINE
  5
2C7
100
AcDbEntity
  8
DRAFT
100
AcDbLine
 62
7
  6
CONTINUOUS
 10
55.848359375
 20
25.1208543017
 11
62.348359375
 21
25.1208543017
  0
LINE
  5
2C8
100
AcDbEntity
  8
DRAFT
100
AcDbLine
 62
7
  6
CONTINUOUS
 10
69.6985307125
 20
25.14703125
 11
62.6162167479
 21
25.14703125
  0
LINE
  5
2C9
100
AcDbEntity
  8
DRAFT
100
AcDbLine
 62
7
  6
CONTINUOUS
 10
55.5805020021
 20
25.14703125
 11
48.4981880375
 21
25.14703125
  0
LINE
  5
2CA
100
AcDbEntity
  8
DRAFT
100
AcDbLine
 62
7
  6
CONTINUOUS
 10
55.5805020021
 20
25.14703125
 11
55.848359375
 21
25.1208543017
  0
LWPOLYLINE
  5
2CB
100
AcDbEntity
  8
0
100
AcDbPolyline
 62
7
  6
CONTINUOUS
 90
13
 70
0
 43
0.3500000006
 10
100.5951906738
 20
1.1041738586
 10
100.3808971252
 20
0.8184604568
 10
99.7380436707
 20
0.8184604568
 10
99.3094747009
 20
1.1041738586
 10
99.3094747009
 20
1.7470318451
 10
99.7380436707
 20
2.0327452469
 10
100.3808971252
 20
2.0327452469
 10
100.5951906738
 20
1.7470318451
 10
101.0237596436
 20
2.1756030807
 10
101.880897583
 20
2.1756030807
 10
102.3094756165
 20
1.7470318451
 10
102.3094756165
 20
1.1041738586
 10
101.880897583
 20
0.675602623
  0
LWPOLYLINE
  5
2CC
100
AcDbEntity
  8
0
100
AcDbPolyline
 62
7
  6
CONTINUOUS
 90
7
 70
0
 43
0.3500000006
 10
62.6340715027
 20
34.1100572205
 10
61.1340755768
 20
34.1100572205
 10
62.6340715027
 20
36.2529156647
 10
62.6340715027
 20
36.6814846344
 10
62.205502533
 20
37.110058136
 10
61.5626445465
 20
37.110058136
 10
61.1340755768
 20
36.4672001495
  0
LWPOLYLINE
  5
2CD
100
AcDbEntity
  8
0
100
AcDbPolyline
 62
7
  6
CONTINUOUS
 90
7
 70
0
 43
0.3500000006
 10
58.562643631
 20
34.1100572205
 10
57.0626431732
 20
34.1100572205
 10
58.562643631
 20
36.2529156647
 10
58.562643631
 20
36.6814846344
 10
58.1340746613
 20
37.110058136
 10
57.4912166748
 20
37.110058136
 10
57.0626431732
 20
36.4672001495
  0
LWPOLYLINE
  5
2CE
100
AcDbEntity
  8
0
100
AcDbPolyline
 62
7
  6
CONTINUOUS
 90
7
 70
0
 43
0.3500000006
 10
56.2055007019
 20
34.1100572205
 10
54.7055002441
 20
34.1100572205
 10
56.2055007019
 20
36.2529156647
 10
56.2055007019
 20
36.6814846344
 10
55.7769317322
 20
37.110058136
 10
55.1340737457
 20
37.110058136
 10
54.7055002441
 20
36.4672001495
  0
LWPOLYLINE
  5
2CF
100
AcDbEntity
  8
0
100
AcDbPolyline
 62
7
  6
CONTINUOUS
 90
7
 70
0
 43
0.3500000006
 10
102.3094756165
 20
-1.8958259239
 10
102.3094756165
 20
-3.3958263817
 10
100.1666126404
 20
-1.8958259239
 10
99.7380436707
 20
-1.8958259239
 10
99.3094747009
 20
-2.3243971596
 10
99.3094747009
 20
-2.9672540131
 10
99.9523281555
 20
-3.3958263817
  0
LWPOLYLINE
  5
2D0
100
AcDbEntity
  8
0
100
AcDbPolyline
 62
7
  6
CONTINUOUS
 90
8
 70
0
 43
0.3500000006
 10
102.3094756165
 20
-5.53868256
 10
102.3094756165
 20
-4.6815400887
 10
101.880897583
 20
-4.252968853
 10
101.0237596436
 20
-4.252968853
 10
100.5951906738
 20
-4.6815400887
 10
100.5951906738
 20
-5.53868256
 10
99.3094747009
 20
-5.53868256
 10
99.3094747009
 20
-4.252968853
  0
LWPOLYLINE
  5
2D1
100
AcDbEntity
  8
0
100
AcDbPolyline
 62
7
  6
CONTINUOUS
 90
10
 70
0
 43
0.3500000006
 10
-2.4667638159
 20
47.1100566559
 10
-3.1096209526
 20
46.4672032013
 10
-3.5381924715
 20
45.6100561981
 10
-3.5381924715
 20
44.5386292419
 10
-3.1096209526
 20
44.1100602722
 10
-2.4667638159
 20
44.1100602722
 10
-2.0381924386
 20
44.5386292419
 10
-2.0381924386
 20
45.3957717133
 10
-2.4667638159
 20
45.8243452148
 10
-3.3953352041
 20
45.8243452148
  0
LWPOLYLINE
  5
2D2
100
AcDbEntity
  8
0
100
AcDbPolyline
 62
7
  6
CONTINUOUS
 90
3
 70
0
 43
0.3500000006
 10
-0.0453353236
 20
36.2529156647
 10
0.8118075106
 20
37.110058136
 10
0.8118075106
 20
34.1100572205
  0
LWPOLYLINE
  5
2D3
100
AcDbEntity
  8
0
100
AcDbPolyline
 62
7
  6
CONTINUOUS
 90
3
 70
0
 43
0.3500000006
 10
3.3832359867
 20
36.2529156647
 10
4.2403790245
 20
37.110058136
 10
4.2403790245
 20
34.1100572205
  0
LINE
  5
2D4
100
AcDbEntity
  8
0
100
AcDbLine
 62
7
  6
CONTINUOUS
 10
-14.9024781816
 20
24.5604463126
 11
-14.9024781816
 21
-27.0663838126
  0
LINE
  5
2D5
100
AcDbEntity
  8
ASSI
100
AcDbLine
 62
7
  6
CONTINUOUS
 10
-6.9828629393
 20
23.39703125
 11
-7.4447431547
 21
22.59703125
  0
LINE
  5
2D6
100
AcDbEntity
  8
ASSI
100
AcDbLine
 62
250
  6
CONTINUOUS
 10
-6.8061673773
 20
23.3144597437
 11
-7.2680475926
 21
22.5144597437
  0
LWPOLYLINE
  5
2D7
100
AcDbEntity
  8
ASSI
100
AcDbPolyline
 62
250
  6
CONTINUOUS
 90
16
 70
0
 10
-7.2680475926
 20
22.5144597437
 10
-7.284743131
 20
22.4885013049
 10
-7.3024789105
 20
22.4644718815
 10
-7.3212549312
 20
22.4423714734
 10
-7.3412337075
 20
22.4222393673
 10
-7.362252725
 20
22.4040362765
 10
-7.3838244403
 20
22.3876443416
 10
-7.4056980513
 20
22.3731275703
 10
-7.42812436
 20
22.3604219548
 10
-7.4513682296
 20
22.3492176129
 10
-7.4752983995
 20
22.339353428
 10
-7.5000461304
 20
22.3309905165
 10
-7.5262700668
 20
22.3243023457
 10
-7.554189757
 20
22.3193467378
 10
-7.5835856528
 20
22.3160658704
 10
-7.6024781816
 20
22.3150829832
  0
LINE
  5
2D8
100
AcDbEntity
  8
DRAFT
100
AcDbLine
 62
7
  6
CONTINUOUS
 10
-10.3175883244
 20
17.9617226584
 11
-9.6024781816
 21
18.6447228344
  0
LINE
  5
2D9
100
AcDbEntity
  8
DRAFT
100
AcDbLine
 62
7
  6
CONTINUOUS
 10
-9.6024781816
 20
-21.1506603344
 11
-10.3175883244
 21
-20.4676601584
  0
LINE
  5
2DA
100
AcDbEntity
  8
ASSI
100
AcDbLine
 62
7
  6
CONTINUOUS
 10
-7.4447431547
 20
-25.10296875
 11
-6.9828629393
 21
-25.90296875
  0
LINE
  5
2DB
100
AcDbEntity
  8
ASSI
100
AcDbLine
 62
250
  6
CONTINUOUS
 10
-7.2680472344
 20
-25.0203978642
 11
-6.8061673773
 21
-25.8203972437
  0
LINE
  5
2DC
100
AcDbEntity
  8
0
100
AcDbLine
 62
250
  6
CONTINUOUS
 10
-14.4155666557
 20
24.5604463126
 11
-14.4180055352
 21
24.6646341672
  0
LINE
  5
2DD
100
AcDbEntity
  8
0
100
AcDbLine
 62
250
  6
CONTINUOUS
 10
-14.4180055352
 20
24.6646341672
 11
-14.4197623274
 21
24.7642497086
  0
LWPOLYLINE
  5
2DE
100
AcDbEntity
  8
0
100
AcDbPolyline
 62
250
  6
CONTINUOUS
 90
11
 70
0
 10
-14.4197623274
 20
24.7642497086
 10
-14.4207596286
 20
24.8549002936
 10
-14.4209584385
 20
24.8955745919
 10
-14.420954087
 20
24.9325516857
 10
-14.4207467378
 20
24.9654391846
 10
-14.4203379742
 20
24.9939129307
 10
-14.4197324686
 20
25.0176103898
 10
-14.4189403728
 20
25.0362082644
 10
-14.4179739042
 20
25.0495495028
 10
-14.4168446577
 20
25.0575794119
 10
-14.4155666624
 20
25.0602749749
  0
LWPOLYLINE
  5
2DF
100
AcDbEntity
  8
0
100
AcDbPolyline
 62
250
  6
CONTINUOUS
 90
9
 70
0
 10
-14.4209583954
 20
-27.4014948769
 10
-14.4209541446
 20
-27.4384701762
 10
-14.4207469244
 20
-27.4713580875
 10
-14.4203382869
 20
-27.4998343555
 10
-14.4197328813
 20
-27.523535426
 10
-14.4189408277
 20
-27.5421375118
 10
-14.4179743155
 20
-27.5554827988
 10
-14.4168449207
 20
-27.5635157265
 10
-14.4155666557
 20
-27.5662124751
  0
LINE
  5
2E0
100
AcDbEntity
  8
0
100
AcDbLine
 62
250
  6
CONTINUOUS
 10
-14.4155666557
 20
24.5604463126
 11
-14.4155666557
 21
-27.0663838126
  0
LINE
  5
2E1
100
AcDbEntity
  8
0
100
AcDbLine
 62
250
  6
CONTINUOUS
 10
-14.4203593733
 20
-27.3168864887
 11
-14.4209583954
 21
-27.4014948769
  0
LINE
  5
2E2
100
AcDbEntity
  8
0
100
AcDbLine
 62
250
  6
CONTINUOUS
 10
-14.4189745657
 20
-27.2212198964
 11
-14.4203593733
 21
-27.3168864887
  0
LWPOLYLINE
  5
2E3
100
AcDbEntity
  8
0
100
AcDbPolyline
 62
250
  6
CONTINUOUS
 90
3
 70
0
 10
-14.4155666557
 20
-27.0663838126
 10
-14.4168652421
 20
-27.1187627876
 10
-14.4189745657
 20
-27.2212198964
  0
LWPOLYLINE
  5
2E4
100
AcDbEntity
  8
0
100
AcDbPolyline
 62
7
  6
CONTINUOUS
 90
3
 70
0
 43
0.3500000006
 10
-0.4667638782
 20
44.3957714081
 10
-0.5381924765
 20
44.1814869232
 10
-0.6810496023
 20
43.8957712555
  0
LINE
  5
2E5
100
AcDbEntity
  8
ASSI
100
AcDbLine
 62
250
  6
CONTINUOUS
 10
-6.4830495531
 20
23.2863520798
 11
-6.4624551015
 21
23.3300033182
  0
LWPOLYLINE
  5
2E6
100
AcDbEntity
  8
ASSI
100
AcDbPolyline
 62
250
  6
CONTINUOUS
 90
10
 70
0
 10
-6.4624551015
 20
23.3300033182
 10
-6.4433269677
 20
23.369935869
 10
-6.4346822319
 20
23.3877347496
 10
-6.4268298917
 20
23.4037181658
 10
-6.4198899457
 20
23.4176418583
 10
-6.4139684551
 20
23.4292930329
 10
-6.4091559226
 20
23.4384936133
 10
-6.4055258996
 20
23.4451029815
 10
-6.4031338656
 20
23.4490201192
 10
-6.4020163846
 20
23.4501851447
  0
LWPOLYLINE
  5
2E7
100
AcDbEntity
  8
ASSI
100
AcDbPolyline
 62
250
  6
CONTINUOUS
 90
10
 70
0
 10
-3.6446301452
 20
22.0236144741
 10
-3.6567276529
 20
22.0110379213
 10
-3.6684757647
 20
21.9991743943
 10
-3.6797695904
 20
21.988129811
 10
-3.6905082948
 20
21.9780027769
 10
-3.7005960015
 20
21.9688837082
 10
-3.7099426492
 20
21.9608540233
 10
-3.7184647888
 20
21.9539854123
 10
-3.7260863305
 20
21.9483391977
 10
-3.7327392268
 20
21.9439657893
  0
LWPOLYLINE
  5
2E8
100
AcDbEntity
  8
ASSI
100
AcDbPolyline
 62
250
  6
CONTINUOUS
 90
10
 70
0
 10
-3.6445907285
 20
-24.5295281107
 10
-3.656690824
 20
-24.516952707
 10
-3.6684414812
 20
-24.5050902873
 10
-3.6797377858
 20
-24.4940467681
 10
-3.6904788834
 20
-24.4839207568
 10
-3.7005688709
 20
-24.4748026621
 10
-3.7099176543
 20
-24.4667738893
 10
-3.7184417644
 20
-24.4599061234
 10
-3.7260650995
 20
-24.4542606877
 10
-3.7327195973
 20
-24.4498879883
  0
LWPOLYLINE
  5
2E9
100
AcDbEntity
  8
ASSI
100
AcDbPolyline
 62
250
  6
CONTINUOUS
 90
8
 70
0
 10
-6.4346816741
 20
-25.893673323
 10
-6.4268293825
 20
-25.9096566247
 10
-6.4198895206
 20
-25.9235801357
 10
-6.4139681354
 20
-25.935231093
 10
-6.4091557105
 20
-25.9444314598
 10
-6.4055257839
 20
-25.9510406467
 10
-6.403133824
 20
-25.9549576597
 10
-6.402016382
 20
-25.9561226435
  0
LINE
  5
2EA
100
AcDbEntity
  8
ASSI
100
AcDbLine
 62
250
  6
CONTINUOUS
 10
-6.4526314783
 20
-25.8565320446
 11
-6.4346816741
 21
-25.893673323
  0
LWPOLYLINE
  5
2EB
100
AcDbEntity
  8
ASSI
100
AcDbPolyline
 62
250
  6
CONTINUOUS
 90
3
 70
0
 10
-6.4830495531
 20
-25.7922895798
 10
-6.4726459713
 20
-25.8144178294
 10
-6.4526314783
 20
-25.8565320446
  0
LWPOLYLINE
  5
2EC
100
AcDbEntity
  8
RACCORDO
100
AcDbPolyline
 62
7
  6
CONTINUOUS
 90
12
 70
0
 10
-11.1008806582
 20
-19.1576472354
 10
-11.0961130268
 20
-19.1770096944
 10
-11.0882506037
 20
-19.1956710843
 10
-11.0774187662
 20
-19.2133784907
 10
-11.0637895524
 20
-19.2298547018
 10
-11.047577703
 20
-19.2448017931
 10
-11.0290368791
 20
-19.2579922167
 10
-11.0084653682
 20
-19.2692363358
 10
-10.9862020088
 20
-19.2783317086
 10
-10.9626079665
 20
-19.2851325516
 10
-10.9380580871
 20
-19.2895489903
 10
-10.9129453728
 20
-19.2915140362
  0
LWPOLYLINE
  5
2ED
100
AcDbEntity
  8
ASSI
100
AcDbPolyline
 62
250
  6
CONTINUOUS
 90
16
 70
0
 10
-8.4989877003
 20
-24.0081480784
 10
-8.4970697373
 20
-24.0438656525
 10
-8.4925585192
 20
-24.0782550233
 10
-8.485454046
 20
-24.1113161906
 10
-8.4755058987
 20
-24.1432253372
 10
-8.4629644963
 20
-24.1738062805
 10
-8.4485810958
 20
-24.202530472
 10
-8.4325473529
 20
-24.2291407426
 10
-8.414671612
 20
-24.2538942615
 10
-8.3951301631
 20
-24.2770339884
 10
-8.3742580078
 20
-24.298583262
 10
-8.3517201446
 20
-24.3185187436
 10
-8.3266878594
 20
-24.3370133765
 10
-8.2988849141
 20
-24.3541248085
 10
-8.2685875469
 20
-24.3697953919
 10
-8.2357957576
 20
-24.3840251267
  0
LWPOLYLINE
  5
2EE
100
AcDbEntity
  8
ASSI
100
AcDbPolyline
 62
250
  6
CONTINUOUS
 90
7
 70
0
 10
-10.4535820421
 20
23.2447791359
 10
-10.453920531
 20
23.2603256249
 10
-10.4542901268
 20
23.2733615355
 10
-10.4546837005
 20
23.2836545738
 10
-10.4550945043
 20
23.2910700757
 10
-10.4555166106
 20
23.2955407503
 10
-10.4559435792
 20
23.29703125
  0
LINE
  5
2EF
100
AcDbEntity
  8
ASSI
100
AcDbLine
 62
250
  6
CONTINUOUS
 10
-10.453019267
 20
23.2071997663
 11
-10.4535820421
 21
23.2447791359
  0
LINE
  5
2F0
100
AcDbEntity
  8
RACCORDO
100
AcDbLine
 62
250
  6
CONTINUOUS
 10
-9.7980803805
 20
-23.8182119566
 11
-9.7989877003
 21
-23.7564292974
  0
LWPOLYLINE
  5
2F1
100
AcDbEntity
  8
RACCORDO
100
AcDbPolyline
 62
250
  6
CONTINUOUS
 90
7
 70
0
 10
-9.7976033861
 20
21.412248739
 10
-9.7977107534
 20
21.4236499477
 10
-9.7978703342
 20
21.4331547416
 10
-9.7980803805
 20
21.4406589932
 10
-9.7983385916
 20
21.4460805129
 10
-9.7986421397
 20
21.4493599324
 10
-9.7989877003
 20
21.4504613364
  0
LINE
  5
2F2
100
AcDbEntity
  8
RACCORDO
100
AcDbLine
 62
250
  6
CONTINUOUS
 10
-9.7977107534
 20
-23.8563969251
 11
-9.7980803805
 21
-23.8182119566
  0
LINE
  5
2F3
100
AcDbEntity
  8
ASSI
100
AcDbLine
 62
250
  6
CONTINUOUS
 10
-10.452635013
 20
23.1628618338
 11
-10.453019267
 21
23.2071997663
  0
LINE
  5
2F4
100
AcDbEntity
  8
RACCORDO
100
AcDbLine
 62
250
  6
CONTINUOUS
 10
-9.7975494078
 20
-23.8902143393
 11
-9.7977107534
 21
-23.8563969251
  0
LINE
  5
2F5
100
AcDbEntity
  8
ASSI
100
AcDbLine
 62
250
  6
CONTINUOUS
 10
-10.4524530979
 20
23.1144597437
 11
-10.452635013
 21
23.1628618338
  0
LINE
  5
2F6
100
AcDbEntity
  8
RACCORDO
100
AcDbLine
 62
7
  6
CONTINUOUS
 10
-11.1024781816
 20
16.2982520521
 11
-11.1024781816
 21
-18.8041895521
  0
LINE
  5
2F7
100
AcDbEntity
  8
0
100
AcDbLine
 62
7
  6
CONTINUOUS
 10
-11.1024781816
 20
-27.65296875
 11
-11.1024781816
 21
25.14703125
  0
LINE
  5
2F8
100
AcDbEntity
  8
RACCORDO
100
AcDbLine
 62
250
  6
CONTINUOUS
 10
-10.9059686629
 20
-19.4691645174
 11
-10.9059686629
 21
-19.2915140362
  0
LINE
  5
2F9
100
AcDbEntity
  8
RACCORDO
100
AcDbLine
 62
250
  6
CONTINUOUS
 10
-10.9059686629
 20
16.7855765362
 11
-10.9059686629
 21
16.9632270048
  0
LINE
  5
2FA
100
AcDbEntity
  8
RACCORDO
100
AcDbLine
 62
250
  6
CONTINUOUS
 10
-9.7989877003
 20
-23.7564292974
 11
-9.7989877003
 21
-23.4214054803
  0
LINE
  5
2FB
100
AcDbEntity
  8
RACCORDO
100
AcDbLine
 62
250
  6
CONTINUOUS
 10
-9.7989877003
 20
-19.4382346569
 11
-9.7989877003
 21
-19.3233052563
  0
LINE
  5
2FC
100
AcDbEntity
  8
RACCORDO
100
AcDbLine
 62
250
  6
CONTINUOUS
 10
-9.7989877003
 20
16.8173677563
 11
-9.7989877003
 21
16.9322971412
  0
LINE
  5
2FD
100
AcDbEntity
  8
RACCORDO
100
AcDbLine
 62
250
  6
CONTINUOUS
 10
-9.7989877003
 20
20.9154679803
 11
-9.7989877003
 21
21.2504917974
  0
LINE
  5
2FE
100
AcDbEntity
  8
RACCORDO
100
AcDbLine
 62
250
  6
CONTINUOUS
 10
-9.7975494092
 20
21.3842760397
 11
-9.7976033861
 21
21.412248739
  0
LINE
  5
2FF
100
AcDbEntity
  8
RACCORDO
100
AcDbLine
 62
7
  6
CONTINUOUS
 10
-9.6024781816
 20
21.64703125
 11
-9.6024781816
 21
20.74703125
  0
LINE
  5
300
100
AcDbEntity
  8
DRAFT
100
AcDbLine
 62
7
  6
CONTINUOUS
 10
-9.6024781816
 20
20.74703125
 11
-9.6024781816
 21
18.6447228344
  0
LINE
  5
301
100
AcDbEntity
  8
DRAFT
100
AcDbLine
 62
7
  6
CONTINUOUS
 10
-9.6024781816
 20
-21.1506603344
 11
-9.6024781816
 21
-23.25296875
  0
LINE
  5
302
100
AcDbEntity
  8
RACCORDO
100
AcDbLine
 62
7
  6
CONTINUOUS
 10
-9.6024781816
 20
-20.3560444186
 11
-9.6024781816
 21
-19.475669013
  0
LINE
  5
303
100
AcDbEntity
  8
RACCORDO
100
AcDbLine
 62
7
  6
CONTINUOUS
 10
-9.6024781816
 20
-23.25296875
 11
-9.6024781816
 21
-24.15296875
  0
LINE
  5
304
100
AcDbEntity
  8
RACCORDO
100
AcDbLine
 62
7
  6
CONTINUOUS
 10
-9.6024781816
 20
16.969731513
 11
-9.6024781816
 21
17.8501069186
  0
LINE
  5
305
100
AcDbEntity
  8
ASSI
100
AcDbLine
 62
250
  6
CONTINUOUS
 10
-10.4524530979
 20
-25.6203972437
 11
-10.4526350296
 21
-25.6688020489
  0
LINE
  5
306
100
AcDbEntity
  8
RACCORDO
100
AcDbLine
 62
250
  6
CONTINUOUS
 10
-9.797710759
 20
21.350458663
 11
-9.7975494092
 21
21.3842760397
  0
LINE
  5
307
100
AcDbEntity
  8
ASSI
100
AcDbLine
 62
250
  6
CONTINUOUS
 10
-10.4526350296
 20
-25.6688020489
 11
-10.4530193307
 21
-25.7131427684
  0
LINE
  5
308
100
AcDbEntity
  8
RACCORDO
100
AcDbLine
 62
250
  6
CONTINUOUS
 10
-9.798338596
 20
21.2920597151
 11
-9.797710759
 21
21.350458663
  0
LINE
  5
309
100
AcDbEntity
  8
RACCORDO
100
AcDbLine
 62
250
  6
CONTINUOUS
 10
-9.7989877003
 20
21.2504917974
 11
-9.798338596
 21
21.2920597151
  0
LWPOLYLINE
  5
30A
100
AcDbEntity
  8
ASSI
100
AcDbPolyline
 62
250
  6
CONTINUOUS
 90
8
 70
0
 10
-10.4530193307
 20
-25.7131427684
 10
-10.4535821746
 20
-25.7507235366
 10
-10.4539206828
 20
-25.7662692539
 10
-10.4542902846
 20
-25.7793038552
 10
-10.454683847
 20
-25.7895952951
 10
-10.4550946203
 20
-25.7970092297
 10
-10.4555166774
 20
-25.8014787181
 10
-10.4559435792
 20
-25.80296875
  0
LWPOLYLINE
  5
30B
100
AcDbEntity
  8
ASSI
100
AcDbPolyline
 62
250
  6
CONTINUOUS
 90
13
 70
0
 10
-8.4989877003
 20
21.5022103339
 10
-8.496861445
 20
21.543003612
 10
-8.4908149134
 20
21.5827006717
 10
-8.4808481055
 20
21.6213015129
 10
-8.4668296529
 20
21.6591825193
 10
-8.4488909241
 20
21.6959673072
 10
-8.4274260245
 20
21.7305267257
 10
-8.4021803848
 20
21.7628845573
 10
-8.3734085743
 20
21.7930170196
 10
-8.3422684066
 20
21.8197236142
 10
-8.3091458195
 20
21.842604175
 10
-8.2736548751
 20
21.8620588682
 10
-8.2357955735
 20
21.8780876937
  0
LWPOLYLINE
  5
30C
100
AcDbEntity
  8
RACCORDO
100
AcDbPolyline
 62
7
  6
CONTINUOUS
 90
13
 70
0
 10
-9.6024781816
 20
16.969731513
 10
-9.6040743226
 20
16.9502297859
 10
-9.6088384955
 20
16.931110466
 10
-9.6166964434
 20
16.9126540313
 10
-9.6275241203
 20
16.8951099767
 10
-9.6411503251
 20
16.8787592375
 10
-9.6573599981
 20
16.8639103146
 10
-9.6758990673
 20
16.8507898933
 10
-9.6964699917
 20
16.839588768
 10
-9.7187349018
 20
16.8305229952
 10
-9.7423331113
 20
16.8237433327
 10
-9.7668895309
 20
16.8193357477
 10
-9.7920109903
 20
16.8173677563
  0
LINE
  5
30D
100
AcDbEntity
  8
ASSI
100
AcDbLine
 62
250
  6
CONTINUOUS
 10
-3.6446304475
 20
22.023614518
 11
-3.6321835181
 21
22.0495729648
  0
LINE
  5
30E
100
AcDbEntity
  8
ASSI
100
AcDbLine
 62
250
  6
CONTINUOUS
 10
-3.6321835181
 20
22.0495729648
 11
-3.6207463822
 21
22.0731472271
  0
LWPOLYLINE
  5
30F
100
AcDbEntity
  8
ASSI
100
AcDbPolyline
 62
250
  6
CONTINUOUS
 90
11
 70
0
 10
-3.6207463822
 20
22.0731472271
 10
-3.6106108541
 20
22.0937348286
 10
-3.6061134003
 20
22.1027409484
 10
-3.6020353127
 20
22.1108098403
 10
-3.5984026129
 20
22.1178898206
 10
-3.5952384838
 20
22.1239356043
 10
-3.5925631448
 20
22.1289084582
 10
-3.5903936626
 20
22.1327764804
 10
-3.5887438375
 20
22.1355149592
 10
-3.5876241458
 20
22.1371064652
 10
-3.5870416718
 20
22.1375408786
  0
LINE
  5
310
100
AcDbEntity
  8
ASSI
100
AcDbLine
 62
250
  6
CONTINUOUS
 10
-8.2357955735
 20
21.8780876937
 11
-7.7989877003
 21
22.0370727576
  0
LINE
  5
311
100
AcDbEntity
  8
ASSI
100
AcDbLine
 62
7
  6
CONTINUOUS
 10
-8.1708822103
 20
21.6901491025
 11
-7.7340741529
 21
21.8491342335
  0
LWPOLYLINE
  5
312
100
AcDbEntity
  8
ASSI
100
AcDbPolyline
 62
250
  6
CONTINUOUS
 90
10
 70
0
 10
-3.5142784492
 20
21.9109537778
 10
-3.5361074013
 20
21.9034464136
 10
-3.5575955279
 20
21.896274801
 10
-3.578453497
 20
21.8895355038
 10
-3.5984004617
 20
21.8833192642
 10
-3.6171678302
 20
21.8777097873
 10
-3.6345028847
 20
21.8727826121
 10
-3.6501722008
 20
21.868604087
 10
-3.6639647881
 20
21.8652304775
 10
-3.6756949207
 20
21.862707214
  0
LWPOLYLINE
  5
313
100
AcDbEntity
  8
ASSI
100
AcDbPolyline
 62
250
  6
CONTINUOUS
 90
16
 70
0
 10
-10.4524530979
 20
-25.6203972437
 10
-10.4327521504
 20
-25.6255235624
 10
-10.4132934213
 20
-25.6304142998
 10
-10.3942801584
 20
-25.6350183712
 10
-10.3759100522
 20
-25.639287892
 10
-10.3583759713
 20
-25.6431780218
 10
-10.3418634905
 20
-25.646647632
 10
-10.3265460569
 20
-25.6496604022
 10
-10.3125812295
 20
-25.652185476
 10
-10.3001122571
 20
-25.6541970041
 10
-10.2892618286
 20
-25.6556748846
 10
-10.2801532425
 20
-25.6566019682
 10
-10.27289488
 20
-25.6569683785
 10
-10.2675537106
 20
-25.6567741168
 10
-10.264167337
 20
-25.6560251228
 10
-10.2627584139
 20
-25.654732559
  0
LWPOLYLINE
  5
314
100
AcDbEntity
  8
ASSI
100
AcDbPolyline
 62
250
  6
CONTINUOUS
 90
10
 70
0
 10
-3.5142805318
 20
-24.4168946843
 10
-3.5361096911
 20
-24.409387085
 10
-3.5575978943
 20
-24.4022152433
 10
-3.5784558118
 20
-24.3954757282
 10
-3.5984026022
 20
-24.3892592918
 10
-3.6171696972
 20
-24.3836496303
 10
-3.6345044173
 20
-24.3787222621
 10
-3.6501733678
 20
-24.3745435299
 10
-3.6639655819
 20
-24.3711697031
 10
-3.6756953641
 20
-24.3686462071
  0
LINE
  5
315
100
AcDbEntity
  8
ASSI
100
AcDbLine
 62
250
  6
CONTINUOUS
 10
-8.2357957576
 20
-24.3840251267
 11
-7.7989877003
 21
-24.5430102576
  0
LINE
  5
316
100
AcDbEntity
  8
ASSI
100
AcDbLine
 62
7
  6
CONTINUOUS
 10
-8.1708822103
 20
-24.1960866025
 11
-7.7340741529
 21
-24.3550717335
  0
LWPOLYLINE
  5
317
100
AcDbEntity
  8
ASSI
100
AcDbPolyline
 62
250
  6
CONTINUOUS
 90
8
 70
0
 10
-3.6094537251
 20
-24.6020072966
 10
-3.6040336732
 20
-24.6128363303
 10
-3.5992893531
 20
-24.6221598962
 10
-3.5952682186
 20
-24.6298847373
 10
-3.5920104703
 20
-24.6359336252
 10
-3.5895486773
 20
-24.6402460869
 10
-3.587907451
 20
-24.6427790092
 10
-3.5871031995
 20
-24.6435070694
  0
LINE
  5
318
100
AcDbEntity
  8
ASSI
100
AcDbLine
 62
250
  6
CONTINUOUS
 10
-3.6220982014
 20
-24.5762795689
 11
-3.6094537251
 21
-24.6020072966
  0
LWPOLYLINE
  5
319
100
AcDbEntity
  8
ASSI
100
AcDbPolyline
 62
250
  6
CONTINUOUS
 90
3
 70
0
 10
-3.6445903493
 20
-24.5295288939
 10
-3.6367187914
 20
-24.5460021581
 10
-3.6220982014
 20
-24.5762795689
  0
LWPOLYLINE
  5
31A
100
AcDbEntity
  8
RACCORDO
100
AcDbPolyline
 62
250
  6
CONTINUOUS
 90
4
 70
0
 10
-8.1089504539
 20
20.6234623587
 10
-8.1091652122
 20
20.6331306518
 10
-8.1093390033
 20
20.6385787484
 10
-8.1094580956
 20
20.6402908401
  0
LWPOLYLINE
  5
31B
100
AcDbEntity
  8
ASSI
100
AcDbPolyline
 62
250
  6
CONTINUOUS
 90
7
 70
0
 10
-6.8072933024
 20
23.4446217221
 10
-6.8076309435
 20
23.4601693119
 10
-6.8079997048
 20
23.4732176326
 10
-6.8083931063
 20
23.4835471357
 10
-6.8088047195
 20
23.4910119848
 10
-6.8092284602
 20
23.4955236731
 10
-6.8096578586
 20
23.49703125
  0
LWPOLYLINE
  5
31C
100
AcDbEntity
  8
ASSI
100
AcDbPolyline
 62
250
  6
CONTINUOUS
 90
7
 70
0
 10
-6.6109583558
 20
23.4444858171
 10
-6.611294975
 20
23.4600224575
 10
-6.6116625896
 20
23.4730711066
 10
-6.6120555879
 20
23.4834325824
 10
-6.6124679711
 20
23.4909487213
 10
-6.6128934443
 20
23.4955047926
 10
-6.6133255129
 20
23.49703125
  0
LINE
  5
31D
100
AcDbEntity
  8
ASSI
100
AcDbLine
 62
250
  6
CONTINUOUS
 10
-6.8067318419
 20
23.4070522044
 11
-6.8072933024
 21
23.4446217221
  0
LINE
  5
31E
100
AcDbEntity
  8
ASSI
100
AcDbLine
 62
250
  6
CONTINUOUS
 10
-6.610398105
 20
23.4069315612
 11
-6.6109583558
 21
23.4444858171
  0
LINE
  5
31F
100
AcDbEntity
  8
ASSI
100
AcDbLine
 62
250
  6
CONTINUOUS
 10
-7.798078263
 20
-25.0572991299
 11
-7.7989877003
 21
-24.9953365701
  0
LINE
  5
320
100
AcDbEntity
  8
RACCORDO
100
AcDbLine
 62
250
  6
CONTINUOUS
 10
-8.1084656227
 20
20.5892794381
 11
-8.1089504539
 21
20.6234623587
  0
LWPOLYLINE
  5
321
100
AcDbEntity
  8
ASSI
100
AcDbPolyline
 62
250
  6
CONTINUOUS
 90
7
 70
0
 10
-7.7976053307
 20
22.6514493649
 10
-7.7977144033
 20
22.6628408559
 10
-7.7978759954
 20
22.6723205182
 10
-7.7980873874
 20
22.6797581697
 10
-7.7983453073
 20
22.6850909961
 10
-7.798646661
 20
22.6882974817
 10
-7.7989877003
 20
22.6893686092
  0
LINE
  5
322
100
AcDbEntity
  8
ASSI
100
AcDbLine
 62
250
  6
CONTINUOUS
 10
-7.7977087119
 20
-25.0955817315
 11
-7.798078263
 21
-25.0572991299
  0
LINE
  5
323
100
AcDbEntity
  8
RACCORDO
100
AcDbLine
 62
250
  6
CONTINUOUS
 10
-8.1059686113
 20
20.2997066383
 11
-8.1084656227
 21
20.5892794381
  0
LINE
  5
324
100
AcDbEntity
  8
ASSI
100
AcDbLine
 62
250
  6
CONTINUOUS
 10
-6.8063487175
 20
23.3627676105
 11
-6.8067318419
 21
23.4070522044
  0
LINE
  5
325
100
AcDbEntity
  8
ASSI
100
AcDbLine
 62
250
  6
CONTINUOUS
 10
-6.6100159147
 20
23.3626925873
 11
-6.610398105
 21
23.4069315612
  0
LINE
  5
326
100
AcDbEntity
  8
RACCORDO
100
AcDbLine
 62
250
  6
CONTINUOUS
 10
-8.4989876754
 20
19.876899327
 11
-8.4992128825
 21
19.9042191336
  0
LINE
  5
327
100
AcDbEntity
  8
RACCORDO
100
AcDbLine
 62
250
  6
CONTINUOUS
 10
-8.4989876957
 20
-22.5311945553
 11
-8.4992783594
 21
-22.4761990937
  0
LINE
  5
328
100
AcDbEntity
  8
ASSI
100
AcDbLine
 62
250
  6
CONTINUOUS
 10
-7.7975488718
 20
-25.1294361928
 11
-7.7977087119
 21
-25.0955817315
  0
LINE
  5
329
100
AcDbEntity
  8
ASSI
100
AcDbLine
 62
250
  6
CONTINUOUS
 10
-6.8061673773
 20
23.3144597437
 11
-6.8063487175
 21
23.3627676105
  0
LINE
  5
32A
100
AcDbEntity
  8
ASSI
100
AcDbLine
 62
250
  6
CONTINUOUS
 10
-6.6098350316
 20
23.3144597437
 11
-6.6100159147
 21
23.3626925873
  0
LINE
  5
32B
100
AcDbEntity
  8
RACCORDO
100
AcDbLine
 62
250
  6
CONTINUOUS
 10
-8.4992128825
 20
19.9042191336
 11
-8.4993108174
 21
19.9526687657
  0
LINE
  5
32C
100
AcDbEntity
  8
RACCORDO
100
AcDbLine
 62
250
  6
CONTINUOUS
 10
-8.4989877003
 20
-22.5311942863
 11
-8.4989877003
 21
-24.0081480784
  0
LINE
  5
32D
100
AcDbEntity
  8
RACCORDO
100
AcDbLine
 62
250
  6
CONTINUOUS
 10
-8.4989877003
 20
20.0252567863
 11
-8.4989877003
 21
21.5022103339
  0
LINE
  5
32E
100
AcDbEntity
  8
RACCORDO
100
AcDbLine
 62
7
  6
CONTINUOUS
 10
-8.3024781816
 20
-22.8768373177
 11
-8.3024781816
 21
-24.0081480784
  0
LINE
  5
32F
100
AcDbEntity
  8
RACCORDO
100
AcDbLine
 62
7
  6
CONTINUOUS
 10
-8.3024781816
 20
20.3708998177
 11
-8.3024781816
 21
21.5022105784
  0
LINE
  5
330
100
AcDbEntity
  8
RACCORDO
100
AcDbLine
 62
250
  6
CONTINUOUS
 10
-8.1059686629
 20
-22.7260338731
 11
-8.1059686629
 21
-22.8056441401
  0
LINE
  5
331
100
AcDbEntity
  8
RACCORDO
100
AcDbLine
 62
250
  6
CONTINUOUS
 10
-8.1059686629
 20
20.2200963731
 11
-8.1059686629
 21
20.2997066401
  0
LINE
  5
332
100
AcDbEntity
  8
ASSI
100
AcDbLine
 62
250
  6
CONTINUOUS
 10
-7.7989877003
 20
-24.5430102576
 11
-7.7989877003
 21
-24.9953365701
  0
LINE
  5
333
100
AcDbEntity
  8
ASSI
100
AcDbLine
 62
250
  6
CONTINUOUS
 10
-7.7989877003
 20
22.0370727576
 11
-7.7989877003
 21
22.4893990701
  0
LINE
  5
334
100
AcDbEntity
  8
ASSI
100
AcDbLine
 62
250
  6
CONTINUOUS
 10
-7.7975488718
 20
22.6234986928
 11
-7.7976053307
 21
22.6514493649
  0
LINE
  5
335
100
AcDbEntity
  8
ASSI
100
AcDbLine
 62
7
  6
CONTINUOUS
 10
-7.6024781816
 20
-24.5430102576
 11
-7.6024781816
 21
-24.9953365701
  0
LINE
  5
336
100
AcDbEntity
  8
ASSI
100
AcDbLine
 62
7
  6
CONTINUOUS
 10
-7.6024781816
 20
22.0370727576
 11
-7.6024781816
 21
22.4893990701
  0
LINE
  5
337
100
AcDbEntity
  8
RACCORDO
100
AcDbLine
 62
250
  6
CONTINUOUS
 10
-8.4992783594
 20
-22.4761990937
 11
-8.4992783711
 21
-22.4254419685
  0
LINE
  5
338
100
AcDbEntity
  8
ASSI
100
AcDbLine
 62
250
  6
CONTINUOUS
 10
-6.8061673773
 20
-25.8203972437
 11
-6.806348711
 21
-25.8687040555
  0
LINE
  5
339
100
AcDbEntity
  8
ASSI
100
AcDbLine
 62
250
  6
CONTINUOUS
 10
-6.6098350316
 20
-25.8203972437
 11
-6.610015893
 21
-25.868629193
  0
LWPOLYLINE
  5
33A
100
AcDbEntity
  8
RACCORDO
100
AcDbPolyline
 62
250
  6
CONTINUOUS
 90
3
 70
0
 10
-8.4993108174
 20
19.9526687657
 10
-8.4991158823
 20
20.0067129702
 10
-8.4989876946
 20
20.0252570514
  0
LINE
  5
33B
100
AcDbEntity
  8
ASSI
100
AcDbLine
 62
250
  6
CONTINUOUS
 10
-7.7977087119
 20
22.5896442315
 11
-7.7975488718
 21
22.6234986928
  0
LWPOLYLINE
  5
33C
100
AcDbEntity
  8
RACCORDO
100
AcDbPolyline
 62
250
  6
CONTINUOUS
 90
3
 70
0
 10
-8.4992783711
 20
-22.4254419685
 10
-8.4991159132
 20
-22.3959138707
 10
-8.4989876829
 20
-22.3828368272
  0
LWPOLYLINE
  5
33D
100
AcDbEntity
  8
RACCORDO
100
AcDbPolyline
 62
250
  6
CONTINUOUS
 90
3
 70
0
 10
-8.1059686629
 20
-22.8056441401
 10
-8.1063445273
 20
-22.8544876729
 10
-8.1066911602
 20
-22.9000875296
  0
LINE
  5
33E
100
AcDbEntity
  8
ASSI
100
AcDbLine
 62
250
  6
CONTINUOUS
 10
-6.806348711
 20
-25.8687040555
 11
-6.8067318189
 21
-25.9129877168
  0
LINE
  5
33F
100
AcDbEntity
  8
ASSI
100
AcDbLine
 62
250
  6
CONTINUOUS
 10
-6.610015893
 20
-25.868629193
 11
-6.6103980644
 21
-25.9128678258
  0
LINE
  5
340
100
AcDbEntity
  8
ASSI
100
AcDbLine
 62
250
  6
CONTINUOUS
 10
-7.7983368977
 20
22.5310906365
 11
-7.7977087119
 21
22.5896442315
  0
LWPOLYLINE
  5
341
100
AcDbEntity
  8
RACCORDO
100
AcDbPolyline
 62
250
  6
CONTINUOUS
 90
5
 70
0
 10
-8.1066911602
 20
-22.9000875296
 10
-8.1087875439
 20
-23.1192194505
 10
-8.109002515
 20
-23.1339056135
 10
-8.1092189438
 20
-23.1430659167
 10
-8.1094581065
 20
-23.1462283405
  0
LINE
  5
342
100
AcDbEntity
  8
ASSI
100
AcDbLine
 62
250
  6
CONTINUOUS
 10
-7.7989877003
 20
22.4893990701
 11
-7.7983368977
 21
22.5310906365
  0
LWPOLYLINE
  5
343
100
AcDbEntity
  8
ASSI
100
AcDbPolyline
 62
250
  6
CONTINUOUS
 90
8
 70
0
 10
-6.8067318189
 20
-25.9129877168
 10
-6.8072932569
 20
-25.950556849
 10
-6.8076308919
 20
-25.966104723
 10
-6.8079996516
 20
-25.9791535016
 10
-6.8083930572
 20
-25.9894835511
 10
-6.8088046808
 20
-25.9969489296
 10
-6.809228438
 20
-26.0014610164
 10
-6.8096578586
 20
-26.00296875
  0
LWPOLYLINE
  5
344
100
AcDbEntity
  8
ASSI
100
AcDbPolyline
 62
250
  6
CONTINUOUS
 90
8
 70
0
 10
-6.6103980644
 20
-25.9128678258
 10
-6.6109583047
 20
-25.950422232
 10
-6.6112949234
 20
-25.9659590725
 10
-6.611662541
 20
-25.9790079631
 10
-6.6120555461
 20
-25.9893696782
 10
-6.6124679397
 20
-25.9968860224
 10
-6.6128934269
 20
-26.0014422383
 10
-6.6133255129
 20
-26.00296875
  0
LWPOLYLINE
  5
345
100
AcDbEntity
  8
ASSI
100
AcDbPolyline
 62
250
  6
CONTINUOUS
 90
7
 70
0
 10
-7.7340741529
 20
-24.3550717335
 10
-7.7341203371
 20
-24.3561860222
 10
-7.734896144
 20
-24.359297046
 10
-7.7363991272
 20
-24.3643874893
 10
-7.7386199306
 20
-24.3714214763
 10
-7.7415397066
 20
-24.3803364601
 10
-7.7451274565
 20
-24.3910362204
  0
LWPOLYLINE
  5
346
100
AcDbEntity
  8
RACCORDO
100
AcDbPolyline
 62
250
  6
CONTINUOUS
 90
6
 70
0
 10
-8.3024781816
 20
-22.9570066807
 10
-8.3008048622
 20
-22.9374649205
 10
-8.2958129251
 20
-22.9182502163
 10
-8.2875859317
 20
-22.8996840846
 10
-8.2762615768
 20
-22.8820771885
 10
-8.2620293763
 20
-22.8657241271
  0
LWPOLYLINE
  5
347
100
AcDbEntity
  8
RACCORDO
100
AcDbPolyline
 62
250
  6
CONTINUOUS
 90
13
 70
0
 10
-8.3024781816
 20
-22.8768373177
 10
-8.3008049126
 20
-22.857368032
 10
-8.2958131041
 20
-22.8382245199
 10
-8.2875862824
 20
-22.8197271037
 10
-8.2762621043
 20
-22.802185295
 10
-8.2620300538
 20
-22.7858926154
 10
-8.2451282714
 20
-22.7711216853
 10
-8.2258395694
 20
-22.7581196619
 10
-8.2044866995
 20
-22.7471041043
 10
-8.1814269529
 20
-22.7382593322
 10
-8.1570461809
 20
-22.7317333425
 10
-8.1317523396
 20
-22.7276353325
 10
-8.1059686629
 20
-22.7260338731
  0
LWPOLYLINE
  5
348
100
AcDbEntity
  8
0
100
AcDbPolyline
 62
7
  6
CONTINUOUS
 90
3
 70
0
 43
0.3500000006
 10
2.3832359648
 20
34.3957728882
 10
2.3118074727
 20
34.1814884033
 10
2.1689503469
 20
33.8957727356
  0
LINE
  5
349
100
AcDbEntity
  8
CURVE
100
AcDbLine
 62
7
  6
CONTINUOUS
 10
-3.6079970288
 20
13.461764956
 11
-3.0204391921
 21
14.0493227927
  0
LINE
  5
34A
100
AcDbEntity
  8
CURVE
100
AcDbLine
 62
7
  6
CONTINUOUS
 10
-3.297524142
 20
13.3522164147
 11
-3.0580238072
 21
13.5917167496
  0
LINE
  5
34B
100
AcDbEntity
  8
CURVE
100
AcDbLine
 62
7
  6
CONTINUOUS
 10
-2.8962889488
 20
13.753451608
 11
-2.4296149193
 21
14.2201256374
  0
LINE
  5
34C
100
AcDbEntity
  8
CURVE
100
AcDbLine
 62
7
  6
CONTINUOUS
 10
-2.9727424875
 20
13.2569766412
 11
-2.7265676142
 21
13.5031515145
  0
LINE
  5
34D
100
AcDbEntity
  8
CURVE
100
AcDbLine
 62
7
  6
CONTINUOUS
 10
-2.3231147926
 20
13.9066043361
 11
-1.8387906465
 21
14.3909284822
  0
LINE
  5
34E
100
AcDbEntity
  8
CURVE
100
AcDbLine
 62
7
  6
CONTINUOUS
 10
-3.6079770303
 20
12.2017206704
 11
-3.4714754507
 21
12.33822225
  0
LINE
  5
34F
100
AcDbEntity
  8
CURVE
100
AcDbLine
 62
7
  6
CONTINUOUS
 10
-2.6479608331
 20
13.1617368676
 11
-2.3951114212
 21
13.4145862795
  0
LINE
  5
350
100
AcDbEntity
  8
CURVE
100
AcDbLine
 62
7
  6
CONTINUOUS
 10
-1.7499406363
 20
14.0597570643
 11
-1.2479663738
 21
14.5617313269
  0
LINE
  5
351
100
AcDbEntity
  8
0
100
AcDbLine
 62
7
  6
CONTINUOUS
 10
-14.4155666557
 20
-27.5662124751
 11
-11.1024781816
 21
-27.65296875
  0
LINE
  5
352
100
AcDbEntity
  8
0
100
AcDbLine
 62
250
  6
CONTINUOUS
 10
-14.4155666557
 20
-27.0663838126
 11
-11.1024781816
 21
-27.1531400875
  0
LWPOLYLINE
  5
353
100
AcDbEntity
  8
ASSI
100
AcDbPolyline
 62
250
  6
CONTINUOUS
 90
10
 70
0
 10
-1.0534604414
 20
-24.3029687499
 10
-1.0660406991
 20
-24.3005013078
 10
-1.0813262373
 20
-24.2980882527
 10
-1.099021023
 20
-24.2957683627
 10
-1.1187582996
 20
-24.2935817973
 10
-1.140217947
 20
-24.2915570126
 10
-1.1631647657
 20
-24.2897134667
 10
-1.1872806893
 20
-24.2880775668
 10
-1.2121391413
 20
-24.2866790643
 10
-1.2373438241
 20
-24.2855402561
  0
LINE
  5
354
100
AcDbEntity
  8
ASSI
100
AcDbLine
 62
250
  6
CONTINUOUS
 10
-3.559822049
 20
-23.200806468
 11
-3.5755314609
 21
-22.9879001334
  0
LINE
  5
355
100
AcDbEntity
  8
ASSI
100
AcDbLine
 62
250
  6
CONTINUOUS
 10
-4.6604785377
 20
21.0369619202
 11
-4.6442266017
 21
20.8016343543
  0
LINE
  5
356
100
AcDbEntity
  8
ASSI
100
AcDbLine
 62
250
  6
CONTINUOUS
 10
-3.5439176258
 20
-23.433212599
 11
-3.559822049
 21
-23.200806468
  0
LINE
  5
357
100
AcDbEntity
  8
ASSI
100
AcDbLine
 62
250
  6
CONTINUOUS
 10
-4.6769849016
 20
21.2954838534
 11
-4.6604785377
 21
21.0369619202
  0
LINE
  5
358
100
AcDbEntity
  8
ASSI
100
AcDbLine
 62
250
  6
CONTINUOUS
 10
-3.5277345301
 20
-23.689802106
 11
-3.5439176258
 21
-23.433212599
  0
LINE
  5
359
100
AcDbEntity
  8
ASSI
100
AcDbLine
 62
250
  6
CONTINUOUS
 10
-4.6880479672
 20
21.4813464978
 11
-4.6769849016
 21
21.2954838534
  0
LINE
  5
35A
100
AcDbEntity
  8
ASSI
100
AcDbLine
 62
250
  6
CONTINUOUS
 10
-3.5168139197
 20
-23.8761711792
 11
-3.5277345301
 21
-23.689802106
  0
LINE
  5
35B
100
AcDbEntity
  8
ASSI
100
AcDbLine
 62
250
  6
CONTINUOUS
 10
-3.5059255674
 20
-24.0747535159
 11
-3.5168139197
 21
-23.8761711792
  0
LINE
  5
35C
100
AcDbEntity
  8
ASSI
100
AcDbLine
 62
250
  6
CONTINUOUS
 10
-4.7044821245
 20
21.7796027563
 11
-4.6880479672
 21
21.4813464978
  0
LINE
  5
35D
100
AcDbEntity
  8
ASSI
100
AcDbLine
 62
250
  6
CONTINUOUS
 10
-4.4859911693
 20
20.8004154726
 11
-4.4704847192
 21
20.51321509
  0
LINE
  5
35E
100
AcDbEntity
  8
ASSI
100
AcDbLine
 62
250
  6
CONTINUOUS
 10
-3.4951051012
 20
-24.2855402563
 11
-3.5059255674
 21
-24.0747535159
  0
LINE
  5
35F
100
AcDbEntity
  8
ASSI
100
AcDbLine
 62
250
  6
CONTINUOUS
 10
-3.7091025196
 20
-23.2833173081
 11
-3.7242629063
 21
-22.9930939496
  0
LWPOLYLINE
  5
360
100
AcDbEntity
  8
ASSI
100
AcDbPolyline
 62
250
  6
CONTINUOUS
 90
4
 70
0
 10
-2.9039244439
 20
-22.9419038471
 10
-2.9033179682
 20
-22.9543889242
 10
-2.902836383
 20
-22.9618951761
 10
-2.9024781816
 20
-22.9643965947
  0
LINE
  5
361
100
AcDbEntity
  8
ASSI
100
AcDbLine
 62
250
  6
CONTINUOUS
 10
-4.5018453128
 20
21.1243385475
 11
-4.4859911693
 21
20.8004154726
  0
LINE
  5
362
100
AcDbEntity
  8
ASSI
100
AcDbLine
 62
250
  6
CONTINUOUS
 10
-3.6936523406
 20
-23.6114594242
 11
-3.7091025196
 21
-23.2833173081
  0
LINE
  5
363
100
AcDbEntity
  8
ASSI
100
AcDbLine
 62
250
  6
CONTINUOUS
 10
-4.5139425959
 20
21.3960900255
 11
-4.5018453128
 21
21.1243385475
  0
LINE
  5
364
100
AcDbEntity
  8
ASSI
100
AcDbLine
 62
250
  6
CONTINUOUS
 10
-3.6818428263
 20
-23.8889876813
 11
-3.6936523406
 21
-23.6114594242
  0
LINE
  5
365
100
AcDbEntity
  8
ASSI
100
AcDbLine
 62
250
  6
CONTINUOUS
 10
-2.9055236262
 20
-22.9021895836
 11
-2.9039244439
 21
-22.9419038471
  0
LWPOLYLINE
  5
366
100
AcDbEntity
  8
ASSI
100
AcDbPolyline
 62
250
  6
CONTINUOUS
 90
3
 70
0
 10
-4.5299877983
 20
21.79703125
 10
-4.5260069855
 20
21.6927126633
 10
-4.5139425959
 20
21.3960900255
  0
LWPOLYLINE
  5
367
100
AcDbEntity
  8
ASSI
100
AcDbPolyline
 62
250
  6
CONTINUOUS
 90
3
 70
0
 10
-3.6661470644
 20
-24.30296875
 10
-3.6700414837
 20
-24.1947857716
 10
-3.6818428263
 20
-23.8889876813
  0
LINE
  5
368
100
AcDbEntity
  8
ASSI
100
AcDbLine
 62
250
  6
CONTINUOUS
 10
-2.910132094
 20
-22.7661387677
 11
-2.9055236262
 21
-22.9021895836
  0
LINE
  5
369
100
AcDbEntity
  8
ASSI
100
AcDbLine
 62
250
  6
CONTINUOUS
 10
-2.9146939357
 20
-22.6185146997
 11
-2.910132094
 21
-22.7661387677
  0
LWPOLYLINE
  5
36A
100
AcDbEntity
  8
ASSI
100
AcDbPolyline
 62
250
  6
CONTINUOUS
 90
7
 70
0
 10
-4.107562733
 20
22.052201412
 10
-4.1072225048
 20
22.0366850143
 10
-4.1068545568
 20
22.0234675404
 10
-4.1064641773
 20
22.0127389562
 10
-4.106056977
 20
22.0046534559
 10
-4.105638808
 20
21.9993272464
 10
-4.1052156803
 20
21.9968368781
  0
LINE
  5
36B
100
AcDbEntity
  8
ASSI
100
AcDbLine
 62
250
  6
CONTINUOUS
 10
-4.1081409399
 20
22.0892091223
 11
-4.107562733
 21
22.052201412
  0
LINE
  5
36C
100
AcDbEntity
  8
ASSI
100
AcDbLine
 62
250
  6
CONTINUOUS
 10
-4.1085560569
 20
22.132370785
 11
-4.1081409399
 21
22.0892091223
  0
LWPOLYLINE
  5
36D
100
AcDbEntity
  8
ASSI
100
AcDbPolyline
 62
250
  6
CONTINUOUS
 90
37
 70
0
 10
-4.7044820943
 20
-24.2855397262
 10
-4.7043568694
 20
-24.3192780662
 10
-4.7013602846
 20
-24.3519737176
 10
-4.6954923399
 20
-24.3836266807
 10
-4.686374484
 20
-24.4146222947
 10
-4.6743852681
 20
-24.4445752203
 10
-4.660660346
 20
-24.4723294395
 10
-4.6452402347
 20
-24.4974686812
 10
-4.628084417
 20
-24.5204092166
 10
-4.6102069954
 20
-24.5412438415
 10
-4.5917416644
 20
-24.5598667303
 10
-4.5725547295
 20
-24.5763837087
 10
-4.5532592088
 20
-24.59120505
 10
-4.5339349704
 20
-24.6043318168
 10
-4.5145021463
 20
-24.6157629465
 10
-4.4953341512
 20
-24.6259055242
 10
-4.4764832978
 20
-24.6347756328
 10
-4.4578972734
 20
-24.6423571894
 10
-4.4397925544
 20
-24.6490090302
 10
-4.422247543
 20
-24.6547458948
 10
-4.4051838371
 20
-24.6595530437
 10
-4.3885827068
 20
-24.6637450951
 10
-4.3725214706
 20
-24.667349366
 10
-4.3569228101
 20
-24.6703385396
 10
-4.3415360402
 20
-24.6729452834
 10
-4.3263395585
 20
-24.6752048806
 10
-4.3113549673
 20
-24.677082048
 10
-4.2963963889
 20
-24.6787036049
 10
-4.2814138395
 20
-24.6800859615
 10
-4.2664573028
 20
-24.6812127074
 10
-4.2514908517
 20
-24.6821614309
 10
-4.2365659347
 20
-24.6829355498
 10
-4.2216311032
 20
-24.6835316462
 10
-4.206496085
 20
-24.6840170537
 10
-4.1911832783
 20
-24.6843989645
 10
-4.175670285
 20
-24.6846701865
 10
-4.1431855142
 20
-24.6850330871
  0
LINE
  5
36E
100
AcDbEntity
  8
ASSI
100
AcDbLine
 62
250
  6
CONTINUOUS
 10
-4.1087843057
 20
22.1792140124
 11
-4.1085560569
 21
22.132370785
  0
LINE
  5
36F
100
AcDbEntity
  8
ASSI
100
AcDbLine
 62
7
  6
CONTINUOUS
 10
-5.1024781816
 20
-18.9767800937
 11
-5.1024781816
 21
16.4708425937
  0
LINE
  5
370
100
AcDbEntity
  8
RACCORDO
100
AcDbLine
 62
7
  6
CONTINUOUS
 10
-5.1024781816
 20
-22.4463819259
 11
-5.1024781816
 21
19.9404444259
  0
LINE
  5
371
100
AcDbEntity
  8
CURVE
100
AcDbLine
 62
250
  6
CONTINUOUS
 10
-3.6096679015
 20
-13.92214075
 11
-3.6096679015
 21
-14.54828275
  0
LINE
  5
372
100
AcDbEntity
  8
CURVE
100
AcDbLine
 62
250
  6
CONTINUOUS
 10
-3.6094879152
 20
-17.24758275
 11
-3.6094879152
 21
-16.56739875
  0
LINE
  5
373
100
AcDbEntity
  8
CURVE
100
AcDbLine
 62
250
  6
CONTINUOUS
 10
-3.6094879152
 20
-15.40636075
 11
-3.6094879152
 21
-14.78064575
  0
LINE
  5
374
100
AcDbEntity
  8
CURVE
100
AcDbLine
 62
250
  6
CONTINUOUS
 10
-3.6094879152
 20
-13.31421875
 11
-3.6094879152
 21
-12.68859375
  0
LINE
  5
375
100
AcDbEntity
  8
CURVE
100
AcDbLine
 62
250
  6
CONTINUOUS
 10
-3.6094879152
 20
-11.44292275
 11
-3.6094879152
 21
-10.82341575
  0
LINE
  5
376
100
AcDbEntity
  8
CURVE
100
AcDbLine
 62
250
  6
CONTINUOUS
 10
-3.6094879152
 20
-9.50371675
 11
-3.6094879152
 21
-8.89799875
  0
LINE
  5
377
100
AcDbEntity
  8
CURVE
100
AcDbLine
 62
250
  6
CONTINUOUS
 10
-3.6079970288
 20
13.44326025
 11
-3.6079970288
 21
13.87946425
  0
LINE
  5
378
100
AcDbEntity
  8
CURVE
100
AcDbLine
 62
250
  6
CONTINUOUS
 10
-3.6079830298
 20
7.61202925
 11
-3.6079830298
 21
7.96514625
  0
LINE
  5
379
100
AcDbEntity
  8
CURVE
100
AcDbLine
 62
250
  6
CONTINUOUS
 10
-3.6079770303
 20
5.90139925
 11
-3.6079770303
 21
6.25451625
  0
LINE
  5
37A
100
AcDbEntity
  8
CURVE
100
AcDbLine
 62
250
  6
CONTINUOUS
 10
-3.6079770303
 20
8.51903525
 11
-3.6079770303
 21
9.06740525
  0
LINE
  5
37B
100
AcDbEntity
  8
CURVE
100
AcDbLine
 62
250
  6
CONTINUOUS
 10
-3.6079770303
 20
10.07690425
 11
-3.6079770303
 21
10.40512325
  0
LINE
  5
37C
100
AcDbEntity
  8
CURVE
100
AcDbLine
 62
250
  6
CONTINUOUS
 10
-3.6079770303
 20
10.95483525
 11
-3.6079770303
 21
12.33822225
  0
LINE
  5
37D
100
AcDbEntity
  8
CURVE
100
AcDbLine
 62
250
  6
CONTINUOUS
 10
-3.3255055428
 20
12.33822225
 11
-3.3255055428
 21
11.30795125
  0
LINE
  5
37E
100
AcDbEntity
  8
ASSI
100
AcDbLine
 62
250
  6
CONTINUOUS
 10
-4.1087843054
 20
-24.6851515124
 11
-4.1085537574
 21
-24.6383086179
  0
LINE
  5
37F
100
AcDbEntity
  8
ASSI
100
AcDbLine
 62
250
  6
CONTINUOUS
 10
-4.1085537574
 20
-24.6383086179
 11
-4.1081372451
 21
-24.5951470128
  0
LWPOLYLINE
  5
380
100
AcDbEntity
  8
ASSI
100
AcDbPolyline
 62
250
  6
CONTINUOUS
 90
8
 70
0
 10
-4.1081372451
 20
-24.5951470128
 10
-4.1075585438
 20
-24.5581391682
 10
-4.1072184397
 20
-24.5426226895
 10
-4.1068508608
 20
-24.5294051366
 10
-4.1064610678
 20
-24.5186764996
 10
-4.1060546672
 20
-24.5105909725
 10
-4.1056375315
 20
-24.5052647505
 10
-4.1052156795
 20
-24.502774378
  0
LWPOLYLINE
  5
381
100
AcDbEntity
  8
ASSI
100
AcDbPolyline
 62
250
  6
CONTINUOUS
 90
35
 70
0
 10
-4.529987361
 20
-24.30296875
 10
-4.5303306897
 20
-24.3196791927
 10
-4.528916256
 20
-24.3360619573
 10
-4.5258094084
 20
-24.3520119386
 10
-4.5210155927
 20
-24.3675799866
 10
-4.5146643418
 20
-24.3825260077
 10
-4.5071036205
 20
-24.3963633569
 10
-4.4985604327
 20
-24.4089530442
 10
-4.4891399907
 20
-24.4204366181
 10
-4.4790805632
 20
-24.4308201245
 10
-4.4685363887
 20
-24.4401201492
 10
-4.4575928903
 20
-24.4484122607
 10
-4.4463606996
 20
-24.4558009236
 10
-4.4349134138
 20
-24.4623438207
 10
-4.4233185796
 20
-24.4680966758
 10
-4.4116527033
 20
-24.4731511696
 10
-4.3999489979
 20
-24.4775638381
 10
-4.3882456638
 20
-24.4813890129
 10
-4.3766131245
 20
-24.4847030401
 10
-4.3650925382
 20
-24.4875488282
 10
-4.3536676405
 20
-24.4899796832
 10
-4.34231773
 20
-24.4920711289
 10
-4.3310921463
 20
-24.4938551459
 10
-4.3199400251
 20
-24.4953680045
 10
-4.3086912088
 20
-24.4966712458
 10
-4.2973295636
 20
-24.4977913703
 10
-4.2858589799
 20
-24.4987417712
 10
-4.274140775
 20
-24.4995504111
 10
-4.2621221345
 20
-24.500236224
 10
-4.2498365997
 20
-24.5008088982
 10
-4.2372725439
 20
-24.5012793291
 10
-4.2244503862
 20
-24.5016610894
 10
-4.2113230225
 20
-24.5019670005
 10
-4.1977710244
 20
-24.5022071432
 10
-4.1693376312
 20
-24.5025355464
  0
LWPOLYLINE
  5
382
100
AcDbEntity
  8
ASSI
100
AcDbPolyline
 62
250
  6
CONTINUOUS
 90
10
 70
0
 10
-3.4951051004
 20
21.7796027563
 10
-3.4947069971
 20
21.7946856531
 10
-3.4949444453
 20
21.809647778
 10
-3.495817445
 20
21.8244891308
 10
-3.4973305264
 20
21.8392114465
 10
-3.4994791592
 20
21.8538129902
 10
-3.5022497538
 20
21.8682885577
 10
-3.5056377801
 20
21.8826364142
 10
-3.509647768
 20
21.8968582946
 10
-3.5142797176
 20
21.9109541988
  0
LINE
  5
383
100
AcDbEntity
  8
ASSI
100
AcDbLine
 62
250
  6
CONTINUOUS
 10
-2.9146939357
 20
20.1125771997
 11
-2.9076025729
 21
20.3373825925
  0
LINE
  5
384
100
AcDbEntity
  8
ASSI
100
AcDbLine
 62
250
  6
CONTINUOUS
 10
-3.6771887547
 20
21.4999023162
 11
-3.6661470643
 21
21.79703125
  0
LWPOLYLINE
  5
385
100
AcDbEntity
  8
ASSI
100
AcDbPolyline
 62
250
  6
CONTINUOUS
 90
6
 70
0
 10
-2.9076025729
 20
20.3373825925
 10
-2.9046626423
 20
20.4185445901
 10
-2.903924444
 20
20.4359663475
 10
-2.9033088958
 20
20.4484534099
 10
-2.9028251499
 20
20.455960166
 10
-2.9024781816
 20
20.4584590947
  0
LINE
  5
386
100
AcDbEntity
  8
ASSI
100
AcDbLine
 62
250
  6
CONTINUOUS
 10
-4.5204824322
 20
-24.0593329521
 11
-4.5299877982
 21
-24.30296875
  0
LINE
  5
387
100
AcDbEntity
  8
ASSI
100
AcDbLine
 62
250
  6
CONTINUOUS
 10
-4.5107073691
 20
-23.8270398145
 11
-4.5204824322
 21
-24.0593329521
  0
LINE
  5
388
100
AcDbEntity
  8
ASSI
100
AcDbLine
 62
250
  6
CONTINUOUS
 10
-3.6925725952
 20
21.1298745113
 11
-3.6771887547
 21
21.4999023162
  0
LWPOLYLINE
  5
389
100
AcDbEntity
  8
ASSI
100
AcDbPolyline
 62
250
  6
CONTINUOUS
 90
10
 70
0
 10
-3.6661470679
 20
21.79703125
 10
-3.6657995979
 20
21.8045559513
 10
-3.6658126624
 20
21.8120404553
 10
-3.6661822495
 20
21.8194744344
 10
-3.6669023077
 20
21.8268388358
 10
-3.6679690665
 20
21.8341330092
 10
-3.669383956
 20
21.8413741527
 10
-3.6711464966
 20
21.8485612115
 10
-3.6732514059
 20
21.8556754553
 10
-3.6756949207
 20
21.862707214
  0
LINE
  5
38A
100
AcDbEntity
  8
ASSI
100
AcDbLine
 62
250
  6
CONTINUOUS
 10
-4.4956850248
 20
-23.500415576
 11
-4.5107073691
 21
-23.8270398145
  0
LINE
  5
38B
100
AcDbEntity
  8
ASSI
100
AcDbLine
 62
250
  6
CONTINUOUS
 10
-3.7084019232
 20
20.7915146988
 11
-3.6925725952
 21
21.1298745113
  0
LINE
  5
38C
100
AcDbEntity
  8
ASSI
100
AcDbLine
 62
250
  6
CONTINUOUS
 10
-4.4805174769
 20
-23.2018098137
 11
-4.4956850248
 21
-23.500415576
  0
LINE
  5
38D
100
AcDbEntity
  8
ASSI
100
AcDbLine
 62
250
  6
CONTINUOUS
 10
-3.5103844087
 20
21.4857495167
 11
-3.4951051004
 21
21.7796027563
  0
LINE
  5
38E
100
AcDbEntity
  8
ASSI
100
AcDbLine
 62
250
  6
CONTINUOUS
 10
-3.7242629063
 20
20.4871564496
 11
-3.7084019232
 21
20.7915146988
  0
LINE
  5
38F
100
AcDbEntity
  8
ASSI
100
AcDbLine
 62
250
  6
CONTINUOUS
 10
-4.6914529844
 20
-24.0470080683
 11
-4.7044820943
 21
-24.2855397262
  0
LINE
  5
390
100
AcDbEntity
  8
ASSI
100
AcDbLine
 62
250
  6
CONTINUOUS
 10
-4.4704847191
 20
-23.0191525896
 11
-4.4805174769
 21
-23.2018098137
  0
LINE
  5
391
100
AcDbEntity
  8
ASSI
100
AcDbLine
 62
250
  6
CONTINUOUS
 10
-3.5262677371
 20
21.2082399545
 11
-3.5103844087
 21
21.4857495167
  0
LINE
  5
392
100
AcDbEntity
  8
ASSI
100
AcDbLine
 62
250
  6
CONTINUOUS
 10
-4.67808479
 20
-23.8193256693
 11
-4.6914529844
 21
-24.0470080683
  0
LINE
  5
393
100
AcDbEntity
  8
ASSI
100
AcDbLine
 62
250
  6
CONTINUOUS
 10
-4.664417992
 20
-23.6026604084
 11
-4.67808479
 21
-23.8193256693
  0
LINE
  5
394
100
AcDbEntity
  8
ASSI
100
AcDbLine
 62
250
  6
CONTINUOUS
 10
-3.5425712271
 20
20.9478035374
 11
-3.5262677371
 21
21.2082399545
  0
LINE
  5
395
100
AcDbEntity
  8
ASSI
100
AcDbLine
 62
250
  6
CONTINUOUS
 10
-3.5590735635
 20
20.7054079445
 11
-3.5425712271
 21
20.9478035374
  0
LWPOLYLINE
  5
396
100
AcDbEntity
  8
ASSI
100
AcDbPolyline
 62
250
  6
CONTINUOUS
 90
3
 70
0
 10
-4.6436513991
 20
-23.2995367759
 10
-4.6505810441
 20
-23.3975344222
 10
-4.664417992
 20
-23.6026604084
  0
LINE
  5
397
100
AcDbEntity
  8
ASSI
100
AcDbLine
 62
250
  6
CONTINUOUS
 10
-3.5755284047
 20
20.4819625265
 11
-3.5590735635
 21
20.7054079445
  0
LWPOLYLINE
  5
398
100
AcDbEntity
  8
ASSI
100
AcDbPolyline
 62
250
  6
CONTINUOUS
 90
6
 70
0
 10
-8.1708822103
 20
-24.1960866025
 10
-8.171062192
 20
-24.1978281395
 10
-8.1724006637
 20
-24.2027314258
 10
-8.1748748971
 20
-24.2107132003
 10
-8.1784428782
 20
-24.2216379271
 10
-8.1830440202
 20
-24.2353200971
  0
LINE
  5
399
100
AcDbEntity
  8
ASSI
100
AcDbLine
 62
250
  6
CONTINUOUS
 10
-10.4524530979
 20
-25.6203972437
 11
-10.3504837989
 21
-25.2398426392
  0
LINE
  5
39A
100
AcDbEntity
  8
ASSI
100
AcDbLine
 62
250
  6
CONTINUOUS
 10
1.2100459893
 20
21.9124162623
 11
1.1807809569
 21
21.8042374916
  0
LWPOLYLINE
  5
39B
100
AcDbEntity
  8
ASSI
100
AcDbPolyline
 62
250
  6
CONTINUOUS
 90
6
 70
0
 10
1.2290542846
 20
21.9799941631
 10
1.2285239374
 20
21.9785592685
 10
1.2272131685
 20
21.9742035076
 10
1.2251419443
 20
21.9669932303
 10
1.222341815
 20
21.9570382683
 10
1.2100459893
 20
21.9124162623
  0
LWPOLYLINE
  5
39C
100
AcDbEntity
  8
ASSI
100
AcDbPolyline
 62
250
  6
CONTINUOUS
 90
6
 70
0
 10
3.3808146456
 20
21.4034317121
 10
3.3802842984
 20
21.4019968174
 10
3.3789735294
 20
21.3976410565
 10
3.3769023052
 20
21.3904307791
 10
3.3741021759
 20
21.3804758169
 10
3.3618063501
 20
21.3358538108
  0
LINE
  5
39D
100
AcDbEntity
  8
CURVE
100
AcDbLine
 62
7
  6
CONTINUOUS
 10
-3.6079770303
 20
11.7816992423
 11
-3.3255055428
 21
12.0641707298
  0
LINE
  5
39E
100
AcDbEntity
  8
CURVE
100
AcDbLine
 62
7
  6
CONTINUOUS
 10
-2.3231791786
 20
13.066497094
 11
-2.0636552282
 21
13.3260210445
  0
LINE
  5
39F
100
AcDbEntity
  8
CURVE
100
AcDbLine
 62
7
  6
CONTINUOUS
 10
-1.6473093513
 20
13.7423669214
 11
-1.364834864
 21
14.0248414086
  0
LINE
  5
3A0
100
AcDbEntity
  8
CURVE
100
AcDbLine
 62
7
  6
CONTINUOUS
 10
-1.1632303411
 20
14.2264459315
 11
-0.657142101
 21
14.7325341716
  0
LINE
  5
3A1
100
AcDbEntity
  8
CURVE
100
AcDbLine
 62
7
  6
CONTINUOUS
 10
-3.6079770303
 20
11.3616778143
 11
-3.3255055428
 21
11.6441493018
  0
LINE
  5
3A2
100
AcDbEntity
  8
CURVE
100
AcDbLine
 62
7
  6
CONTINUOUS
 10
-1.9983975242
 20
12.9712573205
 11
-1.7321990352
 21
13.2374558095
  0
LINE
  5
3A3
100
AcDbEntity
  8
CURVE
100
AcDbLine
 62
7
  6
CONTINUOUS
 10
-1.6473093513
 20
13.3223454934
 11
-1.364834864
 21
13.6048199806
  0
LINE
  5
3A4
100
AcDbEntity
  8
CURVE
100
AcDbLine
 62
7
  6
CONTINUOUS
 10
-3.5947981666
 20
10.95483525
 11
-3.2416821666
 21
11.30795125
  0
LINE
  5
3A5
100
AcDbEntity
  8
CURVE
100
AcDbLine
 62
7
  6
CONTINUOUS
 10
-2.2953130005
 20
12.2543204161
 11
-2.2654161666
 21
12.28421725
  0
LINE
  5
3A6
100
AcDbEntity
  8
CURVE
100
AcDbLine
 62
7
  6
CONTINUOUS
 10
-1.6736158697
 20
12.8760175469
 11
-1.364834864
 21
13.1847985526
  0
LINE
  5
3A7
100
AcDbEntity
  8
CURVE
100
AcDbLine
 62
7
  6
CONTINUOUS
 10
-3.1747767386
 20
10.95483525
 11
-2.8216607386
 21
11.30795125
  0
LINE
  5
3A8
100
AcDbEntity
  8
CURVE
100
AcDbLine
 62
7
  6
CONTINUOUS
 10
-2.2953130005
 20
11.8342989881
 11
-2.0128405131
 21
12.1167714755
  0
LINE
  5
3A9
100
AcDbEntity
  8
CURVE
100
AcDbLine
 62
7
  6
CONTINUOUS
 10
-1.3488342153
 20
12.7807777733
 11
-1.0811455839
 21
13.0484664047
  0
LINE
  5
3AA
100
AcDbEntity
  8
CURVE
100
AcDbLine
 62
7
  6
CONTINUOUS
 10
-3.6079770303
 20
10.1016135302
 11
-3.3044673106
 21
10.40512325
  0
LINE
  5
3AB
100
AcDbEntity
  8
CURVE
100
AcDbLine
 62
7
  6
CONTINUOUS
 10
-2.7547553106
 20
10.95483525
 11
-2.4016393106
 21
11.30795125
  0
LINE
  5
3AC
100
AcDbEntity
  8
CURVE
100
AcDbLine
 62
7
  6
CONTINUOUS
 10
-2.2953130005
 20
11.4142775601
 11
-2.0128405131
 21
11.6967500475
  0
LINE
  5
3AD
100
AcDbEntity
  8
CURVE
100
AcDbLine
 62
7
  6
CONTINUOUS
 10
-1.0240525608
 20
12.6855379997
 11
-0.7526708176
 21
12.956919743
  0
LINE
  5
3AE
100
AcDbEntity
  8
CURVE
100
AcDbLine
 62
7
  6
CONTINUOUS
 10
-3.2126648825
 20
10.07690425
 11
-2.8844458825
 21
10.40512325
  0
LINE
  5
3AF
100
AcDbEntity
  8
CURVE
100
AcDbLine
 62
7
  6
CONTINUOUS
 10
-2.3347338825
 20
10.95483525
 11
-1.9816178825
 21
11.30795125
  0
LINE
  5
3B0
100
AcDbEntity
  8
CURVE
100
AcDbLine
 62
7
  6
CONTINUOUS
 10
-0.6992709064
 20
12.5902982262
 11
-0.6046257602
 21
12.6849433723
  0
LINE
  5
3B1
100
AcDbEntity
  8
CURVE
100
AcDbLine
 62
250
  6
CONTINUOUS
 10
1.2546646245
 20
14.4613171005
 11
1.5403789528
 21
14.74703125
  0
LINE
  5
3B2
100
AcDbEntity
  8
CURVE
100
AcDbLine
 62
7
  6
CONTINUOUS
 10
-2.7926434545
 20
10.07690425
 11
-2.4644244545
 21
10.40512325
  0
LINE
  5
3B3
100
AcDbEntity
  8
CURVE
100
AcDbLine
 62
7
  6
CONTINUOUS
 10
-1.9147124545
 20
10.95483525
 11
-1.5615964545
 21
11.30795125
  0
LINE
  5
3B4
100
AcDbEntity
  8
CURVE
100
AcDbLine
 62
7
  6
CONTINUOUS
 10
-0.887106247
 20
11.9824414575
 11
-0.6046347595
 21
12.264912945
  0
LINE
  5
3B5
100
AcDbEntity
  8
CURVE
100
AcDbLine
 62
250
  6
CONTINUOUS
 10
0.6832360871
 20
13.1756024742
 11
0.3975218184
 21
12.8898883247
  0
LINE
  5
3B6
100
AcDbEntity
  8
CURVE
100
AcDbLine
 62
7
  6
CONTINUOUS
 10
-3.6079770303
 20
8.8415492462
 11
-3.247257019
 21
9.2022692575
  0
LINE
  5
3B7
100
AcDbEntity
  8
CURVE
100
AcDbLine
 62
7
  6
CONTINUOUS
 10
-2.3726220265
 20
10.07690425
 11
-2.0444030265
 21
10.40512325
  0
LINE
  5
3B8
100
AcDbEntity
  8
CURVE
100
AcDbLine
 62
7
  6
CONTINUOUS
 10
-1.4946910265
 20
10.95483525
 11
-1.1415750265
 21
11.30795125
  0
LINE
  5
3B9
100
AcDbEntity
  8
CURVE
100
AcDbLine
 62
7
  6
CONTINUOUS
 10
-0.887106247
 20
11.5624200295
 11
-0.6046347595
 21
11.844891517
  0
LINE
  5
3BA
100
AcDbEntity
  8
CURVE
100
AcDbLine
 62
7
  6
CONTINUOUS
 10
-3.5104695985
 20
8.51903525
 11
-3.1822775985
 21
8.84722725
  0
LINE
  5
3BB
100
AcDbEntity
  8
CURVE
100
AcDbLine
 62
7
  6
CONTINUOUS
 10
-3.109154807
 20
8.9203500414
 11
-2.5764307771
 21
9.4530740714
  0
LINE
  5
3BC
100
AcDbEntity
  8
CURVE
100
AcDbLine
 62
7
  6
CONTINUOUS
 10
-1.9526005985
 20
10.07690425
 11
-1.6243815985
 21
10.40512325
  0
LINE
  5
3BD
100
AcDbEntity
  8
CURVE
100
AcDbLine
 62
7
  6
CONTINUOUS
 10
-1.0746695985
 20
10.95483525
 11
-0.6046347595
 21
11.4248700889
  0
LINE
  5
3BE
100
AcDbEntity
  8
CURVE
100
AcDbLine
 62
7
  6
CONTINUOUS
 10
-3.0904481704
 20
8.51903525
 11
-2.7622561704
 21
8.84722725
  0
LINE
  5
3BF
100
AcDbEntity
  8
CURVE
100
AcDbLine
 62
7
  6
CONTINUOUS
 10
-2.4383289619
 20
9.1711544585
 11
-1.9056045351
 21
9.7038788853
  0
LINE
  5
3C0
100
AcDbEntity
  8
CURVE
100
AcDbLine
 62
7
  6
CONTINUOUS
 10
-1.5325791704
 20
10.07690425
 11
-1.2043601704
 21
10.40512325
  0
LINE
  5
3C1
100
AcDbEntity
  8
CURVE
100
AcDbLine
 62
7
  6
CONTINUOUS
 10
-0.6546481704
 20
10.95483525
 11
-0.6046347595
 21
11.0048486609
  0
LWPOLYLINE
  5
3C2
100
AcDbEntity
  8
RACCORDO
100
AcDbPolyline
 62
7
  6
CONTINUOUS
 90
3
 70
0
 10
3.5513508402
 20
19.3992726944
 10
3.53554807
 20
19.3936741861
 10
3.5216888417
 20
19.3865160458
  0
LWPOLYLINE
  5
3C3
100
AcDbEntity
  8
ASSI
100
AcDbPolyline
 62
250
  6
CONTINUOUS
 90
16
 70
0
 10
-6.6098350316
 20
-25.8203972437
 10
-6.5990199563
 20
-25.8201498668
 10
-6.5885399143
 20
-25.8195991942
 10
-6.5783949057
 20
-25.8187452259
 10
-6.5685829025
 20
-25.8175588332
 10
-6.5591059327
 20
-25.8160691448
 10
-6.54997008
 20
-25.8143635472
 10
-6.5411775715
 20
-25.8124452079
 10
-6.5327261801
 20
-25.8103109594
 10
-6.5246153089
 20
-25.8080386852
 10
-6.5168466202
 20
-25.8056311125
 10
-6.5094184516
 20
-25.803085514
 10
-6.502325219
 20
-25.8004715913
 10
-6.495565061
 20
-25.7978125783
 10
-6.4891398391
 20
-25.7950852412
 10
-6.4830495531
 20
-25.7922895798
  0
LINE
  5
3C4
100
AcDbEntity
  8
ASSI
100
AcDbLine
 62
7
  6
CONTINUOUS
 10
-7.7989877003
 20
-25.1953061092
 11
-11.1024781816
 21
-25.25296875
  0
LINE
  5
3C5
100
AcDbEntity
  8
ASSI
100
AcDbLine
 62
250
  6
CONTINUOUS
 10
-7.7989877003
 20
-24.9953365701
 11
-11.1024781816
 21
-25.052999211
  0
LINE
  5
3C6
100
AcDbEntity
  8
ASSI
100
AcDbLine
 62
250
  6
CONTINUOUS
 10
-4.0709194227
 20
-24.5027434299
 11
-4.0087155101
 21
-24.5024565539
  0
LINE
  5
3C7
100
AcDbEntity
  8
0
100
AcDbLine
 62
250
  6
CONTINUOUS
 10
-14.4155666557
 20
-27.0663838126
 11
-14.9024781816
 21
-27.0663838126
  0
LINE
  5
3C8
100
AcDbEntity
  8
ASSI
100
AcDbLine
 62
7
  6
CONTINUOUS
 10
-6.8096578586
 20
-26.00296875
 11
-6.6133255129
 21
-26.00296875
  0
LINE
  5
3C9
100
AcDbEntity
  8
ASSI
100
AcDbLine
 62
250
  6
CONTINUOUS
 10
-6.8061673773
 20
-25.8203972437
 11
-6.6098350316
 21
-25.8203972437
  0
LINE
  5
3CA
100
AcDbEntity
  8
ASSI
100
AcDbLine
 62
7
  6
CONTINUOUS
 10
-11.1024781816
 20
-25.80296875
 11
-10.4559435792
 21
-25.80296875
  0
LINE
  5
3CB
100
AcDbEntity
  8
ASSI
100
AcDbLine
 62
250
  6
CONTINUOUS
 10
-11.1024781816
 20
-25.6203972437
 11
-10.4524530979
 21
-25.6203972437
  0
LINE
  5
3CC
100
AcDbEntity
  8
ASSI
100
AcDbLine
 62
250
  6
CONTINUOUS
 10
-7.6024781816
 20
-24.9953365701
 11
-7.7989877003
 21
-24.9953365701
  0
LINE
  5
3CD
100
AcDbEntity
  8
ASSI
100
AcDbLine
 62
250
  6
CONTINUOUS
 10
-7.6024781816
 20
-24.5430102576
 11
-7.7989877003
 21
-24.5430102576
  0
LINE
  5
3CE
100
AcDbEntity
  8
ASSI
100
AcDbLine
 62
7
  6
CONTINUOUS
 10
1.0996447621
 20
-24.50296875
 11
-2.9531758069
 21
-24.50296875
  0
LINE
  5
3CF
100
AcDbEntity
  8
ASSI
100
AcDbLine
 62
250
  6
CONTINUOUS
 10
0.0369403832
 20
-24.3203972437
 11
1.1031352433
 21
-24.3203972437
  0
LINE
  5
3D0
100
AcDbEntity
  8
ASSI
100
AcDbLine
 62
250
  6
CONTINUOUS
 10
-1.2387828466
 20
-24.3203972437
 11
-2.9496853256
 21
-24.3203972437
  0
LINE
  5
3D1
100
AcDbEntity
  8
ASSI
100
AcDbLine
 62
250
  6
CONTINUOUS
 10
-4.5299877982
 20
-24.30296875
 11
-3.6661470644
 21
-24.30296875
  0
LINE
  5
3D2
100
AcDbEntity
  8
ASSI
100
AcDbLine
 62
250
  6
CONTINUOUS
 10
-0.1442090069
 20
-24.30296875
 11
-1.0534604414
 21
-24.30296875
  0
LINE
  5
3D3
100
AcDbEntity
  8
ASSI
100
AcDbLine
 62
250
  6
CONTINUOUS
 10
-4.1385827586
 20
-24.5027054895
 11
-4.0709194227
 21
-24.5027434299
  0
LINE
  5
3D4
100
AcDbEntity
  8
ASSI
100
AcDbLine
 62
250
  6
CONTINUOUS
 10
-4.1431855142
 20
-24.6850330871
 11
-4.1087843055
 21
-24.6851515124
  0
LINE
  5
3D5
100
AcDbEntity
  8
ASSI
100
AcDbLine
 62
250
  6
CONTINUOUS
 10
-4.1693376312
 20
-24.5025355464
 11
-4.1385827586
 21
-24.5027054895
  0
LWPOLYLINE
  5
3D6
100
AcDbEntity
  8
ASSI
100
AcDbPolyline
 62
250
  6
CONTINUOUS
 90
16
 70
0
 10
0.0369403842
 20
-24.3203972668
 10
0.022014724
 20
-24.3197619328
 10
0.0070941737
 20
-24.3190291102
 10
-0.0077244469
 20
-24.3182020884
 10
-0.0223539806
 20
-24.3172839092
 10
-0.0366855809
 20
-24.3162788328
 10
-0.0505996851
 20
-24.3151935244
 10
-0.0640176779
 20
-24.3140329568
 10
-0.0768557545
 20
-24.3128041097
 10
-0.0890013534
 20
-24.3115185628
 10
-0.1003560667
 20
-24.3101985153
 10
-0.1108954819
 20
-24.3088373883
 10
-0.1206156589
 20
-24.307403974
 10
-0.1294634526
 20
-24.3058936326
 10
-0.13735077
 20
-24.3043287287
 10
-0.1442091493
 20
-24.3027190794
  0
LWPOLYLINE
  5
3D7
100
AcDbEntity
  8
ASSI
100
AcDbPolyline
 62
250
  6
CONTINUOUS
 90
13
 70
0
 10
-7.6024781816
 20
-24.8209703327
 10
-7.5797574861
 20
-24.8220572354
 10
-7.5460008426
 20
-24.8264011487
 10
-7.5131881471
 20
-24.8334289836
 10
-7.4813524815
 20
-24.8430660899
 10
-7.450460764
 20
-24.8553871179
 10
-7.4204137492
 20
-24.8706160184
 10
-7.3907940848
 20
-24.8889424341
 10
-7.3620191232
 20
-24.9101767224
 10
-7.3352416761
 20
-24.9339739072
 10
-7.3108460143
 20
-24.9602189964
 10
-7.288447867
 20
-24.989026982
 10
-7.2680472344
 20
-25.0203978642
  0
LWPOLYLINE
  5
3D8
100
AcDbEntity
  8
ASSI
100
AcDbPolyline
 62
250
  6
CONTINUOUS
 90
10
 70
0
 10
-4.7044820453
 20
-24.2855402584
 10
-4.6813162069
 20
-24.2868288254
 10
-4.6584155772
 20
-24.2883348817
 10
-4.636088743
 20
-24.29003813
 10
-4.6146365872
 20
-24.2919156123
 10
-4.5943481314
 20
-24.2939420308
 10
-4.5754966613
 20
-24.2960900903
 10
-4.5583361803
 20
-24.2983308495
 10
-4.5430979653
 20
-24.3006341098
 10
-4.529987361
 20
-24.3029688344
  0
LWPOLYLINE
  5
3D9
100
AcDbEntity
  8
RACCORDO
100
AcDbPolyline
 62
7
  6
CONTINUOUS
 90
3
 70
0
 10
3.5216938051
 20
-21.8924468019
 10
3.5354966667
 20
-21.8995889662
 10
3.5513508402
 20
-21.9052101944
  0
LWPOLYLINE
  5
3DA
100
AcDbEntity
  8
ASSI
100
AcDbPolyline
 62
250
  6
CONTINUOUS
 90
4
 70
0
 10
1.2251419443
 20
-24.4729307303
 10
1.2272131685
 20
-24.4801410076
 10
1.2285239374
 20
-24.4844967685
 10
1.2290542846
 20
-24.4859316631
  0
LINE
  5
3DB
100
AcDbEntity
  8
ASSI
100
AcDbLine
 62
250
  6
CONTINUOUS
 10
1.2188554341
 20
-24.450427762
 11
1.2251419443
 21
-24.4729307303
  0
LINE
  5
3DC
100
AcDbEntity
  8
ASSI
100
AcDbLine
 62
250
  6
CONTINUOUS
 10
1.1992483308
 20
-24.3786555779
 11
1.2188554341
 21
-24.450427762
  0
LINE
  5
3DD
100
AcDbEntity
  8
ASSI
100
AcDbLine
 62
250
  6
CONTINUOUS
 10
1.1807809569
 20
-24.3101749916
 11
1.1992483308
 21
-24.3786555779
  0
LINE
  5
3DE
100
AcDbEntity
  8
ASSI
100
AcDbLine
 62
250
  6
CONTINUOUS
 10
-10.3504837989
 20
22.7339051392
 11
-10.4524530979
 21
23.1144597437
  0
LWPOLYLINE
  5
3DF
100
AcDbEntity
  8
CURVE
100
AcDbPolyline
 62
250
  6
CONTINUOUS
 90
23
 70
0
 10
-3.0985090381
 20
-7.1909090468
 10
-3.1021746201
 20
-7.1688448032
 10
-3.1056401889
 20
-7.1467417347
 10
-3.1088925744
 20
-7.124601993
 10
-3.1119186067
 20
-7.1024277293
 10
-3.1147051157
 20
-7.0802210951
 10
-3.1172389313
 20
-7.0579842419
 10
-3.1195068835
 20
-7.0357193212
 10
-3.1214958024
 20
-7.0134284844
 10
-3.1231925178
 20
-6.991113883
 10
-3.1245838598
 20
-6.9687776683
 10
-3.1256566583
 20
-6.946421992
 10
-3.1264009383
 20
-6.9240284539
 10
-3.1268156073
 20
-6.9016232262
 10
-3.1269033945
 20
-6.8792119621
 10
-3.1266670293
 20
-6.8568003152
 10
-3.126109241
 20
-6.8343939385
 10
-3.1252327587
 20
-6.8119984856
 10
-3.1240403118
 20
-6.7896196098
 10
-3.1225346296
 20
-6.7672629643
 10
-3.1207184412
 20
-6.7449342025
 10
-3.1185944761
 20
-6.7226389778
 10
-3.1161654634
 20
-6.7003829435
  0
LWPOLYLINE
  5
3E0
100
AcDbEntity
  8
ASSI
100
AcDbPolyline
 62
250
  6
CONTINUOUS
 90
3
 70
0
 10
-4.6442266017
 20
20.8016343543
 10
-4.6388712032
 20
20.7277986498
 10
-4.6229767175
 20
20.5185402282
  0
LINE
  5
3E1
100
AcDbEntity
  8
ASSI
100
AcDbLine
 62
250
  6
CONTINUOUS
 10
-0.0186298157
 20
-23.1434602201
 11
-0.0295683301
 21
-22.9586981364
  0
LINE
  5
3E2
100
AcDbEntity
  8
ASSI
100
AcDbLine
 62
250
  6
CONTINUOUS
 10
-0.00492337
 20
-23.392429036
 11
-0.0186298157
 21
-23.1434602201
  0
LINE
  5
3E3
100
AcDbEntity
  8
ASSI
100
AcDbLine
 62
250
  6
CONTINUOUS
 10
0.0088061677
 20
-23.6647818555
 11
-0.00492337
 21
-23.392429036
  0
LWPOLYLINE
  5
3E4
100
AcDbEntity
  8
ASSI
100
AcDbPolyline
 62
250
  6
CONTINUOUS
 90
16
 70
0
 10
-1.053460444
 20
-24.30296875
 10
-1.0524722293
 20
-24.3238744759
 10
-1.0495184149
 20
-24.3445511437
 10
-1.0446313664
 20
-24.3647722155
 10
-1.0378646313
 20
-24.3843161424
 10
-1.0292923493
 20
-24.4029688016
 10
-1.0190084374
 20
-24.4205258403
 10
-1.0071255659
 20
-24.4367949027
 10
-0.9937739276
 20
-24.4515977388
 10
-0.9790998056
 20
-24.4647721656
 10
-0.9632639731
 20
-24.4761738412
 10
-0.9464399302
 20
-24.485677847
 10
-0.9288120032
 20
-24.4931800556
 10
-0.9105733267
 20
-24.4985982709
 10
-0.8919237277
 20
-24.5018731292
 10
-0.873067535
 20
-24.50296875
  0
LINE
  5
3E5
100
AcDbEntity
  8
ASSI
100
AcDbLine
 62
250
  6
CONTINUOUS
 10
-1.2281042996
 20
21.5655668986
 11
-1.2139223646
 21
21.2639553044
  0
LINE
  5
3E6
100
AcDbEntity
  8
ASSI
100
AcDbLine
 62
250
  6
CONTINUOUS
 10
0.0224098235
 20
-23.9625893122
 11
0.0088061677
 21
-23.6647818555
  0
LINE
  5
3E7
100
AcDbEntity
  8
ASSI
100
AcDbLine
 62
250
  6
CONTINUOUS
 10
-1.2387828461
 20
21.8144597437
 11
-1.2281042996
 21
21.5655668986
  0
LINE
  5
3E8
100
AcDbEntity
  8
ASSI
100
AcDbLine
 62
250
  6
CONTINUOUS
 10
-0.1801644185
 20
-23.2296541718
 11
-0.1914699473
 21
-22.9601110304
  0
LINE
  5
3E9
100
AcDbEntity
  8
ASSI
100
AcDbLine
 62
250
  6
CONTINUOUS
 10
0.0369403832
 20
-24.3203972437
 11
0.0224098235
 21
-23.9625893122
  0
LINE
  5
3EA
100
AcDbEntity
  8
ASSI
100
AcDbLine
 62
250
  6
CONTINUOUS
 10
-1.0329314705
 20
21.1755717407
 11
-1.0190331016
 21
20.8168593231
  0
LINE
  5
3EB
100
AcDbEntity
  8
ASSI
100
AcDbLine
 62
250
  6
CONTINUOUS
 10
-0.1669222727
 20
-23.5801275853
 11
-0.1801644185
 21
-23.2296541718
  0
LINE
  5
3EC
100
AcDbEntity
  8
ASSI
100
AcDbLine
 62
250
  6
CONTINUOUS
 10
-1.0433281242
 20
21.474144528
 11
-1.0329314705
 21
21.1755717407
  0
LINE
  5
3ED
100
AcDbEntity
  8
ASSI
100
AcDbLine
 62
250
  6
CONTINUOUS
 10
-0.1570242516
 20
-23.8726027626
 11
-0.1669222727
 21
-23.5801275853
  0
LINE
  5
3EE
100
AcDbEntity
  8
ASSI
100
AcDbLine
 62
250
  6
CONTINUOUS
 10
-1.0534604415
 20
21.79703125
 11
-1.0433281242
 21
21.474144528
  0
LWPOLYLINE
  5
3EF
100
AcDbEntity
  8
ASSI
100
AcDbPolyline
 62
250
  6
CONTINUOUS
 90
3
 70
0
 10
-0.1442090069
 20
-24.30296875
 10
-0.1473502705
 20
-24.1910779678
 10
-0.1570242516
 20
-23.8726027626
  0
LWPOLYLINE
  5
3F0
100
AcDbEntity
  8
ASSI
100
AcDbPolyline
 62
250
  6
CONTINUOUS
 90
7
 70
0
 10
-2.9508086711
 20
21.9444869349
 10
-2.9511452911
 20
21.9600233561
 10
-2.9515129042
 20
21.973071748
 10
-2.9519058994
 20
21.9834329786
 10
-2.952318278
 20
21.9909489141
 10
-2.9527437451
 20
21.9955048449
 10
-2.9531758061
 20
21.99703125
  0
LWPOLYLINE
  5
3F1
100
AcDbEntity
  8
ASSI
100
AcDbPolyline
 62
250
  6
CONTINUOUS
 90
7
 70
0
 10
-1.2399061704
 20
21.9444858168
 10
-1.2402427896
 20
21.9600224573
 10
-1.2406104042
 20
21.9730711065
 10
-1.2410034025
 20
21.9834325823
 10
-1.2414157857
 20
21.9909487212
 10
-1.241841259
 20
21.9955047926
 10
-1.2422733275
 20
21.99703125
  0
LINE
  5
3F2
100
AcDbEntity
  8
ASSI
100
AcDbLine
 62
250
  6
CONTINUOUS
 10
-2.9502484142
 20
21.9069328716
 11
-2.9508086711
 21
21.9444869349
  0
LINE
  5
3F3
100
AcDbEntity
  8
ASSI
100
AcDbLine
 62
250
  6
CONTINUOUS
 10
-1.2393459196
 20
21.9069315606
 11
-1.2399061704
 21
21.9444858168
  0
LINE
  5
3F4
100
AcDbEntity
  8
ASSI
100
AcDbLine
 62
250
  6
CONTINUOUS
 10
-2.9498662146
 20
21.8626935551
 11
-2.9502484142
 21
21.9069328716
  0
LINE
  5
3F5
100
AcDbEntity
  8
ASSI
100
AcDbLine
 62
250
  6
CONTINUOUS
 10
-1.2389637293
 20
21.8626925867
 11
-1.2393459196
 21
21.9069315606
  0
LINE
  5
3F6
100
AcDbEntity
  8
ASSI
100
AcDbLine
 62
250
  6
CONTINUOUS
 10
-2.9496853256
 20
21.8144597437
 11
-2.9498662146
 21
21.8626935551
  0
LINE
  5
3F7
100
AcDbEntity
  8
ASSI
100
AcDbLine
 62
250
  6
CONTINUOUS
 10
-1.2387828462
 20
21.8144597437
 11
-1.2389637293
 21
21.8626925867
  0
LINE
  5
3F8
100
AcDbEntity
  8
CURVE
100
AcDbLine
 62
250
  6
CONTINUOUS
 10
-2.2953130005
 20
11.30795125
 11
-2.2953130005
 21
12.28421725
  0
LINE
  5
3F9
100
AcDbEntity
  8
CURVE
100
AcDbLine
 62
250
  6
CONTINUOUS
 10
-2.2751123257
 20
-6.8330748994
 11
-2.2751123257
 21
-7.1909090468
  0
LINE
  5
3FA
100
AcDbEntity
  8
CURVE
100
AcDbLine
 62
250
  6
CONTINUOUS
 10
-2.0128405131
 20
12.28421725
 11
-2.0128405131
 21
11.30795125
  0
LINE
  5
3FB
100
AcDbEntity
  8
CURVE
100
AcDbLine
 62
250
  6
CONTINUOUS
 10
-1.7838813326
 20
-7.1701471082
 11
-1.7838813326
 21
-6.8344245379
  0
LINE
  5
3FC
100
AcDbEntity
  8
CURVE
100
AcDbLine
 62
250
  6
CONTINUOUS
 10
-1.6722074551
 20
-9.52438875
 11
-1.6722074551
 21
-8.92490175
  0
LINE
  5
3FD
100
AcDbEntity
  8
CURVE
100
AcDbLine
 62
250
  6
CONTINUOUS
 10
-1.6473093513
 20
13.21477325
 11
-1.6473093513
 21
14.08718025
  0
LINE
  5
3FE
100
AcDbEntity
  8
ASSI
100
AcDbLine
 62
7
  6
CONTINUOUS
 10
-1.6024781816
 20
20.4357675103
 11
-1.6024781816
 21
20.0893783575
  0
LINE
  5
3FF
100
AcDbEntity
  8
RACCORDO
100
AcDbLine
 62
7
  6
CONTINUOUS
 10
-1.6024781816
 20
-22.2395188852
 11
-1.6024781816
 21
-22.5953158575
  0
LINE
  5
400
100
AcDbEntity
  8
ASSI
100
AcDbLine
 62
7
  6
CONTINUOUS
 10
-1.6024781816
 20
-22.5953158575
 11
-1.6024781816
 21
-22.9417050103
  0
LINE
  5
401
100
AcDbEntity
  8
RACCORDO
100
AcDbLine
 62
7
  6
CONTINUOUS
 10
-1.6024781816
 20
19.7335813852
 11
-1.6024781816
 21
20.0893783575
  0
LINE
  5
402
100
AcDbEntity
  8
DRAFT
100
AcDbLine
 62
7
  6
CONTINUOUS
 10
-1.5024781816
 20
-22.971552026
 11
-1.5024781816
 21
-22.2400782856
  0
LINE
  5
403
100
AcDbEntity
  8
ASSI
100
AcDbLine
 62
7
  6
CONTINUOUS
 10
-1.5024781816
 20
-22.971552026
 11
-1.5024781816
 21
-22.2400782856
  0
LINE
  5
404
100
AcDbEntity
  8
DRAFT
100
AcDbLine
 62
7
  6
CONTINUOUS
 10
-1.5024781816
 20
19.7341407856
 11
-1.5024781816
 21
20.465614526
  0
LINE
  5
405
100
AcDbEntity
  8
ASSI
100
AcDbLine
 62
7
  6
CONTINUOUS
 10
-1.5024781816
 20
19.7341407856
 11
-1.5024781816
 21
20.465614526
  0
LINE
  5
406
100
AcDbEntity
  8
CURVE
100
AcDbLine
 62
250
  6
CONTINUOUS
 10
-1.364834864
 20
14.17026625
 11
-1.364834864
 21
13.12753125
  0
LINE
  5
407
100
AcDbEntity
  8
CURVE
100
AcDbLine
 62
250
  6
CONTINUOUS
 10
-1.2088667423
 20
-8.79976775
 11
-1.2088667423
 21
-9.65246975
  0
LINE
  5
408
100
AcDbEntity
  8
CURVE
100
AcDbLine
 62
250
  6
CONTINUOUS
 10
-0.887106247
 20
6.25451625
 11
-0.887106247
 21
7.19754625
  0
LINE
  5
409
100
AcDbEntity
  8
CURVE
100
AcDbLine
 62
250
  6
CONTINUOUS
 10
-0.887106247
 20
11.30795125
 11
-0.887106247
 21
12.36730325
  0
LINE
  5
40A
100
AcDbEntity
  8
CURVE
100
AcDbLine
 62
250
  6
CONTINUOUS
 10
-0.610077345
 20
-7.97763575
 11
-0.610077345
 21
-8.63756375
  0
LINE
  5
40B
100
AcDbEntity
  8
CURVE
100
AcDbLine
 62
250
  6
CONTINUOUS
 10
-0.610077345
 20
-9.82524575
 11
-0.610077345
 21
-10.44459475
  0
LINE
  5
40C
100
AcDbEntity
  8
CURVE
100
AcDbLine
 62
250
  6
CONTINUOUS
 10
-0.610077345
 20
-10.54291575
 11
-0.610077345
 21
-11.15544975
  0
LINE
  5
40D
100
AcDbEntity
  8
CURVE
100
AcDbLine
 62
250
  6
CONTINUOUS
 10
-0.610077345
 20
-12.02857575
 11
-0.610077345
 21
-12.11639175
  0
LINE
  5
40E
100
AcDbEntity
  8
CURVE
100
AcDbLine
 62
250
  6
CONTINUOUS
 10
-0.610077345
 20
-12.98605375
 11
-0.610077345
 21
-13.58506875
  0
LINE
  5
40F
100
AcDbEntity
  8
CURVE
100
AcDbLine
 62
250
  6
CONTINUOUS
 10
-0.610077345
 20
-15.74484975
 11
-0.610077345
 21
-16.29663875
  0
LINE
  5
410
100
AcDbEntity
  8
CURVE
100
AcDbLine
 62
250
  6
CONTINUOUS
 10
-0.610077345
 20
-14.54828275
 11
-0.610077345
 21
-13.92214075
  0
LINE
  5
411
100
AcDbEntity
  8
CURVE
100
AcDbLine
 62
250
  6
CONTINUOUS
 10
-0.610077677
 20
-7.793770059
 11
-0.610077677
 21
-7.1701471082
  0
LINE
  5
412
100
AcDbEntity
  8
CURVE
100
AcDbLine
 62
250
  6
CONTINUOUS
 10
-0.610077677
 20
-6.2112964546
 11
-0.610077677
 21
-5.6090202857
  0
LINE
  5
413
100
AcDbEntity
  8
CURVE
100
AcDbLine
 62
250
  6
CONTINUOUS
 10
-0.6046407591
 20
7.96514625
 11
-0.6046407591
 21
7.61202925
  0
LINE
  5
414
100
AcDbEntity
  8
CURVE
100
AcDbLine
 62
250
  6
CONTINUOUS
 10
-0.6046347595
 20
12.36730325
 11
-0.6046347595
 21
10.95483525
  0
LINE
  5
415
100
AcDbEntity
  8
CURVE
100
AcDbLine
 62
250
  6
CONTINUOUS
 10
-0.6046347595
 20
10.40512325
 11
-0.6046347595
 21
9.85672525
  0
LINE
  5
416
100
AcDbEntity
  8
CURVE
100
AcDbLine
 62
250
  6
CONTINUOUS
 10
-0.6046347595
 20
8.84722725
 11
-0.6046347595
 21
8.51903525
  0
LINE
  5
417
100
AcDbEntity
  8
CURVE
100
AcDbLine
 62
250
  6
CONTINUOUS
 10
-0.6046347595
 20
7.19754625
 11
-0.6046347595
 21
5.90139925
  0
LINE
  5
418
100
AcDbEntity
  8
CURVE
100
AcDbLine
 62
250
  6
CONTINUOUS
 10
-0.6046257602
 20
14.74771625
 11
-0.6046257602
 21
14.38210825
  0
LINE
  5
419
100
AcDbEntity
  8
CURVE
100
AcDbLine
 62
250
  6
CONTINUOUS
 10
-0.6046257602
 20
12.91565925
 11
-0.6046257602
 21
12.56254425
  0
LINE
  5
41A
100
AcDbEntity
  8
ASSI
100
AcDbLine
 62
250
  6
CONTINUOUS
 10
-2.9498662143
 20
-24.3686310085
 11
-2.9496853255
 21
-24.3203972438
  0
LINE
  5
41B
100
AcDbEntity
  8
ASSI
100
AcDbLine
 62
250
  6
CONTINUOUS
 10
-1.2387828465
 20
-24.3203972437
 11
-1.2389637296
 21
-24.3686300829
  0
LINE
  5
41C
100
AcDbEntity
  8
ASSI
100
AcDbLine
 62
250
  6
CONTINUOUS
 10
-2.9502484135
 20
-24.4128703086
 11
-2.9498662143
 21
-24.3686310085
  0
LINE
  5
41D
100
AcDbEntity
  8
ASSI
100
AcDbLine
 62
250
  6
CONTINUOUS
 10
-1.2389637296
 20
-24.3686300829
 11
-1.2393459199
 21
-24.4128690565
  0
LWPOLYLINE
  5
41E
100
AcDbEntity
  8
CURVE
100
AcDbPolyline
 62
250
  6
CONTINUOUS
 90
46
 70
0
 10
-1.7838813326
 20
-6.8344245379
 10
-1.78376346
 20
-6.8247923896
 10
-1.7834073188
 20
-6.8151519107
 10
-1.7828091241
 20
-6.8055123923
 10
-1.7819650907
 20
-6.7958831254
 10
-1.7808714336
 20
-6.7862734013
 10
-1.7795243679
 20
-6.7766925109
 10
-1.7779201084
 20
-6.7671497453
 10
-1.7760548701
 20
-6.7576543956
 10
-1.773924868
 20
-6.7482157528
 10
-1.771526317
 20
-6.7388431082
 10
-1.7688554322
 20
-6.7295457526
 10
-1.7659084285
 20
-6.7203329772
 10
-1.7626763285
 20
-6.7111952812
 10
-1.7591691615
 20
-6.7021586378
 10
-1.755392899
 20
-6.6932298478
 10
-1.7513535128
 20
-6.6844157118
 10
-1.7470569748
 20
-6.6757230306
 10
-1.7425092566
 20
-6.6671586049
 10
-1.73771633
 20
-6.6587292354
 10
-1.7326841668
 20
-6.6504417229
 10
-1.7274187387
 20
-6.642302868
 10
-1.7219260174
 20
-6.6343194715
 10
-1.7162119748
 20
-6.6264983341
 10
-1.7102825825
 20
-6.6188462565
 10
-1.7034565876
 20
-6.6105569718
 10
-1.6963838443
 20
-6.6024829884
 10
-1.6890755745
 20
-6.5946229332
 10
-1.6815430002
 20
-6.5869754334
 10
-1.6737973432
 20
-6.579539116
 10
-1.6658498255
 20
-6.5723126079
 10
-1.6577116689
 20
-6.5652945362
 10
-1.6493940953
 20
-6.558483528
 10
-1.6409083266
 20
-6.5518782103
 10
-1.6322655848
 20
-6.5454772101
 10
-1.6234770917
 20
-6.5392791545
 10
-1.6137031068
 20
-6.5327272436
 10
-1.6037747083
 20
-6.5264196264
 10
-1.5936986348
 20
-6.5203591351
 10
-1.5834816249
 20
-6.5145486016
 10
-1.5731304171
 20
-6.5089908581
 10
-1.56265175
 20
-6.5036887366
 10
-1.552052362
 20
-6.4986450693
 10
-1.5413389918
 20
-6.4938626882
 10
-1.530518378
 20
-6.4893444254
 10
-1.5195972589
 20
-6.485093113
  0
LWPOLYLINE
  5
41F
100
AcDbEntity
  8
ASSI
100
AcDbPolyline
 62
250
  6
CONTINUOUS
 90
8
 70
0
 10
-1.2393459199
 20
-24.4128690565
 10
-1.2399061707
 20
-24.4504233146
 10
-1.24024279
 20
-24.4659599557
 10
-1.2406104046
 20
-24.4790086055
 10
-1.241003403
 20
-24.4893700817
 10
-1.2414157862
 20
-24.496886221
 10
-1.2418412595
 20
-24.5014422926
 10
-1.2422733281
 20
-24.50296875
  0
LINE
  5
420
100
AcDbEntity
  8
ASSI
100
AcDbLine
 62
250
  6
CONTINUOUS
 10
-0.155524553
 20
21.413712668
 11
-0.1442090069
 21
21.79703125
  0
LINE
  5
421
100
AcDbEntity
  8
ASSI
100
AcDbLine
 62
250
  6
CONTINUOUS
 10
-1.0414896161
 20
-23.9250953733
 11
-1.0534604414
 21
-24.30296875
  0
LINE
  5
422
100
AcDbEntity
  8
ASSI
100
AcDbLine
 62
250
  6
CONTINUOUS
 10
-0.1676560348
 20
21.0536516352
 11
-0.155524553
 21
21.413712668
  0
LINE
  5
423
100
AcDbEntity
  8
ASSI
100
AcDbLine
 62
250
  6
CONTINUOUS
 10
-1.0287558757
 20
-23.569333286
 11
-1.0414896161
 21
-23.9250953733
  0
LINE
  5
424
100
AcDbEntity
  8
ASSI
100
AcDbLine
 62
250
  6
CONTINUOUS
 10
-0.1803669209
 20
20.7186593477
 11
-0.1676560348
 21
21.0536516352
  0
LINE
  5
425
100
AcDbEntity
  8
ASSI
100
AcDbLine
 62
250
  6
CONTINUOUS
 10
-1.0199442718
 20
-23.3451237078
 11
-1.0287558757
 21
-23.569333286
  0
LINE
  5
426
100
AcDbEntity
  8
ASSI
100
AcDbLine
 62
250
  6
CONTINUOUS
 10
0.0253073757
 20
21.5246183878
 11
0.0369404047
 21
21.8144597437
  0
LINE
  5
427
100
AcDbEntity
  8
ASSI
100
AcDbLine
 62
250
  6
CONTINUOUS
 10
-0.1914776871
 20
20.454173598
 11
-0.1803669209
 21
20.7186593477
  0
LINE
  5
428
100
AcDbEntity
  8
ASSI
100
AcDbLine
 62
250
  6
CONTINUOUS
 10
-1.2264859311
 20
-24.0354878552
 11
-1.2387828466
 21
-24.3203972437
  0
LINE
  5
429
100
AcDbEntity
  8
ASSI
100
AcDbLine
 62
250
  6
CONTINUOUS
 10
0.014498264
 20
21.2796464243
 11
0.0253073757
 21
21.5246183878
  0
LWPOLYLINE
  5
42A
100
AcDbEntity
  8
ASSI
100
AcDbPolyline
 62
250
  6
CONTINUOUS
 90
16
 70
0
 10
-1.0534604415
 20
21.79703125
 10
-1.0524722303
 20
21.8179369431
 10
-1.0495184237
 20
21.8386135887
 10
-1.0446313843
 20
21.8588346491
 10
-1.0378646556
 20
21.8783785782
 10
-1.0292923755
 20
21.8970312486
 10
-1.0190084636
 20
21.9145882983
 10
-1.0071255925
 20
21.9308573684
 10
-0.9937739534
 20
21.9456602116
 10
-0.9790998296
 20
21.9588346453
 10
-0.9632639937
 20
21.9702363273
 10
-0.9464399464
 20
21.9797403385
 10
-0.9288120149
 20
21.987242551
 10
-0.9105733342
 20
21.992660769
 10
-0.8919237312
 20
21.9959356287
 10
-0.873067535
 20
21.99703125
  0
LINE
  5
42B
100
AcDbEntity
  8
ASSI
100
AcDbLine
 62
250
  6
CONTINUOUS
 10
-1.2151574186
 20
-23.7948685062
 11
-1.2264859311
 21
-24.0354878552
  0
LINE
  5
42C
100
AcDbEntity
  8
ASSI
100
AcDbLine
 62
250
  6
CONTINUOUS
 10
0.0032159969
 20
21.0448790387
 11
0.014498264
 21
21.2796464243
  0
LINE
  5
42D
100
AcDbEntity
  8
ASSI
100
AcDbLine
 62
250
  6
CONTINUOUS
 10
-0.0084277439
 20
20.820912469
 11
0.0032159969
 21
21.0448790387
  0
LINE
  5
42E
100
AcDbEntity
  8
ASSI
100
AcDbLine
 62
250
  6
CONTINUOUS
 10
-0.0202796994
 20
20.6086531981
 11
-0.0084277439
 21
20.820912469
  0
LINE
  5
42F
100
AcDbEntity
  8
ASSI
100
AcDbLine
 62
250
  6
CONTINUOUS
 10
-0.0295818345
 20
20.4527607543
 11
-0.0202796994
 21
20.6086531981
  0
LWPOLYLINE
  5
430
100
AcDbEntity
  8
ASSI
100
AcDbPolyline
 62
250
  6
CONTINUOUS
 90
3
 70
0
 10
-4.6229683925
 20
-23.024477437
 10
-4.6298534407
 20
-23.1130456284
 10
-4.6436513991
 20
-23.2995367759
  0
LWPOLYLINE
  5
431
100
AcDbEntity
  8
CURVE
100
AcDbPolyline
 62
250
  6
CONTINUOUS
 90
49
 70
0
 10
-3.1161654634
 20
-6.7003829435
 10
-3.1146828691
 20
-6.6889370026
 10
-3.1128921172
 20
-6.677490348
 10
-3.1107940249
 20
-6.6660555186
 10
-3.1083894089
 20
-6.6546450533
 10
-3.1056790864
 20
-6.6432714911
 10
-3.1026638741
 20
-6.6319473709
 10
-3.0993445891
 20
-6.6206852317
 10
-3.0957220482
 20
-6.6094976125
 10
-3.0917970685
 20
-6.5983970521
 10
-3.087570467
 20
-6.5873960896
 10
-3.0830430604
 20
-6.5765072638
 10
-3.0782156658
 20
-6.5657431137
 10
-3.0730891002
 20
-6.5551161784
 10
-3.0676641804
 20
-6.5446389966
 10
-3.0619417234
 20
-6.5343241074
 10
-3.0559225462
 20
-6.5241840497
 10
-3.0496074657
 20
-6.5142313624
 10
-3.0429972989
 20
-6.5044785846
 10
-3.0360928626
 20
-6.4949382551
 10
-3.0288949739
 20
-6.4856229129
 10
-3.0214044497
 20
-6.476545097
 10
-3.0136221069
 20
-6.4677173463
 10
-3.0055487626
 20
-6.4591521996
 10
-2.9971852335
 20
-6.4508621961
 10
-2.9885369055
 20
-6.4428605712
 10
-2.9796130285
 20
-6.4351501686
 10
-2.9704272613
 20
-6.4277346876
 10
-2.9609932628
 20
-6.4206178273
 10
-2.951324692
 20
-6.413803287
 10
-2.9414352078
 20
-6.4072947656
 10
-2.9313384691
 20
-6.4010959625
 10
-2.9210481348
 20
-6.3952105768
 10
-2.9105778639
 20
-6.3896423076
 10
-2.8999413152
 20
-6.3843948542
 10
-2.8891521477
 20
-6.3794719156
 10
-2.8782240202
 20
-6.374877191
 10
-2.8671705917
 20
-6.3706143797
 10
-2.8560055212
 20
-6.3666871807
 10
-2.8447424675
 20
-6.3630992933
 10
-2.8333950895
 20
-6.3598544166
 10
-2.8219770462
 20
-6.3569562497
 10
-2.8105019965
 20
-6.3544084918
 10
-2.7989835993
 20
-6.3522148422
 10
-2.7874355135
 20
-6.3503789999
 10
-2.775871398
 20
-6.3489046641
 10
-2.7643049118
 20
-6.347795534
 10
-2.7527497137
 20
-6.3470553087
 10
-2.7412194627
 20
-6.3466876875
  0
LINE
  5
432
100
AcDbEntity
  8
ASSI
100
AcDbLine
 62
7
  6
CONTINUOUS
 10
-10.2627584139
 20
-25.654732559
 11
-10.1506543787
 21
-25.2363546037
  0
LINE
  5
433
100
AcDbEntity
  8
ASSI
100
AcDbLine
 62
250
  6
CONTINUOUS
 10
3.3618063501
 20
21.3358538108
 11
3.3325413178
 21
21.2276750406
  0
LWPOLYLINE
  5
434
100
AcDbEntity
  8
RACCORDO
100
AcDbPolyline
 62
250
  6
CONTINUOUS
 90
8
 70
0
 10
-9.7989877003
 20
-23.9563988364
 10
-9.7986421422
 20
-23.9552974492
 10
-9.798338596
 20
-23.9520180804
 10
-9.798080386
 20
-23.9465966453
 10
-9.7978703402
 20
-23.9390925199
 10
-9.797710759
 20
-23.9295878878
 10
-9.79760339
 20
-23.9181868372
 10
-9.7975494078
 20
-23.8902143393
  0
LWPOLYLINE
  5
435
100
AcDbEntity
  8
CURVE
100
AcDbPolyline
 62
250
  6
CONTINUOUS
 90
30
 70
0
 10
-3.542866158
 20
-6.2485464765
 10
-3.5544036614
 20
-6.2819682832
 10
-3.5650170744
 20
-6.3156998732
 10
-3.5747503536
 20
-6.3497125168
 10
-3.5836474559
 20
-6.3839774845
 10
-3.591752338
 20
-6.4184660467
 10
-3.5991089567
 20
-6.4531494737
 10
-3.6057612687
 20
-6.487999036
 10
-3.6117532308
 20
-6.5229860041
 10
-3.6171287997
 20
-6.5580816482
 10
-3.6219319323
 20
-6.5932572389
 10
-3.6262065852
 20
-6.6284840465
 10
-3.6319567198
 20
-6.6840383789
 10
-3.6365624316
 20
-6.7396399298
 10
-3.6400821002
 20
-6.7952800938
 10
-3.6425741052
 20
-6.8509502657
 10
-3.6440968263
 20
-6.9066418403
 10
-3.644708643
 20
-6.9623462124
 10
-3.6444679349
 20
-7.0180547767
 10
-3.6431830302
 20
-7.0829901649
 10
-3.6408760411
 20
-7.1479066691
 10
-3.6376040779
 20
-7.2127914027
 10
-3.6334242506
 20
-7.2776314788
 10
-3.6283936694
 20
-7.3424140105
 10
-3.6225694445
 20
-7.4071261111
 10
-3.6146167144
 20
-7.4846627186
 10
-3.6057158172
 20
-7.5620874009
 10
-3.59597887
 20
-7.6394081744
 10
-3.5855179897
 20
-7.716633055
 10
-3.5744452933
 20
-7.793770059
  0
LINE
  5
436
100
AcDbEntity
  8
CURVE
100
AcDbLine
 62
7
  6
CONTINUOUS
 10
-3.5774327424
 20
7.61202925
 11
-3.2243157424
 21
7.96514625
  0
LINE
  5
437
100
AcDbEntity
  8
CURVE
100
AcDbLine
 62
7
  6
CONTINUOUS
 10
-2.6704267424
 20
8.51903525
 11
-2.3422347424
 21
8.84722725
  0
LINE
  5
438
100
AcDbEntity
  8
CURVE
100
AcDbLine
 62
7
  6
CONTINUOUS
 10
-1.7675031168
 20
9.4219588756
 11
-1.2347782932
 21
9.9546836992
  0
LINE
  5
439
100
AcDbEntity
  8
CURVE
100
AcDbLine
 62
7
  6
CONTINUOUS
 10
-1.1125577424
 20
10.07690425
 11
-0.7843387424
 21
10.40512325
  0
LINE
  5
43A
100
AcDbEntity
  8
CURVE
100
AcDbLine
 62
7
  6
CONTINUOUS
 10
-3.1574113144
 20
7.61202925
 11
-2.8042943144
 21
7.96514625
  0
LINE
  5
43B
100
AcDbEntity
  8
CURVE
100
AcDbLine
 62
7
  6
CONTINUOUS
 10
-2.2504053144
 20
8.51903525
 11
-1.9222133144
 21
8.84722725
  0
LINE
  5
43C
100
AcDbEntity
  8
CURVE
100
AcDbLine
 62
7
  6
CONTINUOUS
 10
-1.0966772716
 20
9.6727632927
 11
-0.6046347595
 21
10.1648058049
  0
LINE
  5
43D
100
AcDbEntity
  8
CURVE
100
AcDbLine
 62
250
  6
CONTINUOUS
 10
2.1118075199
 20
12.4613171005
 11
2.3975218184
 21
12.74703125
  0
LINE
  5
43E
100
AcDbEntity
  8
CURVE
100
AcDbLine
 62
7
  6
CONTINUOUS
 10
-2.7373898864
 20
7.61202925
 11
-2.3842728864
 21
7.96514625
  0
LINE
  5
43F
100
AcDbEntity
  8
CURVE
100
AcDbLine
 62
7
  6
CONTINUOUS
 10
-1.8303838864
 20
8.51903525
 11
-1.5021918864
 21
8.84722725
  0
LINE
  5
440
100
AcDbEntity
  8
CURVE
100
AcDbLine
 62
7
  6
CONTINUOUS
 10
-2.3173684583
 20
7.61202925
 11
-1.9642514583
 21
7.96514625
  0
LINE
  5
441
100
AcDbEntity
  8
CURVE
100
AcDbLine
 62
7
  6
CONTINUOUS
 10
-1.4103624583
 20
8.51903525
 11
-1.0821704583
 21
8.84722725
  0
LINE
  5
442
100
AcDbEntity
  8
CURVE
100
AcDbLine
 62
7
  6
CONTINUOUS
 10
-3.6079770303
 20
5.90139925
 11
-3.2548600303
 21
6.25451625
  0
LINE
  5
443
100
AcDbEntity
  8
CURVE
100
AcDbLine
 62
7
  6
CONTINUOUS
 10
-1.8973470303
 20
7.61202925
 11
-1.5442300303
 21
7.96514625
  0
LINE
  5
444
100
AcDbEntity
  8
CURVE
100
AcDbLine
 62
7
  6
CONTINUOUS
 10
-0.9903410303
 20
8.51903525
 11
-0.6621490303
 21
8.84722725
  0
LINE
  5
445
100
AcDbEntity
  8
CURVE
100
AcDbLine
 62
250
  6
CONTINUOUS
 10
0.6832360871
 20
10.0327456379
 11
0.3975218184
 21
9.74703125
  0
LINE
  5
446
100
AcDbEntity
  8
CURVE
100
AcDbLine
 62
7
  6
CONTINUOUS
 10
-3.1879556023
 20
5.90139925
 11
-2.8348386023
 21
6.25451625
  0
LINE
  5
447
100
AcDbEntity
  8
CURVE
100
AcDbLine
 62
7
  6
CONTINUOUS
 10
-1.4773256023
 20
7.61202925
 11
-1.1242086023
 21
7.96514625
  0
LINE
  5
448
100
AcDbEntity
  8
CURVE
100
AcDbLine
 62
7
  6
CONTINUOUS
 10
-2.7679341743
 20
5.90139925
 11
-2.4148171743
 21
6.25451625
  0
LINE
  5
449
100
AcDbEntity
  8
CURVE
100
AcDbLine
 62
7
  6
CONTINUOUS
 10
-1.0573041743
 20
7.61202925
 11
-0.7041871743
 21
7.96514625
  0
LINE
  5
44A
100
AcDbEntity
  8
CURVE
100
AcDbLine
 62
7
  6
CONTINUOUS
 10
-2.3479127462
 20
5.90139925
 11
-1.9947957462
 21
6.25451625
  0
LINE
  5
44B
100
AcDbEntity
  8
CURVE
100
AcDbLine
 62
7
  6
CONTINUOUS
 10
-0.6372827462
 20
7.61202925
 11
-0.6046407591
 21
7.6446712372
  0
LINE
  5
44C
100
AcDbEntity
  8
CURVE
100
AcDbLine
 62
7
  6
CONTINUOUS
 10
-1.9278913182
 20
5.90139925
 11
-1.5747743182
 21
6.25451625
  0
LINE
  5
44D
100
AcDbEntity
  8
CURVE
100
AcDbLine
 62
7
  6
CONTINUOUS
 10
-0.887106247
 20
6.9421843212
 11
-0.6317443182
 21
7.19754625
  0
LINE
  5
44E
100
AcDbEntity
  8
CURVE
100
AcDbLine
 62
7
  6
CONTINUOUS
 10
-1.5078698902
 20
5.90139925
 11
-1.1547528902
 21
6.25451625
  0
LINE
  5
44F
100
AcDbEntity
  8
CURVE
100
AcDbLine
 62
7
  6
CONTINUOUS
 10
-0.887106247
 20
6.5221628932
 11
-0.6046347595
 21
6.8046343807
  0
LINE
  5
450
100
AcDbEntity
  8
CURVE
100
AcDbLine
 62
250
  6
CONTINUOUS
 10
2.1118075199
 20
9.3184597874
 11
2.3975218184
 21
9.6041740561
  0
LINE
  5
451
100
AcDbEntity
  8
CURVE
100
AcDbLine
 62
250
  6
CONTINUOUS
 10
0.9689503558
 20
13.3184600258
 11
0.6832360871
 21
13.1756024742
  0
LINE
  5
452
100
AcDbEntity
  8
CURVE
100
AcDbLine
 62
250
  6
CONTINUOUS
 10
1.8260932214
 20
12.3184600258
 11
2.1118075199
 21
12.4613171005
  0
LINE
  5
453
100
AcDbEntity
  8
CURVE
100
AcDbLine
 62
250
  6
CONTINUOUS
 10
-3.6079970288
 20
13.87946425
 11
-0.6046257602
 21
14.74771625
  0
LWPOLYLINE
  5
454
100
AcDbEntity
  8
ASSI
100
AcDbPolyline
 62
250
  6
CONTINUOUS
 90
10
 70
0
 10
-3.4951051011
 20
-24.2855402564
 10
-3.5182272034
 20
-24.2868288185
 10
-3.5409907039
 20
-24.2883348658
 10
-3.5630888649
 20
-24.2900381044
 10
-3.5842239141
 20
-24.2919155834
 10
-3.6041110567
 20
-24.2939420036
 10
-3.6224823131
 20
-24.2960900592
 10
-3.6390901305
 20
-24.2983308052
 10
-3.6537107185
 20
-24.3006340475
 10
-3.6661470644
 20
-24.30296875
  0
LINE
  5
455
100
AcDbEntity
  8
0
100
AcDbLine
 62
7
  6
CONTINUOUS
 10
-10.7208586583
 20
-24.2115805872
 11
-9.6024781816
 21
-24.15296875
  0
LWPOLYLINE
  5
456
100
AcDbEntity
  8
ASSI
100
AcDbPolyline
 62
250
  6
CONTINUOUS
 90
10
 70
0
 10
0.0356076308
 20
-24.2855402781
 10
0.0104544379
 20
-24.2866791546
 10
-0.0142420596
 20
-24.2880777488
 10
-0.0380881063
 20
-24.2897137619
 10
-0.0607035058
 20
-24.2915611098
 10
-0.0817276827
 20
-24.2935903387
 10
-0.1008254313
 20
-24.2957690951
 10
-0.1176922609
 20
-24.2980626413
 10
-0.1320592498
 20
-24.3004344096
 10
-0.1436973334
 20
-24.302846585
  0
LINE
  5
457
100
AcDbEntity
  8
RACCORDO
100
AcDbLine
 62
250
  6
CONTINUOUS
 10
-8.1059686629
 20
-22.8056441401
 11
-2.9146939357
 21
-22.6185146997
  0
LINE
  5
458
100
AcDbEntity
  8
RACCORDO
100
AcDbLine
 62
7
  6
CONTINUOUS
 10
-8.1094580809
 20
-23.1462283396
 11
-2.9024781816
 21
-22.9643965947
  0
LINE
  5
459
100
AcDbEntity
  8
ASSI
100
AcDbLine
 62
7
  6
CONTINUOUS
 10
-3.7242629261
 20
-22.9930939504
 11
-8.1094580809
 21
-23.1462283396
  0
LINE
  5
45A
100
AcDbEntity
  8
ASSI
100
AcDbLine
 62
250
  6
CONTINUOUS
 10
-2.9146939357
 20
-22.6185146997
 11
-1.6024781816
 21
-22.5953158575
  0
LINE
  5
45B
100
AcDbEntity
  8
RACCORDO
100
AcDbLine
 62
7
  6
CONTINUOUS
 10
-9.7989877003
 20
-23.9563988364
 11
-10.43612136
 21
-23.9675200458
  0
LINE
  5
45C
100
AcDbEntity
  8
RACCORDO
100
AcDbLine
 62
250
  6
CONTINUOUS
 10
-10.1979738713
 20
-23.7633936269
 11
-9.7989877003
 21
-23.7564292974
  0
LINE
  5
45D
100
AcDbEntity
  8
DRAFT
100
AcDbLine
 62
7
  6
CONTINUOUS
 10
-11.1024781816
 20
-23.2791513474
 11
-9.6024781816
 21
-23.25296875
  0
LINE
  5
45E
100
AcDbEntity
  8
ASSI
100
AcDbLine
 62
7
  6
CONTINUOUS
 10
4.8975218184
 20
-22.8282470883
 11
3.1964674199
 21
-22.8579391033
  0
LINE
  5
45F
100
AcDbEntity
  8
ASSI
100
AcDbLine
 62
7
  6
CONTINUOUS
 10
-1.5030294631
 20
-22.9399691265
 11
-2.9024781816
 21
-22.9643965947
  0
LINE
  5
460
100
AcDbEntity
  8
ASSI
100
AcDbLine
 62
250
  6
CONTINUOUS
 10
4.2934759354
 20
-22.5888288246
 11
3.2280194545
 21
-22.6074264367
  0
LINE
  5
461
100
AcDbEntity
  8
ASSI
100
AcDbLine
 62
250
  6
CONTINUOUS
 10
-1.5024781816
 20
-22.6899975801
 11
-1.6024781816
 21
-22.6917430865
  0
LWPOLYLINE
  5
462
100
AcDbEntity
  8
ASSI
100
AcDbPolyline
 62
250
  6
CONTINUOUS
 90
13
 70
0
 10
-2.9496853256
 20
-24.3203972437
 10
-2.9994066635
 20
-24.3212024526
 10
-3.0485453495
 20
-24.3233417207
 10
-3.0971013836
 20
-24.326815048
 10
-3.1450182323
 20
-24.3316411786
 10
-3.192352429
 20
-24.3378013684
 10
-3.2392735744
 20
-24.3452393855
 10
-3.285770982
 20
-24.3539251797
 10
-3.3318553382
 20
-24.3638888012
 10
-3.3777283031
 20
-24.3751641687
 10
-3.4234570966
 20
-24.3877625883
 10
-3.4689744987
 20
-24.4016727538
 10
-3.5142805094
 20
-24.4168946653
  0
LINE
  5
463
100
AcDbEntity
  8
RACCORDO
100
AcDbLine
 62
250
  6
CONTINUOUS
 10
-1.6024781816
 20
-22.3127117081
 11
-1.501436029
 21
-22.3112317903
  0
LINE
  5
464
100
AcDbEntity
  8
RACCORDO
100
AcDbLine
 62
250
  6
CONTINUOUS
 10
3.33837004
 20
-22.2403453841
 11
4.2934759354
 21
-22.2263563888
  0
LINE
  5
465
100
AcDbEntity
  8
RACCORDO
100
AcDbLine
 62
250
  6
CONTINUOUS
 10
3.4603205682
 20
-21.9923947905
 11
3.9902915937
 21
-21.9846325495
  0
LINE
  5
466
100
AcDbEntity
  8
RACCORDO
100
AcDbLine
 62
250
  6
CONTINUOUS
 10
3.5129104783
 20
-21.9057732126
 11
3.5513508402
 21
-21.9052101944
  0
LWPOLYLINE
  5
467
100
AcDbEntity
  8
ASSI
100
AcDbPolyline
 62
250
  6
CONTINUOUS
 90
16
 70
0
 10
-4.0087155101
 20
-24.5024565539
 10
-3.9805277272
 20
-24.5021027438
 10
-3.9541200741
 20
-24.501521225
 10
-3.9296530845
 20
-24.5006893465
 10
-3.9072141674
 20
-24.4995569812
 10
-3.8865051604
 20
-24.4980487448
 10
-3.8672468742
 20
-24.4961622972
 10
-3.8495360964
 20
-24.4938936352
 10
-3.833169729
 20
-24.4911677662
 10
-3.817506783
 20
-24.4878877605
 10
-3.8025382714
 20
-24.4840412939
 10
-3.7882663156
 20
-24.4795245226
 10
-3.7741245204
 20
-24.4740186369
 10
-3.759983047
 20
-24.4672953205
 10
-3.7461363038
 20
-24.459295749
 10
-3.7327195973
 20
-24.4498879883
  0
LWPOLYLINE
  5
468
100
AcDbEntity
  8
ASSI
100
AcDbPolyline
 62
250
  6
CONTINUOUS
 90
13
 70
0
 10
1.1031352433
 20
-24.3203972437
 10
1.1092605294
 20
-24.3203377817
 10
1.1154090132
 20
-24.3201485834
 10
1.1215806947
 20
-24.319829649
 10
1.1277495468
 20
-24.3193881841
 10
1.1339415965
 20
-24.318816983
 10
1.1402349253
 20
-24.3180944281
 10
1.1466369294
 20
-24.3172267372
 10
1.1531402126
 20
-24.3162076924
 10
1.1598006676
 20
-24.3149970225
 10
1.1666369255
 20
-24.3135813039
 10
1.1736303552
 20
-24.3119739603
 10
1.1807809569
 20
-24.3101749916
  0
LINE
  5
469
100
AcDbEntity
  8
DRAFT
100
AcDbLine
 62
7
  6
CONTINUOUS
 10
3.1975218184
 20
-22.9305357473
 11
-1.5024781816
 21
-22.971552026
  0
LINE
  5
46A
100
AcDbEntity
  8
ASSI
100
AcDbLine
 62
7
  6
CONTINUOUS
 10
3.1975218184
 20
-22.9305357473
 11
-1.5024781816
 21
-22.971552026
  0
LINE
  5
46B
100
AcDbEntity
  8
RACCORDO
100
AcDbLine
 62
250
  6
CONTINUOUS
 10
-9.6024781816
 20
-22.5397468905
 11
-8.4989877003
 21
-22.5311942863
  0
LINE
  5
46C
100
AcDbEntity
  8
RACCORDO
100
AcDbLine
 62
250
  6
CONTINUOUS
 10
-9.6024781816
 20
-22.3914293974
 11
-8.4989877003
 21
-22.3828368279
  0
LINE
  5
46D
100
AcDbEntity
  8
RACCORDO
100
AcDbLine
 62
250
  6
CONTINUOUS
 10
-1.6024781816
 20
-22.4441378686
 11
-5.1024781816
 21
-22.4463819259
  0
LINE
  5
46E
100
AcDbEntity
  8
ASSI
100
AcDbLine
 62
250
  6
CONTINUOUS
 10
-8.3024781816
 20
-24.0081480784
 11
-8.4989877003
 21
-24.0081480782
  0
LINE
  5
46F
100
AcDbEntity
  8
RACCORDO
100
AcDbLine
 62
250
  6
CONTINUOUS
 10
-9.6024781816
 20
-23.7564292974
 11
-9.7989877003
 21
-23.7564292974
  0
LINE
  5
470
100
AcDbEntity
  8
DRAFT
100
AcDbLine
 62
7
  6
CONTINUOUS
 10
-1.5024781816
 20
-22.2400782856
 11
-5.1024781816
 21
-22.2199398718
  0
LINE
  5
471
100
AcDbEntity
  8
ASSI
100
AcDbLine
 62
7
  6
CONTINUOUS
 10
-1.5024781816
 20
-22.2400782856
 11
-5.1024781816
 21
-22.2199398718
  0
LWPOLYLINE
  5
472
100
AcDbEntity
  8
ASSI
100
AcDbPolyline
 62
7
  6
CONTINUOUS
 90
28
 70
0
 10
4.8975218184
 20
-22.8273643709
 10
4.8586559989
 20
-22.8271407455
 10
4.8210680922
 20
-22.826521131
 10
4.7847570507
 20
-22.82546414
 10
4.7497451117
 20
-22.8239222306
 10
4.7160076782
 20
-22.8218563869
 10
4.6834735094
 20
-22.8192450459
 10
4.6521232551
 20
-22.8160572063
 10
4.6219739174
 20
-22.8122562193
 10
4.5930089927
 20
-22.807825635
 10
4.5652489002
 20
-22.8027529857
 10
4.5386709205
 20
-22.797002413
 10
4.5131937312
 20
-22.7905232054
 10
4.4888253059
 20
-22.7833221834
 10
4.4655549461
 20
-22.7753483327
 10
4.4432722708
 20
-22.7664359886
 10
4.4217850892
 20
-22.7564890876
 10
4.4012806468
 20
-22.7455236915
 10
4.3822169537
 20
-22.7335291483
 10
4.3645659427
 20
-22.7204399
 10
4.3483510788
 20
-22.706302736
 10
4.3341089316
 20
-22.6913167331
 10
4.3219318395
 20
-22.6755270995
 10
4.3117259019
 20
-22.6589827848
 10
4.3037505652
 20
-22.6419382903
 10
4.2980931861
 20
-22.6245390823
 10
4.2946679926
 20
-22.6068064197
 10
4.2934759354
 20
-22.5888288246
  0
LWPOLYLINE
  5
473
100
AcDbEntity
  8
RACCORDO
100
AcDbPolyline
 62
250
  6
CONTINUOUS
 90
22
 70
0
 10
-8.4989877003
 20
-22.3828368279
 10
-8.4740814686
 20
-22.3831655967
 10
-8.448897206
 20
-22.3851310409
 10
-8.4234349126
 20
-22.3887324296
 10
-8.3974657407
 20
-22.3939286021
 10
-8.3712185381
 20
-22.4007578778
 10
-8.3453798473
 20
-22.4093379055
 10
-8.3199814944
 20
-22.4197269754
 10
-8.2949916535
 20
-22.4318605748
 10
-8.2710013894
 20
-22.4456713839
 10
-8.2480381146
 20
-22.461198356
 10
-8.2260744167
 20
-22.478393546
 10
-8.2056191235
 20
-22.4970593586
 10
-8.1867108665
 20
-22.5171751079
 10
-8.1693110143
 20
-22.5387512452
 10
-8.1538124999
 20
-22.561637545
 10
-8.1401821052
 20
-22.5857739272
 10
-8.1284530483
 20
-22.6112094855
 10
-8.1191179169
 20
-22.6379578514
 10
-8.1123409068
 20
-22.6660191823
 10
-8.1079578221
 20
-22.6953802029
 10
-8.1059686629
 20
-22.7260338731
  0
LWPOLYLINE
  5
474
100
AcDbEntity
  8
RACCORDO
100
AcDbPolyline
 62
250
  6
CONTINUOUS
 90
22
 70
0
 10
-8.4989877003
 20
-22.5311945541
 10
-8.4866448625
 20
-22.5315327144
 10
-8.4740341542
 20
-22.5335160467
 10
-8.4612133683
 20
-22.5371445509
 10
-8.4482091718
 20
-22.5423800642
 10
-8.4351359312
 20
-22.5492607494
 10
-8.4221873096
 20
-22.5579010949
 10
-8.4094608068
 20
-22.5683644209
 10
-8.3970195508
 20
-22.5805874072
 10
-8.3849976401
 20
-22.5944945811
 10
-8.3734855805
 20
-22.61013012
 10
-8.3625551001
 20
-22.6274498465
 10
-8.3523035285
 20
-22.646245756
 10
-8.3428307458
 20
-22.6665027543
 10
-8.3341858765
 20
-22.6882359357
 10
-8.3264004764
 20
-22.7112825775
 10
-8.3195823255
 20
-22.7355877847
 10
-8.3137915849
 20
-22.7612064524
 10
-8.3090523672
 20
-22.7881405433
 10
-8.3054856955
 20
-22.8163907116
 10
-8.3032509715
 20
-22.8459563031
 10
-8.3024781816
 20
-22.8768373177
  0
LINE
  5
475
100
AcDbEntity
  8
DRAFT
100
AcDbLine
 62
7
  6
CONTINUOUS
 10
3.9895140502
 20
-21.3641627577
 11
4.8975218184
 21
-21.4117494284
  0
LWPOLYLINE
  5
476
100
AcDbEntity
  8
RACCORDO
100
AcDbPolyline
 62
7
  6
CONTINUOUS
 90
13
 70
0
 10
-9.7920109903
 20
-19.3233052563
 10
-9.7668895309
 20
-19.3252732477
 10
-9.7423331113
 20
-19.3296808327
 10
-9.7187349018
 20
-19.3364604952
 10
-9.6964699917
 20
-19.345526268
 10
-9.6758990673
 20
-19.3567273933
 10
-9.6573599981
 20
-19.3698478146
 10
-9.6411503251
 20
-19.3846967375
 10
-9.6275241203
 20
-19.4010474767
 10
-9.6166964434
 20
-19.4185915313
 10
-9.6088384955
 20
-19.437047966
 10
-9.6040743226
 20
-19.4561672859
 10
-9.6024781816
 20
-19.475669013
  0
LWPOLYLINE
  5
477
100
AcDbEntity
  8
RACCORDO
100
AcDbPolyline
 62
7
  6
CONTINUOUS
 90
22
 70
0
 10
3.9902915937
 20
-21.9846325495
 10
4.013874746
 20
-21.9883438179
 10
4.0367264111
 20
-21.9933183268
 10
4.0588455814
 20
-21.999409841
 10
4.0802568156
 20
-22.0064420451
 10
4.1009325388
 20
-22.0142982601
 10
4.1207941044
 20
-22.0229646773
 10
4.1398146592
 20
-22.0323320843
 10
4.1580189747
 20
-22.0423185751
 10
4.1754077613
 20
-22.0530329682
 10
4.1920694972
 20
-22.0644658145
 10
4.207915625
 20
-22.0765258939
 10
4.22268282
 20
-22.08925017
 10
4.2364021144
 20
-22.1026063066
 10
4.249042643
 20
-22.1165315328
 10
4.2602487937
 20
-22.1310300351
 10
4.2700194725
 20
-22.1460909468
 10
4.2783558814
 20
-22.16161834
 10
4.2849056215
 20
-22.1774834671
 10
4.2895506656
 20
-22.1935963216
 10
4.2924076994
 20
-22.2099106344
 10
4.2934759354
 20
-22.2263563888
  0
LINE
  5
478
100
AcDbEntity
  8
CURVE
100
AcDbLine
 62
250
  6
CONTINUOUS
 10
-3.6094879152
 20
-14.78064575
 11
-0.610077345
 21
-15.74484975
  0
LWPOLYLINE
  5
479
100
AcDbEntity
  8
ASSI
100
AcDbPolyline
 62
250
  6
CONTINUOUS
 90
4
 70
0
 10
3.3769023052
 20
-23.8963682792
 10
3.3789735294
 20
-23.9035785565
 10
3.3802842984
 20
-23.9079343174
 10
3.3808146456
 20
-23.9093692121
  0
LINE
  5
47A
100
AcDbEntity
  8
ASSI
100
AcDbLine
 62
250
  6
CONTINUOUS
 10
3.370615795
 20
-23.8738653109
 11
3.3769023052
 21
-23.8963682792
  0
LINE
  5
47B
100
AcDbEntity
  8
ASSI
100
AcDbLine
 62
250
  6
CONTINUOUS
 10
3.3510086917
 20
-23.8020931267
 11
3.370615795
 21
-23.8738653109
  0
LINE
  5
47C
100
AcDbEntity
  8
ASSI
100
AcDbLine
 62
250
  6
CONTINUOUS
 10
3.3325413178
 20
-23.7336125406
 11
3.3510086917
 21
-23.8020931267
  0
LINE
  5
47D
100
AcDbEntity
  8
ASSI
100
AcDbLine
 62
7
  6
CONTINUOUS
 10
-10.1506543787
 20
22.7304171037
 11
-10.2627584139
 21
23.148795059
  0
LWPOLYLINE
  5
47E
100
AcDbEntity
  8
ASSI
100
AcDbPolyline
 62
250
  6
CONTINUOUS
 90
13
 70
0
 10
3.4604854546
 20
-23.7123818532
 10
3.4652904147
 20
-23.735010831
 10
3.4692653326
 20
-23.7570899704
 10
3.4723547319
 20
-23.7783111216
 10
3.4745154952
 20
-23.7983781097
 10
3.4757174656
 20
-23.8170108675
 10
3.4759438675
 20
-23.8339493453
 10
3.4751915413
 20
-23.8489571395
 10
3.4734709869
 20
-23.8618247921
 10
3.4708062172
 20
-23.8723727147
 10
3.4672344235
 20
-23.8804536941
 10
3.4628054559
 20
-23.8859549472
 10
3.4575811276
 20
-23.8887996953
  0
LWPOLYLINE
  5
47F
100
AcDbEntity
  8
CURVE
100
AcDbPolyline
 62
250
  6
CONTINUOUS
 90
12
 70
0
 10
-2.0278998786
 20
-6.1839887695
 10
-2.0297972679
 20
-6.1735971546
 10
-2.032696249
 20
-6.1635077097
 10
-2.0364906577
 20
-6.1536981038
 10
-2.0410743295
 20
-6.144146006
 10
-2.0463411001
 20
-6.1348290852
 10
-2.0521848051
 20
-6.1257250105
 10
-2.0584992801
 20
-6.1168114508
 10
-2.0651783607
 20
-6.1080660753
 10
-2.0721158827
 20
-6.0994665528
 10
-2.0792056815
 20
-6.0909905525
 10
-2.1058671371
 20
-6.0598778913
  0
LINE
  5
480
100
AcDbEntity
  8
ASSI
100
AcDbLine
 62
250
  6
CONTINUOUS
 10
-1.180571921
 20
20.6535537446
 11
-1.1687356927
 21
20.4627019994
  0
LINE
  5
481
100
AcDbEntity
  8
ASSI
100
AcDbLine
 62
250
  6
CONTINUOUS
 10
-1.1947971095
 20
20.8994502477
 11
-1.180571921
 21
20.6535537446
  0
LWPOLYLINE
  5
482
100
AcDbEntity
  8
ASSI
100
AcDbPolyline
 62
250
  6
CONTINUOUS
 90
3
 70
0
 10
-1.2139223646
 20
21.2639553044
 10
-1.2091438928
 20
21.1687248749
 10
-1.1947971095
 20
20.8994502477
  0
LWPOLYLINE
  5
483
100
AcDbEntity
  8
ASSI
100
AcDbPolyline
 62
250
  6
CONTINUOUS
 90
16
 70
0
 10
-0.1442089952
 20
21.79703125
 10
-0.1452131787
 20
21.8179369859
 10
-0.1482147229
 20
21.8386136601
 10
-0.1531807385
 20
21.8588347346
 10
-0.1600568113
 20
21.8783786599
 10
-0.1687676029
 20
21.8970313144
 10
-0.17921768
 20
21.9145883488
 10
-0.1912925523
 20
21.9308574081
 10
-0.2048599232
 20
21.9456602415
 10
-0.2197711458
 20
21.9588346661
 10
-0.2358628488
 20
21.9702363397
 10
-0.2529587293
 20
21.9797403442
 10
-0.2708714846
 20
21.9872425529
 10
-0.2894048603
 20
21.9926607692
 10
-0.3083558002
 20
21.9959356287
 10
-0.3275166739
 20
21.99703125
  0
LWPOLYLINE
  5
484
100
AcDbEntity
  8
ASSI
100
AcDbPolyline
 62
250
  6
CONTINUOUS
 90
3
 70
0
 10
-1.0190331016
 20
20.8168593231
 10
-1.0155871161
 20
20.7339582269
 10
-1.0035854334
 20
20.4612607549
  0
LWPOLYLINE
  5
485
100
AcDbEntity
  8
CURVE
100
AcDbPolyline
 62
250
  6
CONTINUOUS
 90
63
 70
0
 10
-0.0041754879
 20
-0.2529687508
 10
-0.0022707483
 20
-0.3389090036
 10
0.0033483158
 20
-0.4247894339
 10
0.0125389721
 20
-0.5104847526
 10
0.0251584883
 20
-0.5958696707
 10
0.0410641323
 20
-0.6808188991
 10
0.0601131718
 20
-0.7652071487
 10
0.0821628745
 20
-0.8489091306
 10
0.1070705083
 20
-0.9317995556
 10
0.1346933409
 20
-1.0137531347
 10
0.1709938111
 20
-1.110103792
 10
0.210792625
 20
-1.2049206444
 10
0.2539308079
 20
-1.2981799417
 10
0.3002493854
 20
-1.3898579338
 10
0.349589383
 20
-1.4799308706
 10
0.4017918261
 20
-1.568375002
 10
0.4566977402
 20
-1.6551665776
 10
0.5141481509
 20
-1.7402818475
 10
0.5855740918
 20
-1.8392680279
 10
0.6602566478
 20
-1.9357951934
 10
0.7380798981
 20
-2.0298077859
 10
0.8189279221
 20
-2.1212502477
 10
0.9026847988
 20
-2.2100670207
 10
0.9892346076
 20
-2.2962025471
 10
1.0784614277
 20
-2.3796012688
 10
1.1704382025
 20
-2.4603507867
 10
1.2649077804
 20
-2.5381680439
 10
1.3617918169
 20
-2.6129241078
 10
1.4610119674
 20
-2.6844900459
 10
1.5624898873
 20
-2.7527369254
 10
1.666147232
 20
-2.8175358137
 10
1.7719056568
 20
-2.8787577782
 10
1.864202377
 20
-2.9282967642
 10
1.9579483899
 20
-2.9749772582
 10
2.0531058795
 20
-3.0186653012
 10
2.1496370302
 20
-3.0592269345
 10
2.2452021154
 20
-3.0956911281
 10
2.3419625303
 20
-3.1288826286
 10
2.4398392686
 20
-3.1586389872
 10
2.5387533238
 20
-3.1847977552
 10
2.6361215839
 20
-3.2066782229
 10
2.7342605765
 20
-3.2247816393
 10
2.8330297614
 20
-3.2389064343
 10
2.9322885982
 20
-3.2488510378
 10
3.0299912138
 20
-3.2543900184
 10
3.1278584831
 20
-3.2557615755
 10
3.2257191151
 20
-3.2530147811
 10
3.3234018194
 20
-3.2461987071
 10
3.4196759018
 20
-3.2355163079
 10
3.5154960039
 20
-3.2210269877
 10
3.6107497222
 20
-3.2028560636
 10
3.7053246534
 20
-3.1811288528
 10
3.7991083942
 20
-3.1559706726
 10
3.8919885411
 20
-3.1275068402
 10
3.9838526908
 20
-3.0958626728
 10
4.07458844
 20
-3.0611634877
 10
4.1760196781
 20
-3.0182549904
 10
4.2757708916
 20
-2.9717128977
 10
4.3737586551
 20
-2.9216733948
 10
4.4698995435
 20
-2.8682726668
 10
4.5641101318
 20
-2.8116468991
 10
4.6563069947
 20
-2.7519322769
 10
4.7464067071
 20
-2.6892649853
  0
LWPOLYLINE
  5
486
100
AcDbEntity
  8
ASSI
100
AcDbPolyline
 62
250
  6
CONTINUOUS
 90
7
 70
0
 10
0.0358170799
 20
21.9444858047
 10
0.0354804608
 20
21.9600224492
 10
0.0351128464
 20
21.9730711018
 10
0.0347198482
 20
21.98343258
 10
0.0343074651
 20
21.9909487203
 10
0.0338819921
 20
21.9955047924
 10
0.0334499237
 20
21.99703125
  0
LWPOLYLINE
  5
487
100
AcDbEntity
  8
CURVE
100
AcDbPolyline
 62
250
  6
CONTINUOUS
 90
44
 70
0
 10
1.4957102831
 20
-0.2529687508
 10
1.4963380165
 20
-0.2909412983
 10
1.4982069688
 20
-0.3290722825
 10
1.5012957683
 20
-0.3673286636
 10
1.5055830431
 20
-0.4056774018
 10
1.5110474214
 20
-0.4440854572
 10
1.5176675314
 20
-0.48251979
 10
1.5254220013
 20
-0.5209473604
 10
1.5342894593
 20
-0.5593351284
 10
1.5442485335
 20
-0.5976500543
 10
1.5552778521
 20
-0.6358590983
 10
1.5673560434
 20
-0.6739292204
 10
1.5804617355
 20
-0.7118273809
 10
1.5945735566
 20
-0.7495205399
 10
1.6096701348
 20
-0.7869756576
 10
1.6257300985
 20
-0.8241596941
 10
1.6427320757
 20
-0.8610396096
 10
1.6606546947
 20
-0.8975823643
 10
1.6794765836
 20
-0.9337549183
 10
1.6991763706
 20
-0.9695242318
 10
1.7197326839
 20
-1.0048572649
 10
1.7411241518
 20
-1.0397209779
 10
1.7633294023
 20
-1.0740823308
 10
1.7863270637
 20
-1.1079082839
 10
1.8100957641
 20
-1.1411657972
 10
1.8346141318
 20
-1.1738218311
 10
1.8598607949
 20
-1.2058433455
 10
1.8858143817
 20
-1.2371973007
 10
1.9124535203
 20
-1.2678506569
 10
1.9397568388
 20
-1.2977703742
 10
1.9677029655
 20
-1.3269234128
 10
1.9962705286
 20
-1.3552767327
 10
2.0254381563
 20
-1.3827972943
 10
2.0551844767
 20
-1.4094520577
 10
2.085488118
 20
-1.4352079829
 10
2.1163277084
 20
-1.4600320303
 10
2.1476818762
 20
-1.4838911598
 10
2.1795292494
 20
-1.5067523318
 10
2.2118484563
 20
-1.5285825064
 10
2.2446181251
 20
-1.5493486437
 10
2.2778168839
 20
-1.5690177038
 10
2.311423361
 20
-1.5875566471
 10
2.3454161845
 20
-1.6049324335
 10
2.3797739826
 20
-1.6211120233
  0
LINE
  5
488
100
AcDbEntity
  8
ASSI
100
AcDbLine
 62
250
  6
CONTINUOUS
 10
0.0363773303
 20
21.9069315366
 11
0.0358170799
 21
21.9444858047
  0
LINE
  5
489
100
AcDbEntity
  8
ASSI
100
AcDbLine
 62
250
  6
CONTINUOUS
 10
1.1020119192
 20
21.9444858175
 11
1.1025721699
 21
21.9069315616
  0
LINE
  5
48A
100
AcDbEntity
  8
ASSI
100
AcDbLine
 62
250
  6
CONTINUOUS
 10
0.0367595204
 20
21.8626925638
 11
0.0363773303
 21
21.9069315366
  0
LINE
  5
48B
100
AcDbEntity
  8
ASSI
100
AcDbLine
 62
250
  6
CONTINUOUS
 10
1.1025721699
 20
21.9069315616
 11
1.1029543603
 21
21.8626925876
  0
LINE
  5
48C
100
AcDbEntity
  8
ASSI
100
AcDbLine
 62
250
  6
CONTINUOUS
 10
0.0369404033
 20
21.8144597437
 11
0.0367595204
 21
21.8626925638
  0
LINE
  5
48D
100
AcDbEntity
  8
ASSI
100
AcDbLine
 62
250
  6
CONTINUOUS
 10
1.1029543603
 20
21.8626925876
 11
1.1031352433
 21
21.8144597437
  0
LINE
  5
48E
100
AcDbEntity
  8
CURVE
100
AcDbLine
 62
250
  6
CONTINUOUS
 10
0.3975218184
 20
14.74703125
 11
0.3975218184
 21
13.8898883247
  0
LINE
  5
48F
100
AcDbEntity
  8
CURVE
100
AcDbLine
 62
250
  6
CONTINUOUS
 10
0.3975218184
 20
12.8898883247
 11
0.3975218184
 21
12.74703125
  0
LINE
  5
490
100
AcDbEntity
  8
CURVE
100
AcDbLine
 62
250
  6
CONTINUOUS
 10
0.3975218184
 20
9.74703125
 11
0.3975218184
 21
9.6041740561
  0
LINE
  5
491
100
AcDbEntity
  8
CURVE
100
AcDbLine
 62
250
  6
CONTINUOUS
 10
0.3975218184
 20
7.74703125
 11
0.3975218184
 21
8.318459847
  0
LWPOLYLINE
  5
492
100
AcDbEntity
  8
0
100
AcDbPolyline
 62
7
  6
CONTINUOUS
 90
4
 70
0
 43
0.3500000006
 10
0.5332361083
 20
44.5386292419
 10
0.5332361083
 20
45.3957717133
 10
0.9618075564
 20
45.8243452148
 10
1.6046646223
 20
45.8243452148
  0
LINE
  5
493
100
AcDbEntity
  8
CURVE
100
AcDbLine
 62
250
  6
CONTINUOUS
 10
0.9457521658
 20
-7.00922175
 11
0.9457521658
 21
-7.54047075
  0
LINE
  5
494
100
AcDbEntity
  8
CURVE
100
AcDbLine
 62
250
  6
CONTINUOUS
 10
0.9457641649
 20
-5.19812575
 11
0.9457641649
 21
-5.88510975
  0
LINE
  5
495
100
AcDbEntity
  8
CURVE
100
AcDbLine
 62
250
  6
CONTINUOUS
 10
0.9457641284
 20
-10.30296875
 11
0.9457641284
 21
-9.7717128658
  0
LINE
  5
496
100
AcDbEntity
  8
CURVE
100
AcDbLine
 62
250
  6
CONTINUOUS
 10
0.9457641284
 20
-8.4967171573
 11
0.9457641284
 21
-7.9654612731
  0
LINE
  5
497
100
AcDbEntity
  8
CURVE
100
AcDbLine
 62
250
  6
CONTINUOUS
 10
0.9922856219
 20
-12.25165975
 11
0.9922856219
 21
-13.36270375
  0
LINE
  5
498
100
AcDbEntity
  8
CURVE
100
AcDbLine
 62
250
  6
CONTINUOUS
 10
0.9922856219
 20
-16.14048375
 11
0.9922856219
 21
-17.25152675
  0
LINE
  5
499
100
AcDbEntity
  8
CURVE
100
AcDbLine
 62
250
  6
CONTINUOUS
 10
0.9922856219
 20
-15.58513475
 11
0.9922856219
 21
-13.91839775
  0
LINE
  5
49A
100
AcDbEntity
  8
CURVE
100
AcDbLine
 62
250
  6
CONTINUOUS
 10
1.2546646245
 20
8.0327455485
 11
1.2546646245
 21
8.318459847
  0
LINE
  5
49B
100
AcDbEntity
  8
CURVE
100
AcDbLine
 62
250
  6
CONTINUOUS
 10
1.2546646245
 20
13.8898883247
 11
1.2546646245
 21
14.4613171005
  0
LINE
  5
49C
100
AcDbEntity
  8
CURVE
100
AcDbLine
 62
250
  6
CONTINUOUS
 10
1.5477653175
 20
-16.69617775
 11
1.5477653175
 21
-16.14048375
  0
LINE
  5
49D
100
AcDbEntity
  8
CURVE
100
AcDbLine
 62
250
  6
CONTINUOUS
 10
1.5477653175
 20
-15.02944075
 11
1.5477653175
 21
-14.47374675
  0
LINE
  5
49E
100
AcDbEntity
  8
CURVE
100
AcDbLine
 62
250
  6
CONTINUOUS
 10
1.5477653175
 20
-12.80735375
 11
1.5477653175
 21
-12.25165975
  0
LINE
  5
49F
100
AcDbEntity
  8
CURVE
100
AcDbLine
 62
250
  6
CONTINUOUS
 10
1.9689503856
 20
10.74703125
 11
1.9689503856
 21
11.74703125
  0
LINE
  5
4A0
100
AcDbEntity
  8
CURVE
100
AcDbLine
 62
250
  6
CONTINUOUS
 10
2.3975218184
 20
14.4613171005
 11
2.3975218184
 21
13.8898883247
  0
LINE
  5
4A1
100
AcDbEntity
  8
CURVE
100
AcDbLine
 62
250
  6
CONTINUOUS
 10
2.3975218184
 20
8.4613169813
 11
2.3975218184
 21
7.74703125
  0
LINE
  5
4A2
100
AcDbEntity
  8
CURVE
100
AcDbLine
 62
250
  6
CONTINUOUS
 10
2.3975218184
 20
9.6041740561
 11
2.3975218184
 21
9.74703125
  0
LINE
  5
4A3
100
AcDbEntity
  8
CURVE
100
AcDbLine
 62
250
  6
CONTINUOUS
 10
2.3975218184
 20
12.74703125
 11
2.3975218184
 21
12.8898883247
  0
LINE
  5
4A4
100
AcDbEntity
  8
CURVE
100
AcDbLine
 62
250
  6
CONTINUOUS
 10
2.7518739405
 20
-9.4765351163
 11
2.7518739405
 21
-8.7918970874
  0
LINE
  5
4A5
100
AcDbEntity
  8
ASSI
100
AcDbLine
 62
250
  6
CONTINUOUS
 10
0.0369403843
 20
-24.3203972437
 11
0.0367595004
 21
-24.3686301013
  0
LINE
  5
4A6
100
AcDbEntity
  8
ASSI
100
AcDbLine
 62
250
  6
CONTINUOUS
 10
1.1031352433
 20
-24.3203972437
 11
1.1029543603
 21
-24.3686300877
  0
LINE
  5
4A7
100
AcDbEntity
  8
ASSI
100
AcDbLine
 62
250
  6
CONTINUOUS
 10
0.0367595004
 20
-24.3686301013
 11
0.0363773099
 21
-24.4128690765
  0
LINE
  5
4A8
100
AcDbEntity
  8
ASSI
100
AcDbLine
 62
250
  6
CONTINUOUS
 10
1.1029543603
 20
-24.3686300877
 11
1.10257217
 21
-24.4128690617
  0
LWPOLYLINE
  5
4A9
100
AcDbEntity
  8
ASSI
100
AcDbPolyline
 62
250
  6
CONTINUOUS
 90
8
 70
0
 10
0.0363773099
 20
-24.4128690765
 10
0.0358170595
 20
-24.4504233259
 10
0.0354804404
 20
-24.4659599641
 10
0.035112826
 20
-24.4790086112
 10
0.0347198277
 20
-24.4893700852
 10
0.0343074444
 20
-24.4968862226
 10
0.033881971
 20
-24.501442293
 10
0.0334499021
 20
-24.50296875
  0
LWPOLYLINE
  5
4AA
100
AcDbEntity
  8
ASSI
100
AcDbPolyline
 62
250
  6
CONTINUOUS
 90
8
 70
0
 10
1.10257217
 20
-24.4128690617
 10
1.1020119192
 20
-24.4504233176
 10
1.1016753
 20
-24.4659599579
 10
1.1013076854
 20
-24.4790086069
 10
1.1009146871
 20
-24.4893700825
 10
1.1005023039
 20
-24.4968862213
 10
1.1000768306
 20
-24.5014422927
 10
1.0996447621
 20
-24.50296875
  0
LINE
  5
4AB
100
AcDbEntity
  8
ASSI
100
AcDbLine
 62
250
  6
CONTINUOUS
 10
-1.0035785589
 20
-22.9671981949
 11
-1.0199442718
 21
-23.3451237078
  0
LWPOLYLINE
  5
4AC
100
AcDbEntity
  8
ASSI
100
AcDbPolyline
 62
250
  6
CONTINUOUS
 90
16
 70
0
 10
-0.1442090123
 20
-24.30296875
 10
-0.1452131901
 20
-24.3238744344
 10
-0.1482147219
 20
-24.3445510739
 10
-0.153180723
 20
-24.3647721312
 10
-0.1600567856
 20
-24.3843160605
 10
-0.1687675746
 20
-24.4029687336
 10
-0.1792176524
 20
-24.4205257862
 10
-0.1912925255
 20
-24.4367948589
 10
-0.2048598993
 20
-24.4515977049
 10
-0.2197711267
 20
-24.4647721407
 10
-0.2358628367
 20
-24.4761738243
 10
-0.2529587256
 20
-24.4856778367
 10
-0.2708714877
 20
-24.4931800501
 10
-0.2894048674
 20
-24.4985982686
 10
-0.3083558088
 20
-24.5018731286
 10
-0.3275166816
 20
-24.50296875
  0
LINE
  5
4AD
100
AcDbEntity
  8
ASSI
100
AcDbLine
 62
250
  6
CONTINUOUS
 10
-1.2033898041
 20
-23.5638427309
 11
-1.2151574186
 21
-23.7948685062
  0
LINE
  5
4AE
100
AcDbEntity
  8
ASSI
100
AcDbLine
 62
250
  6
CONTINUOUS
 10
-1.191281681
 20
-23.342886871
 11
-1.2033898041
 21
-23.5638427309
  0
LINE
  5
4AF
100
AcDbEntity
  8
ASSI
100
AcDbLine
 62
250
  6
CONTINUOUS
 10
-1.1789801492
 20
-23.1328882527
 11
-1.191281681
 21
-23.342886871
  0
LINE
  5
4B0
100
AcDbEntity
  8
ASSI
100
AcDbLine
 62
250
  6
CONTINUOUS
 10
-1.1687291683
 20
-22.9686394424
 11
-1.1789801492
 21
-23.1328882527
  0
LWPOLYLINE
  5
4B1
100
AcDbEntity
  8
ASSI
100
AcDbPolyline
 62
250
  6
CONTINUOUS
 90
8
 70
0
 10
-7.7989877003
 20
-25.1953061092
 10
-7.798646661
 20
-25.1942349817
 10
-7.7983453073
 20
-25.1910284961
 10
-7.7980873874
 20
-25.1856956697
 10
-7.7978759954
 20
-25.1782580182
 10
-7.7977144033
 20
-25.1687783559
 10
-7.7976053307
 20
-25.1573868649
 10
-7.7975488718
 20
-25.1294361928
  0
LINE
  5
4B2
100
AcDbEntity
  8
ASSI
100
AcDbLine
 62
250
  6
CONTINUOUS
 10
-7.7451274565
 20
-24.3910362204
 11
-7.7541573439
 21
-24.4173424696
  0
LINE
  5
4B3
100
AcDbEntity
  8
ASSI
100
AcDbLine
 62
250
  6
CONTINUOUS
 10
-8.1830440202
 20
-24.2353200971
 11
-8.1950170481
 21
-24.2699845591
  0
LINE
  5
4B4
100
AcDbEntity
  8
ASSI
100
AcDbLine
 62
250
  6
CONTINUOUS
 10
-7.7541573439
 20
-24.4173424696
 11
-7.7652911227
 21
-24.4491185885
  0
LINE
  5
4B5
100
AcDbEntity
  8
ASSI
100
AcDbLine
 62
250
  6
CONTINUOUS
 10
-8.1950170481
 20
-24.2699845591
 11
-8.2099841931
 21
-24.3123620784
  0
LINE
  5
4B6
100
AcDbEntity
  8
ASSI
100
AcDbLine
 62
250
  6
CONTINUOUS
 10
-7.7652911227
 20
-24.4491185885
 11
-7.784847112
 21
-24.5039378766
  0
LWPOLYLINE
  5
4B7
100
AcDbEntity
  8
ASSI
100
AcDbPolyline
 62
250
  6
CONTINUOUS
 90
3
 70
0
 10
-8.2099841931
 20
-24.3123620784
 10
-8.2269331623
 20
-24.3595864801
 10
-8.2357957576
 20
-24.3840251267
  0
LINE
  5
4B8
100
AcDbEntity
  8
ASSI
100
AcDbLine
 62
250
  6
CONTINUOUS
 10
-7.784847112
 20
-24.5039378766
 11
-7.7989877003
 21
-24.5430102576
  0
LINE
  5
4B9
100
AcDbEntity
  8
CURVE
100
AcDbLine
 62
250
  6
CONTINUOUS
 10
1.2546646245
 20
8.318459847
 11
1.5403789528
 21
8.6041741157
  0
LINE
  5
4BA
100
AcDbEntity
  8
CURVE
100
AcDbLine
 62
7
  6
CONTINUOUS
 10
-1.0878484622
 20
5.90139925
 11
-0.6046347595
 21
6.3846129526
  0
LINE
  5
4BB
100
AcDbEntity
  8
CURVE
100
AcDbLine
 62
7
  6
CONTINUOUS
 10
-0.6678270341
 20
5.90139925
 11
-0.6046347595
 21
5.9645915246
  0
LINE
  5
4BC
100
AcDbEntity
  8
CURVE
100
AcDbLine
 62
250
  6
CONTINUOUS
 10
0.3975218184
 20
8.318459847
 11
0.6832360871
 21
8.5565550709
  0
LINE
  5
4BD
100
AcDbEntity
  8
CURVE
100
AcDbLine
 62
250
  6
CONTINUOUS
 10
0.9689503558
 20
10.1756027126
 11
0.6832360871
 21
10.0327456379
  0
LINE
  5
4BE
100
AcDbEntity
  8
CURVE
100
AcDbLine
 62
250
  6
CONTINUOUS
 10
1.8260932214
 20
9.1756027126
 11
2.1118075199
 21
9.3184597874
  0
LINE
  5
4BF
100
AcDbEntity
  8
CURVE
100
AcDbLine
 62
250
  6
CONTINUOUS
 10
-3.6079770303
 20
9.06740525
 11
-0.9078756652
 21
10.07690425
  0
LINE
  5
4C0
100
AcDbEntity
  8
CURVE
100
AcDbLine
 62
250
  6
CONTINUOUS
 10
-0.6046347595
 20
9.85672525
 11
-3.3047361246
 21
8.84722725
  0
LINE
  5
4C1
100
AcDbEntity
  8
ASSI
100
AcDbLine
 62
7
  6
CONTINUOUS
 10
1.2290542846
 20
-24.4859316631
 11
4.8975218184
 21
-23.50296875
  0
LINE
  5
4C2
100
AcDbEntity
  8
ASSI
100
AcDbLine
 62
250
  6
CONTINUOUS
 10
3.4604854546
 20
-23.7123818532
 11
4.8975218184
 21
-23.32732912
  0
LINE
  5
4C3
100
AcDbEntity
  8
ASSI
100
AcDbLine
 62
250
  6
CONTINUOUS
 10
1.1807809569
 20
-24.3101749916
 11
3.3325413178
 21
-23.7336125406
  0
LWPOLYLINE
  5
4C4
100
AcDbEntity
  8
ASSI
100
AcDbPolyline
 62
250
  6
CONTINUOUS
 90
15
 70
0
 10
-3.988258484
 20
-24.6590672027
 10
-3.9606212146
 20
-24.6526702158
 10
-3.9338120675
 20
-24.64610295
 10
-3.9078209778
 20
-24.6393630267
 10
-3.8826535999
 20
-24.6324660631
 10
-3.8581759015
 20
-24.6252458213
 10
-3.8345494367
 20
-24.6177818723
 10
-3.8116053877
 20
-24.6100133602
 10
-3.7887129977
 20
-24.601566048
 10
-3.7659008964
 20
-24.5925633586
 10
-3.7431353801
 20
-24.5828944371
 10
-3.7196921486
 20
-24.5718336472
 10
-3.6953306704
 20
-24.5591368957
 10
-3.670294974
 20
-24.5450396764
 10
-3.6445903493
 20
-24.5295288939
  0
LWPOLYLINE
  5
4C5
100
AcDbEntity
  8
ASSI
100
AcDbPolyline
 62
250
  6
CONTINUOUS
 90
13
 70
0
 10
-1.0534603213
 20
-24.3027181333
 10
-1.0627565821
 20
-24.3046877976
 10
-1.0736206859
 20
-24.3066073347
 10
-1.0859306839
 20
-24.3084576495
 10
-1.0995491076
 20
-24.3102098623
 10
-1.1143435694
 20
-24.3118601976
 10
-1.1302120097
 20
-24.313427177
 10
-1.1470571116
 20
-24.3149094964
 10
-1.1646881186
 20
-24.3162812049
 10
-1.1828628622
 20
-24.3175249631
 10
-1.2013833767
 20
-24.3186294915
 10
-1.2200869059
 20
-24.3195891606
 10
-1.2387828465
 20
-24.3203972361
  0
LWPOLYLINE
  5
4C6
100
AcDbEntity
  8
ASSI
100
AcDbPolyline
 62
250
  6
CONTINUOUS
 90
4
 70
0
 10
-4.1087843055
 20
-24.6851515124
 10
-4.0771692755
 20
-24.6785674022
 10
-4.0465334178
 20
-24.672015573
 10
-3.988258484
 20
-24.6590672027
  0
LINE
  5
4C7
100
AcDbEntity
  8
ASSI
100
AcDbLine
 62
250
  6
CONTINUOUS
 10
3.4041756837
 20
-23.7218720761
 11
3.4604854546
 21
-23.7123818532
  0
LINE
  5
4C8
100
AcDbEntity
  8
ASSI
100
AcDbLine
 62
250
  6
CONTINUOUS
 10
3.3325413178
 20
-23.7336125406
 11
3.4041756837
 21
-23.7218720761
  0
LWPOLYLINE
  5
4C9
100
AcDbEntity
  8
RACCORDO
100
AcDbPolyline
 62
250
  6
CONTINUOUS
 90
19
 70
0
 10
9.4018850862
 20
-18.9330013295
 10
9.4452688067
 20
-18.9315449244
 10
9.4881666208
 20
-18.9277996618
 10
9.5303309202
 20
-18.9217818956
 10
9.5715685912
 20
-18.9134567126
 10
9.6115754894
 20
-18.9028852614
 10
9.6499393428
 20
-18.8902460648
 10
9.6863852193
 20
-18.8755636805
 10
9.7206981252
 20
-18.8588939612
 10
9.7525669114
 20
-18.8404999947
 10
9.7817397734
 20
-18.8204499849
 10
9.8080296823
 20
-18.7988206361
 10
9.8312369215
 20
-18.7759191399
 10
9.8511697038
 20
-18.7518478238
 10
9.8676844032
 20
-18.7267120658
 10
9.8806679059
 20
-18.7008456402
 10
9.8900140011
 20
-18.674446174
 10
9.8956437462
 20
-18.6475704559
 10
9.8975218184
 20
-18.6203515353
  0
LWPOLYLINE
  5
4CA
100
AcDbEntity
  8
ASSI
100
AcDbPolyline
 62
250
  6
CONTINUOUS
 90
19
 70
0
 10
9.4018850862
 20
-18.9330013295
 10
9.4452688067
 20
-18.9315449244
 10
9.4881666208
 20
-18.9277996618
 10
9.5303309202
 20
-18.9217818956
 10
9.5715685912
 20
-18.9134567126
 10
9.6115754894
 20
-18.9028852614
 10
9.6499393428
 20
-18.8902460648
 10
9.6863852193
 20
-18.8755636805
 10
9.7206981252
 20
-18.8588939612
 10
9.7525669114
 20
-18.8404999947
 10
9.7817397734
 20
-18.8204499849
 10
9.8080296823
 20
-18.7988206361
 10
9.8312369215
 20
-18.7759191399
 10
9.8511697038
 20
-18.7518478238
 10
9.8676844032
 20
-18.7267120658
 10
9.8806679059
 20
-18.7008456402
 10
9.8900140011
 20
-18.674446174
 10
9.8956437462
 20
-18.6475704559
 10
9.8975218184
 20
-18.6203515353
  0
LINE
  5
4CB
100
AcDbEntity
  8
SUPERFICI
100
AcDbLine
 62
7
  6
CONTINUOUS
 10
-9.6105746068
 20
-19.4329702568
 11
-11.1010304419
 21
-19.4746146866
  0
LINE
  5
4CC
100
AcDbEntity
  8
RACCORDO
100
AcDbLine
 62
7
  6
CONTINUOUS
 10
9.4062480216
 20
-20.661543966
 11
4.8975218184
 21
-20.7402440746
  0
LINE
  5
4CD
100
AcDbEntity
  8
DRAFT
100
AcDbLine
 62
7
  6
CONTINUOUS
 10
9.4062480216
 20
-20.661543966
 11
9.8975218184
 21
-20.65296875
  0
LINE
  5
4CE
100
AcDbEntity
  8
ASSI
100
AcDbLine
 62
7
  6
CONTINUOUS
 10
4.8975218184
 20
-20.7402440746
 11
9.8975218184
 21
-20.65296875
  0
LINE
  5
4CF
100
AcDbEntity
  8
RACCORDO
100
AcDbLine
 62
250
  6
CONTINUOUS
 10
-11.1024781816
 20
-19.1172628707
 11
-5.1024781816
 21
-19.0808837706
  0
LINE
  5
4D0
100
AcDbEntity
  8
RACCORDO
100
AcDbLine
 62
250
  6
CONTINUOUS
 10
-11.1024781816
 20
-18.8041895521
 11
-5.1024781816
 21
-18.7672967024
  0
LINE
  5
4D1
100
AcDbEntity
  8
SUPERFICI
100
AcDbLine
 62
250
  6
CONTINUOUS
 10
-11.102478009
 20
-19.889033038
 11
-9.6024781819
 21
-19.8816290076
  0
LINE
  5
4D2
100
AcDbEntity
  8
RACCORDO
100
AcDbLine
 62
250
  6
CONTINUOUS
 10
-5.1024781816
 20
-18.9767800937
 11
9.4018850862
 21
-18.9330013299
  0
LINE
  5
4D3
100
AcDbEntity
  8
ASSI
100
AcDbLine
 62
250
  6
CONTINUOUS
 10
-5.1024781816
 20
-18.9767800937
 11
9.4018850862
 21
-18.9330013299
  0
LINE
  5
4D4
100
AcDbEntity
  8
RACCORDO
100
AcDbLine
 62
250
  6
CONTINUOUS
 10
-5.1024781816
 20
-18.6647530431
 11
9.4018850862
 21
-18.6203515353
  0
LINE
  5
4D5
100
AcDbEntity
  8
ASSI
100
AcDbLine
 62
250
  6
CONTINUOUS
 10
-5.1024781816
 20
-18.6647530431
 11
9.4018850862
 21
-18.6203515353
  0
LINE
  5
4D6
100
AcDbEntity
  8
RACCORDO
100
AcDbLine
 62
250
  6
CONTINUOUS
 10
9.4018850862
 20
-18.6203515353
 11
9.8975218184
 21
-18.6203515353
  0
LINE
  5
4D7
100
AcDbEntity
  8
ASSI
100
AcDbLine
 62
250
  6
CONTINUOUS
 10
9.4018850862
 20
-18.6203515353
 11
9.8975218184
 21
-18.6203515353
  0
LINE
  5
4D8
100
AcDbEntity
  8
ASSI
100
AcDbLine
 62
7
  6
CONTINUOUS
 10
4.5913790954
 20
-20.9976250089
 11
4.8975218184
 21
-21.00296875
  0
LINE
  5
4D9
100
AcDbEntity
  8
DRAFT
100
AcDbLine
 62
7
  6
CONTINUOUS
 10
-10.5195580261
 20
-20.3846526462
 11
-11.1024781816
 21
-20.374477737
  0
LINE
  5
4DA
100
AcDbEntity
  8
CURVE
100
AcDbLine
 62
250
  6
CONTINUOUS
 10
-1.5449011505
 20
-15.99561275
 11
-3.6094879152
 21
-15.40636075
  0
LINE
  5
4DB
100
AcDbEntity
  8
CURVE
100
AcDbLine
 62
250
  6
CONTINUOUS
 10
7.5975218184
 20
-15.7672543979
 11
8.8975218184
 21
-16.1386830246
  0
LINE
  5
4DC
100
AcDbEntity
  8
CURVE
100
AcDbLine
 62
250
  6
CONTINUOUS
 10
-1.9442057402
 20
-12.06906475
 11
-3.6094879152
 21
-11.44292275
  0
LINE
  5
4DD
100
AcDbEntity
  8
CURVE
100
AcDbLine
 62
250
  6
CONTINUOUS
 10
-2.5604718064
 20
-11.28409275
 11
-0.610077345
 21
-12.02857575
  0
LINE
  5
4DE
100
AcDbEntity
  8
CURVE
100
AcDbLine
 62
250
  6
CONTINUOUS
 10
7.5975218184
 20
-16.5101115739
 11
8.3403789557
 21
-16.881540162
  0
LINE
  5
4DF
100
AcDbEntity
  8
CURVE
100
AcDbLine
 62
250
  6
CONTINUOUS
 10
8.8975218184
 20
-14.5601116514
 11
8.7118075244
 21
-14.3743974543
  0
LWPOLYLINE
  5
4E0
100
AcDbEntity
  8
CURVE
100
AcDbPolyline
 62
250
  6
CONTINUOUS
 90
61
 70
0
 10
-2.1058671371
 20
-6.0598778913
 10
-2.1252769202
 20
-6.0377375568
 10
-2.1449143469
 20
-6.0161892805
 10
-2.1651228216
 20
-5.9952276031
 10
-2.1857843895
 20
-5.9752349927
 10
-2.2072721191
 20
-5.9559111809
 10
-2.2295309857
 20
-5.9373649677
 10
-2.2525059643
 20
-5.9197051528
 10
-2.2764825998
 20
-5.9027885902
 10
-2.301090165
 20
-5.8868672418
 10
-2.3262796475
 20
-5.8719127395
 10
-2.3520020351
 20
-5.8578967154
 10
-2.378378673
 20
-5.8447166225
 10
-2.4052069492
 20
-5.8324682272
 10
-2.4324484227
 20
-5.8211614815
 10
-2.4600646524
 20
-5.8108063371
 10
-2.4878309704
 20
-5.8014706637
 10
-2.5158971425
 20
-5.7930849223
 10
-2.5442311722
 20
-5.7856502559
 10
-2.5728010628
 20
-5.7791678074
 10
-2.6055679581
 20
-5.7729449524
 10
-2.6385552588
 20
-5.7679326682
 10
-2.6717192357
 20
-5.7641063127
 10
-2.7050161594
 20
-5.7614412439
 10
-2.7384023009
 20
-5.7599128198
 10
-2.7718339307
 20
-5.7594963984
 10
-2.8052673197
 20
-5.7601673377
 10
-2.8344914509
 20
-5.7616337836
 10
-2.8636537562
 20
-5.7639370304
 10
-2.8927245495
 20
-5.7671000726
 10
-2.9216741447
 20
-5.7711459048
 10
-2.9504728556
 20
-5.7760975215
 10
-2.9790909963
 20
-5.7819779172
 10
-3.0074988805
 20
-5.7888100865
 10
-3.0356668221
 20
-5.7966170239
 10
-3.0635846168
 20
-5.8054234521
 10
-3.0911884547
 20
-5.8152186666
 10
-3.1184344321
 20
-5.8259921202
 10
-3.1452786455
 20
-5.8377332658
 10
-3.1716771911
 20
-5.8504315561
 10
-3.1975861655
 20
-5.8640764439
 10
-3.2229616648
 20
-5.878657382
 10
-3.2477597856
 20
-5.8941638232
 10
-3.2719443651
 20
-5.9105842773
 10
-3.29549367
 20
-5.9278921017
 10
-3.3183938503
 20
-5.9460595011
 10
-3.3406310558
 20
-5.9650586805
 10
-3.3621914364
 20
-5.9848618448
 10
-3.3830611421
 20
-6.0054411987
 10
-3.4032263227
 20
-6.0267689473
 10
-3.4226731281
 20
-6.0488172954
 10
-3.4376725094
 20
-6.0669276433
 10
-3.4521515594
 20
-6.0854723051
 10
-3.4660570625
 20
-6.1044436273
 10
-3.4793358031
 20
-6.1238339563
 10
-3.4919345656
 20
-6.1436356387
 10
-3.5038001342
 20
-6.1638410208
 10
-3.5148792935
 20
-6.1844424492
 10
-3.5251188276
 20
-6.2054322703
 10
-3.534465521
 20
-6.2268028305
 10
-3.542866158
 20
-6.2485464765
  0
LINE
  5
4E1
100
AcDbEntity
  8
CURVE
100
AcDbLine
 62
250
  6
CONTINUOUS
 10
0.9457641649
 20
-5.88510975
 11
1.8303427969
 21
-7.00922175
  0
LINE
  5
4E2
100
AcDbEntity
  8
CURVE
100
AcDbLine
 62
250
  6
CONTINUOUS
 10
2.1117043689
 20
-6.67977475
 11
0.9457641649
 21
-5.19812575
  0
LINE
  5
4E3
100
AcDbEntity
  8
ASSI
100
AcDbLine
 62
250
  6
CONTINUOUS
 10
-8.2357957576
 20
21.8780876267
 11
-8.2182803305
 21
21.8296253181
  0
LINE
  5
4E4
100
AcDbEntity
  8
ASSI
100
AcDbLine
 62
250
  6
CONTINUOUS
 10
-7.7989877003
 20
22.0370727576
 11
-7.7780329159
 21
21.9790132005
  0
LINE
  5
4E5
100
AcDbEntity
  8
ASSI
100
AcDbLine
 62
250
  6
CONTINUOUS
 10
-8.2182803305
 20
21.8296253181
 11
-8.202185624
 21
21.7844407253
  0
LINE
  5
4E6
100
AcDbEntity
  8
ASSI
100
AcDbLine
 62
250
  6
CONTINUOUS
 10
-7.7780329159
 20
21.9790132005
 11
-7.7652911227
 21
21.9431810884
  0
LINE
  5
4E7
100
AcDbEntity
  8
ASSI
100
AcDbLine
 62
250
  6
CONTINUOUS
 10
-7.7652911227
 20
21.9431810884
 11
-7.7541573439
 21
21.9114049695
  0
LWPOLYLINE
  5
4E8
100
AcDbEntity
  8
ASSI
100
AcDbPolyline
 62
250
  6
CONTINUOUS
 90
8
 70
0
 10
-8.202185624
 20
21.7844407253
 10
-8.1886001927
 20
21.7455898779
 10
-8.1830440202
 20
21.7293825971
 10
-8.1784428782
 20
21.7157004271
 10
-8.1748748971
 20
21.7047757003
 10
-8.1724006637
 20
21.6967939258
 10
-8.171062192
 20
21.6918906395
 10
-8.1708822103
 20
21.6901491025
  0
LWPOLYLINE
  5
4E9
100
AcDbEntity
  8
ASSI
100
AcDbPolyline
 62
250
  6
CONTINUOUS
 90
8
 70
0
 10
-7.7541573439
 20
21.9114049695
 10
-7.7451274565
 20
21.8850987203
 10
-7.7415397066
 20
21.87439896
 10
-7.7386199305
 20
21.8654839762
 10
-7.7363991272
 20
21.8584499893
 10
-7.734896144
 20
21.8533595459
 10
-7.7341203371
 20
21.8502485222
 10
-7.7340741529
 20
21.8491342335
  0
LWPOLYLINE
  5
4EA
100
AcDbEntity
  8
CURVE
100
AcDbPolyline
 62
250
  6
CONTINUOUS
 90
51
 70
0
 10
3.7080461407
 20
-9.4946303491
 10
3.7084870159
 20
-9.5196576685
 10
3.7098019448
 20
-9.5447293187
 10
3.711979382
 20
-9.5698171065
 10
3.7150077823
 20
-9.5948928391
 10
3.7188756004
 20
-9.6199283235
 10
3.7235712909
 20
-9.6448953667
 10
3.7290833086
 20
-9.6697657758
 10
3.7354001082
 20
-9.6945113577
 10
3.7425101444
 20
-9.7191039196
 10
3.750401872
 20
-9.7435152684
 10
3.7590637455
 20
-9.7677172112
 10
3.7684842198
 20
-9.7916815551
 10
3.7786517495
 20
-9.8153801069
 10
3.7895547893
 20
-9.8387846739
 10
3.801181794
 20
-9.861867063
 10
3.8135212183
 20
-9.8845990813
 10
3.8265615168
 20
-9.9069525357
 10
3.8402911444
 20
-9.9288992334
 10
3.8546985556
 20
-9.9504109813
 10
3.8697722052
 20
-9.9714595865
 10
3.8855005479
 20
-9.992016856
 10
3.9018720385
 20
-10.0120545969
 10
3.9188751316
 20
-10.0315446162
 10
3.9364982819
 20
-10.0504587209
 10
3.9547299441
 20
-10.068768718
 10
3.9735660884
 20
-10.0864591274
 10
3.9929727144
 20
-10.1035095795
 10
4.012922706
 20
-10.119913086
 10
4.033388947
 20
-10.1356626586
 10
4.0543443213
 20
-10.1507513091
 10
4.0757617126
 20
-10.1651720491
 10
4.097614005
 20
-10.1789178906
 10
4.1198740822
 20
-10.1919818451
 10
4.1425148281
 20
-10.2043569245
 10
4.1655091266
 20
-10.2160361404
 10
4.1888298614
 20
-10.2270125047
 10
4.2124499165
 20
-10.237279029
 10
4.2363421756
 20
-10.2468287251
 10
4.2604795228
 20
-10.2556546047
 10
4.2848348417
 20
-10.2637496795
 10
4.3093810163
 20
-10.2711069614
 10
4.3340909304
 20
-10.277719462
 10
4.3589374679
 20
-10.2835801931
 10
4.3838935126
 20
-10.2886821664
 10
4.4089319484
 20
-10.2930183936
 10
4.4340256591
 20
-10.2965818865
 10
4.4591475286
 20
-10.2993656569
 10
4.4842704407
 20
-10.3013627165
 10
4.5093672793
 20
-10.3025660769
 10
4.5344109283
 20
-10.30296875
  0
LWPOLYLINE
  5
4EB
100
AcDbEntity
  8
CURVE
100
AcDbPolyline
 62
250
  6
CONTINUOUS
 90
51
 70
0
 10
3.283080607
 20
-8.784753052
 10
3.2826756468
 20
-8.7598016355
 10
3.2814656303
 20
-8.7347943724
 10
3.2794578539
 20
-8.7097589418
 10
3.2766596141
 20
-8.684723023
 10
3.2730782072
 20
-8.6597142951
 10
3.2687209297
 20
-8.6347604373
 10
3.263595078
 20
-8.6098891288
 10
3.2577079485
 20
-8.5851280487
 10
3.2510668376
 20
-8.5605048762
 10
3.2436790417
 20
-8.5360472905
 10
3.2355518572
 20
-8.5117829708
 10
3.2266925806
 20
-8.4877395962
 10
3.2171085081
 20
-8.4639448459
 10
3.2068069363
 20
-8.4404263991
 10
3.1957951616
 20
-8.4172119349
 10
3.1840804803
 20
-8.3943291326
 10
3.1716701889
 20
-8.3718056713
 10
3.1585715837
 20
-8.3496692302
 10
3.1447919612
 20
-8.3279474884
 10
3.1303386178
 20
-8.3066681252
 10
3.1152188499
 20
-8.2858588196
 10
3.0994399539
 20
-8.2655472509
 10
3.0830092262
 20
-8.2457610983
 10
3.0659339632
 20
-8.2265280409
 10
3.0482214613
 20
-8.2078757579
 10
3.0298911418
 20
-8.1898371908
 10
3.0109597898
 20
-8.1724165853
 10
2.9914557337
 20
-8.1556240115
 10
2.9714073016
 20
-8.1394695396
 10
2.9508428218
 20
-8.1239632395
 10
2.9297906224
 20
-8.1091151815
 10
2.9082790317
 20
-8.0949354355
 10
2.886336378
 20
-8.0814340716
 10
2.8639909893
 20
-8.06862116
 10
2.8412711939
 20
-8.0565067708
 10
2.8182053201
 20
-8.045100974
 10
2.794821696
 20
-8.0344138397
 10
2.7711486499
 20
-8.024455438
 10
2.7472145099
 20
-8.015235839
 10
2.7230476043
 20
-8.0067651128
 10
2.6986762613
 20
-7.9990533294
 10
2.6741288091
 20
-7.992110559
 10
2.6494335759
 20
-7.9859468717
 10
2.6246188899
 20
-7.9805723375
 10
2.5997130793
 20
-7.9759970265
 10
2.5747444724
 20
-7.9722310089
 10
2.5497413973
 20
-7.9692843546
 10
2.5247321824
 20
-7.9671671338
 10
2.4997451556
 20
-7.9658894166
 10
2.4748086454
 20
-7.9654612731
  0
LWPOLYLINE
  5
4EC
100
AcDbEntity
  8
CURVE
100
AcDbPolyline
 62
250
  6
CONTINUOUS
 90
51
 70
0
 10
3.7080193974
 20
-6.7211868897
 10
3.7084243605
 20
-6.7461381973
 10
3.7096343851
 20
-6.7711453545
 10
3.7116421744
 20
-6.7961806816
 10
3.7144404317
 20
-6.8212164986
 10
3.7180218603
 20
-6.8462251258
 10
3.7223791632
 20
-6.8711788833
 10
3.7275050438
 20
-6.8960500914
 10
3.7333922052
 20
-6.9208110701
 10
3.7400333508
 20
-6.9454341397
 10
3.7474211836
 20
-6.9698916203
 10
3.7555484069
 20
-6.9941558321
 10
3.764407724
 20
-7.0181990953
 10
3.773991838
 20
-7.0419937301
 10
3.7842934522
 20
-7.0655120566
 10
3.7953052698
 20
-7.0887263951
 10
3.8070199939
 20
-7.1116090656
 10
3.8194303279
 20
-7.1341323884
 10
3.832528975
 20
-7.1562686836
 10
3.8463086383
 20
-7.1779902714
 10
3.8607620211
 20
-7.199269472
 10
3.8758818266
 20
-7.2200786056
 10
3.891660758
 20
-7.2403899923
 10
3.9080915185
 20
-7.2601759524
 10
3.9251668114
 20
-7.2794088059
 10
3.9428793399
 20
-7.2980608731
 10
3.9612096852
 20
-7.3160992149
 10
3.9801410592
 20
-7.3335195841
 10
3.9996451336
 20
-7.3503119122
 10
4.01969358
 20
-7.3664661309
 10
4.04025807
 20
-7.3819721719
 10
4.0613102754
 20
-7.3968199667
 10
4.0828218677
 20
-7.410999447
 10
4.1047645185
 20
-7.4245005445
 10
4.1271098995
 20
-7.4373131908
 10
4.1498296824
 20
-7.4494273174
 10
4.1728955387
 20
-7.4608328561
 10
4.1962791402
 20
-7.4715197384
 10
4.2199521584
 20
-7.4814778961
 10
4.2438862649
 20
-7.4906972607
 10
4.2680531315
 20
-7.4991677638
 10
4.2924244298
 20
-7.5068793372
 10
4.3169718314
 20
-7.5138219124
 10
4.3416670079
 20
-7.519985421
 10
4.3664816309
 20
-7.5253597948
 10
4.3913873722
 20
-7.5299349653
 10
4.4163559033
 20
-7.5337008642
 10
4.441358896
 20
-7.536647423
 10
4.4663680217
 20
-7.5387645735
 10
4.4913549522
 20
-7.5400422473
 10
4.5162913591
 20
-7.540470376
  0
LINE
  5
4ED
100
AcDbEntity
  8
DRAFT
100
AcDbLine
 62
7
  6
CONTINUOUS
 10
3.1975218184
 20
-22.9305357473
 11
3.1975218184
 21
-22.9183455524
  0
LINE
  5
4EE
100
AcDbEntity
  8
ASSI
100
AcDbLine
 62
7
  6
CONTINUOUS
 10
3.1975218184
 20
-22.9305357473
 11
3.1975218184
 21
-22.9183455524
  0
LINE
  5
4EF
100
AcDbEntity
  8
DRAFT
100
AcDbLine
 62
7
  6
CONTINUOUS
 10
3.1975218184
 20
20.4124080524
 11
3.1975218184
 21
20.4245982473
  0
LINE
  5
4F0
100
AcDbEntity
  8
ASSI
100
AcDbLine
 62
7
  6
CONTINUOUS
 10
3.1975218184
 20
20.4124080524
 11
3.1975218184
 21
20.4245982473
  0
LINE
  5
4F1
100
AcDbEntity
  8
CURVE
100
AcDbLine
 62
250
  6
CONTINUOUS
 10
3.2142034046
 20
-14.47374675
 11
3.2142034046
 21
-15.02944075
  0
LINE
  5
4F2
100
AcDbEntity
  8
CURVE
100
AcDbLine
 62
250
  6
CONTINUOUS
 10
3.2142034046
 20
-16.14048375
 11
3.2142034046
 21
-16.69617775
  0
LINE
  5
4F3
100
AcDbEntity
  8
CURVE
100
AcDbLine
 62
250
  6
CONTINUOUS
 10
3.283080159
 20
-5.88518375
 11
3.283080159
 21
-5.20105475
  0
LINE
  5
4F4
100
AcDbEntity
  8
CURVE
100
AcDbLine
 62
250
  6
CONTINUOUS
 10
3.283080607
 20
-8.784753052
 11
3.283080607
 21
-9.4836754431
  0
LINE
  5
4F5
100
AcDbEntity
  8
CURVE
100
AcDbLine
 62
250
  6
CONTINUOUS
 10
3.2830851587
 20
-7.54047075
 11
3.2830851587
 21
-7.00922175
  0
LINE
  5
4F6
100
AcDbEntity
  8
ASSI
100
AcDbLine
 62
250
  6
CONTINUOUS
 10
3.3325413178
 20
-23.7336125406
 11
3.3325413178
 21
-22.8555639246
  0
LINE
  5
4F7
100
AcDbEntity
  8
ASSI
100
AcDbLine
 62
250
  6
CONTINUOUS
 10
3.3325413178
 20
20.3496264246
 11
3.3325413178
 21
21.2276750406
  0
LINE
  5
4F8
100
AcDbEntity
  8
ASSI
100
AcDbLine
 62
250
  6
CONTINUOUS
 10
3.4604854546
 20
-23.7123818532
 11
3.4604854546
 21
-22.8533306513
  0
LINE
  5
4F9
100
AcDbEntity
  8
ASSI
100
AcDbLine
 62
250
  6
CONTINUOUS
 10
3.4604854546
 20
20.3473931513
 11
3.4604854546
 21
21.2064443532
  0
LINE
  5
4FA
100
AcDbEntity
  8
CURVE
100
AcDbLine
 62
250
  6
CONTINUOUS
 10
3.7080193974
 20
-6.0222615562
 11
3.7080193974
 21
-6.7211868897
  0
LINE
  5
4FB
100
AcDbEntity
  8
CURVE
100
AcDbLine
 62
250
  6
CONTINUOUS
 10
3.7080461407
 20
-9.4946303491
 11
3.7080461407
 21
-7.9654612731
  0
LINE
  5
4FC
100
AcDbEntity
  8
CURVE
100
AcDbLine
 62
250
  6
CONTINUOUS
 10
3.7698550871
 20
-14.47374675
 11
3.7698550871
 21
-15.02944075
  0
LINE
  5
4FD
100
AcDbEntity
  8
CURVE
100
AcDbLine
 62
250
  6
CONTINUOUS
 10
3.7698550871
 20
-16.69617775
 11
3.7698550871
 21
-16.14048375
  0
LINE
  5
4FE
100
AcDbEntity
  8
CURVE
100
AcDbLine
 62
250
  6
CONTINUOUS
 10
4.2392271535
 20
-6.7140442408
 11
4.2392271535
 21
-6.0294040312
  0
LINE
  5
4FF
100
AcDbEntity
  8
CURVE
100
AcDbLine
 62
250
  6
CONTINUOUS
 10
4.2392556573
 20
-7.9654612731
 11
4.2392556573
 21
-9.4874900223
  0
LINE
  5
500
100
AcDbEntity
  8
RACCORDO
100
AcDbLine
 62
7
  6
CONTINUOUS
 10
4.2934759354
 20
20.0828913246
 11
4.2934759354
 21
19.7204188888
  0
LINE
  5
501
100
AcDbEntity
  8
RACCORDO
100
AcDbLine
 62
7
  6
CONTINUOUS
 10
4.2934759354
 20
-22.2263563888
 11
4.2934759354
 21
-22.5888288246
  0
LINE
  5
502
100
AcDbEntity
  8
DRAFT
100
AcDbLine
 62
7
  6
CONTINUOUS
 10
4.8975218184
 20
20.3214268709
 11
4.8975218184
 21
18.9058119284
  0
LINE
  5
503
100
AcDbEntity
  8
DRAFT
100
AcDbLine
 62
7
  6
CONTINUOUS
 10
4.8975218184
 20
-21.00296875
 11
4.8975218184
 21
-20.7402440746
  0
LINE
  5
504
100
AcDbEntity
  8
ASSI
100
AcDbLine
 62
7
  6
CONTINUOUS
 10
4.8975218184
 20
-21.00296875
 11
4.8975218184
 21
-20.7402440746
  0
LINE
  5
505
100
AcDbEntity
  8
DRAFT
100
AcDbLine
 62
7
  6
CONTINUOUS
 10
4.8975218184
 20
-21.4117494284
 11
4.8975218184
 21
-22.8273643709
  0
LINE
  5
506
100
AcDbEntity
  8
ASSI
100
AcDbLine
 62
7
  6
CONTINUOUS
 10
4.8975218184
 20
-22.8273643709
 11
4.8975218184
 21
-23.50296875
  0
LINE
  5
507
100
AcDbEntity
  8
DRAFT
100
AcDbLine
 62
7
  6
CONTINUOUS
 10
4.8975218184
 20
18.2343065746
 11
4.8975218184
 21
18.49703125
  0
LINE
  5
508
100
AcDbEntity
  8
ASSI
100
AcDbLine
 62
7
  6
CONTINUOUS
 10
4.8975218184
 20
18.2343065746
 11
4.8975218184
 21
18.49703125
  0
LINE
  5
509
100
AcDbEntity
  8
ASSI
100
AcDbLine
 62
7
  6
CONTINUOUS
 10
4.8975218184
 20
20.3223095883
 11
4.8975218184
 21
20.99703125
  0
LINE
  5
50A
100
AcDbEntity
  8
CURVE
100
AcDbLine
 62
250
  6
CONTINUOUS
 10
4.9829180119
 20
-5.7342262818
 11
4.9829180119
 21
-7.0092219903
  0
LINE
  5
50B
100
AcDbEntity
  8
CURVE
100
AcDbLine
 62
250
  6
CONTINUOUS
 10
5.4362931742
 20
-12.25165975
 11
5.4362931742
 21
-12.80735375
  0
LINE
  5
50C
100
AcDbEntity
  8
CURVE
100
AcDbLine
 62
250
  6
CONTINUOUS
 10
5.4362931742
 20
-16.14048375
 11
5.4362931742
 21
-16.69617775
  0
LINE
  5
50D
100
AcDbEntity
  8
CURVE
100
AcDbLine
 62
250
  6
CONTINUOUS
 10
5.5141257679
 20
-7.0092219903
 11
5.5141257679
 21
-5.7342262818
  0
LINE
  5
50E
100
AcDbEntity
  8
CURVE
100
AcDbLine
 62
250
  6
CONTINUOUS
 10
5.5141542718
 20
-9.4874900223
 11
5.5141542718
 21
-7.9654612731
  0
LWPOLYLINE
  5
50F
100
AcDbEntity
  8
CURVE
100
AcDbPolyline
 62
250
  6
CONTINUOUS
 90
33
 70
0
 10
4.9954433899
 20
-0.2529687508
 10
4.9949288019
 20
-0.2959736206
 10
4.9933919741
 20
-0.3390940166
 10
4.9908433104
 20
-0.3823010999
 10
4.987293215
 20
-0.4255660318
 10
4.9827520918
 20
-0.4688599735
 10
4.9772303449
 20
-0.5121540863
 10
4.9707383784
 20
-0.5554195314
 10
4.9632865963
 20
-0.5986274701
 10
4.9548854027
 20
-0.6417490635
 10
4.9455452016
 20
-0.684755473
 10
4.935276397
 20
-0.7276178597
 10
4.9240893931
 20
-0.7703073849
 10
4.9119945938
 20
-0.8127952099
 10
4.8990024033
 20
-0.8550524958
 10
4.8851232255
 20
-0.897050404
 10
4.8703674645
 20
-0.9387600956
 10
4.8547455244
 20
-0.980152732
 10
4.8382678092
 20
-1.0211994743
 10
4.820944723
 20
-1.0618714837
 10
4.8027866698
 20
-1.1021399216
 10
4.7838040536
 20
-1.1419759491
 10
4.7640072786
 20
-1.1813507276
 10
4.7434067487
 20
-1.2202354182
 10
4.722012868
 20
-1.2586011821
 10
4.6998360406
 20
-1.2964191807
 10
4.6768866705
 20
-1.3336605751
 10
4.6531751618
 20
-1.3702965266
 10
4.6287119185
 20
-1.4062981965
 10
4.6035073446
 20
-1.4416367459
 10
4.5775718443
 20
-1.4762833361
 10
4.5509158215
 20
-1.5102091284
 10
4.5235496803
 20
-1.543385284
  0
LWPOLYLINE
  5
510
100
AcDbEntity
  8
CURVE
100
AcDbPolyline
 62
250
  6
CONTINUOUS
 90
51
 70
0
 10
2.7518739405
 20
-9.4765351163
 10
2.751737023
 20
-9.4854218831
 10
2.7513274308
 20
-9.4943298131
 10
2.7506469042
 20
-9.5032492978
 10
2.7496971837
 20
-9.5121707285
 10
2.7484800096
 20
-9.5210844967
 10
2.7469971223
 20
-9.5299809938
 10
2.7452502622
 20
-9.5388506111
 10
2.7432411696
 20
-9.54768374
 10
2.740971585
 20
-9.556470772
 10
2.7384432486
 20
-9.5652020984
 10
2.735657901
 20
-9.5738681106
 10
2.7326172824
 20
-9.5824592001
 10
2.7293231332
 20
-9.5909657582
 10
2.7257771939
 20
-9.5993781764
 10
2.7219812048
 20
-9.6076868459
 10
2.7179369062
 20
-9.6158821583
 10
2.7136460386
 20
-9.6239545049
 10
2.7091103424
 20
-9.6318942771
 10
2.7043315578
 20
-9.6396918664
 10
2.6993114254
 20
-9.647337664
 10
2.6940516854
 20
-9.6548220614
 10
2.6885540782
 20
-9.6621354501
 10
2.6828203443
 20
-9.6692682213
 10
2.676852224
 20
-9.6762107665
 10
2.6706514577
 20
-9.6829534772
 10
2.6642293536
 20
-9.6894795921
 10
2.6575871753
 20
-9.6957922784
 10
2.6507351799
 20
-9.7018870295
 10
2.6436836243
 20
-9.707759339
 10
2.6364427657
 20
-9.7134047004
 10
2.6290228611
 20
-9.7188186072
 10
2.6214341675
 20
-9.723996553
 10
2.613686942
 20
-9.7289340314
 10
2.6057914416
 20
-9.7336265357
 10
2.5977579234
 20
-9.7380695596
 10
2.5895966444
 20
-9.7422585966
 10
2.5813178617
 20
-9.7461891402
 10
2.5729318323
 20
-9.749856684
 10
2.5644488133
 20
-9.7532567214
 10
2.5558790617
 20
-9.7563847461
 10
2.5472328346
 20
-9.7592362515
 10
2.5385203889
 20
-9.7618067311
 10
2.5297519818
 20
-9.7640916786
 10
2.5209378704
 20
-9.7660865874
 10
2.5120883115
 20
-9.7677869511
 10
2.5032135624
 20
-9.7691882631
 10
2.49432388
 20
-9.7702860171
 10
2.4854295214
 20
-9.7710757065
 10
2.4765407436
 20
-9.7715528249
 10
2.4676678037
 20
-9.7717128658
  0
LWPOLYLINE
  5
511
100
AcDbEntity
  8
CURVE
100
AcDbPolyline
 62
250
  6
CONTINUOUS
 90
51
 70
0
 10
4.2392271535
 20
-6.0294040312
 10
4.239364075
 20
-6.0205172897
 10
4.2397736788
 20
-6.0116093902
 10
4.2404542239
 20
-6.0026899407
 10
4.2414039692
 20
-5.9937685493
 10
4.2426211737
 20
-5.9848548241
 10
4.2441040965
 20
-5.9759583731
 10
4.2458509963
 20
-5.9670888044
 10
4.2478601323
 20
-5.958255726
 10
4.2501297633
 20
-5.949468746
 10
4.2526581484
 20
-5.9407374724
 10
4.2554435465
 20
-5.9320715132
 10
4.2584842165
 20
-5.9234804766
 10
4.2617784175
 20
-5.9149739706
 10
4.2653244083
 20
-5.9065616032
 10
4.2691204481
 20
-5.8982529824
 10
4.2731647957
 20
-5.8900577164
 10
4.27745571
 20
-5.8819854132
 10
4.2819914502
 20
-5.8740456808
 10
4.286770275
 20
-5.8662481273
 10
4.2917904436
 20
-5.8586023608
 10
4.2970502148
 20
-5.8511179892
 10
4.3025478476
 20
-5.8438046207
 10
4.3082816011
 20
-5.8366718632
 10
4.314249734
 20
-5.8297293249
 10
4.3204505055
 20
-5.8229866138
 10
4.326872611
 20
-5.8164604865
 10
4.3335147834
 20
-5.8101477809
 10
4.3403667662
 20
-5.804053004
 10
4.347418303
 20
-5.798180663
 10
4.3546591372
 20
-5.792535265
 10
4.3620790124
 20
-5.787121317
 10
4.369667672
 20
-5.7819433263
 10
4.3774148596
 20
-5.7770057999
 10
4.3853103187
 20
-5.7723132449
 10
4.3933437928
 20
-5.7678701684
 10
4.4015050254
 20
-5.7636810776
 10
4.40978376
 20
-5.7597504795
 10
4.4181697401
 20
-5.7560828813
 10
4.4266527093
 20
-5.7526827901
 10
4.435222411
 20
-5.749554713
 10
4.4438685888
 20
-5.7467031571
 10
4.4525809861
 20
-5.7441326295
 10
4.4613493465
 20
-5.7418476373
 10
4.4701634135
 20
-5.7398526877
 10
4.4790129306
 20
-5.7381522878
 10
4.4878876412
 20
-5.7367509446
 10
4.496777289
 20
-5.7356531653
 10
4.5056716174
 20
-5.734863457
 10
4.51456037
 20
-5.7343863268
 10
4.5234332902
 20
-5.7342262818
  0
LWPOLYLINE
  5
512
100
AcDbEntity
  8
CURVE
100
AcDbPolyline
 62
250
  6
CONTINUOUS
 90
51
 70
0
 10
5.5141542718
 20
-9.4874900223
 10
5.5139942458
 20
-9.4963635014
 10
5.513517171
 20
-9.505252827
 10
5.5127275521
 20
-9.5141477411
 10
5.5116298937
 20
-9.5230379856
 10
5.5102287005
 20
-9.5319133025
 10
5.5085284772
 20
-9.5407634337
 10
5.5065337285
 20
-9.5495781211
 10
5.5042489591
 20
-9.5583471068
 10
5.5016786736
 20
-9.5670601326
 10
5.4988273767
 20
-9.5757069404
 10
5.4956995732
 20
-9.5842772723
 10
5.4922997676
 20
-9.5927608702
 10
5.4886324646
 20
-9.601147476
 10
5.4847021691
 20
-9.6094268316
 10
5.4805133855
 20
-9.617588679
 10
5.4760706187
 20
-9.6256227602
 10
5.4713783732
 20
-9.633518817
 10
5.4664411538
 20
-9.6412665915
 10
5.4612634651
 20
-9.6488558255
 10
5.4558498119
 20
-9.6562762611
 10
5.4502046988
 20
-9.6635176401
 10
5.4443326305
 20
-9.6705697044
 10
5.4382381116
 20
-9.6774221961
 10
5.4319256469
 20
-9.6840648571
 10
5.425399741
 20
-9.6904874293
 10
5.4186575973
 20
-9.6966883185
 10
5.4117156269
 20
-9.7026565699
 10
5.404583438
 20
-9.708390442
 10
5.3972706386
 20
-9.7138881934
 10
5.3897868369
 20
-9.7191480826
 10
5.382141641
 20
-9.724168368
 10
5.374344659
 20
-9.7289473082
 10
5.3664054991
 20
-9.7334831615
 10
5.3583337693
 20
-9.7377741866
 10
5.3501390778
 20
-9.7418186418
 10
5.3418310327
 20
-9.7456147858
 10
5.3334192422
 20
-9.7491608769
 10
5.3249133142
 20
-9.7524551736
 10
5.3163228571
 20
-9.7554959345
 10
5.3076574788
 20
-9.7582814181
 10
5.2989267875
 20
-9.7608098827
 10
5.2901403913
 20
-9.763079587
 10
5.2813078983
 20
-9.7650887894
 10
5.2724389167
 20
-9.7668357483
 10
5.2635430546
 20
-9.7683187224
 10
5.2546299201
 20
-9.76953597
 10
5.2457091213
 20
-9.7704857496
 10
5.2367902663
 20
-9.7711663198
 10
5.2278829633
 20
-9.771575939
 10
5.2189968204
 20
-9.7717128658
  0
LWPOLYLINE
  5
513
100
AcDbEntity
  8
DRAFT
100
AcDbPolyline
 62
7
  6
CONTINUOUS
 90
27
 70
0
 10
3.1975218184
 20
-22.9182733913
 10
3.1997483102
 20
-22.834247394
 10
3.2063679696
 20
-22.7504295872
 10
3.2172851258
 20
-22.6668199709
 10
3.2323474222
 20
-22.5834795927
 10
3.2514701816
 20
-22.5003474052
 10
3.2747561383
 20
-22.4172402653
 10
3.3021918672
 20
-22.3341237027
 10
3.3337490081
 20
-22.2510321879
 10
3.3697018751
 20
-22.1678859896
 10
3.4100958259
 20
-22.0846281285
 10
3.4549810346
 20
-22.0013155839
 10
3.5048258288
 20
-21.9180395628
 10
3.5598976753
 20
-21.8344823788
 10
3.6201720586
 20
-21.7509617182
 10
3.6857638346
 20
-21.6685218467
 10
3.7567468535
 20
-21.5870674738
 10
3.8331572713
 20
-21.50669389
 10
3.9150256924
 20
-21.4287312323
 10
4.002153017
 20
-21.3532069676
 10
4.0946716982
 20
-21.2800936291
 10
4.1931396027
 20
-21.2106389522
 10
4.2979636588
 20
-21.1444997908
 10
4.4086351122
 20
-21.0820192911
 10
4.5242766128
 20
-21.0254746276
 10
4.6443875303
 20
-20.9756248586
 10
4.7689147462
 20
-20.9317109259
  0
LWPOLYLINE
  5
514
100
AcDbEntity
  8
ASSI
100
AcDbPolyline
 62
7
  6
CONTINUOUS
 90
27
 70
0
 10
3.1975218184
 20
-22.9182733913
 10
3.1997483102
 20
-22.834247394
 10
3.2063679696
 20
-22.7504295872
 10
3.2172851258
 20
-22.6668199709
 10
3.2323474222
 20
-22.5834795927
 10
3.2514701816
 20
-22.5003474052
 10
3.2747561383
 20
-22.4172402653
 10
3.3021918672
 20
-22.3341237027
 10
3.3337490081
 20
-22.2510321879
 10
3.3697018751
 20
-22.1678859896
 10
3.4100958259
 20
-22.0846281285
 10
3.4549810346
 20
-22.0013155839
 10
3.5048258288
 20
-21.9180395628
 10
3.5598976753
 20
-21.8344823788
 10
3.6201720586
 20
-21.7509617182
 10
3.6857638346
 20
-21.6685218467
 10
3.7567468535
 20
-21.5870674738
 10
3.8331572713
 20
-21.50669389
 10
3.9150256924
 20
-21.4287312323
 10
4.002153017
 20
-21.3532069676
 10
4.0946716982
 20
-21.2800936291
 10
4.1931396027
 20
-21.2106389522
 10
4.2979636588
 20
-21.1444997908
 10
4.4086351122
 20
-21.0820192911
 10
4.5242766128
 20
-21.0254746276
 10
4.6443875303
 20
-20.9756248586
 10
4.7689147462
 20
-20.9317109259
  0
LWPOLYLINE
  5
515
100
AcDbEntity
  8
RACCORDO
100
AcDbPolyline
 62
7
  6
CONTINUOUS
 90
22
 70
0
 10
4.2934759354
 20
19.7204188888
 10
4.292416471
 20
19.7040159675
 10
4.2895723873
 20
19.6877384975
 10
4.2849444858
 20
19.6716561209
 10
4.2784213298
 20
19.6558180959
 10
4.2701157242
 20
19.6403110006
 10
4.2603644205
 20
19.6252543971
 10
4.2491579471
 20
19.6107369169
 10
4.2365058281
 20
19.5967796378
 10
4.222773046
 20
19.5833949485
 10
4.2079911938
 20
19.5706494561
 10
4.1921284801
 20
19.5585713877
 10
4.1754552775
 20
19.5471262884
 10
4.158065019
 20
19.5364072723
 10
4.1398642873
 20
19.5264201053
 10
4.120844716
 20
19.5170506484
 10
4.1009785274
 20
19.5083796039
 10
4.080295606
 20
19.5005183594
 10
4.0588760288
 20
19.4934814994
 10
4.0367478476
 20
19.4873860398
 10
4.0138860324
 20
19.4824083927
 10
3.9902915937
 20
19.4786950495
  0
LWPOLYLINE
  5
516
100
AcDbEntity
  8
ASSI
100
AcDbPolyline
 62
7
  6
CONTINUOUS
 90
28
 70
0
 10
4.2934759354
 20
20.0828913246
 10
4.294729303
 20
20.1010920394
 10
4.2982217194
 20
20.1189944652
 10
4.3039524085
 20
20.1365086366
 10
4.3120493457
 20
20.1536309047
 10
4.3223833308
 20
20.1701991979
 10
4.3345693217
 20
20.1859124919
 10
4.3486034542
 20
20.2006606622
 10
4.3644924399
 20
20.2144861567
 10
4.3818686968
 20
20.2273546566
 10
4.4007539276
 20
20.2392691939
 10
4.4211300052
 20
20.2502242991
 10
4.4425701209
 20
20.2601969392
 10
4.4649312084
 20
20.2691715617
 10
4.4883608492
 20
20.2772304689
 10
4.5128678775
 20
20.2844962255
 10
4.5384276523
 20
20.2910089692
 10
4.5650677683
 20
20.2967795662
 10
4.5928745818
 20
20.3018656096
 10
4.6218684771
 20
20.3063045401
 10
4.6520314344
 20
20.310109483
 10
4.6833920298
 20
20.313300154
 10
4.7159349076
 20
20.3159138683
 10
4.7496777806
 20
20.3179812884
 10
4.7846990064
 20
20.3195245235
 10
4.821025551
 20
20.3205826218
 10
4.8586328059
 20
20.3212029522
 10
4.8975218184
 20
20.3214268709
  0
LWPOLYLINE
  5
517
100
AcDbEntity
  8
ASSI
100
AcDbPolyline
 62
250
  6
CONTINUOUS
 90
8
 70
0
 10
-2.9531758069
 20
-24.50296875
 10
-2.9527437452
 20
-24.5014423424
 10
-2.9523182776
 20
-24.4968864049
 10
-2.9519058986
 20
-24.4893704597
 10
-2.9515129032
 20
-24.4790092173
 10
-2.95114529
 20
-24.465960813
 10
-2.9508086701
 20
-24.4504243813
 10
-2.9502484135
 20
-24.4128703086
  0
LWPOLYLINE
  5
518
100
AcDbEntity
  8
ASSI
100
AcDbPolyline
 62
250
  6
CONTINUOUS
 90
13
 70
0
 10
-3.5142805094
 20
-24.4168946653
 10
-3.5102547277
 20
-24.4045659233
 10
-3.5067210159
 20
-24.3924749954
 10
-3.503679374
 20
-24.3806218814
 10
-3.5011616006
 20
-24.3689939856
 10
-3.4991358972
 20
-24.3576039038
 10
-3.4975068681
 20
-24.3464894232
 10
-3.496271121
 20
-24.335667787
 10
-3.4954320483
 20
-24.325121752
 10
-3.4949044318
 20
-24.3148373757
 10
-3.4946598654
 20
-24.3048100106
 10
-3.4947267552
 20
-24.2950443041
 10
-3.4951051012
 20
-24.2855402563
  0
LWPOLYLINE
  5
519
100
AcDbEntity
  8
ASSI
100
AcDbPolyline
 62
250
  6
CONTINUOUS
 90
13
 70
0
 10
-3.6756953641
 20
-24.3686462072
 10
-3.6735484309
 20
-24.3624975997
 10
-3.6716944702
 20
-24.356448549
 10
-3.6701224891
 20
-24.3505095649
 10
-3.6688283039
 20
-24.3446915236
 10
-3.6677937091
 20
-24.3390016196
 10
-3.6669867747
 20
-24.3334433335
 10
-3.6663954223
 20
-24.3280294981
 10
-3.6660096474
 20
-24.3227599716
 10
-3.6658024519
 20
-24.317617309
 10
-3.6657594488
 20
-24.3125983305
 10
-3.6658772579
 20
-24.3077143803
 10
-3.6661470692
 20
-24.30296875
  0
LWPOLYLINE
  5
51A
100
AcDbEntity
  8
CURVE
100
AcDbPolyline
 62
250
  6
CONTINUOUS
 90
37
 70
0
 10
1.928722874
 20
0.7190043981
 10
1.9055137377
 20
0.6936869407
 10
1.8827740073
 20
0.6679673725
 10
1.8605118283
 20
0.6418404423
 10
1.8387353459
 20
0.6153008987
 10
1.8174527057
 20
0.5883434903
 10
1.7966720528
 20
0.5609629659
 10
1.7764015326
 20
0.533154074
 10
1.7566492906
 20
0.5049115634
 10
1.737423472
 20
0.4762301827
 10
1.7187322223
 20
0.4471046805
 10
1.7005836867
 20
0.4175298055
 10
1.6861854062
 20
0.393064351
 10
1.6721711986
 20
0.368308509
 10
1.6585583951
 20
0.3432745639
 10
1.6453643269
 20
0.3179748002
 10
1.6326063251
 20
0.2924215021
 10
1.620301721
 20
0.2666269541
 10
1.6084678458
 20
0.2406034404
 10
1.5971220306
 20
0.2143632455
 10
1.5862816066
 20
0.1879186538
 10
1.5759639051
 20
0.1612819495
 10
1.5661862572
 20
0.134465417
 10
1.556965994
 20
0.1074813408
 10
1.5483204469
 20
0.0803420051
 10
1.540266947
 20
0.0530596943
 10
1.5328228255
 20
0.0256466929
 10
1.5260054135
 20
-0.0018847149
 10
1.5198320423
 20
-0.0295222447
 10
1.514320043
 20
-0.0572536121
 10
1.5094867469
 20
-0.0850665327
 10
1.5053494852
 20
-0.1129487223
 10
1.5019255889
 20
-0.1408878964
 10
1.4992323894
 20
-0.1688717706
 10
1.4972872178
 20
-0.1968880607
 10
1.4961074053
 20
-0.2249244822
 10
1.4957102831
 20
-0.2529687508
  0
LINE
  5
51B
100
AcDbEntity
  8
CURVE
100
AcDbLine
 62
250
  6
CONTINUOUS
 10
7.5975218184
 20
-17.25296875
 11
8.8975218184
 21
-17.25296875
  0
LINE
  5
51C
100
AcDbEntity
  8
CURVE
100
AcDbLine
 62
250
  6
CONTINUOUS
 10
0.9922856219
 20
-17.25152675
 11
5.9919448567
 21
-17.25152675
  0
LINE
  5
51D
100
AcDbEntity
  8
CURVE
100
AcDbLine
 62
250
  6
CONTINUOUS
 10
5.4362931742
 20
-16.69617775
 11
3.7698550871
 21
-16.69617775
  0
LINE
  5
51E
100
AcDbEntity
  8
CURVE
100
AcDbLine
 62
250
  6
CONTINUOUS
 10
3.2142034046
 20
-16.69617775
 11
1.5477653175
 21
-16.69617775
  0
LINE
  5
51F
100
AcDbEntity
  8
CURVE
100
AcDbLine
 62
250
  6
CONTINUOUS
 10
8.8975218184
 20
-16.5101115739
 11
7.5975218184
 21
-16.5101115739
  0
LINE
  5
520
100
AcDbEntity
  8
CURVE
100
AcDbLine
 62
250
  6
CONTINUOUS
 10
5.9919448567
 20
-16.14048375
 11
5.4362931742
 21
-16.14048375
  0
LINE
  5
521
100
AcDbEntity
  8
CURVE
100
AcDbLine
 62
250
  6
CONTINUOUS
 10
3.7698550871
 20
-16.14048375
 11
3.2142034046
 21
-16.14048375
  0
LINE
  5
522
100
AcDbEntity
  8
CURVE
100
AcDbLine
 62
250
  6
CONTINUOUS
 10
1.5477653175
 20
-16.14048375
 11
0.9922856219
 21
-16.14048375
  0
LINE
  5
523
100
AcDbEntity
  8
CURVE
100
AcDbLine
 62
250
  6
CONTINUOUS
 10
5.9919448567
 20
-15.58513475
 11
0.9922856219
 21
-15.58513475
  0
LINE
  5
524
100
AcDbEntity
  8
0
100
AcDbLine
 62
7
  6
CONTINUOUS
 10
9.8975218184
 20
-15.5031085989
 11
10.0975218184
 21
-15.5031085989
  0
LINE
  5
525
100
AcDbEntity
  8
ASSI
100
AcDbLine
 62
7
  6
CONTINUOUS
 10
9.8975218184
 20
-15.5031085989
 11
10.0975218184
 21
-15.5031085989
  0
LINE
  5
526
100
AcDbEntity
  8
CURVE
100
AcDbLine
 62
250
  6
CONTINUOUS
 10
-0.610077345
 20
-10.44459475
 11
-3.6094879152
 21
-9.50371675
  0
LINE
  5
527
100
AcDbEntity
  8
CURVE
100
AcDbLine
 62
250
  6
CONTINUOUS
 10
5.9919448567
 20
-13.91839775
 11
5.9919448567
 21
-14.47374675
  0
LINE
  5
528
100
AcDbEntity
  8
CURVE
100
AcDbLine
 62
250
  6
CONTINUOUS
 10
5.9919448567
 20
-15.02944075
 11
5.9919448567
 21
-15.58513475
  0
LINE
  5
529
100
AcDbEntity
  8
CURVE
100
AcDbLine
 62
250
  6
CONTINUOUS
 10
5.9919448567
 20
-17.25152675
 11
5.9919448567
 21
-16.14048375
  0
LINE
  5
52A
100
AcDbEntity
  8
CURVE
100
AcDbLine
 62
250
  6
CONTINUOUS
 10
5.9919448567
 20
-13.36270375
 11
5.9919448567
 21
-12.25165975
  0
LINE
  5
52B
100
AcDbEntity
  8
CURVE
100
AcDbLine
 62
250
  6
CONTINUOUS
 10
5.995367596
 20
-3.25296875
 11
5.995367596
 21
-2.252969468
  0
LINE
  5
52C
100
AcDbEntity
  8
CURVE
100
AcDbLine
 62
250
  6
CONTINUOUS
 10
6.0453637884
 20
-7.9654612731
 11
6.0453637884
 21
-9.4946303491
  0
LINE
  5
52D
100
AcDbEntity
  8
CURVE
100
AcDbLine
 62
250
  6
CONTINUOUS
 10
6.0453637884
 20
-7.540470376
 11
6.0453637884
 21
-7.0092219903
  0
LINE
  5
52E
100
AcDbEntity
  8
CURVE
100
AcDbLine
 62
250
  6
CONTINUOUS
 10
6.0453637884
 20
-5.7342262818
 11
6.0453637884
 21
-5.20297807
  0
LINE
  5
52F
100
AcDbEntity
  8
CURVE
100
AcDbLine
 62
250
  6
CONTINUOUS
 10
7.5975218184
 20
-7.4410642242
 11
7.5975218184
 21
-8.1839210129
  0
LINE
  5
530
100
AcDbEntity
  8
CURVE
100
AcDbLine
 62
250
  6
CONTINUOUS
 10
7.5975218184
 20
-13.2910639143
 11
7.5975218184
 21
-13.8482068157
  0
LINE
  5
531
100
AcDbEntity
  8
CURVE
100
AcDbLine
 62
250
  6
CONTINUOUS
 10
7.5975218184
 20
-14.5601116514
 11
7.5975218184
 21
-15.0243972993
  0
LINE
  5
532
100
AcDbEntity
  8
CURVE
100
AcDbLine
 62
250
  6
CONTINUOUS
 10
8.1546646423
 20
-13.8482068157
 11
8.1546646423
 21
-13.4767784214
  0
LINE
  5
533
100
AcDbEntity
  8
CURVE
100
AcDbLine
 62
250
  6
CONTINUOUS
 10
8.5260932304
 20
-6.4505880928
 11
8.5260932304
 21
-6.9458261585
  0
LINE
  5
534
100
AcDbEntity
  8
CURVE
100
AcDbLine
 62
250
  6
CONTINUOUS
 10
8.5260932304
 20
-15.519635365
 11
8.5260932304
 21
-16.0148735082
  0
LWPOLYLINE
  5
535
100
AcDbEntity
  8
CURVE
100
AcDbPolyline
 62
250
  6
CONTINUOUS
 90
31
 70
0
 10
5.4437841288
 20
-1.9870145486
 10
5.4783781655
 20
-1.9370911746
 10
5.5119586455
 20
-1.8862835991
 10
5.544514401
 20
-1.8346283449
 10
5.5760342645
 20
-1.7821619351
 10
5.6065070684
 20
-1.7289208925
 10
5.6359216451
 20
-1.67494174
 10
5.6642668271
 20
-1.6202610007
 10
5.6915314466
 20
-1.5649151974
 10
5.7177043363
 20
-1.508940853
 10
5.7427743283
 20
-1.4523744906
 10
5.7667302553
 20
-1.3952526329
 10
5.7895609495
 20
-1.337611803
 10
5.8112552434
 20
-1.2794885238
 10
5.8318019693
 20
-1.2209193182
 10
5.8511899598
 20
-1.1619407091
 10
5.8694080472
 20
-1.1025892195
 10
5.8864450639
 20
-1.0429013723
 10
5.9022898424
 20
-0.9829136905
 10
5.916931215
 20
-0.9226626969
 10
5.9303580141
 20
-0.8621849145
 10
5.9425590722
 20
-0.8015168662
 10
5.9535232217
 20
-0.740695075
 10
5.9632392949
 20
-0.6797560637
 10
5.9716961244
 20
-0.6187363554
 10
5.9788825424
 20
-0.5576724729
 10
5.9847873815
 20
-0.4966009392
 10
5.989399474
 20
-0.4355582772
 10
5.9927076523
 20
-0.3745810098
 10
5.9947007488
 20
-0.31370566
 10
5.995367596
 20
-0.2529687508
  0
LWPOLYLINE
  5
536
100
AcDbEntity
  8
CURVE
100
AcDbPolyline
 62
250
  6
CONTINUOUS
 90
82
 70
0
 10
4.0533579337
 20
-1.3165978716
 10
4.0928902152
 20
-1.2755827867
 10
4.130931537
 20
-1.2331140822
 10
4.1674319677
 20
-1.1892640319
 10
4.2023415757
 20
-1.1441049095
 10
4.2356104299
 20
-1.097708989
 10
4.2671885988
 20
-1.0501485439
 10
4.2974618692
 20
-1.0007486549
 10
4.3258795052
 20
-0.9502756768
 10
4.3523795012
 20
-0.8987820366
 10
4.3768998514
 20
-0.8463201614
 10
4.3993785502
 20
-0.7929424782
 10
4.4197535919
 20
-0.7387014141
 10
4.4379935638
 20
-0.6835337091
 10
4.4539514443
 20
-0.6276489531
 10
4.4675204359
 20
-0.5711446553
 10
4.478593741
 20
-0.514118325
 10
4.4870645622
 20
-0.4566674714
 10
4.4928261019
 20
-0.3988896039
 10
4.4958190771
 20
-0.3401102965
 10
4.4959749443
 20
-0.2812313705
 10
4.4933485812
 20
-0.2223888984
 10
4.4879948656
 20
-0.1637189524
 10
4.4799686752
 20
-0.105357605
 10
4.4693248875
 20
-0.0474409286
 10
4.4556144891
 20
0.0119355615
 10
4.4392884342
 20
0.0706300618
 10
4.4204791728
 20
0.1285833366
 10
4.3993191549
 20
0.1857361503
 10
4.3759408304
 20
0.2420292673
 10
4.3504766492
 20
0.297403452
 10
4.3222172406
 20
0.3533766562
 10
4.2919555227
 20
0.4082704425
 10
4.2597583805
 20
0.462041541
 10
4.2256926986
 20
0.5146466822
 10
4.1898253617
 20
0.5660425964
 10
4.1522232547
 20
0.6161860139
 10
4.1126641896
 20
0.6653725881
 10
4.071454299
 20
0.713182731
 10
4.0286343996
 20
0.7595542345
 10
3.9842453086
 20
0.8044248904
 10
3.9383278426
 20
0.8477324904
 10
3.8909228187
 20
0.8894148263
 10
3.842897174
 20
0.9287501331
 10
3.7935054615
 20
0.9663579881
 10
3.7427804574
 20
1.0021425447
 10
3.6907549378
 20
1.0360079563
 10
3.6374616789
 20
1.0678583763
 10
3.5829334566
 20
1.0975979581
 10
3.5367348853
 20
1.1206171004
 10
3.4897514202
 20
1.1420154658
 10
3.442027421
 20
1.161694421
 10
3.3936072478
 20
1.179555333
 10
3.3445352605
 20
1.1954995687
 10
3.294855819
 20
1.2094284947
 10
3.2446132833
 20
1.2212434781
 10
3.1949062934
 20
1.2306826841
 10
3.1448108177
 20
1.237968363
 10
3.0944361046
 20
1.2430699902
 10
3.0438914021
 20
1.245957041
 10
2.9932859585
 20
1.2465989908
 10
2.9427290222
 20
1.2449653149
 10
2.8923298413
 20
1.2410254888
 10
2.8411140872
 20
1.234612617
 10
2.7902405291
 20
1.2258762663
 10
2.7397727476
 20
1.2149312529
 10
2.689774323
 20
1.2018923933
 10
2.6403088359
 20
1.186874504
 10
2.5914398668
 20
1.1699924014
 10
2.5432309961
 20
1.1513609019
 10
2.4858227876
 20
1.1266089088
 10
2.4295075093
 20
1.0995629625
 10
2.3743172259
 20
1.0703252966
 10
2.3202840021
 20
1.0389981447
 10
2.2674399026
 20
1.0056837405
 10
2.2158169921
 20
0.9704843176
 10
2.164438535
 20
0.9327281981
 10
2.1144106831
 20
0.8931988396
 10
2.0657793137
 20
0.8519790112
 10
2.0185903042
 20
0.809151482
 10
1.9728895318
 20
0.7647990213
 10
1.928722874
 20
0.7190043981
  0
LINE
  5
537
100
AcDbEntity
  8
CURVE
100
AcDbLine
 62
250
  6
CONTINUOUS
 10
3.2142034046
 20
-15.02944075
 11
1.5477653175
 21
-15.02944075
  0
LINE
  5
538
100
AcDbEntity
  8
CURVE
100
AcDbLine
 62
250
  6
CONTINUOUS
 10
3.7698550871
 20
-15.02944075
 11
5.9919448567
 21
-15.02944075
  0
LINE
  5
539
100
AcDbEntity
  8
CURVE
100
AcDbLine
 62
250
  6
CONTINUOUS
 10
7.5975218184
 20
-15.0243972993
 11
8.8975218184
 21
-15.0243972993
  0
LINE
  5
53A
100
AcDbEntity
  8
CURVE
100
AcDbLine
 62
250
  6
CONTINUOUS
 10
-3.6096679015
 20
-14.54828275
 11
-0.610077345
 21
-14.54828275
  0
LINE
  5
53B
100
AcDbEntity
  8
CURVE
100
AcDbLine
 62
250
  6
CONTINUOUS
 10
5.9919448567
 20
-14.47374675
 11
3.7698550871
 21
-14.47374675
  0
LINE
  5
53C
100
AcDbEntity
  8
CURVE
100
AcDbLine
 62
250
  6
CONTINUOUS
 10
1.5477653175
 20
-14.47374675
 11
3.2142034046
 21
-14.47374675
  0
LINE
  5
53D
100
AcDbEntity
  8
CURVE
100
AcDbLine
 62
250
  6
CONTINUOUS
 10
8.7118075244
 20
-14.3743974543
 11
7.7832360931
 21
-14.3743974543
  0
LINE
  5
53E
100
AcDbEntity
  8
CURVE
100
AcDbLine
 62
250
  6
CONTINUOUS
 10
-0.610077345
 20
-13.92214075
 11
-3.6096679015
 21
-13.92214075
  0
LINE
  5
53F
100
AcDbEntity
  8
CURVE
100
AcDbLine
 62
250
  6
CONTINUOUS
 10
0.9922856219
 20
-13.91839775
 11
5.9919448567
 21
-13.91839775
  0
LINE
  5
540
100
AcDbEntity
  8
CURVE
100
AcDbLine
 62
250
  6
CONTINUOUS
 10
7.5975218184
 20
-13.8482068157
 11
8.8975218184
 21
-13.8482068157
  0
LINE
  5
541
100
AcDbEntity
  8
0
100
AcDbLine
 62
7
  6
CONTINUOUS
 10
9.8975218184
 20
-13.6870253158
 11
10.0975218184
 21
-13.6870253158
  0
LINE
  5
542
100
AcDbEntity
  8
ASSI
100
AcDbLine
 62
7
  6
CONTINUOUS
 10
9.8975218184
 20
-13.6870253158
 11
10.0975218184
 21
-13.6870253158
  0
LINE
  5
543
100
AcDbEntity
  8
0
100
AcDbLine
 62
7
  6
CONTINUOUS
 10
9.8975218184
 20
-13.3883353402
 11
10.0975218184
 21
-13.3883353402
  0
LINE
  5
544
100
AcDbEntity
  8
ASSI
100
AcDbLine
 62
7
  6
CONTINUOUS
 10
9.8975218184
 20
-13.3883353402
 11
10.0975218184
 21
-13.3883353402
  0
LINE
  5
545
100
AcDbEntity
  8
CURVE
100
AcDbLine
 62
250
  6
CONTINUOUS
 10
0.9922856219
 20
-13.36270375
 11
5.9919448567
 21
-13.36270375
  0
LINE
  5
546
100
AcDbEntity
  8
0
100
AcDbLine
 62
7
  6
CONTINUOUS
 10
9.8975218184
 20
-13.0054127244
 11
10.0975218184
 21
-13.0054127244
  0
LINE
  5
547
100
AcDbEntity
  8
ASSI
100
AcDbLine
 62
7
  6
CONTINUOUS
 10
9.8975218184
 20
-13.0054127244
 11
10.0975218184
 21
-13.0054127244
  0
LINE
  5
548
100
AcDbEntity
  8
0
100
AcDbLine
 62
7
  6
CONTINUOUS
 10
10.0975218184
 20
-12.9633551659
 11
9.8975218184
 21
-12.9633551659
  0
LINE
  5
549
100
AcDbEntity
  8
ASSI
100
AcDbLine
 62
7
  6
CONTINUOUS
 10
10.0975218184
 20
-12.9633551659
 11
9.8975218184
 21
-12.9633551659
  0
LINE
  5
54A
100
AcDbEntity
  8
CURVE
100
AcDbLine
 62
250
  6
CONTINUOUS
 10
5.4362931742
 20
-12.80735375
 11
1.5477653175
 21
-12.80735375
  0
LINE
  5
54B
100
AcDbEntity
  8
CURVE
100
AcDbLine
 62
250
  6
CONTINUOUS
 10
-2.5686361847
 20
-12.85093275
 11
-0.610077345
 21
-12.98605375
  0
LINE
  5
54C
100
AcDbEntity
  8
CURVE
100
AcDbLine
 62
250
  6
CONTINUOUS
 10
-0.610077345
 20
-13.58506875
 11
-3.6094879152
 21
-13.31421875
  0
LINE
  5
54D
100
AcDbEntity
  8
CURVE
100
AcDbLine
 62
250
  6
CONTINUOUS
 10
-2.7853266819
 20
-9.21262275
 11
-1.6722074551
 21
-9.52438875
  0
LINE
  5
54E
100
AcDbEntity
  8
CURVE
100
AcDbLine
 62
250
  6
CONTINUOUS
 10
-1.2088667423
 20
-9.65246975
 11
-0.610077345
 21
-9.82524575
  0
LWPOLYLINE
  5
54F
100
AcDbEntity
  8
ASSI
100
AcDbPolyline
 62
250
  6
CONTINUOUS
 90
10
 70
0
 10
-3.6756949207
 20
21.862707214
 10
-3.6805796556
 20
21.8749606545
 10
-3.6860194271
 20
21.8863767601
 10
-3.6919085663
 20
21.8969544953
 10
-3.698108472
 20
21.90669956
 10
-3.7045673317
 20
21.9156344302
 10
-3.7113201877
 20
21.9237953475
 10
-3.718330423
 20
21.9312158198
 10
-3.7254901627
 20
21.9379267163
 10
-3.7327392268
 20
21.9439657893
  0
LWPOLYLINE
  5
550
100
AcDbEntity
  8
ASSI
100
AcDbPolyline
 62
250
  6
CONTINUOUS
 90
7
 70
0
 10
1.0996447621
 20
21.99703125
 10
1.1000768306
 20
21.9955047927
 10
1.1005023038
 20
21.9909487213
 10
1.1009146871
 20
21.9834325825
 10
1.1013076854
 20
21.9730711068
 10
1.1016752999
 20
21.9600224578
 10
1.1020119192
 20
21.9444858175
  0
LINE
  5
551
100
AcDbEntity
  8
CURVE
100
AcDbLine
 62
250
  6
CONTINUOUS
 10
8.8975218184
 20
-5.4910642242
 11
8.8975218184
 21
-5.9553494072
  0
LINE
  5
552
100
AcDbEntity
  8
CURVE
100
AcDbLine
 62
250
  6
CONTINUOUS
 10
8.8975218184
 20
-15.0243972993
 11
8.8975218184
 21
-14.5601116514
  0
LINE
  5
553
100
AcDbEntity
  8
CURVE
100
AcDbLine
 62
250
  6
CONTINUOUS
 10
8.8975218184
 20
-13.8482068157
 11
8.8975218184
 21
-13.2910639143
  0
LINE
  5
554
100
AcDbEntity
  8
DRAFT
100
AcDbLine
 62
7
  6
CONTINUOUS
 10
9.8975218184
 20
18.14703125
 11
9.8975218184
 21
17.453420861
  0
LINE
  5
555
100
AcDbEntity
  8
DRAFT
100
AcDbLine
 62
7
  6
CONTINUOUS
 10
9.8975218184
 20
-19.959358361
 11
9.8975218184
 21
-20.65296875
  0
LINE
  5
556
100
AcDbEntity
  8
RACCORDO
100
AcDbLine
 62
7
  6
CONTINUOUS
 10
9.8975218184
 20
-19.959358361
 11
9.8975218184
 21
17.453420861
  0
LINE
  5
557
100
AcDbEntity
  8
ASSI
100
AcDbLine
 62
7
  6
CONTINUOUS
 10
9.8975218184
 20
-20.65296875
 11
9.8975218184
 21
18.14703125
  0
LINE
  5
558
100
AcDbEntity
  8
0
100
AcDbLine
 62
7
  6
CONTINUOUS
 10
10.0975218184
 20
13.0357561938
 11
10.0975218184
 21
10.4574214415
  0
LINE
  5
559
100
AcDbEntity
  8
ASSI
100
AcDbLine
 62
7
  6
CONTINUOUS
 10
10.0975218184
 20
13.0357561938
 11
10.0975218184
 21
10.4574214415
  0
LINE
  5
55A
100
AcDbEntity
  8
0
100
AcDbLine
 62
7
  6
CONTINUOUS
 10
10.0975218184
 20
-12.9633551689
 11
10.0975218184
 21
-15.5031085989
  0
LINE
  5
55B
100
AcDbEntity
  8
ASSI
100
AcDbLine
 62
7
  6
CONTINUOUS
 10
10.0975218184
 20
-12.9633551689
 11
10.0975218184
 21
-15.5031085989
  0
LINE
  5
55C
100
AcDbEntity
  8
RACCORDO
100
AcDbLine
 62
250
  6
CONTINUOUS
 10
10.1870519694
 20
8.8369206343
 11
10.1870519694
 21
0.8571418657
  0
LINE
  5
55D
100
AcDbEntity
  8
ASSI
100
AcDbLine
 62
250
  6
CONTINUOUS
 10
10.1870519694
 20
8.8369206343
 11
10.1870519694
 21
0.8571418657
  0
LINE
  5
55E
100
AcDbEntity
  8
RACCORDO
100
AcDbLine
 62
250
  6
CONTINUOUS
 10
10.1870519694
 20
-3.3630793657
 11
10.1870519694
 21
-11.3428581343
  0
LINE
  5
55F
100
AcDbEntity
  8
ASSI
100
AcDbLine
 62
250
  6
CONTINUOUS
 10
10.1870519694
 20
-3.3630793657
 11
10.1870519694
 21
-11.3428581343
  0
LINE
  5
560
100
AcDbEntity
  8
RACCORDO
100
AcDbLine
 62
250
  6
CONTINUOUS
 10
11.6079916674
 20
8.7873003267
 11
11.6079916674
 21
0.9067621733
  0
LINE
  5
561
100
AcDbEntity
  8
ASSI
100
AcDbLine
 62
250
  6
CONTINUOUS
 10
11.6079916674
 20
8.7873003267
 11
11.6079916674
 21
0.9067621733
  0
LINE
  5
562
100
AcDbEntity
  8
RACCORDO
100
AcDbLine
 62
250
  6
CONTINUOUS
 10
11.6079916674
 20
-3.4126996733
 11
11.6079916674
 21
-11.2932378267
  0
LINE
  5
563
100
AcDbEntity
  8
ASSI
100
AcDbLine
 62
250
  6
CONTINUOUS
 10
11.6079916674
 20
-3.4126996733
 11
11.6079916674
 21
-11.2932378267
  0
LINE
  5
564
100
AcDbEntity
  8
RACCORDO
100
AcDbLine
 62
250
  6
CONTINUOUS
 10
9.4021170973
 20
16.2260510323
 11
9.4018850862
 21
18.1556826214
  0
LINE
  5
565
100
AcDbEntity
  8
ASSI
100
AcDbLine
 62
250
  6
CONTINUOUS
 10
9.4021170973
 20
16.2260510323
 11
9.4018850862
 21
18.1556826214
  0
LINE
  5
566
100
AcDbEntity
  8
RACCORDO
100
AcDbLine
 62
250
  6
CONTINUOUS
 10
9.4020651987
 20
-18.8711315365
 11
9.4018850862
 21
16.1144140353
  0
LINE
  5
567
100
AcDbEntity
  8
ASSI
100
AcDbLine
 62
250
  6
CONTINUOUS
 10
9.4020651987
 20
-18.8711315365
 11
9.4018850862
 21
16.1144140353
  0
LINE
  5
568
100
AcDbEntity
  8
RACCORDO
100
AcDbLine
 62
250
  6
CONTINUOUS
 10
9.4018850862
 20
16.1144140362
 11
9.4021170973
 21
16.2260510323
  0
LINE
  5
569
100
AcDbEntity
  8
ASSI
100
AcDbLine
 62
250
  6
CONTINUOUS
 10
9.4018850862
 20
16.1144140362
 11
9.4021170973
 21
16.2260510323
  0
LINE
  5
56A
100
AcDbEntity
  8
RACCORDO
100
AcDbLine
 62
250
  6
CONTINUOUS
 10
9.4018850862
 20
-20.6616201163
 11
9.4020651987
 21
-18.8711315365
  0
LINE
  5
56B
100
AcDbEntity
  8
ASSI
100
AcDbLine
 62
250
  6
CONTINUOUS
 10
9.4018850862
 20
-20.6616201163
 11
9.4020651987
 21
-18.8711315365
  0
LWPOLYLINE
  5
56C
100
AcDbEntity
  8
RACCORDO
100
AcDbPolyline
 62
7
  6
CONTINUOUS
 90
16
 70
0
 10
9.8975218184
 20
-19.959358361
 10
9.8958141379
 20
-20.0151084242
 10
9.8918089757
 20
-20.0689799788
 10
9.8855063319
 20
-20.1209730246
 10
9.8767380819
 20
-20.1711881283
 10
9.8656723504
 20
-20.2195247233
 10
9.8528135108
 20
-20.2656811097
 10
9.8382034057
 20
-20.3095799011
 10
9.8218001925
 20
-20.3512984838
 10
9.8039827172
 20
-20.390767317
 10
9.7848484768
 20
-20.4279132947
 10
9.7642999743
 20
-20.4628095228
 10
9.7424235638
 20
-20.4956057779
 10
9.7192480301
 20
-20.5263519857
 10
9.6947445886
 20
-20.5549982205
 10
9.6689132391
 20
-20.5815444825
  0
LWPOLYLINE
  5
56D
100
AcDbEntity
  8
ASSI
100
AcDbPolyline
 62
7
  6
CONTINUOUS
 90
16
 70
0
 10
9.8975218184
 20
-19.959358361
 10
9.8958141379
 20
-20.0151084242
 10
9.8918089757
 20
-20.0689799788
 10
9.8855063319
 20
-20.1209730246
 10
9.8767380819
 20
-20.1711881283
 10
9.8656723504
 20
-20.2195247233
 10
9.8528135108
 20
-20.2656811097
 10
9.8382034057
 20
-20.3095799011
 10
9.8218001925
 20
-20.3512984838
 10
9.8039827172
 20
-20.390767317
 10
9.7848484768
 20
-20.4279132947
 10
9.7642999743
 20
-20.4628095228
 10
9.7424235638
 20
-20.4956057779
 10
9.7192480301
 20
-20.5263519857
 10
9.6947445886
 20
-20.5549982205
 10
9.6689132391
 20
-20.5815444825
  0
LINE
  5
56E
100
AcDbEntity
  8
CURVE
100
AcDbLine
 62
250
  6
CONTINUOUS
 10
3.283080159
 20
-5.20105475
 11
2.1117043689
 21
-6.67977475
  0
LINE
  5
56F
100
AcDbEntity
  8
CURVE
100
AcDbLine
 62
250
  6
CONTINUOUS
 10
2.392657972
 20
-7.00922175
 11
3.283080159
 21
-5.88518375
  0
LINE
  5
570
100
AcDbEntity
  8
CURVE
100
AcDbLine
 62
250
  6
CONTINUOUS
 10
-3.6094879152
 20
-16.56739875
 11
-1.5449011505
 21
-15.99561275
  0
LINE
  5
571
100
AcDbEntity
  8
CURVE
100
AcDbLine
 62
250
  6
CONTINUOUS
 10
-0.610077345
 20
-11.15544975
 11
-2.5604718064
 21
-11.28409275
  0
LINE
  5
572
100
AcDbEntity
  8
DRAFT
100
AcDbLine
 62
7
  6
CONTINUOUS
 10
10.1870519694
 20
-11.3428581343
 11
11.6079916674
 21
-11.2932378267
  0
LINE
  5
573
100
AcDbEntity
  8
ASSI
100
AcDbLine
 62
7
  6
CONTINUOUS
 10
10.1870519694
 20
-11.3428581343
 11
11.6079916674
 21
-11.2932378267
  0
LWPOLYLINE
  5
574
100
AcDbEntity
  8
CURVE
100
AcDbPolyline
 62
250
  6
CONTINUOUS
 90
51
 70
0
 10
2.4748086454
 20
-10.30296875
 10
2.4997451747
 20
-10.3025406037
 10
2.5247322191
 20
-10.3012628785
 10
2.5497414506
 20
-10.2991456448
 10
2.5747445408
 20
-10.296198973
 10
2.5997131617
 20
-10.2924329334
 10
2.624618985
 20
-10.2878575966
 10
2.6494336826
 20
-10.2824830328
 10
2.6741289263
 20
-10.2763193125
 10
2.6986763878
 20
-10.2693765062
 10
2.7230477391
 20
-10.2616646841
 10
2.7472146519
 20
-10.2531939168
 10
2.771148798
 20
-10.2439742746
 10
2.7948218493
 20
-10.234015828
 10
2.8182054775
 20
-10.2233286472
 10
2.8412713546
 20
-10.2119228029
 10
2.8639911522
 20
-10.1998083652
 10
2.8863365423
 20
-10.1869954048
 10
2.9082791966
 20
-10.1734939918
 10
2.929790787
 20
-10.1593141969
 10
2.9508429853
 20
-10.1444660903
 10
2.9714074632
 20
-10.1289597425
 10
2.9914558926
 20
-10.1128052239
 10
3.0109599454
 20
-10.0960126049
 10
3.0298912933
 20
-10.0785919558
 10
3.0482216082
 20
-10.0605533472
 10
3.0659341051
 20
-10.0419010244
 10
3.0830093626
 20
-10.0226679295
 10
3.0994400842
 20
-10.0028817414
 10
3.1152189737
 20
-9.9825701392
 10
3.1303387347
 20
-9.9617608019
 10
3.1447920708
 20
-9.9404814087
 10
3.1585716858
 20
-9.9187596386
 10
3.1716702833
 20
-9.8966231706
 10
3.1840805668
 20
-9.8740996837
 10
3.1957952402
 20
-9.8512168571
 10
3.2068070071
 20
-9.8280023698
 10
3.2171085711
 20
-9.8044839008
 10
3.2266926359
 20
-9.7806891292
 10
3.2355519051
 20
-9.7566457341
 10
3.2436790824
 20
-9.7323813945
 10
3.2510668715
 20
-9.7079237894
 10
3.257707976
 20
-9.683300598
 10
3.2635950997
 20
-9.6585394992
 10
3.268720946
 20
-9.6336681722
 10
3.2730782188
 20
-9.6087142959
 10
3.2766596217
 20
-9.5837055495
 10
3.2794578583
 20
-9.5586696119
 10
3.2814656323
 20
-9.5336341623
 10
3.2826756473
 20
-9.5086268797
 10
3.283080607
 20
-9.4836754431
  0
LWPOLYLINE
  5
575
100
AcDbEntity
  8
CURVE
100
AcDbPolyline
 62
250
  6
CONTINUOUS
 90
51
 70
0
 10
5.2189968204
 20
-10.30296875
 10
5.244040498
 20
-10.3025660776
 10
5.2691373645
 20
-10.3013627192
 10
5.2942603039
 20
-10.299365663
 10
5.3193822001
 20
-10.2965818971
 10
5.3444759373
 20
-10.2930184097
 10
5.3695143994
 20
-10.288682189
 10
5.3944704705
 20
-10.2835802231
 10
5.4193170346
 20
-10.2777195003
 10
5.4440269758
 20
-10.2711070085
 10
5.468573178
 20
-10.2637497362
 10
5.4929285252
 20
-10.2556546713
 10
5.5170659016
 20
-10.2468288021
 10
5.540958191
 20
-10.2372791167
 10
5.5645782777
 20
-10.2270126033
 10
5.5878990455
 20
-10.2160362501
 10
5.6108933785
 20
-10.2043570453
 10
5.6335341608
 20
-10.1919819769
 10
5.6557942763
 20
-10.1789180332
 10
5.6776466091
 20
-10.1651722023
 10
5.6990640431
 20
-10.1507514725
 10
5.7200194626
 20
-10.1356628318
 10
5.7404857513
 20
-10.1199132684
 10
5.7604357935
 20
-10.1035097706
 10
5.7798424731
 20
-10.0864593264
 10
5.7986786741
 20
-10.0687689241
 10
5.8169103956
 20
-10.0504589337
 10
5.8345336081
 20
-10.0315448349
 10
5.8515367658
 20
-10.0120548205
 10
5.8679083229
 20
-9.9920170835
 10
5.8836367338
 20
-9.9714598169
 10
5.8987104527
 20
-9.9504112134
 10
5.9131179338
 20
-9.9288994662
 10
5.9268476315
 20
-9.9069527679
 10
5.9398879998
 20
-9.8845993117
 10
5.9522274932
 20
-9.8618672904
 10
5.9638545658
 20
-9.838784897
 10
5.974757672
 20
-9.8153803243
 10
5.9849252659
 20
-9.7916817653
 10
5.9943458018
 20
-9.7677174129
 10
6.0030077341
 20
-9.7435154601
 10
6.0108995169
 20
-9.7191040997
 10
6.0180096044
 20
-9.6945115247
 10
6.0243264511
 20
-9.669765928
 10
6.029838511
 20
-9.6448955025
 10
6.0345342385
 20
-9.6199284412
 10
6.0384020878
 20
-9.5948929369
 10
6.0414305132
 20
-9.5698171827
 10
6.043607969
 20
-9.5447293713
 10
6.0449229093
 20
-9.5196576958
 10
6.0453637884
 20
-9.4946303491
  0
LINE
  5
576
100
AcDbEntity
  8
CURVE
100
AcDbLine
 62
250
  6
CONTINUOUS
 10
5.9919448567
 20
-12.25165975
 11
5.4362931742
 21
-12.25165975
  0
LINE
  5
577
100
AcDbEntity
  8
CURVE
100
AcDbLine
 62
250
  6
CONTINUOUS
 10
1.5477653175
 20
-12.25165975
 11
0.9922856219
 21
-12.25165975
  0
LINE
  5
578
100
AcDbEntity
  8
CURVE
100
AcDbLine
 62
250
  6
CONTINUOUS
 10
7.5975218184
 20
-11.6505880928
 11
8.8975218184
 21
-11.6505880928
  0
LINE
  5
579
100
AcDbEntity
  8
CURVE
100
AcDbLine
 62
250
  6
CONTINUOUS
 10
7.5975218184
 20
-11.0624926186
 11
8.8975218184
 21
-11.0624926186
  0
LINE
  5
57A
100
AcDbEntity
  8
CURVE
100
AcDbLine
 62
250
  6
CONTINUOUS
 10
7.5975218184
 20
-10.4124926186
 11
8.8975218184
 21
-10.4124926186
  0
LINE
  5
57B
100
AcDbEntity
  8
CURVE
100
AcDbLine
 62
250
  6
CONTINUOUS
 10
5.2189968204
 20
-10.30296875
 11
4.5344109283
 21
-10.30296875
  0
LINE
  5
57C
100
AcDbEntity
  8
CURVE
100
AcDbLine
 62
250
  6
CONTINUOUS
 10
2.4748086454
 20
-10.30296875
 11
0.9457641284
 21
-10.30296875
  0
LINE
  5
57D
100
AcDbEntity
  8
CURVE
100
AcDbLine
 62
250
  6
CONTINUOUS
 10
0.9457641284
 20
-9.7717128658
 11
2.4676678037
 21
-9.7717128658
  0
LINE
  5
57E
100
AcDbEntity
  8
CURVE
100
AcDbLine
 62
250
  6
CONTINUOUS
 10
4.5344109283
 20
-9.7717128658
 11
5.2189968204
 21
-9.7717128658
  0
LWPOLYLINE
  5
57F
100
AcDbEntity
  8
CURVE
100
AcDbPolyline
 62
250
  6
CONTINUOUS
 90
51
 70
0
 10
4.5344109283
 20
-9.7717128658
 10
4.525524814
 20
-9.7715759384
 10
4.5166175388
 20
-9.7711663172
 10
4.5076987109
 20
-9.7704857438
 10
4.4987779387
 20
-9.7695359599
 10
4.4898648304
 20
-9.768318707
 10
4.4809689944
 20
-9.7668357268
 10
4.4721000388
 20
-9.7650887607
 10
4.4632675722
 20
-9.7630795505
 10
4.4544812026
 20
-9.7608098378
 10
4.4457505385
 20
-9.758281364
 10
4.4370851881
 20
-9.7554958709
 10
4.4284947597
 20
-9.7524551001
 10
4.4199888617
 20
-9.749160793
 10
4.4115771022
 20
-9.7456146914
 10
4.4032690897
 20
-9.7418185369
 10
4.3950744324
 20
-9.7377740709
 10
4.3870027386
 20
-9.7334830352
 10
4.3790636166
 20
-9.7289471714
 10
4.3712666747
 20
-9.7241682209
 10
4.3636215212
 20
-9.7191479255
 10
4.3561377644
 20
-9.7138880268
 10
4.3488250126
 20
-9.7083902662
 10
4.341692874
 20
-9.7026563855
 10
4.3347509571
 20
-9.6966881262
 10
4.3280088701
 20
-9.69048723
 10
4.3214830236
 20
-9.6840646509
 10
4.3151706212
 20
-9.677421984
 10
4.3090761671
 20
-9.6705694872
 10
4.3032041657
 20
-9.6635174187
 10
4.297559121
 20
-9.6562760365
 10
4.2921455373
 20
-9.6488555989
 10
4.2869679189
 20
-9.6412663639
 10
4.28203077
 20
-9.6335185896
 10
4.2773385947
 20
-9.6256225341
 10
4.2728958974
 20
-9.6175884556
 10
4.2687071821
 20
-9.6094266121
 10
4.2647769533
 20
-9.6011472617
 10
4.261109715
 20
-9.5927606626
 10
4.2577099715
 20
-9.5842770728
 10
4.254582227
 20
-9.5757067506
 10
4.2517309858
 20
-9.5670599538
 10
4.249160752
 20
-9.5583469408
 10
4.2468760299
 20
-9.5495779696
 10
4.2448813237
 20
-9.5407632983
 10
4.2431811377
 20
-9.531913185
 10
4.241779976
 20
-9.5230378878
 10
4.2406823429
 20
-9.5141476648
 10
4.2398927426
 20
-9.5052527742
 10
4.2394156794
 20
-9.496363474
 10
4.2392556573
 20
-9.4874900223
  0
LINE
  5
580
100
AcDbEntity
  8
CURVE
100
AcDbLine
 62
250
  6
CONTINUOUS
 10
7.5975218184
 20
-6.6982074356
 11
8.8975218184
 21
-7.06963521
  0
LINE
  5
581
100
AcDbEntity
  8
CURVE
100
AcDbLine
 62
250
  6
CONTINUOUS
 10
7.5975218184
 20
-4.3767778015
 11
8.1546646423
 21
-4.7482074356
  0
LINE
  5
582
100
AcDbEntity
  8
CURVE
100
AcDbLine
 62
250
  6
CONTINUOUS
 10
1.1118075497
 20
8.5565550709
 11
1.2546646245
 21
8.318459847
  0
LINE
  5
583
100
AcDbEntity
  8
RACCORDO
100
AcDbLine
 62
7
  6
CONTINUOUS
 10
11.8975218184
 20
8.4874830786
 11
11.8975218184
 21
1.2065794214
  0
LINE
  5
584
100
AcDbEntity
  8
ASSI
100
AcDbLine
 62
7
  6
CONTINUOUS
 10
11.8975218184
 20
8.4874830786
 11
11.8975218184
 21
1.2065794214
  0
LINE
  5
585
100
AcDbEntity
  8
RACCORDO
100
AcDbLine
 62
7
  6
CONTINUOUS
 10
11.8975218184
 20
-3.7125169214
 11
11.8975218184
 21
-10.9934205786
  0
LINE
  5
586
100
AcDbEntity
  8
ASSI
100
AcDbLine
 62
7
  6
CONTINUOUS
 10
11.8975218184
 20
-3.7125169214
 11
11.8975218184
 21
-10.9934205786
  0
LINE
  5
587
100
AcDbEntity
  8
CURVE
100
AcDbLine
 62
250
  6
CONTINUOUS
 10
-3.6094879152
 20
-10.82341575
 11
-0.610077345
 21
-10.54291575
  0
LINE
  5
588
100
AcDbEntity
  8
CURVE
100
AcDbLine
 62
250
  6
CONTINUOUS
 10
7.5975218184
 20
-8.7720164871
 11
8.8975218184
 21
-8.7720164871
  0
LINE
  5
589
100
AcDbEntity
  8
CURVE
100
AcDbLine
 62
250
  6
CONTINUOUS
 10
2.4676678037
 20
-8.4967171573
 11
0.9457641284
 21
-8.4967171573
  0
LINE
  5
58A
100
AcDbEntity
  8
RACCORDO
100
AcDbLine
 62
250
  6
CONTINUOUS
 10
9.8975218184
 20
-8.22796875
 11
11.8975218184
 21
-8.22796875
  0
LINE
  5
58B
100
AcDbEntity
  8
ASSI
100
AcDbLine
 62
250
  6
CONTINUOUS
 10
9.8975218184
 20
-8.22796875
 11
11.8975218184
 21
-8.22796875
  0
LINE
  5
58C
100
AcDbEntity
  8
CURVE
100
AcDbLine
 62
250
  6
CONTINUOUS
 10
0.9457641284
 20
-7.9654612731
 11
2.4748086454
 21
-7.9654612731
  0
LINE
  5
58D
100
AcDbEntity
  8
CURVE
100
AcDbLine
 62
250
  6
CONTINUOUS
 10
3.7080461407
 20
-7.9654612731
 11
4.2392556573
 21
-7.9654612731
  0
LINE
  5
58E
100
AcDbEntity
  8
CURVE
100
AcDbLine
 62
250
  6
CONTINUOUS
 10
5.5141542718
 20
-7.9654612731
 11
6.0453637884
 21
-7.9654612731
  0
LINE
  5
58F
100
AcDbEntity
  8
CURVE
100
AcDbLine
 62
250
  6
CONTINUOUS
 10
7.5975218184
 20
-7.8124926186
 11
8.8975218184
 21
-7.8124926186
  0
LINE
  5
590
100
AcDbEntity
  8
CURVE
100
AcDbLine
 62
250
  6
CONTINUOUS
 10
-3.5744452933
 20
-7.793770059
 11
-0.610077677
 21
-7.793770059
  0
LINE
  5
591
100
AcDbEntity
  8
CURVE
100
AcDbLine
 62
250
  6
CONTINUOUS
 10
0.9457521658
 20
-7.54047075
 11
3.2830851587
 21
-7.54047075
  0
LINE
  5
592
100
AcDbEntity
  8
CURVE
100
AcDbLine
 62
250
  6
CONTINUOUS
 10
4.5162913591
 20
-7.540470376
 11
6.0453637884
 21
-7.540470376
  0
LINE
  5
593
100
AcDbEntity
  8
CURVE
100
AcDbLine
 62
250
  6
CONTINUOUS
 10
-2.2751123257
 20
-7.1909090468
 11
-3.0985090381
 21
-7.1909090468
  0
LINE
  5
594
100
AcDbEntity
  8
CURVE
100
AcDbLine
 62
250
  6
CONTINUOUS
 10
-0.610077677
 20
-7.1701471082
 11
-1.7838813326
 21
-7.1701471082
  0
LINE
  5
595
100
AcDbEntity
  8
CURVE
100
AcDbLine
 62
250
  6
CONTINUOUS
 10
6.0453637884
 20
-7.0092219903
 11
5.5141257679
 21
-7.0092219903
  0
LINE
  5
596
100
AcDbEntity
  8
CURVE
100
AcDbLine
 62
250
  6
CONTINUOUS
 10
4.9829180119
 20
-7.0092219903
 11
4.5234332902
 21
-7.0092219903
  0
LINE
  5
597
100
AcDbEntity
  8
CURVE
100
AcDbLine
 62
250
  6
CONTINUOUS
 10
3.2830851587
 20
-7.00922175
 11
2.392657972
 21
-7.00922175
  0
LINE
  5
598
100
AcDbEntity
  8
CURVE
100
AcDbLine
 62
250
  6
CONTINUOUS
 10
1.8303427969
 20
-7.00922175
 11
0.9457521658
 21
-7.00922175
  0
LWPOLYLINE
  5
599
100
AcDbEntity
  8
CURVE
100
AcDbPolyline
 62
250
  6
CONTINUOUS
 90
51
 70
0
 10
2.4676678037
 20
-8.4967171573
 10
2.476540771
 20
-8.4968772022
 10
2.4854295742
 20
-8.4973543321
 10
2.4943239562
 20
-8.4981440401
 10
2.5032136602
 20
-8.4992418194
 10
2.512088429
 20
-8.5006431629
 10
2.5209380057
 20
-8.5023435638
 10
2.5297521333
 20
-8.5043385151
 10
2.5385205549
 20
-8.50662351
 10
2.5472330133
 20
-8.5091940414
 10
2.5558792516
 20
-8.5120456024
 10
2.5644490128
 20
-8.5151736862
 10
2.5729320399
 20
-8.5185737857
 10
2.581318076
 20
-8.5222413941
 10
2.589596864
 20
-8.5261720044
 10
2.5977581469
 20
-8.5303611098
 10
2.6057916677
 20
-8.5348042032
 10
2.6136871694
 20
-8.5394967777
 10
2.6214343951
 20
-8.5444343265
 10
2.6290230877
 20
-8.5496123425
 10
2.6364429902
 20
-8.555026319
 10
2.6436838457
 20
-8.5606717488
 10
2.6507353971
 20
-8.5665441252
 10
2.6575873875
 20
-8.5726389411
 10
2.6642295598
 20
-8.5789516897
 10
2.670651657
 20
-8.585477864
 10
2.6768524162
 20
-8.5922206313
 10
2.6828205287
 20
-8.59916323
 10
2.688554254
 20
-8.6062960517
 10
2.6940518521
 20
-8.6136094879
 10
2.6993115824
 20
-8.6210939303
 10
2.7043317049
 20
-8.6287397703
 10
2.7091104792
 20
-8.6365373996
 10
2.7136461649
 20
-8.6444772097
 10
2.7179370219
 20
-8.6525495923
 10
2.7219813097
 20
-8.6607449389
 10
2.7257772882
 20
-8.669053641
 10
2.729323217
 20
-8.6774660903
 10
2.7326173559
 20
-8.6859726783
 10
2.7356579645
 20
-8.6945637965
 10
2.7384433026
 20
-8.7032298367
 10
2.7409716299
 20
-8.7119611903
 10
2.7432412061
 20
-8.7207482489
 10
2.7452502908
 20
-8.7295814041
 10
2.7469971439
 20
-8.7384510475
 10
2.748480025
 20
-8.7473475706
 10
2.7496971938
 20
-8.756261365
 10
2.75064691
 20
-8.7651828223
 10
2.7513274334
 20
-8.7741023341
 10
2.7517370237
 20
-8.783010292
 10
2.7518739405
 20
-8.7918970874
  0
LWPOLYLINE
  5
59A
100
AcDbEntity
  8
CURVE
100
AcDbPolyline
 62
250
  6
CONTINUOUS
 90
51
 70
0
 10
4.5234332902
 20
-7.0092219903
 10
4.51456037
 20
-7.0090619453
 10
4.5056716174
 20
-7.0085848151
 10
4.496777289
 20
-7.0077951068
 10
4.4878876412
 20
-7.0066973275
 10
4.4790129306
 20
-7.0052959843
 10
4.4701634135
 20
-7.0035955844
 10
4.4613493465
 20
-7.0016006348
 10
4.4525809861
 20
-6.9993156426
 10
4.4438685888
 20
-6.996745115
 10
4.435222411
 20
-6.9938935591
 10
4.4266527093
 20
-6.990765482
 10
4.4181697401
 20
-6.9873653908
 10
4.40978376
 20
-6.9836977926
 10
4.4015050254
 20
-6.9797671945
 10
4.3933437928
 20
-6.9755781037
 10
4.3853103187
 20
-6.9711350272
 10
4.3774148596
 20
-6.9664424722
 10
4.369667672
 20
-6.9615049458
 10
4.3620790124
 20
-6.956326955
 10
4.3546591372
 20
-6.9509130071
 10
4.347418303
 20
-6.9452676091
 10
4.3403667662
 20
-6.939395268
 10
4.3335147834
 20
-6.9333004912
 10
4.326872611
 20
-6.9269877856
 10
4.3204505055
 20
-6.9204616583
 10
4.314249734
 20
-6.9137189472
 10
4.3082816011
 20
-6.9067764089
 10
4.3025478476
 20
-6.8996436514
 10
4.2970502148
 20
-6.8923302829
 10
4.2917904436
 20
-6.8848459113
 10
4.286770275
 20
-6.8772001447
 10
4.2819914502
 20
-6.8694025912
 10
4.27745571
 20
-6.8614628589
 10
4.2731647957
 20
-6.8533905556
 10
4.2691204481
 20
-6.8451952896
 10
4.2653244083
 20
-6.8368866689
 10
4.2617784175
 20
-6.8284743015
 10
4.2584842165
 20
-6.8199677955
 10
4.2554435465
 20
-6.8113767589
 10
4.2526581484
 20
-6.8027107997
 10
4.2501297633
 20
-6.7939795261
 10
4.2478601323
 20
-6.7851925461
 10
4.2458509963
 20
-6.7763594677
 10
4.2441040965
 20
-6.767489899
 10
4.2426211737
 20
-6.758593448
 10
4.2414039692
 20
-6.7496797228
 10
4.2404542239
 20
-6.7407583314
 10
4.2397736788
 20
-6.7318388819
 10
4.239364075
 20
-6.7229309824
 10
4.2392271535
 20
-6.7140442408
  0
LINE
  5
59B
100
AcDbEntity
  8
CURVE
100
AcDbLine
 62
250
  6
CONTINUOUS
 10
2.3786414937
 20
-1.6206017185
 11
3.5843438894
 21
-2.1647814806
  0
LINE
  5
59C
100
AcDbEntity
  8
CURVE
100
AcDbLine
 62
250
  6
CONTINUOUS
 10
4.7464067071
 20
-2.6892649853
 11
5.995367596
 21
-3.25296875
  0
LINE
  5
59D
100
AcDbEntity
  8
CURVE
100
AcDbLine
 62
250
  6
CONTINUOUS
 10
4.5235313796
 20
-1.5433002332
 11
4.0533579337
 21
-1.3165978716
  0
LINE
  5
59E
100
AcDbEntity
  8
CURVE
100
AcDbLine
 62
250
  6
CONTINUOUS
 10
5.995367596
 20
-2.252969468
 11
5.4437841288
 21
-1.9870145486
  0
LINE
  5
59F
100
AcDbEntity
  8
CURVE
100
AcDbLine
 62
250
  6
CONTINUOUS
 10
0.3975218184
 20
9.6041740561
 11
0.6832360871
 21
9.3184597874
  0
LINE
  5
5A0
100
AcDbEntity
  8
CURVE
100
AcDbLine
 62
250
  6
CONTINUOUS
 10
2.2546646692
 20
8.6041741157
 11
2.3975218184
 21
8.4613169813
  0
LINE
  5
5A1
100
AcDbEntity
  8
DRAFT
100
AcDbLine
 62
7
  6
CONTINUOUS
 10
-11.1024781816
 20
-24.5386830357
 11
-9.6024781816
 21
-23.25296875
  0
LINE
  5
5A2
100
AcDbEntity
  8
CURVE
100
AcDbLine
 62
250
  6
CONTINUOUS
 10
8.1546646423
 20
-4.7482074356
 11
7.5975218184
 21
-5.1196358299
  0
LWPOLYLINE
  5
5A3
100
AcDbEntity
  8
CURVE
100
AcDbPolyline
 62
250
  6
CONTINUOUS
 90
58
 70
0
 10
3.5843438894
 20
-2.1647814806
 10
3.5256091215
 20
-2.1820682688
 10
3.466373034
 20
-2.1978539506
 10
3.4066880904
 20
-2.2119876265
 10
3.3466067546
 20
-2.224318397
 10
3.2861814904
 20
-2.2346953624
 10
3.2254647614
 20
-2.2429676232
 10
3.1645090316
 20
-2.2489842797
 10
3.1104768121
 20
-2.2523128132
 10
3.0563712218
 20
-2.2537112299
 10
3.0022646407
 20
-2.2531297366
 10
2.9482294487
 20
-2.2505185399
 10
2.8932473765
 20
-2.245736062
 10
2.8384732448
 20
-2.2388853223
 10
2.7839653532
 20
-2.2300624896
 10
2.7297820009
 20
-2.2193637326
 10
2.6660315584
 20
-2.2043715668
 10
2.6028703641
 20
-2.1869860947
 10
2.5403494681
 20
-2.1673160071
 10
2.4785199202
 20
-2.1454699951
 10
2.4174327706
 20
-2.1215567498
 10
2.3571390692
 20
-2.0956849621
 10
2.2976898659
 20
-2.067963323
 10
2.236603204
 20
-2.0371714062
 10
2.176509387
 20
-2.0045501395
 10
2.1174260943
 20
-1.9701661286
 10
2.059371005
 20
-1.9340859794
 10
2.0023617986
 20
-1.8963762978
 10
1.9464161542
 20
-1.8571036896
 10
1.8915517513
 20
-1.8163347606
 10
1.8279151355
 20
-1.7661269756
 10
1.7658787589
 20
-1.7139604468
 10
1.7054972423
 20
-1.6598873062
 10
1.646825207
 20
-1.6039596857
 10
1.589917274
 20
-1.5462297175
 10
1.5348280643
 20
-1.4867495337
 10
1.4897642848
 20
-1.435188583
 10
1.4460998744
 20
-1.3824359265
 10
1.4038980002
 20
-1.3285110522
 10
1.3632218297
 20
-1.2734334478
 10
1.32413453
 20
-1.2172226009
 10
1.2866992684
 20
-1.1598979993
 10
1.2509792122
 20
-1.1014791309
 10
1.2184140223
 20
-1.0444673559
 10
1.1875924795
 20
-0.9864882232
 10
1.1586239018
 20
-0.9275620998
 10
1.1316176071
 20
-0.8677093527
 10
1.1066829136
 20
-0.8069503491
 10
1.0839291393
 20
-0.745305456
 10
1.0634656022
 20
-0.6827950404
 10
1.0483038179
 20
-0.6302843379
 10
1.0348816907
 20
-0.577269591
 10
1.0232861119
 20
-0.5238288813
 10
1.0136039729
 20
-0.4700402906
 10
1.0059221651
 20
-0.4159819005
 10
1.0003275797
 20
-0.3617317927
 10
0.9969071081
 20
-0.3073680489
 10
0.9957476417
 20
-0.2529687508
  0
LWPOLYLINE
  5
5A4
100
AcDbEntity
  8
CURVE
100
AcDbPolyline
 62
250
  6
CONTINUOUS
 90
51
 70
0
 10
4.5162913591
 20
-5.20297807
 10
4.4913549522
 20
-5.2034061986
 10
4.4663680217
 20
-5.2046838724
 10
4.441358896
 20
-5.2068010229
 10
4.4163559033
 20
-5.2097475818
 10
4.3913873722
 20
-5.2135134806
 10
4.3664816309
 20
-5.2180886511
 10
4.3416670079
 20
-5.2234630249
 10
4.3169718314
 20
-5.2296265335
 10
4.2924244298
 20
-5.2365691087
 10
4.2680531315
 20
-5.2442806821
 10
4.2438862649
 20
-5.2527511853
 10
4.2199521584
 20
-5.2619705498
 10
4.1962791402
 20
-5.2719287075
 10
4.1728955387
 20
-5.2826155898
 10
4.1498296824
 20
-5.2940211285
 10
4.1271098995
 20
-5.3061352552
 10
4.1047645185
 20
-5.3189479014
 10
4.0828218677
 20
-5.3324489989
 10
4.0613102754
 20
-5.3466284792
 10
4.04025807
 20
-5.361476274
 10
4.01969358
 20
-5.376982315
 10
3.9996451336
 20
-5.3931365337
 10
3.9801410592
 20
-5.4099288619
 10
3.9612096852
 20
-5.427349231
 10
3.9428793399
 20
-5.4453875728
 10
3.9251668114
 20
-5.46403964
 10
3.9080915185
 20
-5.4832724936
 10
3.891660758
 20
-5.5030584536
 10
3.8758818266
 20
-5.5233698403
 10
3.8607620211
 20
-5.5441789739
 10
3.8463086383
 20
-5.5654581745
 10
3.832528975
 20
-5.5871797623
 10
3.8194303279
 20
-5.6093160576
 10
3.8070199939
 20
-5.6318393803
 10
3.7953052698
 20
-5.6547220509
 10
3.7842934522
 20
-5.6779363893
 10
3.773991838
 20
-5.7014547158
 10
3.764407724
 20
-5.7252493506
 10
3.7555484069
 20
-5.7492926138
 10
3.7474211836
 20
-5.7735568256
 10
3.7400333508
 20
-5.7980143063
 10
3.7333922052
 20
-5.8226373758
 10
3.7275050438
 20
-5.8473983546
 10
3.7223791632
 20
-5.8722695626
 10
3.7180218603
 20
-5.8972233201
 10
3.7144404317
 20
-5.9222319473
 10
3.7116421744
 20
-5.9472677644
 10
3.7096343851
 20
-5.9723030914
 10
3.7084243605
 20
-5.9973102486
 10
3.7080193974
 20
-6.0222615562
  0
LWPOLYLINE
  5
5A5
100
AcDbEntity
  8
CURVE
100
AcDbPolyline
 62
250
  6
CONTINUOUS
 90
56
 70
0
 10
-2.7412194627
 20
-6.3466876875
 10
-2.7265805642
 20
-6.3465883758
 10
-2.7119149601
 20
-6.3467557242
 10
-2.6972366961
 20
-6.3472107933
 10
-2.6825598183
 20
-6.3479746436
 10
-2.6678983727
 20
-6.3490683359
 10
-2.6532664052
 20
-6.3505129306
 10
-2.6386779619
 20
-6.3523294884
 10
-2.6241470887
 20
-6.3545390699
 10
-2.6096878315
 20
-6.3571627355
 10
-2.5953142364
 20
-6.3602215461
 10
-2.5810403493
 20
-6.363736562
 10
-2.5668802162
 20
-6.367728844
 10
-2.5528478831
 20
-6.3722194526
 10
-2.5408463389
 20
-6.3765109794
 10
-2.5289676095
 20
-6.3811849327
 10
-2.5172287519
 20
-6.3862364951
 10
-2.5056468235
 20
-6.3916608493
 10
-2.4942388817
 20
-6.3974531777
 10
-2.4830219837
 20
-6.4036086629
 10
-2.4720131869
 20
-6.4101224876
 10
-2.4612295484
 20
-6.4169898342
 10
-2.4506881258
 20
-6.4242058853
 10
-2.4404059761
 20
-6.4317658235
 10
-2.4304001569
 20
-6.4396648314
 10
-2.4206877252
 20
-6.4478980916
 10
-2.4112857386
 20
-6.4564607865
 10
-2.4022112542
 20
-6.4653480987
 10
-2.3934813294
 20
-6.4745552109
 10
-2.3850881033
 20
-6.4841003791
 10
-2.3770533377
 20
-6.4939451763
 10
-2.3693719983
 20
-6.5040726137
 10
-2.3620390508
 20
-6.5144657021
 10
-2.3550494611
 20
-6.5251074526
 10
-2.3483981949
 20
-6.5359808762
 10
-2.3420802181
 20
-6.5470689838
 10
-2.3360904963
 20
-6.5583547866
 10
-2.3304239954
 20
-6.5698212954
 10
-2.3250756812
 20
-6.5814515213
 10
-2.3200405194
 20
-6.5932284753
 10
-2.3153134758
 20
-6.6051351683
 10
-2.3108895162
 20
-6.6171546114
 10
-2.3067636064
 20
-6.6292698156
 10
-2.3029307121
 20
-6.6414637918
 10
-2.2984610547
 20
-6.6570972519
 10
-2.2944415286
 20
-6.6728219354
 10
-2.2908544468
 20
-6.6886287007
 10
-2.2876821221
 20
-6.7045084061
 10
-2.2849068673
 20
-6.72045191
 10
-2.2825109955
 20
-6.7364500709
 10
-2.2804768194
 20
-6.752493747
 10
-2.2787866519
 20
-6.7685737968
 10
-2.2774228059
 20
-6.7846810785
 10
-2.2763675943
 20
-6.8008064506
 10
-2.27560333
 20
-6.8169407715
 10
-2.2751123257
 20
-6.8330748994
  0
LINE
  5
5A6
100
AcDbEntity
  8
RACCORDO
100
AcDbLine
 62
250
  6
CONTINUOUS
 10
9.8975218184
 20
-6.47796875
 11
11.8975218184
 21
-6.47796875
  0
LINE
  5
5A7
100
AcDbEntity
  8
ASSI
100
AcDbLine
 62
250
  6
CONTINUOUS
 10
9.8975218184
 20
-6.47796875
 11
11.8975218184
 21
-6.47796875
  0
LINE
  5
5A8
100
AcDbEntity
  8
CURVE
100
AcDbLine
 62
250
  6
CONTINUOUS
 10
-2.0101759765
 20
-6.1839887695
 11
-2.0278998786
 21
-6.1839887695
  0
LINE
  5
5A9
100
AcDbEntity
  8
CURVE
100
AcDbLine
 62
250
  6
CONTINUOUS
 10
8.8975218184
 20
-5.9553494072
 11
7.5975218184
 21
-5.9553494072
  0
LINE
  5
5AA
100
AcDbEntity
  8
CURVE
100
AcDbLine
 62
250
  6
CONTINUOUS
 10
4.5234332902
 20
-5.7342262818
 11
4.9829180119
 21
-5.7342262818
  0
LINE
  5
5AB
100
AcDbEntity
  8
CURVE
100
AcDbLine
 62
250
  6
CONTINUOUS
 10
5.5141257679
 20
-5.7342262818
 11
6.0453637884
 21
-5.7342262818
  0
LINE
  5
5AC
100
AcDbEntity
  8
CURVE
100
AcDbLine
 62
250
  6
CONTINUOUS
 10
6.0453637884
 20
-5.20297807
 11
4.5162913591
 21
-5.20297807
  0
LINE
  5
5AD
100
AcDbEntity
  8
CURVE
100
AcDbLine
 62
250
  6
CONTINUOUS
 10
8.8975218184
 20
-4.7482074356
 11
8.1546646423
 21
-4.7482074356
  0
LINE
  5
5AE
100
AcDbEntity
  8
DRAFT
100
AcDbLine
 62
7
  6
CONTINUOUS
 10
-11.1024781816
 20
22.0327455357
 11
-9.6024781816
 21
20.74703125
  0
LINE
  5
5AF
100
AcDbEntity
  8
CURVE
100
AcDbLine
 62
250
  6
CONTINUOUS
 10
2.3975218184
 20
9.74703125
 11
2.1118075199
 21
10.0327456379
  0
LINE
  5
5B0
100
AcDbEntity
  8
CURVE
100
AcDbLine
 62
250
  6
CONTINUOUS
 10
0.3975218184
 20
12.74703125
 11
0.6832360871
 21
12.4613171005
  0
LWPOLYLINE
  5
5B1
100
AcDbEntity
  8
ASSI
100
AcDbPolyline
 62
250
  6
CONTINUOUS
 90
10
 70
0
 10
-3.51427844
 20
21.9109537571
 10
-3.5273793251
 20
21.9261809038
 10
-3.5408932156
 20
21.9406927449
 10
-3.5548401408
 20
21.9545071216
 10
-3.5693867483
 20
21.967674174
 10
-3.5843989999
 20
21.980205472
 10
-3.5994513539
 20
21.9920542751
 10
-3.6144194159
 20
22.0032125676
 10
-3.6294718093
 20
22.0137271279
 10
-3.6446288152
 20
22.0236179759
  0
LWPOLYLINE
  5
5B2
100
AcDbEntity
  8
RACCORDO
100
AcDbPolyline
 62
250
  6
CONTINUOUS
 90
8
 70
0
 10
-8.2620293763
 20
-22.8657241271
 10
-8.2451274886
 20
-22.85089851
 10
-8.2258387488
 20
-22.8378483986
 10
-8.2044859221
 20
-22.8267921391
 10
-8.1814262845
 20
-22.8179147071
 10
-8.1570456782
 20
-22.8113646321
 10
-8.1317520626
 20
-22.8072515059
 10
-8.1059686629
 20
-22.8056441401
  0
LWPOLYLINE
  5
5B3
100
AcDbEntity
  8
CURVE
100
AcDbPolyline
 62
250
  6
CONTINUOUS
 90
8
 70
0
 10
-1.5195972589
 20
-6.485093113
 10
-1.4790683906
 20
-6.4702354448
 10
-1.4383286614
 20
-6.455986007
 10
-1.3974023756
 20
-6.4422762344
 10
-1.3563138372
 20
-6.429037562
 10
-1.3150873504
 20
-6.4162014246
 10
-1.2737472194
 20
-6.4036992571
 10
-1.2323177484
 20
-6.3914624943
  0
LINE
  5
5B4
100
AcDbEntity
  8
CURVE
100
AcDbLine
 62
250
  6
CONTINUOUS
 10
-3.6094879152
 20
-8.89799875
 11
-0.610077345
 21
-7.97763575
  0
LINE
  5
5B5
100
AcDbEntity
  8
CURVE
100
AcDbLine
 62
250
  6
CONTINUOUS
 10
-0.9520693278
 20
-6.3108553684
 11
-0.610077677
 21
-6.2112964546
  0
LWPOLYLINE
  5
5B6
100
AcDbEntity
  8
CURVE
100
AcDbPolyline
 62
250
  6
CONTINUOUS
 90
3
 70
0
 10
-1.2323177484
 20
-6.3914624943
 10
-1.1492880027
 20
-6.3675109224
 10
-0.9520693278
 20
-6.3108553684
  0
LINE
  5
5B7
100
AcDbEntity
  8
CURVE
100
AcDbLine
 62
250
  6
CONTINUOUS
 10
-0.610077345
 20
-8.63756375
 11
-1.2088667423
 21
-8.79976775
  0
LINE
  5
5B8
100
AcDbEntity
  8
CURVE
100
AcDbLine
 62
250
  6
CONTINUOUS
 10
-1.6722074551
 20
-8.92490175
 11
-2.7853266819
 21
-9.21262275
  0
LINE
  5
5B9
100
AcDbEntity
  8
DRAFT
100
AcDbLine
 62
7
  6
CONTINUOUS
 10
10.1870519694
 20
-3.3630793657
 11
11.6079916674
 21
-3.4126996733
  0
LINE
  5
5BA
100
AcDbEntity
  8
ASSI
100
AcDbLine
 62
7
  6
CONTINUOUS
 10
10.1870519694
 20
-3.3630793657
 11
11.6079916674
 21
-3.4126996733
  0
LINE
  5
5BB
100
AcDbEntity
  8
CURVE
100
AcDbLine
 62
250
  6
CONTINUOUS
 10
2.3975218184
 20
12.8898883247
 11
2.1118075199
 21
13.1756024742
  0
LINE
  5
5BC
100
AcDbEntity
  8
CURVE
100
AcDbLine
 62
250
  6
CONTINUOUS
 10
2.1118075199
 20
14.74703125
 11
2.3975218184
 21
14.4613171005
  0
LWPOLYLINE
  5
5BD
100
AcDbEntity
  8
0
100
AcDbPolyline
 62
7
  6
CONTINUOUS
 90
10
 70
0
 43
0.3500000006
 10
2.3118074727
 20
34.610057373
 10
2.3832359648
 20
34.4671995392
 10
2.3832359648
 20
34.3957728882
 10
2.2403789806
 20
34.2529150543
 10
2.1689503469
 20
34.2529150543
 10
2.0975218549
 20
34.3243462372
 10
2.0975218549
 20
34.3957728882
 10
2.1689503469
 20
34.538630722
 10
2.2403789806
 20
34.610057373
 10
2.3118074727
 20
34.610057373
  0
LINE
  5
5BE
100
AcDbEntity
  8
CURVE
100
AcDbLine
 62
250
  6
CONTINUOUS
 10
7.7832360931
 20
-14.3743974543
 11
7.5975218184
 21
-14.5601116514
  0
LWPOLYLINE
  5
5BF
100
AcDbEntity
  8
ASSI
100
AcDbPolyline
 62
250
  6
CONTINUOUS
 90
16
 70
0
 10
-3.7327195973
 20
-24.4498879883
 10
-3.7282549317
 20
-24.4462583875
 10
-3.7238931235
 20
-24.4424537381
 10
-3.7196423033
 20
-24.4384707931
 10
-3.7155474233
 20
-24.4343400725
 10
-3.7115796531
 20
-24.4300271001
 10
-3.7076438679
 20
-24.4254242995
 10
-3.703734542
 20
-24.4204938914
 10
-3.6998948321
 20
-24.41525469
 10
-3.6961129655
 20
-24.4096761327
 10
-3.6924128712
 20
-24.4037423937
 10
-3.6888193807
 20
-24.3974535096
 10
-3.6853257187
 20
-24.3908029025
 10
-3.6819485368
 20
-24.38378602
 10
-3.678728174
 20
-24.3764006117
 10
-3.6756953641
 20
-24.3686462072
  0
LINE
  5
5C0
100
AcDbEntity
  8
CURVE
100
AcDbLine
 62
250
  6
CONTINUOUS
 10
8.8975218184
 20
-10.4124926186
 11
7.5975218184
 21
-11.0624926186
  0
LINE
  5
5C1
100
AcDbEntity
  8
CURVE
100
AcDbLine
 62
250
  6
CONTINUOUS
 10
-0.610077345
 20
-12.11639175
 11
-2.5686361847
 21
-12.85093275
  0
LINE
  5
5C2
100
AcDbEntity
  8
CURVE
100
AcDbLine
 62
250
  6
CONTINUOUS
 10
-3.6094879152
 20
-12.68859375
 11
-1.9442057402
 21
-12.06906475
  0
LINE
  5
5C3
100
AcDbEntity
  8
CURVE
100
AcDbLine
 62
250
  6
CONTINUOUS
 10
8.8975218184
 20
-6.3267778015
 11
7.5975218184
 21
-6.6982074356
  0
LWPOLYLINE
  5
5C4
100
AcDbEntity
  8
CURVE
100
AcDbPolyline
 62
250
  6
CONTINUOUS
 90
39
 70
0
 10
-1.4941606213
 20
-5.8427293969
 10
-1.5182020053
 20
-5.8494553475
 10
-1.5421836275
 20
-5.8563847244
 10
-1.5660841901
 20
-5.863587443
 10
-1.5898823955
 20
-5.8711334189
 10
-1.6117198055
 20
-5.87845068
 10
-1.6334356986
 20
-5.886137234
 10
-1.6550137183
 20
-5.8942109976
 10
-1.6764375079
 20
-5.9026898876
 10
-1.6976907107
 20
-5.9115918207
 10
-1.7187569703
 20
-5.9209347138
 10
-1.73961993
 20
-5.9307364836
 10
-1.7602632332
 20
-5.9410150468
 10
-1.7737035468
 20
-5.9480412688
 10
-1.7870263067
 20
-5.9552944037
 10
-1.8002159392
 20
-5.962787602
 10
-1.8132568711
 20
-5.970534014
 10
-1.8261335289
 20
-5.9785467903
 10
-1.8388303391
 20
-5.9868390812
 10
-1.8513317284
 20
-5.9954240372
 10
-1.8636221234
 20
-6.0043148086
 10
-1.8756859506
 20
-6.0135245458
 10
-1.8875076365
 20
-6.0230663993
 10
-1.8990716079
 20
-6.0329535196
 10
-1.9103622912
 20
-6.0431990569
 10
-1.9193458051
 20
-6.0518176696
 10
-1.9281189079
 20
-6.0606777994
 10
-1.936662896
 20
-6.069774367
 10
-1.9449590661
 20
-6.0791022927
 10
-1.9529887143
 20
-6.0886564972
 10
-1.9607331371
 20
-6.098431901
 10
-1.9681736311
 20
-6.1084234245
 10
-1.9752914924
 20
-6.1186259885
 10
-1.9820680177
 20
-6.1290345133
 10
-1.9884845032
 20
-6.1396439196
 10
-1.9945222454
 20
-6.1504491278
 10
-2.0001625408
 20
-6.1614450585
 10
-2.0053866857
 20
-6.1726266322
 10
-2.0101759765
 20
-6.1839887695
  0
LINE
  5
5C5
100
AcDbEntity
  8
CURVE
100
AcDbLine
 62
250
  6
CONTINUOUS
 10
-1.3205628784
 20
-5.7957619076
 11
-1.4941606213
 21
-5.8427293969
  0
LINE
  5
5C6
100
AcDbEntity
  8
CURVE
100
AcDbLine
 62
250
  6
CONTINUOUS
 10
-0.610077677
 20
-5.6090202857
 11
-0.7114246952
 21
-5.6362613971
  0
LWPOLYLINE
  5
5C7
100
AcDbEntity
  8
CURVE
100
AcDbPolyline
 62
250
  6
CONTINUOUS
 90
5
 70
0
 10
-0.7114246952
 20
-5.6362613971
 10
-0.9144286194
 20
-5.6895861767
 10
-1.0160060153
 20
-5.7159666982
 10
-1.1175806938
 20
-5.7423572094
 10
-1.3205628784
 20
-5.7957619076
  0
LWPOLYLINE
  5
5C8
100
AcDbEntity
  8
CURVE
100
AcDbPolyline
 62
250
  6
CONTINUOUS
 90
17
 70
0
 10
2.9956020529
 20
-0.7529547116
 10
3.0927116385
 20
-0.7434326709
 10
3.1861223503
 20
-0.7152292404
 10
3.2722762031
 20
-0.6694186799
 10
3.3491278125
 20
-0.6065139713
 10
3.4110618158
 20
-0.5311114105
 10
3.4571710859
 20
-0.4451147107
 10
3.485699335
 20
-0.3517994594
 10
3.4955629767
 20
-0.25297475
 10
3.4860412986
 20
-0.1558614665
 10
3.457838942
 20
-0.0624471979
 10
3.4120301259
 20
0.0237099355
 10
3.3491278125
 20
0.1005644713
 10
3.2737281227
 20
0.162500833
 10
3.1877346974
 20
0.2086118589
 10
3.0944229994
 20
0.2371411942
 10
2.9956020091
 20
0.2470052116
  0
LWPOLYLINE
  5
5C9
100
AcDbEntity
  8
CURVE
100
AcDbPolyline
 62
250
  6
CONTINUOUS
 90
17
 70
0
 10
2.9956020529
 20
0.2470052116
 10
2.8984924672
 20
0.2374831709
 10
2.8050817554
 20
0.2092797404
 10
2.7189279026
 20
0.1634691799
 10
2.6420762933
 20
0.1005644713
 10
2.5801422899
 20
0.0251619105
 10
2.5340330198
 20
-0.0608347893
 10
2.5055047708
 20
-0.1541500406
 10
2.495641129
 20
-0.25297475
 10
2.5051628071
 20
-0.3500880335
 10
2.5333651637
 20
-0.4435023021
 10
2.5791739798
 20
-0.5296594355
 10
2.6420762933
 20
-0.6065139713
 10
2.717475983
 20
-0.668450333
 10
2.8034694083
 20
-0.7145613589
 10
2.8967811064
 20
-0.7430906942
 10
2.9956020966
 20
-0.7529547116
  0
LINE
  5
5CA
100
AcDbEntity
  8
DRAFT
100
AcDbLine
 62
7
  6
CONTINUOUS
 10
10.1870519694
 20
0.8571418657
 11
11.6079916674
 21
0.9067621733
  0
LINE
  5
5CB
100
AcDbEntity
  8
ASSI
100
AcDbLine
 62
7
  6
CONTINUOUS
 10
10.1870519694
 20
0.8571418657
 11
11.6079916674
 21
0.9067621733
  0
LINE
  5
5CC
100
AcDbEntity
  8
CURVE
100
AcDbLine
 62
250
  6
CONTINUOUS
 10
5.995367596
 20
-0.2529687508
 11
4.9954433899
 21
-0.2529687508
  0
LINE
  5
5CD
100
AcDbEntity
  8
CURVE
100
AcDbLine
 62
250
  6
CONTINUOUS
 10
0.9957476417
 20
-0.2529687508
 11
-0.0041754879
 21
-0.2529687508
  0
LINE
  5
5CE
100
AcDbEntity
  8
CURVE
100
AcDbLine
 62
250
  6
CONTINUOUS
 10
0.6832360871
 20
9.3184597874
 11
0.9689503558
 21
9.1756027126
  0
LINE
  5
5CF
100
AcDbEntity
  8
CURVE
100
AcDbLine
 62
250
  6
CONTINUOUS
 10
2.1118075199
 20
10.0327456379
 11
1.8260932214
 21
10.1756027126
  0
LWPOLYLINE
  5
5D0
100
AcDbEntity
  8
0
100
AcDbPolyline
 62
7
  6
CONTINUOUS
 90
10
 70
0
 43
0.3500000006
 10
-0.5381924765
 20
44.6100604248
 10
-0.4667638782
 20
44.4672025909
 10
-0.4667638782
 20
44.3957714081
 10
-0.6096210394
 20
44.2529135742
 10
-0.6810496023
 20
44.2529135742
 10
-0.7524781651
 20
44.3243447571
 10
-0.7524781651
 20
44.3957714081
 10
-0.6810496023
 20
44.5386292419
 10
-0.6096210394
 20
44.6100604248
 10
-0.5381924765
 20
44.6100604248
  0
LINE
  5
5D1
100
AcDbEntity
  8
RACCORDO
100
AcDbLine
 62
250
  6
CONTINUOUS
 10
9.8975218184
 20
3.97203125
 11
11.8975218184
 21
3.97203125
  0
LINE
  5
5D2
100
AcDbEntity
  8
ASSI
100
AcDbLine
 62
250
  6
CONTINUOUS
 10
9.8975218184
 20
3.97203125
 11
11.8975218184
 21
3.97203125
  0
LINE
  5
5D3
100
AcDbEntity
  8
CURVE
100
AcDbLine
 62
250
  6
CONTINUOUS
 10
0.6832360871
 20
12.4613171005
 11
0.9689503558
 21
12.3184600258
  0
LINE
  5
5D4
100
AcDbEntity
  8
CURVE
100
AcDbLine
 62
250
  6
CONTINUOUS
 10
2.1118075199
 20
13.1756024742
 11
1.8260932214
 21
13.3184600258
  0
LWPOLYLINE
  5
5D5
100
AcDbEntity
  8
ASSI
100
AcDbPolyline
 62
250
  6
CONTINUOUS
 90
30
 70
0
 10
-3.7327392268
 20
21.9439657893
 10
-3.7377949863
 20
21.9477682319
 10
-3.7429707491
 20
21.9513634044
 10
-3.7482574904
 20
21.954757041
 10
-3.7536009807
 20
21.9579338375
 10
-3.7590390138
 20
21.9609228196
 10
-3.764705088
 20
21.9637898162
 10
-3.7706180118
 20
21.966550542
 10
-3.7767535064
 20
21.969187701
 10
-3.7831853076
 20
21.9717099014
 10
-3.7899069957
 20
21.9741178395
 10
-3.7969226068
 20
21.9764086379
 10
-3.8043249546
 20
21.9785840954
 10
-3.8121157694
 20
21.9806464173
 10
-3.8202956865
 20
21.9825906048
 10
-3.8289613385
 20
21.9844087079
 10
-3.8381219083
 20
21.9861042823
 10
-3.8477777795
 20
21.987674186
 10
-3.8580216933
 20
21.9891054053
 10
-3.8688701525
 20
21.9904042632
 10
-3.8803275998
 20
21.9915723573
 10
-3.892483838
 20
21.9925983391
 10
-3.9053685811
 20
21.9934932291
 10
-3.9189890033
 20
21.9942640986
 10
-3.9334235866
 20
21.9949051618
 10
-3.9487231162
 20
21.9954326467
 10
-3.9648919847
 20
21.9958587447
 10
-3.9819699212
 20
21.9961842772
 10
-4.0000264229
 20
21.9964289007
 10
-4.039058793
 20
21.9967243339
  0
LWPOLYLINE
  5
5D6
100
AcDbEntity
  8
ASSI
100
AcDbPolyline
 62
250
  6
CONTINUOUS
 90
16
 70
0
 10
-3.6445906955
 20
-24.5295281926
 10
-3.6354421726
 20
-24.5235492346
 10
-3.626402377
 20
-24.5174456628
 10
-3.6174690116
 20
-24.5112127154
 10
-3.6086803784
 20
-24.5048920864
 10
-3.599994306
 20
-24.498432098
 10
-3.591284703
 20
-24.4916889199
 10
-3.5824734199
 20
-24.4846173173
 10
-3.5736265094
 20
-24.4772554753
 10
-3.5648311853
 20
-24.4695834311
 10
-3.5560655606
 20
-24.4615815122
 10
-3.5473392205
 20
-24.4532582985
 10
-3.5387882539
 20
-24.4446317145
 10
-3.5304552949
 20
-24.4357025227
 10
-3.5222875517
 20
-24.4264577987
 10
-3.5142791567
 20
-24.4168941559
  0
LWPOLYLINE
  5
5D7
100
AcDbEntity
  8
ASSI
100
AcDbPolyline
 62
250
  6
CONTINUOUS
 90
16
 70
0
 10
-6.8061673773
 20
-25.8203972437
 10
-6.8240229459
 20
-25.8305460367
 10
-6.8417212629
 20
-25.8403995155
 10
-6.8590748043
 20
-25.8498534464
 10
-6.875896599
 20
-25.8588062084
 10
-6.8920125566
 20
-25.8671653935
 10
-6.9072617354
 20
-25.8748475012
 10
-6.921489891
 20
-25.8817743672
 10
-6.9345354183
 20
-25.8878668213
 10
-6.9462452941
 20
-25.8930536225
 10
-6.9564976188
 20
-25.8972816548
 10
-6.9651895714
 20
-25.9005095172
 10
-6.9722286766
 20
-25.9027044458
 10
-6.9775479298
 20
-25.9038482916
 10
-6.981102144
 20
-25.903934956
 10
-6.9828629393
 20
-25.90296875
  0
LWPOLYLINE
  5
5D8
100
AcDbEntity
  8
ASSI
100
AcDbPolyline
 62
250
  6
CONTINUOUS
 90
13
 70
0
 10
-7.2680475926
 20
-25.0203972437
 10
-7.2902985682
 20
-25.0330125228
 10
-7.3122400575
 20
-25.0451321786
 10
-7.333510098
 20
-25.0565562767
 10
-7.3537578042
 20
-25.0670963571
 10
-7.3726491556
 20
-25.0765785431
 10
-7.3898725071
 20
-25.0848464098
 10
-7.4051437301
 20
-25.0917635649
 10
-7.4182108998
 20
-25.0972158978
 10
-7.4288584507
 20
-25.1011134632
 10
-7.4369107335
 20
-25.103391964
 10
-7.442234912
 20
-25.1040138124
 10
-7.4447431547
 20
-25.10296875
  0
LINE
  5
5D9
100
AcDbEntity
  8
CURVE
100
AcDbLine
 62
250
  6
CONTINUOUS
 10
8.3403789557
 20
-16.881540162
 11
7.5975218184
 21
-17.25296875
  0
LINE
  5
5DA
100
AcDbEntity
  8
CURVE
100
AcDbLine
 62
250
  6
CONTINUOUS
 10
-0.610077345
 20
-16.29663875
 11
-3.6094879152
 21
-17.24758275
  0
LINE
  5
5DB
100
AcDbEntity
  8
RACCORDO
100
AcDbLine
 62
250
  6
CONTINUOUS
 10
9.8975218184
 20
5.72203125
 11
11.8975218184
 21
5.72203125
  0
LINE
  5
5DC
100
AcDbEntity
  8
ASSI
100
AcDbLine
 62
250
  6
CONTINUOUS
 10
9.8975218184
 20
5.72203125
 11
11.8975218184
 21
5.72203125
  0
LINE
  5
5DD
100
AcDbEntity
  8
CURVE
100
AcDbLine
 62
250
  6
CONTINUOUS
 10
-0.6046347595
 20
5.90139925
 11
-3.6079770303
 21
5.90139925
  0
LINE
  5
5DE
100
AcDbEntity
  8
CURVE
100
AcDbLine
 62
250
  6
CONTINUOUS
 10
-3.6079770303
 20
6.25451625
 11
-0.887106247
 21
6.25451625
  0
LINE
  5
5DF
100
AcDbEntity
  8
CURVE
100
AcDbLine
 62
250
  6
CONTINUOUS
 10
-0.887106247
 20
7.19754625
 11
-0.6046347595
 21
7.19754625
  0
LINE
  5
5E0
100
AcDbEntity
  8
CURVE
100
AcDbLine
 62
250
  6
CONTINUOUS
 10
-0.6046407591
 20
7.61202925
 11
-3.6079830298
 21
7.61202925
  0
LINE
  5
5E1
100
AcDbEntity
  8
CURVE
100
AcDbLine
 62
250
  6
CONTINUOUS
 10
-3.2798030235
 20
13.65097625
 11
-1.6473093513
 21
13.21477325
  0
LINE
  5
5E2
100
AcDbEntity
  8
CURVE
100
AcDbLine
 62
250
  6
CONTINUOUS
 10
0.3975218184
 20
11.1756027126
 11
1.9689503856
 21
10.74703125
  0
LINE
  5
5E3
100
AcDbEntity
  8
CURVE
100
AcDbLine
 62
250
  6
CONTINUOUS
 10
-1.364834864
 20
13.12753125
 11
-0.6046257602
 21
12.91565925
  0
LINE
  5
5E4
100
AcDbEntity
  8
CURVE
100
AcDbLine
 62
250
  6
CONTINUOUS
 10
-0.6046257602
 20
12.56254425
 11
-3.6079970288
 21
13.44326025
  0
LWPOLYLINE
  5
5E5
100
AcDbEntity
  8
ASSI
100
AcDbPolyline
 62
250
  6
CONTINUOUS
 90
13
 70
0
 10
-7.2680475926
 20
22.5144597437
 10
-7.2902985373
 20
22.5270750055
 10
-7.3122400031
 20
22.5391946489
 10
-7.3335100285
 20
22.5506187398
 10
-7.3537577282
 20
22.5611588181
 10
-7.372649081
 20
22.5706410062
 10
-7.3898724398
 20
22.5789088782
 10
-7.4051436748
 20
22.5858260406
 10
-7.4182108591
 20
22.5912783817
 10
-7.4288584247
 20
22.5951759545
 10
-7.43691072
 20
22.597454461
 10
-7.4422349077
 20
22.5980763126
 10
-7.4447431547
 20
22.59703125
  0
LWPOLYLINE
  5
5E6
100
AcDbEntity
  8
ASSI
100
AcDbPolyline
 62
250
  6
CONTINUOUS
 90
16
 70
0
 10
-6.8061673773
 20
23.3144597437
 10
-6.8239949899
 20
23.3245928087
 10
-6.8416709283
 20
23.3344342891
 10
-6.8590081893
 20
23.3438800664
 10
-6.8758236562
 20
23.352830368
 10
-6.8919390994
 20
23.361190322
 10
-6.9071832037
 20
23.3688710767
 10
-6.9213943526
 20
23.3757912542
 10
-6.9344230054
 20
23.3818780918
 10
-6.9461322056
 20
23.3870676274
 10
-6.9564018886
 20
23.3913064604
 10
-6.9651184286
 20
23.3945474775
 10
-6.9721825002
 20
23.3967544584
 10
-6.9775235131
 20
23.397907397
 10
-6.9810941396
 20
23.3979987778
 10
-6.9828629393
 20
23.39703125
  0
LWPOLYLINE
  5
5E7
100
AcDbEntity
  8
ASSI
100
AcDbPolyline
 62
250
  6
CONTINUOUS
 90
30
 70
0
 10
-3.6446304475
 20
22.023614518
 10
-3.6544073418
 20
22.0298399727
 10
-3.6641980845
 20
22.0358505765
 10
-3.6740020789
 20
22.041647817
 10
-3.6837534903
 20
22.0471938968
 10
-3.6935171772
 20
22.0525290317
 10
-3.7034887455
 20
22.0577713189
 10
-3.7137116417
 20
22.0629534089
 10
-3.7241420214
 20
22.0680436294
 10
-3.7348447029
 20
22.0730632275
 10
-3.7458177336
 20
22.0780139699
 10
-3.757063125
 20
22.0828939458
 10
-3.7686517771
 20
22.0877185527
 10
-3.7805918396
 20
22.0924909944
 10
-3.7928757882
 20
22.0972065284
 10
-3.8055512025
 20
22.1018681621
 10
-3.8186284777
 20
22.106475589
 10
-3.8320984755
 20
22.1110259893
 10
-3.8459796672
 20
22.1155181134
 10
-3.8602764753
 20
22.1199463323
 10
-3.8749862159
 20
22.1243118565
 10
-3.8901167647
 20
22.1286234992
 10
-3.905665062
 20
22.1328725601
 10
-3.9216359533
 20
22.1370629946
 10
-3.9380490116
 20
22.1412229392
 10
-3.9548918887
 20
22.145343303
 10
-3.972178197
 20
22.149429414
 10
-3.9899661036
 20
22.1535318379
 10
-4.0082217054
 20
22.1576426715
 10
-4.0463985893
 20
22.1659804602
  0
LINE
  5
5E8
100
AcDbEntity
  8
ASSI
100
AcDbLine
 62
250
  6
CONTINUOUS
 10
-6.4830495531
 20
-25.7922895798
 11
-4.1087843055
 21
-24.6851515124
  0
LINE
  5
5E9
100
AcDbEntity
  8
ASSI
100
AcDbLine
 62
7
  6
CONTINUOUS
 10
-6.402016382
 20
-25.9561226435
 11
-3.5871031995
 21
-24.6435070694
  0
LINE
  5
5EA
100
AcDbEntity
  8
CURVE
100
AcDbLine
 62
250
  6
CONTINUOUS
 10
8.8975218184
 20
-15.3958258486
 11
7.5975218184
 21
-15.7672543979
  0
LINE
  5
5EB
100
AcDbEntity
  8
CURVE
100
AcDbLine
 62
250
  6
CONTINUOUS
 10
-3.6079830298
 20
7.96514625
 11
-0.6046407591
 21
7.96514625
  0
LINE
  5
5EC
100
AcDbEntity
  8
CURVE
100
AcDbLine
 62
250
  6
CONTINUOUS
 10
-0.6046347595
 20
8.51903525
 11
-3.6079770303
 21
8.51903525
  0
LINE
  5
5ED
100
AcDbEntity
  8
CURVE
100
AcDbLine
 62
250
  6
CONTINUOUS
 10
0.6832360871
 20
8.5565550709
 11
1.1118075497
 21
8.5565550709
  0
LINE
  5
5EE
100
AcDbEntity
  8
CURVE
100
AcDbLine
 62
250
  6
CONTINUOUS
 10
1.5403789528
 20
8.6041741157
 11
2.2546646692
 21
8.6041741157
  0
LINE
  5
5EF
100
AcDbEntity
  8
CURVE
100
AcDbLine
 62
250
  6
CONTINUOUS
 10
-3.3047361246
 20
8.84722725
 11
-0.6046347595
 21
8.84722725
  0
LINE
  5
5F0
100
AcDbEntity
  8
CURVE
100
AcDbLine
 62
250
  6
CONTINUOUS
 10
0.9689503558
 20
9.1756027126
 11
1.8260932214
 21
9.1756027126
  0
LINE
  5
5F1
100
AcDbEntity
  8
CURVE
100
AcDbLine
 62
250
  6
CONTINUOUS
 10
-0.9078756652
 20
10.07690425
 11
-3.6079770303
 21
10.07690425
  0
LINE
  5
5F2
100
AcDbEntity
  8
CURVE
100
AcDbLine
 62
250
  6
CONTINUOUS
 10
1.8260932214
 20
10.1756027126
 11
0.9689503558
 21
10.1756027126
  0
LINE
  5
5F3
100
AcDbEntity
  8
CURVE
100
AcDbLine
 62
250
  6
CONTINUOUS
 10
-3.6079770303
 20
10.40512325
 11
-0.6046347595
 21
10.40512325
  0
LINE
  5
5F4
100
AcDbEntity
  8
0
100
AcDbLine
 62
7
  6
CONTINUOUS
 10
9.8975218184
 20
10.457421438
 11
10.0975218184
 21
10.457421438
  0
LINE
  5
5F5
100
AcDbEntity
  8
ASSI
100
AcDbLine
 62
7
  6
CONTINUOUS
 10
9.8975218184
 20
10.457421438
 11
10.0975218184
 21
10.457421438
  0
LINE
  5
5F6
100
AcDbEntity
  8
0
100
AcDbLine
 62
7
  6
CONTINUOUS
 10
9.8975218184
 20
10.4994752244
 11
10.0975218184
 21
10.4994752244
  0
LINE
  5
5F7
100
AcDbEntity
  8
ASSI
100
AcDbLine
 62
7
  6
CONTINUOUS
 10
9.8975218184
 20
10.4994752244
 11
10.0975218184
 21
10.4994752244
  0
LINE
  5
5F8
100
AcDbEntity
  8
DRAFT
100
AcDbLine
 62
7
  6
CONTINUOUS
 10
10.1870519694
 20
8.8369206343
 11
11.6079916674
 21
8.7873003267
  0
LINE
  5
5F9
100
AcDbEntity
  8
ASSI
100
AcDbLine
 62
7
  6
CONTINUOUS
 10
10.1870519694
 20
8.8369206343
 11
11.6079916674
 21
8.7873003267
  0
LWPOLYLINE
  5
5FA
100
AcDbEntity
  8
ASSI
100
AcDbPolyline
 62
250
  6
CONTINUOUS
 90
16
 70
0
 10
-6.4830495531
 20
23.2863520798
 10
-6.4929554087
 20
23.2906983448
 10
-6.5026858783
 20
23.294628186
 10
-6.5122409618
 20
23.2981416034
 10
-6.5216348111
 20
23.3012130639
 10
-6.5308532743
 20
23.3038681005
 10
-6.5398538966
 20
23.3061833127
 10
-6.5486333229
 20
23.3081606272
 10
-6.5571949083
 20
23.3097981173
 10
-6.5655062628
 20
23.3111666028
 10
-6.5735647275
 20
23.31226785
 10
-6.5813729612
 20
23.3131000925
 10
-6.5889065499
 20
23.3137288511
 10
-6.5961573555
 20
23.3141759659
 10
-6.6031335161
 20
23.3144195968
 10
-6.6098350316
 20
23.3144597437
  0
LINE
  5
5FB
100
AcDbEntity
  8
ASSI
100
AcDbLine
 62
250
  6
CONTINUOUS
 10
-4.1087843057
 20
22.1792140124
 11
-6.4830495531
 21
23.2863520798
  0
LINE
  5
5FC
100
AcDbEntity
  8
ASSI
100
AcDbLine
 62
7
  6
CONTINUOUS
 10
-3.5871031995
 20
22.1375695694
 11
-6.402016382
 21
23.4501851435
  0
LWPOLYLINE
  5
5FD
100
AcDbEntity
  8
ASSI
100
AcDbPolyline
 62
250
  6
CONTINUOUS
 90
13
 70
0
 10
3.4575811276
 20
21.3828621953
 10
3.4628054559
 20
21.3800174472
 10
3.4672344235
 20
21.3745161941
 10
3.4708062172
 20
21.3664352147
 10
3.4734709869
 20
21.3558872921
 10
3.4751915413
 20
21.3430196395
 10
3.4759438675
 20
21.3280118453
 10
3.4757174656
 20
21.3110733675
 10
3.4745154952
 20
21.2924406097
 10
3.4723547319
 20
21.2723736216
 10
3.4692653326
 20
21.2511524704
 10
3.4652904147
 20
21.229073331
 10
3.4604854546
 20
21.2064443532
  0
LWPOLYLINE
  5
5FE
100
AcDbEntity
  8
RACCORDO
100
AcDbPolyline
 62
7
  6
CONTINUOUS
 90
19
 70
0
 10
9.5636555723
 20
18.152858907
 10
9.5938285999
 20
18.1352423168
 10
9.623035824
 20
18.1149053394
 10
9.6512772447
 20
18.0918479746
 10
9.6787018443
 20
18.0659346452
 10
9.7051606405
 20
18.0373009285
 10
9.7302066862
 20
18.0063535565
 10
9.7537229611
 20
17.9732722383
 10
9.7758264855
 20
17.9378772648
 10
9.7964213734
 20
17.9000362412
 10
9.815611222
 20
17.859686967
 10
9.8332924341
 20
17.8168916426
 10
9.8490583318
 20
17.7717044743
 10
9.8629621317
 20
17.724033912
 10
9.8749506173
 20
17.6739715056
 10
9.8844574614
 20
17.6218461118
 10
9.8912938885
 20
17.5677673491
 10
9.8956486741
 20
17.5116255988
 10
9.8975218184
 20
17.453420861
  0
LWPOLYLINE
  5
5FF
100
AcDbEntity
  8
ASSI
100
AcDbPolyline
 62
7
  6
CONTINUOUS
 90
19
 70
0
 10
9.5636555723
 20
18.152858907
 10
9.5938285999
 20
18.1352423168
 10
9.623035824
 20
18.1149053394
 10
9.6512772447
 20
18.0918479746
 10
9.6787018443
 20
18.0659346452
 10
9.7051606405
 20
18.0373009285
 10
9.7302066862
 20
18.0063535565
 10
9.7537229611
 20
17.9732722383
 10
9.7758264855
 20
17.9378772648
 10
9.7964213734
 20
17.9000362412
 10
9.815611222
 20
17.859686967
 10
9.8332924341
 20
17.8168916426
 10
9.8490583318
 20
17.7717044743
 10
9.8629621317
 20
17.724033912
 10
9.8749506173
 20
17.6739715056
 10
9.8844574614
 20
17.6218461118
 10
9.8912938885
 20
17.5677673491
 10
9.8956486741
 20
17.5116255988
 10
9.8975218184
 20
17.453420861
  0
LINE
  5
600
100
AcDbEntity
  8
DRAFT
100
AcDbLine
 62
7
  6
CONTINUOUS
 10
4.7689147462
 20
-20.9317109259
 11
4.8975218184
 21
-20.8937328294
  0
LINE
  5
601
100
AcDbEntity
  8
ASSI
100
AcDbLine
 62
7
  6
CONTINUOUS
 10
4.7689147462
 20
-20.9317109259
 11
4.8975218184
 21
-20.8937328294
  0
LINE
  5
602
100
AcDbEntity
  8
CURVE
100
AcDbLine
 62
250
  6
CONTINUOUS
 10
-0.6046347595
 20
10.95483525
 11
-3.6079770303
 21
10.95483525
  0
LINE
  5
603
100
AcDbEntity
  8
CURVE
100
AcDbLine
 62
250
  6
CONTINUOUS
 10
-3.3255055428
 20
11.30795125
 11
-2.2953130005
 21
11.30795125
  0
LINE
  5
604
100
AcDbEntity
  8
CURVE
100
AcDbLine
 62
250
  6
CONTINUOUS
 10
-2.0128405131
 20
11.30795125
 11
-0.887106247
 21
11.30795125
  0
LINE
  5
605
100
AcDbEntity
  8
CURVE
100
AcDbLine
 62
250
  6
CONTINUOUS
 10
1.3975218184
 20
11.4136979961
 11
2.3975218184
 21
11.4136979961
  0
LINE
  5
606
100
AcDbEntity
  8
0
100
AcDbLine
 62
7
  6
CONTINUOUS
 10
9.8975218184
 20
12.1681083235
 11
10.0975218184
 21
12.1681083235
  0
LINE
  5
607
100
AcDbEntity
  8
ASSI
100
AcDbLine
 62
7
  6
CONTINUOUS
 10
9.8975218184
 20
12.1681083235
 11
10.0975218184
 21
12.1681083235
  0
LINE
  5
608
100
AcDbEntity
  8
CURVE
100
AcDbLine
 62
250
  6
CONTINUOUS
 10
-2.2953130005
 20
12.28421725
 11
-2.0128405131
 21
12.28421725
  0
LINE
  5
609
100
AcDbEntity
  8
CURVE
100
AcDbLine
 62
250
  6
CONTINUOUS
 10
0.9689503558
 20
12.3184600258
 11
1.8260932214
 21
12.3184600258
  0
LINE
  5
60A
100
AcDbEntity
  8
CURVE
100
AcDbLine
 62
250
  6
CONTINUOUS
 10
-3.6079770303
 20
12.33822225
 11
-3.3255055428
 21
12.33822225
  0
LINE
  5
60B
100
AcDbEntity
  8
CURVE
100
AcDbLine
 62
250
  6
CONTINUOUS
 10
-0.887106247
 20
12.36730325
 11
-0.6046347595
 21
12.36730325
  0
LINE
  5
60C
100
AcDbEntity
  8
0
100
AcDbLine
 62
7
  6
CONTINUOUS
 10
9.8975218184
 20
12.3894558544
 11
10.0975218184
 21
12.3894558544
  0
LINE
  5
60D
100
AcDbEntity
  8
ASSI
100
AcDbLine
 62
7
  6
CONTINUOUS
 10
9.8975218184
 20
12.3894558544
 11
10.0975218184
 21
12.3894558544
  0
LINE
  5
60E
100
AcDbEntity
  8
0
100
AcDbLine
 62
7
  6
CONTINUOUS
 10
9.8975218184
 20
12.9971710989
 11
10.0975218184
 21
12.9971710989
  0
LINE
  5
60F
100
AcDbEntity
  8
ASSI
100
AcDbLine
 62
7
  6
CONTINUOUS
 10
9.8975218184
 20
12.9971710989
 11
10.0975218184
 21
12.9971710989
  0
LINE
  5
610
100
AcDbEntity
  8
0
100
AcDbLine
 62
7
  6
CONTINUOUS
 10
9.8975218184
 20
13.0357561938
 11
10.0975218184
 21
13.0357561938
  0
LINE
  5
611
100
AcDbEntity
  8
ASSI
100
AcDbLine
 62
7
  6
CONTINUOUS
 10
9.8975218184
 20
13.0357561938
 11
10.0975218184
 21
13.0357561938
  0
LINE
  5
612
100
AcDbEntity
  8
CURVE
100
AcDbLine
 62
250
  6
CONTINUOUS
 10
1.8260932214
 20
13.3184600258
 11
0.9689503558
 21
13.3184600258
  0
LWPOLYLINE
  5
613
100
AcDbEntity
  8
DRAFT
100
AcDbPolyline
 62
7
  6
CONTINUOUS
 90
28
 70
0
 10
4.8975218184
 20
18.3877953294
 10
4.7689277307
 20
18.4257685942
 10
4.6444111965
 20
18.4696776577
 10
4.5243086606
 20
18.5195225199
 10
4.4086730934
 20
18.576062048
 10
4.2980054158
 20
18.6385373749
 10
4.1931836509
 20
18.7046718994
 10
4.0947166982
 20
18.7741226343
 10
4.0021976957
 20
18.8472325668
 10
3.9150692582
 20
18.9227540575
 10
3.8331990839
 20
19.0007146007
 10
3.7567862909
 20
19.0810867021
 10
3.6858004946
 20
19.1625402389
 10
3.6202056475
 20
19.2449799266
 10
3.559927945
 20
19.3285010496
 10
3.5048526321
 20
19.4120593393
 10
3.4550042861
 20
19.495337168
 10
3.4101155317
 20
19.5786521633
 10
3.3697181631
 20
19.6619129392
 10
3.3337620492
 20
19.7450625574
 10
3.3022019009
 20
19.8281579563
 10
3.2747635169
 20
19.9112785647
 10
3.2514752786
 20
19.9943899176
 10
3.2323506332
 20
20.07752648
 10
3.2172868984
 20
20.1608710756
 10
3.2063687454
 20
20.2444846456
 10
3.199748501
 20
20.3283062489
 10
3.1975218184
 20
20.4123358854
  0
LWPOLYLINE
  5
614
100
AcDbEntity
  8
ASSI
100
AcDbPolyline
 62
7
  6
CONTINUOUS
 90
28
 70
0
 10
4.8975218184
 20
18.3877953294
 10
4.7689277307
 20
18.4257685942
 10
4.6444111965
 20
18.4696776577
 10
4.5243086606
 20
18.5195225199
 10
4.4086730934
 20
18.576062048
 10
4.2980054158
 20
18.6385373749
 10
4.1931836509
 20
18.7046718994
 10
4.0947166982
 20
18.7741226343
 10
4.0021976957
 20
18.8472325668
 10
3.9150692582
 20
18.9227540575
 10
3.8331990839
 20
19.0007146007
 10
3.7567862909
 20
19.0810867021
 10
3.6858004946
 20
19.1625402389
 10
3.6202056475
 20
19.2449799266
 10
3.559927945
 20
19.3285010496
 10
3.5048526321
 20
19.4120593393
 10
3.4550042861
 20
19.495337168
 10
3.4101155317
 20
19.5786521633
 10
3.3697181631
 20
19.6619129392
 10
3.3337620492
 20
19.7450625574
 10
3.3022019009
 20
19.8281579563
 10
3.2747635169
 20
19.9112785647
 10
3.2514752786
 20
19.9943899176
 10
3.2323506332
 20
20.07752648
 10
3.2172868984
 20
20.1608710756
 10
3.2063687454
 20
20.2444846456
 10
3.199748501
 20
20.3283062489
 10
3.1975218184
 20
20.4123358854
  0
LINE
  5
615
100
AcDbEntity
  8
CURVE
100
AcDbLine
 62
250
  6
CONTINUOUS
 10
0.3975218184
 20
13.8898883247
 11
1.2546646245
 21
13.8898883247
  0
LINE
  5
616
100
AcDbEntity
  8
CURVE
100
AcDbLine
 62
250
  6
CONTINUOUS
 10
1.5403789528
 20
14.74703125
 11
2.1118075199
 21
14.74703125
  0
LINE
  5
617
100
AcDbEntity
  8
RACCORDO
100
AcDbLine
 62
250
  6
CONTINUOUS
 10
9.4018850862
 20
16.1144140353
 11
9.8975218184
 21
16.1144140353
  0
LINE
  5
618
100
AcDbEntity
  8
ASSI
100
AcDbLine
 62
250
  6
CONTINUOUS
 10
9.4018850862
 20
16.1144140353
 11
9.8975218184
 21
16.1144140353
  0
LINE
  5
619
100
AcDbEntity
  8
RACCORDO
100
AcDbLine
 62
250
  6
CONTINUOUS
 10
9.4018850862
 20
16.1144140353
 11
-5.1024781816
 21
16.1588155431
  0
LINE
  5
61A
100
AcDbEntity
  8
ASSI
100
AcDbLine
 62
250
  6
CONTINUOUS
 10
9.4018850862
 20
16.1144140353
 11
-5.1024781816
 21
16.1588155431
  0
LINE
  5
61B
100
AcDbEntity
  8
RACCORDO
100
AcDbLine
 62
250
  6
CONTINUOUS
 10
9.4018850862
 20
16.4270638299
 11
-5.1024781816
 21
16.4708425937
  0
LINE
  5
61C
100
AcDbEntity
  8
ASSI
100
AcDbLine
 62
250
  6
CONTINUOUS
 10
9.4018850862
 20
16.4270638299
 11
-5.1024781816
 21
16.4708425937
  0
LINE
  5
61D
100
AcDbEntity
  8
RACCORDO
100
AcDbLine
 62
250
  6
CONTINUOUS
 10
-5.1024781816
 20
16.2613592024
 11
-11.1024781816
 21
16.2982520521
  0
LINE
  5
61E
100
AcDbEntity
  8
RACCORDO
100
AcDbLine
 62
250
  6
CONTINUOUS
 10
-5.1024781816
 20
16.5749462706
 11
-11.1024781816
 21
16.6113253707
  0
LINE
  5
61F
100
AcDbEntity
  8
SUPERFICI
100
AcDbLine
 62
7
  6
CONTINUOUS
 10
-11.1010315845
 20
16.9686772065
 11
-9.6105746137
 21
16.9270327407
  0
LWPOLYLINE
  5
620
100
AcDbEntity
  8
RACCORDO
100
AcDbPolyline
 62
250
  6
CONTINUOUS
 90
19
 70
0
 10
9.4018850862
 20
16.4270638299
 10
9.4451766385
 20
16.4256523972
 10
9.4881176327
 20
16.421900499
 10
9.5303848849
 20
16.4158350961
 10
9.571662435
 20
16.4075000145
 10
9.6116364417
 20
16.3969570756
 10
9.6499984144
 20
16.3842869584
 10
9.6864573024
 20
16.3695860474
 10
9.7207411346
 20
16.3529642771
 10
9.752592121
 20
16.3345465955
 10
9.7817707837
 20
16.3144713344
 10
9.8080569602
 20
16.2928898097
 10
9.8312520471
 20
16.2699651492
 10
9.851181324
 20
16.2458704195
 10
9.8676953955
 20
16.2207866873
 10
9.8806704054
 20
16.1949022734
 10
9.8900087408
 20
16.1684118287
 10
9.8956400078
 20
16.1415149295
 10
9.8975218184
 20
16.1144140353
  0
LWPOLYLINE
  5
621
100
AcDbEntity
  8
ASSI
100
AcDbPolyline
 62
250
  6
CONTINUOUS
 90
19
 70
0
 10
9.4018850862
 20
16.4270638299
 10
9.4451766385
 20
16.4256523972
 10
9.4881176327
 20
16.421900499
 10
9.5303848849
 20
16.4158350961
 10
9.571662435
 20
16.4075000145
 10
9.6116364417
 20
16.3969570756
 10
9.6499984144
 20
16.3842869584
 10
9.6864573024
 20
16.3695860474
 10
9.7207411346
 20
16.3529642771
 10
9.752592121
 20
16.3345465955
 10
9.7817707837
 20
16.3144713344
 10
9.8080569602
 20
16.2928898097
 10
9.8312520471
 20
16.2699651492
 10
9.851181324
 20
16.2458704195
 10
9.8676953955
 20
16.2207866873
 10
9.8806704054
 20
16.1949022734
 10
9.8900087408
 20
16.1684118287
 10
9.8956400078
 20
16.1415149295
 10
9.8975218184
 20
16.1144140353
  0
LINE
  5
622
100
AcDbEntity
  8
ASSI
100
AcDbLine
 62
250
  6
CONTINUOUS
 10
-4.0463985893
 20
22.1659804602
 11
-4.0873284365
 21
22.1747149133
  0
LINE
  5
623
100
AcDbEntity
  8
ASSI
100
AcDbLine
 62
250
  6
CONTINUOUS
 10
1.1807809569
 20
21.8042374916
 11
3.3325413178
 21
21.2276750406
  0
LINE
  5
624
100
AcDbEntity
  8
ASSI
100
AcDbLine
 62
250
  6
CONTINUOUS
 10
3.4604854546
 20
21.2064443532
 11
4.8975218184
 21
20.82139162
  0
LINE
  5
625
100
AcDbEntity
  8
ASSI
100
AcDbLine
 62
7
  6
CONTINUOUS
 10
1.2290542846
 20
21.9799941631
 11
4.8975218184
 21
20.99703125
  0
LINE
  5
626
100
AcDbEntity
  8
CURVE
100
AcDbLine
 62
250
  6
CONTINUOUS
 10
-0.6046257602
 20
14.38210825
 11
-1.364834864
 21
14.17026625
  0
LINE
  5
627
100
AcDbEntity
  8
CURVE
100
AcDbLine
 62
250
  6
CONTINUOUS
 10
-1.6473093513
 20
14.08718025
 11
-3.2798030235
 21
13.65097625
  0
LWPOLYLINE
  5
628
100
AcDbEntity
  8
RACCORDO
100
AcDbPolyline
 62
7
  6
CONTINUOUS
 90
13
 70
0
 10
-10.9129453728
 20
16.7855765362
 10
-10.9380580871
 20
16.7836114903
 10
-10.9626079665
 20
16.7791950516
 10
-10.9862020088
 20
16.7723942086
 10
-11.0084653682
 20
16.7632988358
 10
-11.0290368791
 20
16.7520547167
 10
-11.047577703
 20
16.7388642931
 10
-11.0637895524
 20
16.7239172018
 10
-11.0774187662
 20
16.7074409907
 10
-11.0882506037
 20
16.6897335843
 10
-11.0961130268
 20
16.6710721944
 10
-11.1008806582
 20
16.6517097354
 10
-11.1024781816
 20
16.6319268303
  0
LINE
  5
629
100
AcDbEntity
  8
DRAFT
100
AcDbLine
 62
7
  6
CONTINUOUS
 10
-11.1024781816
 20
17.868540237
 11
-10.5195580261
 21
17.8787151462
  0
LINE
  5
62A
100
AcDbEntity
  8
0
100
AcDbLine
 62
7
  6
CONTINUOUS
 10
4.8975218184
 20
18.49703125
 11
4.5913779177
 21
18.4916874883
  0
LINE
  5
62B
100
AcDbEntity
  8
ASSI
100
AcDbLine
 62
7
  6
CONTINUOUS
 10
4.8975218184
 20
18.49703125
 11
4.5913779177
 21
18.4916874883
  0
LINE
  5
62C
100
AcDbEntity
  8
SUPERFICI
100
AcDbLine
 62
250
  6
CONTINUOUS
 10
-11.1024781816
 20
17.3830955389
 11
-9.6024781816
 21
17.3756915076
  0
LINE
  5
62D
100
AcDbEntity
  8
RACCORDO
100
AcDbLine
 62
250
  6
CONTINUOUS
 10
3.5129095141
 20
19.3998357268
 11
3.5513508402
 21
19.3992726944
  0
LINE
  5
62E
100
AcDbEntity
  8
RACCORDO
100
AcDbLine
 62
250
  6
CONTINUOUS
 10
3.4603195842
 20
19.4864573049
 11
3.9902915937
 21
19.4786950495
  0
LINE
  5
62F
100
AcDbEntity
  8
RACCORDO
100
AcDbLine
 62
250
  6
CONTINUOUS
 10
-1.6024781816
 20
19.8067742081
 11
-1.501436029
 21
19.8052942903
  0
LINE
  5
630
100
AcDbEntity
  8
RACCORDO
100
AcDbLine
 62
250
  6
CONTINUOUS
 10
3.3383694103
 20
19.7344078934
 11
4.2934759354
 21
19.7204188888
  0
LINE
  5
631
100
AcDbEntity
  8
DRAFT
100
AcDbLine
 62
7
  6
CONTINUOUS
 10
9.8975218184
 20
18.14703125
 11
9.5636555723
 21
18.152858907
  0
LINE
  5
632
100
AcDbEntity
  8
RACCORDO
100
AcDbLine
 62
7
  6
CONTINUOUS
 10
4.8975218184
 20
18.2343065746
 11
9.5636555723
 21
18.152858907
  0
LINE
  5
633
100
AcDbEntity
  8
ASSI
100
AcDbLine
 62
7
  6
CONTINUOUS
 10
4.8975218184
 20
18.2343065746
 11
9.8975218184
 21
18.14703125
  0
LINE
  5
634
100
AcDbEntity
  8
RACCORDO
100
AcDbLine
 62
250
  6
CONTINUOUS
 10
-8.1059686629
 20
20.2997066401
 11
-2.9146939348
 21
20.1125771996
  0
LWPOLYLINE
  5
635
100
AcDbEntity
  8
RACCORDO
100
AcDbPolyline
 62
250
  6
CONTINUOUS
 90
13
 70
0
 10
-8.1059686629
 20
20.2200963731
 10
-8.1317523396
 20
20.2216978325
 10
-8.1570461809
 20
20.2257958425
 10
-8.1814269529
 20
20.2323218322
 10
-8.2044866995
 20
20.2411666043
 10
-8.2258395694
 20
20.2521821619
 10
-8.2451282714
 20
20.2651841853
 10
-8.2620300538
 20
20.2799551154
 10
-8.2762621043
 20
20.296247795
 10
-8.2875862824
 20
20.3137896037
 10
-8.2958131041
 20
20.3322870199
 10
-8.3008049126
 20
20.351430532
 10
-8.3024781816
 20
20.3708998177
  0
LWPOLYLINE
  5
636
100
AcDbEntity
  8
RACCORDO
100
AcDbPolyline
 62
250
  6
CONTINUOUS
 90
12
 70
0
 10
-8.1059686629
 20
20.2997066401
 10
-8.1317516999
 20
20.301313965
 10
-8.1570450197
 20
20.3054269902
 10
-8.1814254085
 20
20.3119769216
 10
-8.2044849025
 20
20.3208541809
 10
-8.2258376716
 20
20.3319102591
 10
-8.2451264603
 20
20.3449602175
 10
-8.2620284859
 20
20.359785735
 10
-8.276260883
 20
20.3761387662
 10
-8.2875854701
 20
20.3937457305
 10
-8.2958126895
 20
20.4123120426
 10
-8.3008047959
 20
20.4315270345
  0
LINE
  5
637
100
AcDbEntity
  8
ASSI
100
AcDbLine
 62
250
  6
CONTINUOUS
 10
3.3325413178
 20
21.2276750406
 11
3.4041231086
 21
21.2159433218
  0
LINE
  5
638
100
AcDbEntity
  8
ASSI
100
AcDbLine
 62
250
  6
CONTINUOUS
 10
3.4041231086
 20
21.2159433218
 11
3.4604854546
 21
21.2064443532
  0
LWPOLYLINE
  5
639
100
AcDbEntity
  8
ASSI
100
AcDbPolyline
 62
250
  6
CONTINUOUS
 90
10
 70
0
 10
-0.1442090069
 20
21.7970312499
 10
-0.1324218072
 20
21.7945638149
 10
-0.1178636514
 20
21.792150764
 10
-0.100819692
 20
21.7898308756
 10
-0.081646381
 20
21.7876443082
 10
-0.0606575257
 20
21.7856195197
 10
-0.0380843021
 20
21.7837759711
 10
-0.0142392698
 20
21.78214007
 10
0.0104561235
 20
21.7807415664
 10
0.0356081799
 20
21.7796027565
  0
LINE
  5
63A
100
AcDbEntity
  8
ASSI
100
AcDbLine
 62
250
  6
CONTINUOUS
 10
-4.0873284365
 20
22.1747149133
 11
-4.1087843057
 21
22.1792140124
  0
LINE
  5
63B
100
AcDbEntity
  8
DRAFT
100
AcDbLine
 62
7
  6
CONTINUOUS
 10
3.9895154466
 20
18.8582253309
 11
4.8975218184
 21
18.9058119284
  0
LWPOLYLINE
  5
63C
100
AcDbEntity
  8
RACCORDO
100
AcDbPolyline
 62
250
  6
CONTINUOUS
 90
22
 70
0
 10
-8.4989877003
 20
20.0252570502
 10
-8.4867077831
 20
20.0255912917
 10
-8.4741622609
 20
20.0275529666
 10
-8.4614080041
 20
20.0311420747
 10
-8.4484702509
 20
20.0363214846
 10
-8.4354624822
 20
20.0431283278
 10
-8.4225780348
 20
20.0516739993
 10
-8.4099156516
 20
20.0620171969
 10
-8.3975338481
 20
20.0740992228
 10
-8.3855583702
 20
20.0878553785
 10
-8.3740849272
 20
20.1033143352
 10
-8.3631780313
 20
20.1204474218
 10
-8.3529138616
 20
20.1391039255
 10
-8.3433915485
 20
20.1592794139
 10
-8.3346735409
 20
20.1809783195
 10
-8.3267976104
 20
20.2040632273
 10
-8.3198748414
 20
20.228507002
 10
-8.3139811254
 20
20.2543367789
 10
-8.309159188
 20
20.2814965498
 10
-8.3055341317
 20
20.3099676452
 10
-8.3032632951
 20
20.3397687345
 10
-8.3024781816
 20
20.3708998177
  0
LINE
  5
63D
100
AcDbEntity
  8
ASSI
100
AcDbLine
 62
250
  6
CONTINUOUS
 10
-4.186025754
 20
21.9964300113
 11
-4.212186276
 21
21.996010009
  0
LWPOLYLINE
  5
63E
100
AcDbEntity
  8
RACCORDO
100
AcDbPolyline
 62
250
  6
CONTINUOUS
 90
22
 70
0
 10
-8.4989877003
 20
19.8768993279
 10
-8.4742109526
 20
19.8772243335
 10
-8.4491564893
 20
19.8791683311
 10
-8.4238243105
 20
19.8827306047
 10
-8.3979876133
 20
19.887871087
 10
-8.3718732005
 20
19.8946270627
 10
-8.3461614809
 20
19.9031130231
 10
-8.3208892144
 20
19.9133827548
 10
-8.2960196411
 20
19.9253763944
 10
-8.2721228897
 20
19.9390371916
 10
-8.2492299366
 20
19.954388654
 10
-8.2273098055
 20
19.9713984596
 10
-8.2068396961
 20
19.9899259832
 10
-8.187833945
 20
20.0099607345
 10
-8.1702782156
 20
20.0315026658
 10
-8.1546066968
 20
20.0544271602
 10
-8.1407806266
 20
20.0787013859
 10
-8.128838767
 20
20.1043464444
 10
-8.1193315934
 20
20.1313188352
 10
-8.1124425973
 20
20.1595997107
 10
-8.1079882872
 20
20.1891946147
 10
-8.1059686629
 20
20.2200963731
  0
LINE
  5
63F
100
AcDbEntity
  8
ASSI
100
AcDbLine
 62
250
  6
CONTINUOUS
 10
-4.1509462674
 20
22.1790226324
 11
-4.1793116466
 21
22.1786843409
  0
LINE
  5
640
100
AcDbEntity
  8
ASSI
100
AcDbLine
 62
250
  6
CONTINUOUS
 10
-4.1593942067
 20
21.996668706
 11
-4.186025754
 21
21.9964300113
  0
LINE
  5
641
100
AcDbEntity
  8
DRAFT
100
AcDbLine
 62
7
  6
CONTINUOUS
 10
-1.5024781816
 20
19.7341407856
 11
-5.1024781816
 21
19.7140023718
  0
LINE
  5
642
100
AcDbEntity
  8
ASSI
100
AcDbLine
 62
7
  6
CONTINUOUS
 10
-1.5024781816
 20
19.7341407856
 11
-5.1024781816
 21
19.7140023718
  0
LINE
  5
643
100
AcDbEntity
  8
ASSI
100
AcDbLine
 62
250
  6
CONTINUOUS
 10
-4.1052156803
 20
21.9968368781
 11
-4.1593942067
 21
21.996668706
  0
LWPOLYLINE
  5
644
100
AcDbEntity
  8
ASSI
100
AcDbPolyline
 62
250
  6
CONTINUOUS
 90
3
 70
0
 10
-4.1087843057
 20
22.1792140124
 10
-4.1227814473
 20
22.1791981046
 10
-4.1509462674
 20
22.1790226324
  0
LINE
  5
645
100
AcDbEntity
  8
RACCORDO
100
AcDbLine
 62
250
  6
CONTINUOUS
 10
-9.6024781816
 20
21.2504917974
 11
-9.7989877003
 21
21.2504917974
  0
LINE
  5
646
100
AcDbEntity
  8
ASSI
100
AcDbLine
 62
250
  6
CONTINUOUS
 10
-8.4989877003
 20
21.5022105784
 11
-8.3024781816
 21
21.5022105784
  0
LINE
  5
647
100
AcDbEntity
  8
ASSI
100
AcDbLine
 62
250
  6
CONTINUOUS
 10
-1.0534604415
 20
21.79703125
 11
-0.1442090069
 21
21.79703125
  0
LINE
  5
648
100
AcDbEntity
  8
ASSI
100
AcDbLine
 62
250
  6
CONTINUOUS
 10
-3.6661470643
 20
21.79703125
 11
-4.5299877983
 21
21.79703125
  0
LINE
  5
649
100
AcDbEntity
  8
ASSI
100
AcDbLine
 62
250
  6
CONTINUOUS
 10
0.0369404047
 20
21.8144597437
 11
1.1031352433
 21
21.8144597437
  0
LINE
  5
64A
100
AcDbEntity
  8
ASSI
100
AcDbLine
 62
250
  6
CONTINUOUS
 10
-1.2387828461
 20
21.8144597437
 11
-2.9496853256
 21
21.8144597437
  0
LINE
  5
64B
100
AcDbEntity
  8
ASSI
100
AcDbLine
 62
7
  6
CONTINUOUS
 10
1.0996447621
 20
21.99703125
 11
-2.9531758069
 21
21.99703125
  0
LINE
  5
64C
100
AcDbEntity
  8
ASSI
100
AcDbLine
 62
250
  6
CONTINUOUS
 10
-7.7989877003
 20
22.0370727576
 11
-7.6024781816
 21
22.0370727576
  0
LINE
  5
64D
100
AcDbEntity
  8
ASSI
100
AcDbLine
 62
250
  6
CONTINUOUS
 10
-7.7989877003
 20
22.4893990701
 11
-7.6024781816
 21
22.4893990701
  0
LINE
  5
64E
100
AcDbEntity
  8
RACCORDO
100
AcDbLine
 62
250
  6
CONTINUOUS
 10
-5.1024781816
 20
19.9404444259
 11
-1.6024781816
 21
19.9382003686
  0
LINE
  5
64F
100
AcDbEntity
  8
ASSI
100
AcDbLine
 62
250
  6
CONTINUOUS
 10
-4.039058793
 20
21.9967243339
 11
-4.1052156803
 21
21.9968368781
  0
LINE
  5
650
100
AcDbEntity
  8
RACCORDO
100
AcDbLine
 62
250
  6
CONTINUOUS
 10
-9.6024781816
 20
19.8854919061
 11
-8.4989877003
 21
19.8768993279
  0
LINE
  5
651
100
AcDbEntity
  8
RACCORDO
100
AcDbLine
 62
250
  6
CONTINUOUS
 10
-9.6024781816
 20
20.0338093776
 11
-8.4989877003
 21
20.0252567863
  0
LINE
  5
652
100
AcDbEntity
  8
DRAFT
100
AcDbLine
 62
7
  6
CONTINUOUS
 10
3.1975218184
 20
20.4245982473
 11
-1.5024781816
 21
20.465614526
  0
LINE
  5
653
100
AcDbEntity
  8
ASSI
100
AcDbLine
 62
7
  6
CONTINUOUS
 10
3.1975218184
 20
20.4245982473
 11
-1.5024781816
 21
20.465614526
  0
LWPOLYLINE
  5
654
100
AcDbEntity
  8
ASSI
100
AcDbPolyline
 62
250
  6
CONTINUOUS
 90
13
 70
0
 10
1.1031352433
 20
21.8144597437
 10
1.1092244102
 20
21.8144022666
 10
1.1153489805
 20
21.8142145386
 10
1.1215089544
 20
21.8138965596
 10
1.1276822154
 20
21.8134555733
 10
1.13389088
 20
21.8128843359
 10
1.1402012972
 20
21.812161117
 10
1.1466190037
 20
21.8112916077
 10
1.1531384628
 20
21.8102701167
 10
1.1598094138
 20
21.8090578401
 10
1.1666484364
 20
21.807641843
 10
1.1736389507
 20
21.8060350602
 10
1.1807809569
 20
21.8042374916
  0
LWPOLYLINE
  5
655
100
AcDbEntity
  8
ASSI
100
AcDbPolyline
 62
250
  6
CONTINUOUS
 90
13
 70
0
 10
-2.9496853256
 20
21.8144597437
 10
-2.999573926
 20
21.8152723773
 10
-3.0488775093
 20
21.8174273003
 10
-3.0975960752
 20
21.8209245128
 10
-3.1456898462
 20
21.8257868976
 10
-3.1931986
 20
21.8319915719
 10
-3.2402416697
 20
21.839469887
 10
-3.2868099319
 20
21.848198765
 10
-3.33291251
 20
21.8582012838
 10
-3.3786961073
 20
21.8694780281
 10
-3.4242096249
 20
21.8820291928
 10
-3.4694041616
 20
21.895854583
 10
-3.5142797176
 20
21.9109541988
  0
LINE
  5
656
100
AcDbEntity
  8
ASSI
100
AcDbLine
 62
250
  6
CONTINUOUS
 10
-1.6024781816
 20
20.1858055865
 11
-1.5024781816
 21
20.1840600801
  0
LINE
  5
657
100
AcDbEntity
  8
ASSI
100
AcDbLine
 62
250
  6
CONTINUOUS
 10
3.22801965
 20
20.1014889333
 11
4.2934759354
 21
20.0828913246
  0
LINE
  5
658
100
AcDbEntity
  8
ASSI
100
AcDbLine
 62
7
  6
CONTINUOUS
 10
-2.9024781816
 20
20.4584590947
 11
-1.5030294631
 21
20.4340316265
  0
LINE
  5
659
100
AcDbEntity
  8
ASSI
100
AcDbLine
 62
7
  6
CONTINUOUS
 10
3.1964674199
 20
20.3520016033
 11
4.8975218184
 21
20.3223095883
  0
LINE
  5
65A
100
AcDbEntity
  8
DRAFT
100
AcDbLine
 62
7
  6
CONTINUOUS
 10
-11.1024781816
 20
20.7732138474
 11
-9.6024781816
 21
20.74703125
  0
LINE
  5
65B
100
AcDbEntity
  8
RACCORDO
100
AcDbLine
 62
250
  6
CONTINUOUS
 10
-10.1979738713
 20
21.2574561269
 11
-9.7989877003
 21
21.2504917974
  0
LINE
  5
65C
100
AcDbEntity
  8
RACCORDO
100
AcDbLine
 62
7
  6
CONTINUOUS
 10
-9.7989877003
 20
21.4504613364
 11
-10.43612136
 21
21.4615825458
  0
LINE
  5
65D
100
AcDbEntity
  8
ASSI
100
AcDbLine
 62
250
  6
CONTINUOUS
 10
-7.7989877003
 20
22.4893990701
 11
-11.1024781816
 21
22.547061711
  0
LINE
  5
65E
100
AcDbEntity
  8
ASSI
100
AcDbLine
 62
7
  6
CONTINUOUS
 10
-7.7989877003
 20
22.6893686092
 11
-11.1024781816
 21
22.74703125
  0
LINE
  5
65F
100
AcDbEntity
  8
ASSI
100
AcDbLine
 62
250
  6
CONTINUOUS
 10
-2.9146939348
 20
20.1125771996
 11
-1.6024781816
 21
20.0893783575
  0
LINE
  5
660
100
AcDbEntity
  8
RACCORDO
100
AcDbLine
 62
7
  6
CONTINUOUS
 10
-8.1094580809
 20
20.6402908396
 11
-2.9024781816
 21
20.4584590947
  0
LINE
  5
661
100
AcDbEntity
  8
ASSI
100
AcDbLine
 62
7
  6
CONTINUOUS
 10
-3.7242629342
 20
20.4871564507
 11
-4.6229730058
 21
20.5185400979
  0
LWPOLYLINE
  5
662
100
AcDbEntity
  8
ASSI
100
AcDbPolyline
 62
250
  6
CONTINUOUS
 90
13
 70
0
 10
-1.2387828462
 20
21.8144597427
 10
-1.2200841751
 20
21.8136515405
 10
-1.2013785085
 20
21.8126917308
 10
-1.1828563664
 20
21.8115870534
 10
-1.1646804922
 20
21.8103431462
 10
-1.1470487878
 20
21.8089712942
 10
-1.1302032573
 20
21.8074888329
 10
-1.1143342221
 20
21.8059215822
 10
-1.0995395138
 20
21.8042709923
 10
-1.0859221947
 20
21.8025189667
 10
-1.0736145992
 20
21.8006694425
 10
-1.0627534536
 20
21.7987511554
 10
-1.0534603129
 20
21.7967831721
  0
LINE
  5
663
100
AcDbEntity
  8
0
100
AcDbLine
 62
7
  6
CONTINUOUS
 10
-10.7208586583
 20
21.7056430872
 11
-9.6024781816
 21
21.64703125
  0
LWPOLYLINE
  5
664
100
AcDbEntity
  8
ASSI
100
AcDbPolyline
 62
250
  6
CONTINUOUS
 90
10
 70
0
 10
-3.4951051006
 20
21.7796027544
 10
-3.5182275057
 20
21.7808913218
 10
-3.5409912166
 20
21.7823973784
 10
-3.5630894921
 20
21.7841006271
 10
-3.5842245571
 20
21.7859781123
 10
-3.6041116337
 20
21.7880045339
 10
-3.6224827744
 20
21.7901525881
 10
-3.6390904473
 20
21.7923933295
 10
-3.6537108754
 20
21.794696562
 10
-3.6661470679
 20
21.7970312495
  0
LWPOLYLINE
  5
665
100
AcDbEntity
  8
ASSI
100
AcDbPolyline
 62
250
  6
CONTINUOUS
 90
10
 70
0
 10
-4.7044821244
 20
21.779602755
 10
-4.6813165734
 20
21.7808913176
 10
-4.6584161425
 20
21.7823973655
 10
-4.6360894145
 20
21.7841006045
 10
-4.6146372416
 20
21.7859780837
 10
-4.5943486918
 20
21.7880045041
 10
-4.5754971531
 20
21.7901525597
 10
-4.5583366499
 20
21.7923933055
 10
-4.54309842
 20
21.7946965475
 10
-4.5299877983
 20
21.7970312496
  0
LWPOLYLINE
  5
666
100
AcDbEntity
  8
ASSI
100
AcDbPolyline
 62
250
  6
CONTINUOUS
 90
10
 70
0
 10
-1.2373433127
 20
21.7796027766
 10
-1.2121374683
 20
21.7807416558
 10
-1.1872778577
 20
21.7821402541
 10
-1.1631608392
 20
21.7837762722
 10
-1.140170931
 20
21.7856236259
 10
-1.1186746813
 20
21.7876528612
 10
-1.0990148235
 20
21.7898316242
 10
-1.0815048121
 20
21.7921251772
 10
-1.0664238242
 20
21.7944969519
 10
-1.0540123094
 20
21.7969091332
  0
LINE
  5
667
100
AcDbEntity
  8
0
100
AcDbLine
 62
250
  6
CONTINUOUS
 10
-11.1024781816
 20
24.6472025875
 11
-14.4155666557
 21
24.5604463126
  0
LWPOLYLINE
  5
668
100
AcDbEntity
  8
ASSI
100
AcDbPolyline
 62
250
  6
CONTINUOUS
 90
32
 70
0
 10
-4.212186276
 20
21.996010009
 10
-4.2249699553
 20
21.9957094674
 10
-4.2374560707
 20
21.9953363573
 10
-4.2497278104
 20
21.9948764321
 10
-4.2618636108
 20
21.9943123464
 10
-4.2738346739
 20
21.9936339146
 10
-4.2856927808
 20
21.9928193495
 10
-4.2976420254
 20
21.9918236658
 10
-4.3097447436
 20
21.9906195189
 10
-4.3219595979
 20
21.9891764741
 10
-4.3343439357
 20
21.9874245401
 10
-4.3469470425
 20
21.9853136029
 10
-4.35972793
 20
21.9827993658
 10
-4.372613356
 20
21.9797982516
 10
-4.3855788532
 20
21.9762518386
 10
-4.3986200531
 20
21.9720926357
 10
-4.4116876204
 20
21.9671995012
 10
-4.4247396571
 20
21.9614928434
 10
-4.4377165096
 20
21.9548926867
 10
-4.450518489
 20
21.9472509621
 10
-4.4631501011
 20
21.938377057
 10
-4.4753750444
 20
21.9282790761
 10
-4.4867325729
 20
21.9171501695
 10
-4.4971020988
 20
21.9048843468
 10
-4.5063402443
 20
21.8915701766
 10
-4.5140805592
 20
21.8778369827
 10
-4.5202236004
 20
21.8638542488
 10
-4.5248416324
 20
21.8496455895
 10
-4.5280250231
 20
21.8357240128
 10
-4.5298968457
 20
21.8223324911
 10
-4.5305213898
 20
21.8094131154
 10
-4.5299874591
 20
21.79703125
  0
LWPOLYLINE
  5
669
100
AcDbEntity
  8
ASSI
100
AcDbPolyline
 62
250
  6
CONTINUOUS
 90
35
 70
0
 10
-4.1793116466
 20
22.1786843409
 10
-4.19361984
 20
22.1784002825
 10
-4.2080569334
 20
22.1780306865
 10
-4.2225911077
 20
22.1775701205
 10
-4.2371671411
 20
22.1769592036
 10
-4.2517160767
 20
22.176208881
 10
-4.2663068715
 20
22.1753082074
 10
-4.2810911732
 20
22.1741649658
 10
-4.2960092294
 20
22.1728090737
 10
-4.3111207926
 20
22.1712106137
 10
-4.3267567687
 20
22.1691876163
 10
-4.3429753142
 20
22.1667769572
 10
-4.3597182725
 20
22.1639417608
 10
-4.3771420797
 20
22.1603894306
 10
-4.3953323849
 20
22.1561517177
 10
-4.4142035389
 20
22.1511968711
 10
-4.4336550301
 20
22.1451370421
 10
-4.4537264774
 20
22.1380190426
 10
-4.4743782619
 20
22.1297960607
 10
-4.4953910146
 20
22.1199398122
 10
-4.5168686731
 20
22.1084818168
 10
-4.5387072997
 20
22.0953905549
 10
-4.5603757124
 20
22.0800431833
 10
-4.582150802
 20
22.0621624923
 10
-4.6037556777
 20
22.0420256916
 10
-4.6238284846
 20
22.0198415673
 10
-4.642270016
 20
21.9952046152
 10
-4.6591794786
 20
21.9685203395
 10
-4.6734926379
 20
21.9412140387
 10
-4.6847895132
 20
21.9133001285
 10
-4.6934900851
 20
21.8847641931
 10
-4.6997900614
 20
21.8569882832
 10
-4.7037546781
 20
21.8304330821
 10
-4.7053186991
 20
21.8046379065
 10
-4.7044821245
 20
21.7796027563
  0
LINE
  5
66A
100
AcDbEntity
  8
ASSI
100
AcDbLine
 62
250
  6
CONTINUOUS
 10
-10.4524530979
 20
23.1144597437
 11
-11.1024781816
 21
23.1144597437
  0
LINE
  5
66B
100
AcDbEntity
  8
ASSI
100
AcDbLine
 62
7
  6
CONTINUOUS
 10
-10.4559435792
 20
23.29703125
 11
-11.1024781816
 21
23.29703125
  0
LINE
  5
66C
100
AcDbEntity
  8
ASSI
100
AcDbLine
 62
250
  6
CONTINUOUS
 10
-6.6098350316
 20
23.3144597437
 11
-6.8061673773
 21
23.3144597437
  0
LINE
  5
66D
100
AcDbEntity
  8
ASSI
100
AcDbLine
 62
7
  6
CONTINUOUS
 10
-6.6133255129
 20
23.49703125
 11
-6.8096578586
 21
23.49703125
  0
LINE
  5
66E
100
AcDbEntity
  8
0
100
AcDbLine
 62
250
  6
CONTINUOUS
 10
-14.4155666557
 20
24.5604463126
 11
-14.9024781816
 21
24.5604463126
  0
LWPOLYLINE
  5
66F
100
AcDbEntity
  8
0
100
AcDbPolyline
 62
7
  6
CONTINUOUS
 90
13
 70
0
 43
0.3500000006
 10
0.9618075564
 20
45.8243452148
 10
0.6760932341
 20
46.0386296997
 10
0.6760932341
 20
46.6814876862
 10
0.9618075564
 20
47.1100566559
 10
1.6046646223
 20
47.1100566559
 10
1.8903790154
 20
46.6814876862
 10
1.8903790154
 20
46.0386296997
 10
1.6046646223
 20
45.8243452148
 10
2.0332361412
 20
45.3957717133
 10
2.0332361412
 20
44.5386292419
 10
1.6046646223
 20
44.1100602722
 10
0.9618075564
 20
44.1100602722
 10
0.5332361083
 20
44.5386292419
  0
LWPOLYLINE
  5
670
100
AcDbEntity
  8
ASSI
100
AcDbPolyline
 62
250
  6
CONTINUOUS
 90
13
 70
0
 10
-0.1442090848
 20
21.7967806878
 10
-0.1355228614
 20
21.7987502676
 10
-0.1252350649
 20
21.8006697498
 10
-0.1134618533
 20
21.8025200296
 10
-0.1003349767
 20
21.8042722254
 10
-0.0859834987
 20
21.805922558
 10
-0.0705071122
 20
21.8074895376
 10
-0.0540004222
 20
21.8089718543
 10
-0.0366503253
 20
21.8103435655
 10
-0.0186953958
 20
21.8115873398
 10
-0.0003319683
 20
21.8126918957
 10
0.0182768979
 20
21.8136515955
 10
0.0369404031
 20
21.8144597007
  0
LINE
  5
671
100
AcDbEntity
  8
0
100
AcDbLine
 62
7
  6
CONTINUOUS
 10
-11.1024781816
 20
25.14703125
 11
-14.4155666557
 21
25.0602749751
  0
LWPOLYLINE
  5
672
100
AcDbEntity
  8
ASSI
100
AcDbPolyline
 62
250
  6
CONTINUOUS
 90
16
 70
0
 10
-10.4524530979
 20
23.1144597437
 10
-10.4327029117
 20
23.1195986571
 10
-10.4132059256
 20
23.1244983917
 10
-10.3941661182
 20
23.1291079373
 10
-10.3757890704
 20
23.1333778823
 10
-10.3582585608
 20
23.1372658972
 10
-10.3417381492
 20
23.1407356518
 10
-10.3263862667
 20
23.1437531077
 10
-10.3123860386
 20
23.146281447
 10
-10.2999138676
 20
23.1482891499
 10
-10.2890965051
 20
23.1497572585
 10
-10.2800342433
 20
23.1506738226
 10
-10.2728205196
 20
23.1510318485
 10
-10.2675161078
 20
23.1508325174
 10
-10.2641561123
 20
23.150082822
 10
-10.2627584139
 20
23.148795059
  0
LWPOLYLINE
  5
673
100
AcDbEntity
  8
0
100
AcDbPolyline
 62
7
  6
CONTINUOUS
 90
7
 70
0
 43
0.3500000006
 10
-0.9024782109
 20
34.1100572205
 10
-2.4024782438
 20
34.1100572205
 10
-0.9024782109
 20
36.2529156647
 10
-0.9024782109
 20
36.6814846344
 10
-1.3310495882
 20
37.110058136
 10
-1.9739067249
 20
37.110058136
 10
-2.4024782438
 20
36.4672001495
  0
LWPOLYLINE
  5
674
100
AcDbEntity
  8
0
100
AcDbPolyline
 62
7
  6
CONTINUOUS
 90
7
 70
0
 43
0.3500000006
 10
-4.3953352261
 20
44.1100602722
 10
-5.8953351173
 20
44.1100602722
 10
-4.3953352261
 20
46.2529141846
 10
-4.3953352261
 20
46.6814876862
 10
-4.8239070282
 20
47.1100566559
 10
-5.4667638817
 20
47.1100566559
 10
-5.8953351173
 20
46.4672032013
  0
ARC
  5
675
100
AcDbEntity
  8
0
100
AcDbCircle
 62
7
  6
CONTINUOUS
 10
56.1397337383
 20
-18.5325619598
 40
0.3
100
AcDbArc
 50
192.5000000344
 51
270.0
  0
ARC
  5
676
100
AcDbEntity
  8
0
100
AcDbCircle
 62
7
  6
CONTINUOUS
 10
55.8504962466
 20
-17.2278959462
 40
0.3
100
AcDbArc
 50
12.5000000658
 51
99.9999999976
  0
ARC
  5
677
100
AcDbEntity
  8
DRAFT
100
AcDbCircle
 62
7
  6
CONTINUOUS
 10
55.8504962466
 20
-17.2278959462
 40
0.3
100
AcDbArc
 50
12.5000000003
 51
100.0000000021
  0
ARC
  5
678
100
AcDbEntity
  8
DRAFT
100
AcDbCircle
 62
7
  6
CONTINUOUS
 10
56.1397337383
 20
-18.5325619598
 40
0.3
100
AcDbArc
 50
192.4999999996
 51
270.0
  0
ARC
  5
679
100
AcDbEntity
  8
0
100
AcDbCircle
 62
7
  6
CONTINUOUS
 10
55.0288815492
 20
-17.5758541075
 40
0.1
100
AcDbArc
 50
189.9999999916
 51
280.0000000126
  0
ARC
  5
67A
100
AcDbEntity
  8
0
100
AcDbCircle
 62
7
  6
CONTINUOUS
 10
54.9594222781
 20
-17.1819310063
 40
0.1
100
AcDbArc
 50
100.000000039
 51
190.000000018
  0
ARC
  5
67B
100
AcDbEntity
  8
DRAFT
100
AcDbCircle
 62
7
  6
CONTINUOUS
 10
54.9594222781
 20
-17.1819310063
 40
0.1
100
AcDbArc
 50
100.0000000021
 51
190.0000000048
  0
ARC
  5
67C
100
AcDbEntity
  8
DRAFT
100
AcDbCircle
 62
7
  6
CONTINUOUS
 10
55.0288815492
 20
-17.5758541075
 40
0.1
100
AcDbArc
 50
190.0000000048
 51
279.9999999995
  0
ARC
  5
67D
100
AcDbEntity
  8
0
100
AcDbCircle
 62
7
  6
CONTINUOUS
 10
56.180376713
 20
-12.7785509517
 40
0.1
100
AcDbArc
 50
112.8783348872
 51
204.9999999001
  0
ARC
  5
67E
100
AcDbEntity
  8
0
100
AcDbCircle
 62
7
  6
CONTINUOUS
 10
56.4135054796
 20
-13.278497205
 40
0.1
100
AcDbArc
 50
204.9999999749
 51
292.3340846489
  0
ARC
  5
67F
100
AcDbEntity
  8
DRAFT
100
AcDbCircle
 62
7
  6
CONTINUOUS
 10
56.180376713
 20
-12.7785509517
 40
0.1
100
AcDbArc
 50
112.8783350691
 51
204.9999999975
  0
ARC
  5
680
100
AcDbEntity
  8
DRAFT
100
AcDbCircle
 62
7
  6
CONTINUOUS
 10
56.4135054796
 20
-13.278497205
 40
0.1
100
AcDbArc
 50
204.9999999975
 51
292.3340847853
  0
ARC
  5
681
100
AcDbEntity
  8
0
100
AcDbCircle
 62
7
  6
CONTINUOUS
 10
59.177870121
 20
-18.0909175308
 40
1.0513914047
100
AcDbArc
 50
0.0
 51
80.0000000106
  0
ARC
  5
682
100
AcDbEntity
  8
DRAFT
100
AcDbCircle
 62
7
  6
CONTINUOUS
 10
59.177870121
 20
-18.0909175308
 40
1.0513914047
100
AcDbArc
 50
0.0
 51
79.9999999997
  0
ARC
  5
683
100
AcDbEntity
  8
0
100
AcDbCircle
 62
7
  6
CONTINUOUS
 10
59.177870121
 20
-18.0909175308
 40
0.4513914047
100
AcDbArc
 50
0.0
 51
80.0000000323
  0
ARC
  5
684
100
AcDbEntity
  8
DRAFT
100
AcDbCircle
 62
7
  6
CONTINUOUS
 10
59.177870121
 20
-18.0909175308
 40
0.4513914047
100
AcDbArc
 50
0.0
 51
80.0000000047
  0
ARC
  5
685
100
AcDbEntity
  8
0
100
AcDbCircle
 62
7
  6
CONTINUOUS
 10
58.3212846493
 20
-18.5325619598
 40
0.3
100
AcDbArc
 50
270.0
 51
347.5000000748
  0
ARC
  5
686
100
AcDbEntity
  8
0
100
AcDbCircle
 62
7
  6
CONTINUOUS
 10
58.6105221411
 20
-17.2278959462
 40
0.3
100
AcDbArc
 50
80.0000000042
 51
167.5000000554
  0
ARC
  5
687
100
AcDbEntity
  8
DRAFT
100
AcDbCircle
 62
7
  6
CONTINUOUS
 10
58.6105221411
 20
-17.2278959462
 40
0.3
100
AcDbArc
 50
79.9999999997
 51
167.4999999997
  0
ARC
  5
688
100
AcDbEntity
  8
DRAFT
100
AcDbCircle
 62
7
  6
CONTINUOUS
 10
58.3212846493
 20
-18.5325619598
 40
0.3
100
AcDbArc
 50
270.0
 51
347.5000000004
  0
ARC
  5
689
100
AcDbEntity
  8
0
100
AcDbCircle
 62
7
  6
CONTINUOUS
 10
57.2305091938
 20
-15.2671874826
 40
2.8011275443
100
AcDbArc
 50
67.1216649328
 51
112.8783350626
  0
ARC
  5
68A
100
AcDbEntity
  8
DRAFT
100
AcDbCircle
 62
7
  6
CONTINUOUS
 10
57.2305091938
 20
-15.2671874826
 40
2.8011275443
100
AcDbArc
 50
67.1216649289
 51
112.8783350691
  0
ARC
  5
68B
100
AcDbEntity
  8
0
100
AcDbCircle
 62
7
  6
CONTINUOUS
 10
57.2305091938
 20
-15.2671874826
 40
2.0499730439
100
AcDbArc
 50
67.6659152168
 51
112.3340847919
  0
ARC
  5
68C
100
AcDbEntity
  8
DRAFT
100
AcDbCircle
 62
7
  6
CONTINUOUS
 10
57.2305091938
 20
-15.2671874826
 40
2.0499730439
100
AcDbArc
 50
67.6659152122
 51
112.3340847853
  0
CIRCLE
  5
68D
100
AcDbEntity
  8
0
100
AcDbCircle
 62
7
  6
CONTINUOUS
 10
57.2305091938
 20
-15.2671874826
 40
1.2499730439
  0
CIRCLE
  5
68E
100
AcDbEntity
  8
DRAFT
100
AcDbCircle
 62
7
  6
CONTINUOUS
 10
57.2305091938
 20
-15.2671874826
 40
1.2499730439
  0
ARC
  5
68F
100
AcDbEntity
  8
0
100
AcDbCircle
 62
7
  6
CONTINUOUS
 10
58.2806416747
 20
-12.7785509517
 40
0.1
100
AcDbArc
 50
335.0000000999
 51
67.1216650375
  0
ARC
  5
690
100
AcDbEntity
  8
0
100
AcDbCircle
 62
7
  6
CONTINUOUS
 10
58.0475129081
 20
-13.278497205
 40
0.1
100
AcDbArc
 50
247.6659151195
 51
335.0000000252
  0
ARC
  5
691
100
AcDbEntity
  8
DRAFT
100
AcDbCircle
 62
7
  6
CONTINUOUS
 10
58.0475129081
 20
-13.278497205
 40
0.1
100
AcDbArc
 50
247.6659152122
 51
335.0000000025
  0
ARC
  5
692
100
AcDbEntity
  8
DRAFT
100
AcDbCircle
 62
7
  6
CONTINUOUS
 10
58.2806416747
 20
-12.7785509517
 40
0.1
100
AcDbArc
 50
335.0000000025
 51
67.1216649289
  0
ARC
  5
693
100
AcDbEntity
  8
0
100
AcDbCircle
 62
7
  6
CONTINUOUS
 10
59.098359375
 20
15.5396947411
 40
1.5379363371
100
AcDbArc
 50
6.2043089705
 51
180.0000000034
  0
ARC
  5
694
100
AcDbEntity
  8
DRAFT
100
AcDbCircle
 62
7
  6
CONTINUOUS
 10
59.098359375
 20
15.5396947411
 40
1.5379363371
100
AcDbArc
 50
6.2043089717
 51
180.0
  0
ARC
  5
695
100
AcDbEntity
  8
0
100
AcDbCircle
 62
7
  6
CONTINUOUS
 10
59.098359375
 20
15.5396947411
 40
0.7379363371
100
AcDbArc
 50
9.7256725661
 51
250.0000000171
  0
ARC
  5
696
100
AcDbEntity
  8
DRAFT
100
AcDbCircle
 62
7
  6
CONTINUOUS
 10
59.098359375
 20
15.5396947411
 40
0.7379363371
100
AcDbArc
 50
9.7256727073
 51
249.9999999985
  0
ARC
  5
697
100
AcDbEntity
  8
0
100
AcDbCircle
 62
7
  6
CONTINUOUS
 10
57.8604230379
 20
10.79703125
 40
0.3
100
AcDbArc
 50
180.0000000001
 51
270.0
  0
ARC
  5
698
100
AcDbEntity
  8
DRAFT
100
AcDbCircle
 62
7
  6
CONTINUOUS
 10
57.8604230379
 20
10.79703125
 40
0.3
100
AcDbArc
 50
180.0
 51
270.0
  0
ARC
  5
699
100
AcDbEntity
  8
0
100
AcDbCircle
 62
7
  6
CONTINUOUS
 10
60.1292615257
 20
-19.85296875
 40
0.1
100
AcDbArc
 50
270.0000000001
 51
359.9999999999
  0
ARC
  5
69A
100
AcDbEntity
  8
0
100
AcDbCircle
 62
7
  6
CONTINUOUS
 10
59.7292615257
 20
-19.85296875
 40
0.1
100
AcDbArc
 50
180.0000000001
 51
270.0
  0
ARC
  5
69B
100
AcDbEntity
  8
0
100
AcDbCircle
 62
7
  6
CONTINUOUS
 10
61.5231846269
 20
-19.8892176102
 40
0.1
100
AcDbArc
 50
259.9999999963
 51
350.0000000131
  0
ARC
  5
69C
100
AcDbEntity
  8
0
100
AcDbCircle
 62
7
  6
CONTINUOUS
 10
61.1292615257
 20
-19.8197583392
 40
0.1
100
AcDbArc
 50
169.999999987
 51
260.0000000223
  0
ARC
  5
69D
100
AcDbEntity
  8
DRAFT
100
AcDbCircle
 62
7
  6
CONTINUOUS
 10
61.5231846269
 20
-19.8892176102
 40
0.1
100
AcDbArc
 50
260.0000000093
 51
350.0000000001
  0
ARC
  5
69E
100
AcDbEntity
  8
DRAFT
100
AcDbCircle
 62
7
  6
CONTINUOUS
 10
61.1292615257
 20
-19.8197583392
 40
0.1
100
AcDbArc
 50
170.0000000001
 51
260.0000000093
  0
ARC
  5
69F
100
AcDbEntity
  8
DRAFT
100
AcDbCircle
 62
7
  6
CONTINUOUS
 10
60.1292615257
 20
-19.85296875
 40
0.1
100
AcDbArc
 50
270.0
 51
360.0
  0
ARC
  5
6A0
100
AcDbEntity
  8
DRAFT
100
AcDbCircle
 62
7
  6
CONTINUOUS
 10
59.7292615257
 20
-19.85296875
 40
0.1
100
AcDbArc
 50
180.0
 51
270.0
  0
ARC
  5
6A1
100
AcDbEntity
  8
0
100
AcDbCircle
 62
7
  6
CONTINUOUS
 10
61.5564748969
 20
-15.802912503
 40
0.1
100
AcDbArc
 50
230.0000001664
 51
320.0000000314
  0
ARC
  5
6A2
100
AcDbEntity
  8
0
100
AcDbCircle
 62
7
  6
CONTINUOUS
 10
61.2500571197
 20
-15.5457974591
 40
0.1
100
AcDbArc
 50
140.0000001589
 51
230.0000002654
  0
ARC
  5
6A3
100
AcDbEntity
  8
0
100
AcDbCircle
 62
7
  6
CONTINUOUS
 10
60.9239101865
 20
-14.6497161247
 40
0.1
100
AcDbArc
 50
169.9999996985
 51
260.0000000168
  0
ARC
  5
6A4
100
AcDbEntity
  8
0
100
AcDbCircle
 62
7
  6
CONTINUOUS
 10
60.9933694575
 20
-14.2557930235
 40
0.1
100
AcDbArc
 50
79.9999999906
 51
170.0000000083
  0
ARC
  5
6A5
100
AcDbEntity
  8
0
100
AcDbCircle
 62
7
  6
CONTINUOUS
 10
61.6063251904
 20
-13.5253008267
 40
0.1
100
AcDbArc
 50
109.9999999709
 51
200.0000000269
  0
ARC
  5
6A6
100
AcDbEntity
  8
DRAFT
100
AcDbCircle
 62
7
  6
CONTINUOUS
 10
61.6063251904
 20
-13.5253008267
 40
0.1
100
AcDbArc
 50
109.9999999966
 51
200.0000000011
  0
ARC
  5
6A7
100
AcDbEntity
  8
DRAFT
100
AcDbCircle
 62
7
  6
CONTINUOUS
 10
60.9933694575
 20
-14.2557930235
 40
0.1
100
AcDbArc
 50
80.0000000037
 51
169.9999999952
  0
ARC
  5
6A8
100
AcDbEntity
  8
DRAFT
100
AcDbCircle
 62
7
  6
CONTINUOUS
 10
60.9239101865
 20
-14.6497161247
 40
0.1
100
AcDbArc
 50
169.9999999952
 51
260.0000000037
  0
ARC
  5
6A9
100
AcDbEntity
  8
DRAFT
100
AcDbCircle
 62
7
  6
CONTINUOUS
 10
61.2500571197
 20
-15.5457974591
 40
0.1
100
AcDbArc
 50
140.0000000054
 51
230.000000013
  0
ARC
  5
6AA
100
AcDbEntity
  8
DRAFT
100
AcDbCircle
 62
7
  6
CONTINUOUS
 10
61.5564748969
 20
-15.802912503
 40
0.1
100
AcDbArc
 50
230.000000013
 51
319.9999999998
  0
ARC
  5
6AB
100
AcDbEntity
  8
0
100
AcDbCircle
 62
7
  6
CONTINUOUS
 10
61.662201107
 20
-16.7973077808
 40
0.1
100
AcDbArc
 50
79.9999999823
 51
170.000000013
  0
ARC
  5
6AC
100
AcDbEntity
  8
0
100
AcDbCircle
 62
7
  6
CONTINUOUS
 10
62.0561242082
 20
-16.8667670519
 40
0.1
100
AcDbArc
 50
350.0000000369
 51
80.0000000083
  0
ARC
  5
6AD
100
AcDbEntity
  8
DRAFT
100
AcDbCircle
 62
7
  6
CONTINUOUS
 10
62.0561242082
 20
-16.8667670519
 40
0.1
100
AcDbArc
 50
350.0000000001
 51
79.9999999952
  0
ARC
  5
6AE
100
AcDbEntity
  8
DRAFT
100
AcDbCircle
 62
7
  6
CONTINUOUS
 10
61.662201107
 20
-16.7973077808
 40
0.1
100
AcDbArc
 50
79.9999999952
 51
170.0000000001
  0
ARC
  5
6AF
100
AcDbEntity
  8
0
100
AcDbCircle
 62
7
  6
CONTINUOUS
 10
62.8714546114
 20
-15.8316935834
 40
0.1
100
AcDbArc
 50
289.9999999709
 51
20.0000000244
  0
ARC
  5
6B0
100
AcDbEntity
  8
0
100
AcDbCircle
 62
7
  6
CONTINUOUS
 10
62.4955775631
 20
-15.9685016407
 40
0.1
100
AcDbArc
 50
199.9999999754
 51
290.0000000225
  0
ARC
  5
6B1
100
AcDbEntity
  8
0
100
AcDbCircle
 62
7
  6
CONTINUOUS
 10
63.5538696153
 20
-14.7072782854
 40
0.1
100
AcDbArc
 50
349.9999996983
 51
80.0000000096
  0
ARC
  5
6B2
100
AcDbEntity
  8
0
100
AcDbCircle
 62
7
  6
CONTINUOUS
 10
63.4844103443
 20
-15.1012013866
 40
0.1
100
AcDbArc
 50
259.9999999834
 51
350.0000000083
  0
ARC
  5
6B3
100
AcDbEntity
  8
0
100
AcDbCircle
 62
7
  6
CONTINUOUS
 10
61.9822022387
 20
-13.3884927693
 40
0.1
100
AcDbArc
 50
19.9999999754
 51
109.9999997517
  0
ARC
  5
6B4
100
AcDbEntity
  8
0
100
AcDbCircle
 62
7
  6
CONTINUOUS
 10
62.9213049049
 20
-13.554081907
 40
0.1
100
AcDbArc
 50
50.0000001555
 51
139.9999998416
  0
ARC
  5
6B5
100
AcDbEntity
  8
0
100
AcDbCircle
 62
7
  6
CONTINUOUS
 10
63.2277226821
 20
-13.8111969509
 40
0.1
100
AcDbArc
 50
319.9999999688
 51
50.0000000338
  0
ARC
  5
6B6
100
AcDbEntity
  8
DRAFT
100
AcDbCircle
 62
7
  6
CONTINUOUS
 10
63.4844103443
 20
-15.1012013866
 40
0.1
100
AcDbArc
 50
259.9999999965
 51
349.9999999952
  0
ARC
  5
6B7
100
AcDbEntity
  8
DRAFT
100
AcDbCircle
 62
7
  6
CONTINUOUS
 10
63.5538696153
 20
-14.7072782854
 40
0.1
100
AcDbArc
 50
349.9999999952
 51
79.9999999965
  0
ARC
  5
6B8
100
AcDbEntity
  8
DRAFT
100
AcDbCircle
 62
7
  6
CONTINUOUS
 10
63.2277226821
 20
-13.8111969509
 40
0.1
100
AcDbArc
 50
320.0000000007
 51
50.000000002
  0
ARC
  5
6B9
100
AcDbEntity
  8
DRAFT
100
AcDbCircle
 62
7
  6
CONTINUOUS
 10
62.9213049049
 20
-13.554081907
 40
0.1
100
AcDbArc
 50
50.000000002
 51
139.999999995
  0
ARC
  5
6BA
100
AcDbEntity
  8
DRAFT
100
AcDbCircle
 62
7
  6
CONTINUOUS
 10
61.9822022387
 20
-13.3884927693
 40
0.1
100
AcDbArc
 50
20.0000000011
 51
109.9999999966
  0
ARC
  5
6BB
100
AcDbEntity
  8
DRAFT
100
AcDbCircle
 62
7
  6
CONTINUOUS
 10
62.4955775631
 20
-15.9685016407
 40
0.1
100
AcDbArc
 50
200.0000000011
 51
289.9999999966
  0
ARC
  5
6BC
100
AcDbEntity
  8
DRAFT
100
AcDbCircle
 62
7
  6
CONTINUOUS
 10
62.8714546114
 20
-15.8316935834
 40
0.1
100
AcDbArc
 50
289.9999999966
 51
19.9999999986
  0
ARC
  5
6BD
100
AcDbEntity
  8
0
100
AcDbCircle
 62
7
  6
CONTINUOUS
 10
59.5510580005
 20
13.4347446183
 40
1.0852377116
100
AcDbArc
 50
0.0
 51
70.0000000032
  0
ARC
  5
6BE
100
AcDbEntity
  8
DRAFT
100
AcDbCircle
 62
7
  6
CONTINUOUS
 10
59.5510580005
 20
13.4347446183
 40
1.0852377116
100
AcDbArc
 50
0.0
 51
69.9999999985
  0
ARC
  5
6BF
100
AcDbEntity
  8
0
100
AcDbCircle
 62
7
  6
CONTINUOUS
 10
60.3362957121
 20
10.79703125
 40
0.3
100
AcDbArc
 50
270.0
 51
359.9999999999
  0
ARC
  5
6C0
100
AcDbEntity
  8
DRAFT
100
AcDbCircle
 62
7
  6
CONTINUOUS
 10
60.3362957121
 20
10.79703125
 40
0.3
100
AcDbArc
 50
270.0
 51
360.0
  0
ARC
  5
6C1
100
AcDbEntity
  8
0
100
AcDbCircle
 62
7
  6
CONTINUOUS
 10
60.4781663455
 20
15.6896947411
 40
0.15
100
AcDbArc
 50
270.0
 51
6.2043089602
  0
ARC
  5
6C2
100
AcDbEntity
  8
0
100
AcDbCircle
 62
7
  6
CONTINUOUS
 10
59.9735341796
 20
15.6896947411
 40
0.15
100
AcDbArc
 50
189.725673402
 51
269.9999999999
  0
ARC
  5
6C3
100
AcDbEntity
  8
DRAFT
100
AcDbCircle
 62
7
  6
CONTINUOUS
 10
60.4781663455
 20
15.6896947411
 40
0.15
100
AcDbArc
 50
270.0
 51
6.2043089717
  0
ARC
  5
6C4
100
AcDbEntity
  8
DRAFT
100
AcDbCircle
 62
7
  6
CONTINUOUS
 10
59.9735341796
 20
15.6896947411
 40
0.15
100
AcDbArc
 50
189.7256727073
 51
270.0
  0
ARC
  5
6C5
100
AcDbEntity
  8
ASSI
100
AcDbCircle
 62
7
  6
CONTINUOUS
 10
-2.9531758069
 20
-26.00296875
 40
1.5
100
AcDbArc
 50
90.0
 51
115.0
  0
ARC
  5
6C6
100
AcDbEntity
  8
0
100
AcDbCircle
 62
7
  6
CONTINUOUS
 10
-14.4024781816
 20
-27.0663838126
 40
0.5
100
AcDbArc
 50
180.0
 51
268.5
  0
ARC
  5
6C7
100
AcDbEntity
  8
ASSI
100
AcDbCircle
 62
7
  6
CONTINUOUS
 10
-6.6133255129
 20
-25.50296875
 40
0.5
100
AcDbArc
 50
270.0
 51
295.0
  0
ARC
  5
6C8
100
AcDbEntity
  8
DRAFT
100
AcDbCircle
 62
7
  6
CONTINUOUS
 10
-10.524793748
 20
-20.6846069547
 40
0.3
100
AcDbArc
 50
46.3156631378
 51
89.0
  0
ARC
  5
6C9
100
AcDbEntity
  8
RACCORDO
100
AcDbCircle
 62
7
  6
CONTINUOUS
 10
-9.8024781816
 20
-23.7564292974
 40
0.2
100
AcDbArc
 50
271.0
 51
360.0
  0
ARC
  5
6CA
100
AcDbEntity
  8
RACCORDO
100
AcDbCircle
 62
7
  6
CONTINUOUS
 10
-8.1024781816
 20
-23.346106505
 40
0.2
100
AcDbArc
 50
92.0
 51
180.0
  0
ARC
  5
6CB
100
AcDbEntity
  8
ASSI
100
AcDbCircle
 62
7
  6
CONTINUOUS
 10
-10.4559435792
 20
-25.60296875
 40
0.2
100
AcDbArc
 50
270.0
 51
345.0
  0
ARC
  5
6CC
100
AcDbEntity
  8
ASSI
100
AcDbCircle
 62
7
  6
CONTINUOUS
 10
-6.8096578586
 20
-25.80296875
 40
0.2
100
AcDbArc
 50
210.0
 51
270.0
  0
ARC
  5
6CD
100
AcDbEntity
  8
ASSI
100
AcDbCircle
 62
7
  6
CONTINUOUS
 10
-7.6179482354
 20
-25.20296875
 40
0.2
100
AcDbArc
 50
30.0
 51
85.6838888483
  0
ARC
  5
6CE
100
AcDbEntity
  8
ASSI
100
AcDbCircle
 62
7
  6
CONTINUOUS
 10
-8.1024781816
 20
-24.0081480784
 40
0.2
100
AcDbArc
 50
180.0
 51
250.0
  0
ARC
  5
6CF
100
AcDbEntity
  8
ASSI
100
AcDbCircle
 62
7
  6
CONTINUOUS
 10
-7.8024781816
 20
-24.5430102576
 40
0.2
100
AcDbArc
 50
0.0
 51
70.0
  0
ARC
  5
6D0
100
AcDbEntity
  8
ASSI
100
AcDbCircle
 62
7
  6
CONTINUOUS
 10
-7.8024781816
 20
-24.9953365701
 40
0.2
100
AcDbArc
 50
271.0
 51
360.0
  0
ARC
  5
6D1
100
AcDbEntity
  8
ASSI
100
AcDbCircle
 62
7
  6
CONTINUOUS
 10
-2.9531758069
 20
23.49703125
 40
1.5
100
AcDbArc
 50
245.0
 51
270.0
  0
ARC
  5
6D2
100
AcDbEntity
  8
0
100
AcDbCircle
 62
7
  6
CONTINUOUS
 10
-14.4024781816
 20
24.5604463126
 40
0.5
100
AcDbArc
 50
91.5
 51
180.0
  0
ARC
  5
6D3
100
AcDbEntity
  8
ASSI
100
AcDbCircle
 62
7
  6
CONTINUOUS
 10
-6.6133255129
 20
22.99703125
 40
0.5
100
AcDbArc
 50
65.0
 51
90.0
  0
ARC
  5
6D4
100
AcDbEntity
  8
DRAFT
100
AcDbCircle
 62
7
  6
CONTINUOUS
 10
-10.524793748
 20
18.1786694547
 40
0.3
100
AcDbArc
 50
271.0
 51
313.6843368622
  0
ARC
  5
6D5
100
AcDbEntity
  8
RACCORDO
100
AcDbCircle
 62
7
  6
CONTINUOUS
 10
-9.8024781816
 20
21.2504917974
 40
0.2
100
AcDbArc
 50
0.0
 51
89.0
  0
ARC
  5
6D6
100
AcDbEntity
  8
RACCORDO
100
AcDbCircle
 62
7
  6
CONTINUOUS
 10
-8.1024781816
 20
20.840169005
 40
0.2
100
AcDbArc
 50
180.0
 51
268.0
  0
ARC
  5
6D7
100
AcDbEntity
  8
ASSI
100
AcDbCircle
 62
7
  6
CONTINUOUS
 10
-6.8096578586
 20
23.29703125
 40
0.2
100
AcDbArc
 50
90.0
 51
150.0
  0
ARC
  5
6D8
100
AcDbEntity
  8
ASSI
100
AcDbCircle
 62
7
  6
CONTINUOUS
 10
-10.4559435792
 20
23.09703125
 40
0.2
100
AcDbArc
 50
15.0
 51
90.0
  0
ARC
  5
6D9
100
AcDbEntity
  8
ASSI
100
AcDbCircle
 62
7
  6
CONTINUOUS
 10
-7.6179482354
 20
22.69703125
 40
0.2
100
AcDbArc
 50
274.3466611405
 51
330.0
  0
ARC
  5
6DA
100
AcDbEntity
  8
ASSI
100
AcDbCircle
 62
7
  6
CONTINUOUS
 10
-8.1024781816
 20
21.5022105784
 40
0.2
100
AcDbArc
 50
110.0
 51
180.0
  0
ARC
  5
6DB
100
AcDbEntity
  8
ASSI
100
AcDbCircle
 62
7
  6
CONTINUOUS
 10
-7.8024781816
 20
22.0370727576
 40
0.2
100
AcDbArc
 50
290.0
 51
360.0
  0
ARC
  5
6DC
100
AcDbEntity
  8
ASSI
100
AcDbCircle
 62
7
  6
CONTINUOUS
 10
-7.8024781816
 20
22.4893990701
 40
0.2
100
AcDbArc
 50
0.0
 51
89.0
  0
ARC
  5
6DD
100
AcDbEntity
  8
RACCORDO
100
AcDbCircle
 62
7
  6
CONTINUOUS
 10
9.3975218184
 20
-20.1616201184
 40
0.5
100
AcDbArc
 50
271.0
 51
302.8848694766
  0
ARC
  5
6DE
100
AcDbEntity
  8
ASSI
100
AcDbCircle
 62
7
  6
CONTINUOUS
 10
9.3975218184
 20
-20.1616201184
 40
0.5
100
AcDbArc
 50
271.0
 51
302.8848694766
  0
ARC
  5
6DF
100
AcDbEntity
  8
ASSI
100
AcDbCircle
 62
7
  6
CONTINUOUS
 10
1.0996447621
 20
-24.00296875
 40
0.5
100
AcDbArc
 50
270.0
 51
285.0
  0
ARC
  5
6E0
100
AcDbEntity
  8
RACCORDO
100
AcDbCircle
 62
7
  6
CONTINUOUS
 10
10.1975218184
 20
-3.0632621176
 40
0.3
100
AcDbArc
 50
180.0
 51
268.0
  0
ARC
  5
6E1
100
AcDbEntity
  8
RACCORDO
100
AcDbCircle
 62
7
  6
CONTINUOUS
 10
10.1975218184
 20
-11.6426753824
 40
0.3
100
AcDbArc
 50
92.0
 51
180.0
  0
ARC
  5
6E2
100
AcDbEntity
  8
RACCORDO
100
AcDbCircle
 62
7
  6
CONTINUOUS
 10
11.5975218184
 20
-3.7125169214
 40
0.3
100
AcDbArc
 50
0.0
 51
88.0
  0
ARC
  5
6E3
100
AcDbEntity
  8
RACCORDO
100
AcDbCircle
 62
7
  6
CONTINUOUS
 10
11.5975218184
 20
-10.9934205786
 40
0.3
100
AcDbArc
 50
272.0
 51
360.0
  0
ARC
  5
6E4
100
AcDbEntity
  8
ASSI
100
AcDbCircle
 62
7
  6
CONTINUOUS
 10
10.1975218184
 20
-3.0632621176
 40
0.3
100
AcDbArc
 50
180.0
 51
268.0
  0
ARC
  5
6E5
100
AcDbEntity
  8
ASSI
100
AcDbCircle
 62
7
  6
CONTINUOUS
 10
10.1975218184
 20
-11.6426753824
 40
0.3
100
AcDbArc
 50
92.0
 51
180.0
  0
ARC
  5
6E6
100
AcDbEntity
  8
ASSI
100
AcDbCircle
 62
7
  6
CONTINUOUS
 10
11.5975218184
 20
-3.7125169214
 40
0.3
100
AcDbArc
 50
0.0
 51
88.0
  0
ARC
  5
6E7
100
AcDbEntity
  8
ASSI
100
AcDbCircle
 62
7
  6
CONTINUOUS
 10
11.5975218184
 20
-10.9934205786
 40
0.3
100
AcDbArc
 50
272.0
 51
360.0
  0
ARC
  5
6E8
100
AcDbEntity
  8
ASSI
100
AcDbCircle
 62
7
  6
CONTINUOUS
 10
1.0996447621
 20
21.49703125
 40
0.5
100
AcDbArc
 50
75.0
 51
90.0
  0
ARC
  5
6E9
100
AcDbEntity
  8
RACCORDO
100
AcDbCircle
 62
7
  6
CONTINUOUS
 10
10.1975218184
 20
9.1367378824
 40
0.3
100
AcDbArc
 50
180.0
 51
268.0
  0
ARC
  5
6EA
100
AcDbEntity
  8
RACCORDO
100
AcDbCircle
 62
7
  6
CONTINUOUS
 10
10.1975218184
 20
0.5573246176
 40
0.3
100
AcDbArc
 50
92.0
 51
180.0
  0
ARC
  5
6EB
100
AcDbEntity
  8
RACCORDO
100
AcDbCircle
 62
7
  6
CONTINUOUS
 10
11.5975218184
 20
8.4874830786
 40
0.3
100
AcDbArc
 50
0.0
 51
88.0
  0
ARC
  5
6EC
100
AcDbEntity
  8
RACCORDO
100
AcDbCircle
 62
7
  6
CONTINUOUS
 10
11.5975218184
 20
1.2065794214
 40
0.3
100
AcDbArc
 50
272.0
 51
360.0
  0
ARC
  5
6ED
100
AcDbEntity
  8
ASSI
100
AcDbCircle
 62
7
  6
CONTINUOUS
 10
10.1975218184
 20
9.1367378824
 40
0.3
100
AcDbArc
 50
180.0
 51
268.0
  0
ARC
  5
6EE
100
AcDbEntity
  8
ASSI
100
AcDbCircle
 62
7
  6
CONTINUOUS
 10
10.1975218184
 20
0.5573246176
 40
0.3
100
AcDbArc
 50
92.0
 51
180.0
  0
ARC
  5
6EF
100
AcDbEntity
  8
ASSI
100
AcDbCircle
 62
7
  6
CONTINUOUS
 10
11.5975218184
 20
8.4874830786
 40
0.3
100
AcDbArc
 50
0.0
 51
88.0
  0
ARC
  5
6F0
100
AcDbEntity
  8
ASSI
100
AcDbCircle
 62
7
  6
CONTINUOUS
 10
11.5975218184
 20
1.2065794214
 40
0.3
100
AcDbArc
 50
272.0
 51
360.0
  0
ELLIPSE
  5
6F1
100
AcDbEntity
  8
0
100
AcDbEllipse
 62
7
  6
CONTINUOUS
 10
69.6981879788
 20
-27.1527973538
 30
0.0
 11
0.35379574
 21
-0.35379574
 31
0.0
 40
0.999315002
 41
-0.7850555471
 42
0.7850555471
  0
ELLIPSE
  5
6F2
100
AcDbEntity
  8
0
100
AcDbEllipse
 62
7
  6
CONTINUOUS
 10
69.6981879788
 20
24.6468598538
 30
0.0
 11
-0.35379574
 21
-0.35379574
 31
0.0
 40
0.999315002
 41
2.3565371065
 42
3.9266482006
  0
ELLIPSE
  5
6F3
100
AcDbEntity
  8
0
100
AcDbEllipse
 62
7
  6
CONTINUOUS
 10
48.4985307712
 20
24.6468598538
 30
0.0
 11
0.35379574
 21
-0.35379574
 31
0.0
 40
0.999315002
 41
2.3565371065
 42
3.9266482006
  0
ELLIPSE
  5
6F4
100
AcDbEntity
  8
0
100
AcDbEllipse
 62
7
  6
CONTINUOUS
 10
48.4985307712
 20
-27.1527973538
 30
0.0
 11
0.35379574
 21
0.35379574
 31
0.0
 40
0.999315002
 41
2.3565371065
 42
3.9266482006
  0
ELLIPSE
  5
6F5
100
AcDbEntity
  8
RACCORDO
100
AcDbEllipse
 62
7
  6
CONTINUOUS
 10
-153.2469697938
 20
-8.5555264921
 30
0.0
 11
591.6544903202
 21
21.9522363776
 31
0.0
 40
0.0348940885
 41
1.324596945
 42
1.3265493164
  0
ELLIPSE
  5
6F6
100
AcDbEntity
  8
RACCORDO
100
AcDbEllipse
 62
7
  6
CONTINUOUS
 10
-153.2469697938
 20
6.0495889921
 30
0.0
 11
591.6544903202
 21
-21.9522363776
 31
0.0
 40
0.0348940885
 41
-1.3265493164
 42
-1.324596945
  0
ELLIPSE
  5
6F7
100
AcDbEntity
  8
0
100
AcDbEllipse
 62
7
  6
CONTINUOUS
 10
-1360.7934490794
 20
-1.25296875
 30
0.0
 11
1491.5228640581
 21
-0.0
 31
0.0
 40
0.0302453443
 41
6.7204492196
 42
6.7217244524
  0
ELLIPSE
  5
6F8
100
AcDbEntity
  8
0
100
AcDbEllipse
 62
7
  6
CONTINUOUS
 10
-1360.7934490794
 20
-1.25296875
 30
0.0
 11
1491.5228640581
 21
-0.0
 31
0.0
 40
0.0302453443
 41
5.844646162
 42
5.8459213948
  0
ELLIPSE
  5
6F9
100
AcDbEntity
  8
RACCORDO
100
AcDbEllipse
 62
7
  6
CONTINUOUS
 10
5.3975218184
 20
19.1555723226
 30
0.0
 11
2.199988563
 21
-0.0402441739
 31
0.0
 40
0.1762698288
 41
2.2680637803
 42
2.5697735952
  0
ELLIPSE
  5
6FA
100
AcDbEntity
  8
RACCORDO
100
AcDbEllipse
 62
7
  6
CONTINUOUS
 10
5.3975218184
 20
-21.6615098226
 30
0.0
 11
2.199988563
 21
0.0402441739
 31
0.0
 40
0.1762698288
 41
-2.5697735952
 42
-2.2680637803
  0
ENDSEC
  0
SECTION
  2
OBJECTS
  0
DICTIONARY
  5
C
100
AcDbDictionary
280
0
281
1
  3
ACAD_GROUP
350
D
  3
ACAD_MLINESTYLE
350
17
  3
ACAD_LAYOUT
350
1A
  3
ACAD_PLOTSETTINGS
350
19
  3
ACAD_PLOTSTYLENAME
350
E
  0
DICTIONARY
  5
D
102
{ACAD_REACTORS
330
C
102
}
100
AcDbDictionary
280
0
281
1
  0
ACDBDICTIONARYWDFLT
  5
E
102
{ACAD_REACTORS
330
C
102
}
100
AcDbDictionary
281
1
  3
Normal
350
F
100
AcDbDictionaryWithDefault
340
F
  0
DICTIONARY
  5
17
102
{ACAD_REACTORS
330
C
102
}
100
AcDbDictionary
280
0
281
1
  3
Standard
350
18
  0
DICTIONARY
  5
19
102
{ACAD_REACTORS
330
C
102
}
100
AcDbDictionary
281
1
  0
DICTIONARY
  5
1A
102
{ACAD_REACTORS
330
C
102
}
100
AcDbDictionary
281
1
  3
Model
350
6FB
  3
Layout1
350
6FC
  0
ACDBPLACEHOLDER
  5
F
102
{ACAD_REACTORS
330
E
102
}
  0
MLINESTYLE
  5
18
102
{ACAD_REACTORS
330
17
102
}
100
AcDbMlineStyle
  2
STANDARD
 70
0
  3

 62
256
 51
90.0
 52
90.0
 71
2
 49
0.5
 62
256
  6
BYLAYER
 49
-0.5
 62
256
  6
BYLAYER
  0
LAYOUT
  5
6FB
102
{ACAD_REACTORS
330
1A
102
}
100
AcDbPlotSettings
  1

  2
none_device
  4
ISO_A4_(297.00_x_210.00_MM)
  6

 40
0.0
 41
0.0
 42
0.0
 43
0.0
 44
297.0
 45
210.0
 46
0.0
 47
0.0
 48
0.0
 49
0.0
140
0.0
141
0.0
142
1.0
143
1.0
 70
1024
 72
1
 73
0
 74
0
  7

 75
0
147
1.0
148
0.0
149
0.0
100
AcDbLayout
  1
Model
 70
0
 71
0
 10
0.0
 20
0.0
 11
297.0
 21
210.0
 12
0.0
 22
0.0
 32
0.0
 14
0.0
 24
0.0
 34
0.0
 15
0.0
 25
0.0
 35
0.0
146
0.0
 13
0.0
 23
0.0
 33
0.0
 16
1.0
 26
0.0
 36
0.0
 17
0.0
 27
1.0
 37
0.0
 76
0
330
21E
345
0
346
0
  0
LAYOUT
  5
6FC
102
{ACAD_REACTORS
330
1A
102
}
100
AcDbPlotSettings
  1

  2
none_device
  4
ISO_A4_(297.00_x_210.00_MM)
  6

 40
0.0
 41
0.0
 42
0.0
 43
0.0
 44
297.0
 45
210.0
 46
0.0
 47
0.0
 48
0.0
 49
0.0
140
0.0
141
0.0
142
1.0
143
1.0
 70
0
 72
1
 73
0
 74
0
  7

 75
0
147
1.0
148
0.0
149
0.0
100
AcDbLayout
  1
Layout1
 70
0
 71
1
 10
0.0
 20
0.0
 11
297.0
 21
210.0
 12
0.0
 22
0.0
 32
0.0
 14
0.0
 24
0.0
 34
0.0
 15
0.0
 25
0.0
 35
0.0
146
0.0
 13
0.0
 23
0.0
 33
0.0
 16
1.0
 26
0.0
 36
0.0
 17
0.0
 27
1.0
 37
0.0
 76
0
330
21F
345
0
346
0
  0
ENDSEC
  0
EOF
