  0
SECTION
  2
HEADER
  9
$ACADVER
  1
AC1024
  9
$DWGCODEPAGE
  3
ANSI_1252
  9
$EXTMAX
 10
297.0
 20
210.0
 30
0.0
  9
$EXTMIN
 10
0.0
 20
0.0
 30
0.0
  9
$LIMMIN
 10
0.0
 20
0.0
  9
$LIMMAX
 10
297.0
 20
210.0
  9
$VIEWCTR
 10
148.5
 20
105.0
  9
$VIEWSIZE
 40
210.0
  9
$CLAYER
  8
0
  9
$LTSCALE
 40
16.335
  9
$CELTYPE
  6
BYLAYER
  9
$DIMSCALE
 40
1.0
  9
$DIMASZ
 40
3.0
  9
$DIMEXO
 40
0.5
  9
$DIMDLI
 40
11.286
  9
$DIMEXE
 40
1.5
  9
$DIMCEN
 40
2.673
  9
$DIMLFAC
 40
1.0
  9
$DIMBLK
  1
_FILLED
  9
$DIMALT
 70
0
  9
$DIMALTF
 40
0.0393700787
  9
$DIMTXT
 40
3.0
  9
$DIMTOL
 70
1
  9
$DIMLIM
 70
0
  9
$DIMTFAC
 40
1.0
  9
$DIMTP
 40
0.01
  9
$DIMTM
 40
0.01
  9
$DIMGAP
 40
0.625
  9
$DIMDSEP
 70
44
  9
$AUNITS
 70
0
  9
$PDMODE
 70
3
  9
$PDSIZE
 40
3.0
  9
$HANDSEED
  5
5F5
  9
$TILEMODE
 70
1
  9
$MEASUREMENT
 70
1
  9
$INSUNITS
 70
4
  0
ENDSEC
  0
SECTION
  2
CLASSES
  0
CLASS
  1
ACDBDICTIONARYWDFLT
  2
AcDbDictionaryWithDefault
  3
AutoCAD 2000
 90
0
 91
1
280
0
281
0
  0
CLASS
  1
ACDBPLACEHOLDER
  2
AcDbPlaceHolder
  3
AutoCAD 2000
 90
0
 91
1
280
0
281
0
  0
CLASS
  1
LAYOUT
  2
AcDbLayout
  3
AutoCAD 2000
 90
0
 91
0
280
0
281
0
  0
ENDSEC
  0
SECTION
  2
TABLES
  0
TABLE
  2
VPORT
  5
8
100
AcDbSymbolTable
 70
2
  0
VPORT
  5
1F4
100
AcDbSymbolTableRecord
100
AcDbViewportTableRecord
  2
*ACTIVE
 70
0
 10
0.0
 20
0.0
 11
1.0
 21
1.0
 12
148.5
 22
105.0
 13
0.0
 23
0.0
 14
1.0
 24
1.0
 15
0.0
 25
0.0
 16
0.0
 26
0.0
 36
1.0
 17
0.0
 27
0.0
 37
0.0
 40
210.0
 41
1.4142857143
 42
50.0
 43
0.0
 44
0.0
 50
0.0
 51
0.0
 71
0
 72
100
 73
1
 74
1
 75
0
 76
0
 77
0
 78
0
  0
ENDTAB
  0
TABLE
  2
LTYPE
  5
5
100
AcDbSymbolTable
 70
6
  0
LTYPE
  5
14
100
AcDbSymbolTableRecord
100
AcDbLinetypeTableRecord
  2
BYBLOCK
 70
0
  3

 72
65
 73
0
 40
0.0
  0
LTYPE
  5
15
100
AcDbSymbolTableRecord
100
AcDbLinetypeTableRecord
  2
BYLAYER
 70
0
  3

 72
65
 73
0
 40
0.0
  0
LTYPE
  5
16
100
AcDbSymbolTableRecord
100
AcDbLinetypeTableRecord
  2
CONTINUOUS
 70
64
  3
Solid line
 72
65
 73
0
 40
0.0
  0
LTYPE
  5
1F5
100
AcDbSymbolTableRecord
100
AcDbLinetypeTableRecord
  2
CENTER
 70
64
  3
____ _ ____ _ ____ _ ____ _ ____ _ ____ _ ____
 72
65
 73
4
 40
0.6
 49
0.375
 74
0
 49
-0.075
 74
0
 49
0.075
 74
0
 49
-0.075
 74
0
  0
LTYPE
  5
1F6
100
AcDbSymbolTableRecord
100
AcDbLinetypeTableRecord
  2
HIDDEN
 70
64
  3
- - - - - - - - - - - - - - - - - - - -
 72
65
 73
2
 40
0.2
 49
0.1
 74
0
 49
-0.1
 74
0
  0
LTYPE
  5
1F7
100
AcDbSymbolTableRecord
100
AcDbLinetypeTableRecord
  2
PHANTOM
 70
64
  3
_____ _ _ _____ _ _ _____ _ _ _____
 72
65
 73
6
 40
0.8
 49
0.45
 74
0
 49
-0.05
 74
0
 49
0.1
 74
0
 49
-0.05
 74
0
 49
0.1
 74
0
 49
-0.05
 74
0
  0
LTYPE
  5
1F8
100
AcDbSymbolTableRecord
100
AcDbLinetypeTableRecord
  2
DOT
 70
64
  3
. . . . . . . . . . . . . . . . . . . .
 72
65
 73
2
 40
0.2
 49
0.1
 74
0
 49
-0.1
 74
0
  0
LTYPE
  5
1F9
100
AcDbSymbolTableRecord
100
AcDbLinetypeTableRecord
  2
DASHED
 70
64
  3
- - - - - - - - - - - - - - - - - - - -
 72
65
 73
2
 40
0.2
 49
0.1
 74
0
 49
-0.1
 74
0
  0
ENDTAB
  0
TABLE
  2
LAYER
  5
2
100
AcDbSymbolTable
 70
36
  0
LAYER
  5
10
100
AcDbSymbolTableRecord
100
AcDbLayerTableRecord
  2
0
 70
0
 62
7
  6
CONTINUOUS
370
-3
390
F
  0
LAYER
  5
1FA
100
AcDbSymbolTableRecord
100
AcDbLayerTableRecord
  2
DEFAULT_1
 70
0
 62
7
  6
CENTER
370
-3
390
F
  0
LAYER
  5
1FB
100
AcDbSymbolTableRecord
100
AcDbLayerTableRecord
  2
DEFAULT_2
 70
0
 62
7
  6
HIDDEN
370
-3
390
F
  0
LAYER
  5
1FC
100
AcDbSymbolTableRecord
100
AcDbLayerTableRecord
  2
DEFAULT_3
 70
0
 62
7
  6
PHANTOM
370
-3
390
F
  0
LAYER
  5
1FD
100
AcDbSymbolTableRecord
100
AcDbLayerTableRecord
  2
ASSI
 70
0
 62
7
  6
CONTINUOUS
370
-3
390
F
  0
LAYER
  5
1FE
100
AcDbSymbolTableRecord
100
AcDbLayerTableRecord
  2
COLOR5
 70
0
 62
7
  6
CONTINUOUS
370
-3
390
F
  0
LAYER
  5
1FF
100
AcDbSymbolTableRecord
100
AcDbLayerTableRecord
  2
COORDINATE
 70
0
 62
7
  6
CONTINUOUS
370
-3
390
F
  0
LAYER
  5
200
100
AcDbSymbolTableRecord
100
AcDbLayerTableRecord
  2
COORD_ORIGINE
 70
0
 62
7
  6
CONTINUOUS
370
-3
390
F
  0
LAYER
  5
201
100
AcDbSymbolTableRecord
100
AcDbLayerTableRecord
  2
COPY_PUBLISH
 70
0
 62
7
  6
CONTINUOUS
370
-3
390
F
  0
LAYER
  5
202
100
AcDbSymbolTableRecord
100
AcDbLayerTableRecord
  2
COSMETICI
 70
0
 62
7
  6
CONTINUOUS
370
-3
390
F
  0
LAYER
  5
203
100
AcDbSymbolTableRecord
100
AcDbLayerTableRecord
  2
CURVE
 70
0
 62
7
  6
CONTINUOUS
370
-3
390
F
  0
LAYER
  5
204
100
AcDbSymbolTableRecord
100
AcDbLayerTableRecord
  2
DRAFT
 70
0
 62
7
  6
CONTINUOUS
370
-3
390
F
  0
LAYER
  5
205
100
AcDbSymbolTableRecord
100
AcDbLayerTableRecord
  2
IMPORT_IGES
 70
0
 62
7
  6
CONTINUOUS
370
-3
390
F
  0
LAYER
  5
206
100
AcDbSymbolTableRecord
100
AcDbLayerTableRecord
  2
INTF_11
 70
0
 62
7
  6
CONTINUOUS
370
-3
390
F
  0
LAYER
  5
207
100
AcDbSymbolTableRecord
100
AcDbLayerTableRecord
  2
INTF_9
 70
0
 62
7
  6
CONTINUOUS
370
-3
390
F
  0
LAYER
  5
208
100
AcDbSymbolTableRecord
100
AcDbLayerTableRecord
  2
NOTE
 70
0
 62
7
  6
CONTINUOUS
370
-3
390
F
  0
LAYER
  5
209
100
AcDbSymbolTableRecord
100
AcDbLayerTableRecord
  2
PIANI
 70
0
 62
7
  6
CONTINUOUS
370
-3
390
F
  0
LAYER
  5
20A
100
AcDbSymbolTableRecord
100
AcDbLayerTableRecord
  2
PIANI_DI_RIFERIMENTO
 70
0
 62
7
  6
CONTINUOUS
370
-3
390
F
  0
LAYER
  5
20B
100
AcDbSymbolTableRecord
100
AcDbLayerTableRecord
  2
PIANI_ORIGINE
 70
0
 62
7
  6
CONTINUOUS
370
-3
390
F
  0
LAYER
  5
20C
100
AcDbSymbolTableRecord
100
AcDbLayerTableRecord
  2
PIANI_RIFERIMENTO
 70
0
 62
7
  6
CONTINUOUS
370
-3
390
F
  0
LAYER
  5
20D
100
AcDbSymbolTableRecord
100
AcDbLayerTableRecord
  2
PUNTI
 70
0
 62
7
  6
CONTINUOUS
370
-3
390
F
  0
LAYER
  5
20E
100
AcDbSymbolTableRecord
100
AcDbLayerTableRecord
  2
RACCORDO
 70
0
 62
7
  6
CONTINUOUS
370
-3
390
F
  0
LAYER
  5
20F
100
AcDbSymbolTableRecord
100
AcDbLayerTableRecord
  2
SIMBOLI
 70
0
 62
7
  6
CONTINUOUS
370
-3
390
F
  0
LAYER
  5
210
100
AcDbSymbolTableRecord
100
AcDbLayerTableRecord
  2
SMUSSO
 70
0
 62
7
  6
CONTINUOUS
370
-3
390
F
  0
LAYER
  5
211
100
AcDbSymbolTableRecord
100
AcDbLayerTableRecord
  2
SUPERFICI
 70
0
 62
7
  6
CONTINUOUS
370
-3
390
F
  0
LAYER
  5
212
100
AcDbSymbolTableRecord
100
AcDbLayerTableRecord
  2
TRASH
 70
0
 62
7
  6
CONTINUOUS
370
-3
390
F
  0
ENDTAB
  0
TABLE
  2
STYLE
  5
3
100
AcDbSymbolTable
 70
1
  0
STYLE
  5
11
100
AcDbSymbolTableRecord
100
AcDbTextStyleTableRecord
  2
STANDARD
 70
0
 40
0.0
 41
0.8
 50
0.0
 71
0
 42
0.2
  3
txt
  4

  0
STYLE
  5
213
100
AcDbSymbolTableRecord
100
AcDbTextStyleTableRecord
  2
TEXTSTYLE_1
 70
0
 40
0.0
 41
0.8
 50
0.0
 71
0
 42
0.2
  3
gdt
  4

  0
ENDTAB
  0
TABLE
  2
VIEW
  5
6
100
AcDbSymbolTable
 70
0
  0
ENDTAB
  0
TABLE
  2
UCS
  5
7
100
AcDbSymbolTable
 70
0
  0
ENDTAB
  0
TABLE
  2
APPID
  5
9
100
AcDbSymbolTable
 70
1
  0
APPID
  5
214
100
AcDbSymbolTableRecord
100
AcDbRegAppTableRecord
  2
ACAD
 70
0
  0
ENDTAB
  0
TABLE
  2
BLOCK_RECORD
  5
1
100
AcDbSymbolTable
 70
0
  0
BLOCK_RECORD
  5
215
100
AcDbSymbolTableRecord
100
AcDbBlockTableRecord
  2
*Model_Space
  0
BLOCK_RECORD
  5
216
100
AcDbSymbolTableRecord
100
AcDbBlockTableRecord
  2
*Paper_Space
  0
BLOCK_RECORD
  5
217
100
AcDbSymbolTableRecord
100
AcDbBlockTableRecord
  2
_FILLED
  0
BLOCK_RECORD
  5
218
100
AcDbSymbolTableRecord
100
AcDbBlockTableRecord
  2
*D0
  0
BLOCK_RECORD
  5
219
100
AcDbSymbolTableRecord
100
AcDbBlockTableRecord
  2
*D1
  0
BLOCK_RECORD
  5
21A
100
AcDbSymbolTableRecord
100
AcDbBlockTableRecord
  2
*D2
  0
BLOCK_RECORD
  5
21B
100
AcDbSymbolTableRecord
100
AcDbBlockTableRecord
  2
*D3
  0
ENDTAB
  0
TABLE
  2
DIMSTYLE
  5
A
100
AcDbSymbolTable
 70
1
100
AcDbDimStyleTable
 71
0
  0
DIMSTYLE
105
21C
100
AcDbSymbolTableRecord
100
AcDbDimStyleTableRecord
  2
STANDARD
 70
0
  3

  4

 40
1.0
 41
3.0
 42
0.5
 43
0.38
 44
1.5
 45
0.0
 46
0.0
 47
0.01
 48
0.01
140
3.0
141
0.09
142
0.0
143
25.4
144
1.0
145
0.0
146
1.0
147
0.625
 71
1
 72
0
 73
0
 74
0
 75
0
 76
0
 77
1
 78
8
 79
2
170
0
171
1
172
0
173
0
174
0
175
0
176
0
177
0
178
0
270
2
179
2
271
2
272
2
273
2
274
2
275
0
280
0
281
0
282
0
283
1
284
8
285
0
286
0
287
3
288
0
340
11
278
44
341
217
342
217
343
217
344
217
  0
DIMSTYLE
105
21D
100
AcDbSymbolTableRecord
100
AcDbDimStyleTableRecord
  2
DIMSTYLE_1
 70
0
  3

  4

 40
1.0
 41
3.0
 42
0.5
 43
0.38
 44
1.5
 45
0.0
 46
0.0
 47
0.0
 48
0.0
140
3.0
141
0.09
142
0.0
143
25.4
144
1.0
145
0.0
146
1.0
147
0.75
 71
0
 72
0
 73
0
 74
0
 75
0
 76
0
 77
1
 78
8
 79
2
170
0
171
1
172
0
173
0
174
0
175
0
176
0
177
0
178
0
270
2
179
2
271
1
272
1
273
2
274
2
275
0
280
0
281
0
282
0
283
1
284
8
285
0
286
0
287
3
288
0
340
11
278
44
341
217
342
217
343
217
344
217
  0
DIMSTYLE
105
21E
100
AcDbSymbolTableRecord
100
AcDbDimStyleTableRecord
  2
DIMSTYLE_2
 70
0
  3

  4

 40
1.0
 41
3.0
 42
0.5
 43
0.38
 44
1.5
 45
0.0
 46
0.0
 47
0.0
 48
0.0
140
3.0
141
0.09
142
0.0
143
25.4
144
1.0
145
0.0
146
1.0
147
0.75
 71
0
 72
0
 73
0
 74
0
 75
0
 76
0
 77
1
 78
8
 79
2
170
0
171
1
172
0
173
0
174
0
175
0
176
0
177
0
178
0
270
2
179
2
271
2
272
2
273
2
274
2
275
0
280
0
281
0
282
0
283
1
284
8
285
0
286
0
287
3
288
0
340
11
278
44
341
217
342
217
343
217
344
217
  0
ENDTAB
  0
ENDSEC
  0
SECTION
  2
BLOCKS
  0
BLOCK
  5
20
100
AcDbEntity
  8
0
100
AcDbBlockBegin
  2
*Model_Space
 70
0
 10
0.0
 20
0.0
 30
0.0
  3
*Model_Space
  1

  0
ENDBLK
  5
21
100
AcDbEntity
  8
0
100
AcDbBlockEnd
  0
BLOCK
  5
1C
100
AcDbEntity
  8
0
100
AcDbBlockBegin
  2
*Paper_Space
 70
0
 10
0.0
 20
0.0
 30
0.0
  3
*Paper_Space
  1

  0
ENDBLK
  5
1D
100
AcDbEntity
  8
0
100
AcDbBlockEnd
  0
BLOCK
  5
21F
100
AcDbEntity
  8
0
100
AcDbBlockBegin
  2
_FILLED
 70
64
 10
0.0
 20
0.0
  3
_FILLED
  1

  0
SOLID
  5
220
100
AcDbEntity
  8
0
  6
BYBLOCK
 62
0
100
AcDbTrace
 10
0.0
 20
0.0
 11
-1.0
 21
0.3166666667
 12
-1.0
 22
-0.3166666667
 13
-1.0
 23
-0.3166666667
  0
ENDBLK
  5
221
100
AcDbEntity
  8
0
  6
BYBLOCK
 62
0
100
AcDbBlockEnd
  0
BLOCK
  5
222
100
AcDbEntity
  8
0
100
AcDbBlockBegin
 62
7
  6
CONTINUOUS
  2
*D0
 70
65
 10
0.0
 20
0.0
  3
*D0
  1

  0
LINE
  5
223
100
AcDbEntity
  8
0
100
AcDbLine
 62
7
  6
CONTINUOUS
 10
113.74340437
 20
127.7724712352
 11
113.74340437
 21
143.7542264567
  0
LINE
  5
224
100
AcDbEntity
  8
0
100
AcDbLine
 62
7
  6
CONTINUOUS
 10
138.4842278018
 20
116.441275583
 11
138.4842278018
 21
143.7542264567
  0
LINE
  5
225
100
AcDbEntity
  8
0
100
AcDbLine
 62
7
  6
CONTINUOUS
 10
113.74340437
 20
142.2542264567
 11
126.1138160859
 21
142.2542264567
  0
LINE
  5
226
100
AcDbEntity
  8
0
100
AcDbLine
 62
7
  6
CONTINUOUS
 10
138.4842278018
 20
142.2542264567
 11
126.1138160859
 21
142.2542264567
  0
INSERT
  5
227
100
AcDbEntity
  8
0
100
AcDbBlockReference
 62
7
  6
CONTINUOUS
  2
_FILLED
 10
113.74340437
 20
142.2542264567
 41
3.0
 42
3.0
 43
3.0
 50
180.0
  0
INSERT
  5
228
100
AcDbEntity
  8
0
100
AcDbBlockReference
 62
7
  6
CONTINUOUS
  2
_FILLED
 10
138.4842278018
 20
142.2542264567
 41
3.0
 42
3.0
 43
3.0
  0
ENDBLK
  5
229
100
AcDbEntity
  8
0
  6
BYBLOCK
 62
0
100
AcDbBlockEnd
  0
BLOCK
  5
22A
100
AcDbEntity
  8
0
100
AcDbBlockBegin
 62
7
  6
CONTINUOUS
  2
*D1
 70
65
 10
0.0
 20
0.0
  3
*D1
  1

  0
LINE
  5
22B
100
AcDbEntity
  8
0
100
AcDbLine
 62
7
  6
CONTINUOUS
 10
108.04340437
 20
130.3228034935
 11
108.04340437
 21
153.5137992787
  0
LINE
  5
22C
100
AcDbEntity
  8
0
100
AcDbLine
 62
7
  6
CONTINUOUS
 10
138.4842278018
 20
116.441275583
 11
138.4842278018
 21
153.5137992787
  0
LINE
  5
22D
100
AcDbEntity
  8
0
100
AcDbLine
 62
7
  6
CONTINUOUS
 10
108.04340437
 20
152.0137992787
 11
123.2638160859
 21
152.0137992787
  0
LINE
  5
22E
100
AcDbEntity
  8
0
100
AcDbLine
 62
7
  6
CONTINUOUS
 10
138.4842278018
 20
152.0137992787
 11
123.2638160859
 21
152.0137992787
  0
INSERT
  5
22F
100
AcDbEntity
  8
0
100
AcDbBlockReference
 62
7
  6
CONTINUOUS
  2
_FILLED
 10
108.04340437
 20
152.0137992787
 41
3.0
 42
3.0
 43
3.0
 50
180.0
  0
INSERT
  5
230
100
AcDbEntity
  8
0
100
AcDbBlockReference
 62
7
  6
CONTINUOUS
  2
_FILLED
 10
138.4842278018
 20
152.0137992787
 41
3.0
 42
3.0
 43
3.0
  0
ENDBLK
  5
231
100
AcDbEntity
  8
0
  6
BYBLOCK
 62
0
100
AcDbBlockEnd
  0
BLOCK
  5
232
100
AcDbEntity
  8
0
100
AcDbBlockBegin
 62
7
  6
CONTINUOUS
  2
*D2
 70
65
 10
0.0
 20
0.0
  3
*D2
  1

  0
LINE
  5
233
100
AcDbEntity
  8
0
100
AcDbLine
 62
7
  6
CONTINUOUS
 10
151.141723493
 20
130.4095597684
 11
151.141723493
 21
143.9209667373
  0
LINE
  5
234
100
AcDbEntity
  8
0
100
AcDbLine
 62
7
  6
CONTINUOUS
 10
173.341723493
 20
130.4095597684
 11
173.341723493
 21
143.9209667373
  0
LINE
  5
235
100
AcDbEntity
  8
0
100
AcDbLine
 62
7
  6
CONTINUOUS
 10
151.141723493
 20
142.4209667373
 11
162.241723493
 21
142.4209667373
  0
LINE
  5
236
100
AcDbEntity
  8
0
100
AcDbLine
 62
7
  6
CONTINUOUS
 10
173.341723493
 20
142.4209667373
 11
162.241723493
 21
142.4209667373
  0
INSERT
  5
237
100
AcDbEntity
  8
0
100
AcDbBlockReference
 62
7
  6
CONTINUOUS
  2
_FILLED
 10
151.141723493
 20
142.4209667373
 41
3.0
 42
3.0
 43
3.0
 50
180.0
  0
INSERT
  5
238
100
AcDbEntity
  8
0
100
AcDbBlockReference
 62
7
  6
CONTINUOUS
  2
_FILLED
 10
173.341723493
 20
142.4209667373
 41
3.0
 42
3.0
 43
3.0
  0
ENDBLK
  5
239
100
AcDbEntity
  8
0
  6
BYBLOCK
 62
0
100
AcDbBlockEnd
  0
BLOCK
  5
23A
100
AcDbEntity
  8
0
100
AcDbBlockBegin
 62
7
  6
CONTINUOUS
  2
*D3
 70
65
 10
0.0
 20
0.0
  3
*D3
  1

  0
LINE
  5
23B
100
AcDbEntity
  8
0
100
AcDbLine
 62
7
  6
CONTINUOUS
 10
173.3418948306
 20
130.4093884309
 11
187.5456139664
 21
130.4093884309
  0
LINE
  5
23C
100
AcDbEntity
  8
0
100
AcDbLine
 62
7
  6
CONTINUOUS
 10
173.3418948306
 20
77.6093884309
 11
187.5456139664
 21
77.6093884309
  0
LINE
  5
23D
100
AcDbEntity
  8
0
100
AcDbLine
 62
7
  6
CONTINUOUS
 10
186.0456139664
 20
130.4093884309
 11
186.0456139664
 21
104.0093884309
  0
LINE
  5
23E
100
AcDbEntity
  8
0
100
AcDbLine
 62
7
  6
CONTINUOUS
 10
186.0456139664
 20
77.6093884309
 11
186.0456139664
 21
104.0093884309
  0
INSERT
  5
23F
100
AcDbEntity
  8
0
100
AcDbBlockReference
 62
7
  6
CONTINUOUS
  2
_FILLED
 10
186.0456139664
 20
130.4093884309
 41
3.0
 42
3.0
 43
3.0
 50
90.0
  0
INSERT
  5
240
100
AcDbEntity
  8
0
100
AcDbBlockReference
 62
7
  6
CONTINUOUS
  2
_FILLED
 10
186.0456139664
 20
77.6093884309
 41
3.0
 42
3.0
 43
3.0
 50
270.0
  0
ENDBLK
  5
241
100
AcDbEntity
  8
0
  6
BYBLOCK
 62
0
100
AcDbBlockEnd
  0
ENDSEC
  0
SECTION
  2
ENTITIES
  0
DIMENSION
  5
242
100
AcDbEntity
  8
0
100
AcDbDimension
 62
7
  6
CONTINUOUS
  2
*D0
 10
138.4842278018
 20
142.2542264567
 11
121.720958943
 21
142.2542264567
 70
160
 71
2
 72
2
 41
0.9
 42
24.7408234318
  3
DIMSTYLE_1
100
AcDbAlignedDimension
 13
113.74340437
 23
127.2724712352
 14
138.4842278018
 24
115.941275583
100
AcDbRotatedDimension
  0
DIMENSION
  5
243
100
AcDbEntity
  8
0
100
AcDbDimension
 62
7
  6
CONTINUOUS
  2
*D1
 10
138.4842278018
 20
152.0137992787
 11
118.9781018002
 21
152.0137992787
 70
160
 71
2
 72
2
 41
0.9
 42
30.4408234318
  3
DIMSTYLE_1
100
AcDbAlignedDimension
 13
108.04340437
 23
129.8228034935
 14
138.4842278018
 24
115.941275583
100
AcDbRotatedDimension
  0
DIMENSION
  5
244
100
AcDbEntity
  8
0
100
AcDbDimension
 62
7
  6
CONTINUOUS
  2
*D2
 10
173.341723493
 20
142.4209667373
 11
157.8488663502
 21
142.4209667373
 70
160
 71
2
 72
2
 41
0.9
 42
22.2
  3
DIMSTYLE_2
100
AcDbAlignedDimension
 13
151.141723493
 23
129.9095597684
 14
173.341723493
 24
129.9095597684
100
AcDbRotatedDimension
  0
DIMENSION
  5
245
100
AcDbEntity
  8
0
100
AcDbDimension
 62
7
  6
CONTINUOUS
  2
*D3
 10
186.0456139664
 20
77.6093884309
 11
186.0456139664
 21
99.7236741452
 70
160
 71
2
 72
2
 41
0.9
 42
52.8
  3
DIMSTYLE_2
100
AcDbAlignedDimension
 13
172.8418948306
 23
130.4093884309
 14
172.8418948306
 24
77.6093884309
 50
270.0
100
AcDbRotatedDimension
  0
LINE
  5
246
100
AcDbEntity
  8
SUPERFICI
100
AcDbLine
 62
7
  6
CONTINUOUS
 10
158.7318831804
 20
77.6093884309
 11
158.991723493
 21
77.6347818945
  0
LINE
  5
247
100
AcDbEntity
  8
SUPERFICI
100
AcDbLine
 62
7
  6
CONTINUOUS
 10
151.6415521555
 20
77.6093884309
 11
158.7318831804
 21
77.6093884309
  0
LINE
  5
248
100
AcDbEntity
  8
SUPERFICI
100
AcDbLine
 62
7
  6
CONTINUOUS
 10
165.7515638057
 20
77.6093884309
 11
172.8418948306
 21
77.6093884309
  0
LINE
  5
249
100
AcDbEntity
  8
SUPERFICI
100
AcDbLine
 62
7
  6
CONTINUOUS
 10
158.991723493
 20
77.6347818945
 11
165.491723493
 21
77.6347818945
  0
LINE
  5
24A
100
AcDbEntity
  8
SUPERFICI
100
AcDbLine
 62
250
  6
CONTINUOUS
 10
151.7283084305
 20
77.6961447059
 11
172.7551385556
 21
77.6961447059
  0
LINE
  5
24B
100
AcDbEntity
  8
SUPERFICI
100
AcDbLine
 62
250
  6
CONTINUOUS
 10
151.228479768
 20
78.1959733684
 11
173.2549672181
 21
78.1959733684
  0
LINE
  5
24C
100
AcDbEntity
  8
SUPERFICI
100
AcDbLine
 62
7
  6
CONTINUOUS
 10
165.7515638057
 20
77.6093884309
 11
165.491723493
 21
77.6347818945
  0
LWPOLYLINE
  5
24D
100
AcDbEntity
  8
SUPERFICI
100
AcDbPolyline
 62
250
  6
CONTINUOUS
 90
16
 70
0
 10
151.228479768
 20
78.1959733684
 10
151.231268103
 20
78.1435908995
 10
151.2395305747
 20
78.0917855137
 10
151.2531761318
 20
78.0411277597
 10
151.2720569274
 20
77.9921699724
 10
151.2959636485
 20
77.9454574062
 10
151.3246221145
 20
77.9015193873
 10
151.3577041719
 20
77.860845089
 10
151.3948474399
 20
77.8238679953
 10
151.4356532861
 20
77.7909804964
 10
151.479737075
 20
77.7625067502
 10
151.5265578517
 20
77.7388092911
 10
151.5754046651
 20
77.7202114165
 10
151.6256539037
 20
77.7068701781
 10
151.6768080817
 20
77.698840269
 10
151.7283084306
 20
77.696144706
  0
LWPOLYLINE
  5
24E
100
AcDbEntity
  8
SUPERFICI
100
AcDbPolyline
 62
250
  6
CONTINUOUS
 90
16
 70
0
 10
151.228479768
 20
129.8228034935
 10
151.2312677325
 20
129.8751824685
 10
151.2395291418
 20
129.9269846462
 10
151.2531730219
 20
129.9776395774
 10
151.2720517115
 20
130.0265952268
 10
151.2959559443
 20
130.0733061696
 10
151.3246112242
 20
130.1172425504
 10
151.3576886034
 20
130.1579145579
 10
151.3948262319
 20
130.1948898572
 10
151.4356275639
 20
130.2277777684
 10
151.4797090671
 20
130.2562540364
 10
151.5265296463
 20
130.2799551069
 10
151.5753790383
 20
130.2985571927
 10
151.6256339375
 20
130.3119024797
 10
151.6767967139
 20
130.3199354075
 10
151.7283084305
 20
130.322632156
  0
LINE
  5
24F
100
AcDbEntity
  8
SUPERFICI
100
AcDbLine
 62
7
  6
CONTINUOUS
 10
151.141723493
 20
129.9095597684
 11
151.141723493
 21
78.1092170934
  0
LINE
  5
250
100
AcDbEntity
  8
RACCORDO
100
AcDbLine
 62
7
  6
CONTINUOUS
 10
151.141723493
 20
86.3529307792
 11
151.141723493
 21
121.6658460826
  0
LINE
  5
251
100
AcDbEntity
  8
SUPERFICI
100
AcDbLine
 62
250
  6
CONTINUOUS
 10
151.228479768
 20
78.1959733684
 11
151.228479768
 21
129.8228034935
  0
LINE
  5
252
100
AcDbEntity
  8
SUPERFICI
100
AcDbLine
 62
250
  6
CONTINUOUS
 10
151.7283084305
 20
77.6961447059
 11
151.7283084305
 21
130.322632156
  0
LWPOLYLINE
  5
253
100
AcDbEntity
  8
0
100
AcDbPolyline
 62
7
  6
CONTINUOUS
 90
3
 70
0
 43
0.3500000006
 10
163.2774358521
 20
143.4566781006
 10
163.2060137329
 20
143.2423936157
 10
163.0631513672
 20
142.9566870117
  0
LINE
  5
254
100
AcDbEntity
  8
SUPERFICI
100
AcDbLine
 62
250
  6
CONTINUOUS
 10
172.8418948306
 20
130.4093884309
 11
172.7551385556
 21
130.322632156
  0
LINE
  5
255
100
AcDbEntity
  8
SUPERFICI
100
AcDbLine
 62
250
  6
CONTINUOUS
 10
173.341723493
 20
129.9095597684
 11
173.2549672181
 21
129.8228034935
  0
LINE
  5
256
100
AcDbEntity
  8
SUPERFICI
100
AcDbLine
 62
250
  6
CONTINUOUS
 10
172.7551385556
 20
77.6961447059
 11
172.8418948306
 21
77.6093884309
  0
LINE
  5
257
100
AcDbEntity
  8
SUPERFICI
100
AcDbLine
 62
250
  6
CONTINUOUS
 10
173.2549672181
 20
78.1959733684
 11
173.341723493
 21
78.1092170934
  0
LINE
  5
258
100
AcDbEntity
  8
0
100
AcDbLine
 62
7
  6
CONTINUOUS
 10
162.6471867104
 20
108.2382632292
 11
162.241723493
 21
107.2593884309
  0
LINE
  5
259
100
AcDbEntity
  8
0
100
AcDbLine
 62
7
  6
CONTINUOUS
 10
159.9436264542
 20
101.7112913921
 11
159.5378288506
 21
100.7316093138
  0
LINE
  5
25A
100
AcDbEntity
  8
0
100
AcDbLine
 62
7
  6
CONTINUOUS
 10
165.5195026101
 20
106.7132830734
 11
164.5398205319
 21
106.3074854698
  0
LINE
  5
25B
100
AcDbEntity
  8
0
100
AcDbLine
 62
7
  6
CONTINUOUS
 10
158.991723493
 20
104.0093884309
 11
158.0128486948
 21
103.6039252136
  0
LINE
  5
25C
100
AcDbEntity
  8
0
100
AcDbLine
 62
7
  6
CONTINUOUS
 10
158.0128486948
 20
104.4148516482
 11
158.991723493
 21
104.0093884309
  0
LINE
  5
25D
100
AcDbEntity
  8
0
100
AcDbLine
 62
7
  6
CONTINUOUS
 10
164.5398205319
 20
101.7112913921
 11
165.5195026101
 21
101.3054937885
  0
LINE
  5
25E
100
AcDbEntity
  8
0
100
AcDbLine
 62
7
  6
CONTINUOUS
 10
159.5378288506
 20
107.287167548
 11
159.9436264542
 21
106.3074854698
  0
LINE
  5
25F
100
AcDbEntity
  8
0
100
AcDbLine
 62
7
  6
CONTINUOUS
 10
162.241723493
 20
100.7593884309
 11
162.6471867104
 21
99.7805136327
  0
LINE
  5
260
100
AcDbEntity
  8
0
100
AcDbLine
 62
7
  6
CONTINUOUS
 10
161.8362602757
 20
99.7805136327
 11
162.241723493
 21
100.7593884309
  0
LINE
  5
261
100
AcDbEntity
  8
0
100
AcDbLine
 62
7
  6
CONTINUOUS
 10
164.5398205319
 20
106.3074854698
 11
164.9456181355
 21
107.287167548
  0
LINE
  5
262
100
AcDbEntity
  8
0
100
AcDbLine
 62
7
  6
CONTINUOUS
 10
158.9639443759
 20
101.3054937885
 11
159.9436264542
 21
101.7112913921
  0
LINE
  5
263
100
AcDbEntity
  8
0
100
AcDbLine
 62
7
  6
CONTINUOUS
 10
165.491723493
 20
104.0093884309
 11
166.4705982913
 21
104.4148516482
  0
LWPOLYLINE
  5
264
100
AcDbEntity
  8
0
100
AcDbPolyline
 62
7
  6
CONTINUOUS
 90
4
 70
0
 43
0.3500000006
 10
184.8670372925
 20
105.937959137
 10
184.009899353
 20
105.937959137
 10
183.5813303833
 20
106.3665281067
 10
183.5813303833
 20
107.009390625
  0
LINE
  5
265
100
AcDbEntity
  8
0
100
AcDbLine
 62
7
  6
CONTINUOUS
 10
166.4705982913
 20
103.6039252136
 11
165.491723493
 21
104.0093884309
  0
LINE
  5
266
100
AcDbEntity
  8
0
100
AcDbLine
 62
7
  6
CONTINUOUS
 10
159.9436264542
 20
106.3074854698
 11
158.9639443759
 21
106.7132830734
  0
LINE
  5
267
100
AcDbEntity
  8
0
100
AcDbLine
 62
7
  6
CONTINUOUS
 10
164.9456181355
 20
100.7316093138
 11
164.5398205319
 21
101.7112913921
  0
LINE
  5
268
100
AcDbEntity
  8
0
100
AcDbLine
 62
7
  6
CONTINUOUS
 10
162.241723493
 20
107.2593884309
 11
161.8362602757
 21
108.2382632292
  0
LWPOLYLINE
  5
269
100
AcDbEntity
  8
0
100
AcDbPolyline
 62
7
  6
CONTINUOUS
 90
10
 70
0
 43
0.3500000006
 10
184.7956151733
 20
104.8665276489
 10
184.9384775391
 20
104.9379588318
 10
185.0098996582
 20
104.9379588318
 10
185.1527620239
 20
104.7951055298
 10
185.1527620239
 20
104.7236743469
 10
185.0813217773
 20
104.6522431641
 10
185.0098996582
 20
104.6522431641
 10
184.8670372925
 20
104.7236743469
 10
184.7956151733
 20
104.7951055298
 10
184.7956151733
 20
104.8665276489
  0
LWPOLYLINE
  5
26A
100
AcDbEntity
  8
0
100
AcDbPolyline
 62
7
  6
CONTINUOUS
 90
3
 70
0
 43
0.3500000006
 10
185.0098996582
 20
104.9379588318
 10
185.2241841431
 20
104.8665276489
 10
185.5098907471
 20
104.7236743469
  0
LINE
  5
26B
100
AcDbEntity
  8
SUPERFICI
100
AcDbLine
 62
250
  6
CONTINUOUS
 10
172.7551385556
 20
130.322632156
 11
172.7551385556
 21
77.6961447059
  0
LINE
  5
26C
100
AcDbEntity
  8
SUPERFICI
100
AcDbLine
 62
250
  6
CONTINUOUS
 10
173.2549672181
 20
129.8228034935
 11
173.2549672181
 21
78.1959733684
  0
LINE
  5
26D
100
AcDbEntity
  8
RACCORDO
100
AcDbLine
 62
7
  6
CONTINUOUS
 10
173.341723493
 20
121.6658460826
 11
173.341723493
 21
86.3529307792
  0
LINE
  5
26E
100
AcDbEntity
  8
SUPERFICI
100
AcDbLine
 62
7
  6
CONTINUOUS
 10
173.341723493
 20
78.1092170934
 11
173.341723493
 21
129.9095597684
  0
LINE
  5
26F
100
AcDbEntity
  8
SUPERFICI
100
AcDbLine
 62
250
  6
CONTINUOUS
 10
151.141723493
 20
78.1092170934
 11
151.228479768
 21
78.1959733684
  0
LINE
  5
270
100
AcDbEntity
  8
SUPERFICI
100
AcDbLine
 62
250
  6
CONTINUOUS
 10
151.6415521555
 20
77.6093884309
 11
151.7283084305
 21
77.6961447059
  0
LINE
  5
271
100
AcDbEntity
  8
SUPERFICI
100
AcDbLine
 62
250
  6
CONTINUOUS
 10
151.228479768
 20
129.8228034935
 11
151.141723493
 21
129.9095597684
  0
LINE
  5
272
100
AcDbEntity
  8
SUPERFICI
100
AcDbLine
 62
250
  6
CONTINUOUS
 10
151.7283084305
 20
130.322632156
 11
151.6415521555
 21
130.4093884309
  0
LWPOLYLINE
  5
273
100
AcDbEntity
  8
SUPERFICI
100
AcDbPolyline
 62
250
  6
CONTINUOUS
 90
16
 70
0
 10
173.2549672181
 20
129.8228034935
 10
173.252178883
 20
129.8751859624
 10
173.2439164113
 20
129.9269913481
 10
173.2302708543
 20
129.9776491022
 10
173.2113900587
 20
130.0266068895
 10
173.1874833376
 20
130.0733194557
 10
173.1588248716
 20
130.1172574746
 10
173.1257428142
 20
130.1579317729
 10
173.0885995462
 20
130.1949088666
 10
173.0477936999
 20
130.2277963655
 10
173.0037099111
 20
130.2562701117
 10
172.9568891344
 20
130.2799675708
 10
172.908042321
 20
130.2985654453
 10
172.8577930824
 20
130.3119066838
 10
172.8066389044
 20
130.3199365928
 10
172.7551385555
 20
130.3226321558
  0
LWPOLYLINE
  5
274
100
AcDbEntity
  8
SUPERFICI
100
AcDbPolyline
 62
250
  6
CONTINUOUS
 90
16
 70
0
 10
173.2549672181
 20
78.1959733684
 10
173.2521792536
 20
78.1435943933
 10
173.2439178443
 20
78.0917922157
 10
173.2302739642
 20
78.0411372845
 10
173.2113952746
 20
77.9921816351
 10
173.1874910417
 20
77.9454706923
 10
173.1588357619
 20
77.9015343115
 10
173.1257583827
 20
77.860862304
 10
173.0886207542
 20
77.8238870047
 10
173.0478194222
 20
77.7909990934
 10
173.003737919
 20
77.7625228254
 10
172.9569173397
 20
77.738821755
 10
172.9080679478
 20
77.7202196692
 10
172.8578130485
 20
77.7068743821
 10
172.8066502722
 20
77.6988414544
 10
172.7551385556
 20
77.6961447059
  0
LWPOLYLINE
  5
275
100
AcDbEntity
  8
0
100
AcDbPolyline
 62
7
  6
CONTINUOUS
 90
13
 70
0
 43
0.3500000006
 10
183.5813303833
 20
106.3665281067
 10
183.3670458984
 20
106.0808215027
 10
182.7241924438
 20
106.0808215027
 10
182.2956053467
 20
106.3665281067
 10
182.2956053467
 20
107.009390625
 10
182.7241924438
 20
107.2951062927
 10
183.3670458984
 20
107.2951062927
 10
183.5813303833
 20
107.009390625
 10
184.009899353
 20
107.4379595947
 10
184.8670372925
 20
107.4379595947
 10
185.2956062622
 20
107.009390625
 10
185.2956062622
 20
106.3665281067
 10
184.8670372925
 20
105.937959137
  0
LWPOLYLINE
  5
276
100
AcDbEntity
  8
0
100
AcDbPolyline
 62
7
  6
CONTINUOUS
 90
10
 70
0
 43
0.3500000006
 10
163.2060137329
 20
143.6709625854
 10
163.2774358521
 20
143.5281183472
 10
163.2774358521
 20
143.4566781006
 10
163.1345734863
 20
143.3138157349
 10
163.0631513672
 20
143.3138157349
 10
162.991729248
 20
143.3852559814
 10
162.991729248
 20
143.4566781006
 10
163.0631513672
 20
143.5995404663
 10
163.1345734863
 20
143.6709625854
 10
163.2060137329
 20
143.6709625854
  0
LWPOLYLINE
  5
277
100
AcDbEntity
  8
0
100
AcDbPolyline
 62
7
  6
CONTINUOUS
 90
7
 70
0
 43
0.3500000006
 10
185.2956062622
 20
103.3665271912
 10
185.2956062622
 20
101.8665357971
 10
183.1527614136
 20
103.3665271912
 10
182.7241924438
 20
103.3665271912
 10
182.2956053467
 20
102.9379582214
 10
182.2956053467
 20
102.2951047668
 10
182.9384769287
 20
101.8665357971
  0
LWPOLYLINE
  5
278
100
AcDbEntity
  8
0
100
AcDbPolyline
 62
7
  6
CONTINUOUS
 90
8
 70
0
 43
0.3500000006
 10
185.2956062622
 20
99.723672821
 10
185.2956062622
 20
100.5808198242
 10
184.8670372925
 20
101.0093887939
 10
184.009899353
 20
101.0093887939
 10
183.5813303833
 20
100.5808198242
 10
183.5813303833
 20
99.723672821
 10
182.2956053467
 20
99.723672821
 10
182.2956053467
 20
101.0093887939
  0
LINE
  5
279
100
AcDbEntity
  8
SUPERFICI
100
AcDbLine
 62
7
  6
CONTINUOUS
 10
165.7515638057
 20
130.4093884309
 11
165.491723493
 21
130.3839949674
  0
LINE
  5
27A
100
AcDbEntity
  8
SUPERFICI
100
AcDbLine
 62
250
  6
CONTINUOUS
 10
151.228479768
 20
129.8228034935
 11
173.2549672181
 21
129.8228034935
  0
LINE
  5
27B
100
AcDbEntity
  8
SUPERFICI
100
AcDbLine
 62
250
  6
CONTINUOUS
 10
172.7551385556
 20
130.322632156
 11
151.7283084305
 21
130.322632156
  0
LINE
  5
27C
100
AcDbEntity
  8
SUPERFICI
100
AcDbLine
 62
7
  6
CONTINUOUS
 10
158.991723493
 20
130.3839949674
 11
165.491723493
 21
130.3839949674
  0
LINE
  5
27D
100
AcDbEntity
  8
SUPERFICI
100
AcDbLine
 62
7
  6
CONTINUOUS
 10
172.8418948306
 20
130.4093884309
 11
165.7515638057
 21
130.4093884309
  0
LINE
  5
27E
100
AcDbEntity
  8
SUPERFICI
100
AcDbLine
 62
7
  6
CONTINUOUS
 10
158.7318831804
 20
130.4093884309
 11
151.6415521555
 21
130.4093884309
  0
LINE
  5
27F
100
AcDbEntity
  8
SUPERFICI
100
AcDbLine
 62
7
  6
CONTINUOUS
 10
158.7318831804
 20
130.4093884309
 11
158.991723493
 21
130.3839949674
  0
LWPOLYLINE
  5
280
100
AcDbEntity
  8
0
100
AcDbPolyline
 62
7
  6
CONTINUOUS
 90
7
 70
0
 43
0.3500000006
 10
165.7774456787
 20
143.1709714966
 10
164.2774361572
 20
143.1709714966
 10
165.7774456787
 20
145.3138163452
 10
165.7774456787
 20
145.7424034424
 10
165.3488585815
 20
146.1709724121
 10
164.706005127
 20
146.1709724121
 10
164.2774361572
 20
145.5281008301
  0
LWPOLYLINE
  5
281
100
AcDbEntity
  8
0
100
AcDbPolyline
 62
7
  6
CONTINUOUS
 90
7
 70
0
 43
0.3500000006
 10
161.7060042114
 20
143.1709714966
 10
160.2060128174
 20
143.1709714966
 10
161.7060042114
 20
145.3138163452
 10
161.7060042114
 20
145.7424034424
 10
161.2774352417
 20
146.1709724121
 10
160.6345817871
 20
146.1709724121
 10
160.2060128174
 20
145.5281008301
  0
LWPOLYLINE
  5
282
100
AcDbEntity
  8
0
100
AcDbPolyline
 62
7
  6
CONTINUOUS
 90
7
 70
0
 43
0.3500000006
 10
159.3488748779
 20
143.1709714966
 10
157.8488653564
 20
143.1709714966
 10
159.3488748779
 20
145.3138163452
 10
159.3488748779
 20
145.7424034424
 10
158.9202877808
 20
146.1709724121
 10
158.2774343262
 20
146.1709724121
 10
157.8488653564
 20
145.5281008301
  0
LWPOLYLINE
  5
283
100
AcDbEntity
  8
0
100
AcDbPolyline
 62
7
  6
CONTINUOUS
 90
5
 70
0
 43
0.3500000006
 10
119.835249115
 20
154.4780899658
 10
120.1923869019
 20
154.6923744507
 10
120.1923869019
 20
155.3352279053
 10
119.835249115
 20
155.763796875
 10
118.9781021118
 20
155.763796875
  0
LINE
  5
284
100
AcDbEntity
  8
SUPERFICI
100
AcDbLine
 62
7
  6
CONTINUOUS
 10
108.5303158958
 20
77.6961447059
 11
111.84340437
 21
77.6093884309
  0
LINE
  5
285
100
AcDbEntity
  8
ASSI
100
AcDbLine
 62
250
  6
CONTINUOUS
 10
114.7100869781
 20
127.1404448746
 11
115.1468948513
 21
127.2994299386
  0
LINE
  5
286
100
AcDbEntity
  8
ASSI
100
AcDbLine
 62
7
  6
CONTINUOUS
 10
114.7750003413
 20
126.9525062835
 11
115.2118083987
 21
127.1114914144
  0
LINE
  5
287
100
AcDbEntity
  8
SUPERFICI
100
AcDbLine
 62
250
  6
CONTINUOUS
 10
108.5303158958
 20
78.1959733684
 11
108.04340437
 21
78.1959733684
  0
LINE
  5
288
100
AcDbEntity
  8
ASSI
100
AcDbLine
 62
7
  6
CONTINUOUS
 10
116.136224693
 20
79.2593884309
 11
116.3325570387
 21
79.2593884309
  0
LINE
  5
289
100
AcDbEntity
  8
ASSI
100
AcDbLine
 62
250
  6
CONTINUOUS
 10
116.1397151743
 20
79.4419599372
 11
116.33604752
 21
79.4419599372
  0
LINE
  5
28A
100
AcDbEntity
  8
ASSI
100
AcDbLine
 62
7
  6
CONTINUOUS
 10
111.84340437
 20
79.4593884309
 11
112.4899389724
 21
79.4593884309
  0
LINE
  5
28B
100
AcDbEntity
  8
SUPERFICI
100
AcDbLine
 62
250
  6
CONTINUOUS
 10
108.5303158958
 20
78.1959733684
 11
111.84340437
 21
78.1092170934
  0
LWPOLYLINE
  5
28C
100
AcDbEntity
  8
ASSI
100
AcDbPolyline
 62
250
  6
CONTINUOUS
 90
16
 70
0
 10
112.4934294537
 20
79.6419599372
 10
112.5131304011
 20
79.6368336185
 10
112.5325891303
 20
79.6319428812
 10
112.5516023932
 20
79.6273388097
 10
112.5699724994
 20
79.6230692889
 10
112.5875065803
 20
79.6191791592
 10
112.604019061
 20
79.6157095489
 10
112.6193364947
 20
79.6126967787
 10
112.6333013221
 20
79.6101717049
 10
112.6457702945
 20
79.6081601768
 10
112.656620723
 20
79.6066822963
 10
112.6657293091
 20
79.6057552128
 10
112.6729876716
 20
79.6053888024
 10
112.6783288409
 20
79.6055830641
 10
112.6817152146
 20
79.6063320581
 10
112.6831241377
 20
79.6076246219
  0
LINE
  5
28D
100
AcDbEntity
  8
ASSI
100
AcDbLine
 62
250
  6
CONTINUOUS
 10
114.7100867939
 20
80.8783320542
 11
115.1468948513
 21
80.7193469233
  0
LINE
  5
28E
100
AcDbEntity
  8
ASSI
100
AcDbLine
 62
7
  6
CONTINUOUS
 10
114.7750003413
 20
81.0662705784
 11
115.2118083987
 21
80.9072854474
  0
LWPOLYLINE
  5
28F
100
AcDbEntity
  8
ASSI
100
AcDbPolyline
 62
250
  6
CONTINUOUS
 90
10
 70
0
 10
119.4316041024
 20
127.1733109588
 10
119.4097751503
 20
127.1658035946
 10
119.3882870236
 20
127.158631982
 10
119.3674290546
 20
127.1518926847
 10
119.3474820898
 20
127.1456764451
 10
119.3287147214
 20
127.1400669682
 10
119.3113796669
 20
127.1351397931
 10
119.2957103508
 20
127.1309612679
 10
119.2819177635
 20
127.1275876584
 10
119.2701876309
 20
127.125064395
  0
LINE
  5
290
100
AcDbEntity
  8
ASSI
100
AcDbLine
 62
7
  6
CONTINUOUS
 10
124.1749368362
 20
80.7764255178
 11
126.4034636792
 21
81.3735574857
  0
LINE
  5
291
100
AcDbEntity
  8
RACCORDO
100
AcDbLine
 62
7
  6
CONTINUOUS
 10
126.3266971971
 20
81.3529879688
 11
127.7322272268
 21
81.7295986052
  0
LINE
  5
292
100
AcDbEntity
  8
ASSI
100
AcDbLine
 62
250
  6
CONTINUOUS
 10
126.3500582352
 20
81.5404851048
 11
126.4063680061
 21
81.5499753278
  0
LINE
  5
293
100
AcDbEntity
  8
ASSI
100
AcDbLine
 62
250
  6
CONTINUOUS
 10
126.2784238694
 20
81.5287446404
 11
126.3500582352
 21
81.5404851048
  0
LWPOLYLINE
  5
294
100
AcDbEntity
  8
ASSI
100
AcDbPolyline
 62
250
  6
CONTINUOUS
 90
10
 70
0
 10
119.4507774504
 20
80.9768169245
 10
119.4276553482
 20
80.9755283624
 10
119.4048918477
 20
80.9740223151
 10
119.3827936867
 20
80.9723190765
 10
119.3616586375
 20
80.9704415976
 10
119.3417714949
 20
80.9684151773
 10
119.3234002385
 20
80.9662671217
 10
119.306792421
 20
80.9640263758
 10
119.292171833
 20
80.9617231335
 10
119.2797354872
 20
80.959388431
  0
LWPOLYLINE
  5
295
100
AcDbEntity
  8
ASSI
100
AcDbPolyline
 62
250
  6
CONTINUOUS
 90
10
 70
0
 10
122.9814901824
 20
80.9768169029
 10
122.9563369895
 20
80.9756780264
 10
122.9316404919
 20
80.9742794322
 10
122.9077944453
 20
80.972643419
 10
122.8851790458
 20
80.9707960712
 10
122.8641548689
 20
80.9687668422
 10
122.8450571202
 20
80.9665880859
 10
122.8281902907
 20
80.9642945396
 10
122.8138233018
 20
80.9619227713
 10
122.8021852181
 20
80.9595105959
  0
LWPOLYLINE
  5
296
100
AcDbEntity
  8
ASSI
100
AcDbPolyline
 62
250
  6
CONTINUOUS
 90
16
 70
0
 10
116.33604752
 20
79.4419599372
 10
116.3468625953
 20
79.4422073142
 10
116.3573426373
 20
79.4427579868
 10
116.3674876459
 20
79.443611955
 10
116.3772996491
 20
79.4447983478
 10
116.3867766189
 20
79.4462880361
 10
116.3959124715
 20
79.4479936338
 10
116.4047049801
 20
79.449911973
 10
116.4131563714
 20
79.4520462215
 10
116.4212672427
 20
79.4543184958
 10
116.4290359314
 20
79.4567260685
 10
116.4364641
 20
79.459271667
 10
116.4435573326
 20
79.4618855896
 10
116.4503174906
 20
79.4645446026
 10
116.4567427125
 20
79.4672719398
 10
116.4628329985
 20
79.4700676011
  0
LINE
  5
297
100
AcDbEntity
  8
ASSI
100
AcDbLine
 62
7
  6
CONTINUOUS
 10
115.1468948513
 20
80.0670510718
 11
111.84340437
 21
80.0093884309
  0
LINE
  5
298
100
AcDbEntity
  8
ASSI
100
AcDbLine
 62
250
  6
CONTINUOUS
 10
115.1468948513
 20
80.2670206108
 11
111.84340437
 21
80.20935797
  0
LINE
  5
299
100
AcDbEntity
  8
RACCORDO
100
AcDbLine
 62
7
  6
CONTINUOUS
 10
113.1468948513
 20
81.3059583445
 11
111.84340437
 21
81.2832058335
  0
LWPOLYLINE
  5
29A
100
AcDbEntity
  8
ASSI
100
AcDbPolyline
 62
250
  6
CONTINUOUS
 90
13
 70
0
 10
119.996197226
 20
80.9419599372
 10
119.9464758881
 20
80.9411547284
 10
119.8973372021
 20
80.9390154602
 10
119.848781168
 20
80.9355421329
 10
119.8008643193
 20
80.9307160023
 10
119.7535301226
 20
80.9245558125
 10
119.7066089771
 20
80.9171177954
 10
119.6601115696
 20
80.9084320012
 10
119.6140272133
 20
80.8984683797
 10
119.5681542485
 20
80.8871930123
 10
119.522425455
 20
80.8745945927
 10
119.4769080529
 20
80.8606844271
 10
119.4316020422
 20
80.8454625156
  0
LWPOLYLINE
  5
29B
100
AcDbEntity
  8
ASSI
100
AcDbPolyline
 62
250
  6
CONTINUOUS
 90
16
 70
0
 10
118.9371670414
 20
80.759900627
 10
118.9653548244
 20
80.7602544371
 10
118.9917624775
 20
80.7608359559
 10
119.0162294671
 20
80.7616678345
 10
119.0386683841
 20
80.7628001997
 10
119.0593773912
 20
80.7643084361
 10
119.0786356774
 20
80.7661948838
 10
119.0963464552
 20
80.7684635457
 10
119.1127128226
 20
80.7711894148
 10
119.1283757686
 20
80.7744694204
 10
119.1433442802
 20
80.778315887
 10
119.157616236
 20
80.7828326583
 10
119.1717580312
 20
80.7883385441
 10
119.1858995046
 20
80.7950618604
 10
119.1997462478
 20
80.8030614319
 10
119.2131629543
 20
80.8124691927
  0
LWPOLYLINE
  5
29C
100
AcDbEntity
  8
ASSI
100
AcDbPolyline
 62
250
  6
CONTINUOUS
 90
13
 70
0
 10
124.0490177949
 20
80.9419599372
 10
124.055143081
 20
80.9420193992
 10
124.0612915648
 20
80.9422085975
 10
124.0674632463
 20
80.942527532
 10
124.0736320983
 20
80.9429689968
 10
124.0798241481
 20
80.9435401979
 10
124.0861174769
 20
80.9442627528
 10
124.092519481
 20
80.9451304438
 10
124.0990227641
 20
80.9461494886
 10
124.1056832192
 20
80.9473601584
 10
124.112519477
 20
80.948775877
 10
124.1195129068
 20
80.9503832206
 10
124.1266635084
 20
80.9521821893
  0
LINE
  5
29D
100
AcDbEntity
  8
ASSI
100
AcDbLine
 62
250
  6
CONTINUOUS
 10
118.8749631289
 20
80.759613751
 11
118.9371670414
 21
80.759900627
  0
LINE
  5
29E
100
AcDbEntity
  8
ASSI
100
AcDbLine
 62
250
  6
CONTINUOUS
 10
111.84340437
 20
79.6419599372
 11
112.4934294537
 21
79.6419599372
  0
LINE
  5
29F
100
AcDbEntity
  8
ASSI
100
AcDbLine
 62
250
  6
CONTINUOUS
 10
115.34340437
 20
80.2670206108
 11
115.1468948513
 21
80.2670206108
  0
LINE
  5
2A0
100
AcDbEntity
  8
ASSI
100
AcDbLine
 62
250
  6
CONTINUOUS
 10
115.34340437
 20
80.7193469233
 11
115.1468948513
 21
80.7193469233
  0
LINE
  5
2A1
100
AcDbEntity
  8
ASSI
100
AcDbLine
 62
7
  6
CONTINUOUS
 10
119.9927067447
 20
80.7593884309
 11
124.0455273136
 21
80.7593884309
  0
LINE
  5
2A2
100
AcDbEntity
  8
ASSI
100
AcDbLine
 62
250
  6
CONTINUOUS
 10
121.707099705
 20
80.9419599372
 11
119.996197226
 21
80.9419599372
  0
LINE
  5
2A3
100
AcDbEntity
  8
ASSI
100
AcDbLine
 62
250
  6
CONTINUOUS
 10
122.9828229348
 20
80.9419599372
 11
124.0490177949
 21
80.9419599372
  0
LINE
  5
2A4
100
AcDbEntity
  8
ASSI
100
AcDbLine
 62
250
  6
CONTINUOUS
 10
122.8016735446
 20
80.9593884309
 11
121.8924221102
 21
80.9593884309
  0
LINE
  5
2A5
100
AcDbEntity
  8
ASSI
100
AcDbLine
 62
250
  6
CONTINUOUS
 10
118.4158947534
 20
80.9593884309
 11
119.2797354872
 21
80.9593884309
  0
LINE
  5
2A6
100
AcDbEntity
  8
ASSI
100
AcDbLine
 62
250
  6
CONTINUOUS
 10
114.64340437
 20
81.2542091026
 11
114.4468948513
 21
81.2542091027
  0
LINE
  5
2A7
100
AcDbEntity
  8
RACCORDO
100
AcDbLine
 62
250
  6
CONTINUOUS
 10
113.34340437
 20
81.5059278836
 11
113.1468948513
 21
81.5059278836
  0
LINE
  5
2A8
100
AcDbEntity
  8
ASSI
100
AcDbLine
 62
250
  6
CONTINUOUS
 10
118.807299793
 20
80.7596516914
 11
118.8749631289
 21
80.759613751
  0
LINE
  5
2A9
100
AcDbEntity
  8
ASSI
100
AcDbLine
 62
250
  6
CONTINUOUS
 10
118.8026970374
 20
80.5773240939
 11
118.837098246
 21
80.5772056686
  0
LINE
  5
2AA
100
AcDbEntity
  8
ASSI
100
AcDbLine
 62
250
  6
CONTINUOUS
 10
118.7765449204
 20
80.7598216346
 11
118.807299793
 21
80.7596516914
  0
LWPOLYLINE
  5
2AB
100
AcDbEntity
  8
ASSI
100
AcDbPolyline
 62
250
  6
CONTINUOUS
 90
16
 70
0
 10
122.9828229357
 20
80.9419599141
 10
122.9678972756
 20
80.9425952482
 10
122.9529767253
 20
80.9433280708
 10
122.9381581046
 20
80.9441550925
 10
122.923528571
 20
80.9450732718
 10
122.9091969707
 20
80.9460783481
 10
122.8952828665
 20
80.9471636565
 10
122.8818648737
 20
80.9483242241
 10
122.8690267971
 20
80.9495530712
 10
122.8568811982
 20
80.9508386181
 10
122.8455264848
 20
80.9521586656
 10
122.8349870697
 20
80.9535197926
 10
122.8252668927
 20
80.954953207
 10
122.8164190989
 20
80.9564635484
 10
122.8085317815
 20
80.9580284523
 10
122.8016734023
 20
80.9596381015
  0
LWPOLYLINE
  5
2AC
100
AcDbEntity
  8
ASSI
100
AcDbPolyline
 62
250
  6
CONTINUOUS
 90
13
 70
0
 10
115.34340437
 20
80.4413868482
 10
115.3661250655
 20
80.4402999456
 10
115.399881709
 20
80.4359560323
 10
115.4326944045
 20
80.4289281973
 10
115.4645300701
 20
80.419291091
 10
115.4954217876
 20
80.4069700631
 10
115.5254688023
 20
80.3917411625
 10
115.5550884667
 20
80.3734147468
 10
115.5838634284
 20
80.3521804585
 10
115.6106408755
 20
80.3283832737
 10
115.6350365373
 20
80.3021381846
 10
115.6574346845
 20
80.2733301989
 10
115.6778353172
 20
80.2419593168
  0
LWPOLYLINE
  5
2AD
100
AcDbEntity
  8
ASSI
100
AcDbPolyline
 62
250
  6
CONTINUOUS
 90
10
 70
0
 10
118.2414005062
 20
80.9768169226
 10
118.2645663446
 20
80.9755283555
 10
118.2874669744
 20
80.9740222992
 10
118.3097938086
 20
80.9723190509
 10
118.3312459643
 20
80.9704415686
 10
118.3515344202
 20
80.9684151501
 10
118.3703858903
 20
80.9662670906
 10
118.3875463713
 20
80.9640263314
 10
118.4027845863
 20
80.9617230711
 10
118.4158951906
 20
80.9593883465
  0
LWPOLYLINE
  5
2AE
100
AcDbEntity
  8
ASSI
100
AcDbPolyline
 62
250
  6
CONTINUOUS
 90
10
 70
0
 10
121.8924221102
 20
80.959388431
 10
121.8798418525
 20
80.9618558731
 10
121.8645563143
 20
80.9642689282
 10
121.8468615286
 20
80.9665888182
 10
121.827124252
 20
80.9687753836
 10
121.8056646046
 20
80.9708001684
 10
121.7827177859
 20
80.9726437143
 10
121.7586018622
 20
80.9742796141
 10
121.7337434103
 20
80.9756781167
 10
121.7085387275
 20
80.9768169248
  0
LWPOLYLINE
  5
2AF
100
AcDbEntity
  8
ASSI
100
AcDbPolyline
 62
250
  6
CONTINUOUS
 90
10
 70
0
 10
119.4316020198
 20
80.8454624966
 10
119.4097728604
 20
80.8529700959
 10
119.3882846572
 20
80.8601419377
 10
119.3674267397
 20
80.8668814527
 10
119.3474799494
 20
80.8730978892
 10
119.3287128544
 20
80.8787075506
 10
119.3113781343
 20
80.8836349188
 10
119.2957091837
 20
80.8878136511
 10
119.2819169697
 20
80.8911874778
 10
119.2701871875
 20
80.8937109738
  0
LINE
  5
2B0
100
AcDbEntity
  8
RACCORDO
100
AcDbLine
 62
7
  6
CONTINUOUS
 10
112.6282942272
 20
123.2240798393
 11
113.34340437
 21
123.9070800153
  0
LINE
  5
2B1
100
AcDbEntity
  8
RACCORDO
100
AcDbLine
 62
250
  6
CONTINUOUS
 10
126.4063680061
 20
81.5499753278
 11
127.734405472
 21
81.9058218943
  0
LINE
  5
2B2
100
AcDbEntity
  8
ASSI
100
AcDbLine
 62
250
  6
CONTINUOUS
 10
124.1266635084
 20
80.9521821893
 11
126.2784238694
 21
81.5287446404
  0
LWPOLYLINE
  5
2B3
100
AcDbEntity
  8
ASSI
100
AcDbPolyline
 62
250
  6
CONTINUOUS
 90
15
 70
0
 10
118.9576240675
 20
80.6032899783
 10
118.985261337
 20
80.6096869652
 10
119.0120704841
 20
80.616254231
 10
119.0380615737
 20
80.6229941543
 10
119.0632289517
 20
80.6298911179
 10
119.0877066501
 20
80.6371113596
 10
119.1113331149
 20
80.6445753086
 10
119.1342771639
 20
80.6523438207
 10
119.1571695538
 20
80.6607911329
 10
119.1799816552
 20
80.6697938223
 10
119.2027471715
 20
80.6794627439
 10
119.226190403
 20
80.6905235338
 10
119.2505518812
 20
80.7032202852
 10
119.2755875775
 20
80.7173175045
 10
119.3012922023
 20
80.732828287
  0
LWPOLYLINE
  5
2B4
100
AcDbEntity
  8
ASSI
100
AcDbPolyline
 62
250
  6
CONTINUOUS
 90
13
 70
0
 10
121.8924222302
 20
80.9596390477
 10
121.8831259695
 20
80.9576693833
 10
121.8722618657
 20
80.9557498462
 10
121.8599518677
 20
80.9538995315
 10
121.846333444
 20
80.9521473187
 10
121.8315389822
 20
80.9504969833
 10
121.8156705419
 20
80.948930004
 10
121.79882544
 20
80.9474476846
 10
121.781194433
 20
80.946075976
 10
121.7630196894
 20
80.9448322178
 10
121.7444991748
 20
80.9437276894
 10
121.7257956457
 20
80.9427680203
 10
121.7070997051
 20
80.9419599449
  0
LWPOLYLINE
  5
2B5
100
AcDbEntity
  8
ASSI
100
AcDbPolyline
 62
250
  6
CONTINUOUS
 90
4
 70
0
 10
118.837098246
 20
80.5772056686
 10
118.8687132761
 20
80.5837897788
 10
118.8993491337
 20
80.5903416079
 10
118.9576240675
 20
80.6032899783
  0
LWPOLYLINE
  5
2B6
100
AcDbEntity
  8
RACCORDO
100
AcDbPolyline
 62
250
  6
CONTINUOUS
 90
13
 70
0
 10
127.696022231
 20
83.2888537757
 10
127.7153599885
 20
83.290422264
 10
127.7343303695
 20
83.294435903
 10
127.7526159484
 20
83.300827534
 10
127.7699107585
 20
83.3094902076
 10
127.7859254108
 20
83.3202789741
 10
127.8003919374
 20
83.3330133084
 10
127.8130682742
 20
83.3474801308
 10
127.823742312
 20
83.3634373725
 10
127.8322354456
 20
83.3806180259
 10
127.8384055619
 20
83.3987346125
 10
127.8421494183
 20
83.4174839931
 10
127.84340437
 20
83.43655244
  0
LWPOLYLINE
  5
2B7
100
AcDbEntity
  8
RACCORDO
100
AcDbPolyline
 62
250
  6
CONTINUOUS
 90
13
 70
0
 10
127.696022231
 20
83.3747050935
 10
127.7153599938
 20
83.3762735825
 10
127.734330379
 20
83.3802872234
 10
127.7526159608
 20
83.3866788569
 10
127.7699107725
 20
83.3953415335
 10
127.7859254252
 20
83.4061303029
 10
127.8003919508
 20
83.4188646396
 10
127.8130682855
 20
83.4333314634
 10
127.8237423207
 20
83.4492887052
 10
127.8322354512
 20
83.4664693572
 10
127.8384055647
 20
83.4845859408
 10
127.8421494191
 20
83.5033353168
 10
127.84340437
 20
83.5224037578
  0
LINE
  5
2B8
100
AcDbEntity
  8
0
100
AcDbLine
 62
7
  6
CONTINUOUS
 10
111.84340437
 20
81.030776762
 11
113.34340437
 21
81.1093884309
  0
LWPOLYLINE
  5
2B9
100
AcDbEntity
  8
RACCORDO
100
AcDbPolyline
 62
250
  6
CONTINUOUS
 90
9
 70
0
 10
127.7546553281
 20
81.9064636297
 10
127.7736413136
 20
81.9073516098
 10
127.790971666
 20
81.9084675118
 10
127.8062887855
 20
81.9097883099
 10
127.8192766142
 20
81.9112867502
 10
127.8296671573
 20
81.9129319135
 10
127.8372460132
 20
81.914689853
 10
127.8418567975
 20
81.9165242948
 10
127.84340437
 20
81.9183973866
  0
LINE
  5
2BA
100
AcDbEntity
  8
ASSI
100
AcDbLine
 62
250
  6
CONTINUOUS
 10
114.64340437
 20
82.4496302474
 11
120.0311886159
 21
82.6438424813
  0
LINE
  5
2BB
100
AcDbEntity
  8
ASSI
100
AcDbLine
 62
7
  6
CONTINUOUS
 10
114.64340437
 20
82.1093884309
 11
120.04340437
 21
82.2979605862
  0
LINE
  5
2BC
100
AcDbEntity
  8
RACCORDO
100
AcDbLine
 62
250
  6
CONTINUOUS
 10
127.734405472
 20
81.9058218943
 11
127.7546553281
 21
81.9064636297
  0
LINE
  5
2BD
100
AcDbEntity
  8
RACCORDO
100
AcDbLine
 62
250
  6
CONTINUOUS
 10
120.0311886159
 20
82.6438424813
 11
121.196022231
 21
82.6644357095
  0
LINE
  5
2BE
100
AcDbEntity
  8
RACCORDO
100
AcDbLine
 62
250
  6
CONTINUOUS
 10
111.84340437
 20
81.4831753726
 11
113.1468948513
 21
81.5059278836
  0
LINE
  5
2BF
100
AcDbEntity
  8
RACCORDO
100
AcDbLine
 62
7
  6
CONTINUOUS
 10
120.04340437
 20
82.2979605862
 11
127.696022231
 21
82.4315375278
  0
LINE
  5
2C0
100
AcDbEntity
  8
RACCORDO
100
AcDbLine
 62
250
  6
CONTINUOUS
 10
127.696022231
 20
82.6814994516
 11
121.34340437
 21
82.5706140944
  0
LINE
  5
2C1
100
AcDbEntity
  8
RACCORDO
100
AcDbLine
 62
250
  6
CONTINUOUS
 10
121.34340437
 20
82.9496454729
 11
127.696022231
 21
83.0426893352
  0
LINE
  5
2C2
100
AcDbEntity
  8
RACCORDO
100
AcDbLine
 62
250
  6
CONTINUOUS
 10
121.34340437
 20
83.1958099134
 11
127.696022231
 21
83.2888537757
  0
LINE
  5
2C3
100
AcDbEntity
  8
RACCORDO
100
AcDbLine
 62
250
  6
CONTINUOUS
 10
127.696022231
 20
83.3747050935
 11
121.34340437
 21
83.2816612311
  0
LINE
  5
2C4
100
AcDbEntity
  8
RACCORDO
100
AcDbLine
 62
250
  6
CONTINUOUS
 10
127.696022231
 20
83.620869534
 11
121.34340437
 21
83.5278256716
  0
LINE
  5
2C5
100
AcDbEntity
  8
0
100
AcDbLine
 62
7
  6
CONTINUOUS
 10
114.4468948513
 20
82.8201586741
 11
113.34340437
 21
82.811570147
  0
LINE
  5
2C6
100
AcDbEntity
  8
RACCORDO
100
AcDbLine
 62
7
  6
CONTINUOUS
 10
113.14340437
 20
82.0093884309
 11
111.84340437
 21
82.0093884309
  0
LINE
  5
2C7
100
AcDbEntity
  8
RACCORDO
100
AcDbLine
 62
250
  6
CONTINUOUS
 10
113.34340437
 20
82.5093884309
 11
111.84340437
 21
82.5093884309
  0
LINE
  5
2C8
100
AcDbEntity
  8
RACCORDO
100
AcDbLine
 62
250
  6
CONTINUOUS
 10
127.696022231
 20
82.6814994516
 11
127.84340437
 21
82.6814994516
  0
LINE
  5
2C9
100
AcDbEntity
  8
RACCORDO
100
AcDbLine
 62
250
  6
CONTINUOUS
 10
127.696022231
 20
83.0426893352
 11
127.84340437
 21
83.0426893352
  0
LINE
  5
2CA
100
AcDbEntity
  8
RACCORDO
100
AcDbLine
 62
250
  6
CONTINUOUS
 10
127.696022231
 20
83.620869534
 11
127.84340437
 21
83.620869534
  0
LWPOLYLINE
  5
2CB
100
AcDbEntity
  8
ASSI
100
AcDbPolyline
 62
7
  6
CONTINUOUS
 90
16
 70
0
 10
114.4468948513
 20
82.8201586741
 10
114.4658950221
 20
82.8195535221
 10
114.4849932452
 20
82.8171963272
 10
114.5039963865
 20
82.8130870896
 10
114.5227890844
 20
82.8071478614
 10
114.5410522209
 20
82.7994565903
 10
114.5583100303
 20
82.7902471197
 10
114.5742320943
 20
82.7795510444
 10
114.5888269361
 20
82.7673367696
 10
114.6021230878
 20
82.7537433539
 10
114.6139467363
 20
82.7386940685
 10
114.6240419167
 20
82.7222656423
 10
114.6322375712
 20
82.7048273205
 10
114.6383292496
 20
82.6865021847
 10
114.6421096939
 20
82.6671671532
 10
114.64340437
 20
82.646822226
  0
LINE
  5
2CC
100
AcDbEntity
  8
RACCORDO
100
AcDbLine
 62
7
  6
CONTINUOUS
 10
112.6282942272
 20
84.7946970225
 11
113.34340437
 21
84.1116968465
  0
LINE
  5
2CD
100
AcDbEntity
  8
ASSI
100
AcDbLine
 62
7
  6
CONTINUOUS
 10
115.9630196123
 20
128.6593884309
 11
115.5011393969
 21
127.8593884309
  0
LINE
  5
2CE
100
AcDbEntity
  8
ASSI
100
AcDbLine
 62
250
  6
CONTINUOUS
 10
116.1397151743
 20
128.5768169246
 11
115.677834959
 21
127.7768169246
  0
LWPOLYLINE
  5
2CF
100
AcDbEntity
  8
ASSI
100
AcDbPolyline
 62
250
  6
CONTINUOUS
 90
16
 70
0
 10
115.677834959
 20
127.7768169246
 10
115.6611394206
 20
127.7508584858
 10
115.6434036411
 20
127.7268290624
 10
115.6246276204
 20
127.7047286544
 10
115.6046488441
 20
127.6845965482
 10
115.5836298265
 20
127.6663934574
 10
115.5620581112
 20
127.6500015226
 10
115.5401845003
 20
127.6354847512
 10
115.5177581916
 20
127.6227791358
 10
115.494514322
 20
127.6115747938
 10
115.470584152
 20
127.6017106089
 10
115.4458364212
 20
127.5933476975
 10
115.4196124848
 20
127.5866595266
 10
115.3916927946
 20
127.5817039187
 10
115.3622968988
 20
127.5784230514
 10
115.34340437
 20
127.5774401641
  0
LWPOLYLINE
  5
2D0
100
AcDbEntity
  8
ASSI
100
AcDbPolyline
 62
250
  6
CONTINUOUS
 90
10
 70
0
 10
119.3012524064
 20
127.285971655
 10
119.2891548986
 20
127.2733951023
 10
119.2774067869
 20
127.2615315752
 10
119.2661129611
 20
127.2504869919
 10
119.2553742568
 20
127.2403599579
 10
119.24528655
 20
127.2312408891
 10
119.2359399024
 20
127.2232112042
 10
119.2274177628
 20
127.2163425933
 10
119.2197962211
 20
127.2106963786
 10
119.2131433247
 20
127.2063229703
  0
LINE
  5
2D1
100
AcDbEntity
  8
RACCORDO
100
AcDbLine
 62
250
  6
CONTINUOUS
 10
121.3258125887
 20
124.4386295292
 11
121.333969046
 21
124.4428239415
  0
LWPOLYLINE
  5
2D2
100
AcDbEntity
  8
RACCORDO
100
AcDbPolyline
 62
250
  6
CONTINUOUS
 90
3
 70
0
 10
121.2699077326
 20
124.2522189362
 10
121.2859219542
 20
124.2599647863
 10
121.3003882481
 20
124.2691074907
  0
LWPOLYLINE
  5
2D3
100
AcDbEntity
  8
RACCORDO
100
AcDbPolyline
 62
250
  6
CONTINUOUS
 90
10
 70
0
 10
121.2526159484
 20
123.8850756539
 10
121.2699107585
 20
123.8912955838
 10
121.2859254108
 20
123.8990420805
 10
121.3003919374
 20
123.9081855241
 10
121.3130682742
 20
123.9185729202
 10
121.323742312
 20
123.9300304598
 10
121.3322354456
 20
123.9423664274
 10
121.3384055619
 20
123.9553744091
 10
121.3421494183
 20
123.9688367464
 10
121.34340437
 20
123.9825281781
  0
LINE
  5
2D4
100
AcDbEntity
  8
SUPERFICI
100
AcDbLine
 62
250
  6
CONTINUOUS
 10
111.8434045426
 20
85.3733241429
 11
113.3434043697
 21
85.3807281734
  0
LINE
  5
2D5
100
AcDbEntity
  8
RACCORDO
100
AcDbLine
 62
250
  6
CONTINUOUS
 10
127.696022231
 20
84.0809277847
 11
127.84340437
 21
84.0809277847
  0
LINE
  5
2D6
100
AcDbEntity
  8
RACCORDO
100
AcDbLine
 62
250
  6
CONTINUOUS
 10
121.196022231
 20
84.1422985465
 11
121.0083921816
 21
84.1455736412
  0
LINE
  5
2D7
100
AcDbEntity
  8
RACCORDO
100
AcDbLine
 62
7
  6
CONTINUOUS
 10
120.9765921668
 20
84.2046984345
 11
121.196022231
 21
84.2008682685
  0
LINE
  5
2D8
100
AcDbEntity
  8
SUPERFICI
100
AcDbLine
 62
7
  6
CONTINUOUS
 10
112.4263245255
 20
84.8777045348
 11
111.84340437
 21
84.8878794439
  0
LWPOLYLINE
  5
2D9
100
AcDbEntity
  8
RACCORDO
100
AcDbPolyline
 62
250
  6
CONTINUOUS
 90
5
 70
0
 10
121.2060936931
 20
83.780787381
 10
121.2153599885
 20
83.7802477277
 10
121.2343303695
 20
83.7773658745
 10
121.2526159484
 20
83.7727765873
 10
121.2699107585
 20
83.7665566574
  0
LWPOLYLINE
  5
2DA
100
AcDbEntity
  8
RACCORDO
100
AcDbPolyline
 62
250
  6
CONTINUOUS
 90
4
 70
0
 10
121.196022231
 20
84.1422985465
 10
121.2153599895
 20
84.1411723483
 10
121.2343303714
 20
84.1382904948
 10
121.2526159509
 20
84.1337012073
  0
LWPOLYLINE
  5
2DB
100
AcDbEntity
  8
RACCORDO
100
AcDbPolyline
 62
7
  6
CONTINUOUS
 90
13
 70
0
 10
113.1538715612
 20
85.9390519247
 10
113.1789930207
 20
85.9370839332
 10
113.2035494403
 20
85.9326763483
 10
113.2271476497
 20
85.9258966857
 10
113.2494125599
 20
85.916830913
 10
113.2699834842
 20
85.9056297876
 10
113.2885225535
 20
85.8925093663
 10
113.3047322264
 20
85.8776604434
 10
113.3183584313
 20
85.8613097042
 10
113.3291861082
 20
85.8437656497
 10
113.3370440561
 20
85.8253092149
 10
113.341808229
 20
85.8061898951
 10
113.34340437
 20
85.786688168
  0
LINE
  5
2DC
100
AcDbEntity
  8
RACCORDO
100
AcDbLine
 62
250
  6
CONTINUOUS
 10
127.696022231
 20
84.0809277847
 11
120.4373599085
 21
85.2388801263
  0
LINE
  5
2DD
100
AcDbEntity
  8
RACCORDO
100
AcDbLine
 62
7
  6
CONTINUOUS
 10
127.7170346218
 20
84.2795478128
 11
120.3263360523
 21
85.4585634956
  0
LWPOLYLINE
  5
2DE
100
AcDbEntity
  8
RACCORDO
100
AcDbPolyline
 62
250
  6
CONTINUOUS
 90
5
 70
0
 10
121.2318046076
 20
83.7336842645
 10
121.2426791464
 20
83.7309231065
 10
121.2556693243
 20
83.7262042996
 10
121.2674586913
 20
83.7206167487
 10
121.278270234
 20
83.7143449666
  0
LWPOLYLINE
  5
2DF
100
AcDbEntity
  8
RACCORDO
100
AcDbPolyline
 62
250
  6
CONTINUOUS
 90
10
 70
0
 10
121.2526159509
 20
84.1337012073
 10
121.2699107612
 20
84.1274812769
 10
121.2859254136
 20
84.1197347799
 10
121.3003919399
 20
84.110591336
 10
121.3130682763
 20
84.1002039397
 10
121.3237423137
 20
84.0887464001
 10
121.3322354467
 20
84.0764104327
 10
121.3384055624
 20
84.0634024514
 10
121.3421494184
 20
84.0499401147
 10
121.34340437
 20
84.0362486837
  0
LWPOLYLINE
  5
2E0
100
AcDbEntity
  8
RACCORDO
100
AcDbPolyline
 62
250
  6
CONTINUOUS
 90
3
 70
0
 10
121.2699107585
 20
83.7665566574
 10
121.2859254108
 20
83.7588101607
 10
121.3003919374
 20
83.7496667171
  0
LWPOLYLINE
  5
2E1
100
AcDbEntity
  8
RACCORDO
100
AcDbPolyline
 62
250
  6
CONTINUOUS
 90
3
 70
0
 10
121.3339705111
 20
83.5759536233
 10
121.3260181677
 20
83.5800026337
 10
121.3177049366
 20
83.585802467
  0
LWPOLYLINE
  5
2E2
100
AcDbEntity
  8
RACCORDO
100
AcDbPolyline
 62
250
  6
CONTINUOUS
 90
10
 70
0
 10
121.2441177515
 20
83.7118894449
 10
121.2483909758
 20
83.7090692985
 10
121.2534580779
 20
83.7055453263
 10
121.2583761227
 20
83.7019434235
 10
121.2631146815
 20
83.6982726445
 10
121.2676715443
 20
83.6945400268
 10
121.2720593321
 20
83.6907439121
 10
121.2762692245
 20
83.6868868174
 10
121.2803027607
 20
83.6829743464
 10
121.2841685798
 20
83.6790080131
  0
LWPOLYLINE
  5
2E3
100
AcDbEntity
  8
ASSI
100
AcDbPolyline
 62
250
  6
CONTINUOUS
 90
10
 70
0
 10
119.3012918231
 20
80.7328290702
 10
119.2891917276
 20
80.7454044739
 10
119.2774410704
 20
80.7572668936
 10
119.2661447658
 20
80.7683104128
 10
119.2554036681
 20
80.7784364242
 10
119.2453136807
 20
80.7875545188
 10
119.2359648973
 20
80.7955832916
 10
119.2274407872
 20
80.8024510575
 10
119.2198174521
 20
80.8080964932
 10
119.2131629543
 20
80.8124691927
  0
LINE
  5
2E4
100
AcDbEntity
  8
ASSI
100
AcDbLine
 62
7
  6
CONTINUOUS
 10
115.5011393969
 20
80.1593884309
 11
115.9630196123
 21
79.3593884309
  0
LINE
  5
2E5
100
AcDbEntity
  8
ASSI
100
AcDbLine
 62
250
  6
CONTINUOUS
 10
115.6778353172
 20
80.2419593168
 11
116.1397151743
 21
79.4419599372
  0
LINE
  5
2E6
100
AcDbEntity
  8
ASSI
100
AcDbLine
 62
250
  6
CONTINUOUS
 10
116.4628329985
 20
128.5487092607
 11
116.48342745
 21
128.5923604991
  0
LWPOLYLINE
  5
2E7
100
AcDbEntity
  8
ASSI
100
AcDbPolyline
 62
250
  6
CONTINUOUS
 90
10
 70
0
 10
116.48342745
 20
128.5923604991
 10
116.5025555838
 20
128.6322930499
 10
116.5112003197
 20
128.6500919305
 10
116.5190526599
 20
128.6660753468
 10
116.5259926059
 20
128.6799990393
 10
116.5319140964
 20
128.6916502138
 10
116.536726629
 20
128.7008507942
 10
116.540356652
 20
128.7074601624
 10
116.5427486859
 20
128.7113773001
 10
116.543866167
 20
128.7125423256
  0
LWPOLYLINE
  5
2E8
100
AcDbEntity
  8
RACCORDO
100
AcDbPolyline
 62
250
  6
CONTINUOUS
 90
7
 70
0
 10
121.3003882481
 20
124.2691074907
 10
121.313064342
 20
124.2794938628
 10
121.3237384626
 20
124.2909503026
 10
121.3322324658
 20
124.3032858985
 10
121.3384039208
 20
124.3162946486
 10
121.3421489294
 20
124.3297587119
 10
121.34340437
 20
124.3434527988
  0
LINE
  5
2E9
100
AcDbEntity
  8
SUPERFICI
100
AcDbLine
 62
7
  6
CONTINUOUS
 10
113.3353079447
 20
85.8293869241
 11
111.8448521097
 21
85.7877424943
  0
LINE
  5
2EA
100
AcDbEntity
  8
RACCORDO
100
AcDbLine
 62
250
  6
CONTINUOUS
 10
119.84340437
 20
86.2769277609
 11
111.84340437
 21
86.2282846188
  0
LINE
  5
2EB
100
AcDbEntity
  8
RACCORDO
100
AcDbLine
 62
250
  6
CONTINUOUS
 10
119.84340437
 20
86.4018444195
 11
111.84340437
 21
86.3529307792
  0
LWPOLYLINE
  5
2EC
100
AcDbEntity
  8
RACCORDO
100
AcDbPolyline
 62
250
  6
CONTINUOUS
 90
4
 70
0
 10
121.278270234
 20
83.7143449666
 10
121.2881414772
 20
83.7075370833
 10
121.2970211195
 20
83.7003151579
 10
121.3049817707
 20
83.6927502823
  0
LWPOLYLINE
  5
2ED
100
AcDbEntity
  8
RACCORDO
100
AcDbPolyline
 62
250
  6
CONTINUOUS
 90
7
 70
0
 10
121.3003919374
 20
83.7496667171
 10
121.3130682742
 20
83.739279321
 10
121.323742312
 20
83.7278217814
 10
121.3322354456
 20
83.7154858138
 10
121.3384055619
 20
83.7024778321
 10
121.3421494183
 20
83.6890154948
 10
121.34340437
 20
83.6753240631
  0
LWPOLYLINE
  5
2EE
100
AcDbEntity
  8
RACCORDO
100
AcDbPolyline
 62
250
  6
CONTINUOUS
 90
3
 70
0
 10
121.3177049366
 20
83.585802467
 10
121.3090308176
 20
83.5933531232
 10
121.3000482482
 20
83.6025104069
  0
LWPOLYLINE
  5
2EF
100
AcDbEntity
  8
ASSI
100
AcDbPolyline
 62
250
  6
CONTINUOUS
 90
8
 70
0
 10
116.5112008774
 20
79.3686838579
 10
116.519053169
 20
79.3527005562
 10
116.5259930309
 20
79.3387770452
 10
116.5319144162
 20
79.327126088
 10
116.5367268411
 20
79.3179257212
 10
116.5403567677
 20
79.3113165342
 10
116.5427487276
 20
79.3073995212
 10
116.5438661695
 20
79.3062345374
  0
LINE
  5
2F0
100
AcDbEntity
  8
ASSI
100
AcDbLine
 62
250
  6
CONTINUOUS
 10
116.4932510733
 20
79.4058251363
 11
116.5112008774
 21
79.3686838579
  0
LWPOLYLINE
  5
2F1
100
AcDbEntity
  8
ASSI
100
AcDbPolyline
 62
250
  6
CONTINUOUS
 90
3
 70
0
 10
116.4628329985
 20
79.4700676011
 10
116.4732365803
 20
79.4479393515
 10
116.4932510733
 20
79.4058251363
  0
LINE
  5
2F2
100
AcDbEntity
  8
SUPERFICI
100
AcDbLine
 62
250
  6
CONTINUOUS
 10
108.5303158958
 20
129.8228034935
 11
108.5278770164
 21
129.9269913481
  0
LINE
  5
2F3
100
AcDbEntity
  8
SUPERFICI
100
AcDbLine
 62
250
  6
CONTINUOUS
 10
108.5278770164
 20
129.9269913481
 11
108.5261202242
 21
130.0266068895
  0
LWPOLYLINE
  5
2F4
100
AcDbEntity
  8
SUPERFICI
100
AcDbPolyline
 62
250
  6
CONTINUOUS
 90
11
 70
0
 10
108.5261202242
 20
130.0266068895
 10
108.5251229229
 20
130.1172574746
 10
108.5249241131
 20
130.1579317729
 10
108.5249284645
 20
130.1949088666
 10
108.5251358138
 20
130.2277963655
 10
108.5255445773
 20
130.2562701117
 10
108.526150083
 20
130.2799675708
 10
108.5269421788
 20
130.2985654453
 10
108.5279086473
 20
130.3119066838
 10
108.5290378939
 20
130.3199365928
 10
108.5303158892
 20
130.3226321558
  0
LINE
  5
2F5
100
AcDbEntity
  8
SUPERFICI
100
AcDbLine
 62
7
  6
CONTINUOUS
 10
108.04340437
 20
129.8228034935
 11
108.04340437
 21
78.1959733684
  0
LWPOLYLINE
  5
2F6
100
AcDbEntity
  8
SUPERFICI
100
AcDbPolyline
 62
250
  6
CONTINUOUS
 90
9
 70
0
 10
108.5249241562
 20
77.860862304
 10
108.524928407
 20
77.8238870047
 10
108.5251356272
 20
77.7909990934
 10
108.5255442646
 20
77.7625228254
 10
108.5261496703
 20
77.738821755
 10
108.5269417239
 20
77.7202196692
 10
108.5279082361
 20
77.7068743821
 10
108.5290376309
 20
77.6988414544
 10
108.5303158958
 20
77.6961447059
  0
LINE
  5
2F7
100
AcDbEntity
  8
SUPERFICI
100
AcDbLine
 62
250
  6
CONTINUOUS
 10
108.5303158958
 20
129.8228034935
 11
108.5303158958
 21
78.1959733684
  0
LINE
  5
2F8
100
AcDbEntity
  8
SUPERFICI
100
AcDbLine
 62
250
  6
CONTINUOUS
 10
108.5255231783
 20
77.9454706923
 11
108.5249241562
 21
77.860862304
  0
LINE
  5
2F9
100
AcDbEntity
  8
SUPERFICI
100
AcDbLine
 62
250
  6
CONTINUOUS
 10
108.5269079859
 20
78.0411372845
 11
108.5255231783
 21
77.9454706923
  0
LWPOLYLINE
  5
2FA
100
AcDbEntity
  8
SUPERFICI
100
AcDbPolyline
 62
250
  6
CONTINUOUS
 90
3
 70
0
 10
108.5303158958
 20
78.1959733684
 10
108.5290173095
 20
78.1435943933
 10
108.5269079859
 20
78.0411372845
  0
LWPOLYLINE
  5
2FB
100
AcDbEntity
  8
0
100
AcDbPolyline
 62
7
  6
CONTINUOUS
 90
3
 70
0
 43
0.3500000006
 10
124.1923881226
 20
153.0495206909
 10
124.1209569397
 20
152.8352362061
 10
123.9781036377
 20
152.5495114746
  0
LINE
  5
2FC
100
AcDbEntity
  8
ASSI
100
AcDbLine
 62
250
  6
CONTINUOUS
 10
119.3075824448
 20
127.2992087056
 11
119.3195627751
 21
127.3240545902
  0
LINE
  5
2FD
100
AcDbEntity
  8
ASSI
100
AcDbLine
 62
250
  6
CONTINUOUS
 10
119.3195627751
 20
127.3240545902
 11
119.3303836291
 21
127.3462063531
  0
LWPOLYLINE
  5
2FE
100
AcDbEntity
  8
ASSI
100
AcDbPolyline
 62
250
  6
CONTINUOUS
 90
10
 70
0
 10
119.3303836291
 20
127.3462063531
 10
119.3397691513
 20
127.3650981293
 10
119.3438472389
 20
127.3731670212
 10
119.3474799387
 20
127.3802470016
 10
119.3506440677
 20
127.3862927852
 10
119.3533194067
 20
127.3912656392
 10
119.355488889
 20
127.3951336614
 10
119.3571387141
 20
127.3978721401
 10
119.3582584058
 20
127.3994636462
 10
119.3588408798
 20
127.3998980596
  0
LWPOLYLINE
  5
2FF
100
AcDbEntity
  8
RACCORDO
100
AcDbPolyline
 62
250
  6
CONTINUOUS
 90
11
 70
0
 10
121.295700858
 20
124.3531574761
 10
121.2912842773
 20
124.3477236569
 10
121.2866440851
 20
124.3424341478
 10
121.281786952
 20
124.3372983637
 10
121.276750781
 20
124.3323448835
 10
121.2715339761
 20
124.3275646889
 10
121.2661468208
 20
124.3229616048
 10
121.2606550715
 20
124.3185723393
 10
121.2550675189
 20
124.3143844274
 10
121.2493948306
 20
124.3103898074
 10
121.2441451811
 20
124.3069018865
  0
LWPOLYLINE
  5
300
100
AcDbEntity
  8
0
100
AcDbPolyline
 62
7
  6
CONTINUOUS
 90
19
 70
0
 10
137.813818274
 20
89.9514208144
 10
137.8258984424
 20
89.9528905684
 10
137.8377777495
 20
89.9550749848
 10
137.8494561955
 20
89.9579740634
 10
137.8609760872
 20
89.9616062466
 10
137.8722951176
 20
89.9659530921
 10
137.8832863658
 20
89.9709592726
 10
137.8939434845
 20
89.9766316576
 10
137.9042728209
 20
89.9829633776
 10
137.9141664952
 20
89.9898784968
 10
137.9236175449
 20
89.9973809012
 10
137.9326329325
 20
90.0054667047
 10
137.9411256653
 20
90.0140483134
 10
137.949090225
 20
90.0231283548
 10
137.9565321299
 20
90.0327042013
 10
137.9633809419
 20
90.0426803765
 10
137.9696131818
 20
90.0530250549
 10
137.9752523288
 20
90.063770062
 10
137.980298383
 20
90.0749153979
  0
LINE
  5
301
100
AcDbEntity
  8
0
100
AcDbLine
 62
7
  6
CONTINUOUS
 10
137.34340437
 20
89.9093494338
 11
137.813818274
 21
89.9514208144
  0
LINE
  5
302
100
AcDbEntity
  8
0
100
AcDbLine
 62
7
  6
CONTINUOUS
 10
137.34340437
 20
89.8468770945
 11
136.34340437
 21
89.7593884309
  0
LINE
  5
303
100
AcDbEntity
  8
RACCORDO
100
AcDbLine
 62
7
  6
CONTINUOUS
 10
122.84340437
 20
88.7593884309
 11
135.8521305732
 21
88.9864565914
  0
LWPOLYLINE
  5
304
100
AcDbEntity
  8
RACCORDO
100
AcDbPolyline
 62
250
  6
CONTINUOUS
 90
9
 70
0
 10
121.2841685798
 20
83.6790080131
 10
121.2878666448
 20
83.6749869556
 10
121.2913999098
 20
83.6709156456
 10
121.2947748192
 20
83.6667966714
 10
121.2979943955
 20
83.6626274105
 10
121.3010630339
 20
83.6584098983
 10
121.3039844926
 20
83.6541484464
 10
121.3067592057
 20
83.6498444549
 10
121.3093926368
 20
83.6454980807
  0
LWPOLYLINE
  5
305
100
AcDbEntity
  8
RACCORDO
100
AcDbPolyline
 62
250
  6
CONTINUOUS
 90
13
 70
0
 10
121.3049817707
 20
83.6927502823
 10
121.3120467943
 20
83.6849433307
 10
121.3182439663
 20
83.6769922349
 10
121.3236447134
 20
83.6689308638
 10
121.3282876927
 20
83.6608260289
 10
121.3322080316
 20
83.6527473434
 10
121.335462132
 20
83.6447113243
 10
121.3380975177
 20
83.6367833944
 10
121.340147746
 20
83.6289904273
 10
121.341651809
 20
83.6212701505
 10
121.3426604342
 20
83.6136125903
 10
121.3432281508
 20
83.6060705644
 10
121.3434061354
 20
83.5986618871
  0
LWPOLYLINE
  5
306
100
AcDbEntity
  8
RACCORDO
100
AcDbPolyline
 62
7
  6
CONTINUOUS
 90
9
 70
0
 10
121.260493952
 20
83.6878601701
 10
121.2603516414
 20
83.6880254868
 10
121.259032362
 20
83.689622564
 10
121.2564726737
 20
83.6929797756
 10
121.2527974024
 20
83.698193923
 10
121.2483177517
 20
83.7050313584
 10
121.243161656
 20
83.7134506319
 10
121.2373703441
 20
83.7235263722
 10
121.2358503973
 20
83.72627193
  0
LWPOLYLINE
  5
307
100
AcDbEntity
  8
RACCORDO
100
AcDbPolyline
 62
250
  6
CONTINUOUS
 90
6
 70
0
 10
121.3000482482
 20
83.6025104069
 10
121.2907047909
 20
83.6134185135
 10
121.2808431339
 20
83.6265100295
 10
121.2704108398
 20
83.6419291502
 10
121.2594603459
 20
83.6595316802
 10
121.2479916522
 20
83.6793176196
  0
LWPOLYLINE
  5
308
100
AcDbEntity
  8
ASSI
100
AcDbPolyline
 62
250
  6
CONTINUOUS
 90
8
 70
0
 10
119.3364288265
 20
80.6603498843
 10
119.3418488784
 20
80.6495208506
 10
119.3465931985
 20
80.6401972847
 10
119.350614333
 20
80.6324724437
 10
119.3538720813
 20
80.6264235558
 10
119.3563338743
 20
80.622111094
 10
119.3579751005
 20
80.6195781717
 10
119.3587793521
 20
80.6188501115
  0
LINE
  5
309
100
AcDbEntity
  8
ASSI
100
AcDbLine
 62
250
  6
CONTINUOUS
 10
119.3237843502
 20
80.686077612
 11
119.3364288265
 21
80.6603498843
  0
LWPOLYLINE
  5
30A
100
AcDbEntity
  8
RACCORDO
100
AcDbPolyline
 62
7
  6
CONTINUOUS
 90
13
 70
0
 10
111.84340437
 20
86.1244928506
 10
111.8450018933
 20
86.1047099456
 10
111.8497695248
 20
86.0853474866
 10
111.8576319478
 20
86.0666860966
 10
111.8684637853
 20
86.0489786902
 10
111.8820929992
 20
86.0325024791
 10
111.8983048486
 20
86.0175553879
 10
111.9168456725
 20
86.0043649643
 10
111.9374171834
 20
85.9931208451
 10
111.9596805428
 20
85.9840254724
 10
111.983274585
 20
85.9772246293
 10
112.0078244645
 20
85.9728081906
 10
112.0329371787
 20
85.9708431448
  0
LINE
  5
30B
100
AcDbEntity
  8
ASSI
100
AcDbLine
 62
250
  6
CONTINUOUS
 10
119.301252104
 20
127.285971699
 11
119.3075824448
 21
127.2992087056
  0
LWPOLYLINE
  5
30C
100
AcDbEntity
  8
RACCORDO
100
AcDbPolyline
 62
7
  6
CONTINUOUS
 90
5
 70
0
 10
121.2358521125
 20
124.2925080532
 10
121.2421828962
 20
124.3036672283
 10
121.2477655906
 20
124.3128698205
 10
121.2526154757
 20
124.3203142135
 10
121.2565764357
 20
124.325937679
  0
LWPOLYLINE
  5
30D
100
AcDbEntity
  8
RACCORDO
100
AcDbPolyline
 62
250
  6
CONTINUOUS
 90
3
 70
0
 10
121.2479916522
 20
124.3394592423
 10
121.2589498895
 20
124.3585062817
 10
121.2695557526
 20
124.3756288631
  0
LWPOLYLINE
  5
30E
100
AcDbEntity
  8
RACCORDO
100
AcDbPolyline
 62
250
  6
CONTINUOUS
 90
7
 70
0
 10
121.2695557526
 20
124.3756288631
 10
121.2798092413
 20
124.3908269865
 10
121.2897089213
 20
124.4040553987
 10
121.299256227
 20
124.4153593529
 10
121.3084554619
 20
124.4248746083
 10
121.3173080607
 20
124.4326464181
 10
121.3258125887
 20
124.4386295292
  0
LINE
  5
30F
100
AcDbEntity
  8
DRAFT
100
AcDbLine
 62
7
  6
CONTINUOUS
 10
119.84340437
 20
90.0187311319
 11
122.84340437
 21
90.0449117353
  0
LINE
  5
310
100
AcDbEntity
  8
RACCORDO
100
AcDbLine
 62
7
  6
CONTINUOUS
 10
119.84340437
 20
90.444024293
 11
122.84340437
 21
90.4667901119
  0
LINE
  5
311
100
AcDbEntity
  8
RACCORDO
100
AcDbLine
 62
250
  6
CONTINUOUS
 10
122.84340437
 20
90.3593884309
 11
119.84340437
 21
90.3593884309
  0
LWPOLYLINE
  5
312
100
AcDbEntity
  8
RACCORDO
100
AcDbPolyline
 62
250
  6
CONTINUOUS
 90
3
 70
0
 10
121.3093926368
 20
83.6454980807
 10
121.3118872149
 20
83.6411152303
 10
121.3142387892
 20
83.636706938
  0
LWPOLYLINE
  5
313
100
AcDbEntity
  8
RACCORDO
100
AcDbPolyline
 62
250
  6
CONTINUOUS
 90
9
 70
0
 10
121.3339687127
 20
83.0794920554
 10
121.1866252088
 20
83.3433663055
 10
121.0351407841
 20
83.6194671824
 10
120.8795154386
 20
83.9077946861
 10
120.7199700612
 20
84.2075257192
 10
120.5562837631
 20
84.5194833791
 10
120.3877938773
 20
84.8461369582
 10
120.214279515
 20
85.188309554
 10
120.0359615649
 20
85.545178069
  0
LWPOLYLINE
  5
314
100
AcDbEntity
  8
RACCORDO
100
AcDbPolyline
 62
250
  6
CONTINUOUS
 90
10
 70
0
 10
121.1960222409
 20
82.7988632896
 10
121.0728797731
 20
83.0201024137
 10
120.9471896566
 20
83.248834418
 10
120.8189518914
 20
83.4852073662
 10
120.6883604848
 20
83.7289660176
 10
120.5552214295
 20
83.9806483069
 10
120.4189527032
 20
84.2416379
 10
120.2793602987
 20
84.5125443387
 10
120.1366382233
 20
84.7931497163
 10
119.990786477
 20
85.0836419076
  0
LWPOLYLINE
  5
315
100
AcDbEntity
  8
ASSI
100
AcDbPolyline
 62
250
  6
CONTINUOUS
 90
3
 70
0
 10
119.3012922023
 20
80.732828287
 10
119.3091637602
 20
80.7163550229
 10
119.3237843502
 20
80.686077612
  0
LWPOLYLINE
  5
316
100
AcDbEntity
  8
ASSI
100
AcDbPolyline
 62
250
  6
CONTINUOUS
 90
16
 70
0
 10
114.4468948513
 20
81.2542091026
 10
114.4488128143
 20
81.2184915284
 10
114.4533240324
 20
81.1841021577
 10
114.4604285056
 20
81.1510409903
 10
114.4703766529
 20
81.1191318437
 10
114.4829180553
 20
81.0885509004
 10
114.4973014557
 20
81.0598267089
 10
114.5133351986
 20
81.0332164383
 10
114.5312109396
 20
81.0084629194
 10
114.5507523885
 20
80.9853231925
 10
114.5716245438
 20
80.9637739189
 10
114.594162407
 20
80.9438384374
 10
114.6191946922
 20
80.9253438044
 10
114.6469976374
 20
80.9082323724
 10
114.6772950047
 20
80.892561789
 10
114.7100867939
 20
80.8783320542
  0
LWPOLYLINE
  5
317
100
AcDbEntity
  8
ASSI
100
AcDbPolyline
 62
250
  6
CONTINUOUS
 90
7
 70
0
 10
112.4923005095
 20
128.5071363168
 10
112.4919620206
 20
128.5226828059
 10
112.4915924247
 20
128.5357187164
 10
112.491198851
 20
128.5460117547
 10
112.4907880473
 20
128.5534272567
 10
112.4903659409
 20
128.5578979312
 10
112.4899389724
 20
128.5593884309
  0
LINE
  5
318
100
AcDbEntity
  8
ASSI
100
AcDbLine
 62
250
  6
CONTINUOUS
 10
112.4928632845
 20
128.4695569473
 11
112.4923005095
 21
128.5071363168
  0
LINE
  5
319
100
AcDbEntity
  8
RACCORDO
100
AcDbLine
 62
250
  6
CONTINUOUS
 10
113.1478021711
 20
81.4441452244
 11
113.1468948513
 21
81.5059278836
  0
LWPOLYLINE
  5
31A
100
AcDbEntity
  8
RACCORDO
100
AcDbPolyline
 62
250
  6
CONTINUOUS
 90
7
 70
0
 10
113.1482791655
 20
126.6746059199
 10
113.1481717982
 20
126.6860071287
 10
113.1480122174
 20
126.6955119225
 10
113.1478021711
 20
126.7030161741
 10
113.14754396
 20
126.7084376939
 10
113.1472404119
 20
126.7117171133
 10
113.1468948513
 20
126.7128185173
  0
LINE
  5
31B
100
AcDbEntity
  8
RACCORDO
100
AcDbLine
 62
250
  6
CONTINUOUS
 10
113.1481717982
 20
81.4059602558
 11
113.1478021711
 21
81.4441452244
  0
LINE
  5
31C
100
AcDbEntity
  8
ASSI
100
AcDbLine
 62
250
  6
CONTINUOUS
 10
112.4932475386
 20
128.4252190148
 11
112.4928632845
 21
128.4695569473
  0
LINE
  5
31D
100
AcDbEntity
  8
RACCORDO
100
AcDbLine
 62
250
  6
CONTINUOUS
 10
113.1483331437
 20
81.3721428417
 11
113.1481717982
 21
81.4059602558
  0
LINE
  5
31E
100
AcDbEntity
  8
ASSI
100
AcDbLine
 62
250
  6
CONTINUOUS
 10
112.4934294537
 20
128.3768169246
 11
112.4932475386
 21
128.4252190148
  0
LINE
  5
31F
100
AcDbEntity
  8
RACCORDO
100
AcDbLine
 62
7
  6
CONTINUOUS
 10
111.84340437
 20
86.3529307792
 11
111.84340437
 21
121.7904922431
  0
LINE
  5
320
100
AcDbEntity
  8
SUPERFICI
100
AcDbLine
 62
7
  6
CONTINUOUS
 10
111.84340437
 20
77.6093884309
 11
111.84340437
 21
130.4093884309
  0
LINE
  5
321
100
AcDbEntity
  8
RACCORDO
100
AcDbLine
 62
250
  6
CONTINUOUS
 10
112.0399138887
 20
122.2255841857
 11
112.0399138887
 21
122.0479337171
  0
LINE
  5
322
100
AcDbEntity
  8
RACCORDO
100
AcDbLine
 62
250
  6
CONTINUOUS
 10
112.0399138887
 20
85.7931926636
 11
112.0399138887
 21
85.9708431448
  0
LINE
  5
323
100
AcDbEntity
  8
RACCORDO
100
AcDbLine
 62
250
  6
CONTINUOUS
 10
113.14340437
 20
126.0093884309
 11
113.14340437
 21
123.7160604408
  0
LINE
  5
324
100
AcDbEntity
  8
RACCORDO
100
AcDbLine
 62
250
  6
CONTINUOUS
 10
113.14340437
 20
84.302716421
 11
113.14340437
 21
82.0093884309
  0
LINE
  5
325
100
AcDbEntity
  8
RACCORDO
100
AcDbLine
 62
250
  6
CONTINUOUS
 10
113.1468948513
 20
81.5059278836
 11
113.1468948513
 21
82.0093884309
  0
LINE
  5
326
100
AcDbEntity
  8
RACCORDO
100
AcDbLine
 62
250
  6
CONTINUOUS
 10
113.1468948513
 20
85.824122524
 11
113.1468948513
 21
85.9390519247
  0
LINE
  5
327
100
AcDbEntity
  8
RACCORDO
100
AcDbLine
 62
250
  6
CONTINUOUS
 10
113.1468948513
 20
122.0797249372
 11
113.1468948513
 21
122.1946543221
  0
LINE
  5
328
100
AcDbEntity
  8
RACCORDO
100
AcDbLine
 62
250
  6
CONTINUOUS
 10
113.1468948513
 20
126.0093884309
 11
113.1468948513
 21
126.5128489783
  0
LINE
  5
329
100
AcDbEntity
  8
RACCORDO
100
AcDbLine
 62
250
  6
CONTINUOUS
 10
113.1483331424
 20
126.6466332206
 11
113.1482791655
 21
126.6746059199
  0
LINE
  5
32A
100
AcDbEntity
  8
RACCORDO
100
AcDbLine
 62
7
  6
CONTINUOUS
 10
113.34340437
 20
126.9093884309
 11
113.34340437
 21
123.9070800153
  0
LINE
  5
32B
100
AcDbEntity
  8
RACCORDO
100
AcDbLine
 62
7
  6
CONTINUOUS
 10
113.34340437
 20
84.1116968465
 11
113.34340437
 21
81.1093884309
  0
LINE
  5
32C
100
AcDbEntity
  8
RACCORDO
100
AcDbLine
 62
7
  6
CONTINUOUS
 10
113.34340437
 20
84.9063127623
 11
113.34340437
 21
85.786688168
  0
LINE
  5
32D
100
AcDbEntity
  8
RACCORDO
100
AcDbLine
 62
7
  6
CONTINUOUS
 10
113.34340437
 20
122.2320886939
 11
113.34340437
 21
123.1124640995
  0
LINE
  5
32E
100
AcDbEntity
  8
ASSI
100
AcDbLine
 62
250
  6
CONTINUOUS
 10
112.4934294537
 20
79.6419599372
 11
112.493247522
 21
79.593555132
  0
LINE
  5
32F
100
AcDbEntity
  8
RACCORDO
100
AcDbLine
 62
250
  6
CONTINUOUS
 10
113.1481717926
 20
126.612815844
 11
113.1483331424
 21
126.6466332206
  0
LINE
  5
330
100
AcDbEntity
  8
ASSI
100
AcDbLine
 62
250
  6
CONTINUOUS
 10
112.493247522
 20
79.593555132
 11
112.4928632209
 21
79.5492144125
  0
LINE
  5
331
100
AcDbEntity
  8
RACCORDO
100
AcDbLine
 62
250
  6
CONTINUOUS
 10
113.1475439556
 20
126.554416896
 11
113.1481717926
 21
126.612815844
  0
LINE
  5
332
100
AcDbEntity
  8
RACCORDO
100
AcDbLine
 62
250
  6
CONTINUOUS
 10
113.1468948513
 20
126.5128489783
 11
113.1475439556
 21
126.554416896
  0
LWPOLYLINE
  5
333
100
AcDbEntity
  8
ASSI
100
AcDbPolyline
 62
250
  6
CONTINUOUS
 90
8
 70
0
 10
112.4928632209
 20
79.5492144125
 10
112.492300377
 20
79.5116336444
 10
112.4919618688
 20
79.496087927
 10
112.491592267
 20
79.4830533258
 10
112.4911987046
 20
79.4727618859
 10
112.4907879313
 20
79.4653479512
 10
112.4903658742
 20
79.4608784628
 10
112.4899389724
 20
79.4593884309
  0
LWPOLYLINE
  5
334
100
AcDbEntity
  8
ASSI
100
AcDbPolyline
 62
250
  6
CONTINUOUS
 90
13
 70
0
 10
114.4468948513
 20
126.7645675148
 10
114.4490211066
 20
126.8053607929
 10
114.4550676382
 20
126.8450578526
 10
114.4650344461
 20
126.8836586938
 10
114.4790528987
 20
126.9215397002
 10
114.4969916275
 20
126.9583244881
 10
114.5184565271
 20
126.9928839067
 10
114.5437021668
 20
127.0252417383
 10
114.5724739773
 20
127.0553742005
 10
114.603614145
 20
127.0820807951
 10
114.6367367321
 20
127.1049613559
 10
114.6722276765
 20
127.1244160491
 10
114.7100869781
 20
127.1404448746
  0
LWPOLYLINE
  5
335
100
AcDbEntity
  8
ASSI
100
AcDbPolyline
 62
7
  6
CONTINUOUS
 90
16
 70
0
 10
114.64340437
 20
125.3719546359
 10
114.6420942422
 20
125.3514924361
 10
114.6382758462
 20
125.3320725108
 10
114.632136196
 20
125.3136948598
 10
114.6238973579
 20
125.2962441714
 10
114.6137730366
 20
125.2798357574
 10
114.6019315129
 20
125.2648155536
 10
114.5886243874
 20
125.2512547865
 10
114.5740340658
 20
125.2390822297
 10
114.5581451943
 20
125.2284301396
 10
114.5409814805
 20
125.219271999
 10
114.5228500469
 20
125.2116343252
 10
114.5041457073
 20
125.2057289264
 10
114.4851513592
 20
125.2016264052
 10
114.4660037514
 20
125.199256159
 10
114.4468948513
 20
125.1986181878
  0
LWPOLYLINE
  5
336
100
AcDbEntity
  8
RACCORDO
100
AcDbPolyline
 62
7
  6
CONTINUOUS
 90
13
 70
0
 10
113.34340437
 20
122.2320886939
 10
113.341808229
 20
122.2125869668
 10
113.3370440561
 20
122.1934676469
 10
113.3291861082
 20
122.1750112122
 10
113.3183584313
 20
122.1574671577
 10
113.3047322264
 20
122.1411164185
 10
113.2885225535
 20
122.1262674955
 10
113.2699834842
 20
122.1131470742
 10
113.2494125599
 20
122.1019459489
 10
113.2271476497
 20
122.0928801762
 10
113.2035494403
 20
122.0861005136
 10
113.1789930207
 20
122.0816929286
 10
113.1538715612
 20
122.0797249372
  0
LWPOLYLINE
  5
337
100
AcDbEntity
  8
RACCORDO
100
AcDbPolyline
 62
250
  6
CONTINUOUS
 90
21
 70
0
 10
119.7473225877
 20
122.3812046494
 10
119.7424629464
 20
122.3688234118
 10
119.7378622032
 20
122.3569088631
 10
119.7335204404
 20
122.3454684048
 10
119.7294375757
 20
122.3344959763
 10
119.7255885243
 20
122.3238960992
 10
119.7219664269
 20
122.3136605831
 10
119.7185781427
 20
122.3037985585
 10
119.7154191651
 20
122.2942402951
 10
119.7124879843
 20
122.2849964879
 10
119.70978611
 20
122.2760571452
 10
119.7073135651
 20
122.2673213012
 10
119.7050660521
 20
122.2587950042
 10
119.7030478686
 20
122.2504726415
 10
119.7012719302
 20
122.2422355258
 10
119.6997316931
 20
122.2340811627
 10
119.6984337011
 20
122.2260122273
 10
119.6974105008
 20
122.217917567
 10
119.696672941
 20
122.2097600761
 10
119.696210173
 20
122.20157681
 10
119.6960221966
 20
122.1933677552
  0
LINE
  5
338
100
AcDbEntity
  8
RACCORDO
100
AcDbLine
 62
250
  6
CONTINUOUS
 10
119.7579046913
 20
122.4076218018
 11
119.7473225877
 21
122.3812046494
  0
LINE
  5
339
100
AcDbEntity
  8
RACCORDO
100
AcDbLine
 62
250
  6
CONTINUOUS
 10
119.7696233603
 20
122.4362133539
 11
119.7579046913
 21
122.4076218018
  0
LINE
  5
33A
100
AcDbEntity
  8
RACCORDO
100
AcDbLine
 62
250
  6
CONTINUOUS
 10
119.7824491452
 20
122.4669214635
 11
119.7696233603
 21
122.4362133539
  0
LINE
  5
33B
100
AcDbEntity
  8
RACCORDO
100
AcDbLine
 62
250
  6
CONTINUOUS
 10
119.7962770931
 20
122.499522488
 11
119.7824491452
 21
122.4669214635
  0
LINE
  5
33C
100
AcDbEntity
  8
RACCORDO
100
AcDbLine
 62
250
  6
CONTINUOUS
 10
119.8188348305
 20
122.5518583679
 11
119.7962770931
 21
122.499522488
  0
LINE
  5
33D
100
AcDbEntity
  8
RACCORDO
100
AcDbLine
 62
250
  6
CONTINUOUS
 10
119.8435793615
 20
122.608392051
 11
119.8188348305
 21
122.5518583679
  0
LINE
  5
33E
100
AcDbEntity
  8
RACCORDO
100
AcDbLine
 62
250
  6
CONTINUOUS
 10
119.8800502021
 20
122.6905482886
 11
119.8435793615
 21
122.608392051
  0
LINE
  5
33F
100
AcDbEntity
  8
RACCORDO
100
AcDbLine
 62
250
  6
CONTINUOUS
 10
119.9316477404
 20
122.8051858002
 11
119.8800502021
 21
122.6905482886
  0
LINE
  5
340
100
AcDbEntity
  8
RACCORDO
100
AcDbLine
 62
250
  6
CONTINUOUS
 10
119.9907864929
 20
122.9351349963
 11
119.9316477404
 21
122.8051858002
  0
LWPOLYLINE
  5
341
100
AcDbEntity
  8
RACCORDO
100
AcDbPolyline
 62
250
  6
CONTINUOUS
 90
9
 70
0
 10
119.8528400285
 20
121.6202646886
 10
119.996114725
 20
121.9164719948
 10
120.1415915727
 20
122.2129599625
 10
120.2892705716
 20
122.5097285917
 10
120.4381738731
 20
122.805176957
 10
120.5892793259
 20
123.1009059838
 10
120.7455204756
 20
123.4017184482
 10
120.9078751709
 20
123.7092152754
 10
121.0753655631
 20
124.0217955401
  0
LINE
  5
342
100
AcDbEntity
  8
RACCORDO
100
AcDbLine
 62
7
  6
CONTINUOUS
 10
119.8582598127
 20
121.6091264566
 11
119.9798266173
 21
121.8601667889
  0
LINE
  5
343
100
AcDbEntity
  8
RACCORDO
100
AcDbLine
 62
7
  6
CONTINUOUS
 10
119.9775956771
 20
121.855584869
 11
120.1401613287
 21
122.1870269719
  0
LWPOLYLINE
  5
344
100
AcDbEntity
  8
RACCORDO
100
AcDbPolyline
 62
250
  6
CONTINUOUS
 90
9
 70
0
 10
120.0021653168
 20
122.406596374
 10
119.8508763347
 20
122.0980684979
 10
119.8491363468
 20
122.0940505752
 10
119.8476227946
 20
122.0899870725
 10
119.8463380538
 20
122.0858843679
 10
119.845284141
 20
122.0817489007
 10
119.8444627104
 20
122.0775871613
 10
119.8438750514
 20
122.0734056818
 10
119.8435220866
 20
122.0692110253
  0
LWPOLYLINE
  5
345
100
AcDbEntity
  8
RACCORDO
100
AcDbPolyline
 62
250
  6
CONTINUOUS
 90
6
 70
0
 10
119.8528400285
 20
121.6202646882
 10
119.8508763347
 20
121.616298656
 10
119.849136346
 20
121.6122807365
 10
119.8476227934
 20
121.6082172358
 10
119.8463380526
 20
121.604114532
 10
119.8452841399
 20
121.5999790645
  0
LWPOLYLINE
  5
346
100
AcDbEntity
  8
RACCORDO
100
AcDbPolyline
 62
250
  6
CONTINUOUS
 90
9
 70
0
 10
120.0021653168
 20
122.406596374
 10
120.1549872379
 20
122.7135005165
 10
120.3113057906
 20
123.0227469615
 10
120.4707016288
 20
123.3338960488
 10
120.6335940985
 20
123.6473874386
 10
120.801241238
 20
123.9645401121
 10
120.9740623932
 20
124.2857937297
 10
121.1516382181
 20
124.6107086309
 10
121.3339687127
 20
124.9392848157
  0
LINE
  5
347
100
AcDbEntity
  8
RACCORDO
100
AcDbLine
 62
7
  6
CONTINUOUS
 10
120.1379229174
 20
122.1824970461
 11
120.3006165504
 21
122.5093220801
  0
LWPOLYLINE
  5
348
100
AcDbEntity
  8
RACCORDO
100
AcDbPolyline
 62
250
  6
CONTINUOUS
 90
20
 70
0
 10
119.8582592219
 20
121.6091252298
 10
119.8577550462
 20
121.6081187635
 10
119.8571828329
 20
121.6070839939
 10
119.8566541353
 20
121.6062484907
 10
119.856170319
 20
121.6056095018
 10
119.8557228154
 20
121.6051430669
 10
119.8553143138
 20
121.6048460315
 10
119.8549468811
 20
121.6047189121
 10
119.8546095783
 20
121.6047438665
 10
119.8542993277
 20
121.6049105143
 10
119.8540206174
 20
121.6052280875
 10
119.8537699412
 20
121.6057096731
 10
119.8535394444
 20
121.6063419004
 10
119.8533334879
 20
121.6071387614
 10
119.85316166
 20
121.6081562268
 10
119.8530100094
 20
121.6093710004
 10
119.8528830498
 20
121.6108087029
 10
119.8528103441
 20
121.6126011179
 10
119.852792489
 20
121.6147945888
 10
119.8528062844
 20
121.617348298
  0
LWPOLYLINE
  5
349
100
AcDbEntity
  8
RACCORDO
100
AcDbPolyline
 62
250
  6
CONTINUOUS
 90
10
 70
0
 10
119.9907864929
 20
122.9351349963
 10
120.1132084571
 20
123.1792368267
 10
120.2384122719
 20
123.4261275885
 10
120.3663979373
 20
123.6755874967
 10
120.4970435478
 20
123.9271100256
 10
120.6304710088
 20
124.180743955
 10
120.7670460378
 20
124.4370574963
 10
120.9068905403
 20
124.6960296
 10
121.0498826106
 20
124.9570854713
 10
121.1960222487
 20
125.219913587
  0
LWPOLYLINE
  5
34A
100
AcDbEntity
  8
RACCORDO
100
AcDbPolyline
 62
7
  6
CONTINUOUS
 90
7
 70
0
 10
120.2983687652
 20
122.5048404836
 10
120.458899672
 20
122.8225508839
 10
120.6194846978
 20
123.135569482
 10
120.7800925355
 20
123.4438369277
 10
120.9406852632
 20
123.7472828284
 10
121.1012168496
 20
124.0458232612
 10
121.2358494553
 20
124.2925029891
  0
LWPOLYLINE
  5
34B
100
AcDbEntity
  8
RACCORDO
100
AcDbPolyline
 62
250
  6
CONTINUOUS
 90
6
 70
0
 10
121.3144063002
 20
124.382408012
 10
121.3111262836
 20
124.3763036582
 10
121.3076116429
 20
124.3703177065
 10
121.3038706199
 20
124.3644627495
 10
121.2999005902
 20
124.3587412352
 10
121.295700858
 20
124.3531574761
  0
LINE
  5
34C
100
AcDbEntity
  8
RACCORDO
100
AcDbLine
 62
250
  6
CONTINUOUS
 10
121.0753655631
 20
124.0217955401
 11
121.2479916522
 21
124.3394592423
  0
LINE
  5
34D
100
AcDbEntity
  8
RACCORDO
100
AcDbLine
 62
7
  6
CONTINUOUS
 10
122.84340437
 20
92.4449117353
 11
119.84340437
 21
92.4187311319
  0
LINE
  5
34E
100
AcDbEntity
  8
0
100
AcDbLine
 62
7
  6
CONTINUOUS
 10
119.84340437
 20
93.8093884309
 11
117.84340437
 21
93.8093884309
  0
LINE
  5
34F
100
AcDbEntity
  8
RACCORDO
100
AcDbLine
 62
7
  6
CONTINUOUS
 10
119.84340437
 20
93.10004573
 11
122.84340437
 21
93.0738651266
  0
LWPOLYLINE
  5
350
100
AcDbEntity
  8
RACCORDO
100
AcDbPolyline
 62
7
  6
CONTINUOUS
 90
9
 70
0
 10
121.2358494391
 20
83.7262740198
 10
121.103525103
 20
83.9686959151
 10
120.942977283
 20
84.267197558
 10
120.7823717169
 20
84.5705993749
 10
120.6217535961
 20
84.8788189548
 10
120.4611577832
 20
85.1917911719
 10
120.3006165504
 20
85.5094547818
 10
120.1401613287
 20
85.83174989
 10
119.9798266173
 20
86.158610073
  0
LWPOLYLINE
  5
351
100
AcDbEntity
  8
RACCORDO
100
AcDbPolyline
 62
250
  6
CONTINUOUS
 90
9
 70
0
 10
121.2479916522
 20
83.6793176196
 10
121.0880672182
 20
83.9730471039
 10
120.9305252092
 20
84.2666257288
 10
120.7753656252
 20
84.5600534945
 10
120.6241291705
 20
84.8503281754
 10
120.4752751407
 20
85.1404519971
 10
120.3241814229
 20
85.4394316356
 10
120.1693073127
 20
85.7502693166
 10
120.0121935145
 20
86.0699628146
  0
LWPOLYLINE
  5
352
100
AcDbEntity
  8
RACCORDO
100
AcDbPolyline
 62
250
  6
CONTINUOUS
 90
12
 70
0
 10
121.3142387892
 20
83.636706938
 10
121.3164484347
 20
83.6322841093
 10
121.3185254079
 20
83.6278426824
 10
121.3204766813
 20
83.6233715079
 10
121.3222866702
 20
83.6189174718
 10
121.3239806848
 20
83.6144399834
 10
121.3256121038
 20
83.6097913939
 10
121.3271595029
 20
83.6049879585
 10
121.3286250372
 20
83.6000103132
 10
121.3300655559
 20
83.5946461953
 10
121.3314707087
 20
83.588817381
 10
121.332783058
 20
83.5825877305
  0
LINE
  5
353
100
AcDbEntity
  8
RACCORDO
100
AcDbLine
 62
250
  6
CONTINUOUS
 10
120.0359615649
 20
85.545178069
 11
119.8528400273
 21
85.9167425032
  0
LINE
  5
354
100
AcDbEntity
  8
RACCORDO
100
AcDbLine
 62
250
  6
CONTINUOUS
 10
120.0121935145
 20
86.0699628146
 11
119.8528400283
 21
86.3985121295
  0
LINE
  5
355
100
AcDbEntity
  8
RACCORDO
100
AcDbLine
 62
7
  6
CONTINUOUS
 10
119.9798266173
 20
86.158610073
 11
119.858262266
 21
86.4096452755
  0
LWPOLYLINE
  5
356
100
AcDbEntity
  8
RACCORDO
100
AcDbPolyline
 62
7
  6
CONTINUOUS
 90
3
 70
0
 10
119.8582576029
 20
86.4096550869
 10
119.8539025714
 20
86.4196052497
 10
119.8499313396
 20
86.4309682007
  0
LINE
  5
357
100
AcDbEntity
  8
ASSI
100
AcDbLine
 62
250
  6
CONTINUOUS
 10
115.1478042885
 20
80.205058051
 11
115.1468948513
 21
80.2670206108
  0
LWPOLYLINE
  5
358
100
AcDbEntity
  8
ASSI
100
AcDbPolyline
 62
250
  6
CONTINUOUS
 90
7
 70
0
 10
115.1482772209
 20
127.9138065458
 10
115.1481681483
 20
127.9251980368
 10
115.1480065562
 20
127.9346776991
 10
115.1477951642
 20
127.9421153506
 10
115.1475372442
 20
127.947448177
 10
115.1472358905
 20
127.9506546626
 10
115.1468948513
 20
127.9517257901
  0
LINE
  5
359
100
AcDbEntity
  8
ASSI
100
AcDbLine
 62
250
  6
CONTINUOUS
 10
115.1481738396
 20
80.1667754494
 11
115.1478042885
 21
80.205058051
  0
LINE
  5
35A
100
AcDbEntity
  8
ASSI
100
AcDbLine
 62
250
  6
CONTINUOUS
 10
115.1483336798
 20
80.1329209881
 11
115.1481738396
 21
80.1667754494
  0
LINE
  5
35B
100
AcDbEntity
  8
ASSI
100
AcDbLine
 62
250
  6
CONTINUOUS
 10
114.4468948513
 20
82.8201586741
 11
114.4468948513
 21
81.2542091026
  0
LINE
  5
35C
100
AcDbEntity
  8
ASSI
100
AcDbLine
 62
250
  6
CONTINUOUS
 10
114.4468948513
 20
125.1986181878
 11
114.4468948513
 21
126.7645675148
  0
LINE
  5
35D
100
AcDbEntity
  8
ASSI
100
AcDbLine
 62
7
  6
CONTINUOUS
 10
114.64340437
 20
82.646822226
 11
114.64340437
 21
81.2542091026
  0
LINE
  5
35E
100
AcDbEntity
  8
ASSI
100
AcDbLine
 62
7
  6
CONTINUOUS
 10
114.64340437
 20
125.3719546359
 11
114.64340437
 21
126.7645677593
  0
LINE
  5
35F
100
AcDbEntity
  8
ASSI
100
AcDbLine
 62
250
  6
CONTINUOUS
 10
115.1468948513
 20
80.7193469233
 11
115.1468948513
 21
80.2670206108
  0
LINE
  5
360
100
AcDbEntity
  8
ASSI
100
AcDbLine
 62
250
  6
CONTINUOUS
 10
115.1468948513
 20
127.2994299386
 11
115.1468948513
 21
127.7517562511
  0
LINE
  5
361
100
AcDbEntity
  8
ASSI
100
AcDbLine
 62
250
  6
CONTINUOUS
 10
115.1483336798
 20
127.8858558737
 11
115.1482772209
 21
127.9138065458
  0
LINE
  5
362
100
AcDbEntity
  8
ASSI
100
AcDbLine
 62
7
  6
CONTINUOUS
 10
115.34340437
 20
80.7193469233
 11
115.34340437
 21
80.2670206108
  0
LINE
  5
363
100
AcDbEntity
  8
ASSI
100
AcDbLine
 62
7
  6
CONTINUOUS
 10
115.34340437
 20
127.2994299386
 11
115.34340437
 21
127.7517562511
  0
LINE
  5
364
100
AcDbEntity
  8
ASSI
100
AcDbLine
 62
250
  6
CONTINUOUS
 10
115.1481738396
 20
127.8520014124
 11
115.1483336798
 21
127.8858558737
  0
LINE
  5
365
100
AcDbEntity
  8
ASSI
100
AcDbLine
 62
250
  6
CONTINUOUS
 10
115.1475456539
 20
127.7934478174
 11
115.1481738396
 21
127.8520014124
  0
LINE
  5
366
100
AcDbEntity
  8
ASSI
100
AcDbLine
 62
250
  6
CONTINUOUS
 10
115.1468948513
 20
127.7517562511
 11
115.1475456539
 21
127.7934478174
  0
LWPOLYLINE
  5
367
100
AcDbEntity
  8
0
100
AcDbPolyline
 62
7
  6
CONTINUOUS
 90
3
 70
0
 43
0.3500000006
 10
127.1495267029
 20
143.2899418945
 10
127.0781045837
 20
143.0756574097
 10
126.935242218
 20
142.7899326782
  0
LINE
  5
368
100
AcDbEntity
  8
RACCORDO
100
AcDbLine
 62
250
  6
CONTINUOUS
 10
122.84340437
 20
95.1593884309
 11
119.84340437
 21
95.1593884309
  0
LINE
  5
369
100
AcDbEntity
  8
DRAFT
100
AcDbLine
 62
7
  6
CONTINUOUS
 10
122.84340437
 20
95.9967217643
 11
123.6110756601
 21
95.9919653881
  0
LINE
  5
36A
100
AcDbEntity
  8
RACCORDO
100
AcDbLine
 62
7
  6
CONTINUOUS
 10
119.84340437
 20
95.074762131
 11
122.84340437
 21
95.0519926584
  0
LINE
  5
36B
100
AcDbEntity
  8
DRAFT
100
AcDbLine
 62
7
  6
CONTINUOUS
 10
119.84340437
 20
95.50004573
 11
122.84340437
 21
95.4738651266
  0
LINE
  5
36C
100
AcDbEntity
  8
RACCORDO
100
AcDbLine
 62
7
  6
CONTINUOUS
 10
119.990786477
 20
85.0836419076
 11
119.9681796645
 21
85.155904365
  0
LWPOLYLINE
  5
36D
100
AcDbEntity
  8
RACCORDO
100
AcDbPolyline
 62
7
  6
CONTINUOUS
 90
19
 70
0
 10
119.9681796645
 20
85.155904365
 10
119.9469612585
 20
85.2249940194
 10
119.9368706261
 20
85.2583370702
 10
119.9271812216
 20
85.2909368795
 10
119.9178930701
 20
85.3227885435
 10
119.9090061465
 20
85.3538904016
 10
119.9005703382
 20
85.3843008549
 10
119.8925794835
 20
85.4140162699
 10
119.8850397441
 20
85.4430346768
 10
119.8780194929
 20
85.4714175373
 10
119.8715010917
 20
85.4991817408
 10
119.8655021787
 20
85.5263056961
 10
119.8601440412
 20
85.5527934694
 10
119.8554037639
 20
85.5786249678
 10
119.8513042621
 20
85.603815895
 10
119.8480355685
 20
85.628424278
 10
119.8456610274
 20
85.6524683034
 10
119.8441172946
 20
85.6759261337
 10
119.84340437
 20
85.6987960022
  0
LINE
  5
36E
100
AcDbEntity
  8
RACCORDO
100
AcDbLine
 62
7
  6
CONTINUOUS
 10
119.8499313396
 20
86.4309682007
 11
119.848130265
 21
86.4373788682
  0
LINE
  5
36F
100
AcDbEntity
  8
ASSI
100
AcDbLine
 62
250
  6
CONTINUOUS
 10
119.3860605026
 20
82.061550713
 11
119.3703510907
 21
82.2744570475
  0
LINE
  5
370
100
AcDbEntity
  8
ASSI
100
AcDbLine
 62
250
  6
CONTINUOUS
 10
119.3966355864
 20
81.9091268681
 11
119.3860605026
 21
82.061550713
  0
LWPOLYLINE
  5
371
100
AcDbEntity
  8
ASSI
100
AcDbPolyline
 62
250
  6
CONTINUOUS
 90
7
 70
0
 10
116.1385892492
 20
128.706978903
 10
116.1382516081
 20
128.7225264928
 10
116.1378828468
 20
128.7355748135
 10
116.1374894453
 20
128.7459043166
 10
116.1370778321
 20
128.7533691657
 10
116.1366540913
 20
128.7578808541
 10
116.136224693
 20
128.7593884309
  0
LWPOLYLINE
  5
372
100
AcDbEntity
  8
ASSI
100
AcDbPolyline
 62
250
  6
CONTINUOUS
 90
7
 70
0
 10
116.3349241958
 20
128.7068429981
 10
116.3345875766
 20
128.7223796385
 10
116.334219962
 20
128.7354282876
 10
116.3338269637
 20
128.7457897633
 10
116.3334145805
 20
128.7533059022
 10
116.3329891072
 20
128.7578619736
 10
116.3325570387
 20
128.7593884309
  0
LINE
  5
373
100
AcDbEntity
  8
ASSI
100
AcDbLine
 62
250
  6
CONTINUOUS
 10
116.1391507097
 20
128.6694093854
 11
116.1385892492
 21
128.706978903
  0
LINE
  5
374
100
AcDbEntity
  8
ASSI
100
AcDbLine
 62
250
  6
CONTINUOUS
 10
116.3354844465
 20
128.6692887422
 11
116.3349241958
 21
128.7068429981
  0
LINE
  5
375
100
AcDbEntity
  8
ASSI
100
AcDbLine
 62
250
  6
CONTINUOUS
 10
116.1395338341
 20
128.6251247914
 11
116.1391507097
 21
128.6694093854
  0
LINE
  5
376
100
AcDbEntity
  8
ASSI
100
AcDbLine
 62
250
  6
CONTINUOUS
 10
116.3358666369
 20
128.6250497683
 11
116.3354844465
 21
128.6692887422
  0
LINE
  5
377
100
AcDbEntity
  8
ASSI
100
AcDbLine
 62
250
  6
CONTINUOUS
 10
116.1397151743
 20
128.5768169246
 11
116.1395338341
 21
128.6251247914
  0
LINE
  5
378
100
AcDbEntity
  8
ASSI
100
AcDbLine
 62
250
  6
CONTINUOUS
 10
116.33604752
 20
128.5768169246
 11
116.3358666369
 21
128.6250497683
  0
LINE
  5
379
100
AcDbEntity
  8
0
100
AcDbLine
 62
7
  6
CONTINUOUS
 10
117.84340437
 20
104.8093884309
 11
117.84340437
 21
93.8093884309
  0
LINE
  5
37A
100
AcDbEntity
  8
ASSI
100
AcDbLine
 62
250
  6
CONTINUOUS
 10
116.1397151743
 20
79.4419599372
 11
116.1395338405
 21
79.3936531254
  0
LINE
  5
37B
100
AcDbEntity
  8
ASSI
100
AcDbLine
 62
250
  6
CONTINUOUS
 10
116.33604752
 20
79.4419599372
 11
116.3358666586
 21
79.3937279879
  0
LINE
  5
37C
100
AcDbEntity
  8
ASSI
100
AcDbLine
 62
250
  6
CONTINUOUS
 10
116.1395338405
 20
79.3936531254
 11
116.1391507327
 21
79.3493694642
  0
LINE
  5
37D
100
AcDbEntity
  8
ASSI
100
AcDbLine
 62
250
  6
CONTINUOUS
 10
116.3358666586
 20
79.3937279879
 11
116.3354844872
 21
79.3494893552
  0
LWPOLYLINE
  5
37E
100
AcDbEntity
  8
ASSI
100
AcDbPolyline
 62
250
  6
CONTINUOUS
 90
8
 70
0
 10
116.1391507327
 20
79.3493694642
 10
116.1385892947
 20
79.311800332
 10
116.1382516597
 20
79.2962524579
 10
116.1378829
 20
79.2832036793
 10
116.1374894944
 20
79.2728736298
 10
116.1370778708
 20
79.2654082513
 10
116.1366541136
 20
79.2608961645
 10
116.136224693
 20
79.2593884309
  0
LWPOLYLINE
  5
37F
100
AcDbEntity
  8
ASSI
100
AcDbPolyline
 62
250
  6
CONTINUOUS
 90
8
 70
0
 10
116.3354844872
 20
79.3494893552
 10
116.3349242469
 20
79.3119349489
 10
116.3345876282
 20
79.2963981085
 10
116.3342200106
 20
79.2833492178
 10
116.3338270055
 20
79.2729875027
 10
116.3334146119
 20
79.2654711586
 10
116.3329891246
 20
79.2609149427
 10
116.3325570387
 20
79.2593884309
  0
LWPOLYLINE
  5
380
100
AcDbEntity
  8
ASSI
100
AcDbPolyline
 62
250
  6
CONTINUOUS
 90
7
 70
0
 10
115.2118083987
 20
80.9072854474
 10
115.2117622144
 20
80.9061711588
 10
115.2109864076
 20
80.903060135
 10
115.2094834244
 20
80.8979696916
 10
115.207262621
 20
80.8909357046
 10
115.204342845
 20
80.8820207208
 10
115.2007550951
 20
80.8713209606
  0
LINE
  5
381
100
AcDbEntity
  8
ASSI
100
AcDbLine
 62
250
  6
CONTINUOUS
 10
119.3813187637
 20
125.8911777445
 11
119.3978235159
 21
126.1273239717
  0
LINE
  5
382
100
AcDbEntity
  8
ASSI
100
AcDbLine
 62
250
  6
CONTINUOUS
 10
119.3703541469
 20
125.7443197074
 11
119.3813187637
 21
125.8911777445
  0
LWPOLYLINE
  5
383
100
AcDbEntity
  8
ASSI
100
AcDbPolyline
 62
250
  6
CONTINUOUS
 90
6
 70
0
 10
114.7750003413
 20
81.0662705784
 10
114.7748203596
 20
81.0645290414
 10
114.7734818879
 20
81.0596257552
 10
114.7710076544
 20
81.0516439807
 10
114.7674396733
 20
81.0407192538
 10
114.7628385313
 20
81.0270370838
  0
LWPOLYLINE
  5
384
100
AcDbEntity
  8
RACCORDO
100
AcDbPolyline
 62
250
  6
CONTINUOUS
 90
9
 70
0
 10
119.8479242329
 20
122.1558019274
 10
119.8469183118
 20
122.1468936275
 10
119.8460280614
 20
122.1384944757
 10
119.8452576132
 20
122.1306407987
 10
119.8446133104
 20
122.123287086
 10
119.8440982954
 20
122.1162822798
 10
119.8437192589
 20
122.1095820845
 10
119.8434847766
 20
122.1032506741
 10
119.8434043013
 20
122.0973061698
  0
LINE
  5
385
100
AcDbEntity
  8
RACCORDO
100
AcDbLine
 62
250
  6
CONTINUOUS
 10
119.8564158972
 20
122.146202989
 11
119.857706382
 21
122.1576237005
  0
LINE
  5
386
100
AcDbEntity
  8
RACCORDO
100
AcDbLine
 62
250
  6
CONTINUOUS
 10
119.857706382
 20
122.1576237005
 11
119.8591884031
 21
122.1699725342
  0
LWPOLYLINE
  5
387
100
AcDbEntity
  8
RACCORDO
100
AcDbPolyline
 62
250
  6
CONTINUOUS
 90
3
 70
0
 10
119.8516364347
 20
122.1858585283
 10
119.8502893635
 20
122.1752694239
 10
119.8479242329
 20
122.1558019274
  0
LINE
  5
388
100
AcDbEntity
  8
RACCORDO
100
AcDbLine
 62
250
  6
CONTINUOUS
 10
119.8591884031
 20
122.1699725342
 11
119.8608628341
 21
122.1832763531
  0
LINE
  5
389
100
AcDbEntity
  8
RACCORDO
100
AcDbLine
 62
250
  6
CONTINUOUS
 10
119.8608628341
 20
122.1832763531
 11
119.8627362102
 21
122.1975696722
  0
LINE
  5
38A
100
AcDbEntity
  8
RACCORDO
100
AcDbLine
 62
250
  6
CONTINUOUS
 10
119.8546862293
 20
122.2086049337
 11
119.8516364347
 21
122.1858585283
  0
LINE
  5
38B
100
AcDbEntity
  8
RACCORDO
100
AcDbLine
 62
250
  6
CONTINUOUS
 10
119.8627362102
 20
122.1975696722
 11
119.8659240939
 21
122.2208899982
  0
LINE
  5
38C
100
AcDbEntity
  8
RACCORDO
100
AcDbLine
 62
250
  6
CONTINUOUS
 10
119.8581879316
 20
122.2334640582
 11
119.8546862293
 21
122.2086049337
  0
LINE
  5
38D
100
AcDbEntity
  8
RACCORDO
100
AcDbLine
 62
250
  6
CONTINUOUS
 10
119.8659240939
 20
122.2208899982
 11
119.8695748669
 21
122.2464995223
  0
LINE
  5
38E
100
AcDbEntity
  8
RACCORDO
100
AcDbLine
 62
250
  6
CONTINUOUS
 10
119.862153939
 20
122.260271097
 11
119.8581879316
 21
122.2334640582
  0
LINE
  5
38F
100
AcDbEntity
  8
RACCORDO
100
AcDbLine
 62
250
  6
CONTINUOUS
 10
119.8695748669
 20
122.2464995223
 11
119.8737053588
 21
122.2744726959
  0
LINE
  5
390
100
AcDbEntity
  8
RACCORDO
100
AcDbLine
 62
250
  6
CONTINUOUS
 10
119.8737053588
 20
122.2744726959
 11
119.8800056354
 21
122.3156773972
  0
LINE
  5
391
100
AcDbEntity
  8
RACCORDO
100
AcDbLine
 62
250
  6
CONTINUOUS
 10
119.8666266063
 20
122.2892389852
 11
119.862153939
 21
122.260271097
  0
LINE
  5
392
100
AcDbEntity
  8
RACCORDO
100
AcDbLine
 62
250
  6
CONTINUOUS
 10
119.8800056354
 20
122.3156773972
 11
119.8872957264
 21
122.3617425862
  0
LINE
  5
393
100
AcDbEntity
  8
RACCORDO
100
AcDbLine
 62
250
  6
CONTINUOUS
 10
119.8716263271
 20
122.3204547296
 11
119.8666266063
 21
122.2892389852
  0
LINE
  5
394
100
AcDbEntity
  8
RACCORDO
100
AcDbLine
 62
250
  6
CONTINUOUS
 10
119.8872957264
 20
122.3617425862
 11
119.8956778287
 21
122.4131334748
  0
LINE
  5
395
100
AcDbEntity
  8
RACCORDO
100
AcDbLine
 62
250
  6
CONTINUOUS
 10
119.8772060632
 20
122.3541121127
 11
119.8716263271
 21
122.3204547296
  0
LINE
  5
396
100
AcDbEntity
  8
RACCORDO
100
AcDbLine
 62
250
  6
CONTINUOUS
 10
119.8956778287
 20
122.4131334748
 11
119.9052674797
 21
122.4703394044
  0
LINE
  5
397
100
AcDbEntity
  8
RACCORDO
100
AcDbLine
 62
250
  6
CONTINUOUS
 10
119.8833434009
 20
122.3900077903
 11
119.8772060632
 21
122.3541121127
  0
LWPOLYLINE
  5
398
100
AcDbEntity
  8
RACCORDO
100
AcDbPolyline
 62
250
  6
CONTINUOUS
 90
6
 70
0
 10
121.196022231
 20
123.8179085934
 10
121.1960798515
 20
123.81823938
 10
121.1961295924
 20
123.8192461764
 10
121.1961707468
 20
123.8209522629
 10
121.1962020779
 20
123.8233538623
 10
121.1962359572
 20
123.8304619121
  0
LINE
  5
399
100
AcDbEntity
  8
RACCORDO
100
AcDbLine
 62
250
  6
CONTINUOUS
 10
119.9052674797
 20
122.4703394044
 11
119.9191752762
 21
122.5509218808
  0
LINE
  5
39A
100
AcDbEntity
  8
RACCORDO
100
AcDbLine
 62
250
  6
CONTINUOUS
 10
119.8900154592
 20
122.4279847525
 11
119.8833434009
 21
122.3900077903
  0
LINE
  5
39B
100
AcDbEntity
  8
RACCORDO
100
AcDbLine
 62
250
  6
CONTINUOUS
 10
119.9191752762
 20
122.5509218808
 11
119.9356304214
 21
122.6433414866
  0
LINE
  5
39C
100
AcDbEntity
  8
RACCORDO
100
AcDbLine
 62
250
  6
CONTINUOUS
 10
121.3339663833
 20
124.4428235856
 11
121.3326105974
 21
124.4353864982
  0
LINE
  5
39D
100
AcDbEntity
  8
RACCORDO
100
AcDbLine
 62
250
  6
CONTINUOUS
 10
119.9009309514
 20
122.4882246784
 11
119.8900154592
 21
122.4279847525
  0
LINE
  5
39E
100
AcDbEntity
  8
RACCORDO
100
AcDbLine
 62
250
  6
CONTINUOUS
 10
119.9356304214
 20
122.6433414866
 11
119.9512573895
 21
122.7286339861
  0
LINE
  5
39F
100
AcDbEntity
  8
RACCORDO
100
AcDbLine
 62
250
  6
CONTINUOUS
 10
119.9129353794
 20
122.5523546076
 11
119.9009309514
 21
122.4882246784
  0
LINE
  5
3A0
100
AcDbEntity
  8
RACCORDO
100
AcDbLine
 62
250
  6
CONTINUOUS
 10
119.9512573895
 20
122.7286339861
 11
119.9698435464
 21
122.8272872882
  0
LINE
  5
3A1
100
AcDbEntity
  8
RACCORDO
100
AcDbLine
 62
250
  6
CONTINUOUS
 10
119.9260507939
 20
122.6204191071
 11
119.9129353794
 21
122.5523546076
  0
LWPOLYLINE
  5
3A2
100
AcDbEntity
  8
RACCORDO
100
AcDbPolyline
 62
250
  6
CONTINUOUS
 90
3
 70
0
 10
119.9698435464
 20
122.8272872882
 10
119.9853614759
 20
122.9076117572
 10
119.9907864146
 20
122.9351347433
  0
LWPOLYLINE
  5
3A3
100
AcDbEntity
  8
RACCORDO
100
AcDbPolyline
 62
250
  6
CONTINUOUS
 90
12
 70
0
 10
121.3434043011
 20
124.3443826713
 10
121.3423152054
 20
124.3389109988
 10
121.3390033485
 20
124.3323534926
 10
121.3334230983
 20
124.3249814619
 10
121.3255529835
 20
124.3170460286
 10
121.3154326294
 20
124.3089472845
 10
121.3031959864
 20
124.3011825782
 10
121.2890086738
 20
124.294107634
 10
121.2730457887
 20
124.2880282248
 10
121.2555479104
 20
124.2833159255
 10
121.2367917082
 20
124.2802849649
 10
121.2289454474
 20
124.279853165
  0
LINE
  5
3A4
100
AcDbEntity
  8
RACCORDO
100
AcDbLine
 62
250
  6
CONTINUOUS
 10
119.940301075
 20
122.6924385204
 11
119.9260507939
 21
122.6204191071
  0
LINE
  5
3A5
100
AcDbEntity
  8
RACCORDO
100
AcDbLine
 62
250
  6
CONTINUOUS
 10
119.9557742235
 20
122.7687149687
 11
119.940301075
 21
122.6924385204
  0
LINE
  5
3A6
100
AcDbEntity
  8
RACCORDO
100
AcDbLine
 62
250
  6
CONTINUOUS
 10
119.9725548469
 20
122.8494721394
 11
119.9557742235
 21
122.7687149687
  0
LINE
  5
3A7
100
AcDbEntity
  8
RACCORDO
100
AcDbLine
 62
250
  6
CONTINUOUS
 10
119.9907861202
 20
122.9351332151
 11
119.9725548469
 21
122.8494721394
  0
LWPOLYLINE
  5
3A8
100
AcDbEntity
  8
RACCORDO
100
AcDbPolyline
 62
250
  6
CONTINUOUS
 90
9
 70
0
 10
121.3326105974
 20
124.4353864982
 10
121.3310421204
 20
124.4281579023
 10
121.3292719941
 20
124.4211409796
 10
121.3273254823
 20
124.4143826942
 10
121.3252031699
 20
124.4078376673
 10
121.3228623371
 20
124.4013746311
 10
121.3202747981
 20
124.3949529376
 10
121.3174544894
 20
124.3886259237
 10
121.3144063002
 20
124.382408012
  0
LWPOLYLINE
  5
3A9
100
AcDbEntity
  8
ASSI
100
AcDbPolyline
 62
250
  6
CONTINUOUS
 90
6
 70
0
 10
124.1749368362
 20
127.2423513441
 10
124.174406489
 20
127.2409164494
 10
124.1730957201
 20
127.2365606885
 10
124.1710244959
 20
127.2293504112
 10
124.1682243666
 20
127.2193954492
 10
124.1559285409
 20
127.1747734433
  0
LINE
  5
3AA
100
AcDbEntity
  8
RACCORDO
100
AcDbLine
 62
7
  6
CONTINUOUS
 10
123.9975787233
 20
96.0931206429
 11
123.6110756601
 21
95.9919653881
  0
LINE
  5
3AB
100
AcDbEntity
  8
RACCORDO
100
AcDbLine
 62
7
  6
CONTINUOUS
 10
124.5321629045
 20
96.230122631
 11
123.9975787233
 21
96.0931206429
  0
LWPOLYLINE
  5
3AC
100
AcDbEntity
  8
RACCORDO
100
AcDbPolyline
 62
7
  6
CONTINUOUS
 90
3
 70
0
 10
125.1597671885
 20
96.3866711167
 10
125.0120248068
 20
96.3502027716
 10
124.5321629045
 20
96.230122631
  0
LWPOLYLINE
  5
3AD
100
AcDbEntity
  8
RACCORDO
100
AcDbPolyline
 62
7
  6
CONTINUOUS
 90
5
 70
0
 10
125.335054043
 20
96.4227745914
 10
125.4949995407
 20
96.4532027443
 10
125.6575917849
 20
96.4807136643
 10
125.8221599121
 20
96.5071147509
 10
125.9881277641
 20
96.5348132498
  0
LWPOLYLINE
  5
3AE
100
AcDbEntity
  8
RACCORDO
100
AcDbPolyline
 62
7
  6
CONTINUOUS
 90
10
 70
0
 10
125.335054043
 20
96.4227745893
 10
125.314371771
 20
96.4191207169
 10
125.2939867734
 20
96.4153806958
 10
125.2738990501
 20
96.4115534805
 10
125.2541029819
 20
96.4076390205
 10
125.2346041881
 20
96.4036352529
 10
125.2154195261
 20
96.3995380425
 10
125.1965546151
 20
96.395345218
 10
125.1780038359
 20
96.391056633
 10
125.1597671885
 20
96.3866711167
  0
LWPOLYLINE
  5
3AF
100
AcDbEntity
  8
RACCORDO
100
AcDbPolyline
 62
7
  6
CONTINUOUS
 90
3
 70
0
 10
125.9881277641
 20
96.5348132498
 10
126.3224779639
 20
96.5935837765
 10
127.8426513941
 20
96.856139409
  0
LWPOLYLINE
  5
3B0
100
AcDbEntity
  8
RACCORDO
100
AcDbPolyline
 62
250
  6
CONTINUOUS
 90
15
 70
0
 10
135.3521305732
 20
97.8576035554
 10
135.4037615607
 20
97.8610947816
 10
135.4547458626
 20
97.8697718155
 10
135.5045372176
 20
97.8835416886
 10
135.5526021459
 20
97.9022568663
 10
135.5984256649
 20
97.9257168284
 10
135.6415168075
 20
97.9536702177
 10
135.6814138819
 20
97.9858175329
 10
135.7176894187
 20
98.0218143379
 10
135.7499547505
 20
98.0612749518
 10
135.7778641768
 20
98.1037765815
 10
135.8011186673
 20
98.1488638516
 10
135.8194690664
 20
98.1960536831
 10
135.8327187621
 20
98.2448404698
 10
135.8407257932
 20
98.294701495
  0
LINE
  5
3B1
100
AcDbEntity
  8
RACCORDO
100
AcDbLine
 62
250
  6
CONTINUOUS
 10
128.9109951365
 20
97.7669716572
 11
135.3521305732
 21
97.8576035555
  0
LINE
  5
3B2
100
AcDbEntity
  8
RACCORDO
100
AcDbLine
 62
250
  6
CONTINUOUS
 10
128.9946000586
 20
97.2821019187
 11
135.3521305501
 21
97.370104578
  0
LINE
  5
3B3
100
AcDbEntity
  8
RACCORDO
100
AcDbLine
 62
7
  6
CONTINUOUS
 10
119.84340437
 20
97.1977866492
 11
122.84340437
 21
97.2239672526
  0
LINE
  5
3B4
100
AcDbEntity
  8
RACCORDO
100
AcDbLine
 62
7
  6
CONTINUOUS
 10
122.84340437
 20
97.3707341945
 11
119.84340437
 21
97.3461299519
  0
LINE
  5
3B5
100
AcDbEntity
  8
RACCORDO
100
AcDbLine
 62
250
  6
CONTINUOUS
 10
135.84340437
 20
96.7604915112
 11
127.8426513952
 21
96.856139409
  0
LINE
  5
3B6
100
AcDbEntity
  8
RACCORDO
100
AcDbLine
 62
250
  6
CONTINUOUS
 10
135.84340437
 20
96.2923793877
 11
125.335054043
 21
96.4227745893
  0
LINE
  5
3B7
100
AcDbEntity
  8
RACCORDO
100
AcDbLine
 62
7
  6
CONTINUOUS
 10
135.84340437
 20
96.5324725869
 11
135.8521305732
 21
96.5323202704
  0
LINE
  5
3B8
100
AcDbEntity
  8
0
100
AcDbLine
 62
7
  6
CONTINUOUS
 10
137.34340437
 20
95.6718997674
 11
136.34340437
 21
95.7593884309
  0
LINE
  5
3B9
100
AcDbEntity
  8
0
100
AcDbLine
 62
7
  6
CONTINUOUS
 10
137.813818274
 20
95.5673560475
 11
137.34340437
 21
95.6094274281
  0
LWPOLYLINE
  5
3BA
100
AcDbEntity
  8
ASSI
100
AcDbPolyline
 62
250
  6
CONTINUOUS
 90
5
 70
0
 10
124.1682243666
 20
80.7993814127
 10
124.1710244959
 20
80.7894264507
 10
124.1730957201
 20
80.7822161734
 10
124.174406489
 20
80.7778604125
 10
124.1749368362
 20
80.7764255178
  0
LINE
  5
3BB
100
AcDbEntity
  8
RACCORDO
100
AcDbLine
 62
250
  6
CONTINUOUS
 10
119.9907864723
 20
85.0836420917
 11
119.9737654045
 21
85.171014047
  0
LINE
  5
3BC
100
AcDbEntity
  8
RACCORDO
100
AcDbLine
 62
250
  6
CONTINUOUS
 10
119.9737654045
 20
85.171014047
 11
119.9558060994
 21
85.2657191726
  0
LINE
  5
3BD
100
AcDbEntity
  8
RACCORDO
100
AcDbLine
 62
250
  6
CONTINUOUS
 10
119.9558060994
 20
85.2657191726
 11
119.9406584507
 21
85.3477444591
  0
LINE
  5
3BE
100
AcDbEntity
  8
RACCORDO
100
AcDbLine
 62
250
  6
CONTINUOUS
 10
121.332783058
 20
83.5825877305
 11
121.3339676731
 21
83.5759531137
  0
LINE
  5
3BF
100
AcDbEntity
  8
RACCORDO
100
AcDbLine
 62
250
  6
CONTINUOUS
 10
119.9406584507
 20
85.3477444591
 11
119.9251677102
 21
85.4338634741
  0
LINE
  5
3C0
100
AcDbEntity
  8
RACCORDO
100
AcDbLine
 62
250
  6
CONTINUOUS
 10
119.9251677102
 20
85.4338634741
 11
119.9119299286
 21
85.5095210657
  0
LINE
  5
3C1
100
AcDbEntity
  8
RACCORDO
100
AcDbLine
 62
250
  6
CONTINUOUS
 10
119.9119299286
 20
85.5095210657
 11
119.9005868936
 21
85.5761722056
  0
LINE
  5
3C2
100
AcDbEntity
  8
RACCORDO
100
AcDbLine
 62
250
  6
CONTINUOUS
 10
119.9005868936
 20
85.5761722056
 11
119.8909717183
 21
85.6343160792
  0
LINE
  5
3C3
100
AcDbEntity
  8
RACCORDO
100
AcDbLine
 62
250
  6
CONTINUOUS
 10
119.8909717183
 20
85.6343160792
 11
119.8829289357
 21
85.6844524504
  0
LINE
  5
3C4
100
AcDbEntity
  8
RACCORDO
100
AcDbLine
 62
250
  6
CONTINUOUS
 10
119.8829289357
 20
85.6844524504
 11
119.8772781267
 21
85.7207518141
  0
LINE
  5
3C5
100
AcDbEntity
  8
RACCORDO
100
AcDbLine
 62
250
  6
CONTINUOUS
 10
119.8772781267
 20
85.7207518141
 11
119.8724284444
 21
85.7528570544
  0
LINE
  5
3C6
100
AcDbEntity
  8
RACCORDO
100
AcDbLine
 62
250
  6
CONTINUOUS
 10
119.8724284444
 20
85.7528570544
 11
119.8682227512
 21
85.7816487856
  0
LINE
  5
3C7
100
AcDbEntity
  8
RACCORDO
100
AcDbLine
 62
250
  6
CONTINUOUS
 10
119.8682227512
 20
85.7816487856
 11
119.8652301233
 21
85.8028751471
  0
LINE
  5
3C8
100
AcDbEntity
  8
RACCORDO
100
AcDbLine
 62
250
  6
CONTINUOUS
 10
119.8652301233
 20
85.8028751471
 11
119.8625378622
 21
85.8226985944
  0
LINE
  5
3C9
100
AcDbEntity
  8
RACCORDO
100
AcDbLine
 62
250
  6
CONTINUOUS
 10
119.8625378622
 20
85.8226985944
 11
119.8607333187
 21
85.836512665
  0
LINE
  5
3CA
100
AcDbEntity
  8
RACCORDO
100
AcDbLine
 62
250
  6
CONTINUOUS
 10
119.8607333187
 20
85.836512665
 11
119.859133625
 21
85.8492488478
  0
LINE
  5
3CB
100
AcDbEntity
  8
RACCORDO
100
AcDbLine
 62
250
  6
CONTINUOUS
 10
119.859133625
 20
85.8492488478
 11
119.8577470221
 21
85.8608060175
  0
LWPOLYLINE
  5
3CC
100
AcDbEntity
  8
RACCORDO
100
AcDbPolyline
 62
250
  6
CONTINUOUS
 90
3
 70
0
 10
119.8577470221
 20
85.8608060175
 10
119.8565653561
 20
85.8712005418
 10
119.8562145227
 20
85.8744223782
  0
LINE
  5
3CD
100
AcDbEntity
  8
RACCORDO
100
AcDbLine
 62
250
  6
CONTINUOUS
 10
119.8562145227
 20
85.8744223782
 11
119.8555671678
 21
85.8805668306
  0
LWPOLYLINE
  5
3CE
100
AcDbEntity
  8
RACCORDO
100
AcDbPolyline
 62
250
  6
CONTINUOUS
 90
4
 70
0
 10
121.2479916486
 20
83.6793176193
 10
121.2461092825
 20
83.6976284297
 10
121.241184353
 20
83.7148294328
 10
121.2358505433
 20
83.7262720104
  0
LINE
  5
3CF
100
AcDbEntity
  8
RACCORDO
100
AcDbLine
 62
250
  6
CONTINUOUS
 10
119.8555671678
 20
85.8805668306
 11
119.8549917506
 21
85.8863353412
  0
LINE
  5
3D0
100
AcDbEntity
  8
RACCORDO
100
AcDbLine
 62
250
  6
CONTINUOUS
 10
119.8549917506
 20
85.8863353412
 11
119.8544786561
 21
85.8917964067
  0
LWPOLYLINE
  5
3D1
100
AcDbEntity
  8
RACCORDO
100
AcDbPolyline
 62
250
  6
CONTINUOUS
 90
3
 70
0
 10
119.8544786561
 20
85.8917964067
 10
119.854025312
 20
85.8970273105
 10
119.8538185085
 20
85.899565244
  0
LINE
  5
3D2
100
AcDbEntity
  8
ASSI
100
AcDbLine
 62
250
  6
CONTINUOUS
 10
118.3016559498
 20
126.0639915352
 11
118.3176366464
 21
125.8485456175
  0
LWPOLYLINE
  5
3D3
100
AcDbEntity
  8
RACCORDO
100
AcDbPolyline
 62
250
  6
CONTINUOUS
 90
5
 70
0
 10
119.8538185085
 20
85.899565244
 10
119.853451054
 20
85.90458871
 10
119.853284877
 20
85.9070726428
 10
119.8531437918
 20
85.9095315721
 10
119.8530284791
 20
85.9119635781
  0
LINE
  5
3D4
100
AcDbEntity
  8
ASSI
100
AcDbLine
 62
250
  6
CONTINUOUS
 10
118.2854040139
 20
126.2993191011
 11
118.3016559498
 21
126.0639915352
  0
LINE
  5
3D5
100
AcDbEntity
  8
ASSI
100
AcDbLine
 62
250
  6
CONTINUOUS
 10
119.412728918
 20
81.6610210572
 11
119.3966355864
 21
81.9091268681
  0
LINE
  5
3D6
100
AcDbEntity
  8
ASSI
100
AcDbLine
 62
250
  6
CONTINUOUS
 10
118.26889765
 20
126.5578410343
 11
118.2854040139
 21
126.2993191011
  0
LINE
  5
3D7
100
AcDbEntity
  8
ASSI
100
AcDbLine
 62
250
  6
CONTINUOUS
 10
119.4290686318
 20
81.3861860017
 11
119.412728918
 21
81.6610210572
  0
LINE
  5
3D8
100
AcDbEntity
  8
ASSI
100
AcDbLine
 62
250
  6
CONTINUOUS
 10
118.2523396308
 20
126.8405158167
 11
118.26889765
 21
126.5578410343
  0
LINE
  5
3D9
100
AcDbEntity
  8
ASSI
100
AcDbLine
 62
250
  6
CONTINUOUS
 10
118.2414004271
 20
127.0419599372
 11
118.2523396308
 21
126.8405158167
  0
LINE
  5
3DA
100
AcDbEntity
  8
ASSI
100
AcDbLine
 62
250
  6
CONTINUOUS
 10
118.4598913823
 20
126.0627726536
 11
118.4753978324
 21
125.7755722709
  0
LWPOLYLINE
  5
3DB
100
AcDbEntity
  8
ASSI
100
AcDbPolyline
 62
250
  6
CONTINUOUS
 90
3
 70
0
 10
119.4507774504
 20
80.9768169246
 10
119.4453742185
 20
81.0837362144
 10
119.4290686318
 20
81.3861860017
  0
LINE
  5
3DC
100
AcDbEntity
  8
ASSI
100
AcDbLine
 62
250
  6
CONTINUOUS
 10
119.2367800319
 20
81.9790398728
 11
119.2216196453
 21
82.2692632313
  0
LWPOLYLINE
  5
3DD
100
AcDbEntity
  8
ASSI
100
AcDbPolyline
 62
250
  6
CONTINUOUS
 90
4
 70
0
 10
120.0419581077
 20
82.3204533339
 10
120.0425645833
 20
82.3079682568
 10
120.0430461686
 20
82.3004620048
 10
120.04340437
 20
82.2979605862
  0
LINE
  5
3DE
100
AcDbEntity
  8
ASSI
100
AcDbLine
 62
250
  6
CONTINUOUS
 10
118.4440372388
 20
126.3866957285
 11
118.4598913823
 21
126.0627726536
  0
LINE
  5
3DF
100
AcDbEntity
  8
ASSI
100
AcDbLine
 62
250
  6
CONTINUOUS
 10
119.2522302109
 20
81.6508977567
 11
119.2367800319
 21
81.9790398728
  0
LINE
  5
3E0
100
AcDbEntity
  8
ASSI
100
AcDbLine
 62
250
  6
CONTINUOUS
 10
118.4279026543
 20
126.7546144979
 11
118.4440372388
 21
126.3866957285
  0
LINE
  5
3E1
100
AcDbEntity
  8
ASSI
100
AcDbLine
 62
250
  6
CONTINUOUS
 10
119.2679869079
 20
81.2745613011
 11
119.2522302109
 21
81.6508977567
  0
LINE
  5
3E2
100
AcDbEntity
  8
ASSI
100
AcDbLine
 62
250
  6
CONTINUOUS
 10
120.0403589254
 20
82.3601675973
 11
120.0419581077
 21
82.3204533339
  0
LINE
  5
3E3
100
AcDbEntity
  8
ASSI
100
AcDbLine
 62
250
  6
CONTINUOUS
 10
118.4158947533
 20
127.0593884309
 11
118.4279026543
 21
126.7546144979
  0
LINE
  5
3E4
100
AcDbEntity
  8
RACCORDO
100
AcDbLine
 62
250
  6
CONTINUOUS
 10
119.8530284791
 20
85.9119635781
 11
119.8528400273
 21
85.9167425031
  0
LINE
  5
3E5
100
AcDbEntity
  8
ASSI
100
AcDbLine
 62
250
  6
CONTINUOUS
 10
119.2797354872
 20
80.9593884309
 11
119.2679869079
 21
81.2745613011
  0
LINE
  5
3E6
100
AcDbEntity
  8
ASSI
100
AcDbLine
 62
250
  6
CONTINUOUS
 10
120.0357504575
 20
82.4962184132
 11
120.0403589254
 21
82.3601675973
  0
LINE
  5
3E7
100
AcDbEntity
  8
ASSI
100
AcDbLine
 62
250
  6
CONTINUOUS
 10
120.0311886159
 20
82.6438424812
 11
120.0357504575
 21
82.4962184132
  0
LWPOLYLINE
  5
3E8
100
AcDbEntity
  8
RACCORDO
100
AcDbPolyline
 62
250
  6
CONTINUOUS
 90
14
 70
0
 10
119.8528400256
 20
86.3985121313
 10
119.8527448759
 20
86.401923816
 10
119.852758285
 20
86.404939691
 10
119.8528718898
 20
86.4075558031
 10
119.8530674608
 20
86.4097982445
 10
119.8533451029
 20
86.4116318062
 10
119.8537282531
 20
86.4129616857
 10
119.8542254981
 20
86.4137599747
 10
119.854819548
 20
86.4140474869
 10
119.8555057551
 20
86.4138062558
 10
119.8562933622
 20
86.4130178431
 10
119.8571785257
 20
86.411698879
 10
119.85814482
 20
86.4098871772
 10
119.8582560479
 20
86.4096581869
  0
LWPOLYLINE
  5
3E9
100
AcDbEntity
  8
ASSI
100
AcDbPolyline
 62
250
  6
CONTINUOUS
 90
7
 70
0
 10
118.8383198186
 20
127.3145585929
 10
118.8386600468
 20
127.2990421952
 10
118.8390279948
 20
127.2858247213
 10
118.8394183742
 20
127.2750961371
 10
118.8398255746
 20
127.2670106368
 10
118.8402437436
 20
127.2616844273
 10
118.8406668713
 20
127.259194059
  0
LINE
  5
3EA
100
AcDbEntity
  8
ASSI
100
AcDbLine
 62
250
  6
CONTINUOUS
 10
118.8377416117
 20
127.3515663032
 11
118.8383198186
 21
127.3145585929
  0
LINE
  5
3EB
100
AcDbEntity
  8
ASSI
100
AcDbLine
 62
250
  6
CONTINUOUS
 10
118.8373264947
 20
127.3947279659
 11
118.8377416117
 21
127.3515663032
  0
LWPOLYLINE
  5
3EC
100
AcDbEntity
  8
ASSI
100
AcDbPolyline
 62
250
  6
CONTINUOUS
 90
37
 70
0
 10
118.2414004573
 20
80.9768174547
 10
118.2415256822
 20
80.9430791148
 10
118.244522267
 20
80.9103834633
 10
118.2503902117
 20
80.8787305002
 10
118.2595080676
 20
80.8477348862
 10
118.2714972834
 20
80.8177819607
 10
118.2852222056
 20
80.7900277414
 10
118.3006423169
 20
80.7648884997
 10
118.3177981346
 20
80.7419479644
 10
118.3356755562
 20
80.7211133394
 10
118.3541408872
 20
80.7024904506
 10
118.3733278221
 20
80.6859734722
 10
118.3926233427
 20
80.671152131
 10
118.4119475812
 20
80.6580253641
 10
118.4313804053
 20
80.6465942344
 10
118.4505484004
 20
80.6364516567
 10
118.4693992538
 20
80.6275815481
 10
118.4879852782
 20
80.6199999916
 10
118.5060899971
 20
80.6133481507
 10
118.5236350086
 20
80.6076112861
 10
118.5406987145
 20
80.6028041373
 10
118.5572998448
 20
80.5986120858
 10
118.573361081
 20
80.5950078149
 10
118.5889597415
 20
80.5920186414
 10
118.6043465114
 20
80.5894118975
 10
118.6195429931
 20
80.5871523004
 10
118.6345275843
 20
80.5852751329
 10
118.6494861627
 20
80.5836535761
 10
118.6644687121
 20
80.5822712195
 10
118.6794252488
 20
80.5811444735
 10
118.6943916998
 20
80.5801957501
 10
118.7093166169
 20
80.5794216311
 10
118.7242514484
 20
80.5788255348
 10
118.7393864666
 20
80.5783401273
 10
118.7546992732
 20
80.5779582164
 10
118.7702122666
 20
80.5776869945
 10
118.8026970374
 20
80.5773240939
  0
LINE
  5
3ED
100
AcDbEntity
  8
ASSI
100
AcDbLine
 62
250
  6
CONTINUOUS
 10
118.8370982459
 20
127.4415711934
 11
118.8373264947
 21
127.3947279659
  0
LINE
  5
3EE
100
AcDbEntity
  8
RACCORDO
100
AcDbLine
 62
250
  6
CONTINUOUS
 10
119.696022231
 20
121.7427464553
 11
119.6961701387
 21
121.6983606566
  0
LINE
  5
3EF
100
AcDbEntity
  8
RACCORDO
100
AcDbLine
 62
250
  6
CONTINUOUS
 10
119.6960221966
 20
122.1933677552
 11
119.696022231
 21
121.7427464553
  0
LINE
  5
3F0
100
AcDbEntity
  8
RACCORDO
100
AcDbLine
 62
7
  6
CONTINUOUS
 10
119.84340437
 20
122.0973048149
 11
119.84340437
 21
104.8093884309
  0
LINE
  5
3F1
100
AcDbEntity
  8
0
100
AcDbLine
 62
7
  6
CONTINUOUS
 10
119.84340437
 20
104.8093884309
 11
119.84340437
 21
93.8093884309
  0
LINE
  5
3F2
100
AcDbEntity
  8
RACCORDO
100
AcDbLine
 62
7
  6
CONTINUOUS
 10
119.84340437
 20
85.6987959974
 11
119.84340437
 21
93.8093884309
  0
LINE
  5
3F3
100
AcDbEntity
  8
RACCORDO
100
AcDbLine
 62
250
  6
CONTINUOUS
 10
119.8528400273
 20
85.9167425032
 11
119.8528400283
 21
86.3985121295
  0
LINE
  5
3F4
100
AcDbEntity
  8
RACCORDO
100
AcDbLine
 62
250
  6
CONTINUOUS
 10
119.8528400285
 20
121.6202646886
 11
119.8528400273
 21
122.1020345341
  0
LINE
  5
3F5
100
AcDbEntity
  8
RACCORDO
100
AcDbLine
 62
250
  6
CONTINUOUS
 10
119.6961701387
 20
121.6983606566
 11
119.696022231
 21
104.8093884309
  0
LINE
  5
3F6
100
AcDbEntity
  8
ASSI
100
AcDbLine
 62
250
  6
CONTINUOUS
 10
118.8370982461
 20
80.5772056686
 11
118.8373287941
 21
80.6240485631
  0
LINE
  5
3F7
100
AcDbEntity
  8
ASSI
100
AcDbLine
 62
250
  6
CONTINUOUS
 10
118.8373287941
 20
80.6240485631
 11
118.8377453064
 21
80.6672101681
  0
LINE
  5
3F8
100
AcDbEntity
  8
RACCORDO
100
AcDbLine
 62
250
  6
CONTINUOUS
 10
119.8528062844
 20
121.617348298
 11
119.8528400255
 21
121.6202646886
  0
LWPOLYLINE
  5
3F9
100
AcDbEntity
  8
ASSI
100
AcDbPolyline
 62
250
  6
CONTINUOUS
 90
8
 70
0
 10
118.8377453064
 20
80.6672101681
 10
118.8383240078
 20
80.7042180127
 10
118.8386641118
 20
80.7197344914
 10
118.8390316907
 20
80.7329520444
 10
118.8394214838
 20
80.7436806813
 10
118.8398278844
 20
80.7517662084
 10
118.8402450201
 20
80.7570924305
 10
118.840666872
 20
80.7595828029
  0
LWPOLYLINE
  5
3FA
100
AcDbEntity
  8
ASSI
100
AcDbPolyline
 62
250
  6
CONTINUOUS
 90
35
 70
0
 10
118.4158951906
 20
80.9593884309
 10
118.4155518619
 20
80.9426779882
 10
118.4169662956
 20
80.9262952237
 10
118.4200731431
 20
80.9103452423
 10
118.4248669588
 20
80.8947771944
 10
118.4312182098
 20
80.8798311732
 10
118.4387789311
 20
80.8659938241
 10
118.4473221189
 20
80.8534041368
 10
118.4567425609
 20
80.8419205628
 10
118.4668019883
 20
80.8315370564
 10
118.4773461629
 20
80.8222370317
 10
118.4882896613
 20
80.8139449202
 10
118.499521852
 20
80.8065562573
 10
118.5109691378
 20
80.8000133603
 10
118.522563972
 20
80.7942605051
 10
118.5342298483
 20
80.7892060113
 10
118.5459335536
 20
80.7847933429
 10
118.5576368878
 20
80.7809681681
 10
118.5692694271
 20
80.7776541408
 10
118.5807900134
 20
80.7748083527
 10
118.5922149111
 20
80.7723774978
 10
118.6035648216
 20
80.7702860521
 10
118.6147904053
 20
80.7685020351
 10
118.6259425265
 20
80.7669891765
 10
118.6371913428
 20
80.7656859351
 10
118.648552988
 20
80.7645658107
 10
118.6600235716
 20
80.7636154097
 10
118.6717417765
 20
80.7628067698
 10
118.6837604171
 20
80.7621209569
 10
118.6960459519
 20
80.7615482827
 10
118.7086100077
 20
80.7610778518
 10
118.7214321654
 20
80.7606960916
 10
118.7345595291
 20
80.7603901804
 10
118.7481115271
 20
80.7601500377
 10
118.7765449204
 20
80.7598216346
  0
LWPOLYLINE
  5
3FB
100
AcDbEntity
  8
ASSI
100
AcDbPolyline
 62
250
  6
CONTINUOUS
 90
10
 70
0
 10
119.4507774512
 20
127.0419599372
 10
119.4511755545
 20
127.057042834
 10
119.4509381063
 20
127.0720049589
 10
119.4500651065
 20
127.0868463118
 10
119.4485520252
 20
127.1015686274
 10
119.4464033923
 20
127.1161701711
 10
119.4436327978
 20
127.1306457386
 10
119.4402447715
 20
127.1449935952
 10
119.4362347836
 20
127.1592154755
 10
119.431602834
 20
127.1733113797
  0
LWPOLYLINE
  5
3FC
100
AcDbEntity
  8
RACCORDO
100
AcDbPolyline
 62
250
  6
CONTINUOUS
 90
5
 70
0
 10
119.8528400273
 20
122.1020345345
 10
119.8529166922
 20
122.1046379115
 10
119.8530467151
 20
122.1075239449
 10
119.8532270219
 20
122.110692804
 10
119.8534503613
 20
122.1141415902
  0
LINE
  5
3FD
100
AcDbEntity
  8
ASSI
100
AcDbLine
 62
250
  6
CONTINUOUS
 10
120.0311886159
 20
125.3749343806
 11
120.0393791717
 21
125.6315222203
  0
LWPOLYLINE
  5
3FE
100
AcDbEntity
  8
ASSI
100
AcDbPolyline
 62
250
  6
CONTINUOUS
 90
6
 70
0
 10
120.0393791717
 20
125.6315222203
 10
120.0412199093
 20
125.680901771
 10
120.0419581076
 20
125.6983235284
 10
120.0425736558
 20
125.7108105909
 10
120.0430574017
 20
125.7183173469
 10
120.04340437
 20
125.7208162757
  0
LINE
  5
3FF
100
AcDbEntity
  8
ASSI
100
AcDbLine
 62
250
  6
CONTINUOUS
 10
119.2649093013
 20
126.6669039758
 11
119.2797354873
 21
127.0593884309
  0
LINE
  5
400
100
AcDbEntity
  8
ASSI
100
AcDbLine
 62
250
  6
CONTINUOUS
 10
118.4302557784
 20
81.3205660437
 11
118.4158947534
 21
80.9593884309
  0
LINE
  5
401
100
AcDbEntity
  8
ASSI
100
AcDbLine
 62
250
  6
CONTINUOUS
 10
119.2493777734
 20
126.3045545587
 11
119.2649093013
 21
126.6669039758
  0
LINE
  5
402
100
AcDbEntity
  8
ASSI
100
AcDbLine
 62
250
  6
CONTINUOUS
 10
118.4451575378
 20
81.6560871525
 11
118.4302557784
 21
81.3205660437
  0
LWPOLYLINE
  5
403
100
AcDbEntity
  8
ASSI
100
AcDbPolyline
 62
250
  6
CONTINUOUS
 90
10
 70
0
 10
119.2797354837
 20
127.0593884309
 10
119.2800829537
 20
127.0669131322
 10
119.2800698891
 20
127.0743976363
 10
119.2797003021
 20
127.0818316153
 10
119.2789802438
 20
127.0891960167
 10
119.2779134851
 20
127.0964901902
 10
119.2764985956
 20
127.1037313336
 10
119.274736055
 20
127.1109183924
 10
119.2726311457
 20
127.1180326363
 10
119.2701876309
 20
127.125064395
  0
LINE
  5
404
100
AcDbEntity
  8
ASSI
100
AcDbLine
 62
250
  6
CONTINUOUS
 10
119.2335024957
 20
125.9745245036
 11
119.2493777734
 21
126.3045545587
  0
LINE
  5
405
100
AcDbEntity
  8
ASSI
100
AcDbLine
 62
250
  6
CONTINUOUS
 10
118.460320366
 20
81.9643255344
 11
118.4451575378
 21
81.6560871525
  0
LINE
  5
406
100
AcDbEntity
  8
ASSI
100
AcDbLine
 62
250
  6
CONTINUOUS
 10
119.4354981429
 20
126.7481066976
 11
119.4507774512
 21
127.0419599372
  0
LINE
  5
407
100
AcDbEntity
  8
ASSI
100
AcDbLine
 62
250
  6
CONTINUOUS
 10
119.2216196453
 20
125.7495136306
 11
119.2335024957
 21
125.9745245036
  0
LINE
  5
408
100
AcDbEntity
  8
ASSI
100
AcDbLine
 62
250
  6
CONTINUOUS
 10
118.4753978324
 20
82.2432045913
 11
118.460320366
 21
81.9643255344
  0
LINE
  5
409
100
AcDbEntity
  8
ASSI
100
AcDbLine
 62
250
  6
CONTINUOUS
 10
118.2610662187
 20
81.3305254846
 11
118.2414004573
 21
80.9768174547
  0
LINE
  5
40A
100
AcDbEntity
  8
ASSI
100
AcDbLine
 62
250
  6
CONTINUOUS
 10
119.4196148145
 20
126.4705971354
 11
119.4354981429
 21
126.7481066976
  0
LINE
  5
40B
100
AcDbEntity
  8
ASSI
100
AcDbLine
 62
250
  6
CONTINUOUS
 10
118.2814645596
 20
81.6596967725
 11
118.2610662187
 21
81.3305254846
  0
LWPOLYLINE
  5
40C
100
AcDbEntity
  8
ASSI
100
AcDbPolyline
 62
250
  6
CONTINUOUS
 90
3
 70
0
 10
119.3978235159
 20
126.1273239717
 10
119.4033113244
 20
126.2101607183
 10
119.4196148145
 20
126.4705971354
  0
LINE
  5
40D
100
AcDbEntity
  8
ASSI
100
AcDbLine
 62
250
  6
CONTINUOUS
 10
118.2953015075
 20
81.8648227587
 11
118.2814645596
 21
81.6596967725
  0
LWPOLYLINE
  5
40E
100
AcDbEntity
  8
RACCORDO
100
AcDbPolyline
 62
250
  6
CONTINUOUS
 90
8
 70
0
 10
119.8534503613
 20
122.1141415902
 10
119.8537175164
 20
122.1178733666
 10
119.8540383942
 20
122.1218969283
 10
119.8544150769
 20
122.1262279705
 10
119.8548408401
 20
122.1308501146
 10
119.8553155396
 20
122.1357233599
 10
119.855841029
 20
122.140838532
 10
119.8564158972
 20
122.146202989
  0
LWPOLYLINE
  5
40F
100
AcDbEntity
  8
RACCORDO
100
AcDbPolyline
 62
250
  6
CONTINUOUS
 90
4
 70
0
 10
121.2479916518
 20
124.3394592416
 10
121.2461093005
 20
124.3211488336
 10
121.2411844907
 20
124.3039481204
 10
121.2358522088
 20
124.2925080001
  0
LINE
  5
410
100
AcDbEntity
  8
ASSI
100
AcDbLine
 62
250
  6
CONTINUOUS
 10
112.4934294537
 20
79.6419599372
 11
112.5953987526
 21
80.0225145417
  0
LINE
  5
411
100
AcDbEntity
  8
ASSI
100
AcDbLine
 62
7
  6
CONTINUOUS
 10
112.6831241377
 20
79.6076246219
 11
112.7952281729
 21
80.0260025772
  0
LINE
  5
412
100
AcDbEntity
  8
ASSI
100
AcDbLine
 62
250
  6
CONTINUOUS
 10
124.1559285409
 20
127.1747734433
 11
124.1266635084
 21
127.0665946725
  0
LWPOLYLINE
  5
413
100
AcDbEntity
  8
ASSI
100
AcDbPolyline
 62
250
  6
CONTINUOUS
 90
6
 70
0
 10
126.3266971971
 20
126.6657888931
 10
126.32616685
 20
126.6643539984
 10
126.324856081
 20
126.6599982374
 10
126.3227848568
 20
126.65278796
 10
126.3199847275
 20
126.6428329979
 10
126.3076889017
 20
126.5982109917
  0
LINE
  5
414
100
AcDbEntity
  8
RACCORDO
100
AcDbLine
 62
7
  6
CONTINUOUS
 10
122.84340437
 20
98.3226371557
 11
119.84340437
 21
98.298032913
  0
LWPOLYLINE
  5
415
100
AcDbEntity
  8
ASSI
100
AcDbPolyline
 62
250
  6
CONTINUOUS
 90
4
 70
0
 10
126.3227848568
 20
81.3659889018
 10
126.324856081
 20
81.3587786244
 10
126.32616685
 20
81.3544228635
 10
126.3266971971
 20
81.3529879688
  0
LINE
  5
416
100
AcDbEntity
  8
ASSI
100
AcDbLine
 62
250
  6
CONTINUOUS
 10
124.1559285409
 20
80.8440034186
 11
124.1682243666
 21
80.7993814127
  0
LINE
  5
417
100
AcDbEntity
  8
ASSI
100
AcDbLine
 62
250
  6
CONTINUOUS
 10
124.1266635084
 20
80.9521821893
 11
124.1559285409
 21
80.8440034186
  0
LINE
  5
418
100
AcDbEntity
  8
ASSI
100
AcDbLine
 62
250
  6
CONTINUOUS
 10
112.5953987526
 20
127.9962623202
 11
112.4934294537
 21
128.3768169246
  0
LINE
  5
419
100
AcDbEntity
  8
ASSI
100
AcDbLine
 62
7
  6
CONTINUOUS
 10
112.7952281729
 20
127.9927742847
 11
112.6831241377
 21
128.41115224
  0
LINE
  5
41A
100
AcDbEntity
  8
RACCORDO
100
AcDbLine
 62
250
  6
CONTINUOUS
 10
119.84340437
 20
121.6490627104
 11
119.8421494186
 21
121.6611576288
  0
LINE
  5
41B
100
AcDbEntity
  8
RACCORDO
100
AcDbLine
 62
250
  6
CONTINUOUS
 10
119.84340437
 20
122.0973047828
 11
119.8421492495
 21
122.1097069325
  0
LINE
  5
41C
100
AcDbEntity
  8
ASSI
100
AcDbLine
 62
250
  6
CONTINUOUS
 10
118.3176366464
 20
125.8485456175
 11
118.3229058341
 21
125.7808974091
  0
LINE
  5
41D
100
AcDbEntity
  8
ASSI
100
AcDbLine
 62
250
  6
CONTINUOUS
 10
122.9272527358
 20
82.1188969609
 11
122.9135919294
 21
82.3480598963
  0
LINE
  5
41E
100
AcDbEntity
  8
ASSI
100
AcDbLine
 62
250
  6
CONTINUOUS
 10
122.9409591816
 20
81.8699281449
 11
122.9272527358
 21
82.1188969609
  0
LINE
  5
41F
100
AcDbEntity
  8
ASSI
100
AcDbLine
 62
250
  6
CONTINUOUS
 10
122.9546887193
 20
81.5975753255
 11
122.9409591816
 21
81.8699281449
  0
LWPOLYLINE
  5
420
100
AcDbEntity
  8
ASSI
100
AcDbPolyline
 62
250
  6
CONTINUOUS
 90
16
 70
0
 10
121.8924221075
 20
80.9593884309
 10
121.8934103222
 20
80.938482705
 10
121.8963641366
 20
80.9178060372
 10
121.9012511852
 20
80.8975849654
 10
121.9080179203
 20
80.8780410385
 10
121.9165902022
 20
80.8593883794
 10
121.9268741142
 20
80.8418313406
 10
121.9387569857
 20
80.8255622782
 10
121.952108624
 20
80.8107594422
 10
121.9667827459
 20
80.7975850154
 10
121.9826185785
 20
80.7861833397
 10
121.9994426214
 20
80.7766793339
 10
122.0170705484
 20
80.7691771253
 10
122.0353092249
 20
80.76375891
 10
122.0539588239
 20
80.7604840517
 10
122.0728150166
 20
80.7593884309
  0
LINE
  5
421
100
AcDbEntity
  8
ASSI
100
AcDbLine
 62
250
  6
CONTINUOUS
 10
122.968292375
 20
81.2997678688
 11
122.9546887193
 21
81.5975753255
  0
LINE
  5
422
100
AcDbEntity
  8
ASSI
100
AcDbLine
 62
250
  6
CONTINUOUS
 10
122.9771361598
 20
81.0872609541
 11
122.968292375
 21
81.2997678688
  0
LINE
  5
423
100
AcDbEntity
  8
ASSI
100
AcDbLine
 62
250
  6
CONTINUOUS
 10
122.765718133
 20
82.0327030091
 11
122.7525234964
 21
82.3452484365
  0
LINE
  5
424
100
AcDbEntity
  8
ASSI
100
AcDbLine
 62
250
  6
CONTINUOUS
 10
122.7789602789
 20
81.6822295956
 11
122.765718133
 21
82.0327030091
  0
LINE
  5
425
100
AcDbEntity
  8
ASSI
100
AcDbLine
 62
250
  6
CONTINUOUS
 10
122.7888583
 20
81.3897544184
 11
122.7789602789
 21
81.6822295956
  0
LWPOLYLINE
  5
426
100
AcDbEntity
  8
RACCORDO
100
AcDbPolyline
 62
250
  6
CONTINUOUS
 90
10
 70
0
 10
121.34340437
 20
83.0424672978
 10
121.3432866853
 20
83.0466693994
 10
121.3429338031
 20
83.0508646727
 10
121.3423462583
 20
83.0550465354
 10
121.3415249625
 20
83.0592083923
 10
121.3404711813
 20
83.0633437435
 10
121.3391865124
 20
83.0674461913
 10
121.3376729205
 20
83.0715093214
 10
121.3359327554
 20
83.0755267155
 10
121.3339687127
 20
83.0794920568
  0
LWPOLYLINE
  5
427
100
AcDbEntity
  8
RACCORDO
100
AcDbPolyline
 62
250
  6
CONTINUOUS
 90
10
 70
0
 10
121.3434043699
 20
83.5389289273
 10
121.3432868425
 20
83.5431301912
 10
121.3429340706
 20
83.5473248665
 10
121.3423466078
 20
83.5515063696
 10
121.3415253761
 20
83.5556681377
 10
121.3404716646
 20
83.5598036387
 10
121.339187127
 20
83.5639063819
 10
121.3376737795
 20
83.5679699277
 10
121.3359339973
 20
83.5719878985
 10
121.333970511
 20
83.575953988
  0
LINE
  5
428
100
AcDbEntity
  8
RACCORDO
100
AcDbLine
 62
250
  6
CONTINUOUS
 10
121.196022231
 20
125.7006972561
 11
121.1960699242
 21
125.6985748837
  0
LWPOLYLINE
  5
429
100
AcDbEntity
  8
ASSI
100
AcDbPolyline
 62
250
  6
CONTINUOUS
 90
7
 70
0
 10
119.9950738804
 20
127.2068441158
 10
119.9947372605
 20
127.222380537
 10
119.9943696474
 20
127.235428929
 10
119.9939766522
 20
127.2457901596
 10
119.9935642735
 20
127.253306095
 10
119.9931388065
 20
127.2578620258
 10
119.9927067455
 20
127.2593884309
  0
LWPOLYLINE
  5
42A
100
AcDbEntity
  8
RACCORDO
100
AcDbPolyline
 62
250
  6
CONTINUOUS
 90
4
 70
0
 10
121.1961981238
 20
84.1958198755
 10
121.1961572447
 20
84.1985387233
 10
121.1960991854
 20
84.200263987
 10
121.196022231
 20
84.2008682685
  0
LINE
  5
42B
100
AcDbEntity
  8
ASSI
100
AcDbLine
 62
250
  6
CONTINUOUS
 10
119.9956341374
 20
127.1692900525
 11
119.9950738804
 21
127.2068441158
  0
LINE
  5
42C
100
AcDbEntity
  8
ASSI
100
AcDbLine
 62
250
  6
CONTINUOUS
 10
121.7067517115
 20
127.1478443757
 11
121.7062768668
 21
127.1890555261
  0
LWPOLYLINE
  5
42D
100
AcDbEntity
  8
RACCORDO
100
AcDbPolyline
 62
250
  6
CONTINUOUS
 90
17
 70
0
 10
121.3339687127
 20
83.0794920568
 10
121.33400134
 20
83.0755042761
 10
121.3339322022
 20
83.0714794728
 10
121.3337662984
 20
83.0674215457
 10
121.3335107599
 20
83.0633551902
 10
121.3331697962
 20
83.0592631304
 10
121.3327382091
 20
83.0550850258
 10
121.3322129471
 20
83.0508228911
 10
121.3315954677
 20
83.0464794228
 10
121.3308767205
 20
83.0419938717
 10
121.3300480909
 20
83.0373604082
 10
121.3291068188
 20
83.0325894973
 10
121.3280452976
 20
83.0276446034
 10
121.3268517536
 20
83.0225140636
 10
121.3255216123
 20
83.0172161494
 10
121.3240568586
 20
83.0117597313
 10
121.3224517306
 20
83.006147899
  0
LINE
  5
42E
100
AcDbEntity
  8
ASSI
100
AcDbLine
 62
250
  6
CONTINUOUS
 10
119.9960163369
 20
127.125050736
 11
119.9956341374
 21
127.1692900525
  0
LINE
  5
42F
100
AcDbEntity
  8
RACCORDO
100
AcDbLine
 62
250
  6
CONTINUOUS
 10
121.1962245614
 20
123.8413333712
 11
121.196022231
 21
123.8764783153
  0
LINE
  5
430
100
AcDbEntity
  8
RACCORDO
100
AcDbLine
 62
250
  6
CONTINUOUS
 10
121.1960699242
 20
125.6985748837
 11
121.1961485627
 21
125.6815280924
  0
LINE
  5
431
100
AcDbEntity
  8
RACCORDO
100
AcDbLine
 62
250
  6
CONTINUOUS
 10
121.196236591
 20
84.1879215665
 11
121.1961981238
 21
84.1958198755
  0
LINE
  5
432
100
AcDbEntity
  8
ASSI
100
AcDbLine
 62
250
  6
CONTINUOUS
 10
119.996197226
 20
127.0768169246
 11
119.9960163369
 21
127.125050736
  0
LWPOLYLINE
  5
433
100
AcDbEntity
  8
ASSI
100
AcDbPolyline
 62
250
  6
CONTINUOUS
 90
3
 70
0
 10
121.7070997054
 20
127.0768169246
 10
121.7070354135
 20
127.1012528675
 10
121.7067517115
 20
127.1478443757
  0
LWPOLYLINE
  5
434
100
AcDbEntity
  8
0
100
AcDbPolyline
 62
7
  6
CONTINUOUS
 90
13
 70
0
 43
0.3500000006
 10
121.1209560242
 20
153.6209338989
 10
121.1209560242
 20
154.9066589355
 10
121.335240509
 20
155.3352279053
 10
121.7638185425
 20
155.763796875
 10
121.9781030273
 20
155.763796875
 10
122.4066719971
 20
155.3352279053
 10
122.6209564819
 20
154.9066589355
 10
122.6209564819
 20
153.6209338989
 10
122.4066719971
 20
153.1923649292
 10
121.9781030273
 20
152.7637959595
 10
121.7638185425
 20
152.7637959595
 10
121.335240509
 20
153.1923649292
 10
121.1209560242
 20
153.6209338989
  0
LINE
  5
435
100
AcDbEntity
  8
RACCORDO
100
AcDbLine
 62
250
  6
CONTINUOUS
 10
121.196022231
 20
83.7992385822
 11
121.196022231
 21
84.1422985465
  0
LINE
  5
436
100
AcDbEntity
  8
RACCORDO
100
AcDbLine
 62
250
  6
CONTINUOUS
 10
121.196022231
 20
123.8764783153
 11
121.196022231
 21
124.2195298129
  0
LINE
  5
437
100
AcDbEntity
  8
RACCORDO
100
AcDbLine
 62
250
  6
CONTINUOUS
 10
121.3339687127
 20
124.9392848157
 11
121.333969046
 21
124.4428239415
  0
LINE
  5
438
100
AcDbEntity
  8
RACCORDO
100
AcDbLine
 62
250
  6
CONTINUOUS
 10
121.3339705111
 20
83.5759536233
 11
121.3339687127
 21
83.0794920554
  0
LINE
  5
439
100
AcDbEntity
  8
RACCORDO
100
AcDbLine
 62
7
  6
CONTINUOUS
 10
121.34340437
 20
82.4680567601
 11
121.34340437
 21
84.0508911142
  0
LINE
  5
43A
100
AcDbEntity
  8
RACCORDO
100
AcDbLine
 62
7
  6
CONTINUOUS
 10
121.34340437
 20
123.9678857477
 11
121.34340437
 21
125.5507201018
  0
LINE
  5
43B
100
AcDbEntity
  8
RACCORDO
100
AcDbLine
 62
250
  6
CONTINUOUS
 10
121.1962359572
 20
123.8304619121
 11
121.1962245614
 21
123.8413333712
  0
LINE
  5
43C
100
AcDbEntity
  8
RACCORDO
100
AcDbLine
 62
250
  6
CONTINUOUS
 10
121.1961485627
 20
125.6815280924
 11
121.1960222487
 21
125.219913587
  0
LWPOLYLINE
  5
43D
100
AcDbEntity
  8
RACCORDO
100
AcDbPolyline
 62
250
  6
CONTINUOUS
 90
4
 70
0
 10
121.1960222409
 20
82.7988632896
 10
121.1961436104
 20
82.3312674629
 10
121.1960984926
 20
82.3214863812
 10
121.1960222368
 20
82.3180796059
  0
LINE
  5
43E
100
AcDbEntity
  8
RACCORDO
100
AcDbLine
 62
250
  6
CONTINUOUS
 10
121.1962036079
 20
84.1715865296
 11
121.196236591
 21
84.1879215665
  0
LINE
  5
43F
100
AcDbEntity
  8
ASSI
100
AcDbLine
 62
250
  6
CONTINUOUS
 10
119.9960163372
 20
80.8937261724
 11
119.996197226
 21
80.9419599372
  0
LINE
  5
440
100
AcDbEntity
  8
ASSI
100
AcDbLine
 62
250
  6
CONTINUOUS
 10
121.7070997051
 20
80.9419599372
 11
121.706918822
 21
80.893727098
  0
LINE
  5
441
100
AcDbEntity
  8
RACCORDO
100
AcDbLine
 62
250
  6
CONTINUOUS
 10
121.3339979565
 20
124.9448263055
 11
121.33396854
 21
124.9392845047
  0
LINE
  5
442
100
AcDbEntity
  8
RACCORDO
100
AcDbLine
 62
250
  6
CONTINUOUS
 10
121.196022231
 20
84.1422985465
 11
121.1962036079
 21
84.1715865296
  0
LINE
  5
443
100
AcDbEntity
  8
ASSI
100
AcDbLine
 62
250
  6
CONTINUOUS
 10
119.9956341381
 20
80.8494868724
 11
119.9960163372
 21
80.8937261724
  0
LWPOLYLINE
  5
444
100
AcDbEntity
  8
ASSI
100
AcDbPolyline
 62
250
  6
CONTINUOUS
 90
10
 70
0
 10
121.706918822
 20
80.893727098
 10
121.7065366317
 20
80.8494881244
 10
121.7062768665
 20
80.8297213389
 10
121.7059763808
 20
80.8119338663
 10
121.7056397616
 20
80.7963972252
 10
121.705272147
 20
80.7833485755
 10
121.7048791486
 20
80.7729870992
 10
121.7044667653
 20
80.76547096
 10
121.7040412921
 20
80.7609148884
 10
121.7036092235
 20
80.7593884309
  0
LWPOLYLINE
  5
445
100
AcDbEntity
  8
RACCORDO
100
AcDbPolyline
 62
250
  6
CONTINUOUS
 90
10
 70
0
 10
121.34340437
 20
124.9763095713
 10
121.3432866536
 20
124.972108318
 10
121.3429336892
 20
124.9679136587
 10
121.3423460308
 20
124.9637321772
 10
121.3415246007
 20
124.9595704366
 10
121.3404706882
 20
124.9554349689
 10
121.3391859475
 20
124.951332265
 10
121.337672395
 20
124.9472687643
 10
121.3359324065
 20
124.9432508446
 10
121.3339687127
 20
124.9392848124
  0
LWPOLYLINE
  5
446
100
AcDbEntity
  8
RACCORDO
100
AcDbPolyline
 62
250
  6
CONTINUOUS
 90
10
 70
0
 10
121.34340437
 20
124.4798486732
 10
121.3432867538
 20
124.4756484662
 10
121.3429338504
 20
124.4714545625
 10
121.3423462149
 20
124.4672735475
 10
121.341524759
 20
124.4631119685
 10
121.3404707796
 20
124.458976377
 10
121.3391859869
 20
124.4548733144
 10
121.3376724466
 20
124.4508092326
 10
121.335932547
 20
124.4467904874
 10
121.333969046
 20
124.4428233784
  0
LINE
  5
447
100
AcDbEntity
  8
ASSI
100
AcDbLine
 62
250
  6
CONTINUOUS
 10
122.7697976033
 20
126.0897148055
 11
122.7863943462
 21
126.5533982512
  0
LINE
  5
448
100
AcDbEntity
  8
ASSI
100
AcDbLine
 62
250
  6
CONTINUOUS
 10
122.7525234964
 20
125.6735284249
 11
122.7697976033
 21
126.0897148055
  0
LINE
  5
449
100
AcDbEntity
  8
ASSI
100
AcDbLine
 62
250
  6
CONTINUOUS
 10
122.9603808156
 20
126.5420036052
 11
122.9764023471
 21
126.9132081974
  0
LWPOLYLINE
  5
44A
100
AcDbEntity
  8
ASSI
100
AcDbPolyline
 62
250
  6
CONTINUOUS
 90
16
 70
0
 10
121.89242211
 20
127.0593884309
 10
121.8934103212
 20
127.080294124
 10
121.8963641279
 20
127.1009707696
 10
121.9012511673
 20
127.1211918301
 10
121.9080178959
 20
127.1407357591
 10
121.916590176
 20
127.1593884296
 10
121.926874088
 20
127.1769454792
 10
121.9387569591
 20
127.1932145493
 10
121.9521085981
 20
127.2080173926
 10
121.966782722
 20
127.2211918262
 10
121.9826185579
 20
127.2325935082
 10
121.9994426051
 20
127.2420975194
 10
122.0170705367
 20
127.249599732
 10
122.0353092174
 20
127.2550179499
 10
122.0539588203
 20
127.2582928097
 10
122.0728150166
 20
127.2593884309
  0
LINE
  5
44B
100
AcDbEntity
  8
ASSI
100
AcDbLine
 62
250
  6
CONTINUOUS
 10
122.9433211198
 20
126.1938972927
 11
122.9603808156
 21
126.5420036052
  0
LINE
  5
44C
100
AcDbEntity
  8
ASSI
100
AcDbLine
 62
250
  6
CONTINUOUS
 10
122.9256028521
 20
125.871010379
 11
122.9433211198
 21
126.1938972927
  0
LINE
  5
44D
100
AcDbEntity
  8
ASSI
100
AcDbLine
 62
250
  6
CONTINUOUS
 10
122.9135868776
 20
125.6707170555
 11
122.9256028521
 21
125.871010379
  0
LWPOLYLINE
  5
44E
100
AcDbEntity
  8
ASSI
100
AcDbPolyline
 62
250
  6
CONTINUOUS
 90
4
 70
0
 10
118.3229141591
 20
82.237879744
 10
118.3160291109
 20
82.1493115525
 10
118.3091347754
 20
82.0576251062
 10
118.2953015075
 20
81.8648227587
  0
LINE
  5
44F
100
AcDbEntity
  8
ASSI
100
AcDbLine
 62
250
  6
CONTINUOUS
 10
126.3076889017
 20
126.5982109917
 11
126.2784238694
 21
126.4900322215
  0
LWPOLYLINE
  5
450
100
AcDbEntity
  8
RACCORDO
100
AcDbPolyline
 62
250
  6
CONTINUOUS
 90
8
 70
0
 10
113.1468948513
 20
81.3059583445
 10
113.1472404094
 20
81.3070597318
 10
113.1475439556
 20
81.3103391005
 10
113.1478021656
 20
81.3157605356
 10
113.1480122113
 20
81.323264661
 10
113.1481717926
 20
81.3327692931
 10
113.1482791616
 20
81.3441703438
 10
113.1483331437
 20
81.3721428417
  0
LWPOLYLINE
  5
451
100
AcDbEntity
  8
RACCORDO
100
AcDbPolyline
 62
250
  6
CONTINUOUS
 90
10
 70
0
 10
127.7170346218
 20
123.739229049
 10
127.7171356485
 20
123.739527441
 10
127.7171715094
 20
123.7403878928
 10
127.7171400171
 20
123.7418207173
 10
127.7170390006
 20
123.7438178898
 10
127.7168683242
 20
123.746394929
 10
127.7166232954
 20
123.7496311298
 10
127.7162930749
 20
123.7536007829
 10
127.7158728429
 20
123.7583161333
 10
127.7147593786
 20
123.7700358876
  0
LINE
  5
452
100
AcDbEntity
  8
0
100
AcDbLine
 62
7
  6
CONTINUOUS
 10
122.84340437
 20
101.0952417018
 11
122.64340437
 21
101.0663888091
  0
LINE
  5
453
100
AcDbEntity
  8
RACCORDO
100
AcDbLine
 62
7
  6
CONTINUOUS
 10
122.84340437
 20
100.3076648492
 11
119.84340437
 21
100.2974734382
  0
LINE
  5
454
100
AcDbEntity
  8
0
100
AcDbLine
 62
7
  6
CONTINUOUS
 10
122.64340437
 20
101.0663888091
 11
119.84340437
 21
101.0663888091
  0
LINE
  5
455
100
AcDbEntity
  8
ASSI
100
AcDbLine
 62
250
  6
CONTINUOUS
 10
126.3164983466
 20
81.3884918701
 11
126.3227848568
 21
81.3659889018
  0
LINE
  5
456
100
AcDbEntity
  8
ASSI
100
AcDbLine
 62
250
  6
CONTINUOUS
 10
126.2968912432
 20
81.4602640542
 11
126.3164983466
 21
81.3884918701
  0
LINE
  5
457
100
AcDbEntity
  8
ASSI
100
AcDbLine
 62
250
  6
CONTINUOUS
 10
126.2784238694
 20
81.5287446404
 11
126.2968912432
 21
81.4602640542
  0
LWPOLYLINE
  5
458
100
AcDbEntity
  8
ASSI
100
AcDbPolyline
 62
250
  6
CONTINUOUS
 90
13
 70
0
 10
126.4063680061
 20
81.5499753278
 10
126.4111729662
 20
81.52734635
 10
126.4151478841
 20
81.5052672106
 10
126.4182372835
 20
81.4840460593
 10
126.4203980468
 20
81.4639790713
 10
126.4216000171
 20
81.4453463134
 10
126.4218264191
 20
81.4284078356
 10
126.4210740929
 20
81.4134000415
 10
126.4193535384
 20
81.4005323888
 10
126.4166887688
 20
81.3899844662
 10
126.4131169751
 20
81.3819034869
 10
126.4086880075
 20
81.3764022338
 10
126.4034636792
 20
81.3735574857
  0
LWPOLYLINE
  5
459
100
AcDbEntity
  8
RACCORDO
100
AcDbPolyline
 62
250
  6
CONTINUOUS
 90
13
 70
0
 10
121.34340437
 20
125.1077567696
 10
121.3421494244
 20
125.1222366419
 10
121.3384055727
 20
125.1364742258
 10
121.3322354598
 20
125.1502312884
 10
121.3237423286
 20
125.1632776374
 10
121.3130682922
 20
125.1753949722
 10
121.3003919564
 20
125.1863805367
 10
121.2859254314
 20
125.1960505139
 10
121.2699107809
 20
125.2042430986
 10
121.2526159718
 20
125.2108212041
 10
121.2343303921
 20
125.2156747599
 10
121.2153600092
 20
125.2187225535
 10
121.1960222487
 20
125.2199135866
  0
LWPOLYLINE
  5
45A
100
AcDbEntity
  8
RACCORDO
100
AcDbPolyline
 62
250
  6
CONTINUOUS
 90
13
 70
0
 10
121.34340437
 20
125.2414735807
 10
121.3421494183
 20
125.256045204
 10
121.3384055619
 20
125.2703730049
 10
121.3322354456
 20
125.2842172407
 10
121.323742312
 20
125.2973462602
 10
121.3130682741
 20
125.3095403794
 10
121.3003919373
 20
125.320595558
 10
121.2859254108
 20
125.3303268132
 10
121.2699107584
 20
125.3385713148
 10
121.2526159484
 20
125.3451911102
 10
121.2343303695
 20
125.3500754324
 10
121.2153599885
 20
125.3531425535
 10
121.196022231
 20
125.3543411524
  0
LINE
  5
45B
100
AcDbEntity
  8
ASSI
100
AcDbLine
 62
250
  6
CONTINUOUS
 10
121.7653106306
 20
125.9159109255
 11
121.7793576169
 21
125.6905150991
  0
LINE
  5
45C
100
AcDbEntity
  8
ASSI
100
AcDbLine
 62
250
  6
CONTINUOUS
 10
121.7510854421
 20
126.1618074287
 11
121.7653106306
 21
125.9159109255
  0
LINE
  5
45D
100
AcDbEntity
  8
ASSI
100
AcDbLine
 62
250
  6
CONTINUOUS
 10
121.7367386588
 20
126.4310820558
 11
121.7510854421
 21
126.1618074287
  0
LWPOLYLINE
  5
45E
100
AcDbEntity
  8
ASSI
100
AcDbPolyline
 62
250
  6
CONTINUOUS
 90
16
 70
0
 10
122.8016735563
 20
127.0593884309
 10
122.8006693729
 20
127.0802941668
 10
122.7976678287
 20
127.100970841
 10
122.792701813
 20
127.1211919156
 10
122.7858257403
 20
127.1407358408
 10
122.7771149487
 20
127.1593884953
 10
122.7666648716
 20
127.1769455297
 10
122.7545899992
 20
127.193214589
 10
122.7410226284
 20
127.2080174224
 10
122.7261114058
 20
127.221191847
 10
122.7100197027
 20
127.2325935206
 10
122.6929238222
 20
127.2420975251
 10
122.675011067
 20
127.2495997338
 10
122.6564776913
 20
127.2550179502
 10
122.6375267514
 20
127.2582928096
 10
122.6183658777
 20
127.2593884309
  0
LINE
  5
45F
100
AcDbEntity
  8
ASSI
100
AcDbLine
 62
250
  6
CONTINUOUS
 10
121.7224581201
 20
126.7248098596
 11
121.7367386588
 21
126.4310820558
  0
LINE
  5
460
100
AcDbEntity
  8
ASSI
100
AcDbLine
 62
250
  6
CONTINUOUS
 10
121.9268494499
 20
126.0792165041
 11
121.9439493457
 21
125.6876421398
  0
LINE
  5
461
100
AcDbEntity
  8
ASSI
100
AcDbLine
 62
250
  6
CONTINUOUS
 10
121.7070997055
 20
127.0768169246
 11
121.7224581201
 21
126.7248098596
  0
LINE
  5
462
100
AcDbEntity
  8
ASSI
100
AcDbLine
 62
250
  6
CONTINUOUS
 10
122.9828229348
 20
80.9419599372
 11
122.9771361598
 21
81.0872609541
  0
LINE
  5
463
100
AcDbEntity
  8
ASSI
100
AcDbLine
 62
250
  6
CONTINUOUS
 10
121.9129510811
 20
126.4379289216
 11
121.9268494499
 21
126.0792165041
  0
LINE
  5
464
100
AcDbEntity
  8
ASSI
100
AcDbLine
 62
250
  6
CONTINUOUS
 10
121.8991396444
 20
126.8414290679
 11
121.9129510811
 21
126.4379289216
  0
LINE
  5
465
100
AcDbEntity
  8
ASSI
100
AcDbLine
 62
250
  6
CONTINUOUS
 10
121.8924221101
 20
127.0593884309
 11
121.8991396444
 21
126.8414290679
  0
LINE
  5
466
100
AcDbEntity
  8
ASSI
100
AcDbLine
 62
250
  6
CONTINUOUS
 10
122.8016735446
 20
80.9593884309
 11
122.7888583
 21
81.3897544184
  0
LWPOLYLINE
  5
467
100
AcDbEntity
  8
ASSI
100
AcDbPolyline
 62
250
  6
CONTINUOUS
 90
7
 70
0
 10
122.9816996314
 20
127.2068429856
 10
122.9813630123
 20
127.2223796302
 10
122.980995398
 20
127.2354282828
 10
122.9806023998
 20
127.2457897609
 10
122.9801900167
 20
127.2533059013
 10
122.9797645436
 20
127.2578619734
 10
122.9793324752
 20
127.2593884309
  0
LWPOLYLINE
  5
468
100
AcDbEntity
  8
ASSI
100
AcDbPolyline
 62
250
  6
CONTINUOUS
 90
8
 70
0
 10
121.7062768668
 20
127.1890555261
 10
121.7059763812
 20
127.2068429977
 10
121.7056397619
 20
127.2223796382
 10
121.7052721474
 20
127.2354282874
 10
121.7048791491
 20
127.2457897632
 10
121.7044667658
 20
127.2533059022
 10
121.7040412926
 20
127.2578619736
 10
121.703609224
 20
127.2593884309
  0
LINE
  5
469
100
AcDbEntity
  8
ASSI
100
AcDbLine
 62
250
  6
CONTINUOUS
 10
122.9822598819
 20
127.1692887175
 11
122.9816996314
 21
127.2068429856
  0
LINE
  5
46A
100
AcDbEntity
  8
ASSI
100
AcDbLine
 62
250
  6
CONTINUOUS
 10
122.9826420719
 20
127.1250497447
 11
122.9822598819
 21
127.1692887175
  0
LINE
  5
46B
100
AcDbEntity
  8
ASSI
100
AcDbLine
 62
250
  6
CONTINUOUS
 10
122.9828229548
 20
127.0768169246
 11
122.9826420719
 21
127.1250497447
  0
LINE
  5
46C
100
AcDbEntity
  8
DRAFT
100
AcDbLine
 62
7
  6
CONTINUOUS
 10
122.84340437
 20
88.7593884309
 11
122.84340437
 21
119.2593884309
  0
LINE
  5
46D
100
AcDbEntity
  8
DRAFT
100
AcDbLine
 62
7
  6
CONTINUOUS
 10
123.6110756601
 20
95.9919653881
 11
123.6110756601
 21
112.0268114738
  0
LINE
  5
46E
100
AcDbEntity
  8
ASSI
100
AcDbLine
 62
250
  6
CONTINUOUS
 10
124.0490177949
 20
80.9419599372
 11
124.048953503
 21
80.9175239938
  0
LINE
  5
46F
100
AcDbEntity
  8
ASSI
100
AcDbLine
 62
250
  6
CONTINUOUS
 10
122.9828229359
 20
80.9419599372
 11
122.982642052
 21
80.8937270796
  0
LINE
  5
470
100
AcDbEntity
  8
ASSI
100
AcDbLine
 62
250
  6
CONTINUOUS
 10
122.982642052
 20
80.8937270796
 11
122.9822598615
 21
80.8494881044
  0
LWPOLYLINE
  5
471
100
AcDbEntity
  8
ASSI
100
AcDbPolyline
 62
250
  6
CONTINUOUS
 90
8
 70
0
 10
122.9822598615
 20
80.8494881044
 10
122.9816996111
 20
80.811933855
 10
122.981362992
 20
80.7963972168
 10
122.9809953776
 20
80.7833485697
 10
122.9806023793
 20
80.7729870958
 10
122.980189996
 20
80.7654709583
 10
122.9797645226
 20
80.7609148879
 10
122.9793324537
 20
80.7593884309
  0
LINE
  5
472
100
AcDbEntity
  8
ASSI
100
AcDbLine
 62
250
  6
CONTINUOUS
 10
122.7863943462
 20
126.5533982512
 11
122.8016735447
 21
127.0593884309
  0
LINE
  5
473
100
AcDbEntity
  8
ASSI
100
AcDbLine
 62
250
  6
CONTINUOUS
 10
121.9085623952
 20
81.4583633849
 11
121.8924221102
 21
80.9593884309
  0
LINE
  5
474
100
AcDbEntity
  8
ASSI
100
AcDbLine
 62
250
  6
CONTINUOUS
 10
122.9764023471
 20
126.9132081974
 11
122.9828229563
 21
127.0768169246
  0
LINE
  5
475
100
AcDbEntity
  8
ASSI
100
AcDbLine
 62
250
  6
CONTINUOUS
 10
121.9259382798
 20
81.9172334732
 11
121.9085623952
 21
81.4583633849
  0
LINE
  5
476
100
AcDbEntity
  8
ASSI
100
AcDbLine
 62
250
  6
CONTINUOUS
 10
121.7193966205
 20
81.2268693257
 11
121.707099705
 21
80.9419599372
  0
LINE
  5
477
100
AcDbEntity
  8
ASSI
100
AcDbLine
 62
250
  6
CONTINUOUS
 10
121.9439493457
 20
82.3311347216
 11
121.9259382798
 21
81.9172334732
  0
LWPOLYLINE
  5
478
100
AcDbEntity
  8
ASSI
100
AcDbPolyline
 62
250
  6
CONTINUOUS
 90
16
 70
0
 10
122.8016735393
 20
80.9593884309
 10
122.8006693615
 20
80.9384827466
 10
122.7976678297
 20
80.917806107
 10
122.7927018286
 20
80.8975850497
 10
122.785825766
 20
80.8780411204
 10
122.777114977
 20
80.8593884473
 10
122.7666648992
 20
80.8418313948
 10
122.7545900261
 20
80.825562322
 10
122.7410226523
 20
80.810759476
 10
122.7261114249
 20
80.7975850402
 10
122.7100197149
 20
80.7861833566
 10
122.692923826
 20
80.7766793442
 10
122.6750110639
 20
80.7691771308
 10
122.6564776842
 20
80.7637589124
 10
122.6375267427
 20
80.7604840523
 10
122.61836587
 20
80.7593884309
  0
LINE
  5
479
100
AcDbEntity
  8
ASSI
100
AcDbLine
 62
250
  6
CONTINUOUS
 10
121.7365672428
 20
81.5842676408
 11
121.7193966205
 21
81.2268693257
  0
LINE
  5
47A
100
AcDbEntity
  8
ASSI
100
AcDbLine
 62
250
  6
CONTINUOUS
 10
121.7546008706
 20
81.9194703099
 11
121.7365672428
 21
81.5842676408
  0
LWPOLYLINE
  5
47B
100
AcDbEntity
  8
ASSI
100
AcDbPolyline
 62
250
  6
CONTINUOUS
 90
3
 70
0
 10
121.7793552915
 20
82.3282617206
 10
121.7731081751
 20
82.2302556949
 10
121.7546008706
 20
81.9194703099
  0
LWPOLYLINE
  5
47C
100
AcDbEntity
  8
RACCORDO
100
AcDbPolyline
 62
250
  6
CONTINUOUS
 90
13
 70
0
 10
121.34340437
 20
82.7773032812
 10
121.3421494522
 20
82.7627318541
 10
121.3384056825
 20
82.7484041996
 10
121.3322356819
 20
82.7345600558
 10
121.3237426675
 20
82.7214310712
 10
121.3130687307
 20
82.709236937
 10
121.300392465
 20
82.6981817078
 10
121.285925964
 20
82.6884503748
 10
121.2699112826
 20
82.6802057809
 10
121.2526163991
 20
82.6735858974
 10
121.2343307085
 20
82.6687015018
 10
121.2153601753
 20
82.6656343292
 10
121.196022231
 20
82.6644357095
  0
LWPOLYLINE
  5
47D
100
AcDbEntity
  8
RACCORDO
100
AcDbPolyline
 62
250
  6
CONTINUOUS
 90
13
 70
0
 10
121.34340437
 20
82.9110200837
 10
121.3421494232
 20
82.8965402271
 10
121.3384055709
 20
82.8823026569
 10
121.332235458
 20
82.8685456061
 10
121.323742327
 20
82.8554992669
 10
121.3130682908
 20
82.8433819399
 10
121.300391955
 20
82.8323963807
 10
121.2859254286
 20
82.8227264071
 10
121.2699107757
 20
82.814533824
 10
121.2526159645
 20
82.8079557152
 10
121.2343303839
 20
82.8031021503
 10
121.2153600008
 20
82.8000543425
 10
121.1960222409
 20
82.7988632898
  0
LWPOLYLINE
  5
47E
100
AcDbEntity
  8
ASSI
100
AcDbPolyline
 62
250
  6
CONTINUOUS
 90
8
 70
0
 10
115.1468948513
 20
80.0670510718
 10
115.1472358905
 20
80.0681221992
 10
115.1475372442
 20
80.0713286848
 10
115.1477951642
 20
80.0766615113
 10
115.1480065562
 20
80.0840991628
 10
115.1481681483
 20
80.0935788251
 10
115.1482772209
 20
80.1049703161
 10
115.1483336798
 20
80.1329209881
  0
LINE
  5
47F
100
AcDbEntity
  8
ASSI
100
AcDbLine
 62
250
  6
CONTINUOUS
 10
115.2007550951
 20
80.8713209606
 11
115.1917252077
 21
80.8450147114
  0
LINE
  5
480
100
AcDbEntity
  8
ASSI
100
AcDbLine
 62
250
  6
CONTINUOUS
 10
114.7628385313
 20
81.0270370838
 11
114.7508655034
 21
80.9923726219
  0
LINE
  5
481
100
AcDbEntity
  8
ASSI
100
AcDbLine
 62
250
  6
CONTINUOUS
 10
115.1917252077
 20
80.8450147114
 11
115.1805914289
 21
80.8132385925
  0
LINE
  5
482
100
AcDbEntity
  8
ASSI
100
AcDbLine
 62
250
  6
CONTINUOUS
 10
114.7508655034
 20
80.9923726219
 11
114.7358983585
 21
80.9499951025
  0
LINE
  5
483
100
AcDbEntity
  8
ASSI
100
AcDbLine
 62
250
  6
CONTINUOUS
 10
115.1805914289
 20
80.8132385925
 11
115.1610354395
 21
80.7584193043
  0
LWPOLYLINE
  5
484
100
AcDbEntity
  8
ASSI
100
AcDbPolyline
 62
250
  6
CONTINUOUS
 90
3
 70
0
 10
114.7358983585
 20
80.9499951025
 10
114.7189493892
 20
80.9027707008
 10
114.7100867939
 20
80.8783320542
  0
LINE
  5
485
100
AcDbEntity
  8
ASSI
100
AcDbLine
 62
250
  6
CONTINUOUS
 10
115.1610354395
 20
80.7584193043
 11
115.1468948513
 21
80.7193469233
  0
LINE
  5
486
100
AcDbEntity
  8
RACCORDO
100
AcDbLine
 62
7
  6
CONTINUOUS
 10
122.84340437
 20
102.605761888
 11
119.84340437
 21
102.595570477
  0
LINE
  5
487
100
AcDbEntity
  8
ASSI
100
AcDbLine
 62
250
  6
CONTINUOUS
 10
114.7100867939
 20
127.1404448076
 11
114.727602221
 21
127.091982499
  0
LINE
  5
488
100
AcDbEntity
  8
ASSI
100
AcDbLine
 62
250
  6
CONTINUOUS
 10
115.1468948513
 20
127.2994299386
 11
115.1678496357
 21
127.2413703814
  0
LINE
  5
489
100
AcDbEntity
  8
ASSI
100
AcDbLine
 62
250
  6
CONTINUOUS
 10
114.727602221
 20
127.091982499
 11
114.7436969276
 21
127.0467979062
  0
LINE
  5
48A
100
AcDbEntity
  8
ASSI
100
AcDbLine
 62
250
  6
CONTINUOUS
 10
115.1678496357
 20
127.2413703814
 11
115.1805914289
 21
127.2055382693
  0
LINE
  5
48B
100
AcDbEntity
  8
ASSI
100
AcDbLine
 62
250
  6
CONTINUOUS
 10
115.1805914289
 20
127.2055382693
 11
115.1917252077
 21
127.1737621504
  0
LWPOLYLINE
  5
48C
100
AcDbEntity
  8
ASSI
100
AcDbPolyline
 62
250
  6
CONTINUOUS
 90
8
 70
0
 10
114.7436969276
 20
127.0467979062
 10
114.7572823589
 20
127.0079470589
 10
114.7628385313
 20
126.991739778
 10
114.7674396733
 20
126.978057608
 10
114.7710076544
 20
126.9671328812
 10
114.7734818879
 20
126.9591511067
 10
114.7748203596
 20
126.9542478204
 10
114.7750003413
 20
126.9525062835
  0
LWPOLYLINE
  5
48D
100
AcDbEntity
  8
ASSI
100
AcDbPolyline
 62
250
  6
CONTINUOUS
 90
8
 70
0
 10
115.1917252077
 20
127.1737621504
 10
115.2007550951
 20
127.1474559012
 10
115.204342845
 20
127.1367561409
 10
115.207262621
 20
127.1278411572
 10
115.2094834244
 20
127.1208071702
 10
115.2109864076
 20
127.1157167269
 10
115.2117622144
 20
127.1126057031
 10
115.2118083987
 20
127.1114914144
  0
LINE
  5
48E
100
AcDbEntity
  8
ASSI
100
AcDbLine
 62
250
  6
CONTINUOUS
 10
124.0478944708
 20
127.2068429984
 11
124.0484547215
 21
127.1692887425
  0
LWPOLYLINE
  5
48F
100
AcDbEntity
  8
ASSI
100
AcDbPolyline
 62
250
  6
CONTINUOUS
 90
4
 70
0
 10
124.0484547215
 20
127.1692887425
 10
124.0488369118
 20
127.1250497685
 10
124.048953503
 20
127.101252868
 10
124.0490177949
 20
127.0768169246
  0
LWPOLYLINE
  5
490
100
AcDbEntity
  8
0
100
AcDbPolyline
 62
7
  6
CONTINUOUS
 90
2
 70
0
 43
0.3500000006
 10
125.0781039734
 20
143.0042352905
 10
125.0781039734
 20
144.5042266846
  0
LINE
  5
491
100
AcDbEntity
  8
ASSI
100
AcDbLine
 62
250
  6
CONTINUOUS
 10
124.048953503
 20
80.9175239938
 11
124.0486698011
 21
80.8709324851
  0
LWPOLYLINE
  5
492
100
AcDbEntity
  8
ASSI
100
AcDbPolyline
 62
250
  6
CONTINUOUS
 90
9
 70
0
 10
124.0486698011
 20
80.8709324851
 10
124.0481949564
 20
80.8297213348
 10
124.0478944708
 20
80.8119338634
 10
124.0475578515
 20
80.7963972231
 10
124.047190237
 20
80.7833485741
 10
124.0467972386
 20
80.7729870984
 10
124.0463848554
 20
80.7654709596
 10
124.0459593822
 20
80.7609148883
 10
124.0455273136
 20
80.7593884309
  0
LWPOLYLINE
  5
493
100
AcDbEntity
  8
RACCORDO
100
AcDbPolyline
 62
250
  6
CONTINUOUS
 90
22
 70
0
 10
127.734405472
 20
126.1129549676
 10
127.7361818986
 20
126.1238774997
 10
127.7378381042
 20
126.1347598923
 10
127.7393640717
 20
126.1455664455
 10
127.7407349096
 20
126.1561738653
 10
127.7419600561
 20
126.1666354224
 10
127.7430661168
 20
126.1771636702
 10
127.7440335575
 20
126.1877999573
 10
127.7448267848
 20
126.1983732326
 10
127.7454358455
 20
126.2087580651
 10
127.745840207
 20
126.2188801883
 10
127.7460168039
 20
126.2286674571
 10
127.7459599402
 20
126.2380030461
 10
127.7456557172
 20
126.2467748648
 10
127.7450896327
 20
126.2549486637
 10
127.7442513114
 20
126.2625072957
 10
127.7431201385
 20
126.2693335495
 10
127.7416790564
 20
126.2753420595
 10
127.7398996032
 20
126.2804916586
 10
127.737745791
 20
126.2846382934
 10
127.735194737
 20
126.2875894569
 10
127.7322272268
 20
126.2891782567
  0
LWPOLYLINE
  5
494
100
AcDbEntity
  8
0
100
AcDbPolyline
 62
7
  6
CONTINUOUS
 90
10
 70
0
 10
138.3369599656
 20
115.487527923
 10
138.3493978831
 20
115.4991960062
 10
138.3614129322
 20
115.5108459766
 10
138.3730051174
 20
115.522477789
 10
138.3841812016
 20
115.5340985225
 10
138.3949344315
 20
115.5457010003
 10
138.4052445342
 20
115.5572638236
 10
138.4151047517
 20
115.5687798626
 10
138.4245218443
 20
115.5802562229
 10
138.4334958137
 20
115.5916928891
  0
LINE
  5
495
100
AcDbEntity
  8
0
100
AcDbLine
 62
7
  6
CONTINUOUS
 10
119.84340437
 20
104.8093884309
 11
117.84340437
 21
104.8093884309
  0
LINE
  5
496
100
AcDbEntity
  8
RACCORDO
100
AcDbLine
 62
7
  6
CONTINUOUS
 10
122.84340437
 20
105.4130149738
 11
119.84340437
 21
105.4232063849
  0
LWPOLYLINE
  5
497
100
AcDbEntity
  8
0
100
AcDbPolyline
 62
7
  6
CONTINUOUS
 90
10
 70
0
 10
138.3369599656
 20
92.5314431314
 10
138.3495112104
 20
92.5196521124
 10
138.3616120823
 20
92.5078976369
 10
138.3732625813
 20
92.4961797049
 10
138.3844693132
 20
92.4844880388
 10
138.3952256721
 20
92.4728329162
 10
138.405511841
 20
92.4612451696
 10
138.415321214
 20
92.4497350764
 10
138.4246603969
 20
92.4382923592
 10
138.4335293897
 20
92.426917018
  0
LWPOLYLINE
  5
498
100
AcDbEntity
  8
RACCORDO
100
AcDbPolyline
 62
250
  6
CONTINUOUS
 90
12
 70
0
 10
119.8421494186
 20
121.6611576288
 10
119.838405563
 20
121.6730501671
 10
119.8322354479
 20
121.684541331
 10
119.8237423155
 20
121.6954388425
 10
119.8130682788
 20
121.7055603569
 10
119.8003919429
 20
121.714736514
 10
119.7859254168
 20
121.722813772
 10
119.7699107643
 20
121.7296569764
 10
119.7526159537
 20
121.7351516221
 10
119.7343303735
 20
121.7392057686
 10
119.7153599907
 20
121.7417515791
 10
119.696022231
 20
121.7427464553
  0
LWPOLYLINE
  5
499
100
AcDbEntity
  8
RACCORDO
100
AcDbPolyline
 62
250
  6
CONTINUOUS
 90
4
 70
0
 10
119.8421492495
 20
122.1097069325
 10
119.8384052567
 20
122.1219015454
 10
119.8322350381
 20
122.1336845748
 10
119.8237418366
 20
122.1448588599
  0
LWPOLYLINE
  5
49A
100
AcDbEntity
  8
RACCORDO
100
AcDbPolyline
 62
250
  6
CONTINUOUS
 90
4
 70
0
 10
127.6963773425
 20
124.6320929507
 10
127.6962739067
 20
124.6368240172
 10
127.696155883
 20
124.640852302
 10
127.696022231
 20
124.6440717684
  0
LWPOLYLINE
  5
49B
100
AcDbEntity
  8
RACCORDO
100
AcDbPolyline
 62
250
  6
CONTINUOUS
 90
4
 70
0
 10
127.6965460655
 20
83.2657522419
 10
127.6964020832
 20
83.2755898486
 10
127.6962277118
 20
83.2833456739
 10
127.6960220385
 20
83.2888537729
  0
LWPOLYLINE
  5
49C
100
AcDbEntity
  8
RACCORDO
100
AcDbPolyline
 62
250
  6
CONTINUOUS
 90
5
 70
0
 10
127.6968992091
 20
125.5623339837
 10
127.6967484063
 20
125.5727190262
 10
127.6965527219
 20
125.5805773225
 10
127.6963106226
 20
125.5855222623
 10
127.696022231
 20
125.587239334
  0
LINE
  5
49D
100
AcDbEntity
  8
RACCORDO
100
AcDbLine
 62
250
  6
CONTINUOUS
 10
127.6965451581
 20
124.6210057121
 11
127.6963773425
 21
124.6320929507
  0
LINE
  5
49E
100
AcDbEntity
  8
RACCORDO
100
AcDbLine
 62
250
  6
CONTINUOUS
 10
127.6967165141
 20
124.6006932295
 11
127.6965451581
 21
124.6210057121
  0
LINE
  5
49F
100
AcDbEntity
  8
RACCORDO
100
AcDbLine
 62
250
  6
CONTINUOUS
 10
127.6968965965
 20
82.5733538501
 11
127.696022231
 21
82.6814994516
  0
LINE
  5
4A0
100
AcDbEntity
  8
RACCORDO
100
AcDbLine
 62
250
  6
CONTINUOUS
 10
127.6967407761
 20
83.2405475197
 11
127.6965460655
 21
83.2657522419
  0
LINE
  5
4A1
100
AcDbEntity
  8
RACCORDO
100
AcDbLine
 62
250
  6
CONTINUOUS
 10
127.6966692076
 20
83.5238282436
 11
127.696022231
 21
83.620869534
  0
LINE
  5
4A2
100
AcDbEntity
  8
RACCORDO
100
AcDbLine
 62
250
  6
CONTINUOUS
 10
127.6970760521
 20
125.535047874
 11
127.6968992091
 21
125.5623339837
  0
LINE
  5
4A3
100
AcDbEntity
  8
RACCORDO
100
AcDbLine
 62
250
  6
CONTINUOUS
 10
127.6967389004
 20
124.861358375
 11
127.6960220637
 21
124.9760875291
  0
LINE
  5
4A4
100
AcDbEntity
  8
RACCORDO
100
AcDbLine
 62
250
  6
CONTINUOUS
 10
127.6971037172
 20
82.5097800397
 11
127.6968965965
 21
82.5733538501
  0
LINE
  5
4A5
100
AcDbEntity
  8
RACCORDO
100
AcDbLine
 62
250
  6
CONTINUOUS
 10
127.6968180659
 20
124.5668457228
 11
127.6967165141
 21
124.6006932295
  0
LINE
  5
4A6
100
AcDbEntity
  8
RACCORDO
100
AcDbLine
 62
250
  6
CONTINUOUS
 10
127.6968213524
 20
83.4588263261
 11
127.6966692076
 21
83.5238282436
  0
LWPOLYLINE
  5
4A7
100
AcDbEntity
  8
0
100
AcDbPolyline
 62
7
  6
CONTINUOUS
 90
2
 70
0
 43
0.3500000006
 10
126.1923887329
 20
152.7637959595
 10
126.1923887329
 20
154.263805481
  0
LINE
  5
4A8
100
AcDbEntity
  8
ASSI
100
AcDbLine
 62
250
  6
CONTINUOUS
 10
126.2784238694
 20
81.5287446404
 11
126.2784238694
 21
82.4067932564
  0
LINE
  5
4A9
100
AcDbEntity
  8
ASSI
100
AcDbLine
 62
250
  6
CONTINUOUS
 10
126.2784238694
 20
125.6119836055
 11
126.2784238694
 21
126.4900322215
  0
LINE
  5
4AA
100
AcDbEntity
  8
ASSI
100
AcDbLine
 62
250
  6
CONTINUOUS
 10
126.4063680061
 20
81.5499753278
 11
126.4063680061
 21
82.4090265296
  0
LINE
  5
4AB
100
AcDbEntity
  8
ASSI
100
AcDbLine
 62
250
  6
CONTINUOUS
 10
126.4063680061
 20
125.6097503323
 11
126.4063680061
 21
126.4688015341
  0
LINE
  5
4AC
100
AcDbEntity
  8
RACCORDO
100
AcDbLine
 62
250
  6
CONTINUOUS
 10
127.696022231
 20
82.6814994516
 11
127.696022231
 21
83.0426893352
  0
LINE
  5
4AD
100
AcDbEntity
  8
RACCORDO
100
AcDbLine
 62
250
  6
CONTINUOUS
 10
127.696022231
 20
83.2888537757
 11
127.696022231
 21
83.3747050935
  0
LINE
  5
4AE
100
AcDbEntity
  8
RACCORDO
100
AcDbLine
 62
250
  6
CONTINUOUS
 10
127.696022231
 20
83.620869534
 11
127.696022231
 21
84.0809277847
  0
LINE
  5
4AF
100
AcDbEntity
  8
RACCORDO
100
AcDbLine
 62
250
  6
CONTINUOUS
 10
127.696022231
 20
123.9378490771
 11
127.696022231
 21
124.3979073279
  0
LINE
  5
4B0
100
AcDbEntity
  8
RACCORDO
100
AcDbLine
 62
250
  6
CONTINUOUS
 10
127.696022231
 20
124.6440717684
 11
127.696022231
 21
124.7299230861
  0
LINE
  5
4B1
100
AcDbEntity
  8
RACCORDO
100
AcDbLine
 62
250
  6
CONTINUOUS
 10
127.696022231
 20
124.9760875266
 11
127.696022231
 21
125.3372774103
  0
LINE
  5
4B2
100
AcDbEntity
  8
RACCORDO
100
AcDbLine
 62
250
  6
CONTINUOUS
 10
127.6968198637
 20
124.8066514204
 11
127.6967389004
 21
124.861358375
  0
LINE
  5
4B3
100
AcDbEntity
  8
RACCORDO
100
AcDbLine
 62
250
  6
CONTINUOUS
 10
127.734405472
 20
81.9058218943
 11
127.734405472
 21
82.4372270886
  0
LINE
  5
4B4
100
AcDbEntity
  8
RACCORDO
100
AcDbLine
 62
250
  6
CONTINUOUS
 10
127.734405472
 20
125.5815497733
 11
127.734405472
 21
126.1129549676
  0
LINE
  5
4B5
100
AcDbEntity
  8
RACCORDO
100
AcDbLine
 62
7
  6
CONTINUOUS
 10
127.84340437
 20
81.8744874791
 11
127.84340437
 21
84.1314208025
  0
LINE
  5
4B6
100
AcDbEntity
  8
RACCORDO
100
AcDbLine
 62
7
  6
CONTINUOUS
 10
127.84340437
 20
123.8873560594
 11
127.84340437
 21
126.1442893827
  0
LWPOLYLINE
  5
4B7
100
AcDbEntity
  8
0
100
AcDbPolyline
 62
7
  6
CONTINUOUS
 90
4
 70
0
 43
0.3500000006
 10
128.1495270081
 20
145.361364624
 10
128.1495270081
 20
146.0042180786
 10
129.6495274658
 20
146.0042180786
 10
128.7923895264
 20
143.0042352905
  0
LINE
  5
4B8
100
AcDbEntity
  8
RACCORDO
100
AcDbLine
 62
250
  6
CONTINUOUS
 10
127.6968172812
 20
83.1921766904
 11
127.6967407761
 21
83.2405475197
  0
LINE
  5
4B9
100
AcDbEntity
  8
RACCORDO
100
AcDbLine
 62
250
  6
CONTINUOUS
 10
127.697050075
 20
125.4807053865
 11
127.6970760521
 21
125.535047874
  0
LINE
  5
4BA
100
AcDbEntity
  8
RACCORDO
100
AcDbLine
 62
250
  6
CONTINUOUS
 10
127.6970529911
 20
82.4774639398
 11
127.6971037172
 21
82.5097800397
  0
LINE
  5
4BB
100
AcDbEntity
  8
RACCORDO
100
AcDbLine
 62
250
  6
CONTINUOUS
 10
127.6967037949
 20
124.5032345051
 11
127.6968180659
 21
124.5668457228
  0
LINE
  5
4BC
100
AcDbEntity
  8
RACCORDO
100
AcDbLine
 62
250
  6
CONTINUOUS
 10
127.6967314533
 20
124.7763208303
 11
127.6968198637
 21
124.8066514204
  0
LINE
  5
4BD
100
AcDbEntity
  8
RACCORDO
100
AcDbLine
 62
250
  6
CONTINUOUS
 10
127.6967448309
 20
83.4234756242
 11
127.6968213524
 21
83.4588263261
  0
LINE
  5
4BE
100
AcDbEntity
  8
RACCORDO
100
AcDbLine
 62
250
  6
CONTINUOUS
 10
127.6965267226
 20
83.1116783566
 11
127.6968172812
 21
83.1921766904
  0
LINE
  5
4BF
100
AcDbEntity
  8
RACCORDO
100
AcDbLine
 62
250
  6
CONTINUOUS
 10
127.6964952305
 20
125.387805187
 11
127.697050075
 21
125.4807053865
  0
LINE
  5
4C0
100
AcDbEntity
  8
RACCORDO
100
AcDbLine
 62
250
  6
CONTINUOUS
 10
127.696022066
 20
83.0426893328
 11
127.6965267226
 21
83.1116783566
  0
LINE
  5
4C1
100
AcDbEntity
  8
RACCORDO
100
AcDbLine
 62
250
  6
CONTINUOUS
 10
127.696022231
 20
124.3979073279
 11
127.6967037949
 21
124.5032345051
  0
LINE
  5
4C2
100
AcDbEntity
  8
RACCORDO
100
AcDbLine
 62
250
  6
CONTINUOUS
 10
127.6965973616
 20
83.4025219639
 11
127.6967448309
 21
83.4234756242
  0
LINE
  5
4C3
100
AcDbEntity
  8
RACCORDO
100
AcDbLine
 62
250
  6
CONTINUOUS
 10
127.696022231
 20
125.3372774103
 11
127.6964952305
 21
125.387805187
  0
LINE
  5
4C4
100
AcDbEntity
  8
RACCORDO
100
AcDbLine
 62
250
  6
CONTINUOUS
 10
127.6964611622
 20
83.3915637308
 11
127.6965973616
 21
83.4025219639
  0
LWPOLYLINE
  5
4C5
100
AcDbEntity
  8
RACCORDO
100
AcDbPolyline
 62
250
  6
CONTINUOUS
 90
5
 70
0
 10
127.6960220526
 20
124.7299230887
 10
127.6962225295
 20
124.7351915254
 10
127.6963925565
 20
124.7425906369
 10
127.6965335817
 20
124.7519994786
 10
127.6967314533
 20
124.7763208303
  0
LWPOLYLINE
  5
4C6
100
AcDbEntity
  8
RACCORDO
100
AcDbPolyline
 62
7
  6
CONTINUOUS
 90
5
 70
0
 10
128.9109951369
 20
110.2518052047
 10
128.9131680893
 20
110.267932635
 10
128.9163452704
 20
110.2899077272
 10
128.9205335207
 20
110.3174261495
 10
128.9258203097
 20
110.3501134363
  0
LWPOLYLINE
  5
4C7
100
AcDbEntity
  8
RACCORDO
100
AcDbPolyline
 62
7
  6
CONTINUOUS
 90
3
 70
0
 10
128.9258203097
 20
110.3501134363
 10
128.9392083632
 20
110.4292290651
 10
128.9470854212
 20
110.4746443085
  0
LWPOLYLINE
  5
4C8
100
AcDbEntity
  8
RACCORDO
100
AcDbPolyline
 62
7
  6
CONTINUOUS
 90
3
 70
0
 10
128.9470854212
 20
110.4746443085
 10
128.9842366469
 20
110.6817379758
 10
128.9946002261
 20
110.7366749409
  0
LWPOLYLINE
  5
4C9
100
AcDbEntity
  8
ASSI
100
AcDbPolyline
 62
250
  6
CONTINUOUS
 90
8
 70
0
 10
119.9927067447
 20
80.7593884309
 10
119.9931388064
 20
80.7609148386
 10
119.993564274
 20
80.765470776
 10
119.9939766529
 20
80.7729867213
 10
119.9943696484
 20
80.7833479636
 10
119.9947372616
 20
80.7963963679
 10
119.9950738815
 20
80.8119327997
 10
119.9956341381
 20
80.8494868724
  0
LWPOLYLINE
  5
4CA
100
AcDbEntity
  8
RACCORDO
100
AcDbPolyline
 62
250
  6
CONTINUOUS
 90
3
 70
0
 10
121.3224517306
 20
83.006147899
 10
121.320699601
 20
83.0003867324
 10
121.3188039137
 20
82.9944900403
  0
LWPOLYLINE
  5
4CB
100
AcDbEntity
  8
ASSI
100
AcDbPolyline
 62
250
  6
CONTINUOUS
 90
13
 70
0
 10
119.4316020422
 20
80.8454625156
 10
119.4356278239
 20
80.8577912576
 10
119.4391615357
 20
80.8698821856
 10
119.4422031775
 20
80.8817352996
 10
119.4447209509
 20
80.8933631953
 10
119.4467466544
 20
80.9047532771
 10
119.4483756835
 20
80.9158677577
 10
119.4496114306
 20
80.9266893939
 10
119.4504505033
 20
80.9372354289
 10
119.4509781198
 20
80.9475198052
 10
119.4512226862
 20
80.9575471704
 10
119.4511557964
 20
80.9673128768
 10
119.4507774504
 20
80.9768169246
  0
LWPOLYLINE
  5
4CC
100
AcDbEntity
  8
RACCORDO
100
AcDbPolyline
 62
250
  6
CONTINUOUS
 90
9
 70
0
 10
121.3188039137
 20
82.9944900403
 10
121.3167636236
 20
82.9884710837
 10
121.314571777
 20
82.9823278254
 10
121.3122238953
 20
82.9760517043
 10
121.3097165504
 20
82.9696517033
 10
121.3070452242
 20
82.9631328719
 10
121.3042023898
 20
82.9564819553
 10
121.301184966
 20
82.9497104376
 10
121.2979882559
 20
82.942824603
  0
LWPOLYLINE
  5
4CD
100
AcDbEntity
  8
ASSI
100
AcDbPolyline
 62
250
  6
CONTINUOUS
 90
13
 70
0
 10
119.2701871875
 20
80.8937109738
 10
119.2723341206
 20
80.8998595813
 10
119.2741880814
 20
80.9059086319
 10
119.2757600624
 20
80.9118476161
 10
119.2770542477
 20
80.9176656574
 10
119.2780888425
 20
80.9233555613
 10
119.2788957769
 20
80.9289138475
 10
119.2794871293
 20
80.9343276828
 10
119.2798729042
 20
80.9395972094
 10
119.2800800997
 20
80.944739872
 10
119.2801231027
 20
80.9497588504
 10
119.2800052937
 20
80.9546428006
 10
119.2797354824
 20
80.9593884309
  0
LINE
  5
4CE
100
AcDbEntity
  8
0
100
AcDbLine
 62
7
  6
CONTINUOUS
 10
122.64340437
 20
106.9523880528
 11
119.84340437
 21
106.9523880528
  0
LINE
  5
4CF
100
AcDbEntity
  8
RACCORDO
100
AcDbLine
 62
7
  6
CONTINUOUS
 10
122.84340437
 20
107.7111120127
 11
119.84340437
 21
107.7213034237
  0
LINE
  5
4D0
100
AcDbEntity
  8
0
100
AcDbLine
 62
7
  6
CONTINUOUS
 10
122.64340437
 20
106.9523880528
 11
122.84340437
 21
106.9235354347
  0
LWPOLYLINE
  5
4D1
100
AcDbEntity
  8
ASSI
100
AcDbPolyline
 62
250
  6
CONTINUOUS
 90
10
 70
0
 10
119.2701876309
 20
127.125064395
 10
119.265302896
 20
127.1373178355
 10
119.2598631245
 20
127.148733941
 10
119.2539739853
 20
127.1593116762
 10
119.2477740796
 20
127.1690567409
 10
119.2413152199
 20
127.1779916112
 10
119.2345623639
 20
127.1861525284
 10
119.2275521286
 20
127.1935730007
 10
119.2203923889
 20
127.2002838973
 10
119.2131433247
 20
127.2063229703
  0
LWPOLYLINE
  5
4D2
100
AcDbEntity
  8
RACCORDO
100
AcDbPolyline
 62
250
  6
CONTINUOUS
 90
13
 70
0
 10
121.3237247056
 20
125.0082098479
 10
121.3252862436
 20
125.0024647603
 10
121.3266860987
 20
124.9969282211
 10
121.3279419678
 20
124.9915835128
 10
121.3290783889
 20
124.9863296137
 10
121.330090647
 20
124.9811757909
 10
121.3309852766
 20
124.9761203483
 10
121.3317837013
 20
124.9710463852
 10
121.3324696611
 20
124.965957896
 10
121.3330377145
 20
124.9608611577
 10
121.3334988627
 20
124.9556463162
 10
121.3338315183
 20
124.9502846253
 10
121.3339979565
 20
124.9448263055
  0
LINE
  5
4D3
100
AcDbEntity
  8
RACCORDO
100
AcDbLine
 62
7
  6
CONTINUOUS
 10
128.9556529138
 20
97.4955500669
 11
128.9946002147
 21
97.2821019765
  0
LINE
  5
4D4
100
AcDbEntity
  8
RACCORDO
100
AcDbLine
 62
7
  6
CONTINUOUS
 10
128.9320455636
 20
97.6312219123
 11
128.9556529138
 21
97.4955500669
  0
LWPOLYLINE
  5
4D5
100
AcDbEntity
  8
RACCORDO
100
AcDbPolyline
 62
7
  6
CONTINUOUS
 90
5
 70
0
 10
128.9109951365
 20
97.7669716572
 10
128.9129629528
 20
97.7508060004
 10
128.9161739782
 20
97.7288372144
 10
128.9205335204
 20
97.7013507126
 10
128.9320455636
 20
97.6312219123
  0
LINE
  5
4D6
100
AcDbEntity
  8
RACCORDO
100
AcDbLine
 62
250
  6
CONTINUOUS
 10
127.7123616274
 20
123.7935349367
 11
127.7090976293
 21
123.8238772461
  0
LINE
  5
4D7
100
AcDbEntity
  8
RACCORDO
100
AcDbLine
 62
250
  6
CONTINUOUS
 10
127.7147593786
 20
123.7700358876
 11
127.7123616274
 21
123.7935349367
  0
LINE
  5
4D8
100
AcDbEntity
  8
RACCORDO
100
AcDbLine
 62
7
  6
CONTINUOUS
 10
128.9109951365
 20
97.7669716572
 11
128.9109414976
 21
97.7679176609
  0
LINE
  5
4D9
100
AcDbEntity
  8
RACCORDO
100
AcDbLine
 62
7
  6
CONTINUOUS
 10
128.9109414976
 20
97.7679176597
 11
128.9109414976
 21
110.2508592022
  0
LWPOLYLINE
  5
4DA
100
AcDbEntity
  8
RACCORDO
100
AcDbPolyline
 62
250
  6
CONTINUOUS
 90
5
 70
0
 10
127.696022231
 20
83.3747050935
 10
127.6961185868
 20
83.3769295788
 10
127.6962115384
 20
83.3797072752
 10
127.6963002629
 20
83.3830582633
 10
127.6964611622
 20
83.3915637308
  0
LINE
  5
4DB
100
AcDbEntity
  8
RACCORDO
100
AcDbLine
 62
7
  6
CONTINUOUS
 10
128.9109951369
 20
110.2518052047
 11
128.9109414976
 21
110.2508592009
  0
LWPOLYLINE
  5
4DC
100
AcDbEntity
  8
RACCORDO
100
AcDbPolyline
 62
250
  6
CONTINUOUS
 90
7
 70
0
 10
127.7155876169
 20
84.2573773279
 10
127.7161451693
 20
84.2634942221
 10
127.7165906551
 20
84.268778815
 10
127.7169268748
 20
84.2731917161
 10
127.7171335979
 20
84.2765839058
 10
127.7171779737
 20
84.2787591666
 10
127.7170346218
 20
84.2795478128
  0
LINE
  5
4DD
100
AcDbEntity
  8
RACCORDO
100
AcDbLine
 62
250
  6
CONTINUOUS
 10
127.7141908329
 20
84.2430222579
 11
127.7155876169
 21
84.2573773279
  0
LINE
  5
4DE
100
AcDbEntity
  8
RACCORDO
100
AcDbLine
 62
250
  6
CONTINUOUS
 10
127.7114692496
 20
84.2168024807
 11
127.7141908329
 21
84.2430222579
  0
LINE
  5
4DF
100
AcDbEntity
  8
RACCORDO
100
AcDbLine
 62
250
  6
CONTINUOUS
 10
127.7069992446
 20
84.1759497409
 11
127.7114692496
 21
84.2168024807
  0
LINE
  5
4E0
100
AcDbEntity
  8
RACCORDO
100
AcDbLine
 62
250
  6
CONTINUOUS
 10
127.6996791831
 20
84.1119692441
 11
127.7069992446
 21
84.1759497409
  0
LINE
  5
4E1
100
AcDbEntity
  8
RACCORDO
100
AcDbLine
 62
250
  6
CONTINUOUS
 10
127.696022231
 20
84.0809277847
 11
127.6996791831
 21
84.1119692441
  0
LINE
  5
4E2
100
AcDbEntity
  8
RACCORDO
100
AcDbLine
 62
7
  6
CONTINUOUS
 10
122.84340437
 20
109.6961397062
 11
119.84340437
 21
109.7207439489
  0
LINE
  5
4E3
100
AcDbEntity
  8
RACCORDO
100
AcDbLine
 62
250
  6
CONTINUOUS
 10
135.3521305732
 20
110.1611733064
 11
128.9109951369
 21
110.2518052047
  0
LWPOLYLINE
  5
4E4
100
AcDbEntity
  8
RACCORDO
100
AcDbPolyline
 62
250
  6
CONTINUOUS
 90
9
 70
0
 10
121.304679652
 20
125.0611931991
 10
121.3077105478
 20
125.0540512125
 10
121.310587898
 20
125.0469381144
 10
121.3132624863
 20
125.0399829142
 10
121.3157326502
 20
125.0332303378
 10
121.3180153625
 20
125.0266544937
 10
121.3201028869
 20
125.0202809649
 10
121.3220003768
 20
125.0141369283
 10
121.3237247056
 20
125.0082098479
  0
LINE
  5
4E5
100
AcDbEntity
  8
RACCORDO
100
AcDbLine
 62
250
  6
CONTINUOUS
 10
127.7050054056
 20
123.8605403972
 11
127.696022231
 21
123.9378490771
  0
LINE
  5
4E6
100
AcDbEntity
  8
RACCORDO
100
AcDbLine
 62
250
  6
CONTINUOUS
 10
127.7090976293
 20
123.8238772461
 11
127.7050054056
 21
123.8605403972
  0
LWPOLYLINE
  5
4E7
100
AcDbEntity
  8
RACCORDO
100
AcDbPolyline
 62
250
  6
CONTINUOUS
 90
6
 70
0
 10
127.696022231
 20
82.4315375278
 10
127.6962884427
 20
82.4329939686
 10
127.6965172119
 20
82.4372256429
 10
127.6967075687
 20
82.4440229893
 10
127.6968585123
 20
82.4530870705
 10
127.6970529911
 20
82.4774639398
  0
LINE
  5
4E8
100
AcDbEntity
  8
RACCORDO
100
AcDbLine
 62
250
  6
CONTINUOUS
 10
121.2979882559
 20
82.942824603
 11
121.2944830657
 21
82.9355722694
  0
LWPOLYLINE
  5
4E9
100
AcDbEntity
  8
RACCORDO
100
AcDbPolyline
 62
250
  6
CONTINUOUS
 90
19
 70
0
 10
121.2944830657
 20
82.9355722694
 10
121.2910158396
 20
82.9286636696
 10
121.2872322411
 20
82.9214118299
 10
121.283236658
 20
82.9140361227
 10
121.2790248908
 20
82.906548764
 10
121.2745951332
 20
82.8989677128
 10
121.2699371807
 20
82.8912910869
 10
121.2650499738
 20
82.8835350599
 10
121.259933586
 20
82.8757213087
 10
121.254579693
 20
82.8678596259
 10
121.2489930312
 20
82.859971613
 10
121.2431760922
 20
82.8520816542
 10
121.2371183175
 20
82.8442077512
 10
121.2308319964
 20
82.8363778803
 10
121.2243233028
 20
82.8286192991
 10
121.2175743305
 20
82.8209549581
 10
121.2105898208
 20
82.8134165007
 10
121.2033984673
 20
82.8060408426
 10
121.1960222486
 20
82.7988633336
  0
LINE
  5
4EA
100
AcDbEntity
  8
RACCORDO
100
AcDbLine
 62
250
  6
CONTINUOUS
 10
127.8426513952
 20
96.856139409
 11
128.9946000586
 21
97.2821019187
  0
LINE
  5
4EB
100
AcDbEntity
  8
RACCORDO
100
AcDbLine
 62
250
  6
CONTINUOUS
 10
125.1597671885
 20
96.3866711167
 11
128.9109414976
 21
97.7679176597
  0
LWPOLYLINE
  5
4EC
100
AcDbEntity
  8
0
100
AcDbPolyline
 62
7
  6
CONTINUOUS
 90
19
 70
0
 10
137.813818274
 20
112.4514208144
 10
137.8258984424
 20
112.4528905684
 10
137.8377777495
 20
112.4550749848
 10
137.8494561955
 20
112.4579740634
 10
137.8609760872
 20
112.4616062466
 10
137.8722951176
 20
112.4659530921
 10
137.8832863658
 20
112.4709592726
 10
137.8939434845
 20
112.4766316576
 10
137.9042728209
 20
112.4829633776
 10
137.9141664952
 20
112.4898784968
 10
137.9236175449
 20
112.4973809012
 10
137.9326329325
 20
112.5054667047
 10
137.9411256653
 20
112.5140483134
 10
137.949090225
 20
112.5231283548
 10
137.9565321299
 20
112.5327042013
 10
137.9633809419
 20
112.5426803765
 10
137.9696131818
 20
112.5530250549
 10
137.9752523288
 20
112.563770062
 10
137.980298383
 20
112.5749153979
  0
LINE
  5
4ED
100
AcDbEntity
  8
0
100
AcDbLine
 62
7
  6
CONTINUOUS
 10
137.34340437
 20
112.4093494338
 11
137.813818274
 21
112.4514208144
  0
LINE
  5
4EE
100
AcDbEntity
  8
0
100
AcDbLine
 62
7
  6
CONTINUOUS
 10
137.34340437
 20
112.3468770945
 11
136.34340437
 21
112.2593884309
  0
LINE
  5
4EF
100
AcDbEntity
  8
RACCORDO
100
AcDbLine
 62
7
  6
CONTINUOUS
 10
135.84340437
 20
111.486304275
 11
135.8521305732
 21
111.4864565914
  0
LINE
  5
4F0
100
AcDbEntity
  8
RACCORDO
100
AcDbLine
 62
250
  6
CONTINUOUS
 10
125.3350540429
 20
111.5960022725
 11
135.8477671944
 21
111.7264526252
  0
LINE
  5
4F1
100
AcDbEntity
  8
RACCORDO
100
AcDbLine
 62
250
  6
CONTINUOUS
 10
127.8426513959
 20
111.1626374529
 11
135.84340437
 21
111.2582853507
  0
LINE
  5
4F2
100
AcDbEntity
  8
DRAFT
100
AcDbLine
 62
7
  6
CONTINUOUS
 10
122.84340437
 20
112.0220550976
 11
123.6110756601
 21
112.0268114738
  0
LINE
  5
4F3
100
AcDbEntity
  8
RACCORDO
100
AcDbLine
 62
7
  6
CONTINUOUS
 10
122.84340437
 20
110.6480426673
 11
119.84340437
 21
110.67264691
  0
LINE
  5
4F4
100
AcDbEntity
  8
RACCORDO
100
AcDbLine
 62
7
  6
CONTINUOUS
 10
119.84340437
 20
110.8209902127
 11
122.84340437
 21
110.7948096093
  0
LINE
  5
4F5
100
AcDbEntity
  8
RACCORDO
100
AcDbLine
 62
250
  6
CONTINUOUS
 10
135.3521305501
 20
110.6486722838
 11
128.9946000586
 21
110.7366749432
  0
LWPOLYLINE
  5
4F6
100
AcDbEntity
  8
RACCORDO
100
AcDbPolyline
 62
250
  6
CONTINUOUS
 90
15
 70
0
 10
135.3521305732
 20
110.1611733064
 10
135.40376156
 20
110.1576820736
 10
135.4547458614
 20
110.1490050342
 10
135.504537216
 20
110.1352351567
 10
135.552602144
 20
110.1165199756
 10
135.5984256629
 20
110.0930600111
 10
135.6415168055
 20
110.0651066204
 10
135.6814138801
 20
110.0329593046
 10
135.7176894171
 20
109.9969624998
 10
135.7499547493
 20
109.9575018871
 10
135.7778641759
 20
109.9150002597
 10
135.8011186667
 20
109.8699129928
 10
135.819469066
 20
109.8227231649
 10
135.8327187619
 20
109.7739363823
 10
135.8407257932
 20
109.7240753617
  0
LINE
  5
4F7
100
AcDbEntity
  8
RACCORDO
100
AcDbLine
 62
7
  6
CONTINUOUS
 10
127.6735629719
 20
111.1920706565
 11
127.8426513948
 21
111.1626374529
  0
LWPOLYLINE
  5
4F8
100
AcDbEntity
  8
RACCORDO
100
AcDbPolyline
 62
7
  6
CONTINUOUS
 90
10
 70
0
 10
125.3350540429
 20
111.5960022725
 10
125.314371771
 20
111.599656145
 10
125.2939867733
 20
111.6033961661
 10
125.27389905
 20
111.6072233814
 10
125.2541029818
 20
111.6111378414
 10
125.2346041879
 20
111.615141609
 10
125.2154195259
 20
111.6192388193
 10
125.1965546149
 20
111.6234316439
 10
125.1780038357
 20
111.6277202289
 10
125.1597671883
 20
111.6321057452
  0
LWPOLYLINE
  5
4F9
100
AcDbEntity
  8
RACCORDO
100
AcDbPolyline
 62
7
  6
CONTINUOUS
 90
7
 70
0
 10
125.335054043
 20
111.5960022705
 10
125.4949995407
 20
111.5655741176
 10
125.657591785
 20
111.5380631976
 10
125.8221599122
 20
111.5116621109
 10
125.9881277642
 20
111.483963612
 10
126.1549804501
 20
111.4544817561
 10
127.6735629719
 20
111.1920706565
  0
LINE
  5
4FA
100
AcDbEntity
  8
RACCORDO
100
AcDbLine
 62
7
  6
CONTINUOUS
 10
124.6977716375
 20
111.7469026446
 11
125.1597671883
 21
111.6321057452
  0
LINE
  5
4FB
100
AcDbEntity
  8
RACCORDO
100
AcDbLine
 62
7
  6
CONTINUOUS
 10
124.1812745892
 20
111.8782108618
 11
124.6977716375
 21
111.7469026446
  0
LWPOLYLINE
  5
4FC
100
AcDbEntity
  8
RACCORDO
100
AcDbPolyline
 62
7
  6
CONTINUOUS
 90
3
 70
0
 10
123.6110756601
 20
112.0268114738
 10
123.8071088455
 20
111.9752771817
 10
124.1812745892
 20
111.8782108618
  0
LINE
  5
4FD
100
AcDbEntity
  8
RACCORDO
100
AcDbLine
 62
250
  6
CONTINUOUS
 10
128.9109414976
 20
110.2508592022
 11
125.1597671883
 21
111.6321057452
  0
LINE
  5
4FE
100
AcDbEntity
  8
RACCORDO
100
AcDbLine
 62
250
  6
CONTINUOUS
 10
128.9946000586
 20
110.7366749432
 11
127.8426513959
 21
111.1626374529
  0
LWPOLYLINE
  5
4FF
100
AcDbEntity
  8
RACCORDO
100
AcDbPolyline
 62
250
  6
CONTINUOUS
 90
3
 70
0
 10
121.2981712625
 20
125.0755746008
 10
121.3014977831
 20
125.0683767906
 10
121.304679652
 20
125.0611931991
  0
LWPOLYLINE
  5
500
100
AcDbEntity
  8
ASSI
100
AcDbPolyline
 62
250
  6
CONTINUOUS
 90
7
 70
0
 10
124.0455273136
 20
127.2593884309
 10
124.0459593822
 20
127.2578619736
 10
124.0463848554
 20
127.2533059023
 10
124.0467972386
 20
127.2457897634
 10
124.047190237
 20
127.2354282878
 10
124.0475578515
 20
127.2223796387
 10
124.0478944708
 20
127.2068429984
  0
LINE
  5
501
100
AcDbEntity
  8
DRAFT
100
AcDbLine
 62
7
  6
CONTINUOUS
 10
119.84340437
 20
112.5187311319
 11
122.84340437
 21
112.5449117353
  0
LINE
  5
502
100
AcDbEntity
  8
RACCORDO
100
AcDbLine
 62
7
  6
CONTINUOUS
 10
119.84340437
 20
112.9440147308
 11
122.84340437
 21
112.9667842034
  0
LINE
  5
503
100
AcDbEntity
  8
RACCORDO
100
AcDbLine
 62
250
  6
CONTINUOUS
 10
122.84340437
 20
112.8593884309
 11
119.84340437
 21
112.8593884309
  0
LWPOLYLINE
  5
504
100
AcDbEntity
  8
RACCORDO
100
AcDbPolyline
 62
250
  6
CONTINUOUS
 90
9
 70
0
 10
119.8237418366
 20
122.1448588599
 10
119.8130677648
 20
122.1552374272
 10
119.8003914264
 20
122.1646466187
 10
119.7859249281
 20
122.1729289945
 10
119.7699103306
 20
122.1799459691
 10
119.7526155977
 20
122.1855801325
 10
119.7343301137
 20
122.189737211
 10
119.71535984
 20
122.1923476451
 10
119.6960221966
 20
122.1933677552
  0
LWPOLYLINE
  5
505
100
AcDbEntity
  8
0
100
AcDbPolyline
 62
7
  6
CONTINUOUS
 90
19
 70
0
 10
137.980298383
 20
95.443861464
 10
137.9752297837
 20
95.4550528017
 10
137.9695633856
 20
95.4658401193
 10
137.9632991886
 20
95.4762234168
 10
137.9564107513
 20
95.4862368746
 10
137.9489245152
 20
95.4958463123
 10
137.9409198047
 20
95.5049491886
 10
137.932391355
 20
95.5135399881
 10
137.9233444309
 20
95.5216242263
 10
137.9138741509
 20
95.5291159079
 10
137.9039765811
 20
95.5360088756
 10
137.8936556554
 20
95.5423092868
 10
137.8830182942
 20
95.5479496187
 10
137.8720610469
 20
95.5529236178
 10
137.860787364
 20
95.5572375376
 10
137.849314518
 20
95.5608426166
 10
137.8376815998
 20
95.563722601
 10
137.8258495185
 20
95.5658937447
 10
137.813818274
 20
95.5673560475
  0
LINE
  5
506
100
AcDbEntity
  8
RACCORDO
100
AcDbLine
 62
250
  6
CONTINUOUS
 10
135.3521305733
 20
97.8576035554
 11
135.3521869055
 21
97.856687492
  0
LWPOLYLINE
  5
507
100
AcDbEntity
  8
RACCORDO
100
AcDbPolyline
 62
250
  6
CONTINUOUS
 90
4
 70
0
 10
135.3521869056
 20
97.856687484
 10
135.352357021
 20
97.8536609926
 10
135.3525211167
 20
97.8503361991
 10
135.3526792402
 20
97.8467176437
  0
LWPOLYLINE
  5
508
100
AcDbEntity
  8
RACCORDO
100
AcDbPolyline
 62
250
  6
CONTINUOUS
 90
5
 70
0
 10
135.8455859342
 20
111.7264331304
 10
135.8484946627
 20
111.6738889617
 10
135.850676209
 20
111.6282246252
 10
135.8521305732
 20
111.5892805016
 10
135.8526153613
 20
111.5568518036
  0
LINE
  5
509
100
AcDbEntity
  8
RACCORDO
100
AcDbLine
 62
250
  6
CONTINUOUS
 10
135.8407257932
 20
109.7240753617
 11
135.84340437
 21
109.6736743294
  0
LINE
  5
50A
100
AcDbEntity
  8
RACCORDO
100
AcDbLine
 62
250
  6
CONTINUOUS
 10
135.3526792402
 20
97.8467176437
 11
135.3529771177
 21
97.8386175427
  0
LINE
  5
50B
100
AcDbEntity
  8
RACCORDO
100
AcDbLine
 62
250
  6
CONTINUOUS
 10
135.3529771177
 20
97.8386175427
 11
135.3532501737
 21
97.8293889398
  0
LINE
  5
50C
100
AcDbEntity
  8
RACCORDO
100
AcDbLine
 62
250
  6
CONTINUOUS
 10
135.3532501737
 20
97.8293889398
 11
135.353498719
 21
97.8190559939
  0
LINE
  5
50D
100
AcDbEntity
  8
RACCORDO
100
AcDbLine
 62
250
  6
CONTINUOUS
 10
135.353498719
 20
97.8190559939
 11
135.3538247891
 21
97.8014992424
  0
LINE
  5
50E
100
AcDbEntity
  8
RACCORDO
100
AcDbLine
 62
250
  6
CONTINUOUS
 10
135.3538247891
 20
97.8014992424
 11
135.3541702975
 21
97.7743747701
  0
LINE
  5
50F
100
AcDbEntity
  8
RACCORDO
100
AcDbLine
 62
250
  6
CONTINUOUS
 10
135.3521305744
 20
110.6486722609
 11
135.3535724179
 21
110.5259768482
  0
LINE
  5
510
100
AcDbEntity
  8
RACCORDO
100
AcDbLine
 62
250
  6
CONTINUOUS
 10
135.3535724179
 20
110.5259768482
 11
135.3543403691
 21
110.4217935501
  0
LINE
  5
511
100
AcDbEntity
  8
RACCORDO
100
AcDbLine
 62
250
  6
CONTINUOUS
 10
135.3541702975
 20
97.7743747701
 11
135.3544531604
 21
97.7349284369
  0
LINE
  5
512
100
AcDbEntity
  8
RACCORDO
100
AcDbLine
 62
250
  6
CONTINUOUS
 10
135.3543403691
 20
110.4217935501
 11
135.3545688362
 21
110.3384923759
  0
LINE
  5
513
100
AcDbEntity
  8
RACCORDO
100
AcDbLine
 62
250
  6
CONTINUOUS
 10
135.3544531604
 20
97.7349284369
 11
135.3545688362
 21
97.6802844901
  0
LINE
  5
514
100
AcDbEntity
  8
RACCORDO
100
AcDbLine
 62
250
  6
CONTINUOUS
 10
135.3521305732
 20
110.1611733064
 11
135.3521305732
 21
97.8576035555
  0
LINE
  5
515
100
AcDbEntity
  8
RACCORDO
100
AcDbLine
 62
7
  6
CONTINUOUS
 10
135.84340437
 20
111.7263974742
 11
135.84340437
 21
96.2923793877
  0
LINE
  5
516
100
AcDbEntity
  8
RACCORDO
100
AcDbLine
 62
250
  6
CONTINUOUS
 10
135.8521305732
 20
111.5109877226
 11
135.8521305732
 21
111.4864565914
  0
LINE
  5
517
100
AcDbEntity
  8
RACCORDO
100
AcDbLine
 62
250
  6
CONTINUOUS
 10
135.8521305732
 20
96.5323202704
 11
135.8521305732
 21
88.9864565914
  0
LINE
  5
518
100
AcDbEntity
  8
RACCORDO
100
AcDbLine
 62
7
  6
CONTINUOUS
 10
136.34340437
 20
118.5323964228
 11
136.34340437
 21
111.986380439
  0
LINE
  5
519
100
AcDbEntity
  8
RACCORDO
100
AcDbLine
 62
7
  6
CONTINUOUS
 10
136.34340437
 20
96.0323964228
 11
136.34340437
 21
89.486380439
  0
LWPOLYLINE
  5
51A
100
AcDbEntity
  8
RACCORDO
100
AcDbPolyline
 62
250
  6
CONTINUOUS
 90
5
 70
0
 10
135.8521305732
 20
119.0323202704
 10
135.8521305732
 20
112.0111966939
 10
135.8511609335
 20
111.9044295218
 10
135.8497064739
 20
111.809445402
 10
135.8477671944
 20
111.7264526252
  0
LINE
  5
51B
100
AcDbEntity
  8
RACCORDO
100
AcDbLine
 62
250
  6
CONTINUOUS
 10
135.3545688362
 20
110.3384923759
 11
135.3544531604
 21
110.2838484276
  0
LINE
  5
51C
100
AcDbEntity
  8
RACCORDO
100
AcDbLine
 62
250
  6
CONTINUOUS
 10
135.3545688362
 20
97.6802844901
 11
135.3543403691
 21
97.5969833154
  0
LINE
  5
51D
100
AcDbEntity
  8
RACCORDO
100
AcDbLine
 62
250
  6
CONTINUOUS
 10
135.3543403691
 20
97.5969833154
 11
135.3535724179
 21
97.4928000147
  0
LINE
  5
51E
100
AcDbEntity
  8
RACCORDO
100
AcDbLine
 62
250
  6
CONTINUOUS
 10
135.3544531604
 20
110.2838484276
 11
135.3541702976
 21
110.2444020926
  0
LINE
  5
51F
100
AcDbEntity
  8
RACCORDO
100
AcDbLine
 62
250
  6
CONTINUOUS
 10
135.8526153613
 20
111.5568518036
 11
135.8521305732
 21
111.5109877226
  0
LINE
  5
520
100
AcDbEntity
  8
RACCORDO
100
AcDbLine
 62
250
  6
CONTINUOUS
 10
135.3535724179
 20
97.4928000147
 11
135.3521305744
 21
97.3701046009
  0
LINE
  5
521
100
AcDbEntity
  8
RACCORDO
100
AcDbLine
 62
250
  6
CONTINUOUS
 10
135.3541702976
 20
110.2444020926
 11
135.3538247891
 21
110.2172776193
  0
LINE
  5
522
100
AcDbEntity
  8
RACCORDO
100
AcDbLine
 62
250
  6
CONTINUOUS
 10
135.3538247891
 20
110.2172776193
 11
135.353498719
 21
110.1997208676
  0
LINE
  5
523
100
AcDbEntity
  8
RACCORDO
100
AcDbLine
 62
250
  6
CONTINUOUS
 10
135.353498719
 20
110.1997208676
 11
135.3532501735
 21
110.1893879212
  0
LINE
  5
524
100
AcDbEntity
  8
RACCORDO
100
AcDbLine
 62
250
  6
CONTINUOUS
 10
135.3532501735
 20
110.1893879212
 11
135.3529771178
 21
110.1801593188
  0
LWPOLYLINE
  5
525
100
AcDbEntity
  8
RACCORDO
100
AcDbPolyline
 62
250
  6
CONTINUOUS
 90
5
 70
0
 10
135.3529771178
 20
110.1801593188
 10
135.3526792403
 20
110.1720592179
 10
135.3525211166
 20
110.168440661
 10
135.3523570209
 20
110.1651158669
 10
135.3521869056
 20
110.1620893779
  0
LINE
  5
526
100
AcDbEntity
  8
RACCORDO
100
AcDbLine
 62
250
  6
CONTINUOUS
 10
135.8407257932
 20
98.294701495
 11
135.84340437
 21
98.3451025325
  0
LINE
  5
527
100
AcDbEntity
  8
RACCORDO
100
AcDbLine
 62
250
  6
CONTINUOUS
 10
135.3521869055
 20
110.1620893699
 11
135.3521305734
 21
110.1611733131
  0
LWPOLYLINE
  5
528
100
AcDbEntity
  8
RACCORDO
100
AcDbPolyline
 62
7
  6
CONTINUOUS
 90
16
 70
0
 10
135.84340437
 20
98.2309970221
 10
135.8379189218
 20
98.1562479276
 10
135.8268388411
 20
98.0841202163
 10
135.8101641277
 20
98.0146138884
 10
135.7871517689
 20
97.9477007028
 10
135.7585447774
 20
97.8834089005
 10
135.7265721923
 20
97.8218232042
 10
135.6914066793
 20
97.7631346432
 10
135.6528755726
 20
97.7071521883
 10
135.6126899135
 20
97.6533874745
 10
135.5709801191
 20
97.6019106931
 10
135.5276157721
 20
97.5526516529
 10
135.4839166628
 20
97.5049114151
 10
135.440322721
 20
97.4584570002
 10
135.3963940168
 20
97.4135213879
 10
135.3521305501
 20
97.370104578
  0
LINE
  5
529
100
AcDbEntity
  8
0
100
AcDbLine
 62
7
  6
CONTINUOUS
 10
138.4334958137
 20
115.5916928891
 11
138.4360284591
 21
115.6044611048
  0
LWPOLYLINE
  5
52A
100
AcDbEntity
  8
0
100
AcDbPolyline
 62
7
  6
CONTINUOUS
 90
16
 70
0
 10
138.4360284591
 20
115.6044611048
 10
138.4410705373
 20
115.6235174918
 10
138.4458608164
 20
115.6426961385
 10
138.4504087161
 20
115.6619147182
 10
138.4547332291
 20
115.6810258312
 10
138.458832996
 20
115.7000202548
 10
138.4626885843
 20
115.719027533
 10
138.4663115472
 20
115.737994916
 10
138.4697105924
 20
115.7568351077
 10
138.4728655501
 20
115.7756427593
 10
138.4757871773
 20
115.7943919067
 10
138.4784862519
 20
115.8130098809
 10
138.4809455169
 20
115.8315580782
 10
138.4831668551
 20
115.8500518738
 10
138.4851694022
 20
115.8684356634
 10
138.486962258
 20
115.8866856651
  0
LINE
  5
52B
100
AcDbEntity
  8
RACCORDO
100
AcDbLine
 62
7
  6
CONTINUOUS
 10
122.84340437
 20
114.9449117353
 11
119.84340437
 21
114.9187311319
  0
LINE
  5
52C
100
AcDbEntity
  8
RACCORDO
100
AcDbLine
 62
7
  6
CONTINUOUS
 10
119.84340437
 20
115.60004573
 11
122.84340437
 21
115.5738651266
  0
LWPOLYLINE
  5
52D
100
AcDbEntity
  8
ASSI
100
AcDbPolyline
 62
250
  6
CONTINUOUS
 90
10
 70
0
 10
119.4316041115
 20
127.173310938
 10
119.4185032265
 20
127.1885380847
 10
119.4049893359
 20
127.2030499259
 10
119.3910424108
 20
127.2168643026
 10
119.3764958033
 20
127.230031355
 10
119.3614835517
 20
127.242562653
 10
119.3464311977
 20
127.254411456
 10
119.3314631357
 20
127.2655697485
 10
119.3164107422
 20
127.2760843088
 10
119.3012537364
 20
127.2859751568
  0
LINE
  5
52E
100
AcDbEntity
  8
0
100
AcDbLine
 62
7
  6
CONTINUOUS
 10
138.4335293897
 20
92.426917018
 11
138.4360284459
 21
92.4143158063
  0
LWPOLYLINE
  5
52F
100
AcDbEntity
  8
0
100
AcDbPolyline
 62
7
  6
CONTINUOUS
 90
16
 70
0
 10
138.4869622232
 20
92.1320909146
 10
138.4851522499
 20
92.1504729372
 10
138.4831347716
 20
92.1689785095
 10
138.4809007625
 20
92.1875728616
 10
138.4784309391
 20
92.2061773203
 10
138.4757237776
 20
92.2248076423
 10
138.4727974552
 20
92.24355373
 10
138.4696421033
 20
92.2623420557
 10
138.466246559
 20
92.2811345889
 10
138.4626299379
 20
92.3000463281
 10
138.4587848618
 20
92.31899169
 10
138.4546989191
 20
92.337912119
 10
138.4503867915
 20
92.3569562858
 10
138.445848016
 20
92.3761263811
 10
138.441065088
 20
92.3952724356
 10
138.4360284459
 20
92.4143158063
  0
LINE
  5
530
100
AcDbEntity
  8
0
100
AcDbLine
 62
7
  6
CONTINUOUS
 10
138.4856591957
 20
93.4139784083
 11
138.4842278018
 21
93.441275583
  0
LINE
  5
531
100
AcDbEntity
  8
0
100
AcDbLine
 62
7
  6
CONTINUOUS
 10
138.486962258
 20
93.3866856651
 11
138.4856591957
 21
93.4139784083
  0
LINE
  5
532
100
AcDbEntity
  8
0
100
AcDbLine
 62
7
  6
CONTINUOUS
 10
137.34340437
 20
89.8468770945
 11
137.34340437
 21
89.9093494338
  0
LINE
  5
533
100
AcDbEntity
  8
0
100
AcDbLine
 62
7
  6
CONTINUOUS
 10
137.34340437
 20
95.6094274281
 11
137.34340437
 21
95.6718997674
  0
LINE
  5
534
100
AcDbEntity
  8
0
100
AcDbLine
 62
7
  6
CONTINUOUS
 10
137.34340437
 20
112.3468770945
 11
137.34340437
 21
112.4093494338
  0
LINE
  5
535
100
AcDbEntity
  8
0
100
AcDbLine
 62
7
  6
CONTINUOUS
 10
137.34340437
 20
118.1094274281
 11
137.34340437
 21
118.1718997674
  0
LINE
  5
536
100
AcDbEntity
  8
0
100
AcDbLine
 62
250
  6
CONTINUOUS
 10
137.813818274
 20
118.0673560475
 11
137.813818274
 21
112.4514208144
  0
LINE
  5
537
100
AcDbEntity
  8
0
100
AcDbLine
 62
250
  6
CONTINUOUS
 10
137.813818274
 20
95.5673560475
 11
137.813818274
 21
89.9514208144
  0
LINE
  5
538
100
AcDbEntity
  8
0
100
AcDbLine
 62
250
  6
CONTINUOUS
 10
137.980298383
 20
117.943861464
 11
137.980298383
 21
112.5749153979
  0
LINE
  5
539
100
AcDbEntity
  8
0
100
AcDbLine
 62
250
  6
CONTINUOUS
 10
137.980298383
 20
95.443861464
 11
137.980298383
 21
90.0749153979
  0
LINE
  5
53A
100
AcDbEntity
  8
0
100
AcDbLine
 62
7
  6
CONTINUOUS
 10
138.3369599656
 20
115.487527923
 11
138.3369599656
 21
115.0314431314
  0
LINE
  5
53B
100
AcDbEntity
  8
0
100
AcDbLine
 62
7
  6
CONTINUOUS
 10
138.3369599656
 20
92.987527923
 11
138.3369599656
 21
92.5314431314
  0
LINE
  5
53C
100
AcDbEntity
  8
0
100
AcDbLine
 62
7
  6
CONTINUOUS
 10
138.4856578351
 20
114.6047720791
 11
138.4869622232
 21
114.6320909146
  0
LINE
  5
53D
100
AcDbEntity
  8
0
100
AcDbLine
 62
7
  6
CONTINUOUS
 10
138.4842277175
 20
114.5775004208
 11
138.4856578351
 21
114.6047720791
  0
LINE
  5
53E
100
AcDbEntity
  8
RACCORDO
100
AcDbLine
 62
250
  6
CONTINUOUS
 10
122.84340437
 20
117.6593884309
 11
119.84340437
 21
117.6593884309
  0
LINE
  5
53F
100
AcDbEntity
  8
RACCORDO
100
AcDbLine
 62
7
  6
CONTINUOUS
 10
119.84340437
 20
117.5747525688
 11
122.84340437
 21
117.55198675
  0
LINE
  5
540
100
AcDbEntity
  8
DRAFT
100
AcDbLine
 62
7
  6
CONTINUOUS
 10
119.84340437
 20
118.00004573
 11
122.84340437
 21
117.9738651266
  0
LWPOLYLINE
  5
541
100
AcDbEntity
  8
RACCORDO
100
AcDbPolyline
 62
250
  6
CONTINUOUS
 90
23
 70
0
 10
121.1960222637
 20
125.2199135377
 10
121.2025985257
 20
125.2135398314
 10
121.2089927353
 20
125.2070404737
 10
121.2151898427
 20
125.2004454352
 10
121.2211680966
 20
125.1937885292
 10
121.2269273384
 20
125.1870934779
 10
121.232487902
 20
125.1803707439
 10
121.2378499109
 20
125.1736387254
 10
121.2430023926
 20
125.1669236827
 10
121.2479506069
 20
125.1602429841
 10
121.2526868301
 20
125.1536271183
 10
121.2572172824
 20
125.1470839102
 10
121.2615680654
 20
125.1405920644
 10
121.2657285855
 20
125.1341814631
 10
121.2697113306
 20
125.127850423
 10
121.2735719315
 20
125.1215218715
 10
121.2772979525
 20
125.1152151606
 10
121.2808983515
 20
125.108926576
 10
121.2844491532
 20
125.1025332223
 10
121.2879482402
 20
125.0960136789
 10
121.2913780741
 20
125.0893923253
 10
121.2947781544
 20
125.0826061967
 10
121.2981712625
 20
125.0755746008
  0
LWPOLYLINE
  5
542
100
AcDbEntity
  8
RACCORDO
100
AcDbPolyline
 62
7
  6
CONTINUOUS
 90
16
 70
0
 10
135.3521305501
 20
110.6486722838
 10
135.3963940168
 20
110.605255474
 10
135.440322721
 20
110.5603198616
 10
135.4839166628
 20
110.5138654468
 10
135.5276157721
 20
110.466125209
 10
135.5709801191
 20
110.4168661687
 10
135.6126899135
 20
110.3653893873
 10
135.6528755726
 20
110.3116246736
 10
135.6914066793
 20
110.2556422186
 10
135.7265721923
 20
110.1969536577
 10
135.7585447774
 20
110.1353679614
 10
135.7871517689
 20
110.0710761591
 10
135.8101641277
 20
110.0041629735
 10
135.8268388411
 20
109.9346566455
 10
135.8379189218
 20
109.8625289343
 10
135.84340437
 20
109.7877798397
  0
LWPOLYLINE
  5
543
100
AcDbEntity
  8
0
100
AcDbPolyline
 62
7
  6
CONTINUOUS
 90
16
 70
0
 10
138.4869622232
 20
114.6320909146
 10
138.4851522499
 20
114.6504729372
 10
138.4831347716
 20
114.6689785095
 10
138.4809007625
 20
114.6875728616
 10
138.4784309391
 20
114.7061773203
 10
138.4757237776
 20
114.7248076423
 10
138.4727974552
 20
114.74355373
 10
138.4696421033
 20
114.7623420557
 10
138.466246559
 20
114.7811345889
 10
138.4626299379
 20
114.8000463281
 10
138.4587848618
 20
114.81899169
 10
138.4546989191
 20
114.837912119
 10
138.4503867915
 20
114.8569562858
 10
138.445848016
 20
114.8761263811
 10
138.441065088
 20
114.8952724356
 10
138.4360284459
 20
114.9143158063
  0
LINE
  5
544
100
AcDbEntity
  8
0
100
AcDbLine
 62
7
  6
CONTINUOUS
 10
138.4856591957
 20
115.9139784083
 11
138.4842278018
 21
115.941275583
  0
LINE
  5
545
100
AcDbEntity
  8
0
100
AcDbLine
 62
7
  6
CONTINUOUS
 10
138.486962258
 20
115.8866856651
 11
138.4856591957
 21
115.9139784083
  0
LINE
  5
546
100
AcDbEntity
  8
0
100
AcDbLine
 62
7
  6
CONTINUOUS
 10
138.4856578351
 20
92.1047720791
 11
138.4869622232
 21
92.1320909146
  0
LINE
  5
547
100
AcDbEntity
  8
0
100
AcDbLine
 62
7
  6
CONTINUOUS
 10
138.4842277175
 20
92.0775004208
 11
138.4856578351
 21
92.1047720791
  0
LINE
  5
548
100
AcDbEntity
  8
0
100
AcDbLine
 62
7
  6
CONTINUOUS
 10
138.4334958137
 20
93.0916928891
 11
138.4360284591
 21
93.1044611048
  0
LWPOLYLINE
  5
549
100
AcDbEntity
  8
ASSI
100
AcDbPolyline
 62
250
  6
CONTINUOUS
 90
16
 70
0
 10
119.2131629543
 20
80.8124691927
 10
119.2176276199
 20
80.8160987934
 10
119.221989428
 20
80.8199034428
 10
119.2262402483
 20
80.8238863879
 10
119.2303351282
 20
80.8280171085
 10
119.2343028985
 20
80.8323300808
 10
119.2382386836
 20
80.8369328815
 10
119.2421480096
 20
80.8418632895
 10
119.2459877195
 20
80.8471024909
 10
119.2497695861
 20
80.8526810483
 10
119.2534696804
 20
80.8586147873
 10
119.2570631709
 20
80.8649036713
 10
119.2605568328
 20
80.8715542784
 10
119.2639340147
 20
80.8785711609
 10
119.2671543776
 20
80.8859565692
 10
119.2701871875
 20
80.8937109738
  0
LWPOLYLINE
  5
54A
100
AcDbEntity
  8
ASSI
100
AcDbPolyline
 62
250
  6
CONTINUOUS
 90
13
 70
0
 10
115.677834959
 20
80.2419599372
 10
115.6555839833
 20
80.2293446581
 10
115.6336424941
 20
80.2172250023
 10
115.6123724535
 20
80.2058009042
 10
115.5921247473
 20
80.1952608239
 10
115.5732333959
 20
80.1857786379
 10
115.5560100444
 20
80.1775107711
 10
115.5407388214
 20
80.1705936161
 10
115.5276716518
 20
80.1651412831
 10
115.5170241009
 20
80.1612437178
 10
115.5089718181
 20
80.158965217
 10
115.5036476396
 20
80.1583433686
 10
115.5011393969
 20
80.1593884309
  0
LINE
  5
54B
100
AcDbEntity
  8
RACCORDO
100
AcDbLine
 62
7
  6
CONTINUOUS
 10
122.84340437
 20
119.2593884309
 11
135.8521305732
 21
119.0323202704
  0
LINE
  5
54C
100
AcDbEntity
  8
0
100
AcDbLine
 62
7
  6
CONTINUOUS
 10
137.34340437
 20
118.1718997674
 11
136.34340437
 21
118.2593884309
  0
LINE
  5
54D
100
AcDbEntity
  8
0
100
AcDbLine
 62
7
  6
CONTINUOUS
 10
137.813818274
 20
118.0673560475
 11
137.34340437
 21
118.1094274281
  0
LWPOLYLINE
  5
54E
100
AcDbEntity
  8
ASSI
100
AcDbPolyline
 62
250
  6
CONTINUOUS
 90
13
 70
0
 10
115.677834959
 20
127.7768169246
 10
115.6555840143
 20
127.7894321864
 10
115.6336425485
 20
127.8015518299
 10
115.6123725231
 20
127.8129759208
 10
115.5921248233
 20
127.823515999
 10
115.5732334706
 20
127.8329981872
 10
115.5560101118
 20
127.8412660592
 10
115.5407388768
 20
127.8481832215
 10
115.5276716925
 20
127.8536355626
 10
115.5170241269
 20
127.8575331354
 10
115.5089718316
 20
127.8598116419
 10
115.5036476439
 20
127.8604334935
 10
115.5011393969
 20
127.8593884309
  0
LWPOLYLINE
  5
54F
100
AcDbEntity
  8
ASSI
100
AcDbPolyline
 62
250
  6
CONTINUOUS
 90
30
 70
0
 10
119.2131433247
 20
127.2063229703
 10
119.2080875652
 20
127.2101254128
 10
119.2029118025
 20
127.2137205854
 10
119.1976250612
 20
127.217114222
 10
119.1922815709
 20
127.2202910185
 10
119.1868435378
 20
127.2232800006
 10
119.1811774635
 20
127.2261469972
 10
119.1752645398
 20
127.2289077229
 10
119.1691290451
 20
127.231544882
 10
119.162697244
 20
127.2340670823
 10
119.1559755559
 20
127.2364750204
 10
119.1489599448
 20
127.2387658189
 10
119.141557597
 20
127.2409412763
 10
119.1337667822
 20
127.2430035982
 10
119.1255868651
 20
127.2449477857
 10
119.1169212131
 20
127.2467658888
 10
119.1077606432
 20
127.2484614632
 10
119.0981047721
 20
127.250031367
 10
119.0878608583
 20
127.2514625863
 10
119.0770123991
 20
127.2527614441
 10
119.0655549517
 20
127.2539295383
 10
119.0533987136
 20
127.25495552
 10
119.0405139705
 20
127.25585041
 10
119.0268935483
 20
127.2566212795
 10
119.0124589649
 20
127.2572623427
 10
118.9971594354
 20
127.2577898276
 10
118.9809905669
 20
127.2582159256
 10
118.9639126303
 20
127.2585414581
 10
118.9458561287
 20
127.2587860816
 10
118.9068237586
 20
127.2590815149
  0
LINE
  5
550
100
AcDbEntity
  8
0
100
AcDbLine
 62
7
  6
CONTINUOUS
 10
138.4335293897
 20
114.926917018
 11
138.4360284459
 21
114.9143158063
  0
LWPOLYLINE
  5
551
100
AcDbEntity
  8
0
100
AcDbPolyline
 62
7
  6
CONTINUOUS
 90
16
 70
0
 10
138.4360284591
 20
93.1044611048
 10
138.4410705373
 20
93.1235174918
 10
138.4458608164
 20
93.1426961385
 10
138.4504087161
 20
93.1619147182
 10
138.4547332291
 20
93.1810258312
 10
138.458832996
 20
93.2000202548
 10
138.4626885843
 20
93.219027533
 10
138.4663115472
 20
93.237994916
 10
138.4697105924
 20
93.2568351077
 10
138.4728655501
 20
93.2756427593
 10
138.4757871773
 20
93.2943919067
 10
138.4784862519
 20
93.3130098809
 10
138.4809455169
 20
93.3315580782
 10
138.4831668551
 20
93.3500518738
 10
138.4851694022
 20
93.3684356634
 10
138.486962258
 20
93.3866856651
  0
LWPOLYLINE
  5
552
100
AcDbEntity
  8
0
100
AcDbPolyline
 62
7
  6
CONTINUOUS
 90
10
 70
0
 10
138.3369599656
 20
92.987527923
 10
138.3493978831
 20
92.9991960062
 10
138.3614129322
 20
93.0108459766
 10
138.3730051174
 20
93.022477789
 10
138.3841812016
 20
93.0340985225
 10
138.3949344315
 20
93.0457010003
 10
138.4052445342
 20
93.0572638236
 10
138.4151047517
 20
93.0687798626
 10
138.4245218443
 20
93.0802562229
 10
138.4334958137
 20
93.0916928891
  0
LWPOLYLINE
  5
553
100
AcDbEntity
  8
ASSI
100
AcDbPolyline
 62
250
  6
CONTINUOUS
 90
16
 70
0
 10
119.301291856
 20
80.7328289884
 10
119.3104403789
 20
80.7388079463
 10
119.3194801745
 20
80.7449115182
 10
119.3284135399
 20
80.7511444655
 10
119.3372021732
 20
80.7574650945
 10
119.3458882456
 20
80.763925083
 10
119.3545978486
 20
80.770668261
 10
119.3634091316
 20
80.7777398636
 10
119.3722560422
 20
80.7851017056
 10
119.3810513663
 20
80.7927737499
 10
119.389816991
 20
80.8007756687
 10
119.398543331
 20
80.8090988824
 10
119.4070942977
 20
80.8177254664
 10
119.4154272567
 20
80.8266546582
 10
119.4235949998
 20
80.8358993822
 10
119.4316033949
 20
80.8454630251
  0
LWPOLYLINE
  5
554
100
AcDbEntity
  8
ASSI
100
AcDbPolyline
 62
250
  6
CONTINUOUS
 90
16
 70
0
 10
116.1397151743
 20
79.4419599372
 10
116.1218596057
 20
79.4318111442
 10
116.1041612886
 20
79.4219576655
 10
116.0868077472
 20
79.4125037345
 10
116.0699859526
 20
79.4035509725
 10
116.053869995
 20
79.3951917874
 10
116.0386208162
 20
79.3875096798
 10
116.0243926605
 20
79.3805828137
 10
116.0113471333
 20
79.3744903596
 10
115.9996372574
 20
79.3693035584
 10
115.9893849328
 20
79.3650755261
 10
115.9806929802
 20
79.3618476638
 10
115.973653875
 20
79.3596527352
 10
115.9683346218
 20
79.3585088894
 10
115.9647804076
 20
79.358422225
 10
115.9630196123
 20
79.3593884309
  0
LINE
  5
555
100
AcDbEntity
  8
RACCORDO
100
AcDbLine
 62
250
  6
CONTINUOUS
 10
119.84340437
 20
121.6178347955
 11
119.696022231
 21
121.6178347955
  0
LINE
  5
556
100
AcDbEntity
  8
SUPERFICI
100
AcDbLine
 62
250
  6
CONTINUOUS
 10
111.84340437
 20
122.6454527198
 11
113.34340437
 21
122.6380486885
  0
LINE
  5
557
100
AcDbEntity
  8
RACCORDO
100
AcDbLine
 62
250
  6
CONTINUOUS
 10
111.84340437
 20
121.6658460826
 11
119.696022231
 21
121.6178347955
  0
LINE
  5
558
100
AcDbEntity
  8
RACCORDO
100
AcDbLine
 62
250
  6
CONTINUOUS
 10
111.84340437
 20
121.7904922431
 11
119.696022231
 21
121.7427464553
  0
LINE
  5
559
100
AcDbEntity
  8
SUPERFICI
100
AcDbLine
 62
7
  6
CONTINUOUS
 10
111.8448509671
 20
122.2310343874
 11
113.3353079379
 21
122.1893899216
  0
LWPOLYLINE
  5
55A
100
AcDbEntity
  8
ASSI
100
AcDbPolyline
 62
250
  6
CONTINUOUS
 90
16
 70
0
 10
116.1397151743
 20
128.5768169246
 10
116.1218875617
 20
128.5869499897
 10
116.1042116233
 20
128.5967914701
 10
116.0868743623
 20
128.6062372474
 10
116.0700588954
 20
128.6151875489
 10
116.0539434522
 20
128.623547503
 10
116.0386993478
 20
128.6312282576
 10
116.0244881989
 20
128.6381484352
 10
116.0114595462
 20
128.6442352728
 10
115.999750346
 20
128.6494248083
 10
115.989480663
 20
128.6536636413
 10
115.980764123
 20
128.6569046584
 10
115.9737000514
 20
128.6591116394
 10
115.9683590385
 20
128.660264578
 10
115.9647884119
 20
128.6603559587
 10
115.9630196123
 20
128.6593884309
  0
LWPOLYLINE
  5
55B
100
AcDbEntity
  8
ASSI
100
AcDbPolyline
 62
250
  6
CONTINUOUS
 90
31
 70
0
 10
119.301252104
 20
127.285971699
 10
119.2914752097
 20
127.2921971537
 10
119.2816844671
 20
127.2982077574
 10
119.2718804727
 20
127.304004998
 10
119.2621290613
 20
127.3095510777
 10
119.2523653744
 20
127.3148862126
 10
119.2423938061
 20
127.3201284999
 10
119.2321709099
 20
127.3253105898
 10
119.2217405302
 20
127.3304008104
 10
119.2110378487
 20
127.3354204084
 10
119.2000648179
 20
127.3403711509
 10
119.1888194266
 20
127.3452511268
 10
119.1772307744
 20
127.3500757337
 10
119.1652907119
 20
127.3548481754
 10
119.1530067633
 20
127.3595637093
 10
119.140331349
 20
127.3642253431
 10
119.1272540739
 20
127.3688327699
 10
119.1137840761
 20
127.3733831702
 10
119.0999028844
 20
127.3778752944
 10
119.0856060762
 20
127.3823035132
 10
119.0708963357
 20
127.3866690374
 10
119.0557657869
 20
127.3909806802
 10
119.0402174896
 20
127.395229741
 10
119.0242465983
 20
127.3994201755
 10
119.00783354
 20
127.4035801202
 10
118.9909906629
 20
127.407700484
 10
118.9737043546
 20
127.4117865949
 10
118.955916448
 20
127.4158890188
 10
118.9376608462
 20
127.4199998524
 10
118.9189033484
 20
127.424125262
 10
118.8793496007
 20
127.4326612106
  0
LWPOLYLINE
  5
55C
100
AcDbEntity
  8
0
100
AcDbPolyline
 62
7
  6
CONTINUOUS
 90
10
 70
0
 10
138.3369599656
 20
115.0314431314
 10
138.3495112104
 20
115.0196521124
 10
138.3616120823
 20
115.0078976369
 10
138.3732625813
 20
114.9961797049
 10
138.3844693132
 20
114.9844880388
 10
138.3952256721
 20
114.9728329162
 10
138.405511841
 20
114.9612451696
 10
138.415321214
 20
114.9497350764
 10
138.4246603969
 20
114.9382923592
 10
138.4335293897
 20
114.926917018
  0
LWPOLYLINE
  5
55D
100
AcDbEntity
  8
0
100
AcDbPolyline
 62
7
  6
CONTINUOUS
 90
19
 70
0
 10
137.980298383
 20
117.943861464
 10
137.9752297837
 20
117.9550528017
 10
137.9695633856
 20
117.9658401193
 10
137.9632991886
 20
117.9762234168
 10
137.9564107513
 20
117.9862368746
 10
137.9489245152
 20
117.9958463123
 10
137.9409198047
 20
118.0049491886
 10
137.932391355
 20
118.0135399881
 10
137.9233444309
 20
118.0216242263
 10
137.9138741509
 20
118.0291159079
 10
137.9039765811
 20
118.0360088756
 10
137.8936556554
 20
118.0423092868
 10
137.8830182942
 20
118.0479496187
 10
137.8720610469
 20
118.0529236178
 10
137.860787364
 20
118.0572375376
 10
137.849314518
 20
118.0608426166
 10
137.8376815998
 20
118.063722601
 10
137.8258495185
 20
118.0658937447
 10
137.813818274
 20
118.0673560475
  0
LINE
  5
55E
100
AcDbEntity
  8
ASSI
100
AcDbLine
 62
250
  6
CONTINUOUS
 10
116.4628329985
 20
79.4700676011
 11
118.837098246
 21
80.5772056686
  0
LINE
  5
55F
100
AcDbEntity
  8
ASSI
100
AcDbLine
 62
7
  6
CONTINUOUS
 10
116.5438661695
 20
79.3062345374
 11
119.3587793521
 21
80.6188501115
  0
LINE
  5
560
100
AcDbEntity
  8
RACCORDO
100
AcDbLine
 62
7
  6
CONTINUOUS
 10
120.3263482435
 20
122.5602153111
 11
127.7170346218
 21
123.739229049
  0
LINE
  5
561
100
AcDbEntity
  8
RACCORDO
100
AcDbLine
 62
250
  6
CONTINUOUS
 10
120.4373465493
 20
122.7798946045
 11
127.696022231
 21
123.9378490771
  0
LWPOLYLINE
  5
562
100
AcDbEntity
  8
RACCORDO
100
AcDbPolyline
 62
7
  6
CONTINUOUS
 90
13
 70
0
 10
112.0329371787
 20
122.0479337171
 10
112.0079433171
 20
122.0459849356
 10
111.9834851142
 20
122.0416020443
 10
111.9599528967
 20
122.0348456176
 10
111.9377219185
 20
122.0258001392
 10
111.917153828
 20
122.0146042342
 10
111.8985887104
 20
122.0014509106
 10
111.8823301123
 20
121.9865230783
 10
111.8686409554
 20
121.9700451107
 10
111.8577458608
 20
121.9523121476
 10
111.8498264742
 20
121.9336004042
 10
111.8450176664
 20
121.9141634085
 10
111.84340437
 20
121.8942840113
  0
LWPOLYLINE
  5
563
100
AcDbEntity
  8
RACCORDO
100
AcDbPolyline
 62
250
  6
CONTINUOUS
 90
4
 70
0
 10
121.196022231
 20
123.8764783153
 10
121.2153599885
 20
123.8776045135
 10
121.2343303695
 20
123.8804863667
 10
121.2526159484
 20
123.8850756539
  0
LWPOLYLINE
  5
564
100
AcDbEntity
  8
RACCORDO
100
AcDbPolyline
 62
250
  6
CONTINUOUS
 90
5
 70
0
 10
121.2060972303
 20
124.2379896658
 10
121.2153591151
 20
124.2385290429
 10
121.2343286729
 20
124.2414106474
 10
121.2526135211
 20
124.2459995375
 10
121.2699077326
 20
124.2522189362
  0
LINE
  5
565
100
AcDbEntity
  8
SUPERFICI
100
AcDbLine
 62
7
  6
CONTINUOUS
 10
111.84340437
 20
123.1308974179
 11
112.4263245255
 21
123.1410723271
  0
LINE
  5
566
100
AcDbEntity
  8
RACCORDO
100
AcDbLine
 62
7
  6
CONTINUOUS
 10
120.9766027874
 20
123.8140786127
 11
121.196022231
 21
123.8179085934
  0
LINE
  5
567
100
AcDbEntity
  8
RACCORDO
100
AcDbLine
 62
250
  6
CONTINUOUS
 10
121.0083953858
 20
123.8732032766
 11
121.196022231
 21
123.8764783153
  0
LINE
  5
568
100
AcDbEntity
  8
RACCORDO
100
AcDbLine
 62
250
  6
CONTINUOUS
 10
127.696022231
 20
123.9378490771
 11
127.84340437
 21
123.9378490771
  0
LINE
  5
569
100
AcDbEntity
  8
RACCORDO
100
AcDbLine
 62
250
  6
CONTINUOUS
 10
127.696022231
 20
124.3979073279
 11
127.84340437
 21
124.3979073279
  0
LINE
  5
56A
100
AcDbEntity
  8
RACCORDO
100
AcDbLine
 62
250
  6
CONTINUOUS
 10
127.696022231
 20
124.3979073279
 11
121.34340437
 21
124.4909511902
  0
LINE
  5
56B
100
AcDbEntity
  8
RACCORDO
100
AcDbLine
 62
250
  6
CONTINUOUS
 10
127.696022231
 20
124.6440717684
 11
121.34340437
 21
124.7371156307
  0
LINE
  5
56C
100
AcDbEntity
  8
RACCORDO
100
AcDbLine
 62
250
  6
CONTINUOUS
 10
127.696022231
 20
124.7299230861
 11
121.34340437
 21
124.8229669485
  0
LWPOLYLINE
  5
56D
100
AcDbEntity
  8
RACCORDO
100
AcDbPolyline
 62
250
  6
CONTINUOUS
 90
13
 70
0
 10
127.696022231
 20
124.6440717684
 10
127.7153599885
 20
124.6425032802
 10
127.7343303695
 20
124.6384896411
 10
127.7526159484
 20
124.6320980102
 10
127.7699107585
 20
124.6234353365
 10
127.7859254108
 20
124.61264657
 10
127.8003919374
 20
124.5999122357
 10
127.8130682742
 20
124.5854454133
 10
127.823742312
 20
124.5694881716
 10
127.8322354456
 20
124.5523075182
 10
127.8384055619
 20
124.5341909316
 10
127.8421494183
 20
124.515441551
 10
127.84340437
 20
124.4963731041
  0
LWPOLYLINE
  5
56E
100
AcDbEntity
  8
ASSI
100
AcDbPolyline
 62
250
  6
CONTINUOUS
 90
16
 70
0
 10
116.4628329985
 20
128.5487092607
 10
116.4529271429
 20
128.5530555258
 10
116.4431966733
 20
128.556985367
 10
116.4336415897
 20
128.5604987844
 10
116.4242477405
 20
128.5635702448
 10
116.4150292773
 20
128.5662252814
 10
116.406028655
 20
128.5685404937
 10
116.3972492286
 20
128.5705178082
 10
116.3886876432
 20
128.5721552983
 10
116.3803762888
 20
128.5735237838
 10
116.3723178241
 20
128.5746250309
 10
116.3645095904
 20
128.5754572735
 10
116.3569760017
 20
128.576086032
 10
116.3497251961
 20
128.5765331469
 10
116.3427490355
 20
128.5767767777
 10
116.33604752
 20
128.5768169246
  0
LINE
  5
56F
100
AcDbEntity
  8
ASSI
100
AcDbLine
 62
250
  6
CONTINUOUS
 10
118.8370982459
 20
127.4415711934
 11
116.4628329985
 21
128.5487092607
  0
LINE
  5
570
100
AcDbEntity
  8
ASSI
100
AcDbLine
 62
7
  6
CONTINUOUS
 10
119.3587793521
 20
127.3999267504
 11
116.5438661695
 21
128.7125423245
  0
LWPOLYLINE
  5
571
100
AcDbEntity
  8
0
100
AcDbPolyline
 62
7
  6
CONTINUOUS
 90
10
 70
0
 43
0.3500000006
 10
127.0781045837
 20
143.5042263794
 10
127.1495267029
 20
143.3613640137
 10
127.1495267029
 20
143.2899418945
 10
127.0066734009
 20
143.1470795288
 10
126.935242218
 20
143.1470795288
 10
126.8638200989
 20
143.2185197754
 10
126.8638200989
 20
143.2899418945
 10
126.935242218
 20
143.4328042603
 10
127.0066734009
 20
143.5042263794
 10
127.0781045837
 20
143.5042263794
  0
LWPOLYLINE
  5
572
100
AcDbEntity
  8
RACCORDO
100
AcDbPolyline
 62
250
  6
CONTINUOUS
 90
22
 70
0
 10
127.7322272268
 20
81.7295986052
 10
127.7341484802
 20
81.7304374754
 10
127.7359570362
 20
81.7319004057
 10
127.7376423824
 20
81.7339921907
 10
127.7391776275
 20
81.7366892482
 10
127.7405729688
 20
81.7400085615
 10
127.7418590952
 20
81.744056957
 10
127.7430179661
 20
81.7489225986
 10
127.7440119509
 20
81.754606156
 10
127.7448300461
 20
81.7611127174
 10
127.745450672
 20
81.7684583006
 10
127.7458499195
 20
81.7766563014
 10
127.7460209082
 20
81.7856824235
 10
127.7459470928
 20
81.7954846059
 10
127.745613635
 20
81.8060865934
 10
127.7450119661
 20
81.8175765092
 10
127.7441185499
 20
81.8299066879
 10
127.7429148165
 20
81.843079455
 10
127.741375229
 20
81.8572803611
 10
127.7394620863
 20
81.8725505377
 10
127.7371466842
 20
81.888758726
 10
127.734405472
 20
81.9058218943
  0
LWPOLYLINE
  5
573
100
AcDbEntity
  8
ASSI
100
AcDbPolyline
 62
250
  6
CONTINUOUS
 90
13
 70
0
 10
122.8016734668
 20
127.0591378687
 10
122.8103596902
 20
127.0611074485
 10
122.8206474867
 20
127.0630269307
 10
122.8324206983
 20
127.0648772106
 10
122.8455475749
 20
127.0666294063
 10
122.8598990528
 20
127.068279739
 10
122.8753754394
 20
127.0698467186
 10
122.8918821294
 20
127.0713290353
 10
122.9092322263
 20
127.0727007464
 10
122.9271871557
 20
127.0739445207
 10
122.9455505833
 20
127.0750490766
 10
122.9641594495
 20
127.0760087765
 10
122.9828229547
 20
127.0768168816
  0
LINE
  5
574
100
AcDbEntity
  8
RACCORDO
100
AcDbLine
 62
250
  6
CONTINUOUS
 10
127.696022231
 20
124.9760875266
 11
127.84340437
 21
124.9760875266
  0
LINE
  5
575
100
AcDbEntity
  8
RACCORDO
100
AcDbLine
 62
250
  6
CONTINUOUS
 10
127.696022231
 20
125.3372774103
 11
127.84340437
 21
125.3372774103
  0
LINE
  5
576
100
AcDbEntity
  8
RACCORDO
100
AcDbLine
 62
250
  6
CONTINUOUS
 10
113.34340437
 20
125.5093884309
 11
111.84340437
 21
125.5093884309
  0
LINE
  5
577
100
AcDbEntity
  8
RACCORDO
100
AcDbLine
 62
7
  6
CONTINUOUS
 10
113.14340437
 20
126.0093884309
 11
111.84340437
 21
126.0093884309
  0
LINE
  5
578
100
AcDbEntity
  8
RACCORDO
100
AcDbLine
 62
250
  6
CONTINUOUS
 10
113.34340437
 20
126.5128489783
 11
113.1468948513
 21
126.5128489783
  0
LINE
  5
579
100
AcDbEntity
  8
ASSI
100
AcDbLine
 62
250
  6
CONTINUOUS
 10
114.4468948513
 20
126.7645677593
 11
114.64340437
 21
126.7645677594
  0
LINE
  5
57A
100
AcDbEntity
  8
0
100
AcDbLine
 62
7
  6
CONTINUOUS
 10
114.4468948513
 20
125.1986181878
 11
113.34340437
 21
125.2072067149
  0
LINE
  5
57B
100
AcDbEntity
  8
RACCORDO
100
AcDbLine
 62
250
  6
CONTINUOUS
 10
127.696022231
 20
124.9760875266
 11
121.34340437
 21
125.069131389
  0
LINE
  5
57C
100
AcDbEntity
  8
RACCORDO
100
AcDbLine
 62
250
  6
CONTINUOUS
 10
121.34340437
 20
125.4481627675
 11
127.696022231
 21
125.3372774103
  0
LINE
  5
57D
100
AcDbEntity
  8
RACCORDO
100
AcDbLine
 62
7
  6
CONTINUOUS
 10
120.04340437
 20
125.7208162757
 11
127.696022231
 21
125.587239334
  0
LINE
  5
57E
100
AcDbEntity
  8
RACCORDO
100
AcDbLine
 62
250
  6
CONTINUOUS
 10
111.84340437
 20
126.5356014893
 11
113.1468948513
 21
126.5128489783
  0
LINE
  5
57F
100
AcDbEntity
  8
RACCORDO
100
AcDbLine
 62
7
  6
CONTINUOUS
 10
113.1468948513
 20
126.7128185173
 11
111.84340437
 21
126.7355710283
  0
LINE
  5
580
100
AcDbEntity
  8
RACCORDO
100
AcDbLine
 62
250
  6
CONTINUOUS
 10
120.0311886168
 20
125.3749343806
 11
121.196022231
 21
125.3543411524
  0
LINE
  5
581
100
AcDbEntity
  8
RACCORDO
100
AcDbLine
 62
250
  6
CONTINUOUS
 10
127.734405472
 20
126.1129549676
 11
127.754655332
 21
126.1123132374
  0
LINE
  5
582
100
AcDbEntity
  8
ASSI
100
AcDbLine
 62
7
  6
CONTINUOUS
 10
114.64340437
 20
125.9093884309
 11
120.04340437
 21
125.7208162757
  0
LINE
  5
583
100
AcDbEntity
  8
ASSI
100
AcDbLine
 62
250
  6
CONTINUOUS
 10
114.64340437
 20
125.5691466144
 11
120.0311886168
 21
125.3749343806
  0
LWPOLYLINE
  5
584
100
AcDbEntity
  8
ASSI
100
AcDbPolyline
 62
250
  6
CONTINUOUS
 90
13
 70
0
 10
121.7070997054
 20
127.0768169236
 10
121.7257983765
 20
127.0760087215
 10
121.7445040431
 20
127.0750489117
 10
121.7630261852
 20
127.0739442343
 10
121.7812020594
 20
127.0727003271
 10
121.7988337638
 20
127.0713284752
 10
121.8156792942
 20
127.0698460139
 10
121.8315483295
 20
127.0682787632
 10
121.8463430378
 20
127.0666281733
 10
121.8599603568
 20
127.0648761477
 10
121.8722679524
 20
127.0630266234
 10
121.8831290979
 20
127.0611083363
 10
121.8924222387
 20
127.0591403531
  0
LWPOLYLINE
  5
585
100
AcDbEntity
  8
RACCORDO
100
AcDbPolyline
 62
250
  6
CONTINUOUS
 90
9
 70
0
 10
127.754655332
 20
126.1123132374
 10
127.7736413198
 20
126.1114252611
 10
127.7909716731
 20
126.1103093616
 10
127.8062887922
 20
126.1089885647
 10
127.8192766196
 20
126.1074901244
 10
127.829667161
 20
126.1058449598
 10
127.8372460151
 20
126.1040870177
 10
127.8418567981
 20
126.1022525721
 10
127.84340437
 20
126.1003794752
  0
LINE
  5
586
100
AcDbEntity
  8
0
100
AcDbLine
 62
7
  6
CONTINUOUS
 10
111.84340437
 20
126.9880000999
 11
113.34340437
 21
126.9093884309
  0
LWPOLYLINE
  5
587
100
AcDbEntity
  8
ASSI
100
AcDbPolyline
 62
250
  6
CONTINUOUS
 90
10
 70
0
 10
119.450777451
 20
127.0419599353
 10
119.4276550458
 20
127.0432485027
 10
119.404891335
 20
127.0447545594
 10
119.3827930595
 20
127.046457808
 10
119.3616579945
 20
127.0483352932
 10
119.3417709179
 20
127.0503617149
 10
119.3233997772
 20
127.052509769
 10
119.3067921043
 20
127.0547505104
 10
119.2921716761
 20
127.057053743
 10
119.2797354837
 20
127.0593884305
  0
LWPOLYLINE
  5
588
100
AcDbEntity
  8
RACCORDO
100
AcDbPolyline
 62
250
  6
CONTINUOUS
 90
13
 70
0
 10
127.696022231
 20
124.7299230861
 10
127.7153600291
 20
124.728354592
 10
127.7343304429
 20
124.7243409383
 10
127.7526160456
 20
124.7179492868
 10
127.7699108707
 20
124.7092865887
 10
127.7859255285
 20
124.6984977969
 10
127.800392049
 20
124.6857634416
 10
127.8130683703
 20
124.6712966058
 10
127.8237423865
 20
124.6553393606
 10
127.8322354949
 20
124.6381587173
 10
127.838405587
 20
124.620042156
 10
127.8421494253
 20
124.6012928155
 10
127.84340437
 20
124.5822244218
  0
LINE
  5
589
100
AcDbEntity
  8
ASSI
100
AcDbLine
 62
250
  6
CONTINUOUS
 10
126.2784238694
 20
126.4900322215
 11
126.3500056602
 21
126.4783005027
  0
LINE
  5
58A
100
AcDbEntity
  8
ASSI
100
AcDbLine
 62
250
  6
CONTINUOUS
 10
126.3500056602
 20
126.4783005027
 11
126.4063680061
 21
126.4688015341
  0
LWPOLYLINE
  5
58B
100
AcDbEntity
  8
ASSI
100
AcDbPolyline
 62
250
  6
CONTINUOUS
 90
10
 70
0
 10
122.8016735447
 20
127.0593884309
 10
122.8134607444
 20
127.0569209958
 10
122.8280189002
 20
127.0545079449
 10
122.8450628595
 20
127.0521880565
 10
122.8642361706
 20
127.0500014892
 10
122.8852250258
 20
127.0479767006
 10
122.9077982494
 20
127.046133152
 10
122.9316432818
 20
127.044497251
 10
122.9563386751
 20
127.0430987473
 10
122.9814907315
 20
127.0419599374
  0
LINE
  5
58C
100
AcDbEntity
  8
ASSI
100
AcDbLine
 62
250
  6
CONTINUOUS
 10
118.8793496007
 20
127.4326612106
 11
118.8370982459
 21
127.4415711934
  0
LINE
  5
58D
100
AcDbEntity
  8
ASSI
100
AcDbLine
 62
250
  6
CONTINUOUS
 10
124.1266635084
 20
127.0665946725
 11
126.2784238694
 21
126.4900322215
  0
LINE
  5
58E
100
AcDbEntity
  8
RACCORDO
100
AcDbLine
 62
250
  6
CONTINUOUS
 10
126.4063680061
 20
126.4688015341
 11
127.734405472
 21
126.1129549676
  0
LINE
  5
58F
100
AcDbEntity
  8
ASSI
100
AcDbLine
 62
7
  6
CONTINUOUS
 10
124.1749368362
 20
127.2423513441
 11
126.4034636792
 21
126.6452193762
  0
LINE
  5
590
100
AcDbEntity
  8
RACCORDO
100
AcDbLine
 62
7
  6
CONTINUOUS
 10
126.3266971971
 20
126.6657888931
 11
127.7322272268
 21
126.2891782567
  0
LWPOLYLINE
  5
591
100
AcDbEntity
  8
ASSI
100
AcDbPolyline
 62
250
  6
CONTINUOUS
 90
13
 70
0
 10
126.4034636792
 20
126.6452193762
 10
126.4086880075
 20
126.6423746281
 10
126.4131169751
 20
126.636873375
 10
126.4166887688
 20
126.6287923957
 10
126.4193535384
 20
126.6182444731
 10
126.4210740929
 20
126.6053768204
 10
126.4218264191
 20
126.5903690263
 10
126.4216000171
 20
126.5734305485
 10
126.4203980468
 20
126.5547977906
 10
126.4182372835
 20
126.5347308026
 10
126.4151478841
 20
126.5135096513
 10
126.4111729662
 20
126.4914305119
 10
126.4063680061
 20
126.4688015341
  0
LWPOLYLINE
  5
592
100
AcDbEntity
  8
0
100
AcDbPolyline
 62
7
  6
CONTINUOUS
 90
10
 70
0
 43
0.3500000006
 10
124.1209569397
 20
153.2638051758
 10
124.1923881226
 20
153.1209428101
 10
124.1923881226
 20
153.0495206909
 10
124.0495348206
 20
152.9066583252
 10
123.9781036377
 20
152.9066583252
 10
123.9066724548
 20
152.9780804443
 10
123.9066724548
 20
153.0495206909
 10
123.9781036377
 20
153.1923649292
 10
124.0495348206
 20
153.2638051758
 10
124.1209569397
 20
153.2638051758
  0
LWPOLYLINE
  5
593
100
AcDbEntity
  8
ASSI
100
AcDbPolyline
 62
250
  6
CONTINUOUS
 90
10
 70
0
 10
118.2414004272
 20
127.0419599359
 10
118.2645659782
 20
127.0432484986
 10
118.2874664091
 20
127.0447545464
 10
118.3097931371
 20
127.0464577855
 10
118.3312453099
 20
127.0483352647
 10
118.3515338598
 20
127.050361685
 10
118.3703853985
 20
127.0525097406
 10
118.3875459016
 20
127.0547504864
 10
118.4027841316
 20
127.0570537284
 10
118.4158947533
 20
127.0593884305
  0
LWPOLYLINE
  5
594
100
AcDbEntity
  8
ASSI
100
AcDbPolyline
 62
250
  6
CONTINUOUS
 90
10
 70
0
 10
121.7085392388
 20
127.0419599575
 10
121.7337450833
 20
127.0430988368
 10
121.7586046939
 20
127.044497435
 10
121.7827217124
 20
127.0461334531
 10
121.8057116206
 20
127.0479808068
 10
121.8272078703
 20
127.0500100421
 10
121.846867728
 20
127.0521888052
 10
121.8643777395
 20
127.0544823581
 10
121.8794587274
 20
127.0568541328
 10
121.8918702421
 20
127.0592663141
  0
LWPOLYLINE
  5
595
100
AcDbEntity
  8
ASSI
100
AcDbPolyline
 62
250
  6
CONTINUOUS
 90
32
 70
0
 10
118.7336962756
 20
127.2583671899
 10
118.7209125963
 20
127.2580666484
 10
118.7084264809
 20
127.2576935383
 10
118.6961547411
 20
127.2572336131
 10
118.6840189408
 20
127.2566695274
 10
118.6720478777
 20
127.2559910956
 10
118.6601897708
 20
127.2551765304
 10
118.6482405262
 20
127.2541808467
 10
118.636137808
 20
127.2529766999
 10
118.6239229537
 20
127.251533655
 10
118.6115386158
 20
127.249781721
 10
118.5989355091
 20
127.2476707839
 10
118.5861546215
 20
127.2451565467
 10
118.5732691956
 20
127.2421554325
 10
118.5603036983
 20
127.2386090195
 10
118.5472624985
 20
127.2344498167
 10
118.5341949312
 20
127.2295566822
 10
118.5211428944
 20
127.2238500243
 10
118.5081660419
 20
127.2172498677
 10
118.4953640626
 20
127.2096081431
 10
118.4827324505
 20
127.200734238
 10
118.4705075072
 20
127.1906362571
 10
118.4591499787
 20
127.1795073504
 10
118.4487804528
 20
127.1672415277
 10
118.4395423073
 20
127.1539273576
 10
118.4318019924
 20
127.1401941636
 10
118.4256589511
 20
127.1262114297
 10
118.4210409192
 20
127.1120027704
 10
118.4178575285
 20
127.0980811938
 10
118.4159857059
 20
127.0846896721
 10
118.4153611618
 20
127.0717702964
 10
118.4158950925
 20
127.0593884309
  0
LWPOLYLINE
  5
596
100
AcDbEntity
  8
ASSI
100
AcDbPolyline
 62
250
  6
CONTINUOUS
 90
35
 70
0
 10
118.766570905
 20
127.4410415218
 10
118.7522627116
 20
127.4407574635
 10
118.7378256182
 20
127.4403878674
 10
118.7232914439
 20
127.4399273015
 10
118.7087154105
 20
127.4393163845
 10
118.6941664748
 20
127.4385660619
 10
118.6795756801
 20
127.4376653883
 10
118.6647913784
 20
127.4365221467
 10
118.6498733222
 20
127.4351662547
 10
118.634761759
 20
127.4335677946
 10
118.6191257829
 20
127.4315447972
 10
118.6029072374
 20
127.4291341381
 10
118.5861642791
 20
127.4262989417
 10
118.5687404719
 20
127.4227466116
 10
118.5505501667
 20
127.4185088986
 10
118.5316790127
 20
127.413554052
 10
118.5122275215
 20
127.407494223
 10
118.4921560741
 20
127.4003762235
 10
118.4715042896
 20
127.3921532416
 10
118.450491537
 20
127.3822969932
 10
118.4290138785
 20
127.3708389978
 10
118.4071752519
 20
127.3577477358
 10
118.3855068392
 20
127.3424003642
 10
118.3637317496
 20
127.3245196732
 10
118.3421268739
 20
127.3043828725
 10
118.322054067
 20
127.2821987482
 10
118.3036125356
 20
127.2575617961
 10
118.286703073
 20
127.2308775205
 10
118.2723899137
 20
127.2035712196
 10
118.2610930384
 20
127.1756573095
 10
118.2523924665
 20
127.1471213741
 10
118.2460924901
 20
127.1193454641
 10
118.2421278735
 20
127.0927902631
 10
118.2405638525
 20
127.0669950875
 10
118.2414004271
 20
127.0419599372
  0
LINE
  5
597
100
AcDbEntity
  8
ASSI
100
AcDbLine
 62
250
  6
CONTINUOUS
 10
118.7598567975
 20
127.2587871922
 11
118.7336962756
 21
127.2583671899
  0
LINE
  5
598
100
AcDbEntity
  8
ASSI
100
AcDbLine
 62
250
  6
CONTINUOUS
 10
118.7949362842
 20
127.4413798133
 11
118.766570905
 21
127.4410415218
  0
LINE
  5
599
100
AcDbEntity
  8
ASSI
100
AcDbLine
 62
250
  6
CONTINUOUS
 10
118.7864883449
 20
127.259025887
 11
118.7598567975
 21
127.2587871922
  0
LINE
  5
59A
100
AcDbEntity
  8
ASSI
100
AcDbLine
 62
250
  6
CONTINUOUS
 10
118.8406668713
 20
127.259194059
 11
118.7864883449
 21
127.259025887
  0
LWPOLYLINE
  5
59B
100
AcDbEntity
  8
ASSI
100
AcDbPolyline
 62
250
  6
CONTINUOUS
 90
3
 70
0
 10
118.8370982459
 20
127.4415711934
 10
118.8231011043
 20
127.4415552855
 10
118.7949362842
 20
127.4413798133
  0
LINE
  5
59C
100
AcDbEntity
  8
ASSI
100
AcDbLine
 62
250
  6
CONTINUOUS
 10
119.2797354873
 20
127.0593884309
 11
118.4158947533
 21
127.0593884309
  0
LINE
  5
59D
100
AcDbEntity
  8
ASSI
100
AcDbLine
 62
250
  6
CONTINUOUS
 10
121.8924221101
 20
127.0593884309
 11
122.8016735447
 21
127.0593884309
  0
LINE
  5
59E
100
AcDbEntity
  8
ASSI
100
AcDbLine
 62
250
  6
CONTINUOUS
 10
121.7070997055
 20
127.0768169246
 11
119.996197226
 21
127.0768169246
  0
LINE
  5
59F
100
AcDbEntity
  8
ASSI
100
AcDbLine
 62
250
  6
CONTINUOUS
 10
122.9828229563
 20
127.0768169246
 11
124.0490177949
 21
127.0768169246
  0
LINE
  5
5A0
100
AcDbEntity
  8
ASSI
100
AcDbLine
 62
7
  6
CONTINUOUS
 10
119.9927067447
 20
127.2593884309
 11
124.0455273136
 21
127.2593884309
  0
LINE
  5
5A1
100
AcDbEntity
  8
ASSI
100
AcDbLine
 62
250
  6
CONTINUOUS
 10
115.1468948513
 20
127.2994299386
 11
115.34340437
 21
127.2994299386
  0
LINE
  5
5A2
100
AcDbEntity
  8
ASSI
100
AcDbLine
 62
250
  6
CONTINUOUS
 10
115.1468948513
 20
127.7517562511
 11
115.34340437
 21
127.7517562511
  0
LINE
  5
5A3
100
AcDbEntity
  8
ASSI
100
AcDbLine
 62
250
  6
CONTINUOUS
 10
112.4934294537
 20
128.3768169246
 11
111.84340437
 21
128.3768169246
  0
LINE
  5
5A4
100
AcDbEntity
  8
ASSI
100
AcDbLine
 62
7
  6
CONTINUOUS
 10
112.4899389724
 20
128.5593884309
 11
111.84340437
 21
128.5593884309
  0
LINE
  5
5A5
100
AcDbEntity
  8
ASSI
100
AcDbLine
 62
250
  6
CONTINUOUS
 10
116.33604752
 20
128.5768169246
 11
116.1397151743
 21
128.5768169246
  0
LINE
  5
5A6
100
AcDbEntity
  8
ASSI
100
AcDbLine
 62
7
  6
CONTINUOUS
 10
116.3325570387
 20
128.7593884309
 11
116.136224693
 21
128.7593884309
  0
LINE
  5
5A7
100
AcDbEntity
  8
ASSI
100
AcDbLine
 62
250
  6
CONTINUOUS
 10
118.9068237586
 20
127.2590815149
 11
118.8406668713
 21
127.259194059
  0
LWPOLYLINE
  5
5A8
100
AcDbEntity
  8
ASSI
100
AcDbPolyline
 62
250
  6
CONTINUOUS
 90
13
 70
0
 10
124.0490177949
 20
127.0768169246
 10
124.0551069618
 20
127.0767594476
 10
124.0612315321
 20
127.0765717196
 10
124.067391506
 20
127.0762537406
 10
124.073564767
 20
127.0758127542
 10
124.0797734315
 20
127.0752415168
 10
124.0860838487
 20
127.0745182979
 10
124.0925015552
 20
127.0736487886
 10
124.0990210144
 20
127.0726272977
 10
124.1056919654
 20
127.071415021
 10
124.1125309879
 20
127.0699990239
 10
124.1195215023
 20
127.0683922411
 10
124.1266635084
 20
127.0665946725
  0
LWPOLYLINE
  5
5A9
100
AcDbEntity
  8
ASSI
100
AcDbPolyline
 62
250
  6
CONTINUOUS
 90
13
 70
0
 10
119.996197226
 20
127.0768169246
 10
119.9463086255
 20
127.0776295582
 10
119.8970050423
 20
127.0797844812
 10
119.8482864763
 20
127.0832816937
 10
119.8001927053
 20
127.0881440785
 10
119.7526839516
 20
127.0943487528
 10
119.7056408819
 20
127.1018270679
 10
119.6590726197
 20
127.1105559459
 10
119.6129700415
 20
127.1205584647
 10
119.5671864442
 20
127.131835209
 10
119.5216729267
 20
127.1443863737
 10
119.4764783899
 20
127.158211764
 10
119.431602834
 20
127.1733113797
  0
LINE
  5
5AA
100
AcDbEntity
  8
ASSI
100
AcDbLine
 62
250
  6
CONTINUOUS
 10
115.1468948513
 20
127.7517562511
 11
111.84340437
 21
127.8094188919
  0
LINE
  5
5AB
100
AcDbEntity
  8
ASSI
100
AcDbLine
 62
7
  6
CONTINUOUS
 10
115.1468948513
 20
127.9517257901
 11
111.84340437
 21
128.0093884309
  0
LWPOLYLINE
  5
5AC
100
AcDbEntity
  8
ASSI
100
AcDbPolyline
 62
250
  6
CONTINUOUS
 90
16
 70
0
 10
112.4934294537
 20
128.3768169246
 10
112.5131796399
 20
128.3819558381
 10
112.5326766259
 20
128.3868555726
 10
112.5517164334
 20
128.3914651182
 10
112.5700934812
 20
128.3957350632
 10
112.5876239908
 20
128.3996230781
 10
112.6041444024
 20
128.4030928328
 10
112.6194962849
 20
128.4061102886
 10
112.633496513
 20
128.4086386279
 10
112.645968684
 20
128.4106463308
 10
112.6567860465
 20
128.4121144395
 10
112.6658483083
 20
128.4130310036
 10
112.673062032
 20
128.4133890294
 10
112.6783664437
 20
128.4131896983
 10
112.6817264392
 20
128.4124400029
 10
112.6831241377
 20
128.41115224
  0
LINE
  5
5AD
100
AcDbEntity
  8
SUPERFICI
100
AcDbLine
 62
250
  6
CONTINUOUS
 10
111.84340437
 20
129.9095597684
 11
108.5303158958
 21
129.8228034935
  0
LINE
  5
5AE
100
AcDbEntity
  8
SUPERFICI
100
AcDbLine
 62
7
  6
CONTINUOUS
 10
111.84340437
 20
130.4093884309
 11
108.5303158958
 21
130.322632156
  0
LINE
  5
5AF
100
AcDbEntity
  8
SUPERFICI
100
AcDbLine
 62
250
  6
CONTINUOUS
 10
108.5303158958
 20
129.8228034935
 11
108.04340437
 21
129.8228034935
  0
LWPOLYLINE
  5
5B0
100
AcDbEntity
  8
0
100
AcDbPolyline
 62
7
  6
CONTINUOUS
 90
7
 70
0
 43
0.3500000006
 10
123.220956665
 20
143.0042352905
 10
121.7209562073
 20
143.0042352905
 10
123.220956665
 20
145.1470801392
 10
123.220956665
 20
145.5756491089
 10
122.7923876953
 20
146.0042180786
 10
122.1495342407
 20
146.0042180786
 10
121.7209562073
 20
145.361364624
  0
LWPOLYLINE
  5
5B1
100
AcDbEntity
  8
0
100
AcDbPolyline
 62
7
  6
CONTINUOUS
 90
3
 70
0
 43
0.3500000006
 10
125.578104126
 20
143.6470887451
 10
124.0781036682
 20
143.6470887451
 10
124.7209571228
 20
146.0042180786
  0
LWPOLYLINE
  5
5B2
100
AcDbEntity
  8
0
100
AcDbPolyline
 62
7
  6
CONTINUOUS
 90
6
 70
0
 43
0.3500000006
 10
118.9781021118
 20
152.7637959595
 10
120.0495335999
 20
152.7637959595
 10
120.2638180847
 20
152.9780804443
 10
120.2638180847
 20
154.0495209961
 10
119.835249115
 20
154.4780899658
 10
119.4066710815
 20
154.4780899658
  0
LWPOLYLINE
  5
5B3
100
AcDbEntity
  8
0
100
AcDbPolyline
 62
7
  6
CONTINUOUS
 90
3
 70
0
 43
0.3500000006
 10
126.6923888855
 20
153.4066494141
 10
125.1923884277
 20
153.4066494141
 10
125.8352418823
 20
155.763796875
  0
CIRCLE
  5
5B4
100
AcDbEntity
  8
RACCORDO
100
AcDbCircle
 62
250
  6
CONTINUOUS
 10
162.241723493
 20
104.0093884309
 40
7.6622947095
  0
CIRCLE
  5
5B5
100
AcDbEntity
  8
RACCORDO
100
AcDbCircle
 62
250
  6
CONTINUOUS
 10
162.241723493
 20
104.0093884309
 40
7.1623708619
  0
CIRCLE
  5
5B6
100
AcDbEntity
  8
DRAFT
100
AcDbCircle
 62
7
  6
CONTINUOUS
 10
162.241723493
 20
104.0093884309
 40
7.15
  0
CIRCLE
  5
5B7
100
AcDbEntity
  8
RACCORDO
100
AcDbCircle
 62
250
  6
CONTINUOUS
 10
162.241723493
 20
104.0093884309
 40
7.0179016855
  0
CIRCLE
  5
5B8
100
AcDbEntity
  8
RACCORDO
100
AcDbCircle
 62
250
  6
CONTINUOUS
 10
162.241723493
 20
104.0093884309
 40
4.678713987
  0
CIRCLE
  5
5B9
100
AcDbEntity
  8
RACCORDO
100
AcDbCircle
 62
250
  6
CONTINUOUS
 10
162.241723493
 20
104.0093884309
 40
4.2708794707
  0
CIRCLE
  5
5BA
100
AcDbEntity
  8
DRAFT
100
AcDbCircle
 62
7
  6
CONTINUOUS
 10
162.241723493
 20
104.0093884309
 40
4.25
  0
ARC
  5
5BB
100
AcDbEntity
  8
SUPERFICI
100
AcDbCircle
 62
7
  6
CONTINUOUS
 10
108.54340437
 20
78.1959733684
 40
0.5
100
AcDbArc
 50
180.0
 51
268.5
  0
ARC
  5
5BC
100
AcDbEntity
  8
RACCORDO
100
AcDbCircle
 62
7
  6
CONTINUOUS
 10
113.14340437
 20
82.2093884309
 40
0.2
100
AcDbArc
 50
270.0
 51
360.0
  0
ARC
  5
5BD
100
AcDbEntity
  8
ASSI
100
AcDbCircle
 62
7
  6
CONTINUOUS
 10
112.4899389724
 20
79.6593884309
 40
0.2
100
AcDbArc
 50
270.0
 51
345.0
  0
ARC
  5
5BE
100
AcDbEntity
  8
ASSI
100
AcDbCircle
 62
7
  6
CONTINUOUS
 10
114.84340437
 20
81.2542091026
 40
0.2
100
AcDbArc
 50
180.0
 51
250.0
  0
ARC
  5
5BF
100
AcDbEntity
  8
RACCORDO
100
AcDbCircle
 62
7
  6
CONTINUOUS
 10
113.14340437
 20
81.5059278836
 40
0.2
100
AcDbArc
 50
271.0
 51
360.0
  0
ARC
  5
5C0
100
AcDbEntity
  8
SUPERFICI
100
AcDbCircle
 62
7
  6
CONTINUOUS
 10
112.4210888036
 20
84.5777502262
 40
0.3
100
AcDbArc
 50
46.3156631378
 51
89.0
  0
ARC
  5
5C1
100
AcDbEntity
  8
ASSI
100
AcDbCircle
 62
7
  6
CONTINUOUS
 10
119.9927067447
 20
79.2593884309
 40
1.5
100
AcDbArc
 50
90.0
 51
115.0
  0
ARC
  5
5C2
100
AcDbEntity
  8
ASSI
100
AcDbCircle
 62
7
  6
CONTINUOUS
 10
116.3325570387
 20
79.7593884309
 40
0.5
100
AcDbArc
 50
270.0
 51
295.0
  0
ARC
  5
5C3
100
AcDbEntity
  8
ASSI
100
AcDbCircle
 62
7
  6
CONTINUOUS
 10
116.136224693
 20
79.4593884309
 40
0.2
100
AcDbArc
 50
210.0
 51
270.0
  0
ARC
  5
5C4
100
AcDbEntity
  8
ASSI
100
AcDbCircle
 62
7
  6
CONTINUOUS
 10
115.3279343162
 20
80.0593884309
 40
0.2
100
AcDbArc
 50
30.0
 51
85.6838888483
  0
ARC
  5
5C5
100
AcDbEntity
  8
ASSI
100
AcDbCircle
 62
7
  6
CONTINUOUS
 10
115.14340437
 20
80.7193469233
 40
0.2
100
AcDbArc
 50
0.0
 51
70.0
  0
ARC
  5
5C6
100
AcDbEntity
  8
ASSI
100
AcDbCircle
 62
7
  6
CONTINUOUS
 10
115.14340437
 20
80.2670206108
 40
0.2
100
AcDbArc
 50
271.0
 51
360.0
  0
ARC
  5
5C7
100
AcDbEntity
  8
RACCORDO
100
AcDbCircle
 62
7
  6
CONTINUOUS
 10
119.99340437
 20
86.4747348113
 40
0.1500000445
100
AcDbArc
 50
194.4317880881
 51
197.5575287686
  0
ARC
  5
5C8
100
AcDbEntity
  8
RACCORDO
100
AcDbCircle
 62
7
  6
CONTINUOUS
 10
121.19340437
 20
82.4680567601
 40
0.15
100
AcDbArc
 50
271.0
 51
360.0
  0
ARC
  5
5C9
100
AcDbEntity
  8
RACCORDO
100
AcDbCircle
 62
7
  6
CONTINUOUS
 10
121.19340437
 20
84.0508911142
 40
0.15
100
AcDbArc
 50
0.0
 51
89.0
  0
ARC
  5
5CA
100
AcDbEntity
  8
ASSI
100
AcDbCircle
 62
7
  6
CONTINUOUS
 10
119.9927067447
 20
128.7593884309
 40
1.5
100
AcDbArc
 50
245.0
 51
270.0
  0
ARC
  5
5CB
100
AcDbEntity
  8
SUPERFICI
100
AcDbCircle
 62
7
  6
CONTINUOUS
 10
108.54340437
 20
129.8228034935
 40
0.5
100
AcDbArc
 50
91.5
 51
180.0
  0
ARC
  5
5CC
100
AcDbEntity
  8
ASSI
100
AcDbCircle
 62
7
  6
CONTINUOUS
 10
116.3325570387
 20
128.2593884309
 40
0.5
100
AcDbArc
 50
65.0
 51
90.0
  0
ARC
  5
5CD
100
AcDbEntity
  8
SUPERFICI
100
AcDbCircle
 62
7
  6
CONTINUOUS
 10
112.4210888036
 20
123.4410266357
 40
0.3
100
AcDbArc
 50
271.0
 51
313.6843368622
  0
ARC
  5
5CE
100
AcDbEntity
  8
RACCORDO
100
AcDbCircle
 62
7
  6
CONTINUOUS
 10
113.14340437
 20
125.8093884309
 40
0.2
100
AcDbArc
 50
0.0
 51
90.0
  0
ARC
  5
5CF
100
AcDbEntity
  8
ASSI
100
AcDbCircle
 62
7
  6
CONTINUOUS
 10
116.136224693
 20
128.5593884309
 40
0.2
100
AcDbArc
 50
90.0
 51
150.0
  0
ARC
  5
5D0
100
AcDbEntity
  8
ASSI
100
AcDbCircle
 62
7
  6
CONTINUOUS
 10
112.4899389724
 20
128.3593884309
 40
0.2
100
AcDbArc
 50
15.0
 51
90.0
  0
ARC
  5
5D1
100
AcDbEntity
  8
ASSI
100
AcDbCircle
 62
7
  6
CONTINUOUS
 10
115.3279343162
 20
127.9593884309
 40
0.2
100
AcDbArc
 50
274.3466611405
 51
330.0
  0
ARC
  5
5D2
100
AcDbEntity
  8
ASSI
100
AcDbCircle
 62
7
  6
CONTINUOUS
 10
114.84340437
 20
126.7645677593
 40
0.2
100
AcDbArc
 50
110.0
 51
180.0
  0
ARC
  5
5D3
100
AcDbEntity
  8
ASSI
100
AcDbCircle
 62
7
  6
CONTINUOUS
 10
115.14340437
 20
127.2994299386
 40
0.2
100
AcDbArc
 50
290.0
 51
360.0
  0
ARC
  5
5D4
100
AcDbEntity
  8
ASSI
100
AcDbCircle
 62
7
  6
CONTINUOUS
 10
115.14340437
 20
127.7517562511
 40
0.2
100
AcDbArc
 50
0.0
 51
89.0
  0
ARC
  5
5D5
100
AcDbEntity
  8
RACCORDO
100
AcDbCircle
 62
7
  6
CONTINUOUS
 10
113.14340437
 20
126.5128489783
 40
0.2
100
AcDbArc
 50
0.0
 51
89.0
  0
ARC
  5
5D6
100
AcDbEntity
  8
RACCORDO
100
AcDbCircle
 62
7
  6
CONTINUOUS
 10
119.99340437
 20
121.5440420506
 40
0.1500000445
100
AcDbArc
 50
154.2852869744
 51
165.5682119118
  0
ARC
  5
5D7
100
AcDbEntity
  8
RACCORDO
100
AcDbCircle
 62
7
  6
CONTINUOUS
 10
121.19340437
 20
125.5507201018
 40
0.15
100
AcDbArc
 50
0.0
 51
88.9999999995
  0
ARC
  5
5D8
100
AcDbEntity
  8
RACCORDO
100
AcDbCircle
 62
7
  6
CONTINUOUS
 10
121.19340437
 20
123.9678857477
 40
0.15
100
AcDbArc
 50
271.0
 51
360.0
  0
ARC
  5
5D9
100
AcDbEntity
  8
ASSI
100
AcDbCircle
 62
7
  6
CONTINUOUS
 10
124.0455273136
 20
81.2593884309
 40
0.5
100
AcDbArc
 50
270.0
 51
285.0
  0
ARC
  5
5DA
100
AcDbEntity
  8
RACCORDO
100
AcDbCircle
 62
7
  6
CONTINUOUS
 10
127.69340437
 20
81.8744874791
 40
0.15
100
AcDbArc
 50
285.0
 51
360.0
  0
ARC
  5
5DB
100
AcDbEntity
  8
RACCORDO
100
AcDbCircle
 62
7
  6
CONTINUOUS
 10
127.69340437
 20
82.5815146821
 40
0.15
100
AcDbArc
 50
271.0
 51
359.9999999998
  0
ARC
  5
5DC
100
AcDbEntity
  8
RACCORDO
100
AcDbCircle
 62
7
  6
CONTINUOUS
 10
127.69340437
 20
83.3985259194
 40
0.15
100
AcDbArc
 50
0.0
 51
7.4166666667
  0
ARC
  5
5DD
100
AcDbEntity
  8
RACCORDO
100
AcDbCircle
 62
7
  6
CONTINUOUS
 10
127.69340437
 20
84.1314208025
 40
0.15
100
AcDbArc
 50
0.0
 51
80.9361516421
  0
ARC
  5
5DE
100
AcDbEntity
  8
0
100
AcDbCircle
 62
7
  6
CONTINUOUS
 10
131.54340437
 20
92.7593884309
 40
6.9742383097
100
AcDbArc
 50
337.3616781196
 51
354.3890903291
  0
ARC
  5
5DF
100
AcDbEntity
  8
0
100
AcDbCircle
 62
7
  6
CONTINUOUS
 10
131.54340437
 20
92.7593884309
 40
6.9742383097
100
AcDbArc
 50
5.6109025878
 51
22.6383218804
  0
ARC
  5
5E0
100
AcDbEntity
  8
RACCORDO
100
AcDbCircle
 62
7
  6
CONTINUOUS
 10
135.84340437
 20
89.486380439
 40
0.5
100
AcDbArc
 50
271.0
 51
360.0
  0
ARC
  5
5E1
100
AcDbEntity
  8
RACCORDO
100
AcDbCircle
 62
7
  6
CONTINUOUS
 10
135.84340437
 20
96.0323964228
 40
0.5
100
AcDbArc
 50
0.0
 51
89.0
  0
ARC
  5
5E2
100
AcDbEntity
  8
0
100
AcDbCircle
 62
7
  6
CONTINUOUS
 10
131.54340437
 20
115.2593884309
 40
6.9742383097
100
AcDbArc
 50
337.3616781196
 51
354.3890903291
  0
ARC
  5
5E3
100
AcDbEntity
  8
0
100
AcDbCircle
 62
7
  6
CONTINUOUS
 10
131.54340437
 20
115.2593884309
 40
6.9742383097
100
AcDbArc
 50
5.6109025878
 51
22.6383218804
  0
ARC
  5
5E4
100
AcDbEntity
  8
RACCORDO
100
AcDbCircle
 62
7
  6
CONTINUOUS
 10
135.84340437
 20
111.986380439
 40
0.5
100
AcDbArc
 50
271.0
 51
360.0
  0
ARC
  5
5E5
100
AcDbEntity
  8
RACCORDO
100
AcDbCircle
 62
7
  6
CONTINUOUS
 10
135.84340437
 20
118.5323964228
 40
0.5
100
AcDbArc
 50
0.0
 51
89.0
  0
ARC
  5
5E6
100
AcDbEntity
  8
ASSI
100
AcDbCircle
 62
7
  6
CONTINUOUS
 10
124.0455273136
 20
126.7593884309
 40
0.5
100
AcDbArc
 50
75.0
 51
90.0
  0
ARC
  5
5E7
100
AcDbEntity
  8
RACCORDO
100
AcDbCircle
 62
7
  6
CONTINUOUS
 10
127.69340437
 20
126.1442893827
 40
0.15
100
AcDbArc
 50
0.0000000002
 51
75.0000000001
  0
ARC
  5
5E8
100
AcDbEntity
  8
RACCORDO
100
AcDbCircle
 62
7
  6
CONTINUOUS
 10
127.69340437
 20
124.6202509424
 40
0.15
100
AcDbArc
 50
352.5833396643
 51
360.0
  0
ARC
  5
5E9
100
AcDbEntity
  8
RACCORDO
100
AcDbCircle
 62
7
  6
CONTINUOUS
 10
127.69340437
 20
125.4372621798
 40
0.15
100
AcDbArc
 50
0.0
 51
89.0
  0
ARC
  5
5EA
100
AcDbEntity
  8
RACCORDO
100
AcDbCircle
 62
7
  6
CONTINUOUS
 10
127.69340437
 20
123.8873560594
 40
0.15
100
AcDbArc
 50
279.0638483579
 51
360.0
  0
ELLIPSE
  5
5EB
100
AcDbEntity
  8
SUPERFICI
100
AcDbEllipse
 62
7
  6
CONTINUOUS
 10
151.6418948893
 20
78.1095598272
 30
0.0
 11
0.35379574
 21
0.35379574
 31
0.0
 40
0.999315002
 41
2.3565371065
 42
3.9266482006
  0
ELLIPSE
  5
5EC
100
AcDbEntity
  8
SUPERFICI
100
AcDbEllipse
 62
7
  6
CONTINUOUS
 10
172.8415520968
 20
78.1095598272
 30
0.0
 11
-0.35379574
 21
0.35379574
 31
0.0
 40
0.999315002
 41
-3.9266482006
 42
-2.3565371065
  0
ELLIPSE
  5
5ED
100
AcDbEntity
  8
SUPERFICI
100
AcDbEllipse
 62
7
  6
CONTINUOUS
 10
172.8415520968
 20
129.9092170347
 30
0.0
 11
-0.35379574
 21
-0.35379574
 31
0.0
 40
0.999315002
 41
2.3565371065
 42
3.9266482006
  0
ELLIPSE
  5
5EE
100
AcDbEntity
  8
SUPERFICI
100
AcDbEllipse
 62
7
  6
CONTINUOUS
 10
151.6418948893
 20
129.9092170347
 30
0.0
 11
0.35379574
 21
-0.35379574
 31
0.0
 40
0.999315002
 41
2.3565371065
 42
3.9266482006
  0
ELLIPSE
  5
5EF
100
AcDbEntity
  8
RACCORDO
100
AcDbEllipse
 62
7
  6
CONTINUOUS
 10
-30.3010872422
 20
96.7068306888
 30
0.0
 11
591.6544903202
 21
21.9522363776
 31
0.0
 40
0.0348940885
 41
1.324596945
 42
1.3265493164
  0
ELLIPSE
  5
5F0
100
AcDbEntity
  8
RACCORDO
100
AcDbEllipse
 62
7
  6
CONTINUOUS
 10
-30.3010872422
 20
111.3119461731
 30
0.0
 11
591.6544903202
 21
-21.9522363776
 31
0.0
 40
0.0348940885
 41
-1.3265493164
 42
-1.324596945
  0
ELLIPSE
  5
5F1
100
AcDbEntity
  8
0
100
AcDbEllipse
 62
7
  6
CONTINUOUS
 10
-1237.8475665279
 20
104.0093884309
 30
0.0
 11
1491.5228640581
 21
-0.0
 31
0.0
 40
0.0302453443
 41
5.8446461622
 42
5.8459213948
  0
ELLIPSE
  5
5F2
100
AcDbEntity
  8
0
100
AcDbEllipse
 62
7
  6
CONTINUOUS
 10
-1237.8475665279
 20
104.0093884309
 30
0.0
 11
1491.5228640581
 21
-0.0
 31
0.0
 40
0.0302453443
 41
6.7204492196
 42
6.7217244522
  0
ENDSEC
  0
SECTION
  2
OBJECTS
  0
DICTIONARY
  5
C
100
AcDbDictionary
280
0
281
1
  3
ACAD_GROUP
350
D
  3
ACAD_MLINESTYLE
350
17
  3
ACAD_LAYOUT
350
1A
  3
ACAD_PLOTSETTINGS
350
19
  3
ACAD_PLOTSTYLENAME
350
E
  0
DICTIONARY
  5
D
102
{ACAD_REACTORS
330
C
102
}
100
AcDbDictionary
280
0
281
1
  0
ACDBDICTIONARYWDFLT
  5
E
102
{ACAD_REACTORS
330
C
102
}
100
AcDbDictionary
281
1
  3
Normal
350
F
100
AcDbDictionaryWithDefault
340
F
  0
DICTIONARY
  5
17
102
{ACAD_REACTORS
330
C
102
}
100
AcDbDictionary
280
0
281
1
  3
Standard
350
18
  0
DICTIONARY
  5
19
102
{ACAD_REACTORS
330
C
102
}
100
AcDbDictionary
281
1
  0
DICTIONARY
  5
1A
102
{ACAD_REACTORS
330
C
102
}
100
AcDbDictionary
281
1
  3
Model
350
5F3
  3
Layout1
350
5F4
  0
ACDBPLACEHOLDER
  5
F
102
{ACAD_REACTORS
330
E
102
}
  0
MLINESTYLE
  5
18
102
{ACAD_REACTORS
330
17
102
}
100
AcDbMlineStyle
  2
STANDARD
 70
0
  3

 62
256
 51
90.0
 52
90.0
 71
2
 49
0.5
 62
256
  6
BYLAYER
 49
-0.5
 62
256
  6
BYLAYER
  0
LAYOUT
  5
5F3
102
{ACAD_REACTORS
330
1A
102
}
100
AcDbPlotSettings
  1

  2
none_device
  4
ISO_A4_(297.00_x_210.00_MM)
  6

 40
0.0
 41
0.0
 42
0.0
 43
0.0
 44
297.0
 45
210.0
 46
0.0
 47
0.0
 48
0.0
 49
0.0
140
0.0
141
0.0
142
1.0
143
1.0
 70
1024
 72
1
 73
0
 74
0
  7

 75
0
147
1.0
148
0.0
149
0.0
100
AcDbLayout
  1
Model
 70
0
 71
0
 10
0.0
 20
0.0
 11
297.0
 21
210.0
 12
0.0
 22
0.0
 32
0.0
 14
0.0
 24
0.0
 34
0.0
 15
0.0
 25
0.0
 35
0.0
146
0.0
 13
0.0
 23
0.0
 33
0.0
 16
1.0
 26
0.0
 36
0.0
 17
0.0
 27
1.0
 37
0.0
 76
0
330
215
345
0
346
0
  0
LAYOUT
  5
5F4
102
{ACAD_REACTORS
330
1A
102
}
100
AcDbPlotSettings
  1

  2
none_device
  4
ISO_A4_(297.00_x_210.00_MM)
  6

 40
0.0
 41
0.0
 42
0.0
 43
0.0
 44
297.0
 45
210.0
 46
0.0
 47
0.0
 48
0.0
 49
0.0
140
0.0
141
0.0
142
1.0
143
1.0
 70
0
 72
1
 73
0
 74
0
  7

 75
0
147
1.0
148
0.0
149
0.0
100
AcDbLayout
  1
Layout1
 70
0
 71
1
 10
0.0
 20
0.0
 11
297.0
 21
210.0
 12
0.0
 22
0.0
 32
0.0
 14
0.0
 24
0.0
 34
0.0
 15
0.0
 25
0.0
 35
0.0
146
0.0
 13
0.0
 23
0.0
 33
0.0
 16
1.0
 26
0.0
 36
0.0
 17
0.0
 27
1.0
 37
0.0
 76
0
330
216
345
0
346
0
  0
ENDSEC
  0
EOF
