  0
SECTION
  2
HEADER
  9
$ACADVER
  1
AC1024
  9
$DWGCODEPAGE
  3
ANSI_1252
  9
$EXTMAX
 10
297.0
 20
210.0
 30
0.0
  9
$EXTMIN
 10
0.0
 20
0.0
 30
0.0
  9
$LIMMIN
 10
0.0
 20
0.0
  9
$LIMMAX
 10
297.0
 20
210.0
  9
$VIEWCTR
 10
148.5
 20
105.0
  9
$VIEWSIZE
 40
210.0
  9
$CLAYER
  8
0
  9
$LTSCALE
 40
16.335
  9
$CELTYPE
  6
BYLAYER
  9
$DIMSCALE
 40
1.0
  9
$DIMASZ
 40
3.0
  9
$DIMEXO
 40
0.5
  9
$DIMDLI
 40
11.286
  9
$DIMEXE
 40
1.5
  9
$DIMCEN
 40
2.673
  9
$DIMLFAC
 40
1.0
  9
$DIMBLK
  1
_FILLED
  9
$DIMALT
 70
0
  9
$DIMALTF
 40
0.0393700787
  9
$DIMTXT
 40
3.0
  9
$DIMTOL
 70
1
  9
$DIMLIM
 70
0
  9
$DIMTFAC
 40
1.0
  9
$DIMTP
 40
0.01
  9
$DIMTM
 40
0.01
  9
$DIMGAP
 40
0.625
  9
$DIMDSEP
 70
44
  9
$AUNITS
 70
0
  9
$PDMODE
 70
3
  9
$PDSIZE
 40
3.0
  9
$HANDSEED
  5
60A
  9
$TILEMODE
 70
1
  9
$MEASUREMENT
 70
1
  9
$INSUNITS
 70
4
  0
ENDSEC
  0
SECTION
  2
CLASSES
  0
CLASS
  1
ACDBDICTIONARYWDFLT
  2
AcDbDictionaryWithDefault
  3
AutoCAD 2000
 90
0
 91
1
280
0
281
0
  0
CLASS
  1
ACDBPLACEHOLDER
  2
AcDbPlaceHolder
  3
AutoCAD 2000
 90
0
 91
1
280
0
281
0
  0
CLASS
  1
LAYOUT
  2
AcDbLayout
  3
AutoCAD 2000
 90
0
 91
0
280
0
281
0
  0
ENDSEC
  0
SECTION
  2
TABLES
  0
TABLE
  2
VPORT
  5
8
100
AcDbSymbolTable
 70
2
  0
VPORT
  5
1F4
100
AcDbSymbolTableRecord
100
AcDbViewportTableRecord
  2
*ACTIVE
 70
0
 10
0.0
 20
0.0
 11
1.0
 21
1.0
 12
148.5
 22
105.0
 13
0.0
 23
0.0
 14
1.0
 24
1.0
 15
0.0
 25
0.0
 16
0.0
 26
0.0
 36
1.0
 17
0.0
 27
0.0
 37
0.0
 40
210.0
 41
1.4142857143
 42
50.0
 43
0.0
 44
0.0
 50
0.0
 51
0.0
 71
0
 72
100
 73
1
 74
1
 75
0
 76
0
 77
0
 78
0
  0
ENDTAB
  0
TABLE
  2
LTYPE
  5
5
100
AcDbSymbolTable
 70
6
  0
LTYPE
  5
14
100
AcDbSymbolTableRecord
100
AcDbLinetypeTableRecord
  2
BYBLOCK
 70
0
  3

 72
65
 73
0
 40
0.0
  0
LTYPE
  5
15
100
AcDbSymbolTableRecord
100
AcDbLinetypeTableRecord
  2
BYLAYER
 70
0
  3

 72
65
 73
0
 40
0.0
  0
LTYPE
  5
16
100
AcDbSymbolTableRecord
100
AcDbLinetypeTableRecord
  2
CONTINUOUS
 70
64
  3
Solid line
 72
65
 73
0
 40
0.0
  0
LTYPE
  5
1F5
100
AcDbSymbolTableRecord
100
AcDbLinetypeTableRecord
  2
CENTER
 70
64
  3
____ _ ____ _ ____ _ ____ _ ____ _ ____ _ ____
 72
65
 73
4
 40
0.6
 49
0.375
 74
0
 49
-0.075
 74
0
 49
0.075
 74
0
 49
-0.075
 74
0
  0
LTYPE
  5
1F6
100
AcDbSymbolTableRecord
100
AcDbLinetypeTableRecord
  2
HIDDEN
 70
64
  3
- - - - - - - - - - - - - - - - - - - -
 72
65
 73
2
 40
0.2
 49
0.1
 74
0
 49
-0.1
 74
0
  0
LTYPE
  5
1F7
100
AcDbSymbolTableRecord
100
AcDbLinetypeTableRecord
  2
PHANTOM
 70
64
  3
_____ _ _ _____ _ _ _____ _ _ _____
 72
65
 73
6
 40
0.8
 49
0.45
 74
0
 49
-0.05
 74
0
 49
0.1
 74
0
 49
-0.05
 74
0
 49
0.1
 74
0
 49
-0.05
 74
0
  0
LTYPE
  5
1F8
100
AcDbSymbolTableRecord
100
AcDbLinetypeTableRecord
  2
DOT
 70
64
  3
. . . . . . . . . . . . . . . . . . . .
 72
65
 73
2
 40
0.2
 49
0.1
 74
0
 49
-0.1
 74
0
  0
LTYPE
  5
1F9
100
AcDbSymbolTableRecord
100
AcDbLinetypeTableRecord
  2
DASHED
 70
64
  3
- - - - - - - - - - - - - - - - - - - -
 72
65
 73
2
 40
0.2
 49
0.1
 74
0
 49
-0.1
 74
0
  0
ENDTAB
  0
TABLE
  2
LAYER
  5
2
100
AcDbSymbolTable
 70
36
  0
LAYER
  5
10
100
AcDbSymbolTableRecord
100
AcDbLayerTableRecord
  2
0
 70
0
 62
7
  6
CONTINUOUS
370
-3
390
F
  0
LAYER
  5
1FA
100
AcDbSymbolTableRecord
100
AcDbLayerTableRecord
  2
DEFAULT_1
 70
0
 62
7
  6
CENTER
370
-3
390
F
  0
LAYER
  5
1FB
100
AcDbSymbolTableRecord
100
AcDbLayerTableRecord
  2
DEFAULT_2
 70
0
 62
7
  6
HIDDEN
370
-3
390
F
  0
LAYER
  5
1FC
100
AcDbSymbolTableRecord
100
AcDbLayerTableRecord
  2
DEFAULT_3
 70
0
 62
7
  6
PHANTOM
370
-3
390
F
  0
LAYER
  5
1FD
100
AcDbSymbolTableRecord
100
AcDbLayerTableRecord
  2
ASSI
 70
0
 62
7
  6
CONTINUOUS
370
-3
390
F
  0
LAYER
  5
1FE
100
AcDbSymbolTableRecord
100
AcDbLayerTableRecord
  2
COORDINATE
 70
0
 62
7
  6
CONTINUOUS
370
-3
390
F
  0
LAYER
  5
1FF
100
AcDbSymbolTableRecord
100
AcDbLayerTableRecord
  2
COPY_PUBLISH
 70
0
 62
7
  6
CONTINUOUS
370
-3
390
F
  0
LAYER
  5
200
100
AcDbSymbolTableRecord
100
AcDbLayerTableRecord
  2
COSMETICI
 70
0
 62
7
  6
CONTINUOUS
370
-3
390
F
  0
LAYER
  5
201
100
AcDbSymbolTableRecord
100
AcDbLayerTableRecord
  2
CURVE
 70
0
 62
7
  6
CONTINUOUS
370
-3
390
F
  0
LAYER
  5
202
100
AcDbSymbolTableRecord
100
AcDbLayerTableRecord
  2
DRAFT
 70
0
 62
7
  6
CONTINUOUS
370
-3
390
F
  0
LAYER
  5
203
100
AcDbSymbolTableRecord
100
AcDbLayerTableRecord
  2
IMPORT_IGES
 70
0
 62
7
  6
CONTINUOUS
370
-3
390
F
  0
LAYER
  5
204
100
AcDbSymbolTableRecord
100
AcDbLayerTableRecord
  2
INTF_11
 70
0
 62
7
  6
CONTINUOUS
370
-3
390
F
  0
LAYER
  5
205
100
AcDbSymbolTableRecord
100
AcDbLayerTableRecord
  2
INTF_8
 70
0
 62
7
  6
CONTINUOUS
370
-3
390
F
  0
LAYER
  5
206
100
AcDbSymbolTableRecord
100
AcDbLayerTableRecord
  2
INTF_9
 70
0
 62
7
  6
CONTINUOUS
370
-3
390
F
  0
LAYER
  5
207
100
AcDbSymbolTableRecord
100
AcDbLayerTableRecord
  2
NOTE
 70
0
 62
7
  6
CONTINUOUS
370
-3
390
F
  0
LAYER
  5
208
100
AcDbSymbolTableRecord
100
AcDbLayerTableRecord
  2
PIANI
 70
0
 62
7
  6
CONTINUOUS
370
-3
390
F
  0
LAYER
  5
209
100
AcDbSymbolTableRecord
100
AcDbLayerTableRecord
  2
PUNTI
 70
0
 62
7
  6
CONTINUOUS
370
-3
390
F
  0
LAYER
  5
20A
100
AcDbSymbolTableRecord
100
AcDbLayerTableRecord
  2
RACCORDO
 70
0
 62
7
  6
CONTINUOUS
370
-3
390
F
  0
LAYER
  5
20B
100
AcDbSymbolTableRecord
100
AcDbLayerTableRecord
  2
SIMBOLI
 70
0
 62
7
  6
CONTINUOUS
370
-3
390
F
  0
LAYER
  5
20C
100
AcDbSymbolTableRecord
100
AcDbLayerTableRecord
  2
SMUSSO
 70
0
 62
7
  6
CONTINUOUS
370
-3
390
F
  0
LAYER
  5
20D
100
AcDbSymbolTableRecord
100
AcDbLayerTableRecord
  2
SUPERFICI
 70
0
 62
7
  6
CONTINUOUS
370
-3
390
F
  0
LAYER
  5
20E
100
AcDbSymbolTableRecord
100
AcDbLayerTableRecord
  2
TRASH
 70
0
 62
7
  6
CONTINUOUS
370
-3
390
F
  0
ENDTAB
  0
TABLE
  2
STYLE
  5
3
100
AcDbSymbolTable
 70
1
  0
STYLE
  5
11
100
AcDbSymbolTableRecord
100
AcDbTextStyleTableRecord
  2
STANDARD
 70
0
 40
0.0
 41
0.8
 50
0.0
 71
0
 42
0.2
  3
txt
  4

  0
STYLE
  5
20F
100
AcDbSymbolTableRecord
100
AcDbTextStyleTableRecord
  2
TEXTSTYLE_1
 70
0
 40
0.0
 41
0.8
 50
0.0
 71
0
 42
0.2
  3
gdt
  4

  0
ENDTAB
  0
TABLE
  2
VIEW
  5
6
100
AcDbSymbolTable
 70
0
  0
ENDTAB
  0
TABLE
  2
UCS
  5
7
100
AcDbSymbolTable
 70
0
  0
ENDTAB
  0
TABLE
  2
APPID
  5
9
100
AcDbSymbolTable
 70
1
  0
APPID
  5
210
100
AcDbSymbolTableRecord
100
AcDbRegAppTableRecord
  2
ACAD
 70
0
  0
ENDTAB
  0
TABLE
  2
BLOCK_RECORD
  5
1
100
AcDbSymbolTable
 70
0
  0
BLOCK_RECORD
  5
211
100
AcDbSymbolTableRecord
100
AcDbBlockTableRecord
  2
*Model_Space
  0
BLOCK_RECORD
  5
212
100
AcDbSymbolTableRecord
100
AcDbBlockTableRecord
  2
*Paper_Space
  0
BLOCK_RECORD
  5
213
100
AcDbSymbolTableRecord
100
AcDbBlockTableRecord
  2
_FILLED
  0
BLOCK_RECORD
  5
214
100
AcDbSymbolTableRecord
100
AcDbBlockTableRecord
  2
*D0
  0
BLOCK_RECORD
  5
215
100
AcDbSymbolTableRecord
100
AcDbBlockTableRecord
  2
*D1
  0
BLOCK_RECORD
  5
216
100
AcDbSymbolTableRecord
100
AcDbBlockTableRecord
  2
*D2
  0
BLOCK_RECORD
  5
217
100
AcDbSymbolTableRecord
100
AcDbBlockTableRecord
  2
*D3
  0
ENDTAB
  0
TABLE
  2
DIMSTYLE
  5
A
100
AcDbSymbolTable
 70
1
100
AcDbDimStyleTable
 71
0
  0
DIMSTYLE
105
218
100
AcDbSymbolTableRecord
100
AcDbDimStyleTableRecord
  2
STANDARD
 70
0
  3

  4

 40
1.0
 41
3.0
 42
0.5
 43
0.38
 44
1.5
 45
0.0
 46
0.0
 47
0.01
 48
0.01
140
3.0
141
0.09
142
0.0
143
25.4
144
1.0
145
0.0
146
1.0
147
0.625
 71
1
 72
0
 73
0
 74
0
 75
0
 76
0
 77
1
 78
8
 79
2
170
0
171
1
172
0
173
0
174
0
175
0
176
0
177
0
178
0
270
2
179
2
271
2
272
2
273
2
274
2
275
0
280
0
281
0
282
0
283
1
284
8
285
0
286
0
287
3
288
0
340
11
278
44
341
213
342
213
343
213
344
213
  0
DIMSTYLE
105
219
100
AcDbSymbolTableRecord
100
AcDbDimStyleTableRecord
  2
DIMSTYLE_1
 70
0
  3

  4

 40
1.0
 41
3.0
 42
0.5
 43
0.38
 44
1.5
 45
0.0
 46
0.0
 47
0.0
 48
0.0
140
3.0
141
0.09
142
0.0
143
25.4
144
1.0
145
0.0
146
1.0
147
0.75
 71
0
 72
0
 73
0
 74
0
 75
0
 76
0
 77
1
 78
8
 79
2
170
0
171
1
172
0
173
0
174
0
175
0
176
0
177
0
178
0
270
2
179
2
271
2
272
2
273
2
274
2
275
0
280
0
281
0
282
0
283
1
284
8
285
0
286
0
287
3
288
0
340
11
278
44
341
213
342
213
343
213
344
213
  0
DIMSTYLE
105
21A
100
AcDbSymbolTableRecord
100
AcDbDimStyleTableRecord
  2
DIMSTYLE_2
 70
0
  3

  4

 40
1.0
 41
3.0
 42
0.5
 43
0.38
 44
1.5
 45
0.0
 46
0.0
 47
0.0
 48
0.0
140
3.0
141
0.09
142
0.0
143
25.4
144
1.0
145
0.0
146
1.0
147
0.75
 71
0
 72
0
 73
0
 74
0
 75
0
 76
0
 77
1
 78
8
 79
2
170
0
171
1
172
0
173
0
174
0
175
0
176
0
177
0
178
0
270
2
179
2
271
1
272
1
273
2
274
2
275
0
280
0
281
0
282
0
283
1
284
8
285
0
286
0
287
3
288
0
340
11
278
44
341
213
342
213
343
213
344
213
  0
ENDTAB
  0
ENDSEC
  0
SECTION
  2
BLOCKS
  0
BLOCK
  5
20
100
AcDbEntity
  8
0
100
AcDbBlockBegin
  2
*Model_Space
 70
0
 10
0.0
 20
0.0
 30
0.0
  3
*Model_Space
  1

  0
ENDBLK
  5
21
100
AcDbEntity
  8
0
100
AcDbBlockEnd
  0
BLOCK
  5
1C
100
AcDbEntity
  8
0
100
AcDbBlockBegin
  2
*Paper_Space
 70
0
 10
0.0
 20
0.0
 30
0.0
  3
*Paper_Space
  1

  0
ENDBLK
  5
1D
100
AcDbEntity
  8
0
100
AcDbBlockEnd
  0
BLOCK
  5
21B
100
AcDbEntity
  8
0
100
AcDbBlockBegin
  2
_FILLED
 70
64
 10
0.0
 20
0.0
  3
_FILLED
  1

  0
SOLID
  5
21C
100
AcDbEntity
  8
0
  6
BYBLOCK
 62
0
100
AcDbTrace
 10
0.0
 20
0.0
 11
-1.0
 21
0.3166666667
 12
-1.0
 22
-0.3166666667
 13
-1.0
 23
-0.3166666667
  0
ENDBLK
  5
21D
100
AcDbEntity
  8
0
  6
BYBLOCK
 62
0
100
AcDbBlockEnd
  0
BLOCK
  5
21E
100
AcDbEntity
  8
0
100
AcDbBlockBegin
 62
7
  6
CONTINUOUS
  2
*D0
 70
65
 10
0.0
 20
0.0
  3
*D0
  1

  0
LINE
  5
21F
100
AcDbEntity
  8
0
100
AcDbLine
 62
7
  6
CONTINUOUS
 10
125.788432139
 20
124.2189064159
 11
125.788432139
 21
137.8315011921
  0
LINE
  5
220
100
AcDbEntity
  8
0
100
AcDbLine
 62
7
  6
CONTINUOUS
 10
134.388432139
 20
124.2189064159
 11
134.388432139
 21
137.8315011921
  0
LINE
  5
221
100
AcDbEntity
  8
0
100
AcDbLine
 62
7
  6
CONTINUOUS
 10
125.788432139
 20
136.3315011921
 11
121.788432139
 21
136.3315011921
  0
LINE
  5
222
100
AcDbEntity
  8
0
100
AcDbLine
 62
7
  6
CONTINUOUS
 10
121.788432139
 20
136.3315011921
 11
130.088432139
 21
136.3315011921
  0
LINE
  5
223
100
AcDbEntity
  8
0
100
AcDbLine
 62
7
  6
CONTINUOUS
 10
134.388432139
 20
136.3315011921
 11
138.388432139
 21
136.3315011921
  0
LINE
  5
224
100
AcDbEntity
  8
0
100
AcDbLine
 62
7
  6
CONTINUOUS
 10
138.388432139
 20
136.3315011921
 11
130.088432139
 21
136.3315011921
  0
INSERT
  5
225
100
AcDbEntity
  8
0
100
AcDbBlockReference
 62
7
  6
CONTINUOUS
  2
_FILLED
 10
125.788432139
 20
136.3315011921
 41
3.0
 42
3.0
 43
3.0
  0
INSERT
  5
226
100
AcDbEntity
  8
0
100
AcDbBlockReference
 62
7
  6
CONTINUOUS
  2
_FILLED
 10
134.388432139
 20
136.3315011921
 41
3.0
 42
3.0
 43
3.0
 50
180.0
  0
ENDBLK
  5
227
100
AcDbEntity
  8
0
  6
BYBLOCK
 62
0
100
AcDbBlockEnd
  0
BLOCK
  5
228
100
AcDbEntity
  8
0
100
AcDbBlockBegin
 62
7
  6
CONTINUOUS
  2
*D1
 70
65
 10
0.0
 20
0.0
  3
*D1
  1

  0
LINE
  5
229
100
AcDbEntity
  8
0
100
AcDbLine
 62
7
  6
CONTINUOUS
 10
134.388432139
 20
124.2189064159
 11
134.388432139
 21
145.8857002483
  0
LINE
  5
22A
100
AcDbEntity
  8
0
100
AcDbLine
 62
7
  6
CONTINUOUS
 10
120.088432139
 20
128.2490893153
 11
120.088432139
 21
145.8857002483
  0
LINE
  5
22B
100
AcDbEntity
  8
0
100
AcDbLine
 62
7
  6
CONTINUOUS
 10
134.388432139
 20
144.3857002483
 11
138.388432139
 21
144.3857002483
  0
LINE
  5
22C
100
AcDbEntity
  8
0
100
AcDbLine
 62
7
  6
CONTINUOUS
 10
138.388432139
 20
144.3857002483
 11
127.238432139
 21
144.3857002483
  0
LINE
  5
22D
100
AcDbEntity
  8
0
100
AcDbLine
 62
7
  6
CONTINUOUS
 10
120.088432139
 20
144.3857002483
 11
116.088432139
 21
144.3857002483
  0
LINE
  5
22E
100
AcDbEntity
  8
0
100
AcDbLine
 62
7
  6
CONTINUOUS
 10
116.088432139
 20
144.3857002483
 11
127.238432139
 21
144.3857002483
  0
INSERT
  5
22F
100
AcDbEntity
  8
0
100
AcDbBlockReference
 62
7
  6
CONTINUOUS
  2
_FILLED
 10
134.388432139
 20
144.3857002483
 41
3.0
 42
3.0
 43
3.0
 50
180.0
  0
INSERT
  5
230
100
AcDbEntity
  8
0
100
AcDbBlockReference
 62
7
  6
CONTINUOUS
  2
_FILLED
 10
120.088432139
 20
144.3857002483
 41
3.0
 42
3.0
 43
3.0
  0
ENDBLK
  5
231
100
AcDbEntity
  8
0
  6
BYBLOCK
 62
0
100
AcDbBlockEnd
  0
BLOCK
  5
232
100
AcDbEntity
  8
0
100
AcDbBlockBegin
 62
7
  6
CONTINUOUS
  2
*D2
 70
65
 10
0.0
 20
0.0
  3
*D2
  1

  0
LINE
  5
233
100
AcDbEntity
  8
0
100
AcDbLine
 62
7
  6
CONTINUOUS
 10
146.9291815515
 20
122.3666728877
 11
146.9291815515
 21
137.8623888513
  0
LINE
  5
234
100
AcDbEntity
  8
0
100
AcDbLine
 62
7
  6
CONTINUOUS
 10
157.8791815515
 20
122.3666728877
 11
157.8791815515
 21
137.8623888513
  0
LINE
  5
235
100
AcDbEntity
  8
0
100
AcDbLine
 62
7
  6
CONTINUOUS
 10
146.9291815515
 20
136.3623888513
 11
152.4041815515
 21
136.3623888513
  0
LINE
  5
236
100
AcDbEntity
  8
0
100
AcDbLine
 62
7
  6
CONTINUOUS
 10
157.8791815515
 20
136.3623888513
 11
152.4041815515
 21
136.3623888513
  0
INSERT
  5
237
100
AcDbEntity
  8
0
100
AcDbBlockReference
 62
7
  6
CONTINUOUS
  2
_FILLED
 10
146.9291815515
 20
136.3623888513
 41
3.0
 42
3.0
 43
3.0
 50
180.0
  0
INSERT
  5
238
100
AcDbEntity
  8
0
100
AcDbBlockReference
 62
7
  6
CONTINUOUS
  2
_FILLED
 10
157.8791815515
 20
136.3623888513
 41
3.0
 42
3.0
 43
3.0
  0
ENDBLK
  5
239
100
AcDbEntity
  8
0
  6
BYBLOCK
 62
0
100
AcDbBlockEnd
  0
BLOCK
  5
23A
100
AcDbEntity
  8
0
100
AcDbBlockBegin
 62
7
  6
CONTINUOUS
  2
*D3
 70
65
 10
0.0
 20
0.0
  3
*D3
  1

  0
LINE
  5
23B
100
AcDbEntity
  8
0
100
AcDbLine
 62
7
  6
CONTINUOUS
 10
155.3791815515
 20
128.3356742527
 11
170.7487773906
 21
128.3356742527
  0
LINE
  5
23C
100
AcDbEntity
  8
0
100
AcDbLine
 62
7
  6
CONTINUOUS
 10
155.3791815515
 20
75.5356742527
 11
170.7487773906
 21
75.5356742527
  0
LINE
  5
23D
100
AcDbEntity
  8
0
100
AcDbLine
 62
7
  6
CONTINUOUS
 10
169.2487773906
 20
128.3356742527
 11
169.2487773906
 21
101.9356742527
  0
LINE
  5
23E
100
AcDbEntity
  8
0
100
AcDbLine
 62
7
  6
CONTINUOUS
 10
169.2487773906
 20
75.5356742527
 11
169.2487773906
 21
101.9356742527
  0
INSERT
  5
23F
100
AcDbEntity
  8
0
100
AcDbBlockReference
 62
7
  6
CONTINUOUS
  2
_FILLED
 10
169.2487773906
 20
128.3356742527
 41
3.0
 42
3.0
 43
3.0
 50
90.0
  0
INSERT
  5
240
100
AcDbEntity
  8
0
100
AcDbBlockReference
 62
7
  6
CONTINUOUS
  2
_FILLED
 10
169.2487773906
 20
75.5356742527
 41
3.0
 42
3.0
 43
3.0
 50
270.0
  0
ENDBLK
  5
241
100
AcDbEntity
  8
0
  6
BYBLOCK
 62
0
100
AcDbBlockEnd
  0
ENDSEC
  0
SECTION
  2
ENTITIES
  0
DIMENSION
  5
242
100
AcDbEntity
  8
0
100
AcDbDimension
 62
7
  6
CONTINUOUS
  2
*D0
 10
134.388432139
 20
136.3315011921
 11
126.8741464247
 21
136.3315011921
 70
160
 71
2
 72
2
 41
0.9
 42
8.6
  3
DIMSTYLE_1
100
AcDbAlignedDimension
 13
125.788432139
 23
123.7189064159
 14
134.388432139
 24
123.7189064159
100
AcDbRotatedDimension
  0
DIMENSION
  5
243
100
AcDbEntity
  8
0
100
AcDbDimension
 62
7
  6
CONTINUOUS
  2
*D1
 10
120.088432139
 20
144.3857002483
 11
123.2741464247
 21
144.3857002483
 70
160
 71
2
 72
2
 41
0.9
 42
14.3
  3
DIMSTYLE_1
100
AcDbAlignedDimension
 13
134.388432139
 23
123.7189064159
 14
120.088432139
 24
127.7490893153
 50
180.0
100
AcDbRotatedDimension
  0
DIMENSION
  5
244
100
AcDbEntity
  8
0
100
AcDbDimension
 62
7
  6
CONTINUOUS
  2
*D2
 10
157.8791815515
 20
136.3623888513
 11
150.6898958373
 21
136.3623888513
 70
160
 71
2
 72
2
 41
0.9
 42
10.95
  3
DIMSTYLE_2
100
AcDbAlignedDimension
 13
146.9291815515
 23
121.8666728877
 14
157.8791815515
 24
121.8666728877
100
AcDbRotatedDimension
  0
DIMENSION
  5
245
100
AcDbEntity
  8
0
100
AcDbDimension
 62
7
  6
CONTINUOUS
  2
*D3
 10
169.2487773906
 20
75.5356742527
 11
169.2487773906
 21
97.649959967
 70
160
 71
2
 72
2
 41
0.9
 42
52.8
  3
DIMSTYLE_1
100
AcDbAlignedDimension
 13
154.8791815515
 23
128.3356742527
 14
154.8791815515
 24
75.5356742527
 50
270.0
100
AcDbRotatedDimension
  0
LWPOLYLINE
  5
246
100
AcDbEntity
  8
0
100
AcDbPolyline
 62
7
  6
CONTINUOUS
 90
3
 70
0
 43
0.3500000006
 10
150.6898946228
 20
139.255244751
 10
151.547041626
 20
140.1123826904
 10
151.547041626
 20
137.1123817749
  0
LWPOLYLINE
  5
247
100
AcDbEntity
  8
0
100
AcDbPolyline
 62
7
  6
CONTINUOUS
 90
3
 70
0
 43
0.3500000006
 10
152.4041795654
 20
139.255244751
 10
153.2613175049
 20
140.1123826904
 10
153.2613175049
 20
137.1123817749
  0
LINE
  5
248
100
AcDbEntity
  8
DRAFT
100
AcDbLine
 62
7
  6
CONTINUOUS
 10
154.8791815515
 20
75.5356742527
 11
149.9291815515
 21
75.5356742527
  0
LINE
  5
249
100
AcDbEntity
  8
RACCORDO
100
AcDbLine
 62
7
  6
CONTINUOUS
 10
157.3538351724
 20
75.5611919694
 11
154.930252004
 21
75.5611919694
  0
LINE
  5
24A
100
AcDbEntity
  8
RACCORDO
100
AcDbLine
 62
7
  6
CONTINUOUS
 10
147.4545279307
 20
75.5611919694
 11
149.8781110991
 21
75.5611919694
  0
LINE
  5
24B
100
AcDbEntity
  8
RACCORDO
100
AcDbLine
 62
250
  6
CONTINUOUS
 10
147.515766489
 20
75.6224305277
 11
157.2925966141
 21
75.6224305277
  0
LINE
  5
24C
100
AcDbEntity
  8
RACCORDO
100
AcDbLine
 62
250
  6
CONTINUOUS
 10
147.0159378265
 20
76.1222591901
 11
157.7924252766
 21
76.1222591901
  0
LWPOLYLINE
  5
24D
100
AcDbEntity
  8
RACCORDO
100
AcDbPolyline
 62
250
  6
CONTINUOUS
 90
16
 70
0
 10
147.515766489
 20
75.6224305277
 10
147.4642547714
 20
75.6251272763
 10
147.4130919944
 20
75.6331602042
 10
147.3628370948
 20
75.6465054916
 10
147.3139877029
 20
75.6651075776
 10
147.2671671239
 20
75.6888086482
 10
147.223085621
 20
75.7172849162
 10
147.1822842893
 20
75.7501728275
 10
147.145146661
 20
75.7871481267
 10
147.112069282
 20
75.8278201342
 10
147.0834140024
 20
75.8717565149
 10
147.0595097697
 20
75.9184674575
 10
147.0406310803
 20
75.9674231068
 10
147.0269872003
 20
76.0180780378
 10
147.018725791
 20
76.0698802153
 10
147.0159378265
 20
76.1222591901
  0
LINE
  5
24E
100
AcDbEntity
  8
DRAFT
100
AcDbLine
 62
7
  6
CONTINUOUS
 10
149.9291815515
 20
128.3356742527
 11
149.8781110991
 21
128.3101565361
  0
LINE
  5
24F
100
AcDbEntity
  8
DRAFT
100
AcDbLine
 62
7
  6
CONTINUOUS
 10
146.9553674731
 20
125.6304317487
 11
146.9291815515
 21
125.6217102008
  0
LINE
  5
250
100
AcDbEntity
  8
RACCORDO
100
AcDbLine
 62
7
  6
CONTINUOUS
 10
146.9291815515
 20
78.2356742527
 11
146.9553674731
 21
78.2356742527
  0
LINE
  5
251
100
AcDbEntity
  8
RACCORDO
100
AcDbLine
 62
250
  6
CONTINUOUS
 10
157.8616560615
 20
78.256515133
 11
157.85299563
 21
78.256515133
  0
LINE
  5
252
100
AcDbEntity
  8
DRAFT
100
AcDbLine
 62
7
  6
CONTINUOUS
 10
149.9291815515
 20
75.5356742527
 11
149.8781110991
 21
75.5611919694
  0
LINE
  5
253
100
AcDbEntity
  8
RACCORDO
100
AcDbLine
 62
7
  6
CONTINUOUS
 10
146.9291815515
 20
124.3496383047
 11
146.9553674731
 21
124.3583598526
  0
LINE
  5
254
100
AcDbEntity
  8
RACCORDO
100
AcDbLine
 62
7
  6
CONTINUOUS
 10
146.9291815515
 20
79.5217102008
 11
146.9553674731
 21
79.5129886528
  0
LINE
  5
255
100
AcDbEntity
  8
RACCORDO
100
AcDbLine
 62
7
  6
CONTINUOUS
 10
146.9527830018
 20
81.5889324707
 11
146.9291815515
 21
81.5889324707
  0
LINE
  5
256
100
AcDbEntity
  8
RACCORDO
100
AcDbLine
 62
7
  6
CONTINUOUS
 10
146.9291815515
 20
122.2824160347
 11
146.9531679077
 21
122.3064023908
  0
LINE
  5
257
100
AcDbEntity
  8
RACCORDO
100
AcDbLine
 62
7
  6
CONTINUOUS
 10
146.9531679076
 20
81.5649461147
 11
146.9291815515
 21
81.5889324707
  0
LINE
  5
258
100
AcDbEntity
  8
RACCORDO
100
AcDbLine
 62
250
  6
CONTINUOUS
 10
157.3538351724
 20
128.3101565361
 11
157.2925966141
 21
128.2489179778
  0
LINE
  5
259
100
AcDbEntity
  8
RACCORDO
100
AcDbLine
 62
250
  6
CONTINUOUS
 10
157.8664183211
 20
127.8230823598
 11
157.7924252766
 21
127.7490893153
  0
LINE
  5
25A
100
AcDbEntity
  8
RACCORDO
100
AcDbLine
 62
250
  6
CONTINUOUS
 10
157.2925966141
 20
75.6224305277
 11
157.3538351724
 21
75.5611919694
  0
LINE
  5
25B
100
AcDbEntity
  8
RACCORDO
100
AcDbLine
 62
250
  6
CONTINUOUS
 10
157.7924252766
 20
76.1222591901
 11
157.8664183211
 21
76.0482661457
  0
LINE
  5
25C
100
AcDbEntity
  8
RACCORDO
100
AcDbLine
 62
7
  6
CONTINUOUS
 10
146.9317660229
 20
81.8637217246
 11
146.9527830018
 21
81.5715970151
  0
LINE
  5
25D
100
AcDbEntity
  8
RACCORDO
100
AcDbLine
 62
7
  6
CONTINUOUS
 10
146.941944782
 20
76.0482661457
 11
146.9291815515
 21
76.5356742527
  0
LINE
  5
25E
100
AcDbEntity
  8
DRAFT
100
AcDbLine
 62
7
  6
CONTINUOUS
 10
146.9291815515
 20
125.6217102008
 11
146.9291815515
 21
124.3496383047
  0
LINE
  5
25F
100
AcDbEntity
  8
RACCORDO
100
AcDbLine
 62
7
  6
CONTINUOUS
 10
146.9291815515
 20
76.5356742527
 11
146.9291815515
 21
77.8107359131
  0
LINE
  5
260
100
AcDbEntity
  8
DRAFT
100
AcDbLine
 62
7
  6
CONTINUOUS
 10
146.9291815515
 20
78.2356742527
 11
146.9291815515
 21
79.5217102008
  0
LINE
  5
261
100
AcDbEntity
  8
RACCORDO
100
AcDbLine
 62
7
  6
CONTINUOUS
 10
146.9291815515
 20
81.5889324707
 11
146.9291815515
 21
122.2824160347
  0
LINE
  5
262
100
AcDbEntity
  8
RACCORDO
100
AcDbLine
 62
7
  6
CONTINUOUS
 10
146.9291815515
 20
126.0606125923
 11
146.9291815515
 21
127.3356742527
  0
LINE
  5
263
100
AcDbEntity
  8
RACCORDO
100
AcDbLine
 62
7
  6
CONTINUOUS
 10
146.9553674731
 20
125.6982245766
 11
146.9553674731
 21
122.4407053834
  0
LINE
  5
264
100
AcDbEntity
  8
RACCORDO
100
AcDbLine
 62
7
  6
CONTINUOUS
 10
146.9553674731
 20
78.1731239288
 11
146.9553674731
 21
81.430643122
  0
LINE
  5
265
100
AcDbEntity
  8
RACCORDO
100
AcDbLine
 62
250
  6
CONTINUOUS
 10
147.0159378265
 20
127.7490893153
 11
147.0159378265
 21
76.1222591901
  0
LINE
  5
266
100
AcDbEntity
  8
RACCORDO
100
AcDbLine
 62
7
  6
CONTINUOUS
 10
146.9291815515
 20
127.3356742527
 11
146.941944782
 21
127.8230823598
  0
LINE
  5
267
100
AcDbEntity
  8
RACCORDO
100
AcDbLine
 62
7
  6
CONTINUOUS
 10
146.9527830018
 20
122.2997514903
 11
146.9317660229
 21
122.0076267808
  0
LINE
  5
268
100
AcDbEntity
  8
RACCORDO
100
AcDbLine
 62
250
  6
CONTINUOUS
 10
147.515766489
 20
128.2489179778
 11
147.515766489
 21
75.6224305277
  0
LINE
  5
269
100
AcDbEntity
  8
RACCORDO
100
AcDbLine
 62
7
  6
CONTINUOUS
 10
157.8755960013
 20
125.9111833876
 11
157.8565811802
 21
125.8476537813
  0
LINE
  5
26A
100
AcDbEntity
  8
RACCORDO
100
AcDbLine
 62
250
  6
CONTINUOUS
 10
157.8616560615
 20
125.6148333724
 11
157.8791815515
 21
125.6674525988
  0
LINE
  5
26B
100
AcDbEntity
  8
RACCORDO
100
AcDbLine
 62
250
  6
CONTINUOUS
 10
157.8791815515
 20
78.2038959066
 11
157.8616560615
 21
78.256515133
  0
LINE
  5
26C
100
AcDbEntity
  8
RACCORDO
100
AcDbLine
 62
7
  6
CONTINUOUS
 10
157.8755960013
 20
77.9601651178
 11
157.8565811802
 21
78.0236947241
  0
LINE
  5
26D
100
AcDbEntity
  8
RACCORDO
100
AcDbLine
 62
7
  6
CONTINUOUS
 10
146.9327671018
 20
77.9601651178
 11
146.9517819229
 21
78.0236947241
  0
LWPOLYLINE
  5
26E
100
AcDbEntity
  8
0
100
AcDbPolyline
 62
7
  6
CONTINUOUS
 90
4
 70
0
 43
0.3500000006
 10
168.0702044678
 20
103.8642432861
 10
167.2130665283
 20
103.8642432861
 10
166.7844975586
 20
104.2928213196
 10
166.7844975586
 20
104.9356747742
  0
LINE
  5
26F
100
AcDbEntity
  8
RACCORDO
100
AcDbLine
 62
7
  6
CONTINUOUS
 10
146.9327671018
 20
125.9111833876
 11
146.9517819229
 21
125.8476537813
  0
LINE
  5
270
100
AcDbEntity
  8
RACCORDO
100
AcDbLine
 62
250
  6
CONTINUOUS
 10
157.2925966141
 20
128.2489179778
 11
157.2925966141
 21
75.6224305277
  0
LINE
  5
271
100
AcDbEntity
  8
RACCORDO
100
AcDbLine
 62
250
  6
CONTINUOUS
 10
157.7924252766
 20
127.7490893153
 11
157.7924252766
 21
76.1222591901
  0
LINE
  5
272
100
AcDbEntity
  8
RACCORDO
100
AcDbLine
 62
7
  6
CONTINUOUS
 10
157.85299563
 20
125.6982245766
 11
157.85299563
 21
122.4407053834
  0
LINE
  5
273
100
AcDbEntity
  8
RACCORDO
100
AcDbLine
 62
7
  6
CONTINUOUS
 10
157.85299563
 20
78.1731239288
 11
157.85299563
 21
81.430643122
  0
LINE
  5
274
100
AcDbEntity
  8
RACCORDO
100
AcDbLine
 62
250
  6
CONTINUOUS
 10
157.8616560615
 20
125.6148333724
 11
157.8616560615
 21
122.2152989094
  0
LINE
  5
275
100
AcDbEntity
  8
RACCORDO
100
AcDbLine
 62
250
  6
CONTINUOUS
 10
157.8616560615
 20
81.656049596
 11
157.8616560615
 21
78.256515133
  0
LINE
  5
276
100
AcDbEntity
  8
RACCORDO
100
AcDbLine
 62
7
  6
CONTINUOUS
 10
157.8791815515
 20
127.3356742527
 11
157.8791815515
 21
126.0606125923
  0
LINE
  5
277
100
AcDbEntity
  8
RACCORDO
100
AcDbLine
 62
7
  6
CONTINUOUS
 10
157.8791815515
 20
77.8107359131
 11
157.8791815515
 21
76.5356742527
  0
LINE
  5
278
100
AcDbEntity
  8
RACCORDO
100
AcDbLine
 62
7
  6
CONTINUOUS
 10
157.8791815515
 20
78.2038959066
 11
157.8791815515
 21
125.6674525988
  0
LINE
  5
279
100
AcDbEntity
  8
RACCORDO
100
AcDbLine
 62
7
  6
CONTINUOUS
 10
157.901873136
 20
110.8845680332
 11
157.901873136
 21
92.9867804722
  0
LINE
  5
27A
100
AcDbEntity
  8
RACCORDO
100
AcDbLine
 62
250
  6
CONTINUOUS
 10
157.901873136
 20
110.8845680332
 11
157.8791815515
 21
110.7018649481
  0
LINE
  5
27B
100
AcDbEntity
  8
RACCORDO
100
AcDbLine
 62
250
  6
CONTINUOUS
 10
157.8791815515
 20
93.1694835573
 11
157.901873136
 21
92.9867804722
  0
LINE
  5
27C
100
AcDbEntity
  8
RACCORDO
100
AcDbLine
 62
7
  6
CONTINUOUS
 10
157.8555801013
 20
122.2997514903
 11
157.8765970802
 21
122.0076267808
  0
LINE
  5
27D
100
AcDbEntity
  8
RACCORDO
100
AcDbLine
 62
250
  6
CONTINUOUS
 10
157.8599355346
 20
125.6407965384
 11
157.8616560615
 21
125.6148333724
  0
LWPOLYLINE
  5
27E
100
AcDbEntity
  8
RACCORDO
100
AcDbPolyline
 62
250
  6
CONTINUOUS
 90
16
 70
0
 10
157.7924252766
 20
127.7490893153
 10
157.7896369416
 20
127.8014717842
 10
157.7813744698
 20
127.8532771699
 10
157.7677289128
 20
127.903934924
 10
157.7488481172
 20
127.9528927113
 10
157.7249413961
 20
127.9996052774
 10
157.6962829301
 20
128.0435432963
 10
157.6632008727
 20
128.0842175946
 10
157.6260576047
 20
128.1211946884
 10
157.5852517584
 20
128.1540821873
 10
157.5411679696
 20
128.1825559335
 10
157.4943471929
 20
128.2062533925
 10
157.4455003795
 20
128.2248512671
 10
157.3952511409
 20
128.2381925055
 10
157.3440969629
 20
128.2462224146
 10
157.292596614
 20
128.2489179776
  0
LINE
  5
27F
100
AcDbEntity
  8
RACCORDO
100
AcDbLine
 62
7
  6
CONTINUOUS
 10
157.8791815515
 20
127.3356742527
 11
157.8664183211
 21
127.8230823598
  0
LINE
  5
280
100
AcDbEntity
  8
RACCORDO
100
AcDbLine
 62
7
  6
CONTINUOUS
 10
157.8664183211
 20
76.0482661457
 11
157.8791815515
 21
76.5356742527
  0
LWPOLYLINE
  5
281
100
AcDbEntity
  8
RACCORDO
100
AcDbPolyline
 62
250
  6
CONTINUOUS
 90
16
 70
0
 10
157.7924252766
 20
76.1222591901
 10
157.7896373121
 20
76.0698802151
 10
157.7813759028
 20
76.0180780374
 10
157.7677320227
 20
75.9674231063
 10
157.7488533331
 20
75.9184674568
 10
157.7249491002
 20
75.8717565141
 10
157.6962938204
 20
75.8278201333
 10
157.6632164412
 20
75.7871481258
 10
157.6260788127
 20
75.7501728265
 10
157.5852774807
 20
75.7172849152
 10
157.5411959775
 20
75.6888086472
 10
157.4943753982
 20
75.6651075768
 10
157.4455260063
 20
75.646505491
 10
157.395271107
 20
75.6331602039
 10
157.3441083307
 20
75.6251272762
 10
157.2925966141
 20
75.6224305277
  0
LINE
  5
282
100
AcDbEntity
  8
RACCORDO
100
AcDbLine
 62
250
  6
CONTINUOUS
 10
157.859935596
 20
78.2305524313
 11
157.8616560615
 21
78.256515133
  0
LINE
  5
283
100
AcDbEntity
  8
RACCORDO
100
AcDbLine
 62
7
  6
CONTINUOUS
 10
157.8765970802
 20
81.8637217246
 11
157.8555801013
 21
81.5715970151
  0
LWPOLYLINE
  5
284
100
AcDbEntity
  8
0
100
AcDbPolyline
 62
7
  6
CONTINUOUS
 90
10
 70
0
 43
0.3500000006
 10
167.9987823486
 20
102.7928208618
 10
168.1416265869
 20
102.864242981
 10
168.2130668335
 20
102.864242981
 10
168.3559291992
 20
102.721389679
 10
168.3559291992
 20
102.6499584961
 10
168.2844889526
 20
102.5785273132
 10
168.2130668335
 20
102.5785273132
 10
168.0702044678
 20
102.6499584961
 10
167.9987823486
 20
102.721389679
 10
167.9987823486
 20
102.7928208618
  0
LWPOLYLINE
  5
285
100
AcDbEntity
  8
0
100
AcDbPolyline
 62
7
  6
CONTINUOUS
 90
3
 70
0
 43
0.3500000006
 10
168.2130668335
 20
102.864242981
 10
168.4273513184
 20
102.7928208618
 10
168.7130579224
 20
102.6499584961
  0
LINE
  5
286
100
AcDbEntity
  8
RACCORDO
100
AcDbLine
 62
250
  6
CONTINUOUS
 10
157.8548434563
 20
78.2050026184
 11
157.859935596
 21
78.2305524313
  0
LWPOLYLINE
  5
287
100
AcDbEntity
  8
0
100
AcDbPolyline
 62
7
  6
CONTINUOUS
 90
13
 70
0
 43
0.3500000006
 10
166.7844975586
 20
104.2928213196
 10
166.5702130737
 20
104.0071056519
 10
165.9273414917
 20
104.0071056519
 10
165.498772522
 20
104.2928213196
 10
165.498772522
 20
104.9356747742
 10
165.9273414917
 20
105.2213904419
 10
166.5702130737
 20
105.2213904419
 10
166.7844975586
 20
104.9356747742
 10
167.2130665283
 20
105.3642437439
 10
168.0702044678
 20
105.3642437439
 10
168.4987734375
 20
104.9356747742
 10
168.4987734375
 20
104.2928213196
 10
168.0702044678
 20
103.8642432861
  0
LINE
  5
288
100
AcDbEntity
  8
RACCORDO
100
AcDbLine
 62
250
  6
CONTINUOUS
 10
146.9366305524
 20
81.7961073786
 11
146.9291815515
 21
81.7886583777
  0
LINE
  5
289
100
AcDbEntity
  8
RACCORDO
100
AcDbLine
 62
250
  6
CONTINUOUS
 10
146.9291815515
 20
122.0826901278
 11
146.9366305524
 21
122.0752411269
  0
LINE
  5
28A
100
AcDbEntity
  8
RACCORDO
100
AcDbLine
 62
250
  6
CONTINUOUS
 10
157.8548432377
 20
125.6663467023
 11
157.8599355346
 21
125.6407965384
  0
LINE
  5
28B
100
AcDbEntity
  8
RACCORDO
100
AcDbLine
 62
250
  6
CONTINUOUS
 10
157.85299563
 20
78.1995614095
 11
157.8548434563
 21
78.2050026184
  0
LINE
  5
28C
100
AcDbEntity
  8
RACCORDO
100
AcDbLine
 62
250
  6
CONTINUOUS
 10
157.85299563
 20
125.6717871792
 11
157.8548432377
 21
125.6663467023
  0
LINE
  5
28D
100
AcDbEntity
  8
RACCORDO
100
AcDbLine
 62
250
  6
CONTINUOUS
 10
147.0159378265
 20
76.1222591901
 11
146.941944782
 21
76.0482661457
  0
LINE
  5
28E
100
AcDbEntity
  8
RACCORDO
100
AcDbLine
 62
250
  6
CONTINUOUS
 10
146.941944782
 20
127.8230823598
 11
147.0159378265
 21
127.7490893153
  0
LWPOLYLINE
  5
28F
100
AcDbEntity
  8
0
100
AcDbPolyline
 62
7
  6
CONTINUOUS
 90
7
 70
0
 43
0.3500000006
 10
168.4987734375
 20
101.2928204041
 10
168.4987734375
 20
99.7928199463
 10
166.3559285889
 20
101.2928204041
 10
165.9273414917
 20
101.2928204041
 10
165.498772522
 20
100.8642423706
 10
165.498772522
 20
100.221388916
 10
166.1416259766
 20
99.7928199463
  0
LWPOLYLINE
  5
290
100
AcDbEntity
  8
0
100
AcDbPolyline
 62
7
  6
CONTINUOUS
 90
8
 70
0
 43
0.3500000006
 10
168.4987734375
 20
97.6499569702
 10
168.4987734375
 20
98.5071039734
 10
168.0702044678
 20
98.9356729431
 10
167.2130665283
 20
98.9356729431
 10
166.7844975586
 20
98.5071039734
 10
166.7844975586
 20
97.6499569702
 10
165.498772522
 20
97.6499569702
 10
165.498772522
 20
98.9356729431
  0
LINE
  5
291
100
AcDbEntity
  8
RACCORDO
100
AcDbLine
 62
250
  6
CONTINUOUS
 10
147.515766489
 20
75.6224305277
 11
147.4545279307
 21
75.5611919694
  0
LINE
  5
292
100
AcDbEntity
  8
RACCORDO
100
AcDbLine
 62
250
  6
CONTINUOUS
 10
147.4545279307
 20
128.3101565361
 11
147.515766489
 21
128.2489179778
  0
LINE
  5
293
100
AcDbEntity
  8
DRAFT
100
AcDbLine
 62
7
  6
CONTINUOUS
 10
146.9553674731
 20
79.5304317487
 11
146.9291815515
 21
79.5217102008
  0
LINE
  5
294
100
AcDbEntity
  8
DRAFT
100
AcDbLine
 62
7
  6
CONTINUOUS
 10
146.9553674731
 20
124.3409167567
 11
146.9291815515
 21
124.3496383047
  0
LINE
  5
295
100
AcDbEntity
  8
RACCORDO
100
AcDbLine
 62
7
  6
CONTINUOUS
 10
146.9291815515
 20
122.2824160347
 11
146.9527830018
 21
122.2824160347
  0
LINE
  5
296
100
AcDbEntity
  8
RACCORDO
100
AcDbLine
 62
7
  6
CONTINUOUS
 10
146.9291815515
 20
125.6217102008
 11
146.9553674731
 21
125.6129886528
  0
LINE
  5
297
100
AcDbEntity
  8
DRAFT
100
AcDbLine
 62
7
  6
CONTINUOUS
 10
154.8791815515
 20
75.5356742527
 11
154.930252004
 21
75.5611919694
  0
LWPOLYLINE
  5
298
100
AcDbEntity
  8
RACCORDO
100
AcDbPolyline
 62
250
  6
CONTINUOUS
 90
16
 70
0
 10
147.515766489
 20
128.2489179778
 10
147.4642661408
 20
128.2462224148
 10
147.4131119634
 20
128.2381925058
 10
147.3628627252
 20
128.2248512676
 10
147.3140159119
 20
128.2062533933
 10
147.2671951352
 20
128.1825559344
 10
147.2231113461
 20
128.1540821884
 10
147.1823054997
 20
128.1211946895
 10
147.1451622313
 20
128.0842175957
 10
147.1120801736
 20
128.0435432973
 10
147.0834217075
 20
127.9996052783
 10
147.0595149862
 20
127.9528927121
 10
147.0406341905
 20
127.9039349246
 10
147.0269886333
 20
127.8532771704
 10
147.0187261616
 20
127.8014717844
 10
147.0159378265
 20
127.7490893153
  0
LINE
  5
299
100
AcDbEntity
  8
RACCORDO
100
AcDbLine
 62
250
  6
CONTINUOUS
 10
157.85299563
 20
125.6148333724
 11
157.8616560615
 21
125.6148333724
  0
LINE
  5
29A
100
AcDbEntity
  8
RACCORDO
100
AcDbLine
 62
250
  6
CONTINUOUS
 10
157.7924252766
 20
127.7490893153
 11
147.0159378265
 21
127.7490893153
  0
LINE
  5
29B
100
AcDbEntity
  8
RACCORDO
100
AcDbLine
 62
250
  6
CONTINUOUS
 10
157.2925966141
 20
128.2489179778
 11
147.515766489
 21
128.2489179778
  0
LINE
  5
29C
100
AcDbEntity
  8
RACCORDO
100
AcDbLine
 62
7
  6
CONTINUOUS
 10
157.3538351724
 20
128.3101565361
 11
154.930252004
 21
128.3101565361
  0
LINE
  5
29D
100
AcDbEntity
  8
RACCORDO
100
AcDbLine
 62
7
  6
CONTINUOUS
 10
147.4545279307
 20
128.3101565361
 11
149.8781110991
 21
128.3101565361
  0
LINE
  5
29E
100
AcDbEntity
  8
DRAFT
100
AcDbLine
 62
7
  6
CONTINUOUS
 10
149.9291815515
 20
128.3356742527
 11
154.8791815515
 21
128.3356742527
  0
LINE
  5
29F
100
AcDbEntity
  8
DRAFT
100
AcDbLine
 62
7
  6
CONTINUOUS
 10
154.8791815515
 20
128.3356742527
 11
154.930252004
 21
128.3101565361
  0
LWPOLYLINE
  5
2A0
100
AcDbEntity
  8
0
100
AcDbPolyline
 62
7
  6
CONTINUOUS
 90
3
 70
0
 43
0.3500000006
 10
123.2741425781
 20
147.278559082
 10
124.1312895813
 20
148.1356970215
 10
124.1312895813
 20
145.135696106
  0
LWPOLYLINE
  5
2A1
100
AcDbEntity
  8
0
100
AcDbPolyline
 62
7
  6
CONTINUOUS
 90
5
 70
0
 43
0.3500000006
 10
129.9170069275
 20
146.8499901123
 10
130.2741447144
 20
147.0642745972
 10
130.2741447144
 20
147.7071280518
 10
129.9170069275
 20
148.1356970215
 10
129.0598599243
 20
148.1356970215
  0
LINE
  5
2A2
100
AcDbEntity
  8
RACCORDO
100
AcDbLine
 62
250
  6
CONTINUOUS
 10
120.5753436648
 20
76.1222591901
 11
120.088432139
 21
76.1222591901
  0
LINE
  5
2A3
100
AcDbEntity
  8
DRAFT
100
AcDbLine
 62
7
  6
CONTINUOUS
 10
123.888432139
 20
75.5356742527
 11
122.9139498556
 21
75.5611919694
  0
LINE
  5
2A4
100
AcDbEntity
  8
RACCORDO
100
AcDbLine
 62
7
  6
CONTINUOUS
 10
120.5753436648
 20
75.6224305277
 11
122.9139498556
 21
75.5611919694
  0
LINE
  5
2A5
100
AcDbEntity
  8
RACCORDO
100
AcDbLine
 62
250
  6
CONTINUOUS
 10
120.5753436648
 20
76.1222591901
 11
123.4010240319
 21
76.0482661457
  0
LWPOLYLINE
  5
2A6
100
AcDbEntity
  8
0
100
AcDbPolyline
 62
7
  6
CONTINUOUS
 90
10
 70
0
 43
0.3500000006
 10
132.0170075684
 20
140.0814935303
 10
131.37414505
 20
139.4386400757
 10
130.9455760803
 20
138.5815021362
 10
130.9455760803
 20
137.5100797119
 10
131.37414505
 20
137.0814926147
 10
132.0170075684
 20
137.0814926147
 10
132.4455765381
 20
137.5100797119
 10
132.4455765381
 20
138.3672176514
 10
132.0170075684
 20
138.7957866211
 10
131.0884293823
 20
138.7957866211
  0
LWPOLYLINE
  5
2A7
100
AcDbEntity
  8
RACCORDO
100
AcDbPolyline
 62
250
  6
CONTINUOUS
 90
10
 70
0
 10
128.3749765344
 20
77.5510728228
 10
128.4067198083
 20
77.5521686754
 10
128.4384475235
 20
77.5544088521
 10
128.47015968
 20
77.5577933528
 10
128.5015976997
 20
77.5622080579
 10
128.5330201608
 20
77.567767087
 10
128.5652027977
 20
77.5748127988
 10
128.5984041885
 20
77.583459313
 10
128.6323657552
 20
77.59359251
 10
128.6670874976
 20
77.6052123897
  0
LINE
  5
2A8
100
AcDbEntity
  8
RACCORDO
100
AcDbLine
 62
7
  6
CONTINUOUS
 10
127.9457041108
 20
77.4436559647
 11
128.3714881795
 21
77.4510880532
  0
LINE
  5
2A9
100
AcDbEntity
  8
RACCORDO
100
AcDbLine
 62
250
  6
CONTINUOUS
 10
127.8885886237
 20
77.5425828902
 11
128.3749765344
 21
77.5510728228
  0
LINE
  5
2AA
100
AcDbEntity
  8
DRAFT
100
AcDbLine
 62
7
  6
CONTINUOUS
 10
127.388432139
 20
77.9478927982
 11
126.688432139
 21
77.9356742527
  0
LINE
  5
2AB
100
AcDbEntity
  8
RACCORDO
100
AcDbLine
 62
7
  6
CONTINUOUS
 10
127.388432139
 20
78.2356742527
 11
127.488432139
 21
78.2356742527
  0
LINE
  5
2AC
100
AcDbEntity
  8
RACCORDO
100
AcDbLine
 62
250
  6
CONTINUOUS
 10
124.3843974878
 20
78.256515133
 11
124.2452378793
 21
78.256515133
  0
LINE
  5
2AD
100
AcDbEntity
  8
RACCORDO
100
AcDbLine
 62
250
  6
CONTINUOUS
 10
123.9457820491
 20
78.2722089481
 11
123.888432139
 21
78.2722089481
  0
LINE
  5
2AE
100
AcDbEntity
  8
RACCORDO
100
AcDbLine
 62
250
  6
CONTINUOUS
 10
127.388432139
 20
78.3356742527
 11
127.488432139
 21
78.3356742527
  0
LINE
  5
2AF
100
AcDbEntity
  8
DRAFT
100
AcDbLine
 62
7
  6
CONTINUOUS
 10
126.688432139
 20
77.9356742527
 11
125.388432139
 21
78.0038043658
  0
LINE
  5
2B0
100
AcDbEntity
  8
RACCORDO
100
AcDbLine
 62
7
  6
CONTINUOUS
 10
125.388432139
 20
78.0038043658
 11
124.0779649477
 21
78.0724830411
  0
LINE
  5
2B1
100
AcDbEntity
  8
RACCORDO
100
AcDbLine
 62
250
  6
CONTINUOUS
 10
124.2452378793
 20
78.256515133
 11
123.9457820491
 21
78.2722089481
  0
LINE
  5
2B2
100
AcDbEntity
  8
RACCORDO
100
AcDbLine
 62
250
  6
CONTINUOUS
 10
125.388432139
 20
78.2038959066
 11
124.3843974878
 21
78.256515133
  0
LINE
  5
2B3
100
AcDbEntity
  8
RACCORDO
100
AcDbLine
 62
7
  6
CONTINUOUS
 10
123.7515055004
 20
77.9601651178
 11
123.0253587776
 21
78.0236947241
  0
LWPOLYLINE
  5
2B4
100
AcDbEntity
  8
RACCORDO
100
AcDbPolyline
 62
250
  6
CONTINUOUS
 90
13
 70
0
 10
124.3774207779
 20
78.0567892261
 10
124.3593543741
 20
78.0593707751
 10
124.3417541359
 20
78.0651705304
 10
124.3249073357
 20
78.0740936188
 10
124.309089779
 20
78.0859934401
 10
124.2945585749
 20
78.1006760166
 10
124.2815487224
 20
78.1179046852
 10
124.2702690856
 20
78.1374076932
 10
124.2609105063
 20
78.1588606549
 10
124.2536334653
 20
78.1818884281
 10
124.2485522861
 20
78.206102621
 10
124.2457406202
 20
78.2311142103
 10
124.2452378793
 20
78.256515133
  0
LWPOLYLINE
  5
2B5
100
AcDbEntity
  8
RACCORDO
100
AcDbPolyline
 62
250
  6
CONTINUOUS
 90
13
 70
0
 10
124.0779649477
 20
78.0724830411
 10
124.0598927961
 20
78.075065941
 10
124.0422879061
 20
78.080868791
 10
124.0254377126
 20
78.089796228
 10
124.009617922
 20
78.1017012953
 10
123.9950858498
 20
78.1163894103
 10
123.982076846
 20
78.1336227685
 10
123.970799468
 20
78.1531288737
 10
123.9614440637
 20
78.1745828557
 10
123.9541707423
 20
78.1976086051
 10
123.9490931193
 20
78.2218172571
 10
123.9462840053
 20
78.2468199721
 10
123.9457820491
 20
78.2722089481
  0
LINE
  5
2B6
100
AcDbEntity
  8
RACCORDO
100
AcDbLine
 62
7
  6
CONTINUOUS
 10
126.4919226203
 20
124.8093714732
 11
127.388432139
 21
125.1356742527
  0
LINE
  5
2B7
100
AcDbEntity
  8
RACCORDO
100
AcDbLine
 62
7
  6
CONTINUOUS
 10
126.7866868983
 20
79.1873892959
 11
132.7753676223
 21
79.2919221068
  0
LINE
  5
2B8
100
AcDbEntity
  8
RACCORDO
100
AcDbLine
 62
250
  6
CONTINUOUS
 10
126.7866868983
 20
79.387358835
 11
132.7753676223
 21
79.4918916458
  0
LINE
  5
2B9
100
AcDbEntity
  8
RACCORDO
100
AcDbLine
 62
250
  6
CONTINUOUS
 10
126.688432139
 20
79.387358835
 11
126.7866868983
 21
79.387358835
  0
LINE
  5
2BA
100
AcDbEntity
  8
RACCORDO
100
AcDbLine
 62
250
  6
CONTINUOUS
 10
134.388432139
 20
80.1524420896
 11
134.1919226203
 21
80.1524420896
  0
LINE
  5
2BB
100
AcDbEntity
  8
RACCORDO
100
AcDbLine
 62
250
  6
CONTINUOUS
 10
126.688432139
 20
80.2770819515
 11
126.7866868979
 21
80.2770816591
  0
LINE
  5
2BC
100
AcDbEntity
  8
RACCORDO
100
AcDbLine
 62
7
  6
CONTINUOUS
 10
127.388432139
 20
78.7356742527
 11
126.4919226203
 21
79.0619770323
  0
LWPOLYLINE
  5
2BD
100
AcDbEntity
  8
RACCORDO
100
AcDbPolyline
 62
7
  6
CONTINUOUS
 90
13
 70
0
 10
126.4919226203
 20
80.4617096332
 10
126.5163577562
 20
80.4626134145
 10
126.540602501
 20
80.4648626245
 10
126.5642680035
 20
80.4684572632
 10
126.5869507895
 20
80.4734618826
 10
126.6082576692
 20
80.4798119308
 10
126.6278084782
 20
80.4873137514
 10
126.645216575
 20
80.4960401602
 10
126.6601140702
 20
80.5059183414
 10
126.6721691002
 20
80.516536191
 10
126.6810749882
 20
80.527756341
 10
126.6865656417
 20
80.5397161593
 10
126.688432139
 20
80.552415646
  0
LINE
  5
2BE
100
AcDbEntity
  8
RACCORDO
100
AcDbLine
 62
250
  6
CONTINUOUS
 10
129.1457820491
 20
81.7040360579
 11
129.088432139
 21
81.7020339651
  0
LWPOLYLINE
  5
2BF
100
AcDbEntity
  8
RACCORDO
100
AcDbPolyline
 62
250
  6
CONTINUOUS
 90
16
 70
0
 10
129.7457515789
 20
82.1568399405
 10
129.7764356286
 20
82.1577388131
 10
129.8060573565
 20
82.1605541571
 10
129.8346167628
 20
82.1652859725
 10
129.8621325031
 20
82.172049973
 10
129.8885859217
 20
82.1807304449
 10
129.9139210516
 20
82.1909802469
 10
129.9381454598
 20
82.2027645496
 10
129.9612515793
 20
82.2161181825
 10
129.9831607416
 20
82.2307984926
 10
130.0038851835
 20
82.2467927209
 10
130.0234126681
 20
82.2641136265
 10
130.0416278169
 20
82.2825568341
 10
130.0584921704
 20
82.3020542185
 10
130.0740441882
 20
82.3226739049
 10
130.0882838702
 20
82.3444158932
  0
LINE
  5
2C0
100
AcDbEntity
  8
RACCORDO
100
AcDbLine
 62
250
  6
CONTINUOUS
 10
130.0064701357
 20
81.3215493862
 11
126.688432139
 21
81.2636328176
  0
LINE
  5
2C1
100
AcDbEntity
  8
RACCORDO
100
AcDbLine
 62
7
  6
CONTINUOUS
 10
126.6304918757
 20
81.4625910055
 11
129.6065919703
 21
81.5145390259
  0
LINE
  5
2C2
100
AcDbEntity
  8
RACCORDO
100
AcDbLine
 62
250
  6
CONTINUOUS
 10
128.8919226203
 20
81.5592579316
 11
126.4919226203
 21
81.5172813786
  0
LINE
  5
2C3
100
AcDbEntity
  8
RACCORDO
100
AcDbLine
 62
250
  6
CONTINUOUS
 10
129.1457820491
 20
81.7040360579
 11
129.7457515789
 21
81.714508565
  0
LINE
  5
2C4
100
AcDbEntity
  8
RACCORDO
100
AcDbLine
 62
7
  6
CONTINUOUS
 10
125.388432139
 20
80.4529928558
 11
126.4919226203
 21
80.4617096332
  0
LWPOLYLINE
  5
2C5
100
AcDbEntity
  8
RACCORDO
100
AcDbPolyline
 62
250
  6
CONTINUOUS
 90
28
 70
0
 10
129.6065919703
 20
81.5145390259
 10
129.6337876463
 20
81.5145633282
 10
129.6600802646
 20
81.5137123861
 10
129.6854696004
 20
81.5120495901
 10
129.7099604101
 20
81.5096474023
 10
129.7335469584
 20
81.5065666728
 10
129.7562134366
 20
81.5028383287
 10
129.7779585841
 20
81.4985084407
 10
129.7987828492
 20
81.4936291631
 10
129.818673489
 20
81.4882145615
 10
129.8376334358
 20
81.4823009585
 10
129.8556590584
 20
81.4759305693
 10
129.8727281576
 20
81.4691094211
 10
129.888859284
 20
81.4618579568
 10
129.9040333232
 20
81.4542209845
 10
129.9181716909
 20
81.4462353907
 10
129.9312450665
 20
81.4379497532
 10
129.9432818182
 20
81.4293847648
 10
129.95429001
 20
81.4205312772
 10
129.9642458717
 20
81.4114932478
 10
129.9731722519
 20
81.4022289234
 10
129.9811483911
 20
81.3924858816
 10
129.9883050219
 20
81.3822818026
 10
129.9945126466
 20
81.3716285752
 10
129.9994623071
 20
81.3602368687
 10
130.0030525381
 20
81.3480194505
 10
130.0053880613
 20
81.3351090044
 10
130.0064701357
 20
81.3215493862
  0
LWPOLYLINE
  5
2C6
100
AcDbEntity
  8
RACCORDO
100
AcDbPolyline
 62
250
  6
CONTINUOUS
 90
19
 70
0
 10
129.7457515789
 20
81.714508565
 10
129.7721910761
 20
81.7139007316
 10
129.7977823881
 20
81.7118681004
 10
129.822525515
 20
81.7084106712
 10
129.8464264082
 20
81.7034364995
 10
129.8694791163
 20
81.69703753
 10
129.8916657851
 20
81.6894895967
 10
129.9129851015
 20
81.6808185121
 10
129.9334383786
 20
81.6709984639
 10
129.9530117023
 20
81.6602278485
 10
129.9717071783
 20
81.6485230131
 10
129.9895227009
 20
81.6358676105
 10
130.0064380384
 20
81.6224109959
 10
130.0224725809
 20
81.6081365455
 10
130.0376069384
 20
81.5930608831
 10
130.0517627085
 20
81.5773832352
 10
130.0649137574
 20
81.5611700107
 10
130.0770862191
 20
81.5443548006
 10
130.0882800935
 20
81.5269376051
  0
LWPOLYLINE
  5
2C7
100
AcDbEntity
  8
RACCORDO
100
AcDbPolyline
 62
250
  6
CONTINUOUS
 90
22
 70
0
 10
129.6065919703
 20
82.3568094795
 10
129.6407870188
 20
82.3569209664
 10
129.6736446399
 20
82.3584065999
 10
129.7051647677
 20
82.3611630598
 10
129.7353730979
 20
82.3650647444
 10
129.7642426211
 20
82.3700116617
 10
129.7916946098
 20
82.3759703084
 10
129.8177411231
 20
82.382871536
 10
129.8423693055
 20
82.3906286557
 10
129.865464228
 20
82.3992347118
 10
129.8870455186
 20
82.4086358774
 10
129.9070929789
 20
82.4187577475
 10
129.9254326958
 20
82.4295897957
 10
129.9420700715
 20
82.4410784428
 10
129.9569990362
 20
82.453153064
 10
129.9700288572
 20
82.4657883345
 10
129.9811491084
 20
82.4789277322
 10
129.9903691897
 20
82.4924952874
 10
129.9975281974
 20
82.5064378576
 10
130.0025719591
 20
82.5206890452
 10
130.0055529551
 20
82.5351683731
 10
130.0064701357
 20
82.5497991192
  0
LINE
  5
2C8
100
AcDbEntity
  8
RACCORDO
100
AcDbLine
 62
250
  6
CONTINUOUS
 10
134.388432139
 20
83.1450171534
 11
134.1919226203
 21
83.1450171534
  0
LINE
  5
2C9
100
AcDbEntity
  8
RACCORDO
100
AcDbLine
 62
250
  6
CONTINUOUS
 10
129.1457820491
 20
82.1673124476
 11
129.7457515789
 21
82.1568399405
  0
LINE
  5
2CA
100
AcDbEntity
  8
RACCORDO
100
AcDbLine
 62
7
  6
CONTINUOUS
 10
129.088432139
 20
82.365853993
 11
129.6065919703
 21
82.3568094795
  0
LINE
  5
2CB
100
AcDbEntity
  8
RACCORDO
100
AcDbLine
 62
250
  6
CONTINUOUS
 10
129.088432139
 20
82.565823532
 11
130.0064701357
 21
82.5497991192
  0
LINE
  5
2CC
100
AcDbEntity
  8
RACCORDO
100
AcDbLine
 62
250
  6
CONTINUOUS
 10
129.088432139
 20
82.1693145404
 11
129.1457820491
 21
82.1673124476
  0
LWPOLYLINE
  5
2CD
100
AcDbEntity
  8
RACCORDO
100
AcDbPolyline
 62
250
  6
CONTINUOUS
 90
13
 70
0
 10
129.6065919703
 20
82.3568094795
 10
129.6250316694
 20
82.3548032227
 10
129.6431019735
 20
82.3494630228
 10
129.660498562
 20
82.3408788494
 10
129.676928475
 20
82.3291952943
 10
129.6921150169
 20
82.3146091555
 10
129.7058024236
 20
82.2973661389
 10
129.7177602117
 20
82.2777566741
 10
129.7277870383
 20
82.2561110255
 10
129.735714073
 20
82.2327937669
 10
129.7414078625
 20
82.2081976006
 10
129.7447725695
 20
82.1827367366
 10
129.7457515777
 20
82.1568399408
  0
LWPOLYLINE
  5
2CE
100
AcDbEntity
  8
RACCORDO
100
AcDbPolyline
 62
250
  6
CONTINUOUS
 90
30
 70
0
 10
124.2659777956
 20
119.0673826161
 10
124.2604678596
 20
119.0651103715
 10
124.2552105514
 20
119.0627347148
 10
124.2502066051
 20
119.060262483
 10
124.2454576131
 20
119.0576953589
 10
124.2409266722
 20
119.0550239687
 10
124.2366104379
 20
119.0522529999
 10
124.2325137937
 20
119.0493835117
 10
124.2286115158
 20
119.0463984223
 10
124.2248975676
 20
119.0432994387
 10
124.2213788737
 20
119.0400883822
 10
124.2180491124
 20
119.0367465353
 10
124.2149029446
 20
119.0332741553
 10
124.211946245
 20
119.0296733851
 10
124.2091891749
 20
119.0259272371
 10
124.2066285135
 20
119.0220370695
 10
124.2042679444
 20
119.0180037923
 10
124.202127786
 20
119.0138091407
 10
124.2002053089
 20
119.0094561997
 10
124.1985037712
 20
119.0049445398
 10
124.1970523206
 20
119.0002502072
 10
124.1958471278
 20
118.9953776964
 10
124.1948927019
 20
118.9903259253
 10
124.1942305593
 20
118.9850622687
 10
124.1938559084
 20
118.979589057
 10
124.1937745021
 20
118.973908709
 10
124.1940436233
 20
118.9679887812
 10
124.1946828548
 20
118.9618208051
 10
124.195674181
 20
118.9554205477
 10
124.197018631
 20
118.9487925756
  0
LWPOLYLINE
  5
2CF
100
AcDbEntity
  8
RACCORDO
100
AcDbPolyline
 62
250
  6
CONTINUOUS
 90
3
 70
0
 10
124.4397496099
 20
84.7883137733
 10
124.4158892616
 20
84.7852309478
 10
124.392434414
 20
84.7829232004
  0
LINE
  5
2D0
100
AcDbEntity
  8
RACCORDO
100
AcDbLine
 62
250
  6
CONTINUOUS
 10
123.888432139
 20
84.5186514159
 11
123.9457820491
 21
84.5224931314
  0
LINE
  5
2D1
100
AcDbEntity
  8
RACCORDO
100
AcDbLine
 62
250
  6
CONTINUOUS
 10
124.2452378793
 20
84.6027320793
 11
124.3843974878
 21
84.6120540054
  0
LWPOLYLINE
  5
2D2
100
AcDbEntity
  8
RACCORDO
100
AcDbPolyline
 62
250
  6
CONTINUOUS
 90
7
 70
0
 10
124.392434414
 20
84.7829232004
 10
124.3693517552
 20
84.7814166689
 10
124.3472447349
 20
84.7807246786
 10
124.3263474864
 20
84.7808436878
 10
124.3064595902
 20
84.781723117
 10
124.287503974
 20
84.7832107384
 10
124.2694360155
 20
84.7853259821
  0
LINE
  5
2D3
100
AcDbEntity
  8
RACCORDO
100
AcDbLine
 62
250
  6
CONTINUOUS
 10
124.3967760211
 20
84.7866835607
 11
124.425173915
 21
84.7885321144
  0
LWPOLYLINE
  5
2D4
100
AcDbEntity
  8
RACCORDO
100
AcDbPolyline
 62
250
  6
CONTINUOUS
 90
7
 70
0
 10
124.0849416577
 20
85.4390738782
 10
124.0499115798
 20
85.4368206679
 10
124.0157928985
 20
85.4317642263
 10
123.9825856138
 20
85.4239045534
 10
123.9502897256
 20
85.413241649
 10
123.918905234
 20
85.3997755133
 10
123.888432139
 20
85.3835061462
  0
LWPOLYLINE
  5
2D5
100
AcDbEntity
  8
RACCORDO
100
AcDbPolyline
 62
250
  6
CONTINUOUS
 90
3
 70
0
 10
124.0847923428
 20
84.8113068525
 10
124.0799203884
 20
84.8111507813
 10
124.0754373108
 20
84.8108813099
  0
LINE
  5
2D6
100
AcDbEntity
  8
RACCORDO
100
AcDbLine
 62
7
  6
CONTINUOUS
 10
126.2058845454
 20
85.2761255349
 11
124.0849416577
 21
85.2391043391
  0
LINE
  5
2D7
100
AcDbEntity
  8
RACCORDO
100
AcDbLine
 62
250
  6
CONTINUOUS
 10
126.2058845454
 20
85.476095074
 11
124.0849416577
 21
85.4390738782
  0
LINE
  5
2D8
100
AcDbEntity
  8
RACCORDO
100
AcDbLine
 62
250
  6
CONTINUOUS
 10
125.388432139
 20
84.0421548856
 11
128.8919226203
 21
84.063543138
  0
LINE
  5
2D9
100
AcDbEntity
  8
RACCORDO
100
AcDbLine
 62
250
  6
CONTINUOUS
 10
125.388432139
 20
84.1672653359
 11
128.8919226203
 21
84.1887718097
  0
LINE
  5
2DA
100
AcDbEntity
  8
RACCORDO
100
AcDbLine
 62
250
  6
CONTINUOUS
 10
128.8919226203
 20
84.1887718097
 11
129.088432139
 21
84.1887718097
  0
LINE
  5
2DB
100
AcDbEntity
  8
RACCORDO
100
AcDbLine
 62
250
  6
CONTINUOUS
 10
123.9470107827
 20
84.7763177012
 11
123.888432139
 21
84.7763176876
  0
LINE
  5
2DC
100
AcDbEntity
  8
RACCORDO
100
AcDbLine
 62
250
  6
CONTINUOUS
 10
124.197018631
 20
84.9225559298
 11
124.0590877561
 21
84.9225559316
  0
LINE
  5
2DD
100
AcDbEntity
  8
RACCORDO
100
AcDbLine
 62
250
  6
CONTINUOUS
 10
129.088432139
 20
85.1744901379
 11
128.8919226203
 21
85.1744901379
  0
LWPOLYLINE
  5
2DE
100
AcDbEntity
  8
RACCORDO
100
AcDbPolyline
 62
250
  6
CONTINUOUS
 90
37
 70
0
 10
128.8919226203
 20
84.8245434446
 10
128.8998885571
 20
84.8244665794
 10
128.9078402355
 20
84.8243112746
 10
128.9157649742
 20
84.8240775302
 10
128.9236496882
 20
84.8237649159
 10
128.9314821612
 20
84.823373862
 10
128.9392510335
 20
84.8229056598
 10
128.946944326
 20
84.8223600465
 10
128.9545489784
 20
84.8217372849
 10
128.9620521216
 20
84.8210394547
 10
128.9694418895
 20
84.8202659786
 10
128.9767058311
 20
84.8194174339
 10
128.9838305279
 20
84.8184976319
 10
128.9908048953
 20
84.8175059437
 10
128.9976169672
 20
84.8164429983
 10
129.00425265
 20
84.8153144941
 10
129.0106987586
 20
84.8141206347
 10
129.0169476526
 20
84.8128612165
 10
129.0229937869
 20
84.8115413274
 10
129.028817862
 20
84.8101634591
 10
129.0344198867
 20
84.8087251199
 10
129.0398194499
 20
84.8072239226
 10
129.0449942016
 20
84.8056640654
 10
129.0499409034
 20
84.8040413502
 10
129.0546954685
 20
84.8023407956
 10
129.059235433
 20
84.8005626812
 10
129.0635382256
 20
84.7987067274
 10
129.067620263
 20
84.7967571135
 10
129.0714491444
 20
84.794713866
 10
129.0749866676
 20
84.7925769585
 10
129.078219359
 20
84.7903304912
 10
129.0811024247
 20
84.7879679816
 10
129.0835818733
 20
84.7854959122
 10
129.0856130581
 20
84.7829178305
 10
129.0871393949
 20
84.7802349192
 10
129.0880989883
 20
84.7774459956
 10
129.088432139
 20
84.7745510599
  0
LINE
  5
2DF
100
AcDbEntity
  8
RACCORDO
100
AcDbLine
 62
250
  6
CONTINUOUS
 10
125.388432139
 20
84.8856970984
 11
128.8919226203
 21
84.8245434446
  0
LINE
  5
2E0
100
AcDbEntity
  8
RACCORDO
100
AcDbLine
 62
7
  6
CONTINUOUS
 10
125.388432139
 20
85.0356742527
 11
128.8919226203
 21
84.9745205989
  0
LWPOLYLINE
  5
2E1
100
AcDbEntity
  8
RACCORDO
100
AcDbPolyline
 62
250
  6
CONTINUOUS
 90
3
 70
0
 10
124.3448511386
 20
84.7874752955
 10
124.3700084951
 20
84.7863520739
 10
124.3967760211
 20
84.7866835607
  0
LWPOLYLINE
  5
2E2
100
AcDbEntity
  8
RACCORDO
100
AcDbPolyline
 62
250
  6
CONTINUOUS
 90
10
 70
0
 10
125.388432139
 20
85.2417942172
 10
125.410633412
 20
85.2401157264
 10
125.4328397059
 20
85.2385890437
 10
125.4550510208
 20
85.2372141692
 10
125.4772693241
 20
85.2359910675
 10
125.4994926483
 20
85.234919774
 10
125.5217150913
 20
85.2340003941
 10
125.5439346857
 20
85.2332329631
 10
125.5661533989
 20
85.2326174457
 10
128.8919226203
 20
85.1744901379
  0
LWPOLYLINE
  5
2E3
100
AcDbEntity
  8
RACCORDO
100
AcDbPolyline
 62
250
  6
CONTINUOUS
 90
4
 70
0
 10
124.2694360155
 20
84.7853259821
 10
124.2523385962
 20
84.7880334689
 10
124.2362738206
 20
84.7910283153
 10
124.2211206268
 20
84.7941438171
  0
LWPOLYLINE
  5
2E4
100
AcDbEntity
  8
RACCORDO
100
AcDbPolyline
 62
250
  6
CONTINUOUS
 90
14
 70
0
 10
124.2211206268
 20
84.7941438171
 10
124.2068632568
 20
84.7973618698
 10
124.1936225306
 20
84.8004764424
 10
124.1813074662
 20
84.8031517856
 10
124.1697640125
 20
84.805366283
 10
124.1590202089
 20
84.8073471533
 10
124.1490652939
 20
84.8088593678
 10
124.1397781722
 20
84.8097560579
 10
124.1310868345
 20
84.8104970879
 10
124.1229825386
 20
84.8110806958
 10
124.1154399881
 20
84.8113075409
 10
124.1083920631
 20
84.8114660225
 10
124.1018257273
 20
84.8115637105
 10
124.0847923428
 20
84.8113068525
  0
LWPOLYLINE
  5
2E5
100
AcDbEntity
  8
RACCORDO
100
AcDbPolyline
 62
7
  6
CONTINUOUS
 90
10
 70
0
 10
126.4919226203
 20
81.5172813786
 10
126.5101566631
 20
81.5052517575
 10
126.5279031297
 20
81.4948560488
 10
126.5450317298
 20
81.486020024
 10
126.5613857349
 20
81.4786170173
 10
126.5769145397
 20
81.4726036576
 10
126.5916574125
 20
81.4680469464
 10
126.6055687745
 20
81.4649322179
 10
126.6185341916
 20
81.4631384141
 10
126.6304918757
 20
81.4625910055
  0
LINE
  5
2E6
100
AcDbEntity
  8
RACCORDO
100
AcDbLine
 62
250
  6
CONTINUOUS
 10
134.1919226203
 20
120.726331352
 11
129.088432139
 21
119.1660377294
  0
LINE
  5
2E7
100
AcDbEntity
  8
RACCORDO
100
AcDbLine
 62
7
  6
CONTINUOUS
 10
134.2469064799
 20
120.5350704008
 11
129.088432139
 21
118.9579665253
  0
LINE
  5
2E8
100
AcDbEntity
  8
RACCORDO
100
AcDbLine
 62
250
  6
CONTINUOUS
 10
123.9470107827
 20
84.7763172948
 11
124.0754628682
 21
84.810787825
  0
LINE
  5
2E9
100
AcDbEntity
  8
RACCORDO
100
AcDbLine
 62
250
  6
CONTINUOUS
 10
124.3843974878
 20
84.6120540054
 11
125.258889855
 21
84.8464303814
  0
LINE
  5
2EA
100
AcDbEntity
  8
RACCORDO
100
AcDbLine
 62
250
  6
CONTINUOUS
 10
123.9457820491
 20
84.5224931314
 11
124.2452378793
 21
84.6027320793
  0
LINE
  5
2EB
100
AcDbEntity
  8
RACCORDO
100
AcDbLine
 62
7
  6
CONTINUOUS
 10
123.9996092822
 20
84.6635402898
 11
125.388432139
 21
85.0356742527
  0
LINE
  5
2EC
100
AcDbEntity
  8
RACCORDO
100
AcDbLine
 62
250
  6
CONTINUOUS
 10
124.197018631
 20
84.9225559298
 11
125.388432139
 21
85.2417942172
  0
LWPOLYLINE
  5
2ED
100
AcDbEntity
  8
RACCORDO
100
AcDbPolyline
 62
250
  6
CONTINUOUS
 90
14
 70
0
 10
123.9996301405
 20
84.6635458788
 10
123.9966597044
 20
84.6628225169
 10
123.9937315248
 20
84.6622734246
 10
123.9908343659
 20
84.6619233534
 10
123.9879279909
 20
84.6617987605
 10
123.9850235327
 20
84.6619292748
 10
123.9821914835
 20
84.6623264612
 10
123.9794249224
 20
84.6630030155
 10
123.976709799
 20
84.6639619935
 10
123.9741243589
 20
84.6651564331
 10
123.9717080529
 20
84.6665543456
 10
123.9694278989
 20
84.6681489901
 10
123.9672681496
 20
84.6699046588
 10
123.9652426578
 20
84.6717900333
  0
LWPOLYLINE
  5
2EE
100
AcDbEntity
  8
RACCORDO
100
AcDbPolyline
 62
250
  6
CONTINUOUS
 90
7
 70
0
 10
125.5300719107
 20
87.3381618146
 10
125.5602157694
 20
87.3406311466
 10
125.5886621715
 20
87.3451702828
 10
125.6154111172
 20
87.3517792233
 10
125.6405222548
 20
87.3607121217
 10
125.663935936
 20
87.3717148244
 10
125.6854732151
 20
87.3840248703
  0
LWPOLYLINE
  5
2EF
100
AcDbEntity
  8
RACCORDO
100
AcDbPolyline
 62
250
  6
CONTINUOUS
 90
8
 70
0
 10
125.5300711097
 20
87.4381465701
 10
125.5502305197
 20
87.4393641143
 10
125.5694547929
 20
87.4421838229
 10
125.5876167785
 20
87.4464271077
 10
125.60460419
 20
87.4518976296
 10
125.6203639541
 20
87.4584193733
 10
125.6348874097
 20
87.4658672232
 10
125.6481082176
 20
87.4740758932
  0
LWPOLYLINE
  5
2F0
100
AcDbEntity
  8
RACCORDO
100
AcDbPolyline
 62
250
  6
CONTINUOUS
 90
19
 70
0
 10
125.4736985961
 20
86.660230371
 10
125.5453288349
 20
86.6640040056
 10
125.6145841744
 20
86.6732283605
 10
125.6814646145
 20
86.6879034357
 10
125.7461028894
 20
86.7082004351
 10
125.808366265
 20
86.7339481548
 10
125.8678565386
 20
86.7646329829
 10
125.9248365495
 20
86.8003797857
 10
125.9790434584
 20
86.841063697
 10
126.0292905445
 20
86.8857965064
 10
126.0753463441
 20
86.9342275014
 10
126.117442321
 20
86.9867073946
 10
126.1550861459
 20
87.0434001132
 10
126.1886543453
 20
87.1048228023
 10
126.2177703928
 20
87.1704583168
 10
126.2408123798
 20
87.2389191488
 10
126.2572396702
 20
87.3097427955
 10
126.2675929002
 20
87.3833917596
 10
126.2718720698
 20
87.4598660411
  0
LWPOLYLINE
  5
2F1
100
AcDbEntity
  8
RACCORDO
100
AcDbPolyline
 62
250
  6
CONTINUOUS
 90
6
 70
0
 10
125.4125240294
 20
87.4360947782
 10
125.417868363
 20
87.4363306719
 10
125.4231361108
 20
87.4368433874
 10
125.42831721
 20
87.4376218959
 10
125.4333724531
 20
87.438648188
 10
125.4383239125
 20
87.4399144644
  0
LWPOLYLINE
  5
2F2
100
AcDbEntity
  8
RACCORDO
100
AcDbPolyline
 62
250
  6
CONTINUOUS
 90
19
 70
0
 10
125.4649722247
 20
87.1595453066
 10
125.4916258222
 20
87.1606748899
 10
125.5177223047
 20
87.1641087233
 10
125.5430740024
 20
87.169732888
 10
125.5674021422
 20
87.1773809595
 10
125.5906711831
 20
87.1869366298
 10
125.6130521636
 20
87.1984255801
 10
125.6344881084
 20
87.2118389186
 10
125.6547134287
 20
87.2270323878
 10
125.6735668728
 20
87.243884932
 10
125.6908012817
 20
87.2621426366
 10
125.7064324495
 20
87.2817877118
 10
125.7206142615
 20
87.3031121242
 10
125.733226581
 20
87.3262101533
 10
125.7439413218
 20
87.3508065054
 10
125.7525262934
 20
87.3766682718
 10
125.7588017834
 20
87.4035879253
 10
125.7626181744
 20
87.4313946756
 10
125.7638307745
 20
87.4598644776
  0
LINE
  5
2F3
100
AcDbEntity
  8
RACCORDO
100
AcDbLine
 62
250
  6
CONTINUOUS
 10
125.388432139
 20
87.3356894832
 11
125.5300719107
 21
87.3381618146
  0
LINE
  5
2F4
100
AcDbEntity
  8
RACCORDO
100
AcDbLine
 62
7
  6
CONTINUOUS
 10
125.5300725204
 20
87.4381465948
 11
125.388432139
 21
87.4356742527
  0
LINE
  5
2F5
100
AcDbEntity
  8
RACCORDO
100
AcDbLine
 62
250
  6
CONTINUOUS
 10
124.2971583422
 20
86.6591540941
 11
125.4736985961
 21
86.660230371
  0
LINE
  5
2F6
100
AcDbEntity
  8
RACCORDO
100
AcDbLine
 62
250
  6
CONTINUOUS
 10
124.288432139
 20
87.1584688615
 11
125.4649723928
 21
87.1595451384
  0
LINE
  5
2F7
100
AcDbEntity
  8
RACCORDO
100
AcDbLine
 62
250
  6
CONTINUOUS
 10
123.988432139
 20
87.4595713624
 11
123.8884324826
 21
87.4595324652
  0
LINE
  5
2F8
100
AcDbEntity
  8
RACCORDO
100
AcDbLine
 62
250
  6
CONTINUOUS
 10
127.188432139
 20
86.2759732301
 11
126.9919226203
 21
86.2759732301
  0
LINE
  5
2F9
100
AcDbEntity
  8
RACCORDO
100
AcDbLine
 62
250
  6
CONTINUOUS
 10
124.197018631
 20
87.3564856915
 11
124.059087756
 21
87.3564856834
  0
LINE
  5
2FA
100
AcDbEntity
  8
RACCORDO
100
AcDbLine
 62
250
  6
CONTINUOUS
 10
125.7638310992
 20
87.4598641529
 11
126.2718720698
 21
87.4598641529
  0
LINE
  5
2FB
100
AcDbEntity
  8
RACCORDO
100
AcDbLine
 62
250
  6
CONTINUOUS
 10
125.7401260337
 20
87.5890226041
 11
125.7148961976
 21
87.5890226041
  0
LINE
  5
2FC
100
AcDbEntity
  8
RACCORDO
100
AcDbLine
 62
7
  6
CONTINUOUS
 10
124.288432139
 20
87.1853083402
 11
125.4402628641
 21
87.1842546672
  0
LINE
  5
2FD
100
AcDbEntity
  8
RACCORDO
100
AcDbLine
 62
250
  6
CONTINUOUS
 10
124.7059012094
 20
87.5975650287
 11
124.5679703345
 21
87.5981669268
  0
LINE
  5
2FE
100
AcDbEntity
  8
RACCORDO
100
AcDbLine
 62
250
  6
CONTINUOUS
 10
125.4437597577
 20
87.5866171542
 11
125.5194844189
 21
87.5860076036
  0
LINE
  5
2FF
100
AcDbEntity
  8
RACCORDO
100
AcDbLine
 62
250
  6
CONTINUOUS
 10
125.5194844189
 20
87.5860076036
 11
125.5326452957
 21
87.5858414027
  0
LINE
  5
300
100
AcDbEntity
  8
RACCORDO
100
AcDbLine
 62
250
  6
CONTINUOUS
 10
125.388432139
 20
87.3356692298
 11
124.197018631
 21
87.3564856833
  0
LINE
  5
301
100
AcDbEntity
  8
RACCORDO
100
AcDbLine
 62
7
  6
CONTINUOUS
 10
125.388432139
 20
87.4356742527
 11
124.431222933
 21
87.4523824016
  0
LINE
  5
302
100
AcDbEntity
  8
RACCORDO
100
AcDbLine
 62
250
  6
CONTINUOUS
 10
124.5679703345
 20
87.5981669268
 11
124.3277747768
 21
87.6023595558
  0
LINE
  5
303
100
AcDbEntity
  8
RACCORDO
100
AcDbLine
 62
250
  6
CONTINUOUS
 10
125.388432139
 20
87.5856819093
 11
124.7059012094
 21
87.5975650287
  0
LWPOLYLINE
  5
304
100
AcDbEntity
  8
RACCORDO
100
AcDbPolyline
 62
250
  6
CONTINUOUS
 90
13
 70
0
 10
124.4312232733
 20
87.4523823956
 10
124.417511858
 20
87.4538852516
 10
124.4040755369
 20
87.4578890345
 10
124.3911406298
 20
87.4643262558
 10
124.3789250105
 20
87.473088435
 10
124.3676344125
 20
87.4840279437
 10
124.3574589694
 20
87.4969605059
 10
124.3485699926
 20
87.5116683734
 10
124.3411172599
 20
87.5279037103
 10
124.3352263796
 20
87.5453927035
 10
124.3309964766
 20
87.5638406002
 10
124.3284986212
 20
87.5829367599
 10
124.3277747516
 20
87.6023595563
  0
LWPOLYLINE
  5
305
100
AcDbEntity
  8
RACCORDO
100
AcDbPolyline
 62
250
  6
CONTINUOUS
 90
10
 70
0
 10
124.6714184907
 20
87.4481897725
 10
124.6531868935
 20
87.4507516072
 10
124.6355789061
 20
87.4577226525
 10
124.6191211858
 20
87.4688944035
 10
124.6043059849
 20
87.4839327117
 10
124.5915764279
 20
87.5023877794
 10
124.5813132574
 20
87.5237076134
 10
124.5738234463
 20
87.5472545347
 10
124.5693310156
 20
87.5723242519
 10
124.5679703345
 20
87.5981669268
  0
LINE
  5
306
100
AcDbEntity
  8
RACCORDO
100
AcDbLine
 62
250
  6
CONTINUOUS
 10
129.088432139
 20
84.7053107761
 11
134.1919226203
 21
83.1450171534
  0
LINE
  5
307
100
AcDbEntity
  8
RACCORDO
100
AcDbLine
 62
7
  6
CONTINUOUS
 10
129.088432139
 20
84.9133819801
 11
134.2469064799
 21
83.3362781046
  0
LWPOLYLINE
  5
308
100
AcDbEntity
  8
RACCORDO
100
AcDbPolyline
 62
250
  6
CONTINUOUS
 90
10
 70
0
 10
123.8884321623
 20
86.7710560265
 10
123.9292802992
 20
86.7484319615
 10
123.9712374996
 20
86.7282973521
 10
124.0143037634
 20
86.7106521982
 10
124.0584358809
 20
86.6954189351
 10
124.1036770618
 20
86.6826751276
 10
124.1501569355
 20
86.6726534703
 10
124.1979187116
 20
86.6654315281
 10
124.2469191805
 20
86.660931736
 10
124.2971583422
 20
86.6591540941
  0
LINE
  5
309
100
AcDbEntity
  8
RACCORDO
100
AcDbLine
 62
250
  6
CONTINUOUS
 10
126.688432139
 20
80.5180102731
 11
126.6987431948
 21
80.5063763644
  0
LWPOLYLINE
  5
30A
100
AcDbEntity
  8
0
100
AcDbPolyline
 62
7
  6
CONTINUOUS
 90
3
 70
0
 43
0.3500000006
 10
128.0598596191
 20
145.4214208374
 10
127.9884284363
 20
145.2071363525
 10
127.8455751343
 20
144.9214116211
  0
LINE
  5
30B
100
AcDbEntity
  8
RACCORDO
100
AcDbLine
 62
250
  6
CONTINUOUS
 10
129.0921442481
 20
121.5462654748
 11
129.088432139
 21
121.5427002055
  0
LWPOLYLINE
  5
30C
100
AcDbEntity
  8
RACCORDO
100
AcDbPolyline
 62
250
  6
CONTINUOUS
 90
22
 70
0
 10
125.4125140066
 20
87.4360946033
 10
125.4139934848
 20
87.4362630356
 10
125.4154427258
 20
87.4367090989
 10
125.4168617217
 20
87.4374219397
 10
125.4182446531
 20
87.4383841315
 10
125.4195974459
 20
87.4395875934
 10
125.4209374636
 20
87.4410483479
 10
125.4222735888
 20
87.442779859
 10
125.4235964311
 20
87.4447738929
 10
125.4248957208
 20
87.4470244751
 10
125.4261722736
 20
87.4495316495
 10
125.4274249589
 20
87.4522907577
 10
125.4286407439
 20
87.4552823265
 10
125.4298174093
 20
87.4584946483
 10
125.4309571481
 20
87.4619237313
 10
125.4320536868
 20
87.4655565452
 10
125.4331049028
 20
87.469375965
 10
125.4341130266
 20
87.4733799311
 10
125.4350782658
 20
87.4775797077
 10
125.4360008996
 20
87.48196706
 10
125.4368806181
 20
87.4865359902
 10
125.4377165605
 20
87.491306498
  0
LINE
  5
30D
100
AcDbEntity
  8
RACCORDO
100
AcDbLine
 62
250
  6
CONTINUOUS
 10
125.7148961976
 20
87.5890226041
 11
125.5326452957
 21
87.5858414027
  0
LINE
  5
30E
100
AcDbEntity
  8
RACCORDO
100
AcDbLine
 62
250
  6
CONTINUOUS
 10
125.4437597577
 20
87.586617152
 11
125.388432139
 21
87.5856820976
  0
LINE
  5
30F
100
AcDbEntity
  8
RACCORDO
100
AcDbLine
 62
250
  6
CONTINUOUS
 10
129.0921442481
 20
82.3250830307
 11
129.088432139
 21
82.3286483
  0
LWPOLYLINE
  5
310
100
AcDbEntity
  8
RACCORDO
100
AcDbPolyline
 62
250
  6
CONTINUOUS
 90
4
 70
0
 10
123.9652426578
 20
84.6717900333
 10
123.9633499972
 20
84.6737991219
 10
123.9615504649
 20
84.6759375432
 10
123.9598373857
 20
84.6781973393
  0
LWPOLYLINE
  5
311
100
AcDbEntity
  8
RACCORDO
100
AcDbPolyline
 62
250
  6
CONTINUOUS
 90
4
 70
0
 10
126.6987431948
 20
80.5063763644
 10
126.7102792713
 20
80.4920593696
 10
126.7208855241
 20
80.4776079369
 10
126.730541842
 20
80.4632743215
  0
LINE
  5
312
100
AcDbEntity
  8
RACCORDO
100
AcDbLine
 62
250
  6
CONTINUOUS
 10
126.7454109691
 20
123.4334400628
 11
126.7364906876
 21
123.4176982888
  0
LINE
  5
313
100
AcDbEntity
  8
RACCORDO
100
AcDbLine
 62
7
  6
CONTINUOUS
 10
127.488432139
 20
125.6356742527
 11
127.9457041108
 21
126.4276925408
  0
LWPOLYLINE
  5
314
100
AcDbEntity
  8
RACCORDO
100
AcDbPolyline
 62
250
  6
CONTINUOUS
 90
6
 70
0
 10
126.7364906876
 20
123.4176982888
 10
126.7270716727
 20
123.4026612799
 10
126.7170794003
 20
123.3883293647
 10
126.7064684154
 20
123.3744102059
 10
126.695287976
 20
123.3608843063
 10
126.688432139
 20
123.3532649813
  0
LINE
  5
315
100
AcDbEntity
  8
RACCORDO
100
AcDbLine
 62
250
  6
CONTINUOUS
 10
125.4649723928
 20
116.711803367
 11
125.4402628641
 21
116.6870938383
  0
LINE
  5
316
100
AcDbEntity
  8
RACCORDO
100
AcDbLine
 62
250
  6
CONTINUOUS
 10
125.7638310992
 20
116.4114843525
 11
125.7401260337
 21
116.387779287
  0
LWPOLYLINE
  5
317
100
AcDbEntity
  8
RACCORDO
100
AcDbPolyline
 62
250
  6
CONTINUOUS
 90
28
 70
0
 10
125.4578773973
 20
113.4476001743
 10
125.4626232642
 20
113.4501679058
 10
125.4672837144
 20
113.4529864959
 10
125.4718283186
 20
113.4560361692
 10
125.476243734
 20
113.4593050246
 10
125.4805279866
 20
113.4627889974
 10
125.4846704755
 20
113.4664749802
 10
125.4886569241
 20
113.4703456356
 10
125.4924901603
 20
113.4743989147
 10
125.4961842147
 20
113.4786463241
 10
125.4997304961
 20
113.4830794749
 10
125.5031233555
 20
113.4876922756
 10
125.5063764062
 20
113.4925049768
 10
125.5094890734
 20
113.4975278557
 10
125.5124413702
 20
113.5027404074
 10
125.5152170092
 20
113.5081171908
 10
125.5178031746
 20
113.5136367594
 10
125.5201995479
 20
113.5193024097
 10
125.5224088663
 20
113.5251248922
 10
125.5244130558
 20
113.5310683742
 10
125.5262153558
 20
113.5371500033
 10
125.5278364408
 20
113.5434653322
 10
125.5292628091
 20
113.5500491107
 10
125.5304630994
 20
113.5568529134
 10
125.5314207747
 20
113.5638492674
 10
125.5321186442
 20
113.5710198569
 10
125.5325365751
 20
113.5783560414
 10
125.5326560342
 20
113.5858415902
  0
LWPOLYLINE
  5
318
100
AcDbEntity
  8
RACCORDO
100
AcDbPolyline
 62
250
  6
CONTINUOUS
 90
5
 70
0
 10
125.4383239125
 20
113.4399144644
 10
125.4432520809
 20
113.4414378501
 10
125.4481788496
 20
113.4432320367
 10
125.4530606098
 20
113.4452881929
 10
125.4578773973
 20
113.4476001743
  0
LWPOLYLINE
  5
319
100
AcDbEntity
  8
RACCORDO
100
AcDbPolyline
 62
250
  6
CONTINUOUS
 90
10
 70
0
 10
124.6714184907
 20
90.4231587329
 10
124.6531868951
 20
90.4205968986
 10
124.6355789089
 20
90.4136258544
 10
124.619121189
 20
90.4024541047
 10
124.604305988
 20
90.3874157976
 10
124.5915764304
 20
90.3689607305
 10
124.5813132592
 20
90.3476408965
 10
124.5738234472
 20
90.3240939745
 10
124.5693310158
 20
90.2990242558
 10
124.5679703345
 20
90.2731815787
  0
LWPOLYLINE
  5
31A
100
AcDbEntity
  8
RACCORDO
100
AcDbPolyline
 62
250
  6
CONTINUOUS
 90
13
 70
0
 10
124.4312232681
 20
90.4189661097
 10
124.4175119201
 20
90.4174632558
 10
124.4040756536
 20
90.413459476
 10
124.3911407883
 20
90.4070222579
 10
124.3789251982
 20
90.398260081
 10
124.367634617
 20
90.3873205732
 10
124.3574591791
 20
90.3743880114
 10
124.3485701958
 20
90.3596801453
 10
124.3411174447
 20
90.3434448099
 10
124.3352265344
 20
90.3259558166
 10
124.3309965902
 20
90.3075079171
 10
124.3284986831
 20
90.2884117525
 10
124.3277747515
 20
90.2689889492
  0
LWPOLYLINE
  5
31B
100
AcDbEntity
  8
RACCORDO
100
AcDbPolyline
 62
250
  6
CONTINUOUS
 90
22
 70
0
 10
124.288432139
 20
90.7128796439
 10
124.2688532209
 20
90.71228429
 10
124.2493125765
 20
90.7103985153
 10
124.2298947873
 20
90.7072216566
 10
124.2107914299
 20
90.7027875112
 10
124.1919768366
 20
90.6970917041
 10
124.1732287806
 20
90.6900224545
 10
124.1546492494
 20
90.6815372812
 10
124.1363650438
 20
90.6716081608
 10
124.1182516179
 20
90.6600399635
 10
124.1003527653
 20
90.646666218
 10
124.0829992928
 20
90.6315227857
 10
124.0665220701
 20
90.6147185662
 10
124.0510659948
 20
90.5962246088
 10
124.0368666391
 20
90.5761275221
 10
124.0242954505
 20
90.5548248361
 10
124.0134904853
 20
90.5325102486
 10
124.004511581
 20
90.5092620455
 10
123.9974861366
 20
90.4853878188
 10
123.9924600331
 20
90.4611066196
 10
123.9894389459
 20
90.4365317674
 10
123.988432139
 20
90.4118290392
  0
LWPOLYLINE
  5
31C
100
AcDbEntity
  8
RACCORDO
100
AcDbPolyline
 62
250
  6
CONTINUOUS
 90
43
 70
0
 10
124.3277747768
 20
90.2689889496
 10
124.3186951331
 20
90.2687387495
 10
124.3092435515
 20
90.2687348127
 10
124.2994200319
 20
90.2689771391
 10
124.2891115673
 20
90.2694126053
 10
124.2784311648
 20
90.2700943348
 10
124.2677178455
 20
90.2711816977
 10
124.2569800154
 20
90.2727298109
 10
124.2462092684
 20
90.2746835575
 10
124.2357194081
 20
90.2770369581
 10
124.2255809897
 20
90.2798158864
 10
124.2157234579
 20
90.2829944685
 10
124.20624895
 20
90.2864891035
 10
124.1972093861
 20
90.2902881106
 10
124.1885528461
 20
90.2944031705
 10
124.1802257074
 20
90.2987857244
 10
124.1722224982
 20
90.3034306375
 10
124.1645486902
 20
90.3083430445
 10
124.1571670762
 20
90.3134897915
 10
124.1500762952
 20
90.31886376
 10
124.1432777081
 20
90.3244720684
 10
124.1367381901
 20
90.330302918
 10
124.1304652252
 20
90.3363339168
 10
124.1244513292
 20
90.3425874568
 10
124.1186409258
 20
90.3491189149
 10
124.1130120279
 20
90.3559368406
 10
124.1075866225
 20
90.3630326844
 10
124.1023750935
 20
90.3704361738
 10
124.0973666973
 20
90.3781551524
 10
124.0925721775
 20
90.3861817766
 10
124.0880341487
 20
90.3945222437
 10
124.0837462733
 20
90.403188971
 10
124.0797148889
 20
90.4121695412
 10
124.0760016233
 20
90.4214329004
 10
124.0726072504
 20
90.4309891514
 10
124.0695309962
 20
90.4408281914
 10
124.0668321661
 20
90.4508886581
 10
124.0645155639
 20
90.4611840183
 10
124.0625763858
 20
90.4717008053
 10
124.0610595265
 20
90.4823372555
 10
124.0599799509
 20
90.4930594477
 10
124.0593226941
 20
90.5039013033
 10
124.059087756
 20
90.5148628221
  0
LINE
  5
31D
100
AcDbEntity
  8
RACCORDO
100
AcDbLine
 62
250
  6
CONTINUOUS
 10
124.7059012094
 20
90.2737834768
 11
125.388432139
 21
90.2856665962
  0
LINE
  5
31E
100
AcDbEntity
  8
RACCORDO
100
AcDbLine
 62
250
  6
CONTINUOUS
 10
124.3277747768
 20
90.2689889496
 11
124.5679705603
 21
90.2731815826
  0
LINE
  5
31F
100
AcDbEntity
  8
RACCORDO
100
AcDbLine
 62
7
  6
CONTINUOUS
 10
124.431222933
 20
90.4189661039
 11
125.388432139
 21
90.4356742527
  0
LINE
  5
320
100
AcDbEntity
  8
RACCORDO
100
AcDbLine
 62
250
  6
CONTINUOUS
 10
124.197018631
 20
90.5148628221
 11
125.388432139
 21
90.5356792756
  0
LWPOLYLINE
  5
321
100
AcDbEntity
  8
RACCORDO
100
AcDbPolyline
 62
250
  6
CONTINUOUS
 90
43
 70
0
 10
124.4312369643
 20
90.4189663488
 10
124.4221617877
 20
90.4188733001
 10
124.4128840359
 20
90.4189220868
 10
124.4034031938
 20
90.4191353824
 10
124.3936238658
 20
90.4195430483
 10
124.3836401792
 20
90.4201673989
 10
124.3737362461
 20
90.4210006096
 10
124.3639248101
 20
90.4220451014
 10
124.3541926311
 20
90.4233057698
 10
124.344785662
 20
90.4247402783
 10
124.3357667358
 20
90.4263226148
 10
124.3270734296
 20
90.4280483896
 10
124.3187643521
 20
90.429886165
 10
124.3108814992
 20
90.4318073487
 10
124.3033835546
 20
90.4338053121
 10
124.2962041968
 20
90.4358811903
 10
124.2893365812
 20
90.4380238954
 10
124.2827880266
 20
90.4402210451
 10
124.2765133053
 20
90.4424777189
 10
124.2705088033
 20
90.4447856796
 10
124.2647784839
 20
90.4471364169
 10
124.2592883603
 20
90.4495389108
 10
124.2540443681
 20
90.4519816318
 10
124.2490408208
 20
90.4544639823
 10
124.2442261307
 20
90.4570161191
 10
124.2395810302
 20
90.4596418708
 10
124.2351248019
 20
90.4623319037
 10
124.2308635307
 20
90.4651004082
 10
124.2267886534
 20
90.4679483703
 10
124.2229086801
 20
90.4708704991
 10
124.2192552434
 20
90.473872791
 10
124.2158238997
 20
90.4769560595
 10
124.212619022
 20
90.4801147644
 10
124.2096854574
 20
90.483345374
 10
124.2070244446
 20
90.4866459448
 10
124.2046347136
 20
90.4900121232
 10
124.2025573708
 20
90.4934362194
 10
124.2007957004
 20
90.4969165202
 10
124.1993464394
 20
90.5004468885
 10
124.1982409172
 20
90.5040123681
 10
124.1974896222
 20
90.5076048354
 10
124.1970821741
 20
90.5112232253
 10
124.197018631
 20
90.5148628221
  0
LINE
  5
322
100
AcDbEntity
  8
RACCORDO
100
AcDbLine
 62
250
  6
CONTINUOUS
 10
125.5110623048
 20
90.285254748
 11
125.5326452957
 21
90.2855071027
  0
LINE
  5
323
100
AcDbEntity
  8
RACCORDO
100
AcDbLine
 62
250
  6
CONTINUOUS
 10
125.4437597577
 20
90.2847313513
 11
125.5110623048
 21
90.285254748
  0
LINE
  5
324
100
AcDbEntity
  8
RACCORDO
100
AcDbLine
 62
250
  6
CONTINUOUS
 10
124.5679705603
 20
90.2731815797
 11
124.7059012094
 21
90.2737834768
  0
LINE
  5
325
100
AcDbEntity
  8
RACCORDO
100
AcDbLine
 62
7
  6
CONTINUOUS
 10
124.288432139
 20
90.6860401652
 11
125.4402628641
 21
90.6870938383
  0
LINE
  5
326
100
AcDbEntity
  8
RACCORDO
100
AcDbLine
 62
250
  6
CONTINUOUS
 10
125.7401260337
 20
90.2823254758
 11
125.7148961976
 21
90.2823259014
  0
LINE
  5
327
100
AcDbEntity
  8
RACCORDO
100
AcDbLine
 62
250
  6
CONTINUOUS
 10
125.7638310992
 20
90.4114843525
 11
126.2718720698
 21
90.4114843525
  0
LINE
  5
328
100
AcDbEntity
  8
RACCORDO
100
AcDbLine
 62
250
  6
CONTINUOUS
 10
124.197018631
 20
90.5148628143
 11
124.059087756
 21
90.514862822
  0
LINE
  5
329
100
AcDbEntity
  8
RACCORDO
100
AcDbLine
 62
250
  6
CONTINUOUS
 10
123.988432139
 20
90.4117756613
 11
123.888432139
 21
90.4118156592
  0
LINE
  5
32A
100
AcDbEntity
  8
RACCORDO
100
AcDbLine
 62
250
  6
CONTINUOUS
 10
125.4649723928
 20
90.711803367
 11
124.288432139
 21
90.7128796439
  0
LINE
  5
32B
100
AcDbEntity
  8
RACCORDO
100
AcDbLine
 62
250
  6
CONTINUOUS
 10
125.4736966277
 20
91.2111181362
 11
124.2971583422
 21
91.2121944113
  0
LINE
  5
32C
100
AcDbEntity
  8
RACCORDO
100
AcDbLine
 62
250
  6
CONTINUOUS
 10
125.388432139
 20
90.2856664078
 11
125.4437597577
 21
90.2847313534
  0
LINE
  5
32D
100
AcDbEntity
  8
RACCORDO
100
AcDbLine
 62
250
  6
CONTINUOUS
 10
125.5326452957
 20
90.2855071027
 11
125.7148961976
 21
90.2823259014
  0
LINE
  5
32E
100
AcDbEntity
  8
RACCORDO
100
AcDbLine
 62
7
  6
CONTINUOUS
 10
125.388432139
 20
90.4356742527
 11
125.5300725204
 21
90.4332019107
  0
LINE
  5
32F
100
AcDbEntity
  8
RACCORDO
100
AcDbLine
 62
250
  6
CONTINUOUS
 10
125.5300719721
 20
90.5331866898
 11
125.388432139
 21
90.535679248
  0
LWPOLYLINE
  5
330
100
AcDbEntity
  8
RACCORDO
100
AcDbPolyline
 62
250
  6
CONTINUOUS
 90
7
 70
0
 10
125.6445574351
 20
90.3996280822
 10
125.628786492
 20
90.4088029237
 10
125.6118456151
 20
90.4166402942
 10
125.5934375243
 20
90.4232208423
 10
125.5735087722
 20
90.4283599098
 10
125.5523289467
 20
90.4317589791
 10
125.5300711038
 20
90.4332019354
  0
LINE
  5
331
100
AcDbEntity
  8
RACCORDO
100
AcDbLine
 62
250
  6
CONTINUOUS
 10
125.4402628641
 20
87.1842546672
 11
125.4649723928
 21
87.1595451384
  0
LINE
  5
332
100
AcDbEntity
  8
RACCORDO
100
AcDbLine
 62
250
  6
CONTINUOUS
 10
125.7401260337
 20
87.4835692184
 11
125.7638310992
 21
87.4598641529
  0
LWPOLYLINE
  5
333
100
AcDbEntity
  8
RACCORDO
100
AcDbPolyline
 62
7
  6
CONTINUOUS
 90
16
 70
0
 10
130.0064701357
 20
82.5497991192
 10
130.0171920228
 20
82.5383969848
 10
130.0271162653
 20
82.5266514404
 10
130.0362428633
 20
82.5145624858
 10
130.0445457094
 20
82.5021176249
 10
130.052050911
 20
82.4893293539
 10
130.0588367899
 20
82.4762351618
 10
130.0649203895
 20
82.4628517091
 10
130.0702846663
 20
82.4491623353
 10
130.0749568119
 20
82.4351545485
 10
130.0789542373
 20
82.4208257265
 10
130.0822595314
 20
82.4061784915
 10
130.0848476529
 20
82.3912082192
 10
130.0867102546
 20
82.375913368
 10
130.0878556838
 20
82.3602954794
 10
130.0882839404
 20
82.3443545534
  0
LWPOLYLINE
  5
334
100
AcDbEntity
  8
RACCORDO
100
AcDbPolyline
 62
250
  6
CONTINUOUS
 90
8
 70
0
 10
123.9598373857
 20
84.6781973393
 10
123.9582233397
 20
84.6805655808
 10
123.9566924018
 20
84.683048373
 10
123.9552425313
 20
84.6856361371
 10
123.9538795387
 20
84.6883236106
 10
123.9525953066
 20
84.691128341
 10
123.9513845159
 20
84.6940461074
 10
123.9502524206
 20
84.6970718377
  0
LINE
  5
335
100
AcDbEntity
  8
RACCORDO
100
AcDbLine
 62
250
  6
CONTINUOUS
 10
126.730541842
 20
80.4632743215
 11
126.7391965856
 21
80.4491002853
  0
LINE
  5
336
100
AcDbEntity
  8
RACCORDO
100
AcDbLine
 62
7
  6
CONTINUOUS
 10
127.9457041108
 20
77.4436559647
 11
127.488432139
 21
78.2356742527
  0
LWPOLYLINE
  5
337
100
AcDbEntity
  8
RACCORDO
100
AcDbPolyline
 62
250
  6
CONTINUOUS
 90
15
 70
0
 10
126.7391965856
 20
80.4491002853
 10
126.7469013942
 20
80.4350440664
 10
126.7537910745
 20
80.4212326339
 10
126.7598578166
 20
80.4076917548
 10
126.7651094304
 20
80.3943956622
 10
126.7697041514
 20
80.3813940236
 10
126.7736481212
 20
80.3687064306
 10
126.7769351983
 20
80.3563132916
 10
126.7797051938
 20
80.3442055003
 10
126.7819698662
 20
80.3323967314
 10
126.783717457
 20
80.3208733102
 10
126.785052502
 20
80.3095851055
 10
126.7860098464
 20
80.2985154069
 10
126.7865546451
 20
80.2876809247
 10
126.7866868979
 20
80.2770816591
  0
LINE
  5
338
100
AcDbEntity
  8
RACCORDO
100
AcDbLine
 62
7
  6
CONTINUOUS
 10
129.3659150208
 20
118.8131571345
 11
129.6966864018
 21
119.1439285156
  0
LWPOLYLINE
  5
339
100
AcDbEntity
  8
RACCORDO
100
AcDbPolyline
 62
250
  6
CONTINUOUS
 90
11
 70
0
 10
125.6481082176
 20
113.4740758932
 10
125.6600406001
 20
113.4829085736
 10
125.6707876437
 20
113.4923436239
 10
125.6803575426
 20
113.5023043571
 10
125.6887165795
 20
113.5126584958
 10
125.6958884904
 20
113.5233407696
 10
125.7018846482
 20
113.534292012
 10
125.7067055317
 20
113.5453943434
 10
125.710375387
 20
113.556501167
 10
125.7129351366
 20
113.5675108674
 10
125.7144266803
 20
113.5783725731
  0
LWPOLYLINE
  5
33A
100
AcDbEntity
  8
RACCORDO
100
AcDbPolyline
 62
250
  6
CONTINUOUS
 90
4
 70
0
 10
125.6854732151
 20
113.3840248703
 10
125.7050428479
 20
113.3975435654
 10
125.7227360787
 20
113.4123696038
 10
125.7338400403
 20
113.4233028613
  0
LWPOLYLINE
  5
33B
100
AcDbEntity
  8
RACCORDO
100
AcDbPolyline
 62
250
  6
CONTINUOUS
 90
4
 70
0
 10
123.9803888317
 20
110.6533266087
 10
123.9607697702
 20
110.6432526841
 10
123.9428353758
 20
110.6304309856
 10
123.9269652018
 20
110.6151325928
  0
LWPOLYLINE
  5
33C
100
AcDbEntity
  8
RACCORDO
100
AcDbPolyline
 62
250
  6
CONTINUOUS
 90
6
 70
0
 10
124.0012728397
 20
110.6604585951
 10
124.0116973484
 20
110.6656969985
 10
124.0215465075
 20
110.6725370551
 10
124.0307062891
 20
110.6808994194
 10
124.0390706414
 20
110.6906870961
 10
124.0465427883
 20
110.7017866435
  0
LINE
  5
33D
100
AcDbEntity
  8
RACCORDO
100
AcDbLine
 62
250
  6
CONTINUOUS
 10
124.0012773564
 20
110.6604397932
 11
123.9803888317
 21
110.6533266087
  0
LWPOLYLINE
  5
33E
100
AcDbEntity
  8
RACCORDO
100
AcDbPolyline
 62
250
  6
CONTINUOUS
 90
10
 70
0
 10
124.2971583422
 20
91.2121944113
 10
124.2499607183
 20
91.21082737
 10
124.2032245555
 20
91.2067378701
 10
124.1569498538
 20
91.1999259116
 10
124.1111573595
 20
91.1904480364
 10
124.0658263263
 20
91.1782477027
 10
124.0208945158
 20
91.1631552842
 10
123.9763411817
 20
91.1451142391
 10
123.9321870703
 20
91.1241811093
 10
123.8884321815
 20
91.1003558948
  0
LINE
  5
33F
100
AcDbEntity
  8
RACCORDO
100
AcDbLine
 62
250
  6
CONTINUOUS
 10
127.188432139
 20
91.5953752753
 11
126.9919226203
 21
91.5953752753
  0
LINE
  5
340
100
AcDbEntity
  8
RACCORDO
100
AcDbLine
 62
250
  6
CONTINUOUS
 10
129.088432139
 20
92.5693145404
 11
128.8919226203
 21
92.5693145404
  0
LINE
  5
341
100
AcDbEntity
  8
RACCORDO
100
AcDbLine
 62
250
  6
CONTINUOUS
 10
129.088432139
 20
92.9692536184
 11
128.8919226203
 21
92.9692536184
  0
LINE
  5
342
100
AcDbEntity
  8
RACCORDO
100
AcDbLine
 62
250
  6
CONTINUOUS
 10
124.197018631
 20
92.9843446274
 11
124.059087756
 21
92.9843446274
  0
LINE
  5
343
100
AcDbEntity
  8
RACCORDO
100
AcDbLine
 62
250
  6
CONTINUOUS
 10
124.0849416577
 20
92.4322746273
 11
126.2058845454
 21
92.3952534315
  0
LINE
  5
344
100
AcDbEntity
  8
RACCORDO
100
AcDbLine
 62
7
  6
CONTINUOUS
 10
124.0849416577
 20
92.6322441663
 11
126.2058845454
 21
92.5952229705
  0
LINE
  5
345
100
AcDbEntity
  8
RACCORDO
100
AcDbLine
 62
250
  6
CONTINUOUS
 10
128.8919226203
 20
92.5693145404
 11
126.688432139
 21
92.6077766098
  0
LINE
  5
346
100
AcDbEntity
  8
RACCORDO
100
AcDbLine
 62
7
  6
CONTINUOUS
 10
128.8919226203
 20
92.7692840794
 11
126.688432139
 21
92.8077461488
  0
LINE
  5
347
100
AcDbEntity
  8
RACCORDO
100
AcDbLine
 62
250
  6
CONTINUOUS
 10
128.8919226203
 20
92.9692536184
 11
126.6887974532
 21
93.0077093113
  0
LWPOLYLINE
  5
348
100
AcDbEntity
  8
RACCORDO
100
AcDbPolyline
 62
250
  6
CONTINUOUS
 90
22
 70
0
 10
126.2058845454
 20
92.3952534315
 10
126.2704551648
 20
92.3911241342
 10
126.3330528077
 20
92.382545231
 10
126.3936774744
 20
92.3695167216
 10
126.4523571326
 20
92.3519435192
 10
126.5090638144
 20
92.3299207106
 10
126.563713616
 20
92.3037335572
 10
126.616704127
 20
92.2731391173
 10
126.6676377577
 20
92.2383803325
 10
126.7152378358
 20
92.2004712885
 10
126.7593923509
 20
92.1590681943
 10
126.8002133135
 20
92.1145148408
 10
126.8367600829
 20
92.0688566865
 10
126.8684553451
 20
92.0228094239
 10
126.8958764142
 20
91.9756573606
 10
126.9198145917
 20
91.9272988779
 10
126.9405322713
 20
91.8783013867
 10
126.9577670594
 20
91.8280974761
 10
126.9715230762
 20
91.7748832948
 10
126.9818016954
 20
91.718057559
 10
126.9886015434
 20
91.6582215525
 10
126.9919226203
 20
91.5953752753
  0
LINE
  5
349
100
AcDbEntity
  8
RACCORDO
100
AcDbLine
 62
250
  6
CONTINUOUS
 10
124.197018631
 20
92.9843446274
 11
126.688432139
 21
92.6341992934
  0
LINE
  5
34A
100
AcDbEntity
  8
RACCORDO
100
AcDbLine
 62
250
  6
CONTINUOUS
 10
124.0680576674
 20
93.0673791514
 11
123.9470107827
 21
93.0843861155
  0
LINE
  5
34B
100
AcDbEntity
  8
RACCORDO
100
AcDbLine
 62
7
  6
CONTINUOUS
 10
124.0175561738
 20
93.2110413902
 11
126.688432139
 21
92.8356742527
  0
LINE
  5
34C
100
AcDbEntity
  8
RACCORDO
100
AcDbLine
 62
250
  6
CONTINUOUS
 10
123.9457820491
 20
93.3575665995
 11
124.2452378793
 21
93.3154808272
  0
LINE
  5
34D
100
AcDbEntity
  8
RACCORDO
100
AcDbLine
 62
250
  6
CONTINUOUS
 10
124.3843974878
 20
93.3105914253
 11
126.688432139
 21
92.9867804722
  0
LINE
  5
34E
100
AcDbEntity
  8
RACCORDO
100
AcDbLine
 62
250
  6
CONTINUOUS
 10
124.0316951882
 20
93.2071148604
 11
124.0175561738
 21
93.2110413902
  0
LINE
  5
34F
100
AcDbEntity
  8
RACCORDO
100
AcDbLine
 62
250
  6
CONTINUOUS
 10
124.0012502062
 20
93.2108834905
 11
123.9803623603
 21
93.2180003137
  0
LINE
  5
350
100
AcDbEntity
  8
RACCORDO
100
AcDbLine
 62
250
  6
CONTINUOUS
 10
124.0116718807
 20
93.2056399616
 11
124.0012501532
 21
93.210883478
  0
LWPOLYLINE
  5
351
100
AcDbEntity
  8
RACCORDO
100
AcDbPolyline
 62
250
  6
CONTINUOUS
 90
4
 70
0
 10
123.9803623603
 20
93.2180003137
 10
123.9607448961
 20
93.2280772751
 10
123.9428128052
 20
93.2409012043
 10
123.9269454264
 20
93.2562008205
  0
LWPOLYLINE
  5
352
100
AcDbEntity
  8
RACCORDO
100
AcDbPolyline
 62
250
  6
CONTINUOUS
 90
7
 70
0
 10
123.888432139
 20
92.4878423592
 10
123.9182962382
 20
92.4717470935
 10
123.9493153324
 20
92.4583854186
 10
123.9814894214
 20
92.4477573345
 10
124.0148185053
 20
92.4398628413
 10
124.0493025841
 20
92.4347019389
 10
124.0849416577
 20
92.4322746273
  0
LWPOLYLINE
  5
353
100
AcDbEntity
  8
RACCORDO
100
AcDbPolyline
 62
250
  6
CONTINUOUS
 90
7
 70
0
 10
125.6998000743
 20
90.4776011037
 10
125.6765090651
 20
90.4928854504
 10
125.651286657
 20
90.5060813667
 10
125.6240409352
 20
90.516753031
 10
125.5947412612
 20
90.5247551693
 10
125.5634182735
 20
90.5302330556
 10
125.5300719721
 20
90.5331866898
  0
LWPOLYLINE
  5
354
100
AcDbEntity
  8
RACCORDO
100
AcDbPolyline
 62
250
  6
CONTINUOUS
 90
3
 70
0
 10
125.7339003174
 20
90.4476650107
 10
125.7214061457
 20
90.4601031291
 10
125.6998000743
 20
90.4776011037
  0
LINE
  5
355
100
AcDbEntity
  8
RACCORDO
100
AcDbLine
 62
7
  6
CONTINUOUS
 10
129.6966864018
 20
84.7274199898
 11
129.3659150201
 21
85.0581913716
  0
LWPOLYLINE
  5
356
100
AcDbEntity
  8
RACCORDO
100
AcDbPolyline
 62
7
  6
CONTINUOUS
 90
14
 70
0
 10
129.3659150084
 20
85.0581913842
 10
129.3351021642
 20
85.0902866074
 10
129.3055368238
 20
85.123823529
 10
129.2772189872
 20
85.158802149
 10
129.2499453149
 20
85.1956156731
 10
129.2239191465
 20
85.2338708956
 10
129.1997505004
 20
85.2723881993
 10
129.1777374927
 20
85.3108639048
 10
129.1575820075
 20
85.3496016914
 10
129.1389997149
 20
85.38833298
 10
129.1221043728
 20
85.4266507255
 10
129.1067822234
 20
85.4649619731
 10
129.0924076633
 20
85.5042192787
 10
129.088432139
 20
85.5160474513
  0
LINE
  5
357
100
AcDbEntity
  8
RACCORDO
100
AcDbLine
 62
7
  6
CONTINUOUS
 10
120.088432139
 20
127.7490893153
 11
120.088432139
 21
76.1222591901
  0
LWPOLYLINE
  5
358
100
AcDbEntity
  8
RACCORDO
100
AcDbPolyline
 62
250
  6
CONTINUOUS
 90
8
 70
0
 10
124.3774207779
 20
125.8145592794
 10
124.3770558664
 20
125.8128254212
 10
124.3768764485
 20
125.8077016967
 10
124.3768855536
 20
125.7992765932
 10
124.3770829697
 20
125.7876956654
 10
124.3774652716
 20
125.7731575049
 10
124.3780259638
 20
125.7559090232
 10
124.3796421905
 20
125.7144820167
  0
LINE
  5
359
100
AcDbEntity
  8
RACCORDO
100
AcDbLine
 62
250
  6
CONTINUOUS
 10
124.3601188114
 20
119.1663837849
 11
124.3713167931
 21
119.20987577
  0
LINE
  5
35A
100
AcDbEntity
  8
RACCORDO
100
AcDbLine
 62
250
  6
CONTINUOUS
 10
124.3713167931
 20
119.20987577
 11
124.3843974878
 21
119.2592945
  0
LWPOLYLINE
  5
35B
100
AcDbEntity
  8
RACCORDO
100
AcDbPolyline
 62
250
  6
CONTINUOUS
 90
13
 70
0
 10
124.0754702772
 20
119.0606108499
 10
124.0730650227
 20
119.0526105213
 10
124.0708324692
 20
119.044384572
 10
124.0687726169
 20
119.0359330021
 10
124.0668762281
 20
119.0272648089
 10
124.0651525405
 20
119.0183709951
 10
124.0636292666
 20
119.0092245688
 10
124.062303273
 20
118.99982374
 10
124.0611776932
 20
118.9901702988
 10
124.0602896403
 20
118.9802426239
 10
124.0596514853
 20
118.9700335082
 10
124.0592508572
 20
118.9595501587
 10
124.059087756
 20
118.9487925756
  0
LWPOLYLINE
  5
35C
100
AcDbEntity
  8
0
100
AcDbPolyline
 62
7
  6
CONTINUOUS
 90
3
 70
0
 43
0.3500000006
 10
129.9455757751
 20
137.3672173462
 10
129.8741445923
 20
137.1529328613
 10
129.7312912903
 20
136.8672081299
  0
LWPOLYLINE
  5
35D
100
AcDbEntity
  8
RACCORDO
100
AcDbPolyline
 62
250
  6
CONTINUOUS
 90
6
 70
0
 10
123.9269652018
 20
110.6151325928
 10
123.9134952706
 20
110.5976811148
 10
123.9027108765
 20
110.5784459144
 10
123.8948403556
 20
110.5578340553
 10
123.8900503317
 20
110.5362816294
 10
123.8896085388
 20
110.5302272339
  0
LWPOLYLINE
  5
35E
100
AcDbEntity
  8
RACCORDO
100
AcDbPolyline
 62
250
  6
CONTINUOUS
 90
3
 70
0
 10
124.2848730724
 20
93.1241946069
 10
124.2713100084
 20
93.1206621308
 10
124.2583789116
 20
93.1169750027
  0
LWPOLYLINE
  5
35F
100
AcDbEntity
  8
RACCORDO
100
AcDbPolyline
 62
250
  6
CONTINUOUS
 90
7
 70
0
 10
124.0012501532
 20
93.210883478
 10
123.9977310329
 20
93.2099794441
 10
123.9943952946
 20
93.2087982479
 10
123.9912433028
 20
93.2073711687
 10
123.9882998225
 20
93.2057315618
 10
123.9855455469
 20
93.2039061474
 10
123.982914067
 20
93.201908336
  0
LWPOLYLINE
  5
360
100
AcDbEntity
  8
RACCORDO
100
AcDbPolyline
 62
250
  6
CONTINUOUS
 90
10
 70
0
 10
124.001250029
 20
93.2108836244
 10
124.003054376
 20
93.2111224233
 10
124.0048558188
 20
93.2113124518
 10
124.0066560164
 20
93.2114507464
 10
124.0084585837
 20
93.2115344097
 10
124.0102648073
 20
93.2115604663
 10
124.0120729135
 20
93.2115262822
 10
124.0138851562
 20
93.211429738
 10
124.0157098328
 20
93.2112688221
 10
124.0175542304
 20
93.2110415729
  0
LWPOLYLINE
  5
361
100
AcDbEntity
  8
RACCORDO
100
AcDbPolyline
 62
250
  6
CONTINUOUS
 90
6
 70
0
 10
124.0889343512
 20
93.069030123
 10
124.0816785258
 20
93.0683845202
 10
124.0781601945
 20
93.0680923847
 10
124.0747165708
 20
93.0678254483
 10
124.0713488858
 20
93.0675873781
 10
124.0680583895
 20
93.0673818968
  0
LWPOLYLINE
  5
362
100
AcDbEntity
  8
RACCORDO
100
AcDbPolyline
 62
250
  6
CONTINUOUS
 90
9
 70
0
 10
124.4130864786
 20
93.1413468257
 10
124.3950892311
 20
93.1404509888
 10
124.3776763748
 20
93.1391643668
 10
124.3608583839
 20
93.1375019541
 10
124.3445777649
 20
93.135490507
 10
124.3288276774
 20
93.1331303063
 10
124.3136370885
 20
93.1304355714
 10
124.2989947799
 20
93.127459046
 10
124.2848730724
 20
93.1241946069
  0
LWPOLYLINE
  5
363
100
AcDbEntity
  8
RACCORDO
100
AcDbPolyline
 62
250
  6
CONTINUOUS
 90
14
 70
0
 10
124.4527584932
 20
93.1398898495
 10
124.4391494636
 20
93.1394233328
 10
124.4259947994
 20
93.1386962964
 10
124.4132972816
 20
93.1377249693
 10
124.4010287723
 20
93.1365203733
 10
124.3891881166
 20
93.1350950073
 10
124.3777800975
 20
93.1334627186
 10
124.3667850304
 20
93.1316333541
 10
124.356203138
 20
93.1296176544
 10
124.3460373925
 20
93.1274278042
 10
124.3362719832
 20
93.1250740406
 10
124.3269096733
 20
93.1225664518
 10
124.3179506081
 20
93.1199155251
 10
124.3093748913
 20
93.1171309442
  0
LWPOLYLINE
  5
364
100
AcDbEntity
  8
RACCORDO
100
AcDbPolyline
 62
250
  6
CONTINUOUS
 90
3
 70
0
 10
124.450847169
 20
93.1419076379
 10
124.4316549138
 20
93.1418405385
 10
124.4130864786
 20
93.1413468257
  0
LINE
  5
365
100
AcDbEntity
  8
RACCORDO
100
AcDbLine
 62
250
  6
CONTINUOUS
 10
123.9470107827
 20
93.0843883691
 11
123.888432139
 21
93.0843883691
  0
LINE
  5
366
100
AcDbEntity
  8
RACCORDO
100
AcDbLine
 62
250
  6
CONTINUOUS
 10
124.2452378793
 20
93.3154808272
 11
124.3843974878
 21
93.3105914253
  0
LINE
  5
367
100
AcDbEntity
  8
RACCORDO
100
AcDbLine
 62
250
  6
CONTINUOUS
 10
123.888432139
 20
93.3595816006
 11
123.9457820491
 21
93.3575665995
  0
LWPOLYLINE
  5
368
100
AcDbEntity
  8
RACCORDO
100
AcDbPolyline
 62
250
  6
CONTINUOUS
 90
6
 70
0
 10
123.9269454264
 20
93.2562008205
 10
123.9134784206
 20
93.2736524726
 10
123.9026966706
 20
93.2928869857
 10
123.8948282555
 20
93.3134974698
 10
123.8900396254
 20
93.3350479262
 10
123.8895884233
 20
93.3412325311
  0
LWPOLYLINE
  5
369
100
AcDbEntity
  8
RACCORDO
100
AcDbPolyline
 62
250
  6
CONTINUOUS
 90
20
 70
0
 10
123.9502524206
 20
84.6970718377
 10
123.9492027779
 20
84.7002257575
 10
123.94822948
 20
84.7035084049
 10
123.9473352315
 20
84.7069130361
 10
123.9465344475
 20
84.7104509653
 10
123.9458237378
 20
84.7141227068
 10
123.9452019796
 20
84.7179217926
 10
123.9446863511
 20
84.7218493576
 10
123.9442773529
 20
84.7259085385
 10
123.9439704091
 20
84.7300892556
 10
123.9437766542
 20
84.7343719426
 10
123.9437010616
 20
84.7387495861
 10
123.9437384257
 20
84.7432202371
 10
123.9438867135
 20
84.7477710877
 10
123.9441514185
 20
84.7524009328
 10
123.9445282493
 20
84.7571017683
 10
123.9450021755
 20
84.7618502741
 10
123.9455698953
 20
84.7666355545
 10
123.9462387422
 20
84.7714593469
 10
123.9470107393
 20
84.7763172831
  0
LINE
  5
36A
100
AcDbEntity
  8
RACCORDO
100
AcDbLine
 62
250
  6
CONTINUOUS
 10
124.3713167921
 20
84.6614727318
 11
124.3843974878
 21
84.6120540054
  0
LINE
  5
36B
100
AcDbEntity
  8
RACCORDO
100
AcDbLine
 62
250
  6
CONTINUOUS
 10
124.3601188097
 20
84.704964716
 11
124.3713167921
 21
84.6614727318
  0
LWPOLYLINE
  5
36C
100
AcDbEntity
  8
RACCORDO
100
AcDbPolyline
 62
250
  6
CONTINUOUS
 90
7
 70
0
 10
124.3774207779
 20
78.0567892261
 10
124.3770558641
 20
78.0585231131
 10
124.3768764471
 20
78.0636469247
 10
124.3768855563
 20
78.0720721729
 10
124.3770829804
 20
78.0836533207
 10
124.3774652942
 20
78.0981917602
 10
124.3780259989
 20
78.115440486
  0
LINE
  5
36D
100
AcDbEntity
  8
RACCORDO
100
AcDbLine
 62
250
  6
CONTINUOUS
 10
120.5753436648
 20
127.7490893153
 11
120.5729047854
 21
127.8532771699
  0
LINE
  5
36E
100
AcDbEntity
  8
RACCORDO
100
AcDbLine
 62
250
  6
CONTINUOUS
 10
120.5729047854
 20
127.8532771699
 11
120.5711479931
 21
127.9528927113
  0
LWPOLYLINE
  5
36F
100
AcDbEntity
  8
RACCORDO
100
AcDbPolyline
 62
250
  6
CONTINUOUS
 90
11
 70
0
 10
120.5711479931
 20
127.9528927113
 10
120.5701506919
 20
128.0435432963
 10
120.5699518821
 20
128.0842175946
 10
120.5699562335
 20
128.1211946884
 10
120.5701635827
 20
128.1540821873
 10
120.5705723463
 20
128.1825559335
 10
120.571177852
 20
128.2062533925
 10
120.5719699478
 20
128.2248512671
 10
120.5729364163
 20
128.2381925055
 10
120.5740656628
 20
128.2462224146
 10
120.5753436582
 20
128.2489179776
  0
LWPOLYLINE
  5
370
100
AcDbEntity
  8
RACCORDO
100
AcDbPolyline
 62
250
  6
CONTINUOUS
 90
9
 70
0
 10
120.5699519252
 20
75.7871481258
 10
120.5699561759
 20
75.7501728265
 10
120.5701633961
 20
75.7172849152
 10
120.5705720336
 20
75.6888086472
 10
120.5711774393
 20
75.6651075768
 10
120.5719694928
 20
75.646505491
 10
120.5729360051
 20
75.6331602039
 10
120.5740653999
 20
75.6251272762
 10
120.5753436648
 20
75.6224305277
  0
LINE
  5
371
100
AcDbEntity
  8
RACCORDO
100
AcDbLine
 62
250
  6
CONTINUOUS
 10
120.5753436648
 20
127.7490893153
 11
120.5753436648
 21
76.1222591901
  0
LINE
  5
372
100
AcDbEntity
  8
RACCORDO
100
AcDbLine
 62
250
  6
CONTINUOUS
 10
120.5705509472
 20
75.8717565141
 11
120.5699519252
 21
75.7871481258
  0
LINE
  5
373
100
AcDbEntity
  8
RACCORDO
100
AcDbLine
 62
250
  6
CONTINUOUS
 10
120.5719357549
 20
75.9674231063
 11
120.5705509472
 21
75.8717565141
  0
LWPOLYLINE
  5
374
100
AcDbEntity
  8
RACCORDO
100
AcDbPolyline
 62
250
  6
CONTINUOUS
 90
3
 70
0
 10
120.5753436648
 20
76.1222591901
 10
120.5740450785
 20
76.0698802151
 10
120.5719357549
 20
75.9674231063
  0
LWPOLYLINE
  5
375
100
AcDbEntity
  8
RACCORDO
100
AcDbPolyline
 62
250
  6
CONTINUOUS
 90
8
 70
0
 10
124.288432139
 20
116.7128796439
 10
124.2893151903
 20
116.7180798548
 10
124.2901892004
 20
116.7283391487
 10
124.2910452206
 20
116.7435524846
 10
124.2918744863
 20
116.7635640985
 10
124.2926685071
 20
116.7881690984
 10
124.2934191531
 20
116.8171155623
 10
124.2947601013
 20
116.8868059728
  0
LWPOLYLINE
  5
376
100
AcDbEntity
  8
RACCORDO
100
AcDbPolyline
 62
250
  6
CONTINUOUS
 90
8
 70
0
 10
125.5383864579
 20
118.8382917151
 10
125.5387082189
 20
118.8396031759
 10
125.5389781737
 20
118.8434892857
 10
125.5391920613
 20
118.8498629747
 10
125.5393464967
 20
118.8585838424
 10
125.5394395909
 20
118.8694908317
 10
125.5394702415
 20
118.8824307369
 10
125.5393419543
 20
118.9135922714
  0
LWPOLYLINE
  5
377
100
AcDbEntity
  8
RACCORDO
100
AcDbPolyline
 62
250
  6
CONTINUOUS
 90
8
 70
0
 10
124.0849416577
 20
111.2391043391
 10
124.085367183
 20
111.2408224154
 10
124.0857257291
 20
111.2459313547
 10
124.0860111637
 20
111.2543437651
 10
124.0862186049
 20
111.2659157554
 10
124.086344505
 20
111.2804493907
 10
124.0863867108
 20
111.297696073
 10
124.0862185973
 20
111.3391072447
  0
LWPOLYLINE
  5
378
100
AcDbEntity
  8
RACCORDO
100
AcDbPolyline
 62
250
  6
CONTINUOUS
 90
10
 70
0
 10
128.6670874976
 20
126.2661361157
 10
128.672866604
 20
126.2822717784
 10
128.678318714
 20
126.2979283853
 10
128.6832819103
 20
126.3126409748
 10
128.6876087928
 20
126.3259726145
 10
128.6911708444
 20
126.3375273412
 10
128.693862256
 20
126.3469619397
 10
128.6956030845
 20
126.3539961848
 10
128.6963416203
 20
126.3584211477
 10
128.6960559163
 20
126.3601053778
  0
LWPOLYLINE
  5
379
100
AcDbEntity
  8
RACCORDO
100
AcDbPolyline
 62
250
  6
CONTINUOUS
 90
4
 70
0
 10
129.1278167416
 20
121.6047630466
 10
129.1177896823
 20
121.5831174443
 10
129.105831725
 20
121.5635081768
 10
129.0921442481
 20
121.5462654748
  0
LWPOLYLINE
  5
37A
100
AcDbEntity
  8
RACCORDO
100
AcDbPolyline
 62
250
  6
CONTINUOUS
 90
3
 70
0
 10
124.0674035851
 20
110.6973043586
 10
124.0760623898
 20
110.7144916541
 10
124.0826925359
 20
110.7340905692
  0
LWPOLYLINE
  5
37B
100
AcDbEntity
  8
RACCORDO
100
AcDbPolyline
 62
250
  6
CONTINUOUS
 90
4
 70
0
 10
124.0465427883
 20
110.7017866435
 10
124.0530363234
 20
110.714069525
 10
124.0584761113
 20
110.7273934456
 10
124.062799214
 20
110.7416040508
  0
LWPOLYLINE
  5
37C
100
AcDbEntity
  8
RACCORDO
100
AcDbPolyline
 62
250
  6
CONTINUOUS
 90
4
 70
0
 10
129.1278167416
 20
82.2665854589
 10
129.1177896823
 20
82.2882310611
 10
129.105831725
 20
82.3078403286
 10
129.0921442481
 20
82.3250830307
  0
LWPOLYLINE
  5
37D
100
AcDbEntity
  8
RACCORDO
100
AcDbPolyline
 62
250
  6
CONTINUOUS
 90
10
 70
0
 10
128.6670874976
 20
77.6052123897
 10
128.6728667511
 20
77.5890763099
 10
128.6783189492
 20
77.5734194332
 10
128.6832821745
 20
77.5587067318
 10
128.6876090311
 20
77.5453751377
 10
128.6911710216
 20
77.5338205678
 10
128.6938623634
 20
77.5243861651
 10
128.69560313
 20
77.5173521091
 10
128.6963416249
 20
77.5129272944
 10
128.6960559163
 20
77.5112431276
  0
LINE
  5
37E
100
AcDbEntity
  8
RACCORDO
100
AcDbLine
 62
250
  6
CONTINUOUS
 10
125.2326459759
 20
84.8794005131
 11
125.2425751141
 21
84.8420020074
  0
LINE
  5
37F
100
AcDbEntity
  8
RACCORDO
100
AcDbLine
 62
250
  6
CONTINUOUS
 10
125.2235680187
 20
84.9142611632
 11
125.2326459759
 21
84.8794005131
  0
LWPOLYLINE
  5
380
100
AcDbEntity
  8
RACCORDO
100
AcDbPolyline
 62
250
  6
CONTINUOUS
 90
7
 70
0
 10
124.0849416577
 20
92.6322441663
 10
124.0853671804
 20
92.6305261131
 10
124.0857257251
 20
92.6254172354
 10
124.0860111594
 20
92.6170049139
 10
124.0862186014
 20
92.6054330299
 10
124.0863445029
 20
92.5908995048
 10
124.0863867108
 20
92.573652915
  0
LWPOLYLINE
  5
381
100
AcDbEntity
  8
RACCORDO
100
AcDbPolyline
 62
250
  6
CONTINUOUS
 90
8
 70
0
 10
125.5883712309
 20
85.0321843029
 10
125.5879422164
 20
85.0339329173
 10
125.5875822767
 20
85.039114397
 10
125.5872970932
 20
85.0476126491
 10
125.5870911793
 20
85.0592404726
 10
125.5869670537
 20
85.073783125
 10
125.5869261862
 20
85.0910363319
 10
125.5869696912
 20
85.1107596395
  0
LWPOLYLINE
  5
382
100
AcDbEntity
  8
RACCORDO
100
AcDbPolyline
 62
250
  6
CONTINUOUS
 90
7
 70
0
 10
124.288432139
 20
87.1584688615
 10
124.2893151912
 20
87.153268648
 10
124.2901892021
 20
87.1430093488
 10
124.291045223
 20
87.1277960058
 10
124.2918744894
 20
87.1077843835
 10
124.2926685106
 20
87.0831793748
 10
124.2934191569
 20
87.0542329027
  0
LWPOLYLINE
  5
383
100
AcDbEntity
  8
RACCORDO
100
AcDbPolyline
 62
250
  6
CONTINUOUS
 90
3
 70
0
 10
124.0754648742
 20
84.8107883663
 10
124.0772451038
 20
84.7881641886
 10
124.0764690045
 20
84.7660751617
  0
LWPOLYLINE
  5
384
100
AcDbEntity
  8
RACCORDO
100
AcDbPolyline
 62
250
  6
CONTINUOUS
 90
6
 70
0
 10
124.348192492
 20
84.7569428794
 10
124.3483559875
 20
84.754640977
 10
124.3496873992
 20
84.7480314598
 10
124.3521465045
 20
84.7373140045
 10
124.3556590128
 20
84.7228123898
 10
124.3601188097
 20
84.704964716
  0
LWPOLYLINE
  5
385
100
AcDbEntity
  8
RACCORDO
100
AcDbPolyline
 62
250
  6
CONTINUOUS
 90
22
 70
0
 10
123.988432139
 20
87.4595194901
 10
123.9895111898
 20
87.4339476304
 10
123.9927232521
 20
87.4086689477
 10
123.9980196464
 20
87.38385929
 10
124.0053820771
 20
87.3595597058
 10
124.0147109212
 20
87.3360675902
 10
124.025721759
 20
87.3138941536
 10
124.0381883138
 20
87.2931954037
 10
124.0519562372
 20
87.2739730682
 10
124.0667205827
 20
87.2564110536
 10
124.0821603041
 20
87.2406191638
 10
124.0981810071
 20
87.2264512414
 10
124.1148416259
 20
87.2136982979
 10
124.1319819404
 20
87.2023732687
 10
124.1495025226
 20
87.1924404343
 10
124.1676427799
 20
87.1837164937
 10
124.1863422082
 20
87.1762309891
 10
124.2054955625
 20
87.1700276833
 10
124.2253305645
 20
87.1650662743
 10
124.2458768052
 20
87.1614172371
 10
124.2669433286
 20
87.1591922809
 10
124.288432139
 20
87.1584688615
  0
LWPOLYLINE
  5
386
100
AcDbEntity
  8
RACCORDO
100
AcDbPolyline
 62
250
  6
CONTINUOUS
 90
7
 70
0
 10
124.059087756
 20
84.9225559298
 10
124.0595796721
 20
84.9030825754
 10
124.0609664959
 20
84.8839473557
 10
124.0632482274
 20
84.8651502708
 10
124.0664248666
 20
84.8466913207
 10
124.0704964136
 20
84.8285705054
 10
124.0754628682
 20
84.810787825
  0
LINE
  5
387
100
AcDbEntity
  8
RACCORDO
100
AcDbLine
 62
250
  6
CONTINUOUS
 10
124.0853671769
 20
85.4129778783
 11
124.0849416577
 21
85.4390738782
  0
LINE
  5
388
100
AcDbEntity
  8
RACCORDO
100
AcDbLine
 62
7
  6
CONTINUOUS
 10
122.888432139
 20
125.6982245766
 11
122.888432139
 21
122.4407053834
  0
LINE
  5
389
100
AcDbEntity
  8
RACCORDO
100
AcDbLine
 62
7
  6
CONTINUOUS
 10
122.888432139
 20
78.1731239288
 11
122.888432139
 21
81.430643122
  0
LWPOLYLINE
  5
38A
100
AcDbEntity
  8
RACCORDO
100
AcDbPolyline
 62
250
  6
CONTINUOUS
 90
43
 70
0
 10
124.059087756
 20
113.3564856833
 10
124.059323769
 20
113.3674615846
 10
124.0599825315
 20
113.3783155441
 10
124.0610640434
 20
113.3890475619
 10
124.062583219
 20
113.3996907182
 10
124.064525144
 20
113.4102119327
 10
124.0668450764
 20
113.420511965
 10
124.0695477797
 20
113.4305781247
 10
124.0726284904
 20
113.4404231021
 10
124.0760281756
 20
113.4499857272
 10
124.0797478036
 20
113.4592562739
 10
124.083786406
 20
113.4682444683
 10
124.0880820453
 20
113.4769183191
 10
124.0926283405
 20
113.485265157
 10
124.0974316726
 20
113.4932976512
 10
124.1024492465
 20
113.501021819
 10
124.1076701254
 20
113.5084296147
 10
124.1131052462
 20
113.5155290839
 10
124.1187446242
 20
113.5223503799
 10
124.1245665139
 20
113.5288852879
 10
124.1305926607
 20
113.5351420226
 10
124.1368783166
 20
113.5411753823
 10
124.1434310098
 20
113.5470076826
 10
124.150243212
 20
113.5526166079
 10
124.1573475899
 20
113.5579900095
 10
124.1647415684
 20
113.5631344387
 10
124.1724277226
 20
113.5680433441
 10
124.1804464436
 20
113.5726849233
 10
124.1887940028
 20
113.5770653775
 10
124.1974741289
 20
113.5811785053
 10
124.2065383979
 20
113.5849739001
 10
124.2160435161
 20
113.5884632421
 10
124.2259327773
 20
113.591634851
 10
124.236087639
 20
113.5944032797
 10
124.2465734445
 20
113.5967401263
 10
124.2573248504
 20
113.5986737926
 10
124.2680272839
 20
113.6002040372
 10
124.2786799447
 20
113.6012772096
 10
124.2892836332
 20
113.6019469602
 10
124.2995261777
 20
113.6023739992
 10
124.3093035213
 20
113.6026118964
 10
124.318719721
 20
113.602607082
 10
124.3277747768
 20
113.6023595558
  0
LWPOLYLINE
  5
38B
100
AcDbEntity
  8
RACCORDO
100
AcDbPolyline
 62
250
  6
CONTINUOUS
 90
6
 70
0
 10
124.348192492
 20
119.114405626
 10
124.3483559885
 20
119.1167075278
 10
124.3496874007
 20
119.1233170438
 10
124.3521465063
 20
119.1340344979
 10
124.3556590146
 20
119.1485361116
 10
124.3601188114
 20
119.1663837849
  0
LWPOLYLINE
  5
38C
100
AcDbEntity
  8
RACCORDO
100
AcDbPolyline
 62
250
  6
CONTINUOUS
 90
40
 70
0
 10
123.9470107827
 20
110.7869601365
 10
123.946627901
 20
110.7822951905
 10
123.9463481857
 20
110.7776561903
 10
123.9461710244
 20
110.7730474736
 10
123.9460954027
 20
110.7684698566
 10
123.9461212362
 20
110.7639313161
 10
123.9462501459
 20
110.7594468355
 10
123.9464860811
 20
110.7550211477
 10
123.9468261121
 20
110.7506579772
 10
123.9472630699
 20
110.7463703694
 10
123.9478011698
 20
110.7421636958
 10
123.9484391762
 20
110.7380400968
 10
123.9491629898
 20
110.7340071815
 10
123.9499768736
 20
110.7300680323
 10
123.9508807559
 20
110.7262259216
 10
123.9518550756
 20
110.722488014
 10
123.9528981596
 20
110.7188679988
 10
123.9540177276
 20
110.7153565117
 10
123.9552069169
 20
110.7119269843
 10
123.9564587247
 20
110.7085882013
 10
123.9577823429
 20
110.7053379707
 10
123.9591901428
 20
110.702137485
 10
123.9606793417
 20
110.6989845153
 10
123.962248385
 20
110.6958948801
 10
123.9639072231
 20
110.6928613988
 10
123.9656529857
 20
110.6898907033
 10
123.9674830885
 20
110.6869940366
 10
123.9694062287
 20
110.6841739706
 10
123.9714175022
 20
110.6814424056
 10
123.9735166241
 20
110.6788094586
 10
123.9757178528
 20
110.6762782905
 10
123.9780122185
 20
110.6738651375
 10
123.9804037239
 20
110.6715819093
 10
123.9829237008
 20
110.6694314402
 10
123.9855564628
 20
110.6674338263
 10
123.9883122189
 20
110.6656087209
 10
123.9912576407
 20
110.6639693055
 10
123.9944120693
 20
110.6625424014
 10
123.9977506014
 20
110.6613616671
 10
124.0012728397
 20
110.6604585951
  0
LWPOLYLINE
  5
38D
100
AcDbEntity
  8
RACCORDO
100
AcDbPolyline
 62
250
  6
CONTINUOUS
 90
15
 70
0
 10
124.197018631
 20
110.8870038781
 10
124.1958879983
 20
110.8734633791
 10
124.1968512598
 20
110.8599794052
 10
124.1998979958
 20
110.8466193997
 10
124.2049737405
 20
110.8334016069
 10
124.2121086084
 20
110.8204684537
 10
124.2214195788
 20
110.8080749125
 10
124.2330101617
 20
110.7963280571
 10
124.2467533374
 20
110.7852893161
 10
124.2624246447
 20
110.7751227114
 10
124.2800289935
 20
110.7659386382
 10
124.2995451863
 20
110.7577553724
 10
124.3207124147
 20
110.7505823712
 10
124.3434674762
 20
110.7444952229
 10
124.3678598084
 20
110.7395313309
  0
LWPOLYLINE
  5
38E
100
AcDbEntity
  8
RACCORDO
100
AcDbPolyline
 62
250
  6
CONTINUOUS
 90
4
 70
0
 10
124.0659556499
 20
110.7565368328
 10
124.0679089171
 20
110.7720188832
 10
124.0686364391
 20
110.7878708797
 10
124.0681298407
 20
110.8039092557
  0
LWPOLYLINE
  5
38F
100
AcDbEntity
  8
RACCORDO
100
AcDbPolyline
 62
250
  6
CONTINUOUS
 90
16
 70
0
 10
125.4377165605
 20
113.491306498
 10
125.4385111827
 20
113.4962889146
 10
125.4392618017
 20
113.5014630363
 10
125.4399598242
 20
113.5068035545
 10
125.4406035357
 20
113.5122892149
 10
125.4411947045
 20
113.5179233521
 10
125.4417299835
 20
113.5237166136
 10
125.4422092555
 20
113.5296334832
 10
125.4426326675
 20
113.5356910518
 10
125.4429969025
 20
113.5419844475
 10
125.4433055199
 20
113.5484653488
 10
125.4435544845
 20
113.5551673297
 10
125.4437281021
 20
113.5623185708
 10
125.4438202237
 20
113.5699924734
 10
125.4438350452
 20
113.5780982681
 10
125.4437717555
 20
113.5866173547
  0
LWPOLYLINE
  5
390
100
AcDbEntity
  8
RACCORDO
100
AcDbPolyline
 62
250
  6
CONTINUOUS
 90
6
 70
0
 10
126.7866870617
 20
124.6839592067
 10
126.78651678
 20
124.6829057454
 10
126.7863699482
 20
124.679826226
 10
126.7862458166
 20
124.6748636192
 10
126.7861470996
 20
124.6681315385
 10
126.7860118187
 20
124.6502802429
  0
LWPOLYLINE
  5
391
100
AcDbEntity
  8
RACCORDO
100
AcDbPolyline
 62
250
  6
CONTINUOUS
 90
8
 70
0
 10
125.4649723928
 20
116.711803367
 10
125.4658554451
 20
116.7170035805
 10
125.466729456
 20
116.7272628797
 10
125.4675854769
 20
116.7424762228
 10
125.4684147433
 20
116.7624878451
 10
125.4692087645
 20
116.7870928538
 10
125.4699594107
 20
116.8160393258
 10
125.4713003589
 20
116.8857297478
  0
LWPOLYLINE
  5
392
100
AcDbEntity
  8
RACCORDO
100
AcDbPolyline
 62
250
  6
CONTINUOUS
 90
6
 70
0
 10
124.7059012094
 20
116.423760631
 10
124.7054866041
 20
116.4214750914
 10
124.7051641031
 20
116.4147037526
 10
124.7049435017
 20
116.4036522787
 10
124.7048315001
 20
116.3886563332
 10
124.7048315001
 20
116.3701713841
  0
LWPOLYLINE
  5
393
100
AcDbEntity
  8
RACCORDO
100
AcDbPolyline
 62
250
  6
CONTINUOUS
 90
4
 70
0
 10
124.0826925359
 20
110.7340905692
 10
124.087124533
 20
110.7556004244
 10
124.089244984
 20
110.7784714007
 10
124.0889996239
 20
110.8021189843
  0
LINE
  5
394
100
AcDbEntity
  8
RACCORDO
100
AcDbLine
 62
250
  6
CONTINUOUS
 10
124.062799214
 20
110.7416040508
 11
124.0659556499
 21
110.7565368328
  0
LWPOLYLINE
  5
395
100
AcDbEntity
  8
RACCORDO
100
AcDbPolyline
 62
250
  6
CONTINUOUS
 90
8
 70
0
 10
123.9481400182
 20
110.5617261835
 10
123.9535391757
 20
110.5840957826
 10
123.9615846058
 20
110.6045902542
 10
123.9720617535
 20
110.622663053
 10
123.9846912145
 20
110.6378322144
 10
123.9991361868
 20
110.649693208
 10
124.0150114528
 20
110.6579297256
 10
124.0318936514
 20
110.6623221163
  0
LWPOLYLINE
  5
396
100
AcDbEntity
  8
RACCORDO
100
AcDbPolyline
 62
7
  6
CONTINUOUS
 90
14
 70
0
 10
129.088432139
 20
118.3552472312
 10
129.0938048377
 20
118.3710907126
 10
129.108236285
 20
118.4101588534
 10
129.1235945944
 20
118.4482269468
 10
129.1404866492
 20
118.4862500072
 10
129.159019066
 20
118.5246205002
 10
129.1790852281
 20
118.5629459602
 10
129.2009721693
 20
118.6010040045
 10
129.2249677616
 20
118.6390958631
 10
129.250784133
 20
118.676920306
 10
129.2778447016
 20
118.7133512604
 10
129.3059572731
 20
118.7480133689
 10
129.3353140418
 20
118.7812819888
 10
129.3659150075
 20
118.8131571204
  0
LWPOLYLINE
  5
397
100
AcDbEntity
  8
RACCORDO
100
AcDbPolyline
 62
250
  6
CONTINUOUS
 90
10
 70
0
 10
131.5435040069
 20
125.219206125
 10
131.5492832604
 20
125.2353422049
 10
131.5547354585
 20
125.2509990815
 10
131.5596986838
 20
125.2657117829
 10
131.5640255404
 20
125.279043377
 10
131.5675875309
 20
125.2905979469
 10
131.5702788727
 20
125.3000323496
 10
131.5720196393
 20
125.3070664056
 10
131.5727581341
 20
125.3114912203
 10
131.5724724256
 20
125.3131753871
  0
LWPOLYLINE
  5
398
100
AcDbEntity
  8
RACCORDO
100
AcDbPolyline
 62
250
  6
CONTINUOUS
 90
6
 70
0
 10
132.8408096815
 20
124.5227419915
 10
132.8466132148
 20
124.5360029233
 10
132.8511327617
 20
124.5465725509
 10
132.8542963354
 20
124.5542807314
 10
132.8560599721
 20
124.5590177971
 10
132.8564007934
 20
124.560718417
  0
LINE
  5
399
100
AcDbEntity
  8
RACCORDO
100
AcDbLine
 62
250
  6
CONTINUOUS
 10
132.8257846819
 20
124.489135722
 11
132.8408096815
 21
124.5227419915
  0
LINE
  5
39A
100
AcDbEntity
  8
RACCORDO
100
AcDbLine
 62
250
  6
CONTINUOUS
 10
132.8071175799
 20
124.4481236496
 11
132.8257846819
 21
124.489135722
  0
LINE
  5
39B
100
AcDbEntity
  8
RACCORDO
100
AcDbLine
 62
250
  6
CONTINUOUS
 10
132.7753676223
 20
124.3794568596
 11
132.8071175799
 21
124.4481236496
  0
LINE
  5
39C
100
AcDbEntity
  8
RACCORDO
100
AcDbLine
 62
250
  6
CONTINUOUS
 10
132.7753676223
 20
79.4918916458
 11
132.8071194289
 21
79.4232208211
  0
LINE
  5
39D
100
AcDbEntity
  8
RACCORDO
100
AcDbLine
 62
250
  6
CONTINUOUS
 10
132.8071194289
 20
79.4232208211
 11
132.8257862982
 21
79.3822092038
  0
LWPOLYLINE
  5
39E
100
AcDbEntity
  8
RACCORDO
100
AcDbPolyline
 62
250
  6
CONTINUOUS
 90
7
 70
0
 10
132.8257862982
 20
79.3822092038
 10
132.8408106313
 20
79.3486043618
 10
132.8466138088
 20
79.3353442108
 10
132.851133079
 20
79.3247751997
 10
132.8542964689
 20
79.3170674366
 10
132.8560600002
 20
79.3123306225
 10
132.8564007934
 20
79.3106300884
  0
LWPOLYLINE
  5
39F
100
AcDbEntity
  8
RACCORDO
100
AcDbPolyline
 62
250
  6
CONTINUOUS
 90
10
 70
0
 10
131.5435040069
 20
78.6521423804
 10
131.5492832506
 20
78.6360063283
 10
131.5547354428
 20
78.6203494695
 10
131.5596986662
 20
78.6056367754
 10
131.5640255246
 20
78.5923051783
 10
131.5675875192
 20
78.5807505978
 10
131.5702788656
 20
78.5713161822
 10
131.5720196363
 20
78.5642821137
 10
131.5727581338
 20
78.5598572893
 10
131.5724724256
 20
78.5581731183
  0
LINE
  5
3A0
100
AcDbEntity
  8
RACCORDO
100
AcDbLine
 62
7
  6
CONTINUOUS
 10
125.3879536321
 20
90.4343912268
 11
125.3875595187
 21
90.435659018
  0
LWPOLYLINE
  5
3A1
100
AcDbEntity
  8
RACCORDO
100
AcDbPolyline
 62
250
  6
CONTINUOUS
 90
8
 70
0
 10
123.9481400181
 20
93.3096223235
 10
123.9535391753
 20
93.2872527247
 10
123.9615846052
 20
93.2667582531
 10
123.9720617526
 20
93.2486854541
 10
123.9846912135
 20
93.2335162923
 10
123.999136186
 20
93.2216552981
 10
124.0150114522
 20
93.2134187801
 10
124.0318936514
 20
93.2090263892
  0
LWPOLYLINE
  5
3A2
100
AcDbEntity
  8
RACCORDO
100
AcDbPolyline
 62
250
  6
CONTINUOUS
 90
9
 70
0
 10
124.0659005513
 20
93.1147617629
 10
124.0627490053
 20
93.1296988467
 10
124.0584303711
 20
93.1439140566
 10
124.0529946674
 20
93.157242737
 10
124.0465048498
 20
93.1695305027
 10
124.0390360894
 20
93.1806350128
 10
124.0306749047
 20
93.1904276279
 10
124.0215181481
 20
93.198794916
 10
124.0116718807
 20
93.2056399616
  0
LWPOLYLINE
  5
3A3
100
AcDbEntity
  8
RACCORDO
100
AcDbPolyline
 62
250
  6
CONTINUOUS
 90
6
 70
0
 10
124.7059012094
 20
87.4475878744
 10
124.7054866041
 20
87.4498734139
 10
124.7051641031
 20
87.4566447526
 10
124.7049435017
 20
87.4676962264
 10
124.7048315001
 20
87.4826921718
 10
124.7048315
 20
87.5011771208
  0
LWPOLYLINE
  5
3A4
100
AcDbEntity
  8
RACCORDO
100
AcDbPolyline
 62
250
  6
CONTINUOUS
 90
9
 70
0
 10
125.714203313
 20
90.2955357742
 10
125.7118672483
 20
90.3091623434
 10
125.7077739144
 20
90.3230722003
 10
125.7017640543
 20
90.3372290244
 10
125.6937800054
 20
90.3513143959
 10
125.6839816117
 20
90.3647837103
 10
125.6724420802
 20
90.3773970111
 10
125.6592108747
 20
90.3890838061
 10
125.6445574351
 20
90.3996280822
  0
LWPOLYLINE
  5
3A5
100
AcDbEntity
  8
RACCORDO
100
AcDbPolyline
 62
250
  6
CONTINUOUS
 90
7
 70
0
 10
125.4649723928
 20
87.1595451384
 10
125.4658554462
 20
87.154344916
 10
125.4667294582
 20
87.144085598
 10
125.4675854799
 20
87.1288722282
 10
125.4684147469
 20
87.1088605733
 10
125.4692087686
 20
87.0842555287
 10
125.4699594151
 20
87.0553090216
  0
LINE
  5
3A6
100
AcDbEntity
  8
RACCORDO
100
AcDbLine
 62
250
  6
CONTINUOUS
 10
124.3660104581
 20
93.1643634735
 11
124.3661393837
 21
93.162051215
  0
LINE
  5
3A7
100
AcDbEntity
  8
RACCORDO
100
AcDbLine
 62
250
  6
CONTINUOUS
 10
125.7148961646
 20
90.2823259019
 11
125.714203313
 21
90.2955357742
  0
LINE
  5
3A8
100
AcDbEntity
  8
RACCORDO
100
AcDbLine
 62
250
  6
CONTINUOUS
 10
124.3818167069
 20
125.6663467023
 11
124.3843974878
 21
125.6148333724
  0
LINE
  5
3A9
100
AcDbEntity
  8
RACCORDO
100
AcDbLine
 62
250
  6
CONTINUOUS
 10
124.3796421905
 20
125.7144820167
 11
124.3818167069
 21
125.6663467023
  0
LWPOLYLINE
  5
3AA
100
AcDbEntity
  8
RACCORDO
100
AcDbPolyline
 62
250
  6
CONTINUOUS
 90
22
 70
0
 10
123.988432139
 20
113.4595194901
 10
123.9895111898
 20
113.4339476304
 10
123.9927232521
 20
113.4086689477
 10
123.9980196464
 20
113.38385929
 10
124.0053820771
 20
113.3595597058
 10
124.0147109212
 20
113.3360675902
 10
124.025721759
 20
113.3138941536
 10
124.0381883138
 20
113.2931954037
 10
124.0519562372
 20
113.2739730682
 10
124.0667205827
 20
113.2564110536
 10
124.0821603041
 20
113.2406191638
 10
124.0981810071
 20
113.2264512414
 10
124.1148416259
 20
113.2136982979
 10
124.1319819404
 20
113.2023732687
 10
124.1495025226
 20
113.1924404343
 10
124.1676427799
 20
113.1837164937
 10
124.1863422082
 20
113.1762309891
 10
124.2054955625
 20
113.1700276833
 10
124.2253305645
 20
113.1650662743
 10
124.2458768052
 20
113.1614172371
 10
124.2669433286
 20
113.1591922809
 10
124.288432139
 20
113.1584688615
  0
LWPOLYLINE
  5
3AB
100
AcDbEntity
  8
RACCORDO
100
AcDbPolyline
 62
250
  6
CONTINUOUS
 90
3
 70
0
 10
123.9449309463
 20
119.3041909225
 10
123.9440717171
 20
119.3262560299
 10
123.9457820491
 20
119.348855374
  0
LWPOLYLINE
  5
3AC
100
AcDbEntity
  8
RACCORDO
100
AcDbPolyline
 62
250
  6
CONTINUOUS
 90
19
 70
0
 10
125.7638308496
 20
90.4114841029
 10
125.7628463221
 20
90.4372975895
 10
125.7596628654
 20
90.4628879768
 10
125.7543103419
 20
90.4880698692
 10
125.7468390196
 20
90.5126512075
 10
125.737306661
 20
90.5364662241
 10
125.7257686863
 20
90.559372931
 10
125.712273955
 20
90.5812508442
 10
125.6969430791
 20
90.6018863134
 10
125.6799800469
 20
90.6210261262
 10
125.6616964496
 20
90.638408794
 10
125.6421049202
 20
90.6541033684
 10
125.6209189738
 20
90.6682933582
 10
125.5981262279
 20
90.6808481892
 10
125.5739475534
 20
90.6915101453
 10
125.548383269
 20
90.7001401881
 10
125.5215432987
 20
90.7065385029
 10
125.4936655707
 20
90.7104881959
 10
125.4649721879
 20
90.7118031621
  0
LWPOLYLINE
  5
3AD
100
AcDbEntity
  8
RACCORDO
100
AcDbPolyline
 62
250
  6
CONTINUOUS
 90
3
 70
0
 10
124.0764623583
 20
119.1053121255
 10
124.0772439142
 20
119.0832294648
 10
124.075470264
 20
119.0606108535
  0
LWPOLYLINE
  5
3AE
100
AcDbEntity
  8
RACCORDO
100
AcDbPolyline
 62
250
  6
CONTINUOUS
 90
7
 70
0
 10
124.059087756
 20
110.8870038781
 10
124.0593350549
 20
110.8731355925
 10
124.0600864469
 20
110.8592750086
 10
124.0613419319
 20
110.8454221262
 10
124.0631015101
 20
110.8315769453
 10
124.0653651813
 20
110.8177394661
 10
124.0681329456
 20
110.8039096884
  0
LINE
  5
3AF
100
AcDbEntity
  8
RACCORDO
100
AcDbLine
 62
250
  6
CONTINUOUS
 10
124.2934191569
 20
87.0542329027
 11
124.294760105
 21
86.9845424808
  0
LINE
  5
3B0
100
AcDbEntity
  8
RACCORDO
100
AcDbLine
 62
250
  6
CONTINUOUS
 10
124.2934191569
 20
113.0542329027
 11
124.294760105
 21
112.9845424808
  0
LINE
  5
3B1
100
AcDbEntity
  8
RACCORDO
100
AcDbLine
 62
250
  6
CONTINUOUS
 10
125.4699594151
 20
87.0553090216
 11
125.4713003629
 21
86.985618544
  0
LINE
  5
3B2
100
AcDbEntity
  8
RACCORDO
100
AcDbLine
 62
250
  6
CONTINUOUS
 10
124.0857257199
 20
111.387328161
 11
124.0849416577
 21
111.4390738782
  0
LINE
  5
3B3
100
AcDbEntity
  8
RACCORDO
100
AcDbLine
 62
250
  6
CONTINUOUS
 10
124.7051641031
 20
90.3250691477
 11
124.7059012094
 21
90.2737834768
  0
LINE
  5
3B4
100
AcDbEntity
  8
RACCORDO
100
AcDbLine
 62
250
  6
CONTINUOUS
 10
124.7051641031
 20
116.3250691477
 11
124.7059012094
 21
116.2737834768
  0
LINE
  5
3B5
100
AcDbEntity
  8
RACCORDO
100
AcDbLine
 62
250
  6
CONTINUOUS
 10
125.5300725204
 20
87.3381618253
 11
125.5295811475
 21
87.3723493276
  0
LWPOLYLINE
  5
3B6
100
AcDbEntity
  8
RACCORDO
100
AcDbPolyline
 62
250
  6
CONTINUOUS
 90
34
 70
0
 10
125.5326546898
 20
90.2855069387
 10
125.5325805736
 20
90.2914453728
 10
125.5323102604
 20
90.2974843043
 10
125.5318321496
 20
90.3036131024
 10
125.5311303008
 20
90.3098539811
 10
125.5301955938
 20
90.3161596563
 10
125.5290388861
 20
90.3224160137
 10
125.5276697482
 20
90.3285815635
 10
125.5260844279
 20
90.3346752722
 10
125.5242873371
 20
90.3406765873
 10
125.5222835869
 20
90.3465718226
 10
125.5200765239
 20
90.3523533019
 10
125.5176696706
 20
90.358010215
 10
125.5150697803
 20
90.3635293871
 10
125.5122810421
 20
90.3689041951
 10
125.5093027511
 20
90.3741333788
 10
125.5061467737
 20
90.379196571
 10
125.5028130619
 20
90.3840950048
 10
125.4992781838
 20
90.3888553521
 10
125.4955529779
 20
90.3934530741
 10
125.4916327321
 20
90.3978859661
 10
125.487459464
 20
90.4022005545
 10
125.4830319238
 20
90.4063706526
 10
125.4783472449
 20
90.4103728217
 10
125.4733316138
 20
90.4142346288
 10
125.4679622622
 20
90.4179263638
 10
125.4622532383
 20
90.4213911353
 10
125.4561802737
 20
90.424595481
 10
125.4497369201
 20
90.4274906057
 10
125.442938588
 20
90.4300158043
 10
125.435798516
 20
90.4321127427
 10
125.4283345379
 20
90.4337235104
 10
125.420569248
 20
90.4347900651
 10
125.4125318622
 20
90.4352535905
  0
LINE
  5
3B7
100
AcDbEntity
  8
RACCORDO
100
AcDbLine
 62
250
  6
CONTINUOUS
 10
124.294760105
 20
86.9845424808
 11
124.2958425562
 21
86.9015599664
  0
LINE
  5
3B8
100
AcDbEntity
  8
RACCORDO
100
AcDbLine
 62
250
  6
CONTINUOUS
 10
124.294760105
 20
112.9845424808
 11
124.2958425562
 21
112.9015599664
  0
LINE
  5
3B9
100
AcDbEntity
  8
RACCORDO
100
AcDbLine
 62
250
  6
CONTINUOUS
 10
125.4713003629
 20
86.985618544
 11
125.4723828131
 21
86.9026360144
  0
LINE
  5
3BA
100
AcDbEntity
  8
RACCORDO
100
AcDbLine
 62
250
  6
CONTINUOUS
 10
125.4713003629
 20
112.985618544
 11
125.4723828131
 21
112.9026360144
  0
LINE
  5
3BB
100
AcDbEntity
  8
RACCORDO
100
AcDbLine
 62
250
  6
CONTINUOUS
 10
124.0860111541
 20
85.3625634277
 11
124.0853671769
 21
85.4129778783
  0
LWPOLYLINE
  5
3BC
100
AcDbEntity
  8
RACCORDO
100
AcDbPolyline
 62
250
  6
CONTINUOUS
 90
3
 70
0
 10
123.9457820491
 20
110.5137819059
 10
123.945531118
 20
110.5380780085
 10
123.9481400182
 20
110.5617261835
  0
LWPOLYLINE
  5
3BD
100
AcDbEntity
  8
RACCORDO
100
AcDbPolyline
 62
250
  6
CONTINUOUS
 90
10
 70
0
 10
124.2452378793
 20
110.5558676783
 10
124.2449869482
 20
110.5801637799
 10
124.2475958483
 20
110.6038119543
 10
124.2529950055
 20
110.626181553
 10
124.2610404354
 20
110.6466760247
 10
124.2715175828
 20
110.6647488237
 10
124.2841470436
 20
110.6799179855
 10
124.2985920161
 20
110.6917789797
 10
124.3144672824
 20
110.7000154977
 10
124.3313494815
 20
110.7044078886
  0
LWPOLYLINE
  5
3BE
100
AcDbEntity
  8
RACCORDO
100
AcDbPolyline
 62
250
  6
CONTINUOUS
 90
8
 70
0
 10
125.2063701183
 20
84.9868908813
 10
125.2063824842
 20
84.9855729878
 10
125.2070551984
 20
84.9818123352
 10
125.2083767279
 20
84.9756732304
 10
125.2103244702
 20
84.9672605728
 10
125.2128652265
 20
84.9567176862
 10
125.2159558579
 20
84.9442235549
 10
125.2235680187
 20
84.9142611632
  0
LINE
  5
3BF
100
AcDbEntity
  8
RACCORDO
100
AcDbLine
 62
250
  6
CONTINUOUS
 10
124.0862185973
 20
111.3391072447
 11
124.0857257199
 21
111.387328161
  0
LINE
  5
3C0
100
AcDbEntity
  8
RACCORDO
100
AcDbLine
 62
250
  6
CONTINUOUS
 10
124.2958425562
 20
86.9015599664
 11
124.2968881662
 21
86.7596935339
  0
LINE
  5
3C1
100
AcDbEntity
  8
RACCORDO
100
AcDbLine
 62
250
  6
CONTINUOUS
 10
124.2958425562
 20
112.9015599664
 11
124.2968881662
 21
112.7596935339
  0
LINE
  5
3C2
100
AcDbEntity
  8
RACCORDO
100
AcDbLine
 62
250
  6
CONTINUOUS
 10
125.4723828131
 20
86.9026360144
 11
125.473428421
 21
86.7607696712
  0
LINE
  5
3C3
100
AcDbEntity
  8
RACCORDO
100
AcDbLine
 62
250
  6
CONTINUOUS
 10
125.4723828131
 20
112.9026360144
 11
125.473428421
 21
112.7607696712
  0
LINE
  5
3C4
100
AcDbEntity
  8
RACCORDO
100
AcDbLine
 62
250
  6
CONTINUOUS
 10
124.7048315001
 20
90.3701713841
 11
124.7051641031
 21
90.3250691477
  0
LINE
  5
3C5
100
AcDbEntity
  8
RACCORDO
100
AcDbLine
 62
250
  6
CONTINUOUS
 10
124.7048315001
 20
116.3701713841
 11
124.7051641031
 21
116.3250691477
  0
LWPOLYLINE
  5
3C6
100
AcDbEntity
  8
RACCORDO
100
AcDbPolyline
 62
250
  6
CONTINUOUS
 90
7
 70
0
 10
125.5295811475
 20
87.3723493276
 10
125.5293593886
 20
87.4024171311
 10
125.5293593708
 20
87.4147410602
 10
125.5294340247
 20
87.4247392096
 10
125.5295810867
 20
87.4321077221
 10
125.5297960944
 20
87.4366226276
 10
125.5300725204
 20
87.4381465948
  0
LWPOLYLINE
  5
3C7
100
AcDbEntity
  8
RACCORDO
100
AcDbPolyline
 62
250
  6
CONTINUOUS
 90
7
 70
0
 10
125.5295811475
 20
113.3723493276
 10
125.5293593886
 20
113.4024171311
 10
125.5293593708
 20
113.4147410602
 10
125.5294340247
 20
113.4247392096
 10
125.5295810867
 20
113.4321077221
 10
125.5297960944
 20
113.4366226276
 10
125.5300725204
 20
113.4381465948
  0
LWPOLYLINE
  5
3C8
100
AcDbEntity
  8
RACCORDO
100
AcDbPolyline
 62
7
  6
CONTINUOUS
 90
4
 70
0
 10
125.3882861672
 20
85.0483398128
 10
125.3883069692
 20
85.0413537103
 10
125.3883630313
 20
85.0370975091
 10
125.388432139
 20
85.0356742527
  0
LINE
  5
3C9
100
AcDbEntity
  8
RACCORDO
100
AcDbLine
 62
250
  6
CONTINUOUS
 10
124.2968881662
 20
86.7596935339
 11
124.2971583422
 21
86.6591540941
  0
LINE
  5
3CA
100
AcDbEntity
  8
RACCORDO
100
AcDbLine
 62
250
  6
CONTINUOUS
 10
124.2968881662
 20
112.7596935339
 11
124.2971583422
 21
112.6591540941
  0
LINE
  5
3CB
100
AcDbEntity
  8
RACCORDO
100
AcDbLine
 62
250
  6
CONTINUOUS
 10
125.473428421
 20
86.7607696712
 11
125.4736985961
 21
86.660230371
  0
LINE
  5
3CC
100
AcDbEntity
  8
RACCORDO
100
AcDbLine
 62
250
  6
CONTINUOUS
 10
125.473428421
 20
112.7607696712
 11
125.4736985961
 21
112.660230371
  0
LINE
  5
3CD
100
AcDbEntity
  8
DRAFT
100
AcDbLine
 62
7
  6
CONTINUOUS
 10
123.888432139
 20
128.3356742527
 11
123.888432139
 21
127.3356742527
  0
LINE
  5
3CE
100
AcDbEntity
  8
RACCORDO
100
AcDbLine
 62
7
  6
CONTINUOUS
 10
123.888432139
 20
127.3356742527
 11
123.888432139
 21
126.0606125923
  0
LINE
  5
3CF
100
AcDbEntity
  8
RACCORDO
100
AcDbLine
 62
7
  6
CONTINUOUS
 10
123.888432139
 20
77.8107359131
 11
123.888432139
 21
76.5356742527
  0
LINE
  5
3D0
100
AcDbEntity
  8
DRAFT
100
AcDbLine
 62
7
  6
CONTINUOUS
 10
123.888432139
 20
76.5356742527
 11
123.888432139
 21
75.5356742527
  0
LINE
  5
3D1
100
AcDbEntity
  8
RACCORDO
100
AcDbLine
 62
7
  6
CONTINUOUS
 10
123.888432139
 20
78.2722089481
 11
123.888432139
 21
125.5991395574
  0
LINE
  5
3D2
100
AcDbEntity
  8
RACCORDO
100
AcDbLine
 62
250
  6
CONTINUOUS
 10
123.9457820491
 20
78.2722089481
 11
123.9457820491
 21
84.5224931314
  0
LINE
  5
3D3
100
AcDbEntity
  8
RACCORDO
100
AcDbLine
 62
250
  6
CONTINUOUS
 10
123.9457820491
 20
93.3575665995
 11
123.9457820491
 21
110.5137819059
  0
LINE
  5
3D4
100
AcDbEntity
  8
RACCORDO
100
AcDbLine
 62
250
  6
CONTINUOUS
 10
123.9457820491
 20
119.348855374
 11
123.9457820491
 21
125.5991395574
  0
LINE
  5
3D5
100
AcDbEntity
  8
RACCORDO
100
AcDbLine
 62
250
  6
CONTINUOUS
 10
123.9470107827
 20
119.0950308177
 11
123.9470107827
 21
118.691147187
  0
LINE
  5
3D6
100
AcDbEntity
  8
RACCORDO
100
AcDbLine
 62
250
  6
CONTINUOUS
 10
123.9470107827
 20
111.1804148037
 11
123.9470107827
 21
110.7869601365
  0
LINE
  5
3D7
100
AcDbEntity
  8
RACCORDO
100
AcDbLine
 62
250
  6
CONTINUOUS
 10
123.9470107827
 20
93.0843861155
 11
123.9470107827
 21
92.691147187
  0
LINE
  5
3D8
100
AcDbEntity
  8
RACCORDO
100
AcDbLine
 62
250
  6
CONTINUOUS
 10
123.9470107827
 20
85.1804148037
 11
123.9470107827
 21
84.7763172948
  0
LINE
  5
3D9
100
AcDbEntity
  8
RACCORDO
100
AcDbLine
 62
7
  6
CONTINUOUS
 10
123.988432139
 20
116.4118283594
 11
123.988432139
 21
113.459520146
  0
LINE
  5
3DA
100
AcDbEntity
  8
RACCORDO
100
AcDbLine
 62
7
  6
CONTINUOUS
 10
123.988432139
 20
90.4118283594
 11
123.988432139
 21
87.459520146
  0
LINE
  5
3DB
100
AcDbEntity
  8
RACCORDO
100
AcDbLine
 62
250
  6
CONTINUOUS
 10
124.059087756
 20
84.9225559298
 11
124.059087756
 21
85.2391043391
  0
LINE
  5
3DC
100
AcDbEntity
  8
RACCORDO
100
AcDbLine
 62
250
  6
CONTINUOUS
 10
124.059087756
 20
87.2928847394
 11
124.059087756
 21
87.3564856833
  0
LINE
  5
3DD
100
AcDbEntity
  8
RACCORDO
100
AcDbLine
 62
250
  6
CONTINUOUS
 10
124.059087756
 20
90.5148628221
 11
124.059087756
 21
90.578463766
  0
LINE
  5
3DE
100
AcDbEntity
  8
RACCORDO
100
AcDbLine
 62
250
  6
CONTINUOUS
 10
124.059087756
 20
92.6322441663
 11
124.059087756
 21
92.9843446274
  0
LINE
  5
3DF
100
AcDbEntity
  8
RACCORDO
100
AcDbLine
 62
250
  6
CONTINUOUS
 10
124.059087756
 20
110.8870038781
 11
124.059087756
 21
111.2391043391
  0
LINE
  5
3E0
100
AcDbEntity
  8
RACCORDO
100
AcDbLine
 62
250
  6
CONTINUOUS
 10
124.059087756
 20
113.2928847394
 11
124.059087756
 21
113.3564856833
  0
LINE
  5
3E1
100
AcDbEntity
  8
RACCORDO
100
AcDbLine
 62
250
  6
CONTINUOUS
 10
124.059087756
 20
116.5148628221
 11
124.059087756
 21
116.578463766
  0
LINE
  5
3E2
100
AcDbEntity
  8
RACCORDO
100
AcDbLine
 62
250
  6
CONTINUOUS
 10
124.059087756
 20
118.6322441663
 11
124.059087756
 21
118.9487925756
  0
LINE
  5
3E3
100
AcDbEntity
  8
RACCORDO
100
AcDbLine
 62
250
  6
CONTINUOUS
 10
124.197018631
 20
113.3564856833
 11
124.197018631
 21
113.1997450152
  0
LINE
  5
3E4
100
AcDbEntity
  8
RACCORDO
100
AcDbLine
 62
250
  6
CONTINUOUS
 10
124.197018631
 20
111.24106065
 11
124.197018631
 21
110.8870038781
  0
LINE
  5
3E5
100
AcDbEntity
  8
RACCORDO
100
AcDbLine
 62
250
  6
CONTINUOUS
 10
124.197018631
 20
87.3564856833
 11
124.197018631
 21
87.1997450152
  0
LINE
  5
3E6
100
AcDbEntity
  8
RACCORDO
100
AcDbLine
 62
250
  6
CONTINUOUS
 10
124.197018631
 20
85.24106065
 11
124.197018631
 21
84.9225559298
  0
LINE
  5
3E7
100
AcDbEntity
  8
RACCORDO
100
AcDbLine
 62
250
  6
CONTINUOUS
 10
124.197018631
 20
90.5148628221
 11
124.197018631
 21
90.6716034902
  0
LINE
  5
3E8
100
AcDbEntity
  8
RACCORDO
100
AcDbLine
 62
250
  6
CONTINUOUS
 10
124.197018631
 20
92.6302878555
 11
124.197018631
 21
92.9843446274
  0
LINE
  5
3E9
100
AcDbEntity
  8
RACCORDO
100
AcDbLine
 62
250
  6
CONTINUOUS
 10
124.197018631
 20
116.5148628221
 11
124.197018631
 21
116.6716034902
  0
LINE
  5
3EA
100
AcDbEntity
  8
RACCORDO
100
AcDbLine
 62
250
  6
CONTINUOUS
 10
124.197018631
 20
118.6302878555
 11
124.197018631
 21
118.9487925756
  0
LINE
  5
3EB
100
AcDbEntity
  8
RACCORDO
100
AcDbLine
 62
250
  6
CONTINUOUS
 10
124.2452378793
 20
125.6148333724
 11
124.2452378793
 21
119.2686164262
  0
LINE
  5
3EC
100
AcDbEntity
  8
RACCORDO
100
AcDbLine
 62
250
  6
CONTINUOUS
 10
124.2452378793
 20
110.5558676783
 11
124.2452378793
 21
93.3154808272
  0
LINE
  5
3ED
100
AcDbEntity
  8
RACCORDO
100
AcDbLine
 62
250
  6
CONTINUOUS
 10
124.2452378793
 20
84.6027320793
 11
124.2452378793
 21
78.256515133
  0
LINE
  5
3EE
100
AcDbEntity
  8
RACCORDO
100
AcDbLine
 62
250
  6
CONTINUOUS
 10
124.288432139
 20
87.1584688615
 11
124.288432139
 21
87.1853083402
  0
LINE
  5
3EF
100
AcDbEntity
  8
RACCORDO
100
AcDbLine
 62
250
  6
CONTINUOUS
 10
124.288432139
 20
90.6860401652
 11
124.288432139
 21
90.7128796439
  0
LINE
  5
3F0
100
AcDbEntity
  8
RACCORDO
100
AcDbLine
 62
250
  6
CONTINUOUS
 10
124.288432139
 20
113.1584688615
 11
124.288432139
 21
113.1853083402
  0
LINE
  5
3F1
100
AcDbEntity
  8
RACCORDO
100
AcDbLine
 62
250
  6
CONTINUOUS
 10
124.288432139
 20
116.6860401652
 11
124.288432139
 21
116.7128796439
  0
LINE
  5
3F2
100
AcDbEntity
  8
RACCORDO
100
AcDbLine
 62
250
  6
CONTINUOUS
 10
124.3843974878
 20
125.6148333724
 11
124.3843974878
 21
119.2592945
  0
LINE
  5
3F3
100
AcDbEntity
  8
RACCORDO
100
AcDbLine
 62
250
  6
CONTINUOUS
 10
124.3843974878
 20
110.5607570802
 11
124.3843974878
 21
93.3105914253
  0
LINE
  5
3F4
100
AcDbEntity
  8
RACCORDO
100
AcDbLine
 62
250
  6
CONTINUOUS
 10
124.3843974878
 20
84.6120540054
 11
124.3843974878
 21
78.256515133
  0
LINE
  5
3F5
100
AcDbEntity
  8
RACCORDO
100
AcDbLine
 62
250
  6
CONTINUOUS
 10
124.5679703345
 20
113.5981669268
 11
124.5679705603
 21
116.2731815826
  0
LINE
  5
3F6
100
AcDbEntity
  8
RACCORDO
100
AcDbLine
 62
250
  6
CONTINUOUS
 10
124.5679703345
 20
87.5981669268
 11
124.5679705603
 21
90.2731815826
  0
LINE
  5
3F7
100
AcDbEntity
  8
RACCORDO
100
AcDbLine
 62
250
  6
CONTINUOUS
 10
124.7059012094
 20
87.5975650287
 11
124.7059012094
 21
90.2737834768
  0
LINE
  5
3F8
100
AcDbEntity
  8
RACCORDO
100
AcDbLine
 62
250
  6
CONTINUOUS
 10
124.7059012094
 20
113.5975650287
 11
124.7059012094
 21
116.2737834768
  0
LINE
  5
3F9
100
AcDbEntity
  8
RACCORDO
100
AcDbLine
 62
7
  6
CONTINUOUS
 10
125.388432139
 20
118.6295542883
 11
125.388432139
 21
118.6094916553
  0
LINE
  5
3FA
100
AcDbEntity
  8
RACCORDO
100
AcDbLine
 62
7
  6
CONTINUOUS
 10
125.388432139
 20
116.2856665962
 11
125.388432139
 21
113.5856819093
  0
LINE
  5
3FB
100
AcDbEntity
  8
RACCORDO
100
AcDbLine
 62
7
  6
CONTINUOUS
 10
125.3884321004
 20
113.4356742513
 11
125.388432139
 21
113.1843020809
  0
LINE
  5
3FC
100
AcDbEntity
  8
RACCORDO
100
AcDbLine
 62
7
  6
CONTINUOUS
 10
125.388432139
 20
85.2618568501
 11
125.388432139
 21
85.2417942172
  0
LINE
  5
3FD
100
AcDbEntity
  8
RACCORDO
100
AcDbLine
 62
7
  6
CONTINUOUS
 10
125.388432139
 20
87.5856819093
 11
125.388432139
 21
90.2856665962
  0
LINE
  5
3FE
100
AcDbEntity
  8
RACCORDO
100
AcDbLine
 62
7
  6
CONTINUOUS
 10
125.388432139
 20
118.990264226
 11
125.388432139
 21
125.8675441396
  0
LINE
  5
3FF
100
AcDbEntity
  8
RACCORDO
100
AcDbLine
 62
7
  6
CONTINUOUS
 10
125.388432139
 20
87.1843020809
 11
125.3884321004
 21
87.4356742513
  0
LINE
  5
400
100
AcDbEntity
  8
RACCORDO
100
AcDbLine
 62
7
  6
CONTINUOUS
 10
125.3884320613
 20
116.4356742534
 11
125.388432139
 21
116.6870464245
  0
LINE
  5
401
100
AcDbEntity
  8
RACCORDO
100
AcDbLine
 62
7
  6
CONTINUOUS
 10
125.3884320613
 20
90.4356742534
 11
125.388432139
 21
90.6870464245
  0
LINE
  5
402
100
AcDbEntity
  8
RACCORDO
100
AcDbLine
 62
250
  6
CONTINUOUS
 10
125.4437597577
 20
87.586617152
 11
125.4437597577
 21
90.2847313534
  0
LINE
  5
403
100
AcDbEntity
  8
RACCORDO
100
AcDbLine
 62
250
  6
CONTINUOUS
 10
125.4437597577
 20
113.586617152
 11
125.4437597577
 21
116.2847313534
  0
LWPOLYLINE
  5
404
100
AcDbEntity
  8
RACCORDO
100
AcDbPolyline
 62
250
  6
CONTINUOUS
 90
6
 70
0
 10
125.5293593802
 20
90.4689280747
 10
125.5293593806
 20
90.4566047758
 10
125.5294340485
 20
90.4466074791
 10
125.5295811162
 20
90.4392398297
 10
125.5297961167
 20
90.4347256038
 10
125.53007252
 20
90.4332019107
  0
LWPOLYLINE
  5
405
100
AcDbEntity
  8
RACCORDO
100
AcDbPolyline
 62
250
  6
CONTINUOUS
 90
6
 70
0
 10
125.5293593802
 20
116.4689280747
 10
125.5293593806
 20
116.4566047758
 10
125.5294340485
 20
116.4466074791
 10
125.5295811162
 20
116.4392398297
 10
125.5297961167
 20
116.4347256038
 10
125.53007252
 20
116.4332019107
  0
LINE
  5
406
100
AcDbEntity
  8
RACCORDO
100
AcDbLine
 62
250
  6
CONTINUOUS
 10
125.5326452957
 20
87.5858414027
 11
125.5326452957
 21
90.2855071027
  0
LINE
  5
407
100
AcDbEntity
  8
RACCORDO
100
AcDbLine
 62
250
  6
CONTINUOUS
 10
125.5326452957
 20
113.5858414027
 11
125.5326452957
 21
116.2855071027
  0
LWPOLYLINE
  5
408
100
AcDbEntity
  8
RACCORDO
100
AcDbPolyline
 62
7
  6
CONTINUOUS
 90
4
 70
0
 10
125.3884321429
 20
84.9912276282
 10
125.388374541
 20
85.0305040009
 10
125.3883928434
 20
85.0343766575
 10
125.388432139
 20
85.0356742527
  0
LWPOLYLINE
  5
409
100
AcDbEntity
  8
RACCORDO
100
AcDbPolyline
 62
7
  6
CONTINUOUS
 90
11
 70
0
 10
125.3887946223
 20
118.8011668661
 10
125.3887860242
 20
118.7871194749
 10
125.3883466373
 20
118.771544135
 10
125.387751865
 20
118.754662687
 10
125.3872245404
 20
118.7369407533
 10
125.3869542872
 20
118.7187103362
 10
125.3869124995
 20
118.7002293954
 10
125.3870005779
 20
118.6818656351
 10
125.3872235068
 20
118.6638744644
 10
125.3876870178
 20
118.6463904422
 10
125.388432139
 20
118.6295542883
  0
LWPOLYLINE
  5
40A
100
AcDbEntity
  8
RACCORDO
100
AcDbPolyline
 62
7
  6
CONTINUOUS
 90
5
 70
0
 10
125.388432139
 20
116.3917497319
 10
125.3884943749
 20
116.4156168379
 10
125.388432139
 20
116.4242909876
 10
125.3882429347
 20
116.4305821016
 10
125.3879536321
 20
116.4343912268
  0
LWPOLYLINE
  5
40B
100
AcDbEntity
  8
RACCORDO
100
AcDbPolyline
 62
7
  6
CONTINUOUS
 90
6
 70
0
 10
125.388432139
 20
113.4795987735
 10
125.388369903
 20
113.4557316675
 10
125.388432139
 20
113.4470575178
 10
125.3886213432
 20
113.4407664039
 10
125.3889106458
 20
113.4369572786
 10
125.3893047592
 20
113.4356894875
  0
LWPOLYLINE
  5
40C
100
AcDbEntity
  8
RACCORDO
100
AcDbPolyline
 62
7
  6
CONTINUOUS
 90
5
 70
0
 10
125.388432139
 20
90.3917497319
 10
125.3884943749
 20
90.4156168379
 10
125.388432139
 20
90.4242909876
 10
125.3882429347
 20
90.4305821016
 10
125.3879536321
 20
90.4343912268
  0
LWPOLYLINE
  5
40D
100
AcDbEntity
  8
RACCORDO
100
AcDbPolyline
 62
7
  6
CONTINUOUS
 90
6
 70
0
 10
125.388432139
 20
87.4795987735
 10
125.388369903
 20
87.4557316675
 10
125.388432139
 20
87.4470575178
 10
125.3886213432
 20
87.4407664039
 10
125.3889106458
 20
87.4369572786
 10
125.3893047592
 20
87.4356894875
  0
LINE
  5
40E
100
AcDbEntity
  8
RACCORDO
100
AcDbLine
 62
7
  6
CONTINUOUS
 10
125.388432139
 20
78.0038043658
 11
125.3884321429
 21
84.9912276282
  0
LINE
  5
40F
100
AcDbEntity
  8
RACCORDO
100
AcDbLine
 62
250
  6
CONTINUOUS
 10
124.2966222907
 20
117.062673275
 11
124.2971583422
 21
117.2121944113
  0
LINE
  5
410
100
AcDbEntity
  8
RACCORDO
100
AcDbLine
 62
250
  6
CONTINUOUS
 10
124.2966222907
 20
91.062673275
 11
124.2971583422
 21
91.2121944113
  0
LINE
  5
411
100
AcDbEntity
  8
RACCORDO
100
AcDbLine
 62
250
  6
CONTINUOUS
 10
125.4731625463
 20
117.0615970391
 11
125.4736985961
 21
117.2111181344
  0
LINE
  5
412
100
AcDbEntity
  8
RACCORDO
100
AcDbLine
 62
250
  6
CONTINUOUS
 10
125.4731625463
 20
91.0615970391
 11
125.4736985961
 21
91.2111181344
  0
LINE
  5
413
100
AcDbEntity
  8
RACCORDO
100
AcDbLine
 62
250
  6
CONTINUOUS
 10
124.0863867108
 20
118.573652915
 11
124.0862186014
 21
118.5322418183
  0
LINE
  5
414
100
AcDbEntity
  8
RACCORDO
100
AcDbLine
 62
250
  6
CONTINUOUS
 10
124.0863867108
 20
92.573652915
 11
124.0862186014
 21
92.5322418183
  0
LINE
  5
415
100
AcDbEntity
  8
RACCORDO
100
AcDbLine
 62
250
  6
CONTINUOUS
 10
124.2958425533
 20
116.9697884861
 11
124.2966222907
 21
117.062673275
  0
LINE
  5
416
100
AcDbEntity
  8
RACCORDO
100
AcDbLine
 62
250
  6
CONTINUOUS
 10
124.2958425533
 20
90.9697884861
 11
124.2966222907
 21
91.062673275
  0
LINE
  5
417
100
AcDbEntity
  8
RACCORDO
100
AcDbLine
 62
250
  6
CONTINUOUS
 10
124.7048315
 20
113.5011771208
 11
124.7051641031
 21
113.5462793573
  0
LINE
  5
418
100
AcDbEntity
  8
RACCORDO
100
AcDbLine
 62
250
  6
CONTINUOUS
 10
124.7048315
 20
87.5011771208
 11
124.7051641031
 21
87.5462793573
  0
LINE
  5
419
100
AcDbEntity
  8
RACCORDO
100
AcDbLine
 62
250
  6
CONTINUOUS
 10
125.4723828101
 20
116.9687122621
 11
125.4731625463
 21
117.0615970391
  0
LINE
  5
41A
100
AcDbEntity
  8
RACCORDO
100
AcDbLine
 62
250
  6
CONTINUOUS
 10
125.5295811155
 20
116.4989962319
 11
125.5293593802
 21
116.4689280747
  0
LINE
  5
41B
100
AcDbEntity
  8
RACCORDO
100
AcDbLine
 62
250
  6
CONTINUOUS
 10
125.4723828101
 20
90.9687122621
 11
125.4731625463
 21
91.0615970391
  0
LINE
  5
41C
100
AcDbEntity
  8
RACCORDO
100
AcDbLine
 62
250
  6
CONTINUOUS
 10
125.5295811155
 20
90.4989962319
 11
125.5293593802
 21
90.4689280747
  0
LWPOLYLINE
  5
41D
100
AcDbEntity
  8
RACCORDO
100
AcDbPolyline
 62
250
  6
CONTINUOUS
 90
34
 70
0
 10
125.4437685874
 20
116.2847312042
 10
125.4438388977
 20
116.2917030886
 10
125.4438469291
 20
116.2985135376
 10
125.4437928285
 20
116.3051498381
 10
125.4436764204
 20
116.3115501248
 10
125.4434983556
 20
116.3177570478
 10
125.4432596557
 20
116.3239132987
 10
125.4429594438
 20
116.3300601952
 10
125.4425981745
 20
116.3361325446
 10
125.4421785016
 20
116.3421098214
 10
125.4417001256
 20
116.3479784321
 10
125.4411631459
 20
116.3537307592
 10
125.4405708623
 20
116.359355998
 10
125.4399234145
 20
116.36484109
 10
125.4392205379
 20
116.3701794891
 10
125.4384649138
 20
116.3753698756
 10
125.4376586125
 20
116.3803920533
 10
125.4367994673
 20
116.3852472924
 10
125.4358836331
 20
116.3899619224
 10
125.4349145995
 20
116.3945115313
 10
125.4338885389
 20
116.3988939007
 10
125.4327901776
 20
116.4031548149
 10
125.4316205718
 20
116.4072680495
 10
125.4303777355
 20
116.4112101466
 10
125.4290411745
 20
116.4150077362
 10
125.4276056152
 20
116.4186308004
 10
125.4260746788
 20
116.4220226348
 10
125.4244407554
 20
116.4251494923
 10
125.4226977806
 20
116.4279625718
 10
125.4208501201
 20
116.430401358
 10
125.4189057816
 20
116.4324076064
 10
125.4168670387
 20
116.4339236774
 10
125.4147304239
 20
116.4348919835
 10
125.4124955019
 20
116.4352542252
  0
LWPOLYLINE
  5
41E
100
AcDbEntity
  8
RACCORDO
100
AcDbPolyline
 62
250
  6
CONTINUOUS
 90
34
 70
0
 10
125.4437685874
 20
90.2847312042
 10
125.4438388977
 20
90.2917030886
 10
125.4438469291
 20
90.2985135376
 10
125.4437928285
 20
90.3051498381
 10
125.4436764204
 20
90.3115501248
 10
125.4434983556
 20
90.3177570478
 10
125.4432596557
 20
90.3239132987
 10
125.4429594438
 20
90.3300601952
 10
125.4425981745
 20
90.3361325446
 10
125.4421785016
 20
90.3421098214
 10
125.4417001256
 20
90.3479784321
 10
125.4411631459
 20
90.3537307592
 10
125.4405708623
 20
90.359355998
 10
125.4399234145
 20
90.36484109
 10
125.4392205379
 20
90.3701794891
 10
125.4384649138
 20
90.3753698756
 10
125.4376586125
 20
90.3803920533
 10
125.4367994673
 20
90.3852472924
 10
125.4358836331
 20
90.3899619224
 10
125.4349145995
 20
90.3945115313
 10
125.4338885389
 20
90.3988939007
 10
125.4327901776
 20
90.4031548149
 10
125.4316205718
 20
90.4072680495
 10
125.4303777355
 20
90.4112101466
 10
125.4290411745
 20
90.4150077362
 10
125.4276056152
 20
90.4186308004
 10
125.4260746788
 20
90.4220226348
 10
125.4244407554
 20
90.4251494923
 10
125.4226977806
 20
90.4279625718
 10
125.4208501201
 20
90.430401358
 10
125.4189057816
 20
90.4324076064
 10
125.4168670387
 20
90.4339236774
 10
125.4147304239
 20
90.4348919835
 10
125.4124955019
 20
90.4352542252
  0
LWPOLYLINE
  5
41F
100
AcDbEntity
  8
RACCORDO
100
AcDbPolyline
 62
250
  6
CONTINUOUS
 90
3
 70
0
 10
123.9457820491
 20
93.3575665995
 10
123.945531118
 20
93.3332704978
 10
123.9481400181
 20
93.3096223235
  0
LWPOLYLINE
  5
420
100
AcDbEntity
  8
RACCORDO
100
AcDbPolyline
 62
250
  6
CONTINUOUS
 90
10
 70
0
 10
124.2452378793
 20
93.3154808272
 10
124.2449869481
 20
93.291184724
 10
124.2475958485
 20
93.2675365486
 10
124.2529950061
 20
93.2451669494
 10
124.2610404365
 20
93.2246724777
 10
124.2715175842
 20
93.2065996792
 10
124.2841470452
 20
93.191430518
 10
124.2985920175
 20
93.1795695247
 10
124.3144672832
 20
93.1713330074
 10
124.3313494815
 20
93.1669406169
  0
LWPOLYLINE
  5
421
100
AcDbEntity
  8
RACCORDO
100
AcDbPolyline
 62
250
  6
CONTINUOUS
 90
9
 70
0
 10
124.0889328664
 20
93.0690298602
 10
124.0891997559
 20
93.0927034197
 10
124.0870975012
 20
93.1156035649
 10
124.0826799368
 20
93.137143889
 10
124.0760602008
 20
93.1567727979
 10
124.0674078086
 20
93.1739876664
 10
124.056944298
 20
93.1883476969
 10
124.0449375994
 20
93.1994851674
 10
124.0316951882
 20
93.2071148604
  0
LWPOLYLINE
  5
422
100
AcDbEntity
  8
RACCORDO
100
AcDbPolyline
 62
250
  6
CONTINUOUS
 90
4
 70
0
 10
124.0862186014
 20
118.5322418183
 10
124.0857257251
 20
118.4840207493
 10
124.0853671804
 20
118.4583708587
 10
124.0849416577
 20
118.4322746273
  0
LINE
  5
423
100
AcDbEntity
  8
RACCORDO
100
AcDbLine
 62
250
  6
CONTINUOUS
 10
124.0862186014
 20
92.5322418183
 11
124.0857257251
 21
92.4840207493
  0
LINE
  5
424
100
AcDbEntity
  8
RACCORDO
100
AcDbLine
 62
250
  6
CONTINUOUS
 10
124.2947601013
 20
116.8868059728
 11
124.2958425533
 21
116.9697884861
  0
LINE
  5
425
100
AcDbEntity
  8
RACCORDO
100
AcDbLine
 62
250
  6
CONTINUOUS
 10
124.2947601013
 20
90.8868059728
 11
124.2958425533
 21
90.9697884861
  0
LINE
  5
426
100
AcDbEntity
  8
RACCORDO
100
AcDbLine
 62
250
  6
CONTINUOUS
 10
125.4713003589
 20
116.8857297478
 11
125.4723828101
 21
116.9687122621
  0
LINE
  5
427
100
AcDbEntity
  8
RACCORDO
100
AcDbLine
 62
250
  6
CONTINUOUS
 10
125.4713003589
 20
90.8857297478
 11
125.4723828101
 21
90.9687122621
  0
LWPOLYLINE
  5
428
100
AcDbEntity
  8
RACCORDO
100
AcDbPolyline
 62
7
  6
CONTINUOUS
 90
4
 70
0
 10
125.3885055278
 20
118.8749333048
 10
125.388116555
 20
118.8425465393
 10
125.3881632537
 20
118.8374779642
 10
125.388432139
 20
118.8356742527
  0
LINE
  5
429
100
AcDbEntity
  8
RACCORDO
100
AcDbLine
 62
250
  6
CONTINUOUS
 10
124.7051641031
 20
113.5462793573
 11
124.7059012094
 21
113.5975650287
  0
LINE
  5
42A
100
AcDbEntity
  8
RACCORDO
100
AcDbLine
 62
250
  6
CONTINUOUS
 10
124.7051641031
 20
87.5462793573
 11
124.7059012094
 21
87.5975650287
  0
LINE
  5
42B
100
AcDbEntity
  8
RACCORDO
100
AcDbLine
 62
250
  6
CONTINUOUS
 10
125.5300725204
 20
116.5331866802
 11
125.5295811155
 21
116.4989962319
  0
LINE
  5
42C
100
AcDbEntity
  8
RACCORDO
100
AcDbLine
 62
250
  6
CONTINUOUS
 10
124.0857257251
 20
92.4840207493
 11
124.0849416577
 21
92.4322746273
  0
LWPOLYLINE
  5
42D
100
AcDbEntity
  8
RACCORDO
100
AcDbPolyline
 62
250
  6
CONTINUOUS
 90
43
 70
0
 10
124.197018631
 20
113.3564856833
 10
124.1970828722
 20
113.3601300912
 10
124.1974913948
 20
113.363752556
 10
124.1982441419
 20
113.3673483505
 10
124.1993514578
 20
113.3709161012
 10
124.2008028932
 20
113.3744479898
 10
124.2025672295
 20
113.3779299617
 10
124.2046476867
 20
113.3813561209
 10
124.2070410222
 20
113.3847244856
 10
124.2097063654
 20
113.3880274807
 10
124.2126451417
 20
113.3912608668
 10
124.2158559553
 20
113.394422542
 10
124.2192937265
 20
113.397508686
 10
124.2229540486
 20
113.4005136721
 10
124.2268413988
 20
113.4034383806
 10
124.2309240135
 20
113.4062887624
 10
124.235193221
 20
113.4090594345
 10
124.2396577462
 20
113.4117514617
 10
124.2443118559
 20
113.4143792315
 10
124.2491364718
 20
113.4169335068
 10
124.2541506556
 20
113.4194179621
 10
124.2594057309
 20
113.4218625627
 10
124.2649074131
 20
113.4242666772
 10
124.2706497369
 20
113.426618764
 10
124.2766663382
 20
113.4289276581
 10
124.2829521645
 20
113.4311844897
 10
124.2895119202
 20
113.4333813844
 10
124.2963937477
 20
113.4355242361
 10
124.3035918472
 20
113.4376009542
 10
124.3111115344
 20
113.4395997754
 10
124.3190174725
 20
113.4415211379
 10
124.327355374
 20
113.4433591089
 10
124.3360788399
 20
113.4450840349
 10
124.3451144279
 20
113.4466620648
 10
124.3545202193
 20
113.4480888278
 10
124.3642377685
 20
113.4493401252
 10
124.3740194018
 20
113.4503747735
 10
124.38386973
 20
113.4511979394
 10
124.3937846785
 20
113.451813818
 10
124.4035043247
 20
113.4522163312
 10
124.412942579
 20
113.4524271963
 10
124.4221867602
 20
113.4524751209
 10
124.4312373708
 20
113.4523821495
  0
LWPOLYLINE
  5
42E
100
AcDbEntity
  8
RACCORDO
100
AcDbPolyline
 62
250
  6
CONTINUOUS
 90
43
 70
0
 10
124.197018631
 20
87.3564856833
 10
124.1970828722
 20
87.3601300912
 10
124.1974913948
 20
87.363752556
 10
124.1982441419
 20
87.3673483505
 10
124.1993514578
 20
87.3709161012
 10
124.2008028932
 20
87.3744479898
 10
124.2025672295
 20
87.3779299617
 10
124.2046476867
 20
87.3813561209
 10
124.2070410222
 20
87.3847244856
 10
124.2097063654
 20
87.3880274807
 10
124.2126451417
 20
87.3912608668
 10
124.2158559553
 20
87.394422542
 10
124.2192937265
 20
87.397508686
 10
124.2229540486
 20
87.4005136721
 10
124.2268413988
 20
87.4034383806
 10
124.2309240135
 20
87.4062887624
 10
124.235193221
 20
87.4090594345
 10
124.2396577462
 20
87.4117514617
 10
124.2443118559
 20
87.4143792315
 10
124.2491364718
 20
87.4169335068
 10
124.2541506556
 20
87.4194179621
 10
124.2594057309
 20
87.4218625627
 10
124.2649074131
 20
87.4242666772
 10
124.2706497369
 20
87.426618764
 10
124.2766663382
 20
87.4289276581
 10
124.2829521645
 20
87.4311844897
 10
124.2895119202
 20
87.4333813844
 10
124.2963937477
 20
87.4355242361
 10
124.3035918472
 20
87.4376009542
 10
124.3111115344
 20
87.4395997754
 10
124.3190174725
 20
87.4415211379
 10
124.327355374
 20
87.4433591089
 10
124.3360788399
 20
87.4450840349
 10
124.3451144279
 20
87.4466620648
 10
124.3545202193
 20
87.4480888278
 10
124.3642377685
 20
87.4493401252
 10
124.3740194018
 20
87.4503747735
 10
124.38386973
 20
87.4511979394
 10
124.3937846785
 20
87.451813818
 10
124.4035043247
 20
87.4522163312
 10
124.412942579
 20
87.4524271963
 10
124.4221867602
 20
87.4524751209
 10
124.4312373708
 20
87.4523821495
  0
LWPOLYLINE
  5
42F
100
AcDbEntity
  8
RACCORDO
100
AcDbPolyline
 62
7
  6
CONTINUOUS
 90
6
 70
0
 10
125.3875595187
 20
116.2856514035
 10
125.3879536321
 20
116.3052033645
 10
125.3882429347
 20
116.3244348659
 10
125.388432139
 20
116.3430165822
 10
125.3884943749
 20
116.3606328718
 10
125.388432139
 20
116.3917497319
  0
LWPOLYLINE
  5
430
100
AcDbEntity
  8
RACCORDO
100
AcDbPolyline
 62
7
  6
CONTINUOUS
 90
6
 70
0
 10
125.3893047592
 20
113.5856971019
 10
125.3889106458
 20
113.5661451409
 10
125.3886213432
 20
113.5469136395
 10
125.388432139
 20
113.5283319233
 10
125.388369903
 20
113.5107156336
 10
125.388432139
 20
113.4795987735
  0
LWPOLYLINE
  5
431
100
AcDbEntity
  8
RACCORDO
100
AcDbPolyline
 62
7
  6
CONTINUOUS
 90
6
 70
0
 10
125.3875595187
 20
90.2856514035
 10
125.3879536321
 20
90.3052033645
 10
125.3882429347
 20
90.3244348659
 10
125.388432139
 20
90.3430165822
 10
125.3884943749
 20
90.3606328718
 10
125.388432139
 20
90.3917497319
  0
LWPOLYLINE
  5
432
100
AcDbEntity
  8
RACCORDO
100
AcDbPolyline
 62
250
  6
CONTINUOUS
 90
43
 70
0
 10
124.059087756
 20
87.3564856833
 10
124.059323769
 20
87.3674615846
 10
124.0599825315
 20
87.3783155441
 10
124.0610640434
 20
87.3890475619
 10
124.062583219
 20
87.3996907182
 10
124.064525144
 20
87.4102119327
 10
124.0668450764
 20
87.420511965
 10
124.0695477797
 20
87.4305781247
 10
124.0726284904
 20
87.4404231021
 10
124.0760281756
 20
87.4499857272
 10
124.0797478036
 20
87.4592562739
 10
124.083786406
 20
87.4682444683
 10
124.0880820453
 20
87.4769183191
 10
124.0926283405
 20
87.485265157
 10
124.0974316726
 20
87.4932976512
 10
124.1024492465
 20
87.501021819
 10
124.1076701254
 20
87.5084296147
 10
124.1131052462
 20
87.5155290839
 10
124.1187446242
 20
87.5223503799
 10
124.1245665139
 20
87.5288852879
 10
124.1305926607
 20
87.5351420226
 10
124.1368783166
 20
87.5411753823
 10
124.1434310098
 20
87.5470076826
 10
124.150243212
 20
87.5526166079
 10
124.1573475899
 20
87.5579900095
 10
124.1647415684
 20
87.5631344387
 10
124.1724277226
 20
87.5680433441
 10
124.1804464436
 20
87.5726849233
 10
124.1887940028
 20
87.5770653775
 10
124.1974741289
 20
87.5811785053
 10
124.2065383979
 20
87.5849739001
 10
124.2160435161
 20
87.5884632421
 10
124.2259327773
 20
87.591634851
 10
124.236087639
 20
87.5944032797
 10
124.2465734445
 20
87.5967401263
 10
124.2573248504
 20
87.5986737926
 10
124.2680272839
 20
87.6002040372
 10
124.2786799447
 20
87.6012772096
 10
124.2892836332
 20
87.6019469602
 10
124.2995261777
 20
87.6023739992
 10
124.3093035213
 20
87.6026118964
 10
124.318719721
 20
87.602607082
 10
124.3277747768
 20
87.6023595558
  0
LWPOLYLINE
  5
433
100
AcDbEntity
  8
RACCORDO
100
AcDbPolyline
 62
250
  6
CONTINUOUS
 90
4
 70
0
 10
124.0680576154
 20
93.0673791588
 10
124.068570315
 20
93.0834204033
 10
124.0678485079
 20
93.0992758229
 10
124.0659005513
 20
93.1147617629
  0
LWPOLYLINE
  5
434
100
AcDbEntity
  8
RACCORDO
100
AcDbPolyline
 62
250
  6
CONTINUOUS
 90
3
 70
0
 10
123.9449309466
 20
84.5671575823
 10
123.9440717173
 20
84.5450924751
 10
123.9457820491
 20
84.5224931314
  0
LINE
  5
435
100
AcDbEntity
  8
RACCORDO
100
AcDbLine
 62
250
  6
CONTINUOUS
 10
124.3780259989
 20
78.115440486
 11
124.379642239
 21
78.1568676359
  0
LINE
  5
436
100
AcDbEntity
  8
RACCORDO
100
AcDbLine
 62
250
  6
CONTINUOUS
 10
125.7144266803
 20
113.5783725731
 11
125.714896196
 21
113.589022604
  0
LINE
  5
437
100
AcDbEntity
  8
RACCORDO
100
AcDbLine
 62
250
  6
CONTINUOUS
 10
124.379642239
 20
78.1568676359
 11
124.3818167458
 21
78.2050026184
  0
LWPOLYLINE
  5
438
100
AcDbEntity
  8
RACCORDO
100
AcDbPolyline
 62
7
  6
CONTINUOUS
 90
5
 70
0
 10
125.388432139
 20
118.8356742527
 10
125.3883636113
 20
118.8342494706
 10
125.3883077773
 20
118.8299891305
 10
125.3882868706
 20
118.8229963765
 10
125.3887946223
 20
118.8011668661
  0
LINE
  5
439
100
AcDbEntity
  8
RACCORDO
100
AcDbLine
 62
250
  6
CONTINUOUS
 10
124.3818167458
 20
78.2050026184
 11
124.3843974878
 21
78.256515133
  0
LINE
  5
43A
100
AcDbEntity
  8
RACCORDO
100
AcDbLine
 62
250
  6
CONTINUOUS
 10
124.3660104574
 20
110.7069850328
 11
124.3661393837
 21
110.7092972905
  0
LWPOLYLINE
  5
43B
100
AcDbEntity
  8
RACCORDO
100
AcDbPolyline
 62
250
  6
CONTINUOUS
 90
5
 70
0
 10
124.3716106376
 20
93.2152342291
 10
124.3693609387
 20
93.1969316307
 10
124.3676460067
 20
93.1820718827
 10
124.3665177882
 20
93.1711050993
 10
124.3660104581
 20
93.1643634735
  0
LINE
  5
43C
100
AcDbEntity
  8
RACCORDO
100
AcDbLine
 62
250
  6
CONTINUOUS
 10
124.3774276206
 20
93.2598628795
 11
124.3716106376
 21
93.2152342291
  0
LINE
  5
43D
100
AcDbEntity
  8
RACCORDO
100
AcDbLine
 62
250
  6
CONTINUOUS
 10
124.3843974878
 20
93.3105914253
 11
124.3774276206
 21
93.2598628795
  0
LWPOLYLINE
  5
43E
100
AcDbEntity
  8
RACCORDO
100
AcDbPolyline
 62
250
  6
CONTINUOUS
 90
8
 70
0
 10
126.2058845454
 20
111.2761255349
 10
126.2063100681
 20
111.2778435882
 10
126.2066686128
 20
111.2829524658
 10
126.2069540471
 20
111.2913647874
 10
126.2071614891
 20
111.3029366714
 10
126.2072873907
 20
111.3174701965
 10
126.2073295985
 20
111.3347167862
 10
126.2071614891
 20
111.376127883
  0
LINE
  5
43F
100
AcDbEntity
  8
RACCORDO
100
AcDbLine
 62
250
  6
CONTINUOUS
 10
134.2573854807
 20
123.8622386838
 11
134.2424420393
 21
123.8288119843
  0
LINE
  5
440
100
AcDbEntity
  8
RACCORDO
100
AcDbLine
 62
250
  6
CONTINUOUS
 10
134.2424420393
 20
123.8288119843
 11
134.2238522018
 21
123.7879651777
  0
LINE
  5
441
100
AcDbEntity
  8
RACCORDO
100
AcDbLine
 62
250
  6
CONTINUOUS
 10
134.2238522018
 20
123.7879651777
 11
134.1919226203
 21
123.7189064159
  0
LINE
  5
442
100
AcDbEntity
  8
RACCORDO
100
AcDbLine
 62
250
  6
CONTINUOUS
 10
134.1919226203
 20
80.1524420896
 11
134.2239292854
 21
80.0832151036
  0
LINE
  5
443
100
AcDbEntity
  8
RACCORDO
100
AcDbLine
 62
250
  6
CONTINUOUS
 10
134.2239292854
 20
80.0832151036
 11
134.2425391676
 21
80.042321379
  0
LWPOLYLINE
  5
444
100
AcDbEntity
  8
RACCORDO
100
AcDbPolyline
 62
250
  6
CONTINUOUS
 90
7
 70
0
 10
134.2425391676
 20
80.042321379
 10
134.2574881567
 20
80.0088771223
 10
134.2632607715
 20
79.9956823085
 10
134.2677470566
 20
79.9851852836
 10
134.2708795081
 20
79.977547011
 10
134.2726215826
 20
79.9728608909
 10
134.2729557913
 20
79.9711805322
  0
LWPOLYLINE
  5
445
100
AcDbEntity
  8
RACCORDO
100
AcDbPolyline
 62
250
  6
CONTINUOUS
 90
7
 70
0
 10
126.2058845454
 20
92.5952229705
 10
126.2063100798
 20
92.5935048165
 10
126.2066686308
 20
92.5883956678
 10
126.2069540667
 20
92.5799829541
 10
126.2071615062
 20
92.5684105966
 10
126.2072874019
 20
92.5538765751
 10
126.2073296011
 20
92.5366295655
  0
LWPOLYLINE
  5
446
100
AcDbEntity
  8
RACCORDO
100
AcDbPolyline
 62
250
  6
CONTINUOUS
 90
7
 70
0
 10
128.8919226203
 20
84.9745205989
 10
128.8922417705
 20
84.9732320692
 10
128.892510685
 20
84.9694004366
 10
128.8927247644
 20
84.9630912286
 10
128.8928803465
 20
84.954412347
 10
128.8929747706
 20
84.943512226
 10
128.8930064236
 20
84.9305772963
  0
LINE
  5
447
100
AcDbEntity
  8
RACCORDO
100
AcDbLine
 62
250
  6
CONTINUOUS
 10
124.3843974878
 20
110.5607570802
 11
124.3774276183
 21
110.6114856346
  0
LWPOLYLINE
  5
448
100
AcDbEntity
  8
RACCORDO
100
AcDbPolyline
 62
250
  6
CONTINUOUS
 90
6
 70
0
 10
124.3774276183
 20
110.6114856346
 10
124.3716106347
 20
110.6561142866
 10
124.369360936
 20
110.6744168836
 10
124.3676460045
 20
110.689276629
 10
124.3665177868
 20
110.7002434095
 10
124.3660104574
 20
110.7069850328
  0
LWPOLYLINE
  5
449
100
AcDbEntity
  8
RACCORDO
100
AcDbPolyline
 62
7
  6
CONTINUOUS
 90
8
 70
0
 10
125.388432139
 20
118.990264226
 10
125.3892900777
 20
118.9742105076
 10
125.3897283673
 20
118.9575321298
 10
125.389811727
 20
118.940453962
 10
125.389622408
 20
118.9232095915
 10
125.3892579942
 20
118.9062075196
 10
125.3888210674
 20
118.8899976649
 10
125.3885055278
 20
118.8749333048
  0
LINE
  5
44A
100
AcDbEntity
  8
RACCORDO
100
AcDbLine
 62
250
  6
CONTINUOUS
 10
125.7148961646
 20
116.2823259019
 11
125.714203313
 21
116.2955357742
  0
LWPOLYLINE
  5
44B
100
AcDbEntity
  8
RACCORDO
100
AcDbPolyline
 62
250
  6
CONTINUOUS
 90
19
 70
0
 10
126.2718720698
 20
90.4114838588
 10
126.2687381262
 20
90.4808195729
 10
126.2599927362
 20
90.5486139308
 10
126.2456358995
 20
90.6148669324
 10
126.2254911795
 20
90.6800083923
 10
126.1997350129
 20
90.743608496
 10
126.1688967104
 20
90.8043778
 10
126.1327591294
 20
90.8623533528
 10
126.0915394124
 20
90.9174981059
 10
126.0464182977
 20
90.9684114706
 10
125.9978088489
 20
91.0147282868
 10
125.9452980025
 20
91.0568137146
 10
125.888827306
 20
91.0943626464
 10
125.8281192286
 20
91.1277423229
 10
125.763451301
 20
91.1565855033
 10
125.6955976632
 20
91.1794853578
 10
125.6248163616
 20
91.1959729431
 10
125.5508493498
 20
91.2065172026
 10
125.4736966277
 20
91.2111181362
  0
LWPOLYLINE
  5
44C
100
AcDbEntity
  8
RACCORDO
100
AcDbPolyline
 62
250
  6
CONTINUOUS
 90
19
 70
0
 10
126.2718720698
 20
116.4114838588
 10
126.2687381262
 20
116.4808195729
 10
126.2599927362
 20
116.5486139308
 10
126.2456358995
 20
116.6148669324
 10
126.2254911795
 20
116.6800083923
 10
126.1997350129
 20
116.743608496
 10
126.1688967104
 20
116.8043778
 10
126.1327591294
 20
116.8623533528
 10
126.0915394124
 20
116.9174981059
 10
126.0464182977
 20
116.9684114706
 10
125.9978088489
 20
117.0147282868
 10
125.9452980025
 20
117.0568137146
 10
125.888827306
 20
117.0943626464
 10
125.8281192286
 20
117.1277423229
 10
125.763451301
 20
117.1565855033
 10
125.6955976632
 20
117.1794853578
 10
125.6248163616
 20
117.1959729431
 10
125.5508493498
 20
117.2065172026
 10
125.4736966277
 20
117.2111181362
  0
LWPOLYLINE
  5
44D
100
AcDbEntity
  8
RACCORDO
100
AcDbPolyline
 62
250
  6
CONTINUOUS
 90
19
 70
0
 10
125.7638308496
 20
116.4114841029
 10
125.7628463221
 20
116.4372975895
 10
125.7596628654
 20
116.4628879768
 10
125.7543103419
 20
116.4880698692
 10
125.7468390196
 20
116.5126512075
 10
125.737306661
 20
116.5364662241
 10
125.7257686863
 20
116.559372931
 10
125.712273955
 20
116.5812508442
 10
125.6969430791
 20
116.6018863134
 10
125.6799800469
 20
116.6210261262
 10
125.6616964496
 20
116.638408794
 10
125.6421049202
 20
116.6541033684
 10
125.6209189738
 20
116.6682933582
 10
125.5981262279
 20
116.6808481892
 10
125.5739475534
 20
116.6915101453
 10
125.548383269
 20
116.7001401881
 10
125.5215432987
 20
116.7065385029
 10
125.4936655707
 20
116.7104881959
 10
125.4649721879
 20
116.7118031621
  0
LWPOLYLINE
  5
44E
100
AcDbEntity
  8
RACCORDO
100
AcDbPolyline
 62
250
  6
CONTINUOUS
 90
5
 70
0
 10
126.7861997228
 20
79.1989639315
 10
126.7862945205
 20
79.1942039754
 10
126.7864093716
 20
79.1905357919
 10
126.7865405978
 20
79.1882042059
 10
126.7866869777
 20
79.1873892973
  0
LINE
  5
44F
100
AcDbEntity
  8
RACCORDO
100
AcDbLine
 62
250
  6
CONTINUOUS
 10
125.4699594151
 20
113.0553090216
 11
125.4713003629
 21
112.985618544
  0
LINE
  5
450
100
AcDbEntity
  8
RACCORDO
100
AcDbLine
 62
250
  6
CONTINUOUS
 10
125.5389711261
 20
118.9497237175
 11
125.5383864579
 21
118.9882688694
  0
LINE
  5
451
100
AcDbEntity
  8
RACCORDO
100
AcDbLine
 62
250
  6
CONTINUOUS
 10
125.5883712309
 20
118.6391946635
 11
125.5875916824
 21
118.6905874923
  0
LINE
  5
452
100
AcDbEntity
  8
RACCORDO
100
AcDbLine
 62
250
  6
CONTINUOUS
 10
126.2066686128
 20
85.4243489519
 11
126.2058845454
 21
85.476095074
  0
LINE
  5
453
100
AcDbEntity
  8
RACCORDO
100
AcDbLine
 62
250
  6
CONTINUOUS
 10
126.2066686128
 20
111.4243489519
 11
126.2058845454
 21
111.476095074
  0
LINE
  5
454
100
AcDbEntity
  8
RACCORDO
100
AcDbLine
 62
250
  6
CONTINUOUS
 10
125.5300725204
 20
113.3381618253
 11
125.5295811475
 21
113.3723493276
  0
LWPOLYLINE
  5
455
100
AcDbEntity
  8
RACCORDO
100
AcDbPolyline
 62
250
  6
CONTINUOUS
 90
34
 70
0
 10
125.5326546898
 20
116.2855069387
 10
125.5325805736
 20
116.2914453728
 10
125.5323102604
 20
116.2974843043
 10
125.5318321496
 20
116.3036131024
 10
125.5311303008
 20
116.3098539811
 10
125.5301955938
 20
116.3161596563
 10
125.5290388861
 20
116.3224160137
 10
125.5276697482
 20
116.3285815635
 10
125.5260844279
 20
116.3346752722
 10
125.5242873371
 20
116.3406765873
 10
125.5222835869
 20
116.3465718226
 10
125.5200765239
 20
116.3523533019
 10
125.5176696706
 20
116.358010215
 10
125.5150697803
 20
116.3635293871
 10
125.5122810421
 20
116.3689041951
 10
125.5093027511
 20
116.3741333788
 10
125.5061467737
 20
116.379196571
 10
125.5028130619
 20
116.3840950048
 10
125.4992781838
 20
116.3888553521
 10
125.4955529779
 20
116.3934530741
 10
125.4916327321
 20
116.3978859661
 10
125.487459464
 20
116.4022005545
 10
125.4830319238
 20
116.4063706526
 10
125.4783472449
 20
116.4103728217
 10
125.4733316138
 20
116.4142346288
 10
125.4679622622
 20
116.4179263638
 10
125.4622532383
 20
116.4213911353
 10
125.4561802737
 20
116.424595481
 10
125.4497369201
 20
116.4274906057
 10
125.442938588
 20
116.4300158043
 10
125.435798516
 20
116.4321127427
 10
125.4283345379
 20
116.4337235104
 10
125.420569248
 20
116.4347900651
 10
125.4125318622
 20
116.4352535905
  0
LINE
  5
456
100
AcDbEntity
  8
RACCORDO
100
AcDbLine
 62
250
  6
CONTINUOUS
 10
125.5393419543
 20
118.9135922714
 11
125.5389711261
 21
118.9497237175
  0
LWPOLYLINE
  5
457
100
AcDbEntity
  8
RACCORDO
100
AcDbPolyline
 62
250
  6
CONTINUOUS
 90
9
 70
0
 10
125.5875916824
 20
118.6905874923
 10
125.5870972384
 20
118.738763117
 10
125.5869696906
 20
118.7605890127
 10
125.5869261862
 20
118.7803126598
 10
125.586967057
 20
118.7975660239
 10
125.5870911877
 20
118.812108707
 10
125.5872971063
 20
118.8237363942
 10
125.587582291
 20
118.8322344124
 10
125.5879422269
 20
118.8374156804
  0
LINE
  5
458
100
AcDbEntity
  8
RACCORDO
100
AcDbLine
 62
250
  6
CONTINUOUS
 10
126.2071614891
 20
85.376127883
 11
126.2066686128
 21
85.4243489519
  0
LINE
  5
459
100
AcDbEntity
  8
RACCORDO
100
AcDbLine
 62
250
  6
CONTINUOUS
 10
126.2071614891
 20
111.376127883
 11
126.2066686128
 21
111.4243489519
  0
LINE
  5
45A
100
AcDbEntity
  8
RACCORDO
100
AcDbLine
 62
250
  6
CONTINUOUS
 10
126.7860671918
 20
79.211445855
 11
126.7861997228
 21
79.1989639315
  0
LINE
  5
45B
100
AcDbEntity
  8
RACCORDO
100
AcDbLine
 62
250
  6
CONTINUOUS
 10
126.7860671918
 20
124.5791203216
 11
126.7866869777
 21
124.4839896691
  0
LINE
  5
45C
100
AcDbEntity
  8
RACCORDO
100
AcDbLine
 62
250
  6
CONTINUOUS
 10
126.7859834692
 20
79.2279630257
 11
126.7860671918
 21
79.211445855
  0
LINE
  5
45D
100
AcDbEntity
  8
RACCORDO
100
AcDbLine
 62
250
  6
CONTINUOUS
 10
126.7859660084
 20
124.628735575
 11
126.7860671918
 21
124.5791203216
  0
LINE
  5
45E
100
AcDbEntity
  8
RACCORDO
100
AcDbLine
 62
250
  6
CONTINUOUS
 10
125.7148961976
 20
87.5890226041
 11
125.7148961976
 21
90.2823259014
  0
LINE
  5
45F
100
AcDbEntity
  8
RACCORDO
100
AcDbLine
 62
250
  6
CONTINUOUS
 10
125.7148961976
 20
113.5890226041
 11
125.7148961976
 21
116.2823259014
  0
LINE
  5
460
100
AcDbEntity
  8
RACCORDO
100
AcDbLine
 62
7
  6
CONTINUOUS
 10
125.7401260337
 20
90.387779287
 11
125.7401260337
 21
87.4835692184
  0
LINE
  5
461
100
AcDbEntity
  8
RACCORDO
100
AcDbLine
 62
7
  6
CONTINUOUS
 10
125.7401260337
 20
113.4835692184
 11
125.7401260337
 21
116.387779287
  0
LINE
  5
462
100
AcDbEntity
  8
RACCORDO
100
AcDbLine
 62
250
  6
CONTINUOUS
 10
125.7638310992
 20
87.4598641529
 11
125.7638310992
 21
90.4114843525
  0
LINE
  5
463
100
AcDbEntity
  8
RACCORDO
100
AcDbLine
 62
250
  6
CONTINUOUS
 10
125.7638310992
 20
113.4598641529
 11
125.7638310992
 21
116.4114843525
  0
LWPOLYLINE
  5
464
100
AcDbEntity
  8
0
100
AcDbPolyline
 62
7
  6
CONTINUOUS
 90
2
 70
0
 43
0.3500000006
 10
125.9884278259
 20
145.135696106
 10
125.9884278259
 20
146.6357056274
  0
LINE
  5
465
100
AcDbEntity
  8
RACCORDO
100
AcDbLine
 62
250
  6
CONTINUOUS
 10
126.2718720698
 20
87.4598660411
 11
126.2718720698
 21
90.4114838588
  0
LINE
  5
466
100
AcDbEntity
  8
RACCORDO
100
AcDbLine
 62
250
  6
CONTINUOUS
 10
126.2718720698
 20
113.4598660411
 11
126.2718720698
 21
116.4114838588
  0
LINE
  5
467
100
AcDbEntity
  8
RACCORDO
100
AcDbLine
 62
250
  6
CONTINUOUS
 10
126.4919226203
 20
124.8093714732
 11
126.4919226203
 21
122.3540671269
  0
LINE
  5
468
100
AcDbEntity
  8
RACCORDO
100
AcDbLine
 62
250
  6
CONTINUOUS
 10
126.4919226203
 20
81.5172813786
 11
126.4919226203
 21
79.0619770323
  0
LINE
  5
469
100
AcDbEntity
  8
RACCORDO
100
AcDbLine
 62
7
  6
CONTINUOUS
 10
126.688432139
 20
124.8808950887
 11
126.688432139
 21
122.4077461488
  0
LINE
  5
46A
100
AcDbEntity
  8
RACCORDO
100
AcDbLine
 62
7
  6
CONTINUOUS
 10
126.688432139
 20
81.4636023566
 11
126.688432139
 21
78.9904534167
  0
LINE
  5
46B
100
AcDbEntity
  8
RACCORDO
100
AcDbLine
 62
7
  6
CONTINUOUS
 10
126.688432139
 20
92.4609942717
 11
126.688432139
 21
111.4101699711
  0
LINE
  5
46C
100
AcDbEntity
  8
RACCORDO
100
AcDbLine
 62
250
  6
CONTINUOUS
 10
126.7866868983
 20
124.4839896705
 11
126.7866861174
 21
123.5942654743
  0
LINE
  5
46D
100
AcDbEntity
  8
RACCORDO
100
AcDbLine
 62
250
  6
CONTINUOUS
 10
126.7866868979
 20
80.2770816591
 11
126.7866868983
 21
79.387358835
  0
LWPOLYLINE
  5
46E
100
AcDbEntity
  8
0
100
AcDbPolyline
 62
7
  6
CONTINUOUS
 90
4
 70
0
 43
0.3500000006
 10
126.8741436768
 20
137.5100797119
 10
126.8741436768
 20
138.3672176514
 10
127.3027217102
 20
138.7957866211
 10
127.9455751648
 20
138.7957866211
  0
LINE
  5
46F
100
AcDbEntity
  8
RACCORDO
100
AcDbLine
 62
250
  6
CONTINUOUS
 10
126.9919226203
 20
117.5953752753
 11
126.9919226203
 21
112.2759732301
  0
LINE
  5
470
100
AcDbEntity
  8
RACCORDO
100
AcDbLine
 62
250
  6
CONTINUOUS
 10
126.9919226203
 20
91.5953752753
 11
126.9919226203
 21
86.2759732301
  0
LINE
  5
471
100
AcDbEntity
  8
RACCORDO
100
AcDbLine
 62
7
  6
CONTINUOUS
 10
127.188432139
 20
117.5953752753
 11
127.188432139
 21
112.2759732301
  0
LINE
  5
472
100
AcDbEntity
  8
RACCORDO
100
AcDbLine
 62
7
  6
CONTINUOUS
 10
127.188432139
 20
91.5953752753
 11
127.188432139
 21
86.2759732301
  0
LINE
  5
473
100
AcDbEntity
  8
DRAFT
100
AcDbLine
 62
7
  6
CONTINUOUS
 10
127.388432139
 20
77.9478927982
 11
127.388432139
 21
78.7356742527
  0
LINE
  5
474
100
AcDbEntity
  8
DRAFT
100
AcDbLine
 62
7
  6
CONTINUOUS
 10
127.388432139
 20
125.1356742527
 11
127.388432139
 21
125.9234557073
  0
LINE
  5
475
100
AcDbEntity
  8
RACCORDO
100
AcDbLine
 62
250
  6
CONTINUOUS
 10
126.7860118187
 20
79.2762569751
 11
126.7859834692
 21
79.2279630257
  0
LINE
  5
476
100
AcDbEntity
  8
RACCORDO
100
AcDbLine
 62
250
  6
CONTINUOUS
 10
126.7860118187
 20
124.6502802429
 11
126.7859660084
 21
124.628735575
  0
LINE
  5
477
100
AcDbEntity
  8
RACCORDO
100
AcDbLine
 62
250
  6
CONTINUOUS
 10
126.2073296011
 20
118.5366295655
 11
126.2071614732
 21
118.4952181149
  0
LINE
  5
478
100
AcDbEntity
  8
RACCORDO
100
AcDbLine
 62
250
  6
CONTINUOUS
 10
126.2073296011
 20
92.5366295655
 11
126.2071614732
 21
92.4952181149
  0
LWPOLYLINE
  5
479
100
AcDbEntity
  8
RACCORDO
100
AcDbPolyline
 62
250
  6
CONTINUOUS
 90
3
 70
0
 10
126.7866870617
 20
79.3873588378
 10
126.78651678
 20
79.3668251934
 10
126.7860118187
 20
79.2762569751
  0
LINE
  5
47A
100
AcDbEntity
  8
RACCORDO
100
AcDbLine
 62
250
  6
CONTINUOUS
 10
125.5869696912
 20
85.1107596395
 11
125.5873060529
 21
85.1560649294
  0
LINE
  5
47B
100
AcDbEntity
  8
RACCORDO
100
AcDbLine
 62
250
  6
CONTINUOUS
 10
126.2071614732
 20
118.4952181149
 11
126.2066685912
 21
118.4469977231
  0
LINE
  5
47C
100
AcDbEntity
  8
RACCORDO
100
AcDbLine
 62
250
  6
CONTINUOUS
 10
126.2071614732
 20
92.4952181149
 11
126.2066685912
 21
92.4469977231
  0
LWPOLYLINE
  5
47D
100
AcDbEntity
  8
RACCORDO
100
AcDbPolyline
 62
250
  6
CONTINUOUS
 90
3
 70
0
 10
125.5873060529
 20
85.1560649294
 10
125.5879489063
 20
85.2062685373
 10
125.5883712309
 20
85.2321538419
  0
LINE
  5
47E
100
AcDbEntity
  8
RACCORDO
100
AcDbLine
 62
250
  6
CONTINUOUS
 10
125.5300725204
 20
90.5331866802
 11
125.5295811155
 21
90.4989962319
  0
LINE
  5
47F
100
AcDbEntity
  8
RACCORDO
100
AcDbLine
 62
250
  6
CONTINUOUS
 10
126.2066685912
 20
118.4469977231
 11
126.2058845454
 21
118.3952534315
  0
LINE
  5
480
100
AcDbEntity
  8
RACCORDO
100
AcDbLine
 62
250
  6
CONTINUOUS
 10
126.2066685912
 20
92.4469977231
 11
126.2058845454
 21
92.3952534315
  0
LWPOLYLINE
  5
481
100
AcDbEntity
  8
RACCORDO
100
AcDbPolyline
 62
7
  6
CONTINUOUS
 90
6
 70
0
 10
125.3893047592
 20
87.5856971019
 10
125.3889106458
 20
87.5661451409
 10
125.3886213432
 20
87.5469136395
 10
125.388432139
 20
87.5283319233
 10
125.388369903
 20
87.5107156336
 10
125.388432139
 20
87.4795987735
  0
LINE
  5
482
100
AcDbEntity
  8
RACCORDO
100
AcDbLine
 62
250
  6
CONTINUOUS
 10
125.7144266803
 20
87.5783725731
 11
125.714896196
 21
87.589022604
  0
LWPOLYLINE
  5
483
100
AcDbEntity
  8
RACCORDO
100
AcDbPolyline
 62
7
  6
CONTINUOUS
 90
12
 70
0
 10
125.388432139
 20
85.2417942172
 10
125.3876856042
 20
85.2249602432
 10
125.3872214199
 20
85.2074738069
 10
125.3869984863
 20
85.1894758176
 10
125.386911093
 20
85.1710985592
 10
125.3869538272
 20
85.1526010397
 10
125.3872247228
 20
85.1343594404
 10
125.3877526871
 20
85.1166336449
 10
125.3883480072
 20
85.0997531157
 10
125.38878718
 20
85.0841836365
 10
125.3887949207
 20
85.0701470456
 10
125.3882861672
 20
85.0483398128
  0
LWPOLYLINE
  5
484
100
AcDbEntity
  8
RACCORDO
100
AcDbPolyline
 62
250
  6
CONTINUOUS
 90
22
 70
0
 10
126.9919226203
 20
112.2759732301
 10
126.9889964777
 20
112.2120159069
 10
126.9816574825
 20
112.1498848363
 10
126.9699056346
 20
112.0895800183
 10
126.9536557697
 20
112.0310730127
 10
126.9329930521
 20
111.9743922596
 10
126.908172975
 20
111.9196230802
 10
126.8789943389
 20
111.8663888435
 10
126.8456583434
 20
111.8150661805
 10
126.8090240802
 20
111.7668703052
 10
126.7687179164
 20
111.7218494949
 10
126.7251134851
 20
111.6799554723
 10
126.6801907771
 20
111.64225862
 10
126.6346153794
 20
111.6093487688
 10
126.587721705
 20
111.5806360879
 10
126.5394929845
 20
111.555421468
 10
126.4905223911
 20
111.5334755663
 10
126.4402167514
 20
111.5150277255
 10
126.386779776
 20
111.5000668641
 10
126.3296127016
 20
111.488589288
 10
126.2693142914
 20
111.4805986914
 10
126.2058845454
 20
111.476095074
  0
LWPOLYLINE
  5
485
100
AcDbEntity
  8
RACCORDO
100
AcDbPolyline
 62
250
  6
CONTINUOUS
 90
9
 70
0
 10
126.7866861174
 20
123.5942654743
 10
126.7854831191
 20
123.5704171745
 10
126.7830724885
 20
123.5476459773
 10
126.7794542255
 20
123.5259518827
 10
126.7744762442
 20
123.5053611194
 10
126.7682906306
 20
123.4858474587
 10
126.7613536424
 20
123.4673322139
 10
126.753757993
 20
123.4498869303
 10
126.7454109691
 20
123.4334400628
  0
LWPOLYLINE
  5
486
100
AcDbEntity
  8
RACCORDO
100
AcDbPolyline
 62
250
  6
CONTINUOUS
 90
37
 70
0
 10
129.088432139
 20
119.0967974456
 10
129.0880989881
 20
119.0939025238
 10
129.0871393959
 20
119.0911135557
 10
129.0856130636
 20
119.0884305413
 10
129.0835818886
 20
119.0858523049
 10
129.0811024571
 20
119.0833800222
 10
129.0782194181
 20
119.0810172206
 10
129.0749867714
 20
119.0787702998
 10
129.0714493074
 20
119.0766328601
 10
129.067620478
 20
119.0745892303
 10
129.0635384664
 20
119.0726395102
 10
129.0592356807
 20
119.0707836
 10
129.0546957203
 20
119.0690055298
 10
129.0499411676
 20
119.0673049287
 10
129.0449944765
 20
119.0656821677
 10
129.0398197207
 20
119.0641223894
 10
129.0344201279
 20
119.0626214544
 10
129.0288180542
 20
119.0611835022
 10
129.0229939212
 20
119.0598060946
 10
129.0169477174
 20
119.0584867799
 10
129.0106987444
 20
119.0572280098
 10
129.0042525693
 20
119.0560347016
 10
128.9976168381
 20
119.0549066644
 10
128.990804734
 20
119.053844089
 10
128.9838303625
 20
119.0528524647
 10
128.9767057058
 20
119.0519323076
 10
128.9694418367
 20
119.0510831016
 10
128.9620521439
 20
119.0503087881
 10
128.9545490781
 20
119.0496098138
 10
128.9469445049
 20
119.048985732
 10
128.9392512604
 20
119.0484391431
 10
128.9314823829
 20
119.0479704359
 10
128.9236498708
 20
119.0475792216
 10
128.9157651121
 20
119.0472669336
 10
128.9078403327
 20
119.0470340497
 10
128.8998886082
 20
119.0468800921
 10
128.8919226203
 20
119.0468050608
  0
LWPOLYLINE
  5
487
100
AcDbEntity
  8
RACCORDO
100
AcDbPolyline
 62
250
  6
CONTINUOUS
 90
7
 70
0
 10
124.0764690045
 20
84.7660751617
 10
124.073154994
 20
84.7450449203
 10
124.0673816751
 20
84.7255720063
 10
124.0592859067
 20
84.7081180333
 10
124.0490595592
 20
84.693096743
 10
124.0369450523
 20
84.6808642215
 10
124.0232296082
 20
84.6717104571
  0
LWPOLYLINE
  5
488
100
AcDbEntity
  8
RACCORDO
100
AcDbPolyline
 62
250
  6
CONTINUOUS
 90
8
 70
0
 10
124.288432139
 20
90.7128796439
 10
124.2893151903
 20
90.7180798548
 10
124.2901892004
 20
90.7283391487
 10
124.2910452206
 20
90.7435524846
 10
124.2918744863
 20
90.7635640985
 10
124.2926685071
 20
90.7881690984
 10
124.2934191531
 20
90.8171155623
 10
124.2947601013
 20
90.8868059728
  0
LWPOLYLINE
  5
489
100
AcDbEntity
  8
RACCORDO
100
AcDbPolyline
 62
250
  6
CONTINUOUS
 90
8
 70
0
 10
125.4649723928
 20
90.711803367
 10
125.4658554451
 20
90.7170035805
 10
125.466729456
 20
90.7272628797
 10
125.4675854769
 20
90.7424762228
 10
125.4684147433
 20
90.7624878451
 10
125.4692087645
 20
90.7870928538
 10
125.4699594107
 20
90.8160393258
 10
125.4713003589
 20
90.8857297478
  0
LWPOLYLINE
  5
48A
100
AcDbEntity
  8
RACCORDO
100
AcDbPolyline
 62
250
  6
CONTINUOUS
 90
15
 70
0
 10
124.197018631
 20
84.9225559298
 10
124.1943703679
 20
84.9077632898
 10
124.1937386516
 20
84.8934939427
 10
124.1951062986
 20
84.8798113413
 10
124.198388081
 20
84.8668038556
 10
124.2036343631
 20
84.8545131556
 10
124.2110284327
 20
84.8429423936
 10
124.2206148805
 20
84.8321193731
 10
124.2323037816
 20
84.8221833902
 10
124.2460760226
 20
84.8133074764
 10
124.26196515
 20
84.8056037392
 10
124.2798985113
 20
84.7991099786
 10
124.2997021795
 20
84.7938731491
 10
124.3213583474
 20
84.7899794543
 10
124.3448511386
 20
84.7874752955
  0
LWPOLYLINE
  5
48B
100
AcDbEntity
  8
RACCORDO
100
AcDbPolyline
 62
250
  6
CONTINUOUS
 90
6
 70
0
 10
124.7059012094
 20
90.423760631
 10
124.7054866041
 20
90.4214750914
 10
124.7051641031
 20
90.4147037526
 10
124.7049435017
 20
90.4036522787
 10
124.7048315001
 20
90.3886563332
 10
124.7048315001
 20
90.3701713841
  0
LWPOLYLINE
  5
48C
100
AcDbEntity
  8
RACCORDO
100
AcDbPolyline
 62
250
  6
CONTINUOUS
 90
10
 70
0
 10
124.0680576674
 20
93.0673791514
 10
124.0662928624
 20
93.0590624648
 10
124.0647113233
 20
93.0505297347
 10
124.0633130502
 20
93.0417809611
 10
124.0620863484
 20
93.0328312099
 10
124.0610429126
 20
93.0236654152
 10
124.060217827
 20
93.0142383793
 10
124.0596227864
 20
93.0045350365
 10
124.0592460961
 20
92.9945704525
 10
124.059087756
 20
92.9843446274
  0
LWPOLYLINE
  5
48D
100
AcDbEntity
  8
RACCORDO
100
AcDbPolyline
 62
250
  6
CONTINUOUS
 90
20
 70
0
 10
123.9564590182
 20
93.1627593261
 10
123.9552039805
 20
93.1594122264
 10
123.9540123055
 20
93.1559734655
 10
123.9528903976
 20
93.1524521215
 10
123.9518458336
 20
93.1488258624
 10
123.9508720304
 20
93.1450884985
 10
123.949970226
 20
93.1412510249
 10
123.9491583004
 20
93.1373160197
 10
123.948435515
 20
93.1332847828
 10
123.9477982334
 20
93.1291622519
 10
123.9472607581
 20
93.1249570282
 10
123.9468244636
 20
93.120671763
 10
123.9464850648
 20
93.1163113307
 10
123.9462496567
 20
93.111888274
 10
123.9461210942
 20
93.1074061672
 10
123.9460954715
 20
93.1028698697
 10
123.9461712306
 20
93.0982942671
 10
123.9463484621
 20
93.0936872977
 10
123.946628136
 20
93.0890498002
 10
123.947010846
 20
93.0843861066
  0
LWPOLYLINE
  5
48E
100
AcDbEntity
  8
RACCORDO
100
AcDbPolyline
 62
250
  6
CONTINUOUS
 90
7
 70
0
 10
128.8919226203
 20
92.7692840794
 10
128.8923481417
 20
92.7675660373
 10
128.8927066857
 20
92.76245719
 10
128.8929921199
 20
92.7540449128
 10
128.8931995621
 20
92.7424730856
 10
128.8933254644
 20
92.7279396222
 10
128.8933676734
 20
92.7106930774
  0
LWPOLYLINE
  5
48F
100
AcDbEntity
  8
RACCORDO
100
AcDbPolyline
 62
250
  6
CONTINUOUS
 90
6
 70
0
 10
124.7059012094
 20
113.4475878744
 10
124.7054866041
 20
113.4498734139
 10
124.7051641031
 20
113.4566447526
 10
124.7049435017
 20
113.4676962264
 10
124.7048315001
 20
113.4826921718
 10
124.7048315
 20
113.5011771208
  0
LWPOLYLINE
  5
490
100
AcDbEntity
  8
RACCORDO
100
AcDbPolyline
 62
250
  6
CONTINUOUS
 90
7
 70
0
 10
124.288432139
 20
113.1584688615
 10
124.2893151912
 20
113.153268648
 10
124.2901892021
 20
113.1430093488
 10
124.291045223
 20
113.1277960058
 10
124.2918744894
 20
113.1077843835
 10
124.2926685106
 20
113.0831793748
 10
124.2934191569
 20
113.0542329027
  0
LWPOLYLINE
  5
491
100
AcDbEntity
  8
RACCORDO
100
AcDbPolyline
 62
250
  6
CONTINUOUS
 90
7
 70
0
 10
125.4649723928
 20
113.1595451384
 10
125.4658554462
 20
113.154344916
 10
125.4667294582
 20
113.144085598
 10
125.4675854799
 20
113.1288722282
 10
125.4684147469
 20
113.1088605733
 10
125.4692087686
 20
113.0842555287
 10
125.4699594151
 20
113.0553090216
  0
LWPOLYLINE
  5
492
100
AcDbEntity
  8
RACCORDO
100
AcDbPolyline
 62
250
  6
CONTINUOUS
 90
43
 70
0
 10
123.9470107827
 20
119.0950308177
 10
123.9462393768
 20
119.0998873243
 10
123.9455708922
 20
119.1047095472
 10
123.9450033206
 20
119.1094931234
 10
123.9445292383
 20
119.1142393195
 10
123.9441520914
 20
119.1189377288
 10
123.9438871749
 20
119.1235664585
 10
123.943738886
 20
119.1281191699
 10
123.9437013649
 20
119.1325929252
 10
123.9437763624
 20
119.1369712996
 10
123.9439690657
 20
119.1412496797
 10
123.9442750072
 20
119.1454239146
 10
123.9446834677
 20
119.1494790602
 10
123.9451987745
 20
119.1534070546
 10
123.9458202178
 20
119.1572087983
 10
123.9465308765
 20
119.1608835658
 10
123.9473319223
 20
119.1644242725
 10
123.9482266505
 20
119.1678320013
 10
123.9492008121
 20
119.1711180484
 10
123.9502519006
 20
119.1742759988
 10
123.9513857212
 20
119.177305951
 10
123.9525980266
 20
119.180227035
 10
123.9538835108
 20
119.1830337581
 10
123.955247692
 20
119.1857224275
 10
123.9566986398
 20
119.1883109775
 10
123.9582303107
 20
119.1907940051
 10
123.9598450475
 20
119.1931621316
 10
123.9615594032
 20
119.1954222178
 10
123.9633616438
 20
119.1975621032
 10
123.9652573841
 20
119.1995727478
 10
123.9672842718
 20
119.2014579979
 10
123.9694421696
 20
119.2032108502
 10
123.9717193633
 20
119.2048018722
 10
123.9741349189
 20
119.2061976091
 10
123.9767231384
 20
119.2073918194
 10
123.979442623
 20
119.2083508327
 10
123.9822134105
 20
119.2090264807
 10
123.9850510854
 20
119.2094216524
 10
123.9879611734
 20
119.2095494109
 10
123.9908676487
 20
119.2094223137
 10
123.9937578218
 20
119.2090711925
 10
123.9966740329
 20
119.2085230446
 10
123.9996276698
 20
119.2078032887
  0
LWPOLYLINE
  5
493
100
AcDbEntity
  8
RACCORDO
100
AcDbPolyline
 62
250
  6
CONTINUOUS
 90
5
 70
0
 10
129.1457820491
 20
82.1673124476
 10
129.1448029743
 20
82.1932100379
 10
129.141438083
 20
82.2186714987
 10
129.1357440419
 20
82.2432680455
 10
129.1278167416
 20
82.2665854589
  0
LINE
  5
494
100
AcDbEntity
  8
RACCORDO
100
AcDbLine
 62
250
  6
CONTINUOUS
 10
128.8919226203
 20
111.3020339651
 11
128.8927066857
 21
111.2502879976
  0
LINE
  5
495
100
AcDbEntity
  8
RACCORDO
100
AcDbLine
 62
250
  6
CONTINUOUS
 10
128.8919226203
 20
119.0468050608
 11
128.892510685
 21
119.0079956044
  0
LINE
  5
496
100
AcDbEntity
  8
RACCORDO
100
AcDbLine
 62
250
  6
CONTINUOUS
 10
128.8919221663
 20
85.1744901458
 11
128.89272275
 21
85.1214871598
  0
LWPOLYLINE
  5
497
100
AcDbEntity
  8
RACCORDO
100
AcDbPolyline
 62
250
  6
CONTINUOUS
 90
10
 70
0
 10
128.3749765344
 20
77.5510728228
 10
128.3751991673
 20
77.533721091
 10
128.375256216
 20
77.5168958231
 10
128.3751459458
 20
77.5011076511
 10
128.3748716992
 20
77.486835738
 10
128.3744417958
 20
77.4745132768
 10
128.3738692815
 20
77.4645143199
 10
128.373171531
 20
77.4571423721
 10
128.3723697189
 20
77.4526211973
 10
128.3714881793
 20
77.4510880532
  0
LINE
  5
498
100
AcDbEntity
  8
RACCORDO
100
AcDbLine
 62
250
  6
CONTINUOUS
 10
128.8919220366
 20
92.9692536286
 11
128.8928248313
 21
92.9079368061
  0
LWPOLYLINE
  5
499
100
AcDbEntity
  8
RACCORDO
100
AcDbPolyline
 62
250
  6
CONTINUOUS
 90
4
 70
0
 10
128.8921710716
 20
81.5087147554
 10
128.8922067827
 20
81.5050702132
 10
128.8921565723
 20
81.502835126
 10
128.8919226203
 20
81.502064426
  0
LINE
  5
49A
100
AcDbEntity
  8
RACCORDO
100
AcDbLine
 62
250
  6
CONTINUOUS
 10
128.8919226229
 20
84.1887718095
 11
128.8920695923
 21
84.1736248204
  0
LINE
  5
49B
100
AcDbEntity
  8
RACCORDO
100
AcDbLine
 62
250
  6
CONTINUOUS
 10
128.8928248313
 20
92.9079368061
 11
128.8931864282
 21
92.8713434567
  0
LINE
  5
49C
100
AcDbEntity
  8
RACCORDO
100
AcDbLine
 62
250
  6
CONTINUOUS
 10
128.8927066857
 20
111.2502879976
 11
128.8931995621
 21
111.202067021
  0
LINE
  5
49D
100
AcDbEntity
  8
RACCORDO
100
AcDbLine
 62
250
  6
CONTINUOUS
 10
128.892510685
 20
119.0079956044
 11
128.8928803465
 21
118.9718298424
  0
LINE
  5
49E
100
AcDbEntity
  8
RACCORDO
100
AcDbLine
 62
250
  6
CONTINUOUS
 10
128.89272275
 20
85.1214871598
 11
128.8932152512
 21
85.0722946247
  0
LWPOLYLINE
  5
49F
100
AcDbEntity
  8
RACCORDO
100
AcDbPolyline
 62
250
  6
CONTINUOUS
 90
3
 70
0
 10
128.8921090189
 20
119.7696896901
 10
128.8918876886
 20
119.7956590537
 10
128.8919226203
 20
122.3120905733
  0
LINE
  5
4A0
100
AcDbEntity
  8
RACCORDO
100
AcDbLine
 62
250
  6
CONTINUOUS
 10
128.8921778205
 20
119.7558718542
 11
128.8921090189
 21
119.7696896901
  0
LINE
  5
4A1
100
AcDbEntity
  8
RACCORDO
100
AcDbLine
 62
250
  6
CONTINUOUS
 10
128.8931864282
 20
92.8713434567
 11
128.8933547218
 21
92.8386584227
  0
LINE
  5
4A2
100
AcDbEntity
  8
RACCORDO
100
AcDbLine
 62
250
  6
CONTINUOUS
 10
128.8932152512
 20
85.0722946247
 11
128.8933509322
 21
85.0437901477
  0
LWPOLYLINE
  5
4A3
100
AcDbEntity
  8
RACCORDO
100
AcDbPolyline
 62
250
  6
CONTINUOUS
 90
8
 70
0
 10
128.8931995621
 20
111.202067021
 10
128.8933676734
 20
111.1606559266
 10
128.8933254665
 20
111.1434092807
 10
128.8931995655
 20
111.1288756867
 10
128.8929921237
 20
111.117303747
 10
128.8927066891
 20
111.108891388
 10
128.8923481438
 20
111.1037824871
 10
128.8919226203
 20
111.102064426
  0
LWPOLYLINE
  5
4A4
100
AcDbEntity
  8
RACCORDO
100
AcDbPolyline
 62
250
  6
CONTINUOUS
 90
8
 70
0
 10
128.8928803465
 20
118.9718298424
 10
128.8930064236
 20
118.9407714814
 10
128.892974764
 20
118.9278365054
 10
128.8928803331
 20
118.9169363251
 10
128.8927247481
 20
118.9082573827
 10
128.8925106707
 20
118.9019481213
 10
128.8922417617
 20
118.8981164507
 10
128.8919226204
 20
118.8968279065
  0
LINE
  5
4A5
100
AcDbEntity
  8
RACCORDO
100
AcDbLine
 62
250
  6
CONTINUOUS
 10
128.8933018611
 20
111.0643426579
 11
128.8933672783
 21
111.0417241216
  0
LINE
  5
4A6
100
AcDbEntity
  8
RACCORDO
100
AcDbLine
 62
250
  6
CONTINUOUS
 10
128.8933018611
 20
118.8591061384
 11
128.8933672783
 21
118.8364876021
  0
LINE
  5
4A7
100
AcDbEntity
  8
DRAFT
100
AcDbLine
 62
7
  6
CONTINUOUS
 10
127.488432139
 20
78.2356742527
 11
127.488432139
 21
79.1996383047
  0
LINE
  5
4A8
100
AcDbEntity
  8
DRAFT
100
AcDbLine
 62
7
  6
CONTINUOUS
 10
127.488432139
 20
124.6717102008
 11
127.488432139
 21
125.6356742527
  0
LINE
  5
4A9
100
AcDbEntity
  8
RACCORDO
100
AcDbLine
 62
250
  6
CONTINUOUS
 10
128.8919226203
 20
119.6825766957
 11
128.8919226203
 21
119.0468050608
  0
LINE
  5
4AA
100
AcDbEntity
  8
RACCORDO
100
AcDbLine
 62
250
  6
CONTINUOUS
 10
128.8919226203
 20
118.6968583675
 11
128.8919226203
 21
111.3020339651
  0
LINE
  5
4AB
100
AcDbEntity
  8
RACCORDO
100
AcDbLine
 62
250
  6
CONTINUOUS
 10
128.8919226203
 20
110.902094887
 11
128.8919226203
 21
92.9692536184
  0
LINE
  5
4AC
100
AcDbEntity
  8
RACCORDO
100
AcDbLine
 62
250
  6
CONTINUOUS
 10
128.8919226203
 20
92.5693145404
 11
128.8919226203
 21
85.1744901379
  0
LINE
  5
4AD
100
AcDbEntity
  8
RACCORDO
100
AcDbLine
 62
250
  6
CONTINUOUS
 10
128.8919226203
 20
84.8245434446
 11
128.8919226203
 21
84.1887718097
  0
LINE
  5
4AE
100
AcDbEntity
  8
RACCORDO
100
AcDbLine
 62
250
  6
CONTINUOUS
 10
128.8918876887
 20
84.0756894559
 11
128.8919226203
 21
81.5592579316
  0
LINE
  5
4AF
100
AcDbEntity
  8
RACCORDO
100
AcDbLine
 62
7
  6
CONTINUOUS
 10
129.088432139
 20
122.1693145404
 11
129.088432139
 21
81.7020339651
  0
LINE
  5
4B0
100
AcDbEntity
  8
RACCORDO
100
AcDbLine
 62
250
  6
CONTINUOUS
 10
129.1457820491
 20
122.1673124476
 11
129.1457820491
 21
121.7040360579
  0
LINE
  5
4B1
100
AcDbEntity
  8
RACCORDO
100
AcDbLine
 62
250
  6
CONTINUOUS
 10
129.1457820491
 20
82.1673124476
 11
129.1457820491
 21
81.7040360579
  0
LINE
  5
4B2
100
AcDbEntity
  8
RACCORDO
100
AcDbLine
 62
250
  6
CONTINUOUS
 10
128.8920695923
 20
84.1736248204
 11
128.89217782
 21
84.1154766679
  0
LWPOLYLINE
  5
4B3
100
AcDbEntity
  8
RACCORDO
100
AcDbPolyline
 62
250
  6
CONTINUOUS
 90
10
 70
0
 10
128.8933509322
 20
85.0437901477
 10
128.893348474
 20
85.0201732741
 10
128.8932918675
 20
85.0103237217
 10
128.8932026664
 20
85.0015415822
 10
128.8930870126
 20
84.9939240873
 10
128.8929376933
 20
84.9874947598
 10
128.8927451657
 20
84.9821468301
 10
128.8925090575
 20
84.9780358313
 10
128.892234377
 20
84.9754284859
 10
128.891922244
 20
84.9745206055
  0
LWPOLYLINE
  5
4B4
100
AcDbEntity
  8
RACCORDO
100
AcDbPolyline
 62
250
  6
CONTINUOUS
 90
8
 70
0
 10
128.8933547218
 20
92.8386584227
 10
128.8933262656
 20
92.810750523
 10
128.8932261228
 20
92.7987333027
 10
128.8930748191
 20
92.7884430985
 10
128.8928706725
 20
92.7802075983
 10
128.8926113432
 20
92.7742020488
 10
128.8922959218
 20
92.7705246929
 10
128.8919218206
 20
92.7692840934
  0
LINE
  5
4B5
100
AcDbEntity
  8
RACCORDO
100
AcDbLine
 62
250
  6
CONTINUOUS
 10
128.8921990217
 20
122.3575152962
 11
128.8921710716
 21
122.343137397
  0
LINE
  5
4B6
100
AcDbEntity
  8
RACCORDO
100
AcDbLine
 62
250
  6
CONTINUOUS
 10
128.8933672783
 20
118.8364876021
 11
128.8932918675
 21
118.8111053934
  0
LINE
  5
4B7
100
AcDbEntity
  8
RACCORDO
100
AcDbLine
 62
250
  6
CONTINUOUS
 10
128.8933672783
 20
111.0417241216
 11
128.8932918675
 21
111.0163419129
  0
LWPOLYLINE
  5
4B8
100
AcDbEntity
  8
RACCORDO
100
AcDbPolyline
 62
250
  6
CONTINUOUS
 90
3
 70
0
 10
128.89217782
 20
84.1154766679
 10
128.8921090189
 20
84.1016588279
 10
128.8918876887
 20
84.0756894559
  0
LINE
  5
4B9
100
AcDbEntity
  8
RACCORDO
100
AcDbLine
 62
250
  6
CONTINUOUS
 10
128.8933676734
 20
92.7106930774
 11
128.8931995655
 21
92.6692819465
  0
LINE
  5
4BA
100
AcDbEntity
  8
RACCORDO
100
AcDbLine
 62
250
  6
CONTINUOUS
 10
128.8930064236
 20
84.9305772963
 11
128.8928803331
 21
84.8995189524
  0
LWPOLYLINE
  5
4BB
100
AcDbEntity
  8
RACCORDO
100
AcDbPolyline
 62
250
  6
CONTINUOUS
 90
6
 70
0
 10
128.8919226203
 20
81.5592579564
 10
128.8918386224
 20
81.5476928988
 10
128.8919619177
 20
81.537328885
 10
128.8921710716
 20
81.5282111085
 10
128.8922688448
 20
81.5203324961
 10
128.8921710716
 20
81.5087147554
  0
LINE
  5
4BC
100
AcDbEntity
  8
RACCORDO
100
AcDbLine
 62
250
  6
CONTINUOUS
 10
128.8921710716
 20
122.343137397
 11
128.8919226203
 21
122.3120905491
  0
LWPOLYLINE
  5
4BD
100
AcDbEntity
  8
RACCORDO
100
AcDbPolyline
 62
250
  6
CONTINUOUS
 90
3
 70
0
 10
128.8919226083
 20
119.6825767275
 10
128.8920695843
 20
119.6977237138
 10
128.8921778205
 20
119.7558718542
  0
LINE
  5
4BE
100
AcDbEntity
  8
RACCORDO
100
AcDbLine
 62
250
  6
CONTINUOUS
 10
128.8932918675
 20
118.8111053934
 11
128.8929376933
 21
118.7677858355
  0
LINE
  5
4BF
100
AcDbEntity
  8
RACCORDO
100
AcDbLine
 62
250
  6
CONTINUOUS
 10
128.8932918675
 20
111.0163419129
 11
128.8929376933
 21
110.973022355
  0
LINE
  5
4C0
100
AcDbEntity
  8
RACCORDO
100
AcDbLine
 62
250
  6
CONTINUOUS
 10
128.8931995655
 20
92.6692819465
 11
128.8927066891
 21
92.6210607783
  0
LINE
  5
4C1
100
AcDbEntity
  8
RACCORDO
100
AcDbLine
 62
250
  6
CONTINUOUS
 10
128.8928803331
 20
84.8995189524
 11
128.8925106707
 21
84.8633530981
  0
LWPOLYLINE
  5
4C2
100
AcDbEntity
  8
RACCORDO
100
AcDbPolyline
 62
250
  6
CONTINUOUS
 90
10
 70
0
 10
128.3749765344
 20
126.3202756827
 10
128.3751991705
 20
126.3376278697
 10
128.375256214
 20
126.3544534308
 10
128.3751459336
 20
126.3702417226
 10
128.3748716764
 20
126.3845135822
 10
128.3744417658
 20
126.3968358692
 10
128.3738692492
 20
126.4068346114
 10
128.3731715023
 20
126.4142063544
 10
128.372369701
 20
126.4187273711
 10
128.3714881795
 20
126.4202604522
  0
LWPOLYLINE
  5
4C3
100
AcDbEntity
  8
RACCORDO
100
AcDbPolyline
 62
250
  6
CONTINUOUS
 90
3
 70
0
 10
128.8929376933
 20
118.7677858355
 10
128.892234377
 20
118.7159568005
 10
128.891922244
 20
118.6968583609
  0
LWPOLYLINE
  5
4C4
100
AcDbEntity
  8
RACCORDO
100
AcDbPolyline
 62
250
  6
CONTINUOUS
 90
3
 70
0
 10
128.8929376933
 20
110.973022355
 10
128.892234377
 20
110.9211933199
 10
128.891922244
 20
110.9020948804
  0
LINE
  5
4C5
100
AcDbEntity
  8
RACCORDO
100
AcDbLine
 62
250
  6
CONTINUOUS
 10
128.8927066891
 20
92.6210607783
 11
128.8919226203
 21
92.5693145404
  0
LINE
  5
4C6
100
AcDbEntity
  8
RACCORDO
100
AcDbLine
 62
250
  6
CONTINUOUS
 10
128.8925106707
 20
84.8633530981
 11
128.8919226204
 21
84.8245434446
  0
LWPOLYLINE
  5
4C7
100
AcDbEntity
  8
RACCORDO
100
AcDbPolyline
 62
250
  6
CONTINUOUS
 90
5
 70
0
 10
129.1457820491
 20
121.7040360579
 10
129.1448029743
 20
121.6781384676
 10
129.141438083
 20
121.6526770067
 10
129.1357440419
 20
121.62808046
 10
129.1278167416
 20
121.6047630466
  0
LWPOLYLINE
  5
4C8
100
AcDbEntity
  8
RACCORDO
100
AcDbPolyline
 62
250
  6
CONTINUOUS
 90
13
 70
0
 10
129.7457515789
 20
121.714508565
 10
129.7447725515
 20
121.6886115303
 10
129.7414077899
 20
121.6631504882
 10
129.735713926
 20
121.63855421
 10
129.7277868138
 20
121.6152369091
 10
129.7177599207
 20
121.5935912789
 10
129.7058020854
 20
121.5739818758
 10
129.6921146611
 20
121.5567389542
 10
129.6769281371
 20
121.5421529279
 10
129.6604982709
 20
121.5304694801
 10
129.6431017542
 20
121.5218853958
 10
129.6250315484
 20
121.5165452582
 10
129.6065919704
 20
121.5145390259
  0
LWPOLYLINE
  5
4C9
100
AcDbEntity
  8
RACCORDO
100
AcDbPolyline
 62
250
  6
CONTINUOUS
 90
22
 70
0
 10
126.9919226203
 20
86.2759732301
 10
126.9889964777
 20
86.2120159069
 10
126.9816574825
 20
86.1498848363
 10
126.9699056346
 20
86.0895800183
 10
126.9536557697
 20
86.0310730127
 10
126.9329930521
 20
85.9743922596
 10
126.908172975
 20
85.9196230802
 10
126.8789943389
 20
85.8663888435
 10
126.8456583434
 20
85.8150661805
 10
126.8090240802
 20
85.7668703052
 10
126.7687179164
 20
85.7218494949
 10
126.7251134851
 20
85.6799554723
 10
126.6801907771
 20
85.64225862
 10
126.6346153794
 20
85.6093487688
 10
126.587721705
 20
85.5806360879
 10
126.5394929845
 20
85.555421468
 10
126.4905223911
 20
85.5334755663
 10
126.4402167514
 20
85.5150277255
 10
126.386779776
 20
85.5000668641
 10
126.3296127016
 20
85.488589288
 10
126.2693142914
 20
85.4805986914
 10
126.2058845454
 20
85.476095074
  0
LWPOLYLINE
  5
4CA
100
AcDbEntity
  8
RACCORDO
100
AcDbPolyline
 62
7
  6
CONTINUOUS
 90
10
 70
0
 10
130.0882800993
 20
121.526939966
 10
130.0866581108
 20
121.4979968584
 10
130.0830221306
 20
121.4705371347
 10
130.0773721589
 20
121.4445607949
 10
130.0695122094
 20
121.4200050404
 10
130.0596382682
 20
121.3969326699
 10
130.0483382944
 20
121.3755320796
 10
130.0358082742
 20
121.3558660683
 10
130.0218522213
 20
121.3378718371
 10
130.0064701357
 20
121.3215493862
  0
LWPOLYLINE
  5
4CB
100
AcDbEntity
  8
RACCORDO
100
AcDbPolyline
 62
250
  6
CONTINUOUS
 90
16
 70
0
 10
125.4377165605
 20
87.491306498
 10
125.4385111827
 20
87.4962889146
 10
125.4392618017
 20
87.5014630363
 10
125.4399598242
 20
87.5068035545
 10
125.4406035357
 20
87.5122892149
 10
125.4411947045
 20
87.5179233521
 10
125.4417299835
 20
87.5237166136
 10
125.4422092555
 20
87.5296334832
 10
125.4426326675
 20
87.5356910518
 10
125.4429969025
 20
87.5419844475
 10
125.4433055199
 20
87.5484653488
 10
125.4435544845
 20
87.5551673297
 10
125.4437281021
 20
87.5623185708
 10
125.4438202237
 20
87.5699924734
 10
125.4438350452
 20
87.5780982681
 10
125.4437717555
 20
87.5866173547
  0
LWPOLYLINE
  5
4CC
100
AcDbEntity
  8
RACCORDO
100
AcDbPolyline
 62
250
  6
CONTINUOUS
 90
9
 70
0
 10
124.0849416577
 20
85.2391043391
 10
124.085367183
 20
85.2408224154
 10
124.0857257291
 20
85.2459313547
 10
124.0860111637
 20
85.2543437651
 10
124.0862186049
 20
85.2659157554
 10
124.086344505
 20
85.2804493907
 10
124.0863867108
 20
85.297696073
 10
124.0863445008
 20
85.3173608069
 10
124.0860111541
 20
85.3625634277
  0
LWPOLYLINE
  5
4CD
100
AcDbEntity
  8
RACCORDO
100
AcDbPolyline
 62
250
  6
CONTINUOUS
 90
7
 70
0
 10
124.0849416577
 20
118.6322441663
 10
124.0853671804
 20
118.6305261131
 10
124.0857257251
 20
118.6254172354
 10
124.0860111594
 20
118.6170049139
 10
124.0862186014
 20
118.6054330299
 10
124.0863445029
 20
118.5908995048
 10
124.0863867108
 20
118.573652915
  0
LWPOLYLINE
  5
4CE
100
AcDbEntity
  8
RACCORDO
100
AcDbPolyline
 62
250
  6
CONTINUOUS
 90
9
 70
0
 10
125.714203313
 20
116.2955357742
 10
125.7118672483
 20
116.3091623434
 10
125.7077739144
 20
116.3230722003
 10
125.7017640543
 20
116.3372290244
 10
125.6937800054
 20
116.3513143959
 10
125.6839816117
 20
116.3647837103
 10
125.6724420802
 20
116.3773970111
 10
125.6592108747
 20
116.3890838061
 10
125.6445574351
 20
116.3996280822
  0
LWPOLYLINE
  5
4CF
100
AcDbEntity
  8
RACCORDO
100
AcDbPolyline
 62
250
  6
CONTINUOUS
 90
13
 70
0
 10
129.088432139
 20
119.6825766957
 10
129.0868254681
 20
119.6976786682
 10
129.0819347547
 20
119.7136565409
 10
129.0737614236
 20
119.7296615881
 10
129.0624685887
 20
119.7445161596
 10
129.0482679211
 20
119.7578524832
 10
129.0313288103
 20
119.7702065876
 10
129.0119780957
 20
119.7811443767
 10
128.9906022592
 20
119.7901297017
 10
128.9674517144
 20
119.7976341651
 10
128.9429117558
 20
119.8034952029
 10
128.9175499274
 20
119.8070031194
 10
128.8919226203
 20
119.8078053674
  0
LWPOLYLINE
  5
4D0
100
AcDbEntity
  8
RACCORDO
100
AcDbPolyline
 62
250
  6
CONTINUOUS
 90
5
 70
0
 10
129.1457820491
 20
122.1673124476
 10
129.1448029743
 20
122.1932100379
 10
129.141438083
 20
122.2186714987
 10
129.1357440419
 20
122.2432680455
 10
129.1278167416
 20
122.2665854589
  0
LINE
  5
4D1
100
AcDbEntity
  8
RACCORDO
100
AcDbLine
 62
7
  6
CONTINUOUS
 10
130.0882841205
 20
122.3444162252
 11
130.0882800947
 21
121.5269376034
  0
LINE
  5
4D2
100
AcDbEntity
  8
RACCORDO
100
AcDbLine
 62
7
  6
CONTINUOUS
 10
130.0882838702
 20
82.3444158932
 11
130.0882800935
 21
81.5269376051
  0
LWPOLYLINE
  5
4D3
100
AcDbEntity
  8
RACCORDO
100
AcDbPolyline
 62
250
  6
CONTINUOUS
 90
5
 70
0
 10
129.1457820491
 20
81.7040360579
 10
129.1448029743
 20
81.6781384676
 10
129.141438083
 20
81.6526770067
 10
129.1357440419
 20
81.62808046
 10
129.1278167416
 20
81.6047630466
  0
LWPOLYLINE
  5
4D4
100
AcDbEntity
  8
RACCORDO
100
AcDbPolyline
 62
250
  6
CONTINUOUS
 90
13
 70
0
 10
129.7457515789
 20
81.714508565
 10
129.7447725515
 20
81.6886115305
 10
129.7414077899
 20
81.6631504885
 10
129.7357139261
 20
81.6385542104
 10
129.727786814
 20
81.6152369095
 10
129.7177599209
 20
81.5935912793
 10
129.7058020857
 20
81.5739818762
 10
129.6921146614
 20
81.5567389545
 10
129.6769281374
 20
81.5421529282
 10
129.6604982712
 20
81.5304694802
 10
129.6431017544
 20
81.5218853958
 10
129.6250315485
 20
81.5165452582
 10
129.6065919704
 20
81.5145390259
  0
LWPOLYLINE
  5
4D5
100
AcDbEntity
  8
RACCORDO
100
AcDbPolyline
 62
250
  6
CONTINUOUS
 90
13
 70
0
 10
129.088432139
 20
81.7020339651
 10
129.0868251128
 20
81.6833008785
 10
129.0819279501
 20
81.6653724151
 10
129.0737408534
 20
81.6483152386
 10
129.062443465
 20
81.6318539177
 10
129.0482545168
 20
81.6161748018
 10
129.0313227872
 20
81.6021207746
 10
129.0119800785
 20
81.589821885
 10
128.9906261826
 20
81.5791895235
 10
128.9674854005
 20
81.5708647186
 10
128.9429350918
 20
81.5650011958
 10
128.9175607201
 20
81.5612116822
 10
128.8919226203
 20
81.5592579564
  0
LWPOLYLINE
  5
4D6
100
AcDbEntity
  8
RACCORDO
100
AcDbPolyline
 62
250
  6
CONTINUOUS
 90
13
 70
0
 10
129.088432139
 20
84.1887718097
 10
129.0867951383
 20
84.1727797702
 10
129.0818880986
 20
84.15699495
 10
129.0737580434
 20
84.1416816999
 10
129.0624929807
 20
84.1270854714
 10
129.0482575919
 20
84.1134776374
 10
129.0313229625
 20
84.1011381783
 10
129.0119892979
 20
84.0902836902
 10
128.9905694337
 20
84.0810879273
 10
128.9674476968
 20
84.0737132583
 10
128.9430255578
 20
84.0682805495
 10
128.9177084641
 20
84.0648732066
 10
128.8919226203
 20
84.063543138
  0
LWPOLYLINE
  5
4D7
100
AcDbEntity
  8
RACCORDO
100
AcDbPolyline
 62
250
  6
CONTINUOUS
 90
6
 70
0
 10
134.2729557913
 20
123.9001679733
 10
134.2726119343
 20
123.8984580692
 10
134.2708412133
 20
123.8937047292
 10
134.2676736422
 20
123.8859885235
 10
134.2631629121
 20
123.8754402432
 10
134.2573854807
 20
123.8622386838
  0
LWPOLYLINE
  5
4D8
100
AcDbEntity
  8
RACCORDO
100
AcDbPolyline
 62
250
  6
CONTINUOUS
 90
8
 70
0
 10
126.2058845454
 20
85.2761255349
 10
126.2063100681
 20
85.2778435882
 10
126.2066686128
 20
85.2829524658
 10
126.2069540471
 20
85.2913647874
 10
126.2071614891
 20
85.3029366714
 10
126.2072873907
 20
85.3174701965
 10
126.2073295985
 20
85.3347167862
 10
126.2071614891
 20
85.376127883
  0
LWPOLYLINE
  5
4D9
100
AcDbEntity
  8
RACCORDO
100
AcDbPolyline
 62
250
  6
CONTINUOUS
 90
9
 70
0
 10
123.9694049603
 20
93.1871715034
 10
123.9674828724
 20
93.1843527526
 10
123.9656534481
 20
93.1814571462
 10
123.9639084895
 20
93.1784880954
 10
123.9622512155
 20
93.175458384
 10
123.960684026
 20
93.172373263
 10
123.9591956001
 20
93.1692217917
 10
123.9577860695
 20
93.1660172331
 10
123.9564590182
 20
93.1627593261
  0
LINE
  5
4DA
100
AcDbEntity
  8
RACCORDO
100
AcDbLine
 62
7
  6
CONTINUOUS
 10
125.3879536321
 20
116.4343912268
 11
125.3875595187
 21
116.435659018
  0
LWPOLYLINE
  5
4DB
100
AcDbEntity
  8
RACCORDO
100
AcDbPolyline
 62
250
  6
CONTINUOUS
 90
7
 70
0
 10
126.2058845454
 20
118.5952229705
 10
126.2063100798
 20
118.5935048165
 10
126.2066686308
 20
118.5883956678
 10
126.2069540667
 20
118.5799829541
 10
126.2071615062
 20
118.5684105966
 10
126.2072874019
 20
118.5538765751
 10
126.2073296011
 20
118.5366295655
  0
LINE
  5
4DC
100
AcDbEntity
  8
RACCORDO
100
AcDbLine
 62
250
  6
CONTINUOUS
 10
132.776156067
 20
79.4398023964
 11
132.7753676223
 21
79.4918916458
  0
LINE
  5
4DD
100
AcDbEntity
  8
RACCORDO
100
AcDbLine
 62
250
  6
CONTINUOUS
 10
132.7766491364
 20
79.3913011509
 11
132.776156067
 21
79.4398023964
  0
LWPOLYLINE
  5
4DE
100
AcDbEntity
  8
RACCORDO
100
AcDbPolyline
 62
250
  6
CONTINUOUS
 90
7
 70
0
 10
132.776812194
 20
124.5227966197
 10
132.7767597338
 20
124.539976903
 10
132.7766222292
 20
124.5542860032
 10
132.7764060424
 20
124.5653992135
 10
132.7761197601
 20
124.5732467
 10
132.7757707545
 20
124.5778969095
 10
132.7753676223
 20
124.5794263986
  0
LINE
  5
4DF
100
AcDbEntity
  8
RACCORDO
100
AcDbLine
 62
250
  6
CONTINUOUS
 10
132.776656496
 20
124.4810665193
 11
132.776812194
 21
124.5227966197
  0
LINE
  5
4E0
100
AcDbEntity
  8
RACCORDO
100
AcDbLine
 62
250
  6
CONTINUOUS
 10
132.7761631873
 20
124.4321061817
 11
132.776656496
 21
124.4810665193
  0
LINE
  5
4E1
100
AcDbEntity
  8
RACCORDO
100
AcDbLine
 62
250
  6
CONTINUOUS
 10
132.7753676223
 20
124.3794568596
 11
132.7761631873
 21
124.4321061817
  0
LWPOLYLINE
  5
4E2
100
AcDbEntity
  8
RACCORDO
100
AcDbPolyline
 62
7
  6
CONTINUOUS
 90
10
 70
0
 10
130.0882800981
 20
81.5269399567
 10
130.0866581
 20
81.4979968094
 10
130.0830221111
 20
81.4705370573
 10
130.0773721313
 20
81.4445607005
 10
130.069512172
 20
81.4200049418
 10
130.059638222
 20
81.3969325784
 10
130.0483382467
 20
81.3755320019
 10
130.0358082349
 20
81.3558660097
 10
130.0218521979
 20
81.3378718045
 10
130.0064701357
 20
81.3215493862
  0
LWPOLYLINE
  5
4E3
100
AcDbEntity
  8
RACCORDO
100
AcDbPolyline
 62
250
  6
CONTINUOUS
 90
7
 70
0
 10
123.982914067
 20
93.201908336
 10
123.9803951364
 20
93.1997577225
 10
123.9780044554
 20
93.1974743732
 10
123.9757111361
 20
93.1950616219
 10
123.9735115848
 20
93.1925318778
 10
123.9714144848
 20
93.189901042
 10
123.9694049603
 20
93.1871715034
  0
LWPOLYLINE
  5
4E4
100
AcDbEntity
  8
RACCORDO
100
AcDbPolyline
 62
250
  6
CONTINUOUS
 90
4
 70
0
 10
124.059270301
 20
119.1632493238
 10
124.0673678068
 20
119.1458017449
 10
124.0731441147
 20
119.1263355988
 10
124.0764623583
 20
119.1053121255
  0
LWPOLYLINE
  5
4E5
100
AcDbEntity
  8
RACCORDO
100
AcDbPolyline
 62
250
  6
CONTINUOUS
 90
8
 70
0
 10
128.8919221663
 20
111.1020644181
 10
128.8922263563
 20
111.1012712349
 10
128.8924925096
 20
111.0988871057
 10
128.89272275
 20
111.0949316244
 10
128.8929209456
 20
111.0894208378
 10
128.8930868707
 20
111.0824076103
 10
128.8932152512
 20
111.0740190989
 10
128.8933018611
 20
111.0643426579
  0
LWPOLYLINE
  5
4E6
100
AcDbEntity
  8
RACCORDO
100
AcDbPolyline
 62
250
  6
CONTINUOUS
 90
5
 70
0
 10
128.8919226203
 20
122.3692840794
 10
128.8920323562
 20
122.3685400539
 10
128.8921153787
 20
122.3663177811
 10
128.8921710716
 20
122.36263375
 10
128.8921990217
 20
122.3575152962
  0
LINE
  5
4E7
100
AcDbEntity
  8
RACCORDO
100
AcDbLine
 62
250
  6
CONTINUOUS
 10
134.1919226203
 20
123.7189064159
 11
134.1919226203
 21
120.726331352
  0
LINE
  5
4E8
100
AcDbEntity
  8
RACCORDO
100
AcDbLine
 62
250
  6
CONTINUOUS
 10
134.1919226203
 20
83.1450171534
 11
134.1919226203
 21
80.1524420896
  0
LINE
  5
4E9
100
AcDbEntity
  8
RACCORDO
100
AcDbLine
 62
7
  6
CONTINUOUS
 10
134.388432139
 20
123.7189064159
 11
134.388432139
 21
120.726331352
  0
LINE
  5
4EA
100
AcDbEntity
  8
RACCORDO
100
AcDbLine
 62
7
  6
CONTINUOUS
 10
134.388432139
 20
83.1450171534
 11
134.388432139
 21
80.1524420896
  0
LINE
  5
4EB
100
AcDbEntity
  8
RACCORDO
100
AcDbLine
 62
250
  6
CONTINUOUS
 10
125.4649723928
 20
90.711803367
 11
125.4402628641
 21
90.6870938383
  0
LINE
  5
4EC
100
AcDbEntity
  8
RACCORDO
100
AcDbLine
 62
250
  6
CONTINUOUS
 10
125.7638310992
 20
90.4114843525
 11
125.7401260337
 21
90.387779287
  0
LWPOLYLINE
  5
4ED
100
AcDbEntity
  8
RACCORDO
100
AcDbPolyline
 62
250
  6
CONTINUOUS
 90
30
 70
0
 10
124.3011870548
 20
93.1142228098
 10
124.293385196
 20
93.1111993638
 10
124.2859395709
 20
93.1080661477
 10
124.2788537485
 20
93.1048328546
 10
124.272126409
 20
93.1015053368
 10
124.2657201731
 20
93.0980813993
 10
124.2596348627
 20
93.0945687776
 10
124.2538724241
 20
93.0909719789
 10
124.2483982917
 20
93.0872816145
 10
124.2432085767
 20
93.0835022131
 10
124.2383084708
 20
93.0796384492
 10
124.2336766893
 20
93.07567908
 10
124.2293092718
 20
93.0716270898
 10
124.2252111682
 20
93.067486734
 10
124.2213742141
 20
93.0632472339
 10
124.217796033
 20
93.0589126227
 10
124.2144798216
 20
93.0544851167
 10
124.2114255846
 20
93.0499501614
 10
124.2086309487
 20
93.045314646
 10
124.2060989925
 20
93.0405773821
 10
124.2038376838
 20
93.0357106174
 10
124.2018410604
 20
93.0307247825
 10
124.2001156611
 20
93.0256147618
 10
124.1986879113
 20
93.0203281964
 10
124.1975451157
 20
93.0148716867
 10
124.1967004091
 20
93.0092440763
 10
124.1962186711
 20
93.0033804633
 10
124.1961216417
 20
92.9972615553
 10
124.1963881357
 20
92.9909144976
 10
124.197018631
 20
92.9843446274
  0
LINE
  5
4EE
100
AcDbEntity
  8
RACCORDO
100
AcDbLine
 62
250
  6
CONTINUOUS
 10
124.3093748913
 20
93.1171309442
 11
124.3011870548
 21
93.1142228098
  0
LWPOLYLINE
  5
4EF
100
AcDbEntity
  8
RACCORDO
100
AcDbPolyline
 62
250
  6
CONTINUOUS
 90
9
 70
0
 10
124.1732711182
 20
110.7842690201
 10
124.1634960995
 20
110.7875323315
 10
124.1543216393
 20
110.7902205743
 10
124.1457241619
 20
110.792621365
 10
124.1376895073
 20
110.7946615338
 10
124.1301586682
 20
110.7962216969
 10
124.123084118
 20
110.7975959958
 10
124.1164583479
 20
110.7987755065
 10
124.1102560787
 20
110.799650999
  0
LINE
  5
4F0
100
AcDbEntity
  8
RACCORDO
100
AcDbLine
 62
250
  6
CONTINUOUS
 10
124.1949831344
 20
110.7763933584
 11
124.1732711182
 21
110.7842690201
  0
LINE
  5
4F1
100
AcDbEntity
  8
RACCORDO
100
AcDbLine
 62
250
  6
CONTINUOUS
 10
125.4402628641
 20
113.1842546672
 11
125.4649723928
 21
113.1595451384
  0
LINE
  5
4F2
100
AcDbEntity
  8
RACCORDO
100
AcDbLine
 62
250
  6
CONTINUOUS
 10
125.7401260337
 20
113.4835692184
 11
125.7638310992
 21
113.4598641529
  0
LINE
  5
4F3
100
AcDbEntity
  8
RACCORDO
100
AcDbLine
 62
250
  6
CONTINUOUS
 10
124.0490434642
 20
119.1782649242
 11
124.059270301
 21
119.1632493238
  0
LWPOLYLINE
  5
4F4
100
AcDbEntity
  8
RACCORDO
100
AcDbPolyline
 62
250
  6
CONTINUOUS
 90
7
 70
0
 10
134.2469064799
 20
83.3362781046
 10
134.2468247794
 20
83.3345254747
 10
134.2457504418
 20
83.3295513258
 10
134.2437017299
 20
83.3214402145
 10
134.2407134721
 20
83.3103300306
 10
134.2368364659
 20
83.2964096358
 10
134.2321366096
 20
83.2799156394
  0
LWPOLYLINE
  5
4F5
100
AcDbEntity
  8
RACCORDO
100
AcDbPolyline
 62
250
  6
CONTINUOUS
 90
22
 70
0
 10
124.2583789116
 20
93.1169750027
 10
124.2460425832
 20
93.1131615545
 10
124.2343061108
 20
93.1092396919
 10
124.2232655945
 20
93.1053498556
 10
124.2129028797
 20
93.1015917824
 10
124.2031442811
 20
93.0979734611
 10
124.1939854628
 20
93.0945300728
 10
124.1854073232
 20
93.0913692204
 10
124.1773277269
 20
93.0885168701
 10
124.1696624369
 20
93.0858746061
 10
124.1624234246
 20
93.0835021191
 10
124.1555333617
 20
93.0814519703
 10
124.1488053516
 20
93.0795682095
 10
124.1422317873
 20
93.0778415755
 10
124.135798702
 20
93.0763376268
 10
124.1293373603
 20
93.0749601534
 10
124.1228447405
 20
93.073686689
 10
124.1163332616
 20
93.0725578615
 10
124.109678035
 20
93.0715356259
 10
124.1028546077
 20
93.0705997434
 10
124.0959309914
 20
93.0697645256
 10
124.0889343512
 20
93.069030123
  0
LWPOLYLINE
  5
4F6
100
AcDbEntity
  8
RACCORDO
100
AcDbPolyline
 62
250
  6
CONTINUOUS
 90
5
 70
0
 10
124.0175561737
 20
110.6603071152
 10
124.0316909057
 20
110.664229371
 10
124.044930716
 20
110.6718478043
 10
124.0569372408
 20
110.6829675992
 10
124.0674035851
 20
110.6973043586
  0
LINE
  5
4F7
100
AcDbEntity
  8
RACCORDO
100
AcDbLine
 62
250
  6
CONTINUOUS
 10
126.688432139
 20
110.8845680332
 11
124.3843974878
 21
110.5607570802
  0
LINE
  5
4F8
100
AcDbEntity
  8
RACCORDO
100
AcDbLine
 62
250
  6
CONTINUOUS
 10
124.2452378793
 20
110.5558676783
 11
123.9457820491
 21
110.5137819059
  0
LINE
  5
4F9
100
AcDbEntity
  8
RACCORDO
100
AcDbLine
 62
7
  6
CONTINUOUS
 10
126.688432139
 20
111.0356742527
 11
124.0175561738
 21
110.6603071152
  0
LINE
  5
4FA
100
AcDbEntity
  8
RACCORDO
100
AcDbLine
 62
250
  6
CONTINUOUS
 10
124.197018631
 20
110.8870038781
 11
126.688432139
 21
111.2371492121
  0
LINE
  5
4FB
100
AcDbEntity
  8
RACCORDO
100
AcDbLine
 62
250
  6
CONTINUOUS
 10
124.0681329456
 20
110.8039096884
 11
123.9470107827
 21
110.7869601365
  0
LWPOLYLINE
  5
4FC
100
AcDbEntity
  8
RACCORDO
100
AcDbPolyline
 62
250
  6
CONTINUOUS
 90
9
 70
0
 10
124.0175498435
 20
110.6603082046
 10
124.015703982
 20
110.6600795221
 10
124.0138730288
 20
110.6599147784
 10
124.012054501
 20
110.6598130597
 10
124.0102440806
 20
110.6597733146
 10
124.0084402025
 20
110.6597941571
 10
124.0066444102
 20
110.6598736648
 10
124.0048549449
 20
110.6600094835
 10
124.003066963
 20
110.6601990778
  0
LINE
  5
4FD
100
AcDbEntity
  8
RACCORDO
100
AcDbLine
 62
250
  6
CONTINUOUS
 10
123.9457820491
 20
110.5137819059
 11
123.888432139
 21
110.5117669049
  0
LINE
  5
4FE
100
AcDbEntity
  8
RACCORDO
100
AcDbLine
 62
250
  6
CONTINUOUS
 10
124.3843974878
 20
110.5607570802
 11
124.2452378793
 21
110.5558676783
  0
LINE
  5
4FF
100
AcDbEntity
  8
RACCORDO
100
AcDbLine
 62
250
  6
CONTINUOUS
 10
126.6887974532
 20
110.8636391942
 11
128.8919226203
 21
110.902094887
  0
LINE
  5
500
100
AcDbEntity
  8
RACCORDO
100
AcDbLine
 62
7
  6
CONTINUOUS
 10
128.8919226203
 20
111.102064426
 11
126.688432139
 21
111.0636023566
  0
LINE
  5
501
100
AcDbEntity
  8
RACCORDO
100
AcDbLine
 62
250
  6
CONTINUOUS
 10
128.8919226203
 20
111.3020339651
 11
126.688432139
 21
111.2635718956
  0
LINE
  5
502
100
AcDbEntity
  8
RACCORDO
100
AcDbLine
 62
7
  6
CONTINUOUS
 10
126.2058845454
 20
111.2761255349
 11
124.0849416577
 21
111.2391043391
  0
LINE
  5
503
100
AcDbEntity
  8
RACCORDO
100
AcDbLine
 62
250
  6
CONTINUOUS
 10
123.9470107827
 20
110.7869601363
 11
123.888432139
 21
110.7869601363
  0
LINE
  5
504
100
AcDbEntity
  8
RACCORDO
100
AcDbLine
 62
250
  6
CONTINUOUS
 10
124.197018631
 20
110.8870038781
 11
124.0590877573
 21
110.887003868
  0
LINE
  5
505
100
AcDbEntity
  8
RACCORDO
100
AcDbLine
 62
250
  6
CONTINUOUS
 10
129.088432139
 20
110.902094887
 11
128.8919226203
 21
110.902094887
  0
LWPOLYLINE
  5
506
100
AcDbEntity
  8
RACCORDO
100
AcDbPolyline
 62
250
  6
CONTINUOUS
 90
8
 70
0
 10
124.444105906
 20
110.7294192211
 10
124.4203125438
 20
110.7297564217
 10
124.3974741869
 20
110.730749454
 10
124.3756537341
 20
110.7323663005
 10
124.3547441383
 20
110.7345510065
 10
124.3347324735
 20
110.7372869898
 10
124.3156605607
 20
110.7405397592
 10
124.2974884554
 20
110.7442191948
  0
LWPOLYLINE
  5
507
100
AcDbEntity
  8
RACCORDO
100
AcDbPolyline
 62
250
  6
CONTINUOUS
 90
7
 70
0
 10
124.088999692
 20
110.8021178498
 10
124.085554866
 20
110.8024343781
 10
124.0820939592
 20
110.802733346
 10
124.0786217828
 20
110.8030151814
 10
124.0751434681
 20
110.8032802681
 10
124.0716644726
 20
110.8035289446
 10
124.0681905851
 20
110.803761502
  0
LWPOLYLINE
  5
508
100
AcDbEntity
  8
RACCORDO
100
AcDbPolyline
 62
250
  6
CONTINUOUS
 90
3
 70
0
 10
124.3937940533
 20
110.7356661055
 10
124.4213118138
 20
110.7329736283
 10
124.450352274
 20
110.7315313604
  0
LWPOLYLINE
  5
509
100
AcDbEntity
  8
RACCORDO
100
AcDbPolyline
 62
250
  6
CONTINUOUS
 90
4
 70
0
 10
124.1102560787
 20
110.799650999
 10
124.0989365121
 20
110.8011662108
 10
124.0937988336
 20
110.8017404336
 10
124.088999692
 20
110.8021178498
  0
LINE
  5
50A
100
AcDbEntity
  8
RACCORDO
100
AcDbLine
 62
250
  6
CONTINUOUS
 10
124.003066963
 20
110.6601990778
 11
124.0012773564
 21
110.6604397932
  0
LINE
  5
50B
100
AcDbEntity
  8
RACCORDO
100
AcDbLine
 62
250
  6
CONTINUOUS
 10
124.3678598084
 20
110.7395313309
 11
124.3937940533
 21
110.7356661055
  0
LWPOLYLINE
  5
50C
100
AcDbEntity
  8
RACCORDO
100
AcDbPolyline
 62
250
  6
CONTINUOUS
 90
3
 70
0
 10
124.2974884554
 20
110.7442191948
 10
124.2801822932
 20
110.7483296886
 10
124.2637697193
 20
110.7528262328
  0
LWPOLYLINE
  5
50D
100
AcDbEntity
  8
RACCORDO
100
AcDbPolyline
 62
250
  6
CONTINUOUS
 90
5
 70
0
 10
124.2637697193
 20
110.7528262328
 10
124.2482663395
 20
110.7575049458
 10
124.2336078744
 20
110.762304897
 10
124.2198098413
 20
110.7671983923
 10
124.1949831344
 20
110.7763933584
  0
LWPOLYLINE
  5
50E
100
AcDbEntity
  8
RACCORDO
100
AcDbPolyline
 62
250
  6
CONTINUOUS
 90
10
 70
0
 10
123.8884321623
 20
112.7710560265
 10
123.9292802992
 20
112.7484319615
 10
123.9712374996
 20
112.7282973521
 10
124.0143037634
 20
112.7106521982
 10
124.0584358809
 20
112.6954189351
 10
124.1036770618
 20
112.6826751276
 10
124.1501569355
 20
112.6726534703
 10
124.1979187116
 20
112.6654315281
 10
124.2469191805
 20
112.660931736
 10
124.2971583422
 20
112.6591540941
  0
LWPOLYLINE
  5
50F
100
AcDbEntity
  8
RACCORDO
100
AcDbPolyline
 62
250
  6
CONTINUOUS
 90
3
 70
0
 10
125.7339003174
 20
116.4476650107
 10
125.7214061457
 20
116.4601031291
 10
125.6998000743
 20
116.4776011037
  0
LWPOLYLINE
  5
510
100
AcDbEntity
  8
RACCORDO
100
AcDbPolyline
 62
250
  6
CONTINUOUS
 90
8
 70
0
 10
128.8919221663
 20
118.8968278986
 10
128.8922263563
 20
118.8960347155
 10
128.8924925096
 20
118.8936505862
 10
128.89272275
 20
118.889695105
 10
128.8929209456
 20
118.8841843183
 10
128.8930868707
 20
118.8771710908
 10
128.8932152512
 20
118.8687825794
 10
128.8933018611
 20
118.8591061384
  0
LWPOLYLINE
  5
511
100
AcDbEntity
  8
RACCORDO
100
AcDbPolyline
 62
250
  6
CONTINUOUS
 90
8
 70
0
 10
132.7753676223
 20
79.2919221068
 10
132.7757831397
 20
79.2935543265
 10
132.7761376189
 20
79.2984581568
 10
132.7764236884
 20
79.3066257938
 10
132.7766352783
 20
79.3180199597
 10
132.7767662955
 20
79.3324997403
 10
132.7768126044
 20
79.3497568761
 10
132.7766491364
 20
79.3913011509
  0
LWPOLYLINE
  5
512
100
AcDbEntity
  8
RACCORDO
100
AcDbPolyline
 62
250
  6
CONTINUOUS
 90
9
 70
0
 10
129.1278167416
 20
81.6047630466
 10
129.1177896823
 20
81.5831174443
 10
129.105831725
 20
81.5635081768
 10
129.0921442481
 20
81.5462654748
 10
129.0769577562
 20
81.5316797146
 10
129.060527998
 20
81.5199965283
 10
129.0431316595
 20
81.5114126671
 10
129.0250617044
 20
81.5060726879
 10
129.0066224406
 20
81.5040665188
  0
LWPOLYLINE
  5
513
100
AcDbEntity
  8
RACCORDO
100
AcDbPolyline
 62
250
  6
CONTINUOUS
 90
11
 70
0
 10
125.6481082176
 20
87.4740758932
 10
125.6600406001
 20
87.4829085736
 10
125.6707876437
 20
87.4923436239
 10
125.6803575426
 20
87.5023043571
 10
125.6887165795
 20
87.5126584958
 10
125.6958884904
 20
87.5233407696
 10
125.7018846482
 20
87.534292012
 10
125.7067055317
 20
87.5453943434
 10
125.710375387
 20
87.556501167
 10
125.7129351366
 20
87.5675108674
 10
125.7144266803
 20
87.5783725731
  0
LWPOLYLINE
  5
514
100
AcDbEntity
  8
RACCORDO
100
AcDbPolyline
 62
250
  6
CONTINUOUS
 90
4
 70
0
 10
125.6854732151
 20
87.3840248703
 10
125.7050428479
 20
87.3975435654
 10
125.7227360787
 20
87.4123696038
 10
125.7338400403
 20
87.4233028613
  0
LWPOLYLINE
  5
515
100
AcDbEntity
  8
RACCORDO
100
AcDbPolyline
 62
250
  6
CONTINUOUS
 90
7
 70
0
 10
124.0849416577
 20
111.4390738782
 10
124.0499115798
 20
111.4368206679
 10
124.0157928985
 20
111.4317642263
 10
123.9825856138
 20
111.4239045534
 10
123.9502897256
 20
111.413241649
 10
123.918905234
 20
111.3997755133
 10
123.888432139
 20
111.3835061462
  0
LWPOLYLINE
  5
516
100
AcDbEntity
  8
RACCORDO
100
AcDbPolyline
 62
250
  6
CONTINUOUS
 90
19
 70
0
 10
125.4736985961
 20
112.660230371
 10
125.5453288349
 20
112.6640040056
 10
125.6145841744
 20
112.6732283605
 10
125.6814646145
 20
112.6879034357
 10
125.7461028894
 20
112.7082004351
 10
125.808366265
 20
112.7339481548
 10
125.8678565386
 20
112.7646329829
 10
125.9248365495
 20
112.8003797857
 10
125.9790434584
 20
112.841063697
 10
126.0292905445
 20
112.8857965064
 10
126.0753463441
 20
112.9342275014
 10
126.117442321
 20
112.9867073946
 10
126.1550861459
 20
113.0434001132
 10
126.1886543453
 20
113.1048228023
 10
126.2177703928
 20
113.1704583168
 10
126.2408123798
 20
113.2389191488
 10
126.2572396702
 20
113.3097427955
 10
126.2675929002
 20
113.3833917596
 10
126.2718720698
 20
113.4598660411
  0
LINE
  5
517
100
AcDbEntity
  8
RACCORDO
100
AcDbLine
 62
250
  6
CONTINUOUS
 10
126.2058845454
 20
111.476095074
 11
124.0849416577
 21
111.4390738782
  0
LINE
  5
518
100
AcDbEntity
  8
RACCORDO
100
AcDbLine
 62
250
  6
CONTINUOUS
 10
124.2971583422
 20
112.6591540941
 11
125.4736985961
 21
112.660230371
  0
LINE
  5
519
100
AcDbEntity
  8
RACCORDO
100
AcDbLine
 62
250
  6
CONTINUOUS
 10
129.088432139
 20
111.3020339651
 11
128.8919226203
 21
111.3020339651
  0
LINE
  5
51A
100
AcDbEntity
  8
RACCORDO
100
AcDbLine
 62
250
  6
CONTINUOUS
 10
127.188432139
 20
112.2759732301
 11
126.9919226203
 21
112.2759732301
  0
LWPOLYLINE
  5
51B
100
AcDbEntity
  8
RACCORDO
100
AcDbPolyline
 62
250
  6
CONTINUOUS
 90
13
 70
0
 10
124.4312232733
 20
113.4523823956
 10
124.417511858
 20
113.4538852516
 10
124.4040755369
 20
113.4578890345
 10
124.3911406298
 20
113.4643262558
 10
124.3789250105
 20
113.473088435
 10
124.3676344125
 20
113.4840279437
 10
124.3574589694
 20
113.4969605059
 10
124.3485699926
 20
113.5116683734
 10
124.3411172599
 20
113.5279037103
 10
124.3352263796
 20
113.5453927035
 10
124.3309964766
 20
113.5638406002
 10
124.3284986212
 20
113.5829367599
 10
124.3277747516
 20
113.6023595563
  0
LWPOLYLINE
  5
51C
100
AcDbEntity
  8
RACCORDO
100
AcDbPolyline
 62
250
  6
CONTINUOUS
 90
10
 70
0
 10
124.6714184907
 20
113.4481897725
 10
124.6531868935
 20
113.4507516072
 10
124.6355789061
 20
113.4577226525
 10
124.6191211858
 20
113.4688944035
 10
124.6043059849
 20
113.4839327117
 10
124.5915764279
 20
113.5023877794
 10
124.5813132574
 20
113.5237076134
 10
124.5738234463
 20
113.5472545347
 10
124.5693310156
 20
113.5723242519
 10
124.5679703345
 20
113.5981669268
  0
LWPOLYLINE
  5
51D
100
AcDbEntity
  8
RACCORDO
100
AcDbPolyline
 62
250
  6
CONTINUOUS
 90
9
 70
0
 10
129.1278167416
 20
122.2665854589
 10
129.1177896823
 20
122.2882310611
 10
129.105831725
 20
122.3078403286
 10
129.0921442481
 20
122.3250830307
 10
129.0769577562
 20
122.3396687909
 10
129.060527998
 20
122.3513519771
 10
129.0431316595
 20
122.3599358383
 10
129.0250617044
 20
122.3652758175
 10
129.0066224406
 20
122.3672819866
  0
LINE
  5
51E
100
AcDbEntity
  8
RACCORDO
100
AcDbLine
 62
250
  6
CONTINUOUS
 10
134.2321366096
 20
83.2799156394
 11
134.2206005289
 21
83.2403672911
  0
LINE
  5
51F
100
AcDbEntity
  8
RACCORDO
100
AcDbLine
 62
250
  6
CONTINUOUS
 10
134.2206005289
 20
83.2403672911
 11
134.2068863389
 21
83.1943628153
  0
LINE
  5
520
100
AcDbEntity
  8
RACCORDO
100
AcDbLine
 62
250
  6
CONTINUOUS
 10
134.2068863389
 20
83.1943628153
 11
134.1919226203
 21
83.1450171534
  0
LWPOLYLINE
  5
521
100
AcDbEntity
  8
RACCORDO
100
AcDbPolyline
 62
250
  6
CONTINUOUS
 90
9
 70
0
 10
124.2982917149
 20
84.7417365029
 10
124.2844558048
 20
84.7325660614
 10
124.2722219333
 20
84.7203264132
 10
124.2618793026
 20
84.7053068969
 10
124.2536724072
 20
84.6878625659
 10
124.2477952539
 20
84.6684057948
 10
124.2443867754
 20
84.6473965315
 10
124.2435275466
 20
84.6253314238
 10
124.2452378793
 20
84.6027320793
  0
LWPOLYLINE
  5
522
100
AcDbEntity
  8
RACCORDO
100
AcDbPolyline
 62
250
  6
CONTINUOUS
 90
28
 70
0
 10
125.4578773973
 20
87.4476001743
 10
125.4626232642
 20
87.4501679058
 10
125.4672837144
 20
87.4529864959
 10
125.4718283186
 20
87.4560361692
 10
125.476243734
 20
87.4593050246
 10
125.4805279866
 20
87.4627889974
 10
125.4846704755
 20
87.4664749802
 10
125.4886569241
 20
87.4703456356
 10
125.4924901603
 20
87.4743989147
 10
125.4961842147
 20
87.4786463241
 10
125.4997304961
 20
87.4830794749
 10
125.5031233555
 20
87.4876922756
 10
125.5063764062
 20
87.4925049768
 10
125.5094890734
 20
87.4975278557
 10
125.5124413702
 20
87.5027404074
 10
125.5152170092
 20
87.5081171908
 10
125.5178031746
 20
87.5136367594
 10
125.5201995479
 20
87.5193024097
 10
125.5224088663
 20
87.5251248922
 10
125.5244130558
 20
87.5310683742
 10
125.5262153558
 20
87.5371500033
 10
125.5278364408
 20
87.5434653322
 10
125.5292628091
 20
87.5500491107
 10
125.5304630994
 20
87.5568529134
 10
125.5314207747
 20
87.5638492674
 10
125.5321186442
 20
87.5710198569
 10
125.5325365751
 20
87.5783560414
 10
125.5326560342
 20
87.5858415902
  0
LWPOLYLINE
  5
523
100
AcDbEntity
  8
RACCORDO
100
AcDbPolyline
 62
250
  6
CONTINUOUS
 90
22
 70
0
 10
125.4125140066
 20
113.4360946033
 10
125.4139934848
 20
113.4362630356
 10
125.4154427258
 20
113.4367090989
 10
125.4168617217
 20
113.4374219397
 10
125.4182446531
 20
113.4383841315
 10
125.4195974459
 20
113.4395875934
 10
125.4209374636
 20
113.4410483479
 10
125.4222735888
 20
113.442779859
 10
125.4235964311
 20
113.4447738929
 10
125.4248957208
 20
113.4470244751
 10
125.4261722736
 20
113.4495316495
 10
125.4274249589
 20
113.4522907577
 10
125.4286407439
 20
113.4552823265
 10
125.4298174093
 20
113.4584946483
 10
125.4309571481
 20
113.4619237313
 10
125.4320536868
 20
113.4655565452
 10
125.4331049028
 20
113.469375965
 10
125.4341130266
 20
113.4733799311
 10
125.4350782658
 20
113.4775797077
 10
125.4360008996
 20
113.48196706
 10
125.4368806181
 20
113.4865359902
 10
125.4377165605
 20
113.491306498
  0
LWPOLYLINE
  5
524
100
AcDbEntity
  8
RACCORDO
100
AcDbPolyline
 62
250
  6
CONTINUOUS
 90
7
 70
0
 10
125.5300719107
 20
113.3381618146
 10
125.5602157694
 20
113.3406311466
 10
125.5886621715
 20
113.3451702828
 10
125.6154111172
 20
113.3517792233
 10
125.6405222548
 20
113.3607121217
 10
125.663935936
 20
113.3717148244
 10
125.6854732151
 20
113.3840248703
  0
LWPOLYLINE
  5
525
100
AcDbEntity
  8
RACCORDO
100
AcDbPolyline
 62
250
  6
CONTINUOUS
 90
8
 70
0
 10
125.5300711097
 20
113.4381465701
 10
125.5502305197
 20
113.4393641143
 10
125.5694547929
 20
113.4421838229
 10
125.5876167785
 20
113.4464271077
 10
125.60460419
 20
113.4518976296
 10
125.6203639541
 20
113.4584193733
 10
125.6348874097
 20
113.4658672232
 10
125.6481082176
 20
113.4740758932
  0
LWPOLYLINE
  5
526
100
AcDbEntity
  8
RACCORDO
100
AcDbPolyline
 62
250
  6
CONTINUOUS
 90
6
 70
0
 10
125.4125240294
 20
113.4360947782
 10
125.417868363
 20
113.4363306719
 10
125.4231361108
 20
113.4368433874
 10
125.42831721
 20
113.4376218959
 10
125.4333724531
 20
113.438648188
 10
125.4383239125
 20
113.4399144644
  0
LWPOLYLINE
  5
527
100
AcDbEntity
  8
RACCORDO
100
AcDbPolyline
 62
250
  6
CONTINUOUS
 90
19
 70
0
 10
125.4649722247
 20
113.1595453066
 10
125.4916258222
 20
113.1606748899
 10
125.5177223047
 20
113.1641087233
 10
125.5430740024
 20
113.169732888
 10
125.5674021422
 20
113.1773809595
 10
125.5906711831
 20
113.1869366298
 10
125.6130521636
 20
113.1984255801
 10
125.6344881084
 20
113.2118389186
 10
125.6547134287
 20
113.2270323878
 10
125.6735668728
 20
113.243884932
 10
125.6908012817
 20
113.2621426366
 10
125.7064324495
 20
113.2817877118
 10
125.7206142615
 20
113.3031121242
 10
125.733226581
 20
113.3262101533
 10
125.7439413218
 20
113.3508065054
 10
125.7525262934
 20
113.3766682718
 10
125.7588017834
 20
113.4035879253
 10
125.7626181744
 20
113.4313946756
 10
125.7638307745
 20
113.4598644776
  0
LINE
  5
528
100
AcDbEntity
  8
RACCORDO
100
AcDbLine
 62
250
  6
CONTINUOUS
 10
125.388432139
 20
113.3356894832
 11
125.5300719107
 21
113.3381618146
  0
LINE
  5
529
100
AcDbEntity
  8
RACCORDO
100
AcDbLine
 62
7
  6
CONTINUOUS
 10
125.5300725204
 20
113.4381465948
 11
125.388432139
 21
113.4356742527
  0
LINE
  5
52A
100
AcDbEntity
  8
RACCORDO
100
AcDbLine
 62
250
  6
CONTINUOUS
 10
125.7148961976
 20
113.5890226041
 11
125.5326452957
 21
113.5858414027
  0
LINE
  5
52B
100
AcDbEntity
  8
RACCORDO
100
AcDbLine
 62
250
  6
CONTINUOUS
 10
125.4437597577
 20
113.586617152
 11
125.388432139
 21
113.5856820976
  0
LINE
  5
52C
100
AcDbEntity
  8
RACCORDO
100
AcDbLine
 62
250
  6
CONTINUOUS
 10
124.288432139
 20
113.1584688615
 11
125.4649723928
 21
113.1595451384
  0
LINE
  5
52D
100
AcDbEntity
  8
RACCORDO
100
AcDbLine
 62
250
  6
CONTINUOUS
 10
123.988432139
 20
113.4595713624
 11
123.8884324826
 21
113.4595324652
  0
LINE
  5
52E
100
AcDbEntity
  8
RACCORDO
100
AcDbLine
 62
250
  6
CONTINUOUS
 10
124.197018631
 20
113.3564856915
 11
124.059087756
 21
113.3564856834
  0
LINE
  5
52F
100
AcDbEntity
  8
RACCORDO
100
AcDbLine
 62
250
  6
CONTINUOUS
 10
125.7638310992
 20
113.4598641529
 11
126.2718720698
 21
113.4598641529
  0
LINE
  5
530
100
AcDbEntity
  8
RACCORDO
100
AcDbLine
 62
250
  6
CONTINUOUS
 10
125.7401260337
 20
113.5890226041
 11
125.7148961976
 21
113.5890226041
  0
LINE
  5
531
100
AcDbEntity
  8
RACCORDO
100
AcDbLine
 62
7
  6
CONTINUOUS
 10
124.288432139
 20
113.1853083402
 11
125.4402628641
 21
113.1842546672
  0
LINE
  5
532
100
AcDbEntity
  8
RACCORDO
100
AcDbLine
 62
250
  6
CONTINUOUS
 10
124.7059012094
 20
113.5975650287
 11
124.5679703345
 21
113.5981669268
  0
LINE
  5
533
100
AcDbEntity
  8
RACCORDO
100
AcDbLine
 62
250
  6
CONTINUOUS
 10
125.4437597577
 20
113.5866171542
 11
125.5194844189
 21
113.5860076036
  0
LINE
  5
534
100
AcDbEntity
  8
RACCORDO
100
AcDbLine
 62
250
  6
CONTINUOUS
 10
125.5194844189
 20
113.5860076036
 11
125.5326452957
 21
113.5858414027
  0
LINE
  5
535
100
AcDbEntity
  8
RACCORDO
100
AcDbLine
 62
250
  6
CONTINUOUS
 10
125.388432139
 20
113.3356692298
 11
124.197018631
 21
113.3564856833
  0
LINE
  5
536
100
AcDbEntity
  8
RACCORDO
100
AcDbLine
 62
7
  6
CONTINUOUS
 10
125.388432139
 20
113.4356742527
 11
124.431222933
 21
113.4523824016
  0
LINE
  5
537
100
AcDbEntity
  8
RACCORDO
100
AcDbLine
 62
250
  6
CONTINUOUS
 10
124.5679703345
 20
113.5981669268
 11
124.3277747768
 21
113.6023595558
  0
LINE
  5
538
100
AcDbEntity
  8
RACCORDO
100
AcDbLine
 62
250
  6
CONTINUOUS
 10
125.388432139
 20
113.5856819093
 11
124.7059012094
 21
113.5975650287
  0
LWPOLYLINE
  5
539
100
AcDbEntity
  8
RACCORDO
100
AcDbPolyline
 62
250
  6
CONTINUOUS
 90
7
 70
0
 10
123.888432139
 20
118.4878423592
 10
123.9182962382
 20
118.4717470935
 10
123.9493153324
 20
118.4583854186
 10
123.9814894214
 20
118.4477573345
 10
124.0148185053
 20
118.4398628413
 10
124.0493025841
 20
118.4347019389
 10
124.0849416577
 20
118.4322746273
  0
LWPOLYLINE
  5
53A
100
AcDbEntity
  8
RACCORDO
100
AcDbPolyline
 62
250
  6
CONTINUOUS
 90
7
 70
0
 10
125.6445574351
 20
116.3996280822
 10
125.628786492
 20
116.4088029237
 10
125.6118456151
 20
116.4166402942
 10
125.5934375243
 20
116.4232208423
 10
125.5735087722
 20
116.4283599098
 10
125.5523289467
 20
116.4317589791
 10
125.5300711038
 20
116.4332019354
  0
LWPOLYLINE
  5
53B
100
AcDbEntity
  8
RACCORDO
100
AcDbPolyline
 62
250
  6
CONTINUOUS
 90
7
 70
0
 10
125.6998000743
 20
116.4776011037
 10
125.6765090651
 20
116.4928854504
 10
125.651286657
 20
116.5060813667
 10
125.6240409352
 20
116.516753031
 10
125.5947412612
 20
116.5247551693
 10
125.5634182735
 20
116.5302330556
 10
125.5300719721
 20
116.5331866898
  0
LWPOLYLINE
  5
53C
100
AcDbEntity
  8
RACCORDO
100
AcDbPolyline
 62
250
  6
CONTINUOUS
 90
7
 70
0
 10
123.998835885
 20
119.2098509505
 10
123.9849999752
 20
119.2190213921
 10
123.9727661039
 20
119.2312610405
 10
123.9624234735
 20
119.2462805571
 10
123.9542165783
 20
119.2637248883
 10
123.9483394249
 20
119.2831816593
 10
123.9449309463
 20
119.3041909225
  0
LWPOLYLINE
  5
53D
100
AcDbEntity
  8
RACCORDO
100
AcDbPolyline
 62
250
  6
CONTINUOUS
 90
9
 70
0
 10
124.2982917151
 20
119.1296120027
 10
124.2844558053
 20
119.1387824444
 10
124.2722219341
 20
119.1510220931
 10
124.2618793037
 20
119.1660416098
 10
124.2536724086
 20
119.1834859411
 10
124.2477952553
 20
119.2029427122
 10
124.2443867768
 20
119.2239519753
 10
124.2435275475
 20
119.2460170824
 10
124.2452378793
 20
119.2686164262
  0
LINE
  5
53E
100
AcDbEntity
  8
RACCORDO
100
AcDbLine
 62
250
  6
CONTINUOUS
 10
134.1919226203
 20
120.726331352
 11
134.2068862433
 21
120.6769860081
  0
LINE
  5
53F
100
AcDbEntity
  8
RACCORDO
100
AcDbLine
 62
250
  6
CONTINUOUS
 10
134.2068862433
 20
120.6769860081
 11
134.2206003764
 21
120.630981731
  0
LWPOLYLINE
  5
540
100
AcDbEntity
  8
RACCORDO
100
AcDbPolyline
 62
250
  6
CONTINUOUS
 90
8
 70
0
 10
134.2206003764
 20
120.630981731
 10
134.2321364573
 20
120.591433396
 10
134.2368363501
 20
120.5749392804
 10
134.2407133999
 20
120.5610187383
 10
134.2437016919
 20
120.5499084358
 10
134.2457504261
 20
120.5417972455
 10
134.2468247765
 20
120.5368230477
 10
134.2469064799
 20
120.5350704008
  0
LWPOLYLINE
  5
541
100
AcDbEntity
  8
RACCORDO
100
AcDbPolyline
 62
250
  6
CONTINUOUS
 90
5
 70
0
 10
125.4383239125
 20
87.4399144644
 10
125.4432520809
 20
87.4414378501
 10
125.4481788496
 20
87.4432320367
 10
125.4530606098
 20
87.4452881929
 10
125.4578773973
 20
87.4476001743
  0
LWPOLYLINE
  5
542
100
AcDbEntity
  8
RACCORDO
100
AcDbPolyline
 62
250
  6
CONTINUOUS
 90
10
 70
0
 10
124.6714184907
 20
116.4231587329
 10
124.6531868951
 20
116.4205968986
 10
124.6355789089
 20
116.4136258544
 10
124.619121189
 20
116.4024541047
 10
124.604305988
 20
116.3874157976
 10
124.5915764304
 20
116.3689607305
 10
124.5813132592
 20
116.3476408965
 10
124.5738234472
 20
116.3240939745
 10
124.5693310158
 20
116.2990242558
 10
124.5679703345
 20
116.2731815787
  0
LWPOLYLINE
  5
543
100
AcDbEntity
  8
RACCORDO
100
AcDbPolyline
 62
250
  6
CONTINUOUS
 90
13
 70
0
 10
124.4312232681
 20
116.4189661097
 10
124.4175119201
 20
116.4174632558
 10
124.4040756536
 20
116.413459476
 10
124.3911407883
 20
116.4070222579
 10
124.3789251982
 20
116.398260081
 10
124.367634617
 20
116.3873205732
 10
124.3574591791
 20
116.3743880114
 10
124.3485701958
 20
116.3596801453
 10
124.3411174447
 20
116.3434448099
 10
124.3352265344
 20
116.3259558166
 10
124.3309965902
 20
116.3075079171
 10
124.3284986831
 20
116.2884117525
 10
124.3277747515
 20
116.2689889492
  0
LWPOLYLINE
  5
544
100
AcDbEntity
  8
RACCORDO
100
AcDbPolyline
 62
250
  6
CONTINUOUS
 90
43
 70
0
 10
124.3277747768
 20
116.2689889496
 10
124.3186951331
 20
116.2687387495
 10
124.3092435515
 20
116.2687348127
 10
124.2994200319
 20
116.2689771391
 10
124.2891115673
 20
116.2694126053
 10
124.2784311648
 20
116.2700943348
 10
124.2677178455
 20
116.2711816977
 10
124.2569800154
 20
116.2727298109
 10
124.2462092684
 20
116.2746835575
 10
124.2357194081
 20
116.2770369581
 10
124.2255809897
 20
116.2798158864
 10
124.2157234579
 20
116.2829944685
 10
124.20624895
 20
116.2864891035
 10
124.1972093861
 20
116.2902881106
 10
124.1885528461
 20
116.2944031705
 10
124.1802257074
 20
116.2987857244
 10
124.1722224982
 20
116.3034306375
 10
124.1645486902
 20
116.3083430445
 10
124.1571670762
 20
116.3134897915
 10
124.1500762952
 20
116.31886376
 10
124.1432777081
 20
116.3244720684
 10
124.1367381901
 20
116.330302918
 10
124.1304652252
 20
116.3363339168
 10
124.1244513292
 20
116.3425874568
 10
124.1186409258
 20
116.3491189149
 10
124.1130120279
 20
116.3559368406
 10
124.1075866225
 20
116.3630326844
 10
124.1023750935
 20
116.3704361738
 10
124.0973666973
 20
116.3781551524
 10
124.0925721775
 20
116.3861817766
 10
124.0880341487
 20
116.3945222437
 10
124.0837462733
 20
116.403188971
 10
124.0797148889
 20
116.4121695412
 10
124.0760016233
 20
116.4214329004
 10
124.0726072504
 20
116.4309891514
 10
124.0695309962
 20
116.4408281914
 10
124.0668321661
 20
116.4508886581
 10
124.0645155639
 20
116.4611840183
 10
124.0625763858
 20
116.4717008053
 10
124.0610595265
 20
116.4823372555
 10
124.0599799509
 20
116.4930594477
 10
124.0593226941
 20
116.5039013033
 10
124.059087756
 20
116.5148628221
  0
LINE
  5
545
100
AcDbEntity
  8
RACCORDO
100
AcDbLine
 62
250
  6
CONTINUOUS
 10
124.7059012094
 20
116.2737834768
 11
125.388432139
 21
116.2856665962
  0
LINE
  5
546
100
AcDbEntity
  8
RACCORDO
100
AcDbLine
 62
250
  6
CONTINUOUS
 10
124.3277747768
 20
116.2689889496
 11
124.5679705603
 21
116.2731815826
  0
LINE
  5
547
100
AcDbEntity
  8
RACCORDO
100
AcDbLine
 62
7
  6
CONTINUOUS
 10
124.431222933
 20
116.4189661039
 11
125.388432139
 21
116.4356742527
  0
LINE
  5
548
100
AcDbEntity
  8
RACCORDO
100
AcDbLine
 62
250
  6
CONTINUOUS
 10
124.197018631
 20
116.5148628221
 11
125.388432139
 21
116.5356792756
  0
LWPOLYLINE
  5
549
100
AcDbEntity
  8
RACCORDO
100
AcDbPolyline
 62
250
  6
CONTINUOUS
 90
43
 70
0
 10
124.4312369643
 20
116.4189663488
 10
124.4221617877
 20
116.4188733001
 10
124.4128840359
 20
116.4189220868
 10
124.4034031938
 20
116.4191353824
 10
124.3936238658
 20
116.4195430483
 10
124.3836401792
 20
116.4201673989
 10
124.3737362461
 20
116.4210006096
 10
124.3639248101
 20
116.4220451014
 10
124.3541926311
 20
116.4233057698
 10
124.344785662
 20
116.4247402783
 10
124.3357667358
 20
116.4263226148
 10
124.3270734296
 20
116.4280483896
 10
124.3187643521
 20
116.429886165
 10
124.3108814992
 20
116.4318073487
 10
124.3033835546
 20
116.4338053121
 10
124.2962041968
 20
116.4358811903
 10
124.2893365812
 20
116.4380238954
 10
124.2827880266
 20
116.4402210451
 10
124.2765133053
 20
116.4424777189
 10
124.2705088033
 20
116.4447856796
 10
124.2647784839
 20
116.4471364169
 10
124.2592883603
 20
116.4495389108
 10
124.2540443681
 20
116.4519816318
 10
124.2490408208
 20
116.4544639823
 10
124.2442261307
 20
116.4570161191
 10
124.2395810302
 20
116.4596418708
 10
124.2351248019
 20
116.4623319037
 10
124.2308635307
 20
116.4651004082
 10
124.2267886534
 20
116.4679483703
 10
124.2229086801
 20
116.4708704991
 10
124.2192552434
 20
116.473872791
 10
124.2158238997
 20
116.4769560595
 10
124.212619022
 20
116.4801147644
 10
124.2096854574
 20
116.483345374
 10
124.2070244446
 20
116.4866459448
 10
124.2046347136
 20
116.4900121232
 10
124.2025573708
 20
116.4934362194
 10
124.2007957004
 20
116.4969165202
 10
124.1993464394
 20
116.5004468885
 10
124.1982409172
 20
116.5040123681
 10
124.1974896222
 20
116.5076048354
 10
124.1970821741
 20
116.5112232253
 10
124.197018631
 20
116.5148628221
  0
LINE
  5
54A
100
AcDbEntity
  8
RACCORDO
100
AcDbLine
 62
250
  6
CONTINUOUS
 10
125.5110623048
 20
116.285254748
 11
125.5326452957
 21
116.2855071027
  0
LINE
  5
54B
100
AcDbEntity
  8
RACCORDO
100
AcDbLine
 62
250
  6
CONTINUOUS
 10
125.4437597577
 20
116.2847313513
 11
125.5110623048
 21
116.285254748
  0
LINE
  5
54C
100
AcDbEntity
  8
RACCORDO
100
AcDbLine
 62
250
  6
CONTINUOUS
 10
124.5679705603
 20
116.2731815797
 11
124.7059012094
 21
116.2737834768
  0
LINE
  5
54D
100
AcDbEntity
  8
RACCORDO
100
AcDbLine
 62
7
  6
CONTINUOUS
 10
124.288432139
 20
116.6860401652
 11
125.4402628641
 21
116.6870938383
  0
LINE
  5
54E
100
AcDbEntity
  8
RACCORDO
100
AcDbLine
 62
250
  6
CONTINUOUS
 10
125.7401260337
 20
116.2823254758
 11
125.7148961976
 21
116.2823259014
  0
LINE
  5
54F
100
AcDbEntity
  8
RACCORDO
100
AcDbLine
 62
250
  6
CONTINUOUS
 10
125.7638310992
 20
116.4114843525
 11
126.2718720698
 21
116.4114843525
  0
LINE
  5
550
100
AcDbEntity
  8
RACCORDO
100
AcDbLine
 62
250
  6
CONTINUOUS
 10
124.197018631
 20
116.5148628143
 11
124.059087756
 21
116.514862822
  0
LINE
  5
551
100
AcDbEntity
  8
RACCORDO
100
AcDbLine
 62
250
  6
CONTINUOUS
 10
123.988432139
 20
116.4117756613
 11
123.888432139
 21
116.4118156592
  0
LINE
  5
552
100
AcDbEntity
  8
RACCORDO
100
AcDbLine
 62
250
  6
CONTINUOUS
 10
125.4649723928
 20
116.711803367
 11
124.288432139
 21
116.7128796439
  0
LINE
  5
553
100
AcDbEntity
  8
RACCORDO
100
AcDbLine
 62
250
  6
CONTINUOUS
 10
125.388432139
 20
116.2856664078
 11
125.4437597577
 21
116.2847313534
  0
LINE
  5
554
100
AcDbEntity
  8
RACCORDO
100
AcDbLine
 62
250
  6
CONTINUOUS
 10
125.5326452957
 20
116.2855071027
 11
125.7148961976
 21
116.2823259014
  0
LINE
  5
555
100
AcDbEntity
  8
RACCORDO
100
AcDbLine
 62
7
  6
CONTINUOUS
 10
125.388432139
 20
116.4356742527
 11
125.5300725204
 21
116.4332019107
  0
LINE
  5
556
100
AcDbEntity
  8
RACCORDO
100
AcDbLine
 62
250
  6
CONTINUOUS
 10
125.5300719721
 20
116.5331866898
 11
125.388432139
 21
116.535679248
  0
LINE
  5
557
100
AcDbEntity
  8
RACCORDO
100
AcDbLine
 62
7
  6
CONTINUOUS
 10
122.9139498556
 20
75.5611919694
 11
123.888432139
 21
76.5356742527
  0
LWPOLYLINE
  5
558
100
AcDbEntity
  8
RACCORDO
100
AcDbPolyline
 62
250
  6
CONTINUOUS
 90
8
 70
0
 10
124.0232296082
 20
84.6717104571
 10
123.9988358849
 20
84.6614975549
 10
123.9849999751
 20
84.6523271132
 10
123.9727661039
 20
84.6400874645
 10
123.9624234736
 20
84.6250679478
 10
123.9542165784
 20
84.6076236165
 10
123.9483394252
 20
84.5881668454
 10
123.9449309466
 20
84.5671575823
  0
LINE
  5
559
100
AcDbEntity
  8
RACCORDO
100
AcDbLine
 62
250
  6
CONTINUOUS
 10
124.3134025899
 20
84.7476209532
 11
124.2982917149
 21
84.7417365029
  0
LWPOLYLINE
  5
55A
100
AcDbEntity
  8
RACCORDO
100
AcDbPolyline
 62
250
  6
CONTINUOUS
 90
9
 70
0
 10
125.388432139
 20
84.8856970984
 10
125.3723420793
 20
84.8804175648
 10
125.3562219666
 20
84.875243898
 10
125.3400718008
 20
84.870176098
 10
125.3238902701
 20
84.8652138127
 10
125.3076786862
 20
84.8603573941
 10
125.2914409851
 20
84.8556078987
 10
125.2751784787
 20
84.8509656785
 10
125.258889855
 20
84.8464303814
  0
LWPOLYLINE
  5
55B
100
AcDbEntity
  8
RACCORDO
100
AcDbPolyline
 62
250
  6
CONTINUOUS
 90
22
 70
0
 10
124.288432139
 20
116.7128796439
 10
124.2688532209
 20
116.71228429
 10
124.2493125765
 20
116.7103985153
 10
124.2298947873
 20
116.7072216566
 10
124.2107914299
 20
116.7027875112
 10
124.1919768366
 20
116.6970917041
 10
124.1732287806
 20
116.6900224545
 10
124.1546492494
 20
116.6815372812
 10
124.1363650438
 20
116.6716081608
 10
124.1182516179
 20
116.6600399635
 10
124.1003527653
 20
116.646666218
 10
124.0829992928
 20
116.6315227857
 10
124.0665220701
 20
116.6147185662
 10
124.0510659948
 20
116.5962246088
 10
124.0368666391
 20
116.5761275221
 10
124.0242954505
 20
116.5548248361
 10
124.0134904853
 20
116.5325102486
 10
124.004511581
 20
116.5092620455
 10
123.9974861366
 20
116.4853878188
 10
123.9924600331
 20
116.4611066196
 10
123.9894389459
 20
116.4365317674
 10
123.988432139
 20
116.4118290392
  0
LWPOLYLINE
  5
55C
100
AcDbEntity
  8
RACCORDO
100
AcDbPolyline
 62
250
  6
CONTINUOUS
 90
10
 70
0
 10
124.2971583422
 20
117.2121944113
 10
124.2499607183
 20
117.21082737
 10
124.2032245555
 20
117.2067378701
 10
124.1569498538
 20
117.1999259116
 10
124.1111573595
 20
117.1904480364
 10
124.0658263263
 20
117.1782477027
 10
124.0208945158
 20
117.1631552842
 10
123.9763411817
 20
117.1451142391
 10
123.9321870703
 20
117.1241811093
 10
123.8884321815
 20
117.1003558948
  0
LINE
  5
55D
100
AcDbEntity
  8
RACCORDO
100
AcDbLine
 62
250
  6
CONTINUOUS
 10
127.188432139
 20
117.5953752753
 11
126.9919226203
 21
117.5953752753
  0
LINE
  5
55E
100
AcDbEntity
  8
RACCORDO
100
AcDbLine
 62
250
  6
CONTINUOUS
 10
125.4736966277
 20
117.2111181362
 11
124.2971583422
 21
117.2121944113
  0
LINE
  5
55F
100
AcDbEntity
  8
RACCORDO
100
AcDbLine
 62
250
  6
CONTINUOUS
 10
124.0849416577
 20
118.4322746273
 11
126.2058845454
 21
118.3952534315
  0
LINE
  5
560
100
AcDbEntity
  8
RACCORDO
100
AcDbLine
 62
7
  6
CONTINUOUS
 10
124.0849416577
 20
118.6322441663
 11
126.2058845454
 21
118.5952229705
  0
LWPOLYLINE
  5
561
100
AcDbEntity
  8
RACCORDO
100
AcDbPolyline
 62
250
  6
CONTINUOUS
 90
22
 70
0
 10
126.2058845454
 20
118.3952534315
 10
126.2704551648
 20
118.3911241342
 10
126.3330528077
 20
118.382545231
 10
126.3936774744
 20
118.3695167216
 10
126.4523571326
 20
118.3519435192
 10
126.5090638144
 20
118.3299207106
 10
126.563713616
 20
118.3037335572
 10
126.616704127
 20
118.2731391173
 10
126.6676377577
 20
118.2383803325
 10
126.7152378358
 20
118.2004712885
 10
126.7593923509
 20
118.1590681943
 10
126.8002133135
 20
118.1145148408
 10
126.8367600829
 20
118.0688566865
 10
126.8684553451
 20
118.0228094239
 10
126.8958764142
 20
117.9756573606
 10
126.9198145917
 20
117.9272988779
 10
126.9405322713
 20
117.8783013867
 10
126.9577670594
 20
117.8280974761
 10
126.9715230762
 20
117.7748832948
 10
126.9818016954
 20
117.718057559
 10
126.9886015434
 20
117.6582215525
 10
126.9919226203
 20
117.5953752753
  0
LINE
  5
562
100
AcDbEntity
  8
RACCORDO
100
AcDbLine
 62
250
  6
CONTINUOUS
 10
124.197018631
 20
118.9487925756
 11
125.388432139
 21
118.6295542883
  0
LINE
  5
563
100
AcDbEntity
  8
RACCORDO
100
AcDbLine
 62
250
  6
CONTINUOUS
 10
124.0754702772
 20
119.0606108499
 11
123.9470107827
 21
119.0950308177
  0
LINE
  5
564
100
AcDbEntity
  8
RACCORDO
100
AcDbLine
 62
7
  6
CONTINUOUS
 10
125.388432139
 20
118.8356742527
 11
123.9996092822
 21
119.2078082156
  0
LINE
  5
565
100
AcDbEntity
  8
RACCORDO
100
AcDbLine
 62
250
  6
CONTINUOUS
 10
124.2452378793
 20
119.2686164262
 11
123.9457820491
 21
119.348855374
  0
LINE
  5
566
100
AcDbEntity
  8
RACCORDO
100
AcDbLine
 62
250
  6
CONTINUOUS
 10
125.388432139
 20
118.990264226
 11
124.3843974878
 21
119.2592945
  0
LINE
  5
567
100
AcDbEntity
  8
RACCORDO
100
AcDbLine
 62
250
  6
CONTINUOUS
 10
124.3134025899
 20
119.1237275522
 11
124.2982917151
 21
119.1296120027
  0
LWPOLYLINE
  5
568
100
AcDbEntity
  8
RACCORDO
100
AcDbPolyline
 62
250
  6
CONTINUOUS
 90
4
 70
0
 10
123.998835885
 20
119.2098509505
 10
124.023215786
 20
119.1996430981
 10
124.0369296156
 20
119.1904927597
 10
124.0490434642
 20
119.1782649242
  0
LINE
  5
569
100
AcDbEntity
  8
RACCORDO
100
AcDbLine
 62
7
  6
CONTINUOUS
 10
123.888432139
 20
127.3356742527
 11
122.9139498556
 21
128.3101565361
  0
LWPOLYLINE
  5
56A
100
AcDbEntity
  8
RACCORDO
100
AcDbPolyline
 62
7
  6
CONTINUOUS
 90
16
 70
0
 10
130.0064701357
 20
122.5497991192
 10
130.0171958939
 20
122.5383927007
 10
130.0271230903
 20
122.5266433533
 10
130.036251725
 20
122.5145510769
 10
130.0445555543
 20
122.5021033108
 10
130.0520608218
 20
122.4893126158
 10
130.0588462584
 20
122.476216674
 10
130.064928862
 20
122.4628322048
 10
130.0702916347
 20
122.4491424889
 10
130.0749623139
 20
122.4351350506
 10
130.0789584305
 20
122.4208072956
 10
130.0822624536
 20
122.4061618183
 10
130.0848495271
 20
122.391193926
 10
130.0867113659
 20
122.3759020547
 10
130.0878562552
 20
122.3602877684
 10
130.088284195
 20
122.3443510673
  0
LINE
  5
56B
100
AcDbEntity
  8
RACCORDO
100
AcDbLine
 62
7
  6
CONTINUOUS
 10
123.7897351605
 20
81.8637217246
 11
122.9871291175
 21
81.5715970151
  0
LWPOLYLINE
  5
56C
100
AcDbEntity
  8
RACCORDO
100
AcDbPolyline
 62
250
  6
CONTINUOUS
 90
5
 70
0
 10
124.2909428723
 20
119.0753798704
 10
124.2842484666
 20
119.0735576662
 10
124.2778696305
 20
119.0716118591
 10
124.2717779292
 20
119.0695509295
 10
124.2659777956
 20
119.0673826161
  0
LWPOLYLINE
  5
56D
100
AcDbEntity
  8
RACCORDO
100
AcDbPolyline
 62
250
  6
CONTINUOUS
 90
3
 70
0
 10
124.2147988757
 20
119.0757617542
 10
124.2025384675
 20
119.0728792966
 10
124.1912018722
 20
119.0702972291
  0
LWPOLYLINE
  5
56E
100
AcDbEntity
  8
RACCORDO
100
AcDbPolyline
 62
250
  6
CONTINUOUS
 90
13
 70
0
 10
124.1912018722
 20
119.0702972291
 10
124.1708229909
 20
119.0660089435
 10
124.1617461996
 20
119.0643483897
 10
124.1532959797
 20
119.063175877
 10
124.1453468406
 20
119.0621708619
 10
124.1378882941
 20
119.0613557697
 10
124.1308896263
 20
119.060874104
 10
124.12423186
 20
119.0604879532
 10
124.11790744
 20
119.0601845415
 10
124.1119116501
 20
119.0600634697
 10
124.1061451386
 20
119.0599934424
 10
124.100604767
 20
119.059963753
 10
124.0952928517
 20
119.0600302278
  0
LWPOLYLINE
  5
56F
100
AcDbEntity
  8
RACCORDO
100
AcDbPolyline
 62
250
  6
CONTINUOUS
 90
5
 70
0
 10
124.2728315836
 20
119.0864738647
 10
124.2569888699
 20
119.0841084135
 10
124.2420839848
 20
119.0814715948
 10
124.2280263486
 20
119.0786836869
 10
124.2147988757
 20
119.0757617542
  0
LWPOLYLINE
  5
570
100
AcDbEntity
  8
RACCORDO
100
AcDbPolyline
 62
250
  6
CONTINUOUS
 90
9
 70
0
 10
125.388432139
 20
118.6295542883
 10
125.410633412
 20
118.6312327791
 10
125.4328397059
 20
118.6327594617
 10
125.4550510208
 20
118.6341343363
 10
125.4772693241
 20
118.6353574379
 10
125.4994926483
 20
118.6364287314
 10
125.5217150913
 20
118.6373481113
 10
125.5439346857
 20
118.6381155423
 10
125.5661533989
 20
118.6387310598
  0
LINE
  5
571
100
AcDbEntity
  8
RACCORDO
100
AcDbLine
 62
250
  6
CONTINUOUS
 10
125.5661533989
 20
118.6387310598
 11
128.8919226203
 21
118.6968583675
  0
LINE
  5
572
100
AcDbEntity
  8
RACCORDO
100
AcDbLine
 62
7
  6
CONTINUOUS
 10
125.388432139
 20
118.8356742527
 11
128.8919226203
 21
118.8968279065
  0
LINE
  5
573
100
AcDbEntity
  8
RACCORDO
100
AcDbLine
 62
250
  6
CONTINUOUS
 10
129.088432139
 20
118.6968583675
 11
128.8919226203
 21
118.6968583675
  0
LINE
  5
574
100
AcDbEntity
  8
RACCORDO
100
AcDbLine
 62
250
  6
CONTINUOUS
 10
124.197018631
 20
118.9487925756
 11
124.059087756
 21
118.9487925756
  0
LINE
  5
575
100
AcDbEntity
  8
RACCORDO
100
AcDbLine
 62
250
  6
CONTINUOUS
 10
123.9470107827
 20
119.0950307773
 11
123.888432139
 21
119.0950308192
  0
LINE
  5
576
100
AcDbEntity
  8
RACCORDO
100
AcDbLine
 62
250
  6
CONTINUOUS
 10
129.088432139
 20
119.6825766957
 11
128.8919226203
 21
119.6825766957
  0
LINE
  5
577
100
AcDbEntity
  8
RACCORDO
100
AcDbLine
 62
250
  6
CONTINUOUS
 10
128.8919226203
 20
119.6825766957
 11
125.388432139
 21
119.70408318
  0
LINE
  5
578
100
AcDbEntity
  8
RACCORDO
100
AcDbLine
 62
250
  6
CONTINUOUS
 10
128.8919226203
 20
119.8078053674
 11
125.388432139
 21
119.8291935969
  0
LWPOLYLINE
  5
579
100
AcDbEntity
  8
RACCORDO
100
AcDbPolyline
 62
250
  6
CONTINUOUS
 90
4
 70
0
 10
124.0952928517
 20
119.0600302278
 10
124.0850849325
 20
119.0602341039
 10
124.0801979243
 20
119.0603916499
 10
124.0754704613
 20
119.060611452
  0
LWPOLYLINE
  5
57A
100
AcDbEntity
  8
RACCORDO
100
AcDbPolyline
 62
250
  6
CONTINUOUS
 90
10
 70
0
 10
125.388432139
 20
118.990264226
 10
125.4050989893
 20
118.9895869222
 10
125.4217656327
 20
118.9890235366
 10
125.4384320691
 20
118.9885740693
 10
125.4550997756
 20
118.9882385453
 10
125.4717672751
 20
118.9880169396
 10
125.4884301363
 20
118.9879091767
 10
125.5050868819
 20
118.9879152315
 10
125.5217389891
 20
118.988035129
 10
128.8919226203
 20
119.0468050608
  0
LINE
  5
57B
100
AcDbEntity
  8
RACCORDO
100
AcDbLine
 62
250
  6
CONTINUOUS
 10
124.3843974878
 20
119.2592945
 11
124.2452378793
 21
119.2686164262
  0
LINE
  5
57C
100
AcDbEntity
  8
RACCORDO
100
AcDbLine
 62
250
  6
CONTINUOUS
 10
123.9457820491
 20
119.348855374
 11
123.888432139
 21
119.3526970896
  0
LWPOLYLINE
  5
57D
100
AcDbEntity
  8
RACCORDO
100
AcDbPolyline
 62
250
  6
CONTINUOUS
 90
17
 70
0
 10
124.4429818309
 20
119.0809797165
 10
124.430850829
 20
119.0822905166
 10
124.4190972903
 20
119.0833327681
 10
124.4077231144
 20
119.0841179214
 10
124.3967017549
 20
119.0846585352
 10
124.386033504
 20
119.0849639874
 10
124.375723036
 20
119.0850436935
 10
124.3657497531
 20
119.0849079531
 10
124.3561130309
 20
119.0845646147
 10
124.3468178206
 20
119.0840221227
 10
124.337851549
 20
119.0832904021
 10
124.329215041
 20
119.0823763036
 10
124.3209114604
 20
119.0812878905
 10
124.3129316489
 20
119.080036534
 10
124.3052796625
 20
119.0786290722
 10
124.2979552732
 20
119.0770728493
 10
124.2909428723
 20
119.0753798704
  0
LWPOLYLINE
  5
57E
100
AcDbEntity
  8
RACCORDO
100
AcDbPolyline
 62
250
  6
CONTINUOUS
 90
9
 70
0
 10
124.4299454736
 20
119.0843860574
 10
124.4072684629
 20
119.0870529498
 10
124.3854745895
 20
119.0889631143
 10
124.3645493492
 20
119.0901419063
 10
124.344475651
 20
119.0906470273
 10
124.3252833642
 20
119.0904823371
 10
124.3069830639
 20
119.0896764909
 10
124.28951925
 20
119.0883412933
 10
124.2728315836
 20
119.0864738647
  0
LINE
  5
57F
100
AcDbEntity
  8
RACCORDO
100
AcDbLine
 62
7
  6
CONTINUOUS
 10
122.9871291175
 20
122.2997514903
 11
123.7897351605
 21
122.0076267808
  0
LWPOLYLINE
  5
580
100
AcDbEntity
  8
RACCORDO
100
AcDbPolyline
 62
250
  6
CONTINUOUS
 90
15
 70
0
 10
132.4038476333
 20
124.5859113042
 10
132.3880386437
 20
124.6069826964
 10
132.3352627874
 20
124.6714483929
 10
132.2802612781
 20
124.7327436508
 10
132.2230566111
 20
124.7910975671
 10
132.1647237516
 20
124.8460264988
 10
132.105980926
 20
124.8970045082
 10
132.0461099078
 20
124.9445575329
 10
131.9840309826
 20
124.9897797425
 10
131.9201075028
 20
125.03285616
 10
131.8539761158
 20
125.0736017624
 10
131.78346705
 20
125.11255565
 10
131.7078570479
 20
125.1498975231
 10
131.6278693669
 20
125.1854476814
 10
131.5435040069
 20
125.219206125
  0
LWPOLYLINE
  5
581
100
AcDbEntity
  8
0
100
AcDbPolyline
 62
7
  6
CONTINUOUS
 90
10
 70
0
 43
0.3500000006
 10
129.8741445923
 20
137.5815018311
 10
129.9455757751
 20
137.4386394653
 10
129.9455757751
 20
137.3672173462
 10
129.8027134094
 20
137.2243549805
 10
129.7312912903
 20
137.2243549805
 10
129.6598601074
 20
137.2957952271
 10
129.6598601074
 20
137.3672173462
 10
129.7312912903
 20
137.5100797119
 10
129.8027134094
 20
137.5815018311
 10
129.8741445923
 20
137.5815018311
  0
LINE
  5
582
100
AcDbEntity
  8
RACCORDO
100
AcDbLine
 62
250
  6
CONTINUOUS
 10
129.1457820491
 20
121.7040360579
 11
129.088432139
 21
121.7020339651
  0
LWPOLYLINE
  5
583
100
AcDbEntity
  8
RACCORDO
100
AcDbPolyline
 62
250
  6
CONTINUOUS
 90
16
 70
0
 10
129.7457515789
 20
122.1568399405
 10
129.7764360595
 20
122.1577388709
 10
129.8060581331
 20
122.1605543019
 10
129.8346177998
 20
122.1652862337
 10
129.8621337014
 20
122.1720504034
 10
129.888587196
 20
122.1807310737
 10
129.913922358
 20
122.1909810333
 10
129.9381467652
 20
122.2027654489
 10
129.9612528399
 20
122.2161191537
 10
129.9831619227
 20
122.2307994362
 10
130.0038862441
 20
122.2467934522
 10
130.0234135736
 20
122.2641140459
 10
130.0416285611
 20
122.2825570379
 10
130.0584927563
 20
122.3020543686
 10
130.0740446095
 20
122.3226740977
 10
130.0882841205
 20
122.3444162252
  0
LINE
  5
584
100
AcDbEntity
  8
RACCORDO
100
AcDbLine
 62
250
  6
CONTINUOUS
 10
130.0064701357
 20
121.3215493862
 11
129.088432139
 21
121.3055249734
  0
LINE
  5
585
100
AcDbEntity
  8
RACCORDO
100
AcDbLine
 62
7
  6
CONTINUOUS
 10
129.088432139
 20
121.5054945124
 11
129.6065919703
 21
121.5145390259
  0
LINE
  5
586
100
AcDbEntity
  8
RACCORDO
100
AcDbLine
 62
250
  6
CONTINUOUS
 10
129.1457820491
 20
121.7040360579
 11
129.7457515789
 21
121.714508565
  0
LWPOLYLINE
  5
587
100
AcDbEntity
  8
RACCORDO
100
AcDbPolyline
 62
250
  6
CONTINUOUS
 90
28
 70
0
 10
129.6065919703
 20
121.5145390259
 10
129.633785805
 20
121.5145633568
 10
129.6600767922
 20
121.5137125549
 10
129.6854647072
 20
121.5120499895
 10
129.7099543164
 20
121.5096481003
 10
129.7335398753
 20
121.5065677185
 10
129.7562055461
 20
121.5028397609
 10
129.7779500691
 20
121.4985102853
 10
129.7987738921
 20
121.4936314311
 10
129.8186642421
 20
121.4882172572
 10
129.8376240492
 20
121.4823040781
 10
129.8556496848
 20
121.4759340969
 10
129.8727189258
 20
121.469113331
 10
129.8888503344
 20
121.4618622112
 10
129.9040247854
 20
121.4542255405
 10
129.9181636377
 20
121.4462402075
 10
129.9312375504
 20
121.4379548047
 10
129.9432749125
 20
121.4293900026
 10
129.9542837934
 20
121.420536597
 10
129.964240447
 20
121.4114985396
 10
129.9731676985
 20
121.4022340692
 10
129.9811447236
 20
121.3924906947
 10
129.9883023024
 20
121.3822860115
 10
129.9945108911
 20
121.3716319759
 10
129.9994613262
 20
121.3602394208
 10
130.0030520737
 20
121.3480211747
 10
130.0053879238
 20
121.3351098749
 10
130.0064701357
 20
121.3215493862
  0
LINE
  5
588
100
AcDbEntity
  8
RACCORDO
100
AcDbLine
 62
250
  6
CONTINUOUS
 10
134.388432139
 20
120.726331352
 11
134.1919226203
 21
120.726331352
  0
LINE
  5
589
100
AcDbEntity
  8
RACCORDO
100
AcDbLine
 62
250
  6
CONTINUOUS
 10
129.1457820491
 20
122.1673124476
 11
129.7457515789
 21
122.1568399405
  0
LWPOLYLINE
  5
58A
100
AcDbEntity
  8
RACCORDO
100
AcDbPolyline
 62
250
  6
CONTINUOUS
 90
19
 70
0
 10
129.7457515789
 20
121.714508565
 10
129.7721901618
 20
121.7139008213
 10
129.7977807021
 20
121.7118683274
 10
129.8225231996
 20
121.7084110833
 10
129.846423615
 20
121.7034371646
 10
129.8694759877
 20
121.6970384957
 10
129.8916624358
 20
121.6894908497
 10
129.9129816466
 20
121.680820033
 10
129.9334349328
 20
121.6710002392
 10
129.9530083512
 20
121.6602298211
 10
129.971704006
 20
121.6485251254
 10
129.989519793
 20
121.6358698053
 10
130.0064354557
 20
121.6224131743
 10
130.0224703982
 20
121.6081385914
 10
130.0376052163
 20
121.5930626975
 10
130.0517614419
 20
121.5773847282
 10
130.0649129188
 20
121.5611710953
 10
130.077085803
 20
121.5443553871
 10
130.0882800947
 20
121.5269376034
  0
LINE
  5
58B
100
AcDbEntity
  8
RACCORDO
100
AcDbLine
 62
250
  6
CONTINUOUS
 10
129.088432139
 20
122.1693145404
 11
129.1457820491
 21
122.1673124476
  0
LWPOLYLINE
  5
58C
100
AcDbEntity
  8
0
100
AcDbPolyline
 62
7
  6
CONTINUOUS
 90
10
 70
0
 43
0.3500000006
 10
127.9884284363
 20
145.6357053223
 10
128.0598596191
 20
145.4928429565
 10
128.0598596191
 20
145.4214208374
 10
127.9170063171
 20
145.2785584717
 10
127.8455751343
 20
145.2785584717
 10
127.7741439514
 20
145.3499805908
 10
127.7741439514
 20
145.4214208374
 10
127.8455751343
 20
145.5642650757
 10
127.9170063171
 20
145.6357053223
 10
127.9884284363
 20
145.6357053223
  0
LWPOLYLINE
  5
58D
100
AcDbEntity
  8
RACCORDO
100
AcDbPolyline
 62
7
  6
CONTINUOUS
 90
10
 70
0
 10
126.6304918757
 20
122.4087574999
 10
126.6185341927
 20
122.4082100916
 10
126.6055687766
 20
122.406416288
 10
126.5916574152
 20
122.4033015597
 10
126.5769145426
 20
122.3987448488
 10
126.5613857376
 20
122.3927314892
 10
126.545031732
 20
122.3853284825
 10
126.5279031314
 20
122.3764924575
 10
126.5101566641
 20
122.3660967485
 10
126.4919226203
 20
122.3540671269
  0
LWPOLYLINE
  5
58E
100
AcDbEntity
  8
RACCORDO
100
AcDbPolyline
 62
250
  6
CONTINUOUS
 90
22
 70
0
 10
129.6065919703
 20
122.3568094795
 10
129.6407870184
 20
122.3569209656
 10
129.6736446905
 20
122.3584065998
 10
129.7051649208
 20
122.3611630676
 10
129.735373436
 20
122.3650647746
 10
129.7642431961
 20
122.3700117324
 10
129.7916953806
 20
122.3759704335
 10
129.8177420025
 20
122.3828717189
 10
129.8423702523
 20
122.3906289061
 10
129.8654652461
 20
122.3992350616
 10
129.8870466792
 20
122.4086363883
 10
129.9070942864
 20
122.4187584646
 10
129.9254339979
 20
122.4295907118
 10
129.9420710764
 20
122.4410795375
 10
129.9569995912
 20
122.4531543153
 10
129.9700290696
 20
122.4657896702
 10
129.9811492058
 20
122.4789290538
 10
129.9903692788
 20
122.4924965072
 10
129.997528283
 20
122.5064388932
 10
130.0025720119
 20
122.5206898161
 10
130.0055529795
 20
122.5351687976
 10
130.0064701357
 20
122.5497991192
  0
LINE
  5
58F
100
AcDbEntity
  8
RACCORDO
100
AcDbLine
 62
250
  6
CONTINUOUS
 10
126.6884321392
 20
123.5942634905
 11
126.7866861174
 21
123.5942654743
  0
LINE
  5
590
100
AcDbEntity
  8
RACCORDO
100
AcDbLine
 62
250
  6
CONTINUOUS
 10
134.1919226203
 20
123.7189064159
 11
134.388432139
 21
123.7189064159
  0
LINE
  5
591
100
AcDbEntity
  8
RACCORDO
100
AcDbLine
 62
7
  6
CONTINUOUS
 10
125.388432139
 20
123.4183556496
 11
126.4919226203
 21
123.4096388722
  0
LINE
  5
592
100
AcDbEntity
  8
RACCORDO
100
AcDbLine
 62
250
  6
CONTINUOUS
 10
128.8919226203
 20
122.3120905733
 11
126.4919226203
 21
122.3540671269
  0
LINE
  5
593
100
AcDbEntity
  8
RACCORDO
100
AcDbLine
 62
7
  6
CONTINUOUS
 10
126.6304918757
 20
122.4087574999
 11
129.6065919703
 21
122.3568094795
  0
LINE
  5
594
100
AcDbEntity
  8
RACCORDO
100
AcDbLine
 62
250
  6
CONTINUOUS
 10
126.688432139
 20
122.6077156879
 11
130.0064701357
 21
122.5497991192
  0
LWPOLYLINE
  5
595
100
AcDbEntity
  8
RACCORDO
100
AcDbPolyline
 62
7
  6
CONTINUOUS
 90
13
 70
0
 10
126.4919226203
 20
123.4096388722
 10
126.5163577562
 20
123.4087350909
 10
126.540602501
 20
123.406485881
 10
126.5642680035
 20
123.4028912423
 10
126.5869507895
 20
123.3978866228
 10
126.6082576692
 20
123.3915365746
 10
126.6278084782
 20
123.3840347541
 10
126.645216575
 20
123.3753083452
 10
126.6601140702
 20
123.365430164
 10
126.6721691002
 20
123.3548123144
 10
126.6810749882
 20
123.3435921645
 10
126.6865656417
 20
123.3316323461
 10
126.688432139
 20
123.3189328594
  0
LWPOLYLINE
  5
596
100
AcDbEntity
  8
RACCORDO
100
AcDbPolyline
 62
250
  6
CONTINUOUS
 90
13
 70
0
 10
128.8919226203
 20
122.3120905491
 10
128.9177906204
 20
122.310646873
 10
128.9429919306
 20
122.3067632083
 10
128.9672242346
 20
122.3005638692
 10
128.9902394267
 20
122.2922296449
 10
129.011665478
 20
122.2818359709
 10
129.0310105536
 20
122.2694548613
 10
129.0479125103
 20
122.2554615592
 10
129.0621619806
 20
122.2401067629
 10
129.0735186119
 20
122.2234224438
 10
129.0817690046
 20
122.2057102766
 10
129.0867640393
 20
122.1875212989
 10
129.088432139
 20
122.1693145404
  0
LWPOLYLINE
  5
597
100
AcDbEntity
  8
RACCORDO
100
AcDbPolyline
 62
250
  6
CONTINUOUS
 90
13
 70
0
 10
129.6065919703
 20
122.3568094795
 10
129.6250316694
 20
122.3548032227
 10
129.6431019735
 20
122.3494630228
 10
129.660498562
 20
122.3408788494
 10
129.676928475
 20
122.3291952943
 10
129.6921150169
 20
122.3146091555
 10
129.7058024236
 20
122.2973661389
 10
129.7177602117
 20
122.2777566741
 10
129.7277870383
 20
122.2561110255
 10
129.735714073
 20
122.232793767
 10
129.7414078625
 20
122.2081976006
 10
129.7447725695
 20
122.1827367366
 10
129.7457515777
 20
122.1568399408
  0
LINE
  5
598
100
AcDbEntity
  8
RACCORDO
100
AcDbLine
 62
250
  6
CONTINUOUS
 10
132.7753676223
 20
79.4918916458
 11
134.1919226203
 21
80.1524420896
  0
LINE
  5
599
100
AcDbEntity
  8
RACCORDO
100
AcDbLine
 62
7
  6
CONTINUOUS
 10
132.8564007934
 20
79.3106300884
 11
134.2729557913
 21
79.9711805322
  0
LWPOLYLINE
  5
59A
100
AcDbEntity
  8
RACCORDO
100
AcDbPolyline
 62
250
  6
CONTINUOUS
 90
16
 70
0
 10
131.5435040069
 20
78.6521423804
 10
131.6026080578
 20
78.6742974487
 10
131.6628709561
 20
78.6998301199
 10
131.7242927019
 20
78.7287403939
 10
131.7871182291
 20
78.7608339085
 10
131.8511026037
 20
78.7963050259
 10
131.915511024
 20
78.8357368329
 10
131.9807105188
 20
78.8794901991
 10
132.0463340593
 20
78.9272042549
 10
132.1105457573
 20
78.9783794777
 10
132.1731673353
 20
79.0331570602
 10
132.2343770708
 20
79.0913958098
 10
132.2928739087
 20
79.1521726258
 10
132.3484411798
 20
79.2155180622
 10
132.4012955532
 20
79.2814015651
 10
132.4042638727
 20
79.2854444667
  0
LINE
  5
59B
100
AcDbEntity
  8
RACCORDO
100
AcDbLine
 62
250
  6
CONTINUOUS
 10
128.6670874976
 20
77.6052123897
 11
131.5435040069
 21
78.6521423804
  0
LINE
  5
59C
100
AcDbEntity
  8
RACCORDO
100
AcDbLine
 62
7
  6
CONTINUOUS
 10
128.6960559163
 20
77.5112431276
 11
131.5724724256
 21
78.5581731183
  0
LINE
  5
59D
100
AcDbEntity
  8
RACCORDO
100
AcDbLine
 62
250
  6
CONTINUOUS
 10
124.3843974878
 20
125.6148333724
 11
125.388432139
 21
125.6674525988
  0
LINE
  5
59E
100
AcDbEntity
  8
RACCORDO
100
AcDbLine
 62
250
  6
CONTINUOUS
 10
123.9457820491
 20
125.5991395574
 11
124.2452378793
 21
125.6148333724
  0
LINE
  5
59F
100
AcDbEntity
  8
RACCORDO
100
AcDbLine
 62
250
  6
CONTINUOUS
 10
127.388432139
 20
125.5339439767
 11
127.488432139
 21
125.5356894832
  0
LINE
  5
5A0
100
AcDbEntity
  8
RACCORDO
100
AcDbLine
 62
7
  6
CONTINUOUS
 10
127.388432139
 20
125.6339287462
 11
127.488432139
 21
125.6356742527
  0
LINE
  5
5A1
100
AcDbEntity
  8
RACCORDO
100
AcDbLine
 62
250
  6
CONTINUOUS
 10
126.688432139
 20
124.4839896705
 11
126.7866868983
 21
124.4839896705
  0
LINE
  5
5A2
100
AcDbEntity
  8
RACCORDO
100
AcDbLine
 62
250
  6
CONTINUOUS
 10
123.888432139
 20
125.5991395574
 11
123.9457820491
 21
125.5991395574
  0
LINE
  5
5A3
100
AcDbEntity
  8
RACCORDO
100
AcDbLine
 62
250
  6
CONTINUOUS
 10
124.2452378793
 20
125.6148333724
 11
124.3843974878
 21
125.6148333724
  0
LINE
  5
5A4
100
AcDbEntity
  8
RACCORDO
100
AcDbLine
 62
250
  6
CONTINUOUS
 10
126.7866868983
 20
124.4839896705
 11
132.7753676223
 21
124.3794568596
  0
LINE
  5
5A5
100
AcDbEntity
  8
RACCORDO
100
AcDbLine
 62
7
  6
CONTINUOUS
 10
126.7866868983
 20
124.6839592095
 11
132.7753676223
 21
124.5794263986
  0
LWPOLYLINE
  5
5A6
100
AcDbEntity
  8
RACCORDO
100
AcDbPolyline
 62
250
  6
CONTINUOUS
 90
10
 70
0
 10
128.6670874976
 20
126.2661361157
 10
128.6378894358
 20
126.2762724623
 10
128.6080169714
 20
126.285414202
 10
128.5774701046
 20
126.2935613348
 10
128.5464358694
 20
126.3007613313
 10
128.5147272318
 20
126.3069667209
 10
128.4817830897
 20
126.312035092
 10
128.4474164091
 20
126.315918974
 10
128.411814224
 20
126.3186658376
 10
128.3749765344
 20
126.3202756827
  0
LINE
  5
5A7
100
AcDbEntity
  8
RACCORDO
100
AcDbLine
 62
250
  6
CONTINUOUS
 10
131.5435040069
 20
125.219206125
 11
128.6670874976
 21
126.2661361157
  0
LINE
  5
5A8
100
AcDbEntity
  8
RACCORDO
100
AcDbLine
 62
7
  6
CONTINUOUS
 10
131.5724724256
 20
125.3131753871
 11
128.6960559163
 21
126.3601053778
  0
LINE
  5
5A9
100
AcDbEntity
  8
RACCORDO
100
AcDbLine
 62
250
  6
CONTINUOUS
 10
134.1919226203
 20
123.7189064159
 11
132.7753676223
 21
124.3794568596
  0
LINE
  5
5AA
100
AcDbEntity
  8
RACCORDO
100
AcDbLine
 62
7
  6
CONTINUOUS
 10
134.2729557913
 20
123.9001679733
 11
132.8564007934
 21
124.560718417
  0
LWPOLYLINE
  5
5AB
100
AcDbEntity
  8
RACCORDO
100
AcDbPolyline
 62
250
  6
CONTINUOUS
 90
13
 70
0
 10
124.3774207779
 20
125.8145592794
 10
124.3593542533
 20
125.8119777019
 10
124.3417539032
 20
125.8061778756
 10
124.3249070053
 20
125.797254676
 10
124.3090893544
 20
125.7853546933
 10
124.2945580831
 20
125.7706719191
 10
124.281548234
 20
125.7534430817
 10
124.2702686707
 20
125.7339399889
 10
124.2609101984
 20
125.7124870271
 10
124.2536332716
 20
125.6894593365
 10
124.2485521936
 20
125.6652453078
 10
124.2457405987
 20
125.640233968
 10
124.2452378793
 20
125.6148333724
  0
LWPOLYLINE
  5
5AC
100
AcDbEntity
  8
RACCORDO
100
AcDbPolyline
 62
250
  6
CONTINUOUS
 90
13
 70
0
 10
124.0779649477
 20
125.7988654643
 10
124.0598929299
 20
125.7962825959
 10
124.0422881672
 20
125.7904798261
 10
124.0254380878
 20
125.7815525167
 10
124.0096184116
 20
125.7696476391
 10
123.9950864241
 20
125.7549597608
 10
123.9820774209
 20
125.7377266065
 10
123.9707999592
 20
125.718220607
 10
123.9614444307
 20
125.6967666314
 10
123.9541709745
 20
125.6737407883
 10
123.9490932304
 20
125.6495319419
 10
123.9462840312
 20
125.6245289277
 10
123.9457820491
 20
125.5991395574
  0
LINE
  5
5AD
100
AcDbEntity
  8
RACCORDO
100
AcDbLine
 62
7
  6
CONTINUOUS
 10
123.7515055004
 20
125.9111833876
 11
123.0253587776
 21
125.8476537813
  0
LINE
  5
5AE
100
AcDbEntity
  8
RACCORDO
100
AcDbLine
 62
7
  6
CONTINUOUS
 10
124.0779649477
 20
125.7988654643
 11
125.388432139
 21
125.8675441396
  0
LINE
  5
5AF
100
AcDbEntity
  8
DRAFT
100
AcDbLine
 62
7
  6
CONTINUOUS
 10
125.388432139
 20
125.8675441396
 11
126.688432139
 21
125.9356742527
  0
LINE
  5
5B0
100
AcDbEntity
  8
RACCORDO
100
AcDbLine
 62
250
  6
CONTINUOUS
 10
123.4010240319
 20
127.8230823598
 11
120.5753436648
 21
127.7490893153
  0
LINE
  5
5B1
100
AcDbEntity
  8
DRAFT
100
AcDbLine
 62
7
  6
CONTINUOUS
 10
123.888432139
 20
128.3356742527
 11
122.9139498556
 21
128.3101565361
  0
LINE
  5
5B2
100
AcDbEntity
  8
RACCORDO
100
AcDbLine
 62
7
  6
CONTINUOUS
 10
122.9139498556
 20
128.3101565361
 11
120.5753436648
 21
128.2489179778
  0
LINE
  5
5B3
100
AcDbEntity
  8
RACCORDO
100
AcDbLine
 62
250
  6
CONTINUOUS
 10
120.5753436648
 20
127.7490893153
 11
120.088432139
 21
127.7490893153
  0
LWPOLYLINE
  5
5B4
100
AcDbEntity
  8
0
100
AcDbPolyline
 62
7
  6
CONTINUOUS
 90
6
 70
0
 43
0.3500000006
 10
129.0598599243
 20
145.135696106
 10
130.1312914124
 20
145.135696106
 10
130.3455758972
 20
145.3499805908
 10
130.3455758972
 20
146.4214211426
 10
129.9170069275
 20
146.8499901123
 10
129.488428894
 20
146.8499901123
  0
LWPOLYLINE
  5
5B5
100
AcDbEntity
  8
0
100
AcDbPolyline
 62
7
  6
CONTINUOUS
 90
3
 70
0
 43
0.3500000006
 10
126.4884279785
 20
145.7785495605
 10
124.9884365845
 20
145.7785495605
 10
125.6312900391
 20
148.1356970215
  0
LINE
  5
5B6
100
AcDbEntity
  8
DRAFT
100
AcDbLine
 62
7
  6
CONTINUOUS
 10
126.688432139
 20
125.9356742527
 11
127.388432139
 21
125.9234557073
  0
LINE
  5
5B7
100
AcDbEntity
  8
RACCORDO
100
AcDbLine
 62
250
  6
CONTINUOUS
 10
128.3749765344
 20
126.3202756827
 11
127.8885886237
 21
126.3287656152
  0
LINE
  5
5B8
100
AcDbEntity
  8
RACCORDO
100
AcDbLine
 62
7
  6
CONTINUOUS
 10
128.3714881795
 20
126.4202604522
 11
127.9457041108
 21
126.4276925408
  0
LWPOLYLINE
  5
5B9
100
AcDbEntity
  8
0
100
AcDbPolyline
 62
7
  6
CONTINUOUS
 90
13
 70
0
 43
0.3500000006
 10
127.3027217102
 20
138.7957866211
 10
127.0170060425
 20
139.010071106
 10
127.0170060425
 20
139.6529245605
 10
127.3027217102
 20
140.0814935303
 10
127.9455751648
 20
140.0814935303
 10
128.2312908325
 20
139.6529245605
 10
128.2312908325
 20
139.010071106
 10
127.9455751648
 20
138.7957866211
 10
128.3741441345
 20
138.3672176514
 10
128.3741441345
 20
137.5100797119
 10
127.9455751648
 20
137.0814926147
 10
127.3027217102
 20
137.0814926147
 10
126.8741436768
 20
137.5100797119
  0
ARC
  5
5BA
100
AcDbEntity
  8
RACCORDO
100
AcDbCircle
 62
7
  6
CONTINUOUS
 10
120.588432139
 20
76.1222591901
 40
0.5
100
AcDbArc
 50
180.0
 51
268.5
  0
ARC
  5
5BB
100
AcDbEntity
  8
RACCORDO
100
AcDbCircle
 62
7
  6
CONTINUOUS
 10
123.038432139
 20
81.430643122
 40
0.15
100
AcDbArc
 50
110.0
 51
180.0
  0
ARC
  5
5BC
100
AcDbEntity
  8
RACCORDO
100
AcDbCircle
 62
7
  6
CONTINUOUS
 10
123.038432139
 20
78.1731239288
 40
0.15
100
AcDbArc
 50
180.0
 51
265.0
  0
ARC
  5
5BD
100
AcDbEntity
  8
RACCORDO
100
AcDbCircle
 62
7
  6
CONTINUOUS
 10
124.088432139
 20
78.2722089481
 40
0.2
100
AcDbArc
 50
180.0
 51
267.0
  0
ARC
  5
5BE
100
AcDbEntity
  8
RACCORDO
100
AcDbCircle
 62
7
  6
CONTINUOUS
 10
123.738432139
 20
82.0046756177
 40
0.15
100
AcDbArc
 50
290.0
 51
360.0
  0
ARC
  5
5BF
100
AcDbEntity
  8
RACCORDO
100
AcDbCircle
 62
7
  6
CONTINUOUS
 10
123.738432139
 20
77.8107359131
 40
0.15
100
AcDbArc
 50
0.0
 51
85.0
  0
ARC
  5
5C0
100
AcDbEntity
  8
RACCORDO
100
AcDbCircle
 62
7
  6
CONTINUOUS
 10
124.038432139
 20
84.5186514159
 40
0.15
100
AcDbArc
 50
105.0
 51
179.9999999999
  0
ARC
  5
5C1
100
AcDbEntity
  8
RACCORDO
100
AcDbCircle
 62
7
  6
CONTINUOUS
 10
126.788432139
 20
79.0874045264
 40
0.1
100
AcDbArc
 50
91.0
 51
180.0
  0
ARC
  5
5C2
100
AcDbEntity
  8
RACCORDO
100
AcDbCircle
 62
7
  6
CONTINUOUS
 10
126.188432139
 20
86.2759732301
 40
1.0
100
AcDbArc
 50
271.0
 51
360.0
  0
ARC
  5
5C3
100
AcDbEntity
  8
RACCORDO
100
AcDbCircle
 62
7
  6
CONTINUOUS
 10
126.188432139
 20
91.5953752753
 40
1.0
100
AcDbArc
 50
0.0
 51
89.0
  0
ARC
  5
5C4
100
AcDbEntity
  8
RACCORDO
100
AcDbCircle
 62
7
  6
CONTINUOUS
 10
124.088432139
 20
85.0391348001
 40
0.2
100
AcDbArc
 50
91.0
 51
180.0
  0
ARC
  5
5C5
100
AcDbEntity
  8
RACCORDO
100
AcDbCircle
 62
7
  6
CONTINUOUS
 10
124.088432139
 20
92.8322137053
 40
0.2
100
AcDbArc
 50
180.0
 51
269.0
  0
ARC
  5
5C6
100
AcDbEntity
  8
RACCORDO
100
AcDbCircle
 62
7
  6
CONTINUOUS
 10
124.038432139
 20
93.3595816006
 40
0.15
100
AcDbArc
 50
180.0
 51
262.0
  0
ARC
  5
5C7
100
AcDbEntity
  8
RACCORDO
100
AcDbCircle
 62
7
  6
CONTINUOUS
 10
120.588432139
 20
127.7490893153
 40
0.5
100
AcDbArc
 50
91.5
 51
180.0
  0
ARC
  5
5C8
100
AcDbEntity
  8
RACCORDO
100
AcDbCircle
 62
7
  6
CONTINUOUS
 10
123.038432139
 20
125.6982245766
 40
0.15
100
AcDbArc
 50
95.0
 51
180.0
  0
ARC
  5
5C9
100
AcDbEntity
  8
RACCORDO
100
AcDbCircle
 62
7
  6
CONTINUOUS
 10
123.038432139
 20
122.4407053834
 40
0.15
100
AcDbArc
 50
180.0
 51
250.0
  0
ARC
  5
5CA
100
AcDbEntity
  8
RACCORDO
100
AcDbCircle
 62
7
  6
CONTINUOUS
 10
126.188432139
 20
112.2759732301
 40
1.0
100
AcDbArc
 50
271.0
 51
360.0
  0
ARC
  5
5CB
100
AcDbEntity
  8
RACCORDO
100
AcDbCircle
 62
7
  6
CONTINUOUS
 10
126.188432139
 20
117.5953752753
 40
1.0
100
AcDbArc
 50
0.0
 51
89.0
  0
ARC
  5
5CC
100
AcDbEntity
  8
RACCORDO
100
AcDbCircle
 62
7
  6
CONTINUOUS
 10
124.088432139
 20
118.8322137053
 40
0.2
100
AcDbArc
 50
180.0
 51
269.0
  0
ARC
  5
5CD
100
AcDbEntity
  8
RACCORDO
100
AcDbCircle
 62
7
  6
CONTINUOUS
 10
124.088432139
 20
111.0391348001
 40
0.2
100
AcDbArc
 50
91.0
 51
180.0
  0
ARC
  5
5CE
100
AcDbEntity
  8
RACCORDO
100
AcDbCircle
 62
7
  6
CONTINUOUS
 10
124.038432139
 20
110.5117669049
 40
0.15
100
AcDbArc
 50
98.0
 51
180.0
  0
ARC
  5
5CF
100
AcDbEntity
  8
RACCORDO
100
AcDbCircle
 62
7
  6
CONTINUOUS
 10
124.088432139
 20
125.5991395574
 40
0.2
100
AcDbArc
 50
93.0
 51
180.0
  0
ARC
  5
5D0
100
AcDbEntity
  8
RACCORDO
100
AcDbCircle
 62
7
  6
CONTINUOUS
 10
123.738432139
 20
121.8666728877
 40
0.15
100
AcDbArc
 50
0.0
 51
70.0
  0
ARC
  5
5D1
100
AcDbEntity
  8
RACCORDO
100
AcDbCircle
 62
7
  6
CONTINUOUS
 10
123.738432139
 20
126.0606125923
 40
0.15
100
AcDbArc
 50
275.0
 51
360.0
  0
ARC
  5
5D2
100
AcDbEntity
  8
RACCORDO
100
AcDbCircle
 62
7
  6
CONTINUOUS
 10
124.038432139
 20
119.3526970896
 40
0.15
100
AcDbArc
 50
180.0
 51
255.0
  0
ARC
  5
5D3
100
AcDbEntity
  8
RACCORDO
100
AcDbCircle
 62
7
  6
CONTINUOUS
 10
126.788432139
 20
124.783943979
 40
0.1
100
AcDbArc
 50
180.0
 51
269.0
  0
ARC
  5
5D4
100
AcDbEntity
  8
RACCORDO
100
AcDbCircle
 62
7
  6
CONTINUOUS
 10
130.888432139
 20
80.4375583599
 40
2.0
100
AcDbArc
 50
290.0
 51
324.8987208427
  0
ARC
  5
5D5
100
AcDbEntity
  8
RACCORDO
100
AcDbCircle
 62
7
  6
CONTINUOUS
 10
130.088432139
 20
85.7498878151
 40
1.0
100
AcDbArc
 50
180.0
 51
219.9999999998
  0
ARC
  5
5D6
100
AcDbEntity
  8
RACCORDO
100
AcDbCircle
 62
7
  6
CONTINUOUS
 10
128.354035773
 20
78.4509357484
 40
1.0
100
AcDbArc
 50
271.0
 51
290.0
  0
ARC
  5
5D7
100
AcDbEntity
  8
RACCORDO
100
AcDbCircle
 62
7
  6
CONTINUOUS
 10
128.888432139
 20
81.7020339651
 40
0.2
100
AcDbArc
 50
271.0
 51
360.0
  0
ARC
  5
5D8
100
AcDbEntity
  8
RACCORDO
100
AcDbCircle
 62
7
  6
CONTINUOUS
 10
128.888432139
 20
84.7745510599
 40
0.2
100
AcDbArc
 50
0.0
 51
89.0
  0
ARC
  5
5D9
100
AcDbEntity
  8
RACCORDO
100
AcDbCircle
 62
7
  6
CONTINUOUS
 10
128.888432139
 20
92.5693145404
 40
0.2
100
AcDbArc
 50
0.0
 51
89.0
  0
ARC
  5
5DA
100
AcDbEntity
  8
RACCORDO
100
AcDbCircle
 62
7
  6
CONTINUOUS
 10
134.188432139
 20
80.1524420896
 40
0.2
100
AcDbArc
 50
295.0
 51
360.0
  0
ARC
  5
5DB
100
AcDbEntity
  8
RACCORDO
100
AcDbCircle
 62
7
  6
CONTINUOUS
 10
134.188432139
 20
83.1450171534
 40
0.2
100
AcDbArc
 50
0.0
 51
73.0
  0
ARC
  5
5DC
100
AcDbEntity
  8
RACCORDO
100
AcDbCircle
 62
7
  6
CONTINUOUS
 10
132.771877141
 20
79.4918916458
 40
0.2
100
AcDbArc
 50
271.0
 51
295.0
  0
ARC
  5
5DD
100
AcDbEntity
  8
RACCORDO
100
AcDbCircle
 62
7
  6
CONTINUOUS
 10
130.888432139
 20
123.4337901455
 40
2.0
100
AcDbArc
 50
35.1012791573
 51
70.0
  0
ARC
  5
5DE
100
AcDbEntity
  8
RACCORDO
100
AcDbCircle
 62
7
  6
CONTINUOUS
 10
130.088432139
 20
118.1214606904
 40
1.0
100
AcDbArc
 50
140.0000174769
 51
180.0000000007
  0
ARC
  5
5DF
100
AcDbEntity
  8
RACCORDO
100
AcDbCircle
 62
7
  6
CONTINUOUS
 10
128.354035773
 20
125.420412757
 40
1.0
100
AcDbArc
 50
70.0
 51
89.0
  0
ARC
  5
5E0
100
AcDbEntity
  8
RACCORDO
100
AcDbCircle
 62
7
  6
CONTINUOUS
 10
128.888432139
 20
122.1693145404
 40
0.2
100
AcDbArc
 50
0.0
 51
89.0
  0
ARC
  5
5E1
100
AcDbEntity
  8
RACCORDO
100
AcDbCircle
 62
7
  6
CONTINUOUS
 10
128.888432139
 20
119.0967974456
 40
0.2
100
AcDbArc
 50
271.0
 51
360.0
  0
ARC
  5
5E2
100
AcDbEntity
  8
RACCORDO
100
AcDbCircle
 62
7
  6
CONTINUOUS
 10
128.888432139
 20
111.3020339651
 40
0.2
100
AcDbArc
 50
271.0
 51
360.0
  0
ARC
  5
5E3
100
AcDbEntity
  8
RACCORDO
100
AcDbCircle
 62
7
  6
CONTINUOUS
 10
134.188432139
 20
123.7189064159
 40
0.2
100
AcDbArc
 50
0.0
 51
65.0
  0
ARC
  5
5E4
100
AcDbEntity
  8
RACCORDO
100
AcDbCircle
 62
7
  6
CONTINUOUS
 10
132.771877141
 20
124.3794568596
 40
0.2
100
AcDbArc
 50
65.0
 51
89.0
  0
ARC
  5
5E5
100
AcDbEntity
  8
RACCORDO
100
AcDbCircle
 62
7
  6
CONTINUOUS
 10
134.188432139
 20
120.726331352
 40
0.2
100
AcDbArc
 50
287.0
 51
360.0
  0
ELLIPSE
  5
5E6
100
AcDbEntity
  8
RACCORDO
100
AcDbEllipse
 62
7
  6
CONTINUOUS
 10
157.6791510859
 20
78.204078835
 30
0.0
 11
-0.0632956409
 21
0.1900413429
 31
0.0
 40
0.9984778551
 41
-2.4156290662
 42
-1.8927600658
  0
ELLIPSE
  5
5E7
100
AcDbEntity
  8
RACCORDO
100
AcDbEllipse
 62
7
  6
CONTINUOUS
 10
157.6791510859
 20
125.6672696704
 30
0.0
 11
0.0632956409
 21
0.1900413429
 31
0.0
 40
0.9984778551
 41
-1.2488325878
 42
-0.7259635874
  0
ELLIPSE
  5
5E8
100
AcDbEntity
  8
RACCORDO
100
AcDbEllipse
 62
7
  6
CONTINUOUS
 10
157.7518502867
 20
92.9871483886
 30
0.0
 11
-0.0186723195
 21
0.1503416563
 31
0.0
 40
0.9901201668
 41
-2.2496080777
 42
-1.6955831035
  0
ELLIPSE
  5
5E9
100
AcDbEntity
  8
RACCORDO
100
AcDbEllipse
 62
7
  6
CONTINUOUS
 10
157.7518502867
 20
110.8842001168
 30
0.0
 11
0.0186723195
 21
0.1503416563
 31
0.0
 40
0.9901201668
 41
-1.4460095501
 42
-0.8919845759
  0
ELLIPSE
  5
5EA
100
AcDbEntity
  8
RACCORDO
100
AcDbEllipse
 62
7
  6
CONTINUOUS
 10
147.1294560207
 20
122.0821415655
 30
0.0
 11
0.1418092487
 21
-0.1418092487
 31
0.0
 40
0.9972646886
 41
-2.7157618696
 42
-2.3575640181
  0
ELLIPSE
  5
5EB
100
AcDbEntity
  8
RACCORDO
100
AcDbEllipse
 62
7
  6
CONTINUOUS
 10
147.1294560207
 20
81.7892069399
 30
0.0
 11
0.1418092487
 21
0.1418092487
 31
0.0
 40
0.9972646886
 41
2.3575640181
 42
2.7157618696
  0
ELLIPSE
  5
5EC
100
AcDbEntity
  8
RACCORDO
100
AcDbEllipse
 62
7
  6
CONTINUOUS
 10
157.8569235182
 20
81.430643122
 30
0.0
 11
-0.0
 21
0.15
 31
0.0
 40
0.0261859216
 41
0.3490658504
 42
1.5707963268
  0
ELLIPSE
  5
5ED
100
AcDbEntity
  8
RACCORDO
100
AcDbEllipse
 62
7
  6
CONTINUOUS
 10
157.8569235182
 20
78.1731239288
 30
0.0
 11
-0.0
 21
0.15
 31
0.0
 40
0.0261859216
 41
-4.7123889804
 42
-3.2288591162
  0
ELLIPSE
  5
5EE
100
AcDbEntity
  8
RACCORDO
100
AcDbEllipse
 62
7
  6
CONTINUOUS
 10
146.9514395849
 20
78.1731239288
 30
0.0
 11
0.0
 21
0.15
 31
0.0
 40
0.0261859216
 41
-3.054326191
 42
-1.5707963268
  0
ELLIPSE
  5
5EF
100
AcDbEntity
  8
RACCORDO
100
AcDbEllipse
 62
7
  6
CONTINUOUS
 10
146.9514395849
 20
81.430643122
 30
0.0
 11
-0.0
 21
0.15
 31
0.0
 40
0.0261859216
 41
-1.5707963268
 42
-0.3490658504
  0
ELLIPSE
  5
5F0
100
AcDbEntity
  8
RACCORDO
100
AcDbEllipse
 62
7
  6
CONTINUOUS
 10
146.9514395849
 20
122.4407053834
 30
0.0
 11
0.0
 21
0.15
 31
0.0
 40
0.0261859216
 41
-2.7925268032
 42
-1.5707963268
  0
ELLIPSE
  5
5F1
100
AcDbEntity
  8
RACCORDO
100
AcDbEllipse
 62
7
  6
CONTINUOUS
 10
146.9514395849
 20
125.6982245766
 30
0.0
 11
-0.0
 21
0.15
 31
0.0
 40
0.0261859216
 41
-1.5707963268
 42
-0.0872664626
  0
ELLIPSE
  5
5F2
100
AcDbEntity
  8
RACCORDO
100
AcDbEllipse
 62
7
  6
CONTINUOUS
 10
157.8569235182
 20
125.6982245766
 30
0.0
 11
-0.0
 21
0.15
 31
0.0
 40
0.0261859216
 41
0.0872664626
 42
1.5707963268
  0
ELLIPSE
  5
5F3
100
AcDbEntity
  8
RACCORDO
100
AcDbEllipse
 62
7
  6
CONTINUOUS
 10
157.8569235182
 20
122.4407053834
 30
0.0
 11
-0.0
 21
0.15
 31
0.0
 40
0.0261859216
 41
-4.7123889804
 42
-3.490658504
  0
ELLIPSE
  5
5F4
100
AcDbEntity
  8
RACCORDO
100
AcDbEllipse
 62
7
  6
CONTINUOUS
 10
157.3662556706
 20
76.0486001336
 30
0.0
 11
0.4669435361
 21
0.1862915811
 31
0.0
 40
0.9645753533
 41
-1.962981484
 42
-0.3928703899
  0
ELLIPSE
  5
5F5
100
AcDbEntity
  8
RACCORDO
100
AcDbEllipse
 62
7
  6
CONTINUOUS
 10
157.3662556706
 20
127.8227483718
 30
0.0
 11
0.4669435361
 21
-0.1862915811
 31
0.0
 40
0.9645753533
 41
0.3928703899
 42
1.962981484
  0
ELLIPSE
  5
5F6
100
AcDbEntity
  8
RACCORDO
100
AcDbEllipse
 62
7
  6
CONTINUOUS
 10
147.4421074325
 20
76.0486001336
 30
0.0
 11
0.4669435361
 21
-0.1862915811
 31
0.0
 40
0.9645753533
 41
-2.7487222637
 42
-1.1786111696
  0
ELLIPSE
  5
5F7
100
AcDbEntity
  8
RACCORDO
100
AcDbEllipse
 62
7
  6
CONTINUOUS
 10
147.4421074325
 20
127.8227483718
 30
0.0
 11
0.4669435361
 21
0.1862915811
 31
0.0
 40
0.9645753533
 41
1.1786111696
 42
2.7487222637
  0
ELLIPSE
  5
5F8
100
AcDbEntity
  8
RACCORDO
100
AcDbEllipse
 62
7
  6
CONTINUOUS
 10
146.9331094398
 20
82.0046756177
 30
0.0
 11
0.0
 21
0.15
 31
0.0
 40
0.0261859216
 41
-4.7123889804
 42
-3.490658504
  0
ELLIPSE
  5
5F9
100
AcDbEntity
  8
RACCORDO
100
AcDbEllipse
 62
7
  6
CONTINUOUS
 10
146.9331094398
 20
77.8107359131
 30
0.0
 11
0.0
 21
0.15
 31
0.0
 40
0.0261859216
 41
0.0872664626
 42
1.5707963268
  0
ELLIPSE
  5
5FA
100
AcDbEntity
  8
RACCORDO
100
AcDbEllipse
 62
7
  6
CONTINUOUS
 10
146.9331094398
 20
126.0606125923
 30
0.0
 11
-0.0
 21
0.15
 31
0.0
 40
0.0261859216
 41
-4.7123889804
 42
-3.2288591162
  0
ELLIPSE
  5
5FB
100
AcDbEntity
  8
RACCORDO
100
AcDbEllipse
 62
7
  6
CONTINUOUS
 10
146.9331094398
 20
121.8666728877
 30
0.0
 11
0.0
 21
0.15
 31
0.0
 40
0.0261859216
 41
0.3490658504
 42
1.5707963268
  0
ELLIPSE
  5
5FC
100
AcDbEntity
  8
RACCORDO
100
AcDbEllipse
 62
7
  6
CONTINUOUS
 10
157.8752536633
 20
126.0606125923
 30
0.0
 11
0.0
 21
0.15
 31
0.0
 40
0.0261859216
 41
-3.054326191
 42
-1.5707963268
  0
ELLIPSE
  5
5FD
100
AcDbEntity
  8
RACCORDO
100
AcDbEllipse
 62
7
  6
CONTINUOUS
 10
157.8752536633
 20
77.8107359131
 30
0.0
 11
0.0
 21
0.15
 31
0.0
 40
0.0261859216
 41
-1.5707963268
 42
-0.0872664626
  0
ELLIPSE
  5
5FE
100
AcDbEntity
  8
RACCORDO
100
AcDbEllipse
 62
7
  6
CONTINUOUS
 10
157.8752536633
 20
82.0046756177
 30
0.0
 11
-0.0
 21
0.15
 31
0.0
 40
0.0261859216
 41
-2.7925268032
 42
-1.5707963268
  0
ELLIPSE
  5
5FF
100
AcDbEntity
  8
RACCORDO
100
AcDbEllipse
 62
7
  6
CONTINUOUS
 10
157.8752536633
 20
121.8666728877
 30
0.0
 11
-0.0
 21
0.15
 31
0.0
 40
0.0261859216
 41
-1.5707963268
 42
-0.3490658504
  0
ELLIPSE
  5
600
100
AcDbEntity
  8
RACCORDO
100
AcDbEllipse
 62
7
  6
CONTINUOUS
 10
124.288432139
 20
87.485720044
 30
0.0
 11
-0.0869924508
 21
0.2875838748
 31
0.0
 40
0.998353198
 41
7.5597810899
 42
9.1305774167
  0
ELLIPSE
  5
601
100
AcDbEntity
  8
RACCORDO
100
AcDbEllipse
 62
7
  6
CONTINUOUS
 10
125.4394392673
 20
87.4846671244
 30
0.0
 11
0.2373074343
 21
-0.1853525366
 31
0.0
 40
0.996240269
 41
-0.9067956571
 42
0.661261614
  0
ELLIPSE
  5
602
100
AcDbEntity
  8
RACCORDO
100
AcDbEllipse
 62
7
  6
CONTINUOUS
 10
125.4394392673
 20
90.3866813811
 30
0.0
 11
0.2373074343
 21
0.1853525366
 31
0.0
 40
0.996240269
 41
-0.6612616139
 42
0.9067956571
  0
ELLIPSE
  5
603
100
AcDbEntity
  8
RACCORDO
100
AcDbEllipse
 62
7
  6
CONTINUOUS
 10
124.288432139
 20
90.3856284614
 30
0.0
 11
0.0869924508
 21
0.2875838748
 31
0.0
 40
0.998353198
 41
0.2942005441
 42
1.7769428513
  0
ELLIPSE
  5
604
100
AcDbEntity
  8
RACCORDO
100
AcDbEllipse
 62
7
  6
CONTINUOUS
 10
124.288432139
 20
113.485720044
 30
0.0
 11
-0.0869924508
 21
0.2875838748
 31
0.0
 40
0.998353198
 41
7.5597810899
 42
9.1305774167
  0
ELLIPSE
  5
605
100
AcDbEntity
  8
RACCORDO
100
AcDbEllipse
 62
7
  6
CONTINUOUS
 10
125.4394392673
 20
113.4846671244
 30
0.0
 11
0.2373074343
 21
-0.1853525366
 31
0.0
 40
0.996240269
 41
-0.9067956571
 42
0.661261614
  0
ELLIPSE
  5
606
100
AcDbEntity
  8
RACCORDO
100
AcDbEllipse
 62
7
  6
CONTINUOUS
 10
125.4394392673
 20
116.3866813811
 30
0.0
 11
0.2373074343
 21
0.1853525366
 31
0.0
 40
0.996240269
 41
-0.661261614
 42
0.9067956571
  0
ELLIPSE
  5
607
100
AcDbEntity
  8
RACCORDO
100
AcDbEllipse
 62
7
  6
CONTINUOUS
 10
124.288432139
 20
116.3856284614
 30
0.0
 11
0.0869924508
 21
0.2875838748
 31
0.0
 40
0.998353198
 41
0.2942005441
 42
1.7769428513
  0
ENDSEC
  0
SECTION
  2
OBJECTS
  0
DICTIONARY
  5
C
100
AcDbDictionary
280
0
281
1
  3
ACAD_GROUP
350
D
  3
ACAD_MLINESTYLE
350
17
  3
ACAD_LAYOUT
350
1A
  3
ACAD_PLOTSETTINGS
350
19
  3
ACAD_PLOTSTYLENAME
350
E
  0
DICTIONARY
  5
D
102
{ACAD_REACTORS
330
C
102
}
100
AcDbDictionary
280
0
281
1
  0
ACDBDICTIONARYWDFLT
  5
E
102
{ACAD_REACTORS
330
C
102
}
100
AcDbDictionary
281
1
  3
Normal
350
F
100
AcDbDictionaryWithDefault
340
F
  0
DICTIONARY
  5
17
102
{ACAD_REACTORS
330
C
102
}
100
AcDbDictionary
280
0
281
1
  3
Standard
350
18
  0
DICTIONARY
  5
19
102
{ACAD_REACTORS
330
C
102
}
100
AcDbDictionary
281
1
  0
DICTIONARY
  5
1A
102
{ACAD_REACTORS
330
C
102
}
100
AcDbDictionary
281
1
  3
Model
350
608
  3
Layout1
350
609
  0
ACDBPLACEHOLDER
  5
F
102
{ACAD_REACTORS
330
E
102
}
  0
MLINESTYLE
  5
18
102
{ACAD_REACTORS
330
17
102
}
100
AcDbMlineStyle
  2
STANDARD
 70
0
  3

 62
256
 51
90.0
 52
90.0
 71
2
 49
0.5
 62
256
  6
BYLAYER
 49
-0.5
 62
256
  6
BYLAYER
  0
LAYOUT
  5
608
102
{ACAD_REACTORS
330
1A
102
}
100
AcDbPlotSettings
  1

  2
none_device
  4
ISO_A4_(297.00_x_210.00_MM)
  6

 40
0.0
 41
0.0
 42
0.0
 43
0.0
 44
297.0
 45
210.0
 46
0.0
 47
0.0
 48
0.0
 49
0.0
140
0.0
141
0.0
142
1.0
143
1.0
 70
1024
 72
1
 73
0
 74
0
  7

 75
0
147
1.0
148
0.0
149
0.0
100
AcDbLayout
  1
Model
 70
0
 71
0
 10
0.0
 20
0.0
 11
297.0
 21
210.0
 12
0.0
 22
0.0
 32
0.0
 14
0.0
 24
0.0
 34
0.0
 15
0.0
 25
0.0
 35
0.0
146
0.0
 13
0.0
 23
0.0
 33
0.0
 16
1.0
 26
0.0
 36
0.0
 17
0.0
 27
1.0
 37
0.0
 76
0
330
211
345
0
346
0
  0
LAYOUT
  5
609
102
{ACAD_REACTORS
330
1A
102
}
100
AcDbPlotSettings
  1

  2
none_device
  4
ISO_A4_(297.00_x_210.00_MM)
  6

 40
0.0
 41
0.0
 42
0.0
 43
0.0
 44
297.0
 45
210.0
 46
0.0
 47
0.0
 48
0.0
 49
0.0
140
0.0
141
0.0
142
1.0
143
1.0
 70
0
 72
1
 73
0
 74
0
  7

 75
0
147
1.0
148
0.0
149
0.0
100
AcDbLayout
  1
Layout1
 70
0
 71
1
 10
0.0
 20
0.0
 11
297.0
 21
210.0
 12
0.0
 22
0.0
 32
0.0
 14
0.0
 24
0.0
 34
0.0
 15
0.0
 25
0.0
 35
0.0
146
0.0
 13
0.0
 23
0.0
 33
0.0
 16
1.0
 26
0.0
 36
0.0
 17
0.0
 27
1.0
 37
0.0
 76
0
330
212
345
0
346
0
  0
ENDSEC
  0
EOF
