  0
SECTION
  2
HEADER
  9
$ACADVER
  1
AC1024
  9
$DWGCODEPAGE
  3
ANSI_1252
  9
$EXTMAX
 10
297.0
 20
210.0
 30
0.0
  9
$EXTMIN
 10
0.0
 20
0.0
 30
0.0
  9
$LIMMIN
 10
0.0
 20
0.0
  9
$LIMMAX
 10
297.0
 20
210.0
  9
$VIEWCTR
 10
148.5
 20
105.0
  9
$VIEWSIZE
 40
210.0
  9
$CLAYER
  8
0
  9
$LTSCALE
 40
16.335
  9
$CELTYPE
  6
BYLAYER
  9
$DIMSCALE
 40
1.0
  9
$DIMASZ
 40
3.0
  9
$DIMEXO
 40
0.5
  9
$DIMDLI
 40
11.286
  9
$DIMEXE
 40
1.5
  9
$DIMCEN
 40
2.673
  9
$DIMLFAC
 40
1.0
  9
$DIMBLK
  1
_FILLED
  9
$DIMALT
 70
0
  9
$DIMALTF
 40
0.0393700787
  9
$DIMTXT
 40
3.0
  9
$DIMTOL
 70
1
  9
$DIMLIM
 70
0
  9
$DIMTFAC
 40
1.0
  9
$DIMTP
 40
0.01
  9
$DIMTM
 40
0.01
  9
$DIMGAP
 40
0.625
  9
$DIMDSEP
 70
44
  9
$AUNITS
 70
0
  9
$PDMODE
 70
3
  9
$PDSIZE
 40
3.0
  9
$HANDSEED
  5
34B
  9
$TILEMODE
 70
1
  9
$MEASUREMENT
 70
1
  9
$INSUNITS
 70
4
  0
ENDSEC
  0
SECTION
  2
CLASSES
  0
CLASS
  1
ACDBDICTIONARYWDFLT
  2
AcDbDictionaryWithDefault
  3
AutoCAD 2000
 90
0
 91
1
280
0
281
0
  0
CLASS
  1
ACDBPLACEHOLDER
  2
AcDbPlaceHolder
  3
AutoCAD 2000
 90
0
 91
1
280
0
281
0
  0
CLASS
  1
LAYOUT
  2
AcDbLayout
  3
AutoCAD 2000
 90
0
 91
0
280
0
281
0
  0
ENDSEC
  0
SECTION
  2
TABLES
  0
TABLE
  2
VPORT
  5
8
100
AcDbSymbolTable
 70
2
  0
VPORT
  5
1F4
100
AcDbSymbolTableRecord
100
AcDbViewportTableRecord
  2
*ACTIVE
 70
0
 10
0.0
 20
0.0
 11
1.0
 21
1.0
 12
148.5
 22
105.0
 13
0.0
 23
0.0
 14
1.0
 24
1.0
 15
0.0
 25
0.0
 16
0.0
 26
0.0
 36
1.0
 17
0.0
 27
0.0
 37
0.0
 40
210.0
 41
1.4142857143
 42
50.0
 43
0.0
 44
0.0
 50
0.0
 51
0.0
 71
0
 72
100
 73
1
 74
1
 75
0
 76
0
 77
0
 78
0
  0
ENDTAB
  0
TABLE
  2
LTYPE
  5
5
100
AcDbSymbolTable
 70
6
  0
LTYPE
  5
14
100
AcDbSymbolTableRecord
100
AcDbLinetypeTableRecord
  2
BYBLOCK
 70
0
  3

 72
65
 73
0
 40
0.0
  0
LTYPE
  5
15
100
AcDbSymbolTableRecord
100
AcDbLinetypeTableRecord
  2
BYLAYER
 70
0
  3

 72
65
 73
0
 40
0.0
  0
LTYPE
  5
16
100
AcDbSymbolTableRecord
100
AcDbLinetypeTableRecord
  2
CONTINUOUS
 70
64
  3
Solid line
 72
65
 73
0
 40
0.0
  0
LTYPE
  5
1F5
100
AcDbSymbolTableRecord
100
AcDbLinetypeTableRecord
  2
CENTER
 70
64
  3
____ _ ____ _ ____ _ ____ _ ____ _ ____ _ ____
 72
65
 73
4
 40
0.6
 49
0.375
 74
0
 49
-0.075
 74
0
 49
0.075
 74
0
 49
-0.075
 74
0
  0
LTYPE
  5
1F6
100
AcDbSymbolTableRecord
100
AcDbLinetypeTableRecord
  2
HIDDEN
 70
64
  3
- - - - - - - - - - - - - - - - - - - -
 72
65
 73
2
 40
0.2
 49
0.1
 74
0
 49
-0.1
 74
0
  0
LTYPE
  5
1F7
100
AcDbSymbolTableRecord
100
AcDbLinetypeTableRecord
  2
PHANTOM
 70
64
  3
_____ _ _ _____ _ _ _____ _ _ _____
 72
65
 73
6
 40
0.8
 49
0.45
 74
0
 49
-0.05
 74
0
 49
0.1
 74
0
 49
-0.05
 74
0
 49
0.1
 74
0
 49
-0.05
 74
0
  0
LTYPE
  5
1F8
100
AcDbSymbolTableRecord
100
AcDbLinetypeTableRecord
  2
DOT
 70
64
  3
. . . . . . . . . . . . . . . . . . . .
 72
65
 73
2
 40
0.2
 49
0.1
 74
0
 49
-0.1
 74
0
  0
LTYPE
  5
1F9
100
AcDbSymbolTableRecord
100
AcDbLinetypeTableRecord
  2
DASHED
 70
64
  3
- - - - - - - - - - - - - - - - - - - -
 72
65
 73
2
 40
0.2
 49
0.1
 74
0
 49
-0.1
 74
0
  0
ENDTAB
  0
TABLE
  2
LAYER
  5
2
100
AcDbSymbolTable
 70
36
  0
LAYER
  5
10
100
AcDbSymbolTableRecord
100
AcDbLayerTableRecord
  2
0
 70
0
 62
7
  6
CONTINUOUS
370
-3
390
F
  0
LAYER
  5
1FA
100
AcDbSymbolTableRecord
100
AcDbLayerTableRecord
  2
DEFAULT_1
 70
0
 62
7
  6
CENTER
370
-3
390
F
  0
LAYER
  5
1FB
100
AcDbSymbolTableRecord
100
AcDbLayerTableRecord
  2
DEFAULT_2
 70
0
 62
7
  6
HIDDEN
370
-3
390
F
  0
LAYER
  5
1FC
100
AcDbSymbolTableRecord
100
AcDbLayerTableRecord
  2
DEFAULT_3
 70
0
 62
7
  6
PHANTOM
370
-3
390
F
  0
LAYER
  5
1FD
100
AcDbSymbolTableRecord
100
AcDbLayerTableRecord
  2
ASSI
 70
0
 62
7
  6
CONTINUOUS
370
-3
390
F
  0
LAYER
  5
1FE
100
AcDbSymbolTableRecord
100
AcDbLayerTableRecord
  2
COLOR9
 70
0
 62
7
  6
CONTINUOUS
370
-3
390
F
  0
LAYER
  5
1FF
100
AcDbSymbolTableRecord
100
AcDbLayerTableRecord
  2
COORDINATE
 70
0
 62
7
  6
CONTINUOUS
370
-3
390
F
  0
LAYER
  5
200
100
AcDbSymbolTableRecord
100
AcDbLayerTableRecord
  2
COORD_ORIGINE
 70
0
 62
7
  6
CONTINUOUS
370
-3
390
F
  0
LAYER
  5
201
100
AcDbSymbolTableRecord
100
AcDbLayerTableRecord
  2
COPY_PUBLISH
 70
0
 62
7
  6
CONTINUOUS
370
-3
390
F
  0
LAYER
  5
202
100
AcDbSymbolTableRecord
100
AcDbLayerTableRecord
  2
COSMETICI
 70
0
 62
7
  6
CONTINUOUS
370
-3
390
F
  0
LAYER
  5
203
100
AcDbSymbolTableRecord
100
AcDbLayerTableRecord
  2
CURVE
 70
0
 62
7
  6
CONTINUOUS
370
-3
390
F
  0
LAYER
  5
204
100
AcDbSymbolTableRecord
100
AcDbLayerTableRecord
  2
DRAFT
 70
0
 62
7
  6
CONTINUOUS
370
-3
390
F
  0
LAYER
  5
205
100
AcDbSymbolTableRecord
100
AcDbLayerTableRecord
  2
IMPORT_IGES
 70
0
 62
7
  6
CONTINUOUS
370
-3
390
F
  0
LAYER
  5
206
100
AcDbSymbolTableRecord
100
AcDbLayerTableRecord
  2
INTF_1
 70
0
 62
7
  6
CONTINUOUS
370
-3
390
F
  0
LAYER
  5
207
100
AcDbSymbolTableRecord
100
AcDbLayerTableRecord
  2
INTF_5
 70
0
 62
7
  6
CONTINUOUS
370
-3
390
F
  0
LAYER
  5
208
100
AcDbSymbolTableRecord
100
AcDbLayerTableRecord
  2
INTF_6
 70
0
 62
7
  6
CONTINUOUS
370
-3
390
F
  0
LAYER
  5
209
100
AcDbSymbolTableRecord
100
AcDbLayerTableRecord
  2
INTF_YELLOW
 70
0
 62
7
  6
CONTINUOUS
370
-3
390
F
  0
LAYER
  5
20A
100
AcDbSymbolTableRecord
100
AcDbLayerTableRecord
  2
LIVELLO_1
 70
0
 62
7
  6
CONTINUOUS
370
-3
390
F
  0
LAYER
  5
20B
100
AcDbSymbolTableRecord
100
AcDbLayerTableRecord
  2
NOTE
 70
0
 62
7
  6
CONTINUOUS
370
-3
390
F
  0
LAYER
  5
20C
100
AcDbSymbolTableRecord
100
AcDbLayerTableRecord
  2
PIANI
 70
0
 62
7
  6
CONTINUOUS
370
-3
390
F
  0
LAYER
  5
20D
100
AcDbSymbolTableRecord
100
AcDbLayerTableRecord
  2
PIANI_ORIGINE
 70
0
 62
7
  6
CONTINUOUS
370
-3
390
F
  0
LAYER
  5
20E
100
AcDbSymbolTableRecord
100
AcDbLayerTableRecord
  2
PIANI_RIFERIMENTO
 70
0
 62
7
  6
CONTINUOUS
370
-3
390
F
  0
LAYER
  5
20F
100
AcDbSymbolTableRecord
100
AcDbLayerTableRecord
  2
PUNTI
 70
0
 62
7
  6
CONTINUOUS
370
-3
390
F
  0
LAYER
  5
210
100
AcDbSymbolTableRecord
100
AcDbLayerTableRecord
  2
RACCORDO
 70
0
 62
7
  6
CONTINUOUS
370
-3
390
F
  0
LAYER
  5
211
100
AcDbSymbolTableRecord
100
AcDbLayerTableRecord
  2
SIMBOLI
 70
0
 62
7
  6
CONTINUOUS
370
-3
390
F
  0
LAYER
  5
212
100
AcDbSymbolTableRecord
100
AcDbLayerTableRecord
  2
SMUSSO
 70
0
 62
7
  6
CONTINUOUS
370
-3
390
F
  0
LAYER
  5
213
100
AcDbSymbolTableRecord
100
AcDbLayerTableRecord
  2
SUPERFICI
 70
0
 62
7
  6
CONTINUOUS
370
-3
390
F
  0
LAYER
  5
214
100
AcDbSymbolTableRecord
100
AcDbLayerTableRecord
  2
TRASH
 70
0
 62
7
  6
CONTINUOUS
370
-3
390
F
  0
LAYER
  5
215
100
AcDbSymbolTableRecord
100
AcDbLayerTableRecord
  2
WHITE
 70
0
 62
7
  6
CONTINUOUS
370
-3
390
F
  0
LAYER
  5
216
100
AcDbSymbolTableRecord
100
AcDbLayerTableRecord
  2
XSEC_DATUMS
 70
0
 62
7
  6
CONTINUOUS
370
-3
390
F
  0
ENDTAB
  0
TABLE
  2
STYLE
  5
3
100
AcDbSymbolTable
 70
1
  0
STYLE
  5
11
100
AcDbSymbolTableRecord
100
AcDbTextStyleTableRecord
  2
STANDARD
 70
0
 40
0.0
 41
0.8
 50
0.0
 71
0
 42
0.2
  3
txt
  4

  0
STYLE
  5
217
100
AcDbSymbolTableRecord
100
AcDbTextStyleTableRecord
  2
TEXTSTYLE_1
 70
0
 40
0.0
 41
0.8
 50
0.0
 71
0
 42
0.2
  3
gdt
  4

  0
ENDTAB
  0
TABLE
  2
VIEW
  5
6
100
AcDbSymbolTable
 70
0
  0
ENDTAB
  0
TABLE
  2
UCS
  5
7
100
AcDbSymbolTable
 70
0
  0
ENDTAB
  0
TABLE
  2
APPID
  5
9
100
AcDbSymbolTable
 70
1
  0
APPID
  5
218
100
AcDbSymbolTableRecord
100
AcDbRegAppTableRecord
  2
ACAD
 70
0
  0
ENDTAB
  0
TABLE
  2
BLOCK_RECORD
  5
1
100
AcDbSymbolTable
 70
0
  0
BLOCK_RECORD
  5
219
100
AcDbSymbolTableRecord
100
AcDbBlockTableRecord
  2
*Model_Space
  0
BLOCK_RECORD
  5
21A
100
AcDbSymbolTableRecord
100
AcDbBlockTableRecord
  2
*Paper_Space
  0
BLOCK_RECORD
  5
21B
100
AcDbSymbolTableRecord
100
AcDbBlockTableRecord
  2
_FILLED
  0
BLOCK_RECORD
  5
21C
100
AcDbSymbolTableRecord
100
AcDbBlockTableRecord
  2
*D0
  0
BLOCK_RECORD
  5
21D
100
AcDbSymbolTableRecord
100
AcDbBlockTableRecord
  2
*D1
  0
BLOCK_RECORD
  5
21E
100
AcDbSymbolTableRecord
100
AcDbBlockTableRecord
  2
*D2
  0
BLOCK_RECORD
  5
21F
100
AcDbSymbolTableRecord
100
AcDbBlockTableRecord
  2
*D3
  0
ENDTAB
  0
TABLE
  2
DIMSTYLE
  5
A
100
AcDbSymbolTable
 70
1
100
AcDbDimStyleTable
 71
0
  0
DIMSTYLE
105
220
100
AcDbSymbolTableRecord
100
AcDbDimStyleTableRecord
  2
STANDARD
 70
0
  3

  4

 40
1.0
 41
3.0
 42
0.5
 43
0.38
 44
1.5
 45
0.0
 46
0.0
 47
0.01
 48
0.01
140
3.0
141
0.09
142
0.0
143
25.4
144
1.0
145
0.0
146
1.0
147
0.625
 71
1.0
 72
0.0
 73
0
 74
0
 75
0
 76
0
 77
1
 78
8
 79
2
170
0
171
1
172
0
173
0
174
0
175
0
176
0
177
0
178
0
270
2
179
2
271
2
272
2
273
2
274
2
275
0
280
0
281
0
282
0
283
1
284
8
285
0
286
0
287
3
288
0
340
11
278
44
341
21B
342
21B
343
21B
344
21B
  0
DIMSTYLE
105
221
100
AcDbSymbolTableRecord
100
AcDbDimStyleTableRecord
  2
DIMSTYLE_1
 70
0
  3

  4

 40
1.0
 41
3.0
 42
0.5
 43
0.38
 44
1.5
 45
0.0
 46
0.0
 47
0.0
 48
0.0
140
3.0
141
0.09
142
0.0
143
25.4
144
1.0
145
0.0
146
1.0
147
0.75
 71
0.0
 72
0.0
 73
0
 74
0
 75
0
 76
0
 77
1
 78
8
 79
2
170
0
171
1
172
0
173
0
174
0
175
0
176
0
177
0
178
0
270
2
179
2
271
2
272
2
273
2
274
2
275
0
280
0
281
0
282
0
283
1
284
8
285
0
286
0
287
3
288
0
340
11
278
44
341
21B
342
21B
343
21B
344
21B
  0
ENDTAB
  0
ENDSEC
  0
SECTION
  2
BLOCKS
  0
BLOCK
  5
20
100
AcDbEntity
  8
0
100
AcDbBlockBegin
  2
*Model_Space
 70
0
 10
0.0
 20
0.0
 30
0.0
  3
*Model_Space
  1

  0
ENDBLK
  5
21
100
AcDbEntity
  8
0
100
AcDbBlockEnd
  0
BLOCK
  5
1C
100
AcDbEntity
  8
0
100
AcDbBlockBegin
  2
*Paper_Space
 70
0
 10
0.0
 20
0.0
 30
0.0
  3
*Paper_Space
  1

  0
ENDBLK
  5
1D
100
AcDbEntity
  8
0
100
AcDbBlockEnd
  0
BLOCK
  5
222
100
AcDbEntity
  8
0
100
AcDbBlockBegin
  2
_FILLED
 70
64
 10
0.0
 20
0.0
  3
_FILLED
  1

  0
SOLID
  5
223
100
AcDbEntity
  8
0
  6
BYBLOCK
 62
0
100
AcDbTrace
 10
0.0
 20
0.0
 11
-1.0
 21
0.3166666667
 12
-1.0
 22
-0.3166666667
 13
-1.0
 23
-0.3166666667
  0
ENDBLK
  5
224
100
AcDbEntity
  8
0
  6
BYBLOCK
 62
0
100
AcDbBlockEnd
  0
BLOCK
  5
225
100
AcDbEntity
  8
0
100
AcDbBlockBegin
 62
7
  6
CONTINUOUS
  2
*D0
 70
65
 10
0.0
 20
0.0
  3
*D0
  1

  0
LINE
  5
226
100
AcDbEntity
  8
0
100
AcDbLine
 62
7
  6
CONTINUOUS
 10
176.1702385744
 20
105.8167342105
 11
184.8936165232
 21
105.8167342105
  0
LINE
  5
227
100
AcDbEntity
  8
0
100
AcDbLine
 62
7
  6
CONTINUOUS
 10
176.1702385744
 20
120.8167342105
 11
184.8936165232
 21
120.8167342105
  0
LINE
  5
228
100
AcDbEntity
  8
0
100
AcDbLine
 62
7
  6
CONTINUOUS
 10
183.3936165232
 20
105.8167342105
 11
183.3936165232
 21
113.3167342105
  0
LINE
  5
229
100
AcDbEntity
  8
0
100
AcDbLine
 62
7
  6
CONTINUOUS
 10
183.3936165232
 20
120.8167342105
 11
183.3936165232
 21
113.3167342105
  0
INSERT
  5
22A
100
AcDbEntity
  8
0
100
AcDbBlockReference
 62
7
  6
CONTINUOUS
  2
_FILLED
 10
183.3936165232
 20
105.8167342105
 41
3.0
 42
3.0
 43
3.0
 50
270.0
  0
INSERT
  5
22B
100
AcDbEntity
  8
0
100
AcDbBlockReference
 62
7
  6
CONTINUOUS
  2
_FILLED
 10
183.3936165232
 20
120.8167342105
 41
3.0
 42
3.0
 43
3.0
 50
90.0
  0
ENDBLK
  5
22C
100
AcDbEntity
  8
0
  6
BYBLOCK
 62
0
100
AcDbBlockEnd
  0
BLOCK
  5
22D
100
AcDbEntity
  8
0
100
AcDbBlockBegin
 62
7
  6
CONTINUOUS
  2
*D1
 70
65
 10
0.0
 20
0.0
  3
*D1
  1

  0
LINE
  5
22E
100
AcDbEntity
  8
0
100
AcDbLine
 62
7
  6
CONTINUOUS
 10
161.2572074013
 20
120.7297653836
 11
161.2572074013
 21
128.4199850415
  0
LINE
  5
22F
100
AcDbEntity
  8
0
100
AcDbLine
 62
7
  6
CONTINUOUS
 10
176.2572074013
 20
120.7297653836
 11
176.2572074013
 21
128.4199850415
  0
LINE
  5
230
100
AcDbEntity
  8
0
100
AcDbLine
 62
7
  6
CONTINUOUS
 10
161.2572074013
 20
126.9199850415
 11
168.7572074013
 21
126.9199850415
  0
LINE
  5
231
100
AcDbEntity
  8
0
100
AcDbLine
 62
7
  6
CONTINUOUS
 10
176.2572074013
 20
126.9199850415
 11
168.7572074013
 21
126.9199850415
  0
INSERT
  5
232
100
AcDbEntity
  8
0
100
AcDbBlockReference
 62
7
  6
CONTINUOUS
  2
_FILLED
 10
161.2572074013
 20
126.9199850415
 41
3.0
 42
3.0
 43
3.0
 50
180.0
  0
INSERT
  5
233
100
AcDbEntity
  8
0
100
AcDbBlockReference
 62
7
  6
CONTINUOUS
  2
_FILLED
 10
176.2572074013
 20
126.9199850415
 41
3.0
 42
3.0
 43
3.0
  0
ENDBLK
  5
234
100
AcDbEntity
  8
0
  6
BYBLOCK
 62
0
100
AcDbBlockEnd
  0
BLOCK
  5
235
100
AcDbEntity
  8
0
100
AcDbBlockBegin
 62
7
  6
CONTINUOUS
  2
*D2
 70
65
 10
0.0
 20
0.0
  3
*D2
  1

  0
LINE
  5
236
100
AcDbEntity
  8
0
100
AcDbLine
 62
7
  6
CONTINUOUS
 10
137.8007755516
 20
120.7297653836
 11
137.8007755516
 21
128.2922670952
  0
LINE
  5
237
100
AcDbEntity
  8
0
100
AcDbLine
 62
7
  6
CONTINUOUS
 10
131.8007755516
 20
120.5006901991
 11
131.8007755516
 21
128.2922670952
  0
LINE
  5
238
100
AcDbEntity
  8
0
100
AcDbLine
 62
7
  6
CONTINUOUS
 10
137.8007755516
 20
126.7922670952
 11
141.8007755516
 21
126.7922670952
  0
LINE
  5
239
100
AcDbEntity
  8
0
100
AcDbLine
 62
7
  6
CONTINUOUS
 10
141.8007755516
 20
126.7922670952
 11
134.8007755516
 21
126.7922670952
  0
LINE
  5
23A
100
AcDbEntity
  8
0
100
AcDbLine
 62
7
  6
CONTINUOUS
 10
131.8007755516
 20
126.7922670952
 11
127.8007755516
 21
126.7922670952
  0
LINE
  5
23B
100
AcDbEntity
  8
0
100
AcDbLine
 62
7
  6
CONTINUOUS
 10
127.8007755516
 20
126.7922670952
 11
134.8007755516
 21
126.7922670952
  0
INSERT
  5
23C
100
AcDbEntity
  8
0
100
AcDbBlockReference
 62
7
  6
CONTINUOUS
  2
_FILLED
 10
137.8007755516
 20
126.7922670952
 41
3.0
 42
3.0
 43
3.0
 50
180.0
  0
INSERT
  5
23D
100
AcDbEntity
  8
0
100
AcDbBlockReference
 62
7
  6
CONTINUOUS
  2
_FILLED
 10
131.8007755516
 20
126.7922670952
 41
3.0
 42
3.0
 43
3.0
  0
ENDBLK
  5
23E
100
AcDbEntity
  8
0
  6
BYBLOCK
 62
0
100
AcDbBlockEnd
  0
BLOCK
  5
23F
100
AcDbEntity
  8
0
100
AcDbBlockBegin
 62
7
  6
CONTINUOUS
  2
*D3
 70
65
 10
0.0
 20
0.0
  3
*D3
  1

  0
LINE
  5
240
100
AcDbEntity
  8
0
100
AcDbLine
 62
7
  6
CONTINUOUS
 10
131.8007755516
 20
120.5006901991
 11
131.8007755516
 21
136.0154408829
  0
LINE
  5
241
100
AcDbEntity
  8
0
100
AcDbLine
 62
7
  6
CONTINUOUS
 10
140.048047671
 20
116.0275079298
 11
140.048047671
 21
136.0154408829
  0
LINE
  5
242
100
AcDbEntity
  8
0
100
AcDbLine
 62
7
  6
CONTINUOUS
 10
131.8007755516
 20
134.5154408829
 11
135.9244116113
 21
134.5154408829
  0
LINE
  5
243
100
AcDbEntity
  8
0
100
AcDbLine
 62
7
  6
CONTINUOUS
 10
135.9244116113
 20
134.5154408829
 11
121.7293172801
 21
134.5154408829
  0
LINE
  5
244
100
AcDbEntity
  8
0
100
AcDbLine
 62
7
  6
CONTINUOUS
 10
140.048047671
 20
134.5154408829
 11
135.9244116113
 21
134.5154408829
  0
INSERT
  5
245
100
AcDbEntity
  8
0
100
AcDbBlockReference
 62
7
  6
CONTINUOUS
  2
_FILLED
 10
131.8007755516
 20
134.5154408829
 41
3.0
 42
3.0
 43
3.0
 50
180.0
  0
INSERT
  5
246
100
AcDbEntity
  8
0
100
AcDbBlockReference
 62
7
  6
CONTINUOUS
  2
_FILLED
 10
140.048047671
 20
134.5154408829
 41
3.0
 42
3.0
 43
3.0
  0
ENDBLK
  5
247
100
AcDbEntity
  8
0
  6
BYBLOCK
 62
0
100
AcDbBlockEnd
  0
ENDSEC
  0
SECTION
  2
ENTITIES
  0
DIMENSION
  5
248
100
AcDbEntity
  8
0
100
AcDbDimension
 62
7
  6
CONTINUOUS
  2
*D0
 10
183.3936165232
 20
120.8167342105
 11
183.3936165232
 21
111.388162782
 70
160
 71
2
 72
2
 41
0.9
 42
15.0
  3
DIMSTYLE_1
100
AcDbAlignedDimension
 13
175.6702385744
 23
105.8167342105
 14
175.6702385744
 24
120.8167342105
 50
90.0
100
AcDbRotatedDimension
  0
DIMENSION
  5
249
100
AcDbEntity
  8
0
100
AcDbDimension
 62
7
  6
CONTINUOUS
  2
*D1
 10
176.2572074013
 20
126.9199850415
 11
166.8286359727
 21
126.9199850415
 70
160
 71
2
 72
2
 41
0.9
 42
15.0
  3
DIMSTYLE_1
100
AcDbAlignedDimension
 13
161.2572074013
 23
120.2297653836
 14
176.2572074013
 24
120.2297653836
100
AcDbRotatedDimension
  0
DIMENSION
  5
24A
100
AcDbEntity
  8
0
100
AcDbDimension
 62
7
  6
CONTINUOUS
  2
*D2
 10
131.8007755516
 20
126.7922670952
 11
133.622204123
 21
126.7922670952
 70
160
 71
2
 72
2
 41
0.9
 42
6.0
  3
DIMSTYLE_1
100
AcDbAlignedDimension
 13
137.8007755516
 23
120.2297653836
 14
131.8007755516
 24
120.0006901991
 50
180.0
100
AcDbRotatedDimension
  0
DIMENSION
  5
24B
100
AcDbEntity
  8
0
100
AcDbDimension
 62
7
  6
CONTINUOUS
  2
*D3
 10
140.048047671
 20
134.5154408829
 11
121.7293172801
 21
134.5154408829
 70
160
 71
3
 72
2
 41
0.9
 42
8.2472721194
  3
DIMSTYLE_1
100
AcDbAlignedDimension
 13
131.8007755516
 23
120.0006901991
 14
140.048047671
 24
115.5275079298
100
AcDbRotatedDimension
  0
LWPOLYLINE
  5
24C
100
AcDbEntity
  8
0
100
AcDbPolyline
 62
7
  6
CONTINUOUS
 90
3
 70
0
 43
0.3500000006
 10
166.8286378784
 20
129.8128417969
 10
167.6857758179
 20
130.6699888
 10
167.6857758179
 20
127.6699878845
  0
LINE
  5
24D
100
AcDbEntity
  8
0
100
AcDbLine
 62
7
  6
CONTINUOUS
 10
161.8441762282
 20
83.3167342105
 11
175.6702385744
 21
83.3167342105
  0
LINE
  5
24E
100
AcDbEntity
  8
0
100
AcDbLine
 62
7
  6
CONTINUOUS
 10
161.8708158096
 20
83.384810293
 11
175.643598993
 21
83.384810293
  0
LINE
  5
24F
100
AcDbEntity
  8
0
100
AcDbLine
 62
7
  6
CONTINUOUS
 10
162.0732514127
 20
83.8935364962
 11
175.4411633899
 21
83.8935364962
  0
LINE
  5
250
100
AcDbEntity
  8
0
100
AcDbLine
 62
7
  6
CONTINUOUS
 10
175.9321132347
 20
120.1016064643
 11
175.6804051156
 21
120.0006901991
  0
LINE
  5
251
100
AcDbEntity
  8
0
100
AcDbLine
 62
7
  6
CONTINUOUS
 10
176.1891313189
 20
120.2031258023
 11
175.9321132347
 21
120.1016064643
  0
LINE
  5
252
100
AcDbEntity
  8
0
100
AcDbLine
 62
7
  6
CONTINUOUS
 10
176.2572074013
 20
120.2297653836
 11
176.1891313189
 21
120.2031258023
  0
LINE
  5
253
100
AcDbEntity
  8
0
100
AcDbLine
 62
7
  6
CONTINUOUS
 10
176.2572074013
 20
83.9037030374
 11
176.0173448722
 21
83.9980299164
  0
LWPOLYLINE
  5
254
100
AcDbEntity
  8
0
100
AcDbPolyline
 62
7
  6
CONTINUOUS
 90
3
 70
0
 10
176.0173448722
 20
83.9980299164
 10
175.7638109127
 20
84.0991694318
 10
175.6804051156
 20
84.1327782219
  0
LWPOLYLINE
  5
255
100
AcDbEntity
  8
0
100
AcDbPolyline
 62
7
  6
CONTINUOUS
 90
28
 70
0
 10
168.7573405266
 20
90.2590983913
 10
168.8234904876
 20
90.2632299946
 10
168.8870598463
 20
90.2743991052
 10
168.9480486029
 20
90.2926057231
 10
169.0071736079
 20
90.3182704193
 10
169.0637180108
 20
90.3509726228
 10
169.1155312593
 20
90.3894506204
 10
169.1625033417
 20
90.4340103447
 10
169.2047442698
 20
90.4843458631
 10
169.2404335261
 20
90.538277665
 10
169.2692246379
 20
90.5957760857
 10
169.2914640779
 20
90.6568707899
 10
169.3063707473
 20
90.719471261
 10
169.3136844705
 20
90.7838761375
 10
169.3136654231
 20
90.8497867809
 10
169.3063130326
 20
90.9142167586
 10
169.2913631139
 20
90.976884428
 10
169.2690798521
 20
91.0380714318
 10
169.240255231
 20
91.0956362657
 10
169.2045470294
 20
91.1495852873
 10
169.1622974685
 20
91.199912139
 10
169.1153251959
 20
91.2444562438
 10
169.0635232614
 20
91.2829149829
 10
169.0069986152
 20
91.3155909751
 10
168.9478907563
 20
91.3412314994
 10
168.8869128508
 20
91.3594189821
 10
168.8233517325
 20
91.3705709969
 10
168.7572074013
 20
91.3746875437
  0
LWPOLYLINE
  5
256
100
AcDbEntity
  8
0
100
AcDbPolyline
 62
7
  6
CONTINUOUS
 90
28
 70
0
 10
168.7572074013
 20
91.3746875437
 10
168.6911202833
 20
91.3705762917
 10
168.6275998602
 20
91.3594237567
 10
168.566646132
 20
91.3412299388
 10
168.5075407222
 20
91.3155764805
 10
168.4510020074
 20
91.2828817392
 10
168.3991851173
 20
91.2444007874
 10
168.352199756
 20
91.1998281778
 10
168.3099362195
 20
91.1494693577
 10
168.2742205252
 20
91.0954957416
 10
168.2453987393
 20
91.0379166688
 10
168.2231247956
 20
90.9767227999
 10
168.2081865127
 20
90.9140575311
 10
168.200846862
 20
90.8496449174
 10
168.200842872
 20
90.7837609038
 10
168.2081734465
 20
90.7193767216
 10
168.22309756
 20
90.6567854395
 10
168.245356238
 20
90.5956939888
 10
168.2741714605
 20
90.5381943941
 10
168.3098936111
 20
90.4842540397
 10
168.3521723062
 20
90.4339055412
 10
168.3991783755
 20
90.3893387706
 10
168.4510239765
 20
90.3508627879
 10
168.5075969517
 20
90.318168533
 10
168.5667316585
 20
90.2925186969
 10
168.6277062162
 20
90.2743341763
 10
168.6912425056
 20
90.2631940745
 10
168.7573405266
 20
90.2590983913
  0
LWPOLYLINE
  5
257
100
AcDbEntity
  8
0
100
AcDbPolyline
 62
7
  6
CONTINUOUS
 90
15
 70
0
 10
168.7572074013
 20
91.9563475436
 10
168.7171754321
 20
91.959777632
 10
168.6796661873
 20
91.9684846327
 10
168.6446796671
 20
91.9824685455
 10
168.6115106517
 20
92.002315246
 10
168.5808643607
 20
92.0274388587
 10
168.5548564537
 20
92.0560817574
 10
168.5341526288
 20
92.0884398811
 10
168.5180871877
 20
92.1243172909
 10
168.5067786954
 20
92.1613685436
 10
168.5016503349
 20
92.1988565386
 10
168.501278923
 20
92.2375183765
 10
168.5015134759
 20
92.2772199169
 10
168.5011799442
 20
92.3178999656
 10
168.5017019387
 20
92.4024286123
  0
LWPOLYLINE
  5
258
100
AcDbEntity
  8
0
100
AcDbPolyline
 62
7
  6
CONTINUOUS
 90
14
 70
0
 10
170.1858842742
 20
90.2877286739
 10
170.1469260001
 20
90.3095509926
 10
170.1102416519
 20
90.3304430624
 10
170.0748428306
 20
90.3497186262
 10
170.0389194782
 20
90.3637932161
 10
170.0014146483
 20
90.3715596428
 10
169.9633852872
 20
90.3741250955
 10
169.9261921759
 20
90.3712266743
 10
169.8895083147
 20
90.3624745685
 10
169.8536607032
 20
90.3482585887
 10
169.8209911212
 20
90.3294852674
 10
169.7922801616
 20
90.306456782
 10
169.7667472315
 20
90.2788709551
 10
169.7443923307
 20
90.2467277866
  0
LWPOLYLINE
  5
259
100
AcDbEntity
  8
0
100
AcDbPolyline
 62
7
  6
CONTINUOUS
 90
14
 70
0
 10
167.3313624667
 20
91.3444705773
 10
167.3692142367
 20
91.3232277182
 10
167.405012958
 20
91.3026938305
 10
167.4395957754
 20
91.2836700243
 10
167.4748893036
 20
91.2696993882
 10
167.512007438
 20
91.2618125353
 10
167.5498362832
 20
91.2589788526
 10
167.5869607683
 20
91.2616495888
 10
167.6237169678
 20
91.2702603079
 10
167.6597688072
 20
91.284375446
 10
167.6926929911
 20
91.3031395607
 10
167.7216817546
 20
91.3262675044
 10
167.7475428627
 20
91.3540444247
 10
167.7702763154
 20
91.3864703215
  0
LWPOLYLINE
  5
25A
100
AcDbEntity
  8
0
100
AcDbPolyline
 62
7
  6
CONTINUOUS
 90
14
 70
0
 10
167.3104229676
 20
91.9481780801
 10
167.2718286013
 20
91.9698350571
 10
167.235391774
 20
91.9905746736
 10
167.2001938534
 20
92.009684078
 10
167.1643857442
 20
92.023604345
 10
167.1268541109
 20
92.0312355641
 10
167.088712289
 20
92.0336776457
 10
167.0514511886
 20
92.0306713962
 10
167.0147895984
 20
92.0218172674
 10
166.9790087299
 20
92.0075148074
 10
166.9464431277
 20
91.9887034672
 10
166.9178709734
 20
91.965696397
 10
166.8925140854
 20
91.9381804466
 10
166.8703724637
 20
91.9061556159
  0
LWPOLYLINE
  5
25B
100
AcDbEntity
  8
0
100
AcDbPolyline
 62
7
  6
CONTINUOUS
 90
14
 70
0
 10
170.2031926208
 20
89.6859451452
 10
170.2413673605
 20
89.6644660081
 10
170.2773240186
 20
89.6437818248
 10
170.3120474902
 20
89.6246435257
 10
170.347658316
 20
89.6106028343
 10
170.3854600472
 20
89.6027023973
 10
170.4241491326
 20
89.5998995679
 10
170.4619354594
 20
89.60261813
 10
170.4990164335
 20
89.6113210985
 10
170.535194649
 20
89.6255454583
 10
170.5680877762
 20
89.6443259478
 10
170.596901705
 20
89.6673408132
 10
170.6224305455
 20
89.6949118083
 10
170.6446742976
 20
89.727038933
  0
LINE
  5
25C
100
AcDbEntity
  8
0
100
AcDbLine
 62
7
  6
CONTINUOUS
 10
167.053095127
 20
91.5044370988
 11
167.130298071
 21
91.4607987514
  0
LINE
  5
25D
100
AcDbEntity
  8
0
100
AcDbLine
 62
7
  6
CONTINUOUS
 10
170.4633863085
 20
90.1280952594
 11
170.387252029
 21
90.17115215
  0
LINE
  5
25E
100
AcDbEntity
  8
0
100
AcDbLine
 62
7
  6
CONTINUOUS
 10
167.5886768611
 20
91.7875441384
 11
167.5120035822
 21
91.8310640837
  0
LINE
  5
25F
100
AcDbEntity
  8
0
100
AcDbLine
 62
7
  6
CONTINUOUS
 10
169.9267597144
 20
89.8456361938
 11
170.0029967099
 21
89.8022408383
  0
LINE
  5
260
100
AcDbEntity
  8
0
100
AcDbLine
 62
7
  6
CONTINUOUS
 10
167.130298071
 20
91.4607987514
 11
167.2525960341
 21
91.3903467813
  0
LINE
  5
261
100
AcDbEntity
  8
0
100
AcDbLine
 62
7
  6
CONTINUOUS
 10
170.387252029
 20
90.17115215
 11
170.2665022652
 21
90.2407602149
  0
LINE
  5
262
100
AcDbEntity
  8
0
100
AcDbLine
 62
7
  6
CONTINUOUS
 10
170.0029967099
 20
89.8022408383
 11
170.1239777259
 21
89.7322421397
  0
LINE
  5
263
100
AcDbEntity
  8
0
100
AcDbLine
 62
7
  6
CONTINUOUS
 10
167.5120035822
 20
91.8310640837
 11
167.3904216187
 21
91.9013938597
  0
LINE
  5
264
100
AcDbEntity
  8
0
100
AcDbLine
 62
7
  6
CONTINUOUS
 10
167.2525960341
 20
91.3903467813
 11
167.3313624667
 21
91.3444705773
  0
LINE
  5
265
100
AcDbEntity
  8
0
100
AcDbLine
 62
7
  6
CONTINUOUS
 10
170.2665022652
 20
90.2407602149
 11
170.1858842742
 21
90.2877286739
  0
LINE
  5
266
100
AcDbEntity
  8
0
100
AcDbLine
 62
7
  6
CONTINUOUS
 10
170.1239777259
 20
89.7322421397
 11
170.2031926208
 21
89.6859451452
  0
LINE
  5
267
100
AcDbEntity
  8
0
100
AcDbLine
 62
7
  6
CONTINUOUS
 10
167.3904216187
 20
91.9013938597
 11
167.3104229676
 21
91.9481780801
  0
LINE
  5
268
100
AcDbEntity
  8
0
100
AcDbLine
 62
7
  6
CONTINUOUS
 10
166.9805681839
 20
91.5470846544
 11
167.053095127
 21
91.5044370988
  0
LINE
  5
269
100
AcDbEntity
  8
0
100
AcDbLine
 62
7
  6
CONTINUOUS
 10
170.5349609523
 20
90.0859870156
 11
170.4633863085
 21
90.1280952594
  0
LINE
  5
26A
100
AcDbEntity
  8
0
100
AcDbLine
 62
7
  6
CONTINUOUS
 10
167.6607129942
 20
91.7449943882
 11
167.5886768611
 21
91.7875441384
  0
LINE
  5
26B
100
AcDbEntity
  8
0
100
AcDbLine
 62
7
  6
CONTINUOUS
 10
167.4007416026
 20
112.3223771274
 11
166.6432571774
 21
111.5642929609
  0
LINE
  5
26C
100
AcDbEntity
  8
0
100
AcDbLine
 62
7
  6
CONTINUOUS
 10
170.5092089212
 20
115.4303846266
 11
169.7517232092
 21
114.6732529601
  0
LWPOLYLINE
  5
26D
100
AcDbEntity
  8
0
100
AcDbPolyline
 62
7
  6
CONTINUOUS
 90
15
 70
0
 10
168.7575810855
 20
92.9959834067
 10
168.7977711129
 20
92.9924755751
 10
168.8353865621
 20
92.9837178507
 10
168.870427433
 20
92.9697102335
 10
168.903580676
 20
92.9498736392
 10
168.9341593407
 20
92.924787152
 10
168.9601025764
 20
92.8961880247
 10
168.9807594568
 20
92.8638889281
 10
168.9967809082
 20
92.8280771914
 10
169.0080588583
 20
92.791052054
 10
169.013178031
 20
92.7535233528
 10
169.0135537024
 20
92.7147812511
 10
169.0133236283
 20
92.6749954782
 10
169.013657586
 20
92.6342383505
 10
169.0131366877
 20
92.5495458619
  0
LINE
  5
26E
100
AcDbEntity
  8
0
100
AcDbLine
 62
7
  6
CONTINUOUS
 10
161.2572074013
 20
120.2297653836
 11
161.2572074013
 21
106.4037030374
  0
LINE
  5
26F
100
AcDbEntity
  8
0
100
AcDbLine
 62
7
  6
CONTINUOUS
 10
161.2572074013
 20
97.7297653836
 11
161.2572074013
 21
83.9037030374
  0
LINE
  5
270
100
AcDbEntity
  8
0
100
AcDbLine
 62
7
  6
CONTINUOUS
 10
161.3252834838
 20
120.2031258023
 11
161.3252834838
 21
106.4303426188
  0
LINE
  5
271
100
AcDbEntity
  8
0
100
AcDbLine
 62
7
  6
CONTINUOUS
 10
161.3252834838
 20
97.7031258023
 11
161.3252834838
 21
83.9303426188
  0
LINE
  5
272
100
AcDbEntity
  8
0
100
AcDbLine
 62
7
  6
CONTINUOUS
 10
161.834009687
 20
120.0006901991
 11
161.834009687
 21
106.6327782219
  0
LINE
  5
273
100
AcDbEntity
  8
0
100
AcDbLine
 62
7
  6
CONTINUOUS
 10
161.834009687
 20
97.5006901991
 11
161.834009687
 21
84.1327782219
  0
LINE
  5
274
100
AcDbEntity
  8
0
100
AcDbLine
 62
7
  6
CONTINUOUS
 10
161.8441762282
 20
105.8167342105
 11
161.9385451116
 21
106.0567022937
  0
LWPOLYLINE
  5
275
100
AcDbEntity
  8
0
100
AcDbPolyline
 62
7
  6
CONTINUOUS
 90
3
 70
0
 10
161.9385451116
 20
106.0567022937
 10
162.0396688753
 20
106.3101966704
 10
162.0732514127
 20
106.3935364962
  0
LINE
  5
276
100
AcDbEntity
  8
0
100
AcDbLine
 62
7
  6
CONTINUOUS
 10
167.005242446
 20
111.2030837943
 11
167.7625504822
 21
111.9605329608
  0
LINE
  5
277
100
AcDbEntity
  8
0
100
AcDbLine
 62
7
  6
CONTINUOUS
 10
170.1132498667
 20
114.3114087935
 11
170.8708754029
 21
115.0685757378
  0
LINE
  5
278
100
AcDbEntity
  8
0
100
AcDbLine
 62
7
  6
CONTINUOUS
 10
161.5822752232
 20
106.531851473
 11
161.834009687
 21
106.6327782219
  0
LINE
  5
279
100
AcDbEntity
  8
0
100
AcDbLine
 62
7
  6
CONTINUOUS
 10
161.3252834838
 20
106.4303426188
 11
161.5822752232
 21
106.531851473
  0
LINE
  5
27A
100
AcDbEntity
  8
0
100
AcDbLine
 62
7
  6
CONTINUOUS
 10
161.2572074013
 20
106.4037030374
 11
161.3252834838
 21
106.4303426188
  0
LINE
  5
27B
100
AcDbEntity
  8
0
100
AcDbLine
 62
7
  6
CONTINUOUS
 10
161.2572074013
 20
97.7297653836
 11
161.4970037865
 21
97.6354648259
  0
LWPOLYLINE
  5
27C
100
AcDbEntity
  8
0
100
AcDbPolyline
 62
7
  6
CONTINUOUS
 90
3
 70
0
 10
161.4970037865
 20
97.6354648259
 10
161.75056255
 20
97.5343154401
 10
161.834009687
 20
97.5006901991
  0
LINE
  5
27D
100
AcDbEntity
  8
0
100
AcDbLine
 62
7
  6
CONTINUOUS
 10
161.9723229137
 20
97.9916707866
 11
162.0732514127
 21
97.7399319248
  0
LINE
  5
27E
100
AcDbEntity
  8
0
100
AcDbLine
 62
7
  6
CONTINUOUS
 10
161.8708158096
 20
98.2486581281
 11
161.9723229137
 21
97.9916707866
  0
LINE
  5
27F
100
AcDbEntity
  8
0
100
AcDbLine
 62
7
  6
CONTINUOUS
 10
161.8441762282
 20
98.3167342105
 11
161.8708158096
 21
98.2486581281
  0
LINE
  5
280
100
AcDbEntity
  8
0
100
AcDbLine
 62
7
  6
CONTINUOUS
 10
175.4411633899
 20
97.7399319248
 11
162.0732514127
 21
97.7399319248
  0
LINE
  5
281
100
AcDbEntity
  8
0
100
AcDbLine
 62
7
  6
CONTINUOUS
 10
175.643598993
 20
98.2486581281
 11
161.8708158096
 21
98.2486581281
  0
LINE
  5
282
100
AcDbEntity
  8
0
100
AcDbLine
 62
7
  6
CONTINUOUS
 10
175.6702385744
 20
98.3167342105
 11
161.8441762282
 21
98.3167342105
  0
LINE
  5
283
100
AcDbEntity
  8
0
100
AcDbLine
 62
7
  6
CONTINUOUS
 10
168.5014082411
 20
116.049897682
 11
168.5014082411
 21
114.9786526823
  0
LINE
  5
284
100
AcDbEntity
  8
0
100
AcDbLine
 62
7
  6
CONTINUOUS
 10
168.5014082411
 20
111.6548157387
 11
168.5014082411
 21
110.5829357389
  0
LINE
  5
285
100
AcDbEntity
  8
0
100
AcDbLine
 62
7
  6
CONTINUOUS
 10
168.5017019387
 20
92.4024286123
 11
168.5013642575
 21
92.6287443366
  0
LINE
  5
286
100
AcDbEntity
  8
0
100
AcDbLine
 62
7
  6
CONTINUOUS
 10
168.5016899052
 20
89.4212485893
 11
168.5017103626
 21
89.0069778672
  0
LWPOLYLINE
  5
287
100
AcDbEntity
  8
0
100
AcDbPolyline
 62
7
  6
CONTINUOUS
 90
14
 70
0
 10
168.5013642575
 20
92.6287443366
 10
168.5017663735
 20
92.6725936312
 10
168.501496552
 20
92.7139255541
 10
168.5017834869
 20
92.7534464619
 10
168.5068589946
 20
92.7914485174
 10
168.5181873016
 20
92.8287005398
 10
168.5343041813
 20
92.8644337098
 10
168.5550487706
 20
92.8966337335
 10
168.5810635741
 20
92.9252079128
 10
168.6117060871
 20
92.9502489457
 10
168.6448879325
 20
92.9700206315
 10
168.6799129845
 20
92.9839442369
 10
168.7174773688
 20
92.9925984953
 10
168.7575810855
 20
92.9959834067
  0
LWPOLYLINE
  5
288
100
AcDbEntity
  8
0
100
AcDbPolyline
 62
7
  6
CONTINUOUS
 90
24
 70
0
 10
168.5017103626
 20
89.0069778672
 10
168.4998381979
 20
88.9292213268
 10
168.5017159088
 20
88.8915912901
 10
168.5065764274
 20
88.853927032
 10
168.5142515794
 20
88.8169255549
 10
168.5270531561
 20
88.7821697423
 10
168.54630218
 20
88.7494476517
 10
168.5706776286
 20
88.7189712255
 10
168.5985282242
 20
88.692959174
 10
168.63001116
 20
88.6717985477
 10
168.6649692428
 20
88.6551022961
 10
168.7012796167
 20
88.6439279775
 10
168.7391509071
 20
88.6386330923
 10
168.7783744885
 20
88.6388601401
 10
168.816201628
 20
88.6445941781
 10
168.8524321649
 20
88.6561953785
 10
168.8872662599
 20
88.673303569
 10
168.918555662
 20
88.6948232904
 10
168.9461179672
 20
88.7211594419
 10
168.9701355796
 20
88.7519071242
 10
168.9890074602
 20
88.7847561802
 10
169.0021999294
 20
88.8189365576
 10
169.0102466669
 20
88.8552183086
 10
169.0131476726
 20
88.8936014332
  0
LINE
  5
289
100
AcDbEntity
  8
0
100
AcDbLine
 62
7
  6
CONTINUOUS
 10
175.6702385744
 20
120.8167342105
 11
175.5758713571
 21
120.5767703141
  0
LWPOLYLINE
  5
28A
100
AcDbEntity
  8
0
100
AcDbPolyline
 62
7
  6
CONTINUOUS
 90
3
 70
0
 10
175.5758713571
 20
120.5767703141
 10
175.4747469686
 20
120.3232743673
 10
175.4411633899
 20
120.2399319248
  0
LINE
  5
28B
100
AcDbEntity
  8
0
100
AcDbLine
 62
7
  6
CONTINUOUS
 10
175.5420998693
 20
83.6417775804
 11
175.4411633899
 21
83.8935364962
  0
LINE
  5
28C
100
AcDbEntity
  8
0
100
AcDbLine
 62
7
  6
CONTINUOUS
 10
175.643598993
 20
83.384810293
 11
175.5420998693
 21
83.6417775804
  0
LINE
  5
28D
100
AcDbEntity
  8
0
100
AcDbLine
 62
7
  6
CONTINUOUS
 10
175.6702385744
 20
83.3167342105
 11
175.643598993
 21
83.384810293
  0
LINE
  5
28E
100
AcDbEntity
  8
0
100
AcDbLine
 62
7
  6
CONTINUOUS
 10
169.0128654503
 20
110.5829357389
 11
169.0128654503
 21
111.6548157387
  0
LINE
  5
28F
100
AcDbEntity
  8
0
100
AcDbLine
 62
7
  6
CONTINUOUS
 10
169.0128654503
 20
114.9786526823
 11
169.0128654503
 21
116.049897682
  0
LINE
  5
290
100
AcDbEntity
  8
0
100
AcDbLine
 62
7
  6
CONTINUOUS
 10
169.0131366877
 20
92.5495458619
 11
169.0134724947
 21
92.3232213053
  0
LINE
  5
291
100
AcDbEntity
  8
0
100
AcDbLine
 62
7
  6
CONTINUOUS
 10
169.0131476726
 20
88.8936014332
 11
169.0131283357
 21
89.3075162133
  0
LWPOLYLINE
  5
292
100
AcDbEntity
  8
0
100
AcDbPolyline
 62
7
  6
CONTINUOUS
 90
14
 70
0
 10
169.0134724947
 20
92.3232213053
 10
169.0130714866
 20
92.2795303333
 10
169.0133449663
 20
92.2383399769
 10
169.0130636415
 20
92.1989582351
 10
169.0079958888
 20
92.1610599711
 10
168.9966806355
 20
92.1238597261
 10
168.9805789543
 20
92.0881429589
 10
168.9598424395
 20
92.0559409076
 10
168.9338248684
 20
92.0273474138
 10
168.9031724638
 20
92.0022686361
 10
168.8699754885
 20
91.9824542887
 10
168.8349306968
 20
91.9684876099
 10
168.7973413344
 20
91.9597853616
 10
168.7572074013
 20
91.9563475436
  0
LWPOLYLINE
  5
293
100
AcDbEntity
  8
0
100
AcDbPolyline
 62
7
  6
CONTINUOUS
 90
24
 70
0
 10
169.0131283357
 20
89.3075162133
 10
169.0149915175
 20
89.3851930982
 10
169.0131291316
 20
89.4227931257
 10
169.0083229019
 20
89.4604330783
 10
169.000721532
 20
89.4974197877
 10
168.9879736651
 20
89.5321908489
 10
168.9687446765
 20
89.5649754507
 10
168.9443691909
 20
89.5955444042
 10
168.9164997265
 20
89.6216477379
 10
168.8849620297
 20
89.6428902298
 10
168.8499303541
 20
89.6596671019
 10
168.8135799784
 20
89.6709140487
 10
168.775734227
 20
89.6762732237
 10
168.7365697755
 20
89.6761024734
 10
168.6987919295
 20
89.6704110315
 10
168.6625916857
 20
89.6588420184
 10
168.6277780474
 20
89.6417523138
 10
168.5964833309
 20
89.6202217899
 10
168.568869683
 20
89.5938212408
 10
168.5447749569
 20
89.5629798724
 10
168.5258450285
 20
89.5300651741
 10
168.512628523
 20
89.4958663091
 10
168.5045768153
 20
89.4595941141
 10
168.5016899052
 20
89.4212485893
  0
LINE
  5
294
100
AcDbEntity
  8
0
100
AcDbLine
 62
7
  6
CONTINUOUS
 10
161.8441762282
 20
83.3167342105
 11
161.9385451116
 21
83.5567022937
  0
LWPOLYLINE
  5
295
100
AcDbEntity
  8
0
100
AcDbPolyline
 62
7
  6
CONTINUOUS
 90
3
 70
0
 10
161.9385451116
 20
83.5567022937
 10
162.0396688753
 20
83.8101966704
 10
162.0732514127
 20
83.8935364962
  0
LINE
  5
296
100
AcDbEntity
  8
0
100
AcDbLine
 62
7
  6
CONTINUOUS
 10
161.9723229137
 20
120.4916707866
 11
162.0732514127
 21
120.2399319248
  0
LINE
  5
297
100
AcDbEntity
  8
0
100
AcDbLine
 62
7
  6
CONTINUOUS
 10
161.8708158096
 20
120.7486581281
 11
161.9723229137
 21
120.4916707866
  0
LINE
  5
298
100
AcDbEntity
  8
0
100
AcDbLine
 62
7
  6
CONTINUOUS
 10
161.8441762282
 20
120.8167342105
 11
161.8708158096
 21
120.7486581281
  0
LWPOLYLINE
  5
299
100
AcDbEntity
  8
0
100
AcDbPolyline
 62
7
  6
CONTINUOUS
 90
12
 70
0
 10
166.8703724637
 20
91.9061556159
 10
166.8535969635
 20
91.8708848774
 10
166.8423724569
 20
91.8350823491
 10
166.836698944
 20
91.798748031
 10
166.8366978942
 20
91.7610362736
 10
166.8422478381
 20
91.7227927264
 10
166.8529843673
 20
91.6865543381
 10
166.8691247664
 20
91.6528046016
 10
166.8904517509
 20
91.6210600239
 10
166.9159490591
 20
91.5924070748
 10
166.9461734596
 20
91.5682000503
 10
166.9805681839
 20
91.5470846544
  0
LWPOLYLINE
  5
29A
100
AcDbEntity
  8
0
100
AcDbPolyline
 62
7
  6
CONTINUOUS
 90
12
 70
0
 10
167.7702763154
 20
91.3864703215
 10
167.7869731588
 20
91.4220705545
 10
167.7981362761
 20
91.4580766515
 10
167.8037656673
 20
91.4944886125
 10
167.803728762
 20
91.5321101119
 10
167.7981581306
 20
91.5701374753
 10
167.7874514845
 20
91.6061596798
 10
167.7714110136
 20
91.6397214382
 10
167.7502345279
 20
91.6712780377
 10
167.7249131693
 20
91.6997843168
 10
167.6948855182
 20
91.7239145127
 10
167.6607129942
 20
91.7449943882
  0
LINE
  5
29B
100
AcDbEntity
  8
0
100
AcDbLine
 62
7
  6
CONTINUOUS
 10
161.8441762282
 20
105.8167342105
 11
175.6702385744
 21
105.8167342105
  0
LINE
  5
29C
100
AcDbEntity
  8
0
100
AcDbLine
 62
7
  6
CONTINUOUS
 10
161.8708158096
 20
105.884810293
 11
175.643598993
 21
105.884810293
  0
LINE
  5
29D
100
AcDbEntity
  8
0
100
AcDbLine
 62
7
  6
CONTINUOUS
 10
162.0732514127
 20
106.3935364962
 11
175.4411633899
 21
106.3935364962
  0
LWPOLYLINE
  5
29E
100
AcDbEntity
  8
0
100
AcDbPolyline
 62
7
  6
CONTINUOUS
 90
14
 70
0
 10
169.7443923307
 20
90.2467277866
 10
169.7275976825
 20
90.211214629
 10
169.7163912083
 20
90.1752089396
 10
169.7107729082
 20
90.1387107185
 10
169.7108832368
 20
90.1008579579
 10
169.7165817394
 20
90.0625126656
 10
169.7274470526
 20
90.026260865
 10
169.7437011894
 20
89.992622478
 10
169.7651221368
 20
89.9610775826
 10
169.7906224918
 20
89.9326524361
 10
169.8207331451
 20
89.9087049748
 10
169.854923206
 20
89.8878772623
 10
169.8905126004
 20
89.8671217476
 10
169.9267597144
 20
89.8456361938
  0
LINE
  5
29F
100
AcDbEntity
  8
0
100
AcDbLine
 62
7
  6
CONTINUOUS
 10
175.9321132347
 20
97.6016064643
 11
175.6804051156
 21
97.5006901991
  0
LINE
  5
2A0
100
AcDbEntity
  8
0
100
AcDbLine
 62
7
  6
CONTINUOUS
 10
176.1891313189
 20
97.7031258023
 11
175.9321132347
 21
97.6016064643
  0
LINE
  5
2A1
100
AcDbEntity
  8
0
100
AcDbLine
 62
7
  6
CONTINUOUS
 10
176.2572074013
 20
97.7297653836
 11
176.1891313189
 21
97.7031258023
  0
LINE
  5
2A2
100
AcDbEntity
  8
0
100
AcDbLine
 62
7
  6
CONTINUOUS
 10
176.2572074013
 20
106.4037030374
 11
176.0173448722
 21
106.4980299164
  0
LWPOLYLINE
  5
2A3
100
AcDbEntity
  8
0
100
AcDbPolyline
 62
7
  6
CONTINUOUS
 90
3
 70
0
 10
176.0173448722
 20
106.4980299164
 10
175.7638109127
 20
106.5991694318
 10
175.6804051156
 20
106.6327782219
  0
LINE
  5
2A4
100
AcDbEntity
  8
0
100
AcDbLine
 62
7
  6
CONTINUOUS
 10
175.6804051156
 20
84.1327782219
 11
175.6804051156
 21
97.5006901991
  0
LINE
  5
2A5
100
AcDbEntity
  8
0
100
AcDbLine
 62
7
  6
CONTINUOUS
 10
175.6804051156
 20
106.6327782219
 11
175.6804051156
 21
120.0006901991
  0
LINE
  5
2A6
100
AcDbEntity
  8
0
100
AcDbLine
 62
7
  6
CONTINUOUS
 10
176.1891313189
 20
83.9303426188
 11
176.1891313189
 21
97.7031258023
  0
LINE
  5
2A7
100
AcDbEntity
  8
0
100
AcDbLine
 62
7
  6
CONTINUOUS
 10
176.1891313189
 20
106.4303426188
 11
176.1891313189
 21
120.2031258023
  0
LINE
  5
2A8
100
AcDbEntity
  8
0
100
AcDbLine
 62
7
  6
CONTINUOUS
 10
176.2572074013
 20
83.9037030374
 11
176.2572074013
 21
97.7297653836
  0
LINE
  5
2A9
100
AcDbEntity
  8
0
100
AcDbLine
 62
7
  6
CONTINUOUS
 10
176.2572074013
 20
106.4037030374
 11
176.2572074013
 21
120.2297653836
  0
LINE
  5
2AA
100
AcDbEntity
  8
0
100
AcDbLine
 62
7
  6
CONTINUOUS
 10
175.6702385744
 20
98.3167342105
 11
175.5758713571
 21
98.0767703141
  0
LWPOLYLINE
  5
2AB
100
AcDbEntity
  8
0
100
AcDbPolyline
 62
7
  6
CONTINUOUS
 90
3
 70
0
 10
175.5758713571
 20
98.0767703141
 10
175.4747469686
 20
97.8232743673
 10
175.4411633899
 20
97.7399319248
  0
LWPOLYLINE
  5
2AC
100
AcDbEntity
  8
0
100
AcDbPolyline
 62
7
  6
CONTINUOUS
 90
12
 70
0
 10
170.6446742976
 20
89.727038933
 10
170.6613317978
 20
89.7626122344
 10
170.6724472095
 20
89.7986533105
 10
170.6780205327
 20
89.8351621612
 10
170.6779122703
 20
89.8729870615
 10
170.6722619194
 20
89.9112797364
 10
170.6614879714
 20
89.9474953612
 10
170.6453797471
 20
89.9811321804
 10
170.6241479258
 20
90.0126919494
 10
170.598843037
 20
90.0411351103
 10
170.5689385284
 20
90.0651193671
 10
170.5349609523
 20
90.0859870156
  0
LINE
  5
2AD
100
AcDbEntity
  8
0
100
AcDbLine
 62
7
  6
CONTINUOUS
 10
169.7517232092
 20
111.9605329608
 11
170.5092089212
 21
111.2030837943
  0
LINE
  5
2AE
100
AcDbEntity
  8
0
100
AcDbLine
 62
7
  6
CONTINUOUS
 10
167.7625504822
 20
114.6732529601
 11
167.005242446
 21
115.4303846266
  0
LINE
  5
2AF
100
AcDbEntity
  8
0
100
AcDbLine
 62
7
  6
CONTINUOUS
 10
166.6432571774
 20
115.06917546
 11
167.4007416026
 21
114.3114087935
  0
LINE
  5
2B0
100
AcDbEntity
  8
0
100
AcDbLine
 62
7
  6
CONTINUOUS
 10
170.8708754029
 20
111.5642929609
 11
170.1132498667
 21
112.3223771274
  0
LINE
  5
2B1
100
AcDbEntity
  8
0
100
AcDbLine
 62
7
  6
CONTINUOUS
 10
175.5420998693
 20
106.1417775804
 11
175.4411633899
 21
106.3935364962
  0
LINE
  5
2B2
100
AcDbEntity
  8
0
100
AcDbLine
 62
7
  6
CONTINUOUS
 10
175.643598993
 20
105.884810293
 11
175.5420998693
 21
106.1417775804
  0
LINE
  5
2B3
100
AcDbEntity
  8
0
100
AcDbLine
 62
7
  6
CONTINUOUS
 10
175.6702385744
 20
105.8167342105
 11
175.643598993
 21
105.884810293
  0
LINE
  5
2B4
100
AcDbEntity
  8
0
100
AcDbLine
 62
7
  6
CONTINUOUS
 10
170.2953185499
 20
92.0002705526
 11
169.9320411811
 21
91.7901265257
  0
LINE
  5
2B5
100
AcDbEntity
  8
0
100
AcDbLine
 62
7
  6
CONTINUOUS
 10
167.4207691029
 20
90.3402983971
 11
167.0579209932
 21
90.1310283331
  0
LWPOLYLINE
  5
2B6
100
AcDbEntity
  8
0
100
AcDbPolyline
 62
7
  6
CONTINUOUS
 90
24
 70
0
 10
169.9320411811
 20
91.7901265257
 10
169.8635693991
 20
91.7527496709
 10
169.8321034223
 20
91.7322022321
 10
169.802509327
 20
91.7088858151
 10
169.7751453008
 20
91.6834028474
 10
169.7522362851
 20
91.6547789814
 10
169.7341903964
 20
91.6218585539
 10
169.7205995182
 20
91.5857972281
 10
169.7124642418
 20
91.5490876474
 10
169.7101806532
 20
91.5118175165
 10
169.7133526664
 20
91.4738991305
 10
169.7217926146
 20
91.4375620185
 10
169.7358515478
 20
91.4028216986
 10
169.7551784161
 20
91.3696626525
 10
169.7785324024
 20
91.3402678555
 10
169.8061577755
 20
91.3149215254
 10
169.8378102666
 20
91.2933394443
 10
169.8715162535
 20
91.2768519329
 10
169.9073311079
 20
91.2657307785
 10
169.945199458
 20
91.2597041938
 10
169.9829815662
 20
91.2592871376
 10
170.0199641864
 20
91.2646512629
 10
170.0568605645
 20
91.2756249168
 10
170.0936707006
 20
91.2922080992
  0
LINE
  5
2B7
100
AcDbEntity
  8
0
100
AcDbLine
 62
7
  6
CONTINUOUS
 10
170.0936707006
 20
91.2922080992
 11
170.4473727124
 21
91.4967517392
  0
LINE
  5
2B8
100
AcDbEntity
  8
0
100
AcDbLine
 62
7
  6
CONTINUOUS
 10
167.2197666072
 20
89.6333764331
 11
167.5816369737
 21
89.8421746502
  0
LWPOLYLINE
  5
2B9
100
AcDbEntity
  8
0
100
AcDbPolyline
 62
7
  6
CONTINUOUS
 90
24
 70
0
 10
170.4473727124
 20
91.4967517392
 10
170.5166666062
 20
91.5347467644
 10
170.5488614081
 20
91.5553886654
 10
170.5794757542
 20
91.5782278215
 10
170.6080754929
 20
91.6029676494
 10
170.6322186368
 20
91.6311316384
 10
170.6514816266
 20
91.664095069
 10
170.6662880217
 20
91.7004826607
 10
170.6754665128
 20
91.7376920623
 10
170.6785801625
 20
91.7756611388
 10
170.6760659082
 20
91.8144520251
 10
170.6680632524
 20
91.8516487751
 10
170.6541811395
 20
91.8872074348
 10
170.6348106251
 20
91.921171958
 10
170.6112643786
 20
91.9512582605
 10
170.5833084082
 20
91.9771703164
 10
170.5511767056
 20
91.9992041515
 10
170.516883916
 20
92.0159637598
 10
170.48015548
 20
92.0270838087
 10
170.4412659569
 20
92.0329296307
 10
170.4030536701
 20
92.033201217
 10
170.3664647272
 20
92.0277985646
 10
170.3305530204
 20
92.0168216765
 10
170.2953185499
 20
92.0002705526
  0
LWPOLYLINE
  5
2BA
100
AcDbEntity
  8
0
100
AcDbPolyline
 62
7
  6
CONTINUOUS
 90
24
 70
0
 10
167.5816369737
 20
89.8421746502
 10
167.6505523965
 20
89.879678057
 10
167.6822352412
 20
89.900314943
 10
167.7119978424
 20
89.9236997783
 10
167.7395014744
 20
89.9492634093
 10
167.7625027866
 20
89.9780643978
 10
167.7806023179
 20
90.011312801
 10
167.7941995294
 20
90.0477985616
 10
167.8022494536
 20
90.0849500697
 10
167.8043302424
 20
90.1227033504
 10
167.8008637438
 20
90.1611223787
 10
167.7920705347
 20
90.1978274695
 10
167.7775901321
 20
90.2327517809
 10
167.757783019
 20
90.2659621549
 10
167.7339512208
 20
90.2952794326
 10
167.7058787261
 20
90.3204085229
 10
167.6737815464
 20
90.341644517
 10
167.6396097412
 20
90.3576935291
 10
167.603055656
 20
90.3682048127
 10
167.5644269454
 20
90.3735291142
 10
167.5265966324
 20
90.373424788
 10
167.4905223915
 20
90.3678112855
 10
167.4552465484
 20
90.3567691552
 10
167.4207691029
 20
90.3402983971
  0
LWPOLYLINE
  5
2BB
100
AcDbEntity
  8
0
100
AcDbPolyline
 62
7
  6
CONTINUOUS
 90
24
 70
0
 10
167.0579209932
 20
90.1310283331
 10
166.9889847769
 20
90.0935469004
 10
166.9573289568
 20
90.0728887169
 10
166.9276307632
 20
90.0494100032
 10
166.9002211707
 20
90.0237173473
 10
166.8773343296
 20
89.9948236212
 10
166.8593741978
 20
89.9615540326
 10
166.8459368176
 20
89.9250833737
 10
166.838044466
 20
89.8879488927
 10
166.8361171677
 20
89.8501953221
 10
166.8397348981
 20
89.8117779293
 10
166.8486598598
 20
89.7750997653
 10
166.8632475252
 20
89.7402353452
 10
166.8831424218
 20
89.7071101539
 10
166.9070403354
 20
89.6779036967
 10
166.9351273979
 20
89.6529236233
 10
166.9672174772
 20
89.6318622839
 10
167.0014479626
 20
89.6159762352
 10
167.0382456713
 20
89.6056279487
 10
167.0771837859
 20
89.6004549529
 10
167.1151192432
 20
89.6006263892
 10
167.1510043552
 20
89.6061986383
 10
167.1858868099
 20
89.6171153196
 10
167.2197666072
 20
89.6333764331
  0
LINE
  5
2BC
100
AcDbEntity
  8
0
100
AcDbLine
 62
7
  6
CONTINUOUS
 10
166.0237441377
 20
113.060917405
 11
167.0948479992
 21
113.060917405
  0
LINE
  5
2BD
100
AcDbEntity
  8
0
100
AcDbLine
 62
7
  6
CONTINUOUS
 10
170.4193198589
 20
113.060917405
 11
171.4908823315
 21
113.060917405
  0
LINE
  5
2BE
100
AcDbEntity
  8
0
100
AcDbLine
 62
7
  6
CONTINUOUS
 10
171.4908823315
 20
113.5728332382
 11
170.4193198589
 21
113.5728332382
  0
LINE
  5
2BF
100
AcDbEntity
  8
0
100
AcDbLine
 62
7
  6
CONTINUOUS
 10
167.0948479992
 20
113.5728332382
 11
166.0237441377
 21
113.5728332382
  0
LWPOLYLINE
  5
2C0
100
AcDbEntity
  8
0
100
AcDbPolyline
 62
7
  6
CONTINUOUS
 90
8
 70
0
 43
0.3500000006
 10
182.6436159668
 20
113.1024496765
 10
182.6436159668
 20
113.959587616
 10
182.2150469971
 20
114.3881656494
 10
181.3579090576
 20
114.3881656494
 10
180.9293219604
 20
113.959587616
 10
180.9293219604
 20
113.1024496765
 10
179.6436150513
 20
113.1024496765
 10
179.6436150513
 20
114.3881656494
  0
LINE
  5
2C1
100
AcDbEntity
  8
0
100
AcDbLine
 62
7
  6
CONTINUOUS
 10
161.5822752232
 20
84.031851473
 11
161.834009687
 21
84.1327782219
  0
LINE
  5
2C2
100
AcDbEntity
  8
0
100
AcDbLine
 62
7
  6
CONTINUOUS
 10
161.3252834838
 20
83.9303426188
 11
161.5822752232
 21
84.031851473
  0
LINE
  5
2C3
100
AcDbEntity
  8
0
100
AcDbLine
 62
7
  6
CONTINUOUS
 10
161.2572074013
 20
83.9037030374
 11
161.3252834838
 21
83.9303426188
  0
LINE
  5
2C4
100
AcDbEntity
  8
0
100
AcDbLine
 62
7
  6
CONTINUOUS
 10
161.2572074013
 20
120.2297653836
 11
161.4970037865
 21
120.1354648259
  0
LWPOLYLINE
  5
2C5
100
AcDbEntity
  8
0
100
AcDbPolyline
 62
7
  6
CONTINUOUS
 90
3
 70
0
 10
161.4970037865
 20
120.1354648259
 10
161.75056255
 20
120.0343154401
 10
161.834009687
 20
120.0006901991
  0
LWPOLYLINE
  5
2C6
100
AcDbEntity
  8
0
100
AcDbPolyline
 62
7
  6
CONTINUOUS
 90
3
 70
0
 43
0.3500000006
 10
180.5007529907
 20
111.3881647339
 10
179.6436150513
 20
112.2453026733
 10
182.6436159668
 20
112.2453026733
  0
LINE
  5
2C7
100
AcDbEntity
  8
0
100
AcDbLine
 62
7
  6
CONTINUOUS
 10
175.4411633899
 20
120.2399319248
 11
162.0732514127
 21
120.2399319248
  0
LINE
  5
2C8
100
AcDbEntity
  8
0
100
AcDbLine
 62
7
  6
CONTINUOUS
 10
175.643598993
 20
120.7486581281
 11
161.8708158096
 21
120.7486581281
  0
LINE
  5
2C9
100
AcDbEntity
  8
0
100
AcDbLine
 62
7
  6
CONTINUOUS
 10
175.6702385744
 20
120.8167342105
 11
161.8441762282
 21
120.8167342105
  0
LWPOLYLINE
  5
2CA
100
AcDbEntity
  8
0
100
AcDbPolyline
 62
7
  6
CONTINUOUS
 90
8
 70
0
 43
0.3500000006
 10
168.5429137573
 20
127.6699878845
 10
169.4000698242
 20
127.6699878845
 10
169.8286387939
 20
128.0985568542
 10
169.8286387939
 20
128.9557038574
 10
169.4000698242
 20
129.3842728271
 10
168.5429137573
 20
129.3842728271
 10
168.5429137573
 20
130.6699888
 10
169.8286387939
 20
130.6699888
  0
LWPOLYLINE
  5
2CB
100
AcDbEntity
  8
0
100
AcDbPolyline
 62
7
  6
CONTINUOUS
 90
3
 70
0
 43
0.3500000006
 10
124.8007450562
 20
135.5511558838
 10
124.7293138733
 20
135.3368713989
 10
124.5864605713
 20
135.0511466675
  0
LWPOLYLINE
  5
2CC
100
AcDbEntity
  8
0
100
AcDbPolyline
 62
7
  6
CONTINUOUS
 90
10
 70
0
 43
0.3500000006
 10
134.6936330566
 20
130.5422628479
 10
134.0507796021
 20
129.8994093933
 10
133.6222015686
 20
129.0422714539
 10
133.6222015686
 20
127.9708399658
 10
134.0507796021
 20
127.5422709961
 10
134.6936330566
 20
127.5422709961
 10
135.1222020264
 20
127.9708399658
 10
135.1222020264
 20
128.8279779053
 10
134.6936330566
 20
129.2565559387
 10
133.7650639343
 20
129.2565559387
  0
LINE
  5
2CD
100
AcDbEntity
  8
0
100
AcDbLine
 62
7
  6
CONTINUOUS
 10
132.0481284313
 20
120.1016064643
 11
131.8007755516
 21
120.0006901991
  0
LINE
  5
2CE
100
AcDbEntity
  8
0
100
AcDbLine
 62
7
  6
CONTINUOUS
 10
132.3006993992
 20
120.2031258023
 11
132.0481284313
 21
120.1016064643
  0
LINE
  5
2CF
100
AcDbEntity
  8
DRAFT
100
AcDbLine
 62
7
  6
CONTINUOUS
 10
138.4356378487
 20
84.0722774644
 11
137.8007755516
 21
84.0167342105
  0
LINE
  5
2D0
100
AcDbEntity
  8
0
100
AcDbLine
 62
7
  6
CONTINUOUS
 10
136.2007755516
 20
83.9037030374
 11
132.3006993992
 21
83.9303426188
  0
LINE
  5
2D1
100
AcDbEntity
  8
DRAFT
100
AcDbLine
 62
7
  6
CONTINUOUS
 10
137.8007755516
 20
83.9037030374
 11
136.2007755516
 21
83.9146194448
  0
LINE
  5
2D2
100
AcDbEntity
  8
0
100
AcDbLine
 62
7
  6
CONTINUOUS
 10
136.2007755516
 20
83.3167342105
 11
132.3006993992
 21
83.384810293
  0
LINE
  5
2D3
100
AcDbEntity
  8
DRAFT
100
AcDbLine
 62
7
  6
CONTINUOUS
 10
137.8007755516
 20
83.3167342105
 11
136.2007755516
 21
83.3446623144
  0
LINE
  5
2D4
100
AcDbEntity
  8
0
100
AcDbLine
 62
7
  6
CONTINUOUS
 10
132.3006993992
 20
83.9303426188
 11
132.0482930884
 21
84.031795279
  0
LINE
  5
2D5
100
AcDbEntity
  8
0
100
AcDbLine
 62
7
  6
CONTINUOUS
 10
132.0482930884
 20
84.031795279
 11
131.8007755516
 21
84.1327782219
  0
LINE
  5
2D6
100
AcDbEntity
  8
DRAFT
100
AcDbLine
 62
7
  6
CONTINUOUS
 10
138.4356378487
 20
85.0611909566
 11
137.8007755516
 21
85.1167342105
  0
LINE
  5
2D7
100
AcDbEntity
  8
0
100
AcDbLine
 62
7
  6
CONTINUOUS
 10
132.3006993992
 20
120.7486581281
 11
131.8007755516
 21
120.2399319248
  0
LINE
  5
2D8
100
AcDbEntity
  8
0
100
AcDbLine
 62
7
  6
CONTINUOUS
 10
132.3006993992
 20
83.384810293
 11
131.8007755516
 21
83.8935364962
  0
LWPOLYLINE
  5
2D9
100
AcDbEntity
  8
0
100
AcDbPolyline
 62
7
  6
CONTINUOUS
 90
4
 70
0
 43
0.3500000006
 10
121.7293129578
 20
135.6940182495
 10
121.7293129578
 20
136.551156189
 10
122.1578909912
 20
136.9797251587
 10
122.8007444458
 20
136.9797251587
  0
LINE
  5
2DA
100
AcDbEntity
  8
DRAFT
100
AcDbLine
 62
7
  6
CONTINUOUS
 10
137.8007755516
 20
88.5667342105
 11
139.2579552285
 21
88.5921693764
  0
LINE
  5
2DB
100
AcDbEntity
  8
RACCORDO
100
AcDbLine
 62
7
  6
CONTINUOUS
 10
139.2579552285
 20
88.5921693764
 11
140.0480454748
 21
88.6059604529
  0
LINE
  5
2DC
100
AcDbEntity
  8
DRAFT
100
AcDbLine
 62
7
  6
CONTINUOUS
 10
137.8007755516
 20
93.0667342105
 11
139.2579552285
 21
93.0412990447
  0
LINE
  5
2DD
100
AcDbEntity
  8
RACCORDO
100
AcDbLine
 62
7
  6
CONTINUOUS
 10
139.2579552285
 20
93.0412990447
 11
140.0480454748
 21
93.0275079681
  0
LINE
  5
2DE
100
AcDbEntity
  8
DRAFT
100
AcDbLine
 62
7
  6
CONTINUOUS
 10
138.4356378487
 20
96.5722774644
 11
137.8007755516
 21
96.5167342105
  0
LINE
  5
2DF
100
AcDbEntity
  8
0
100
AcDbLine
 62
7
  6
CONTINUOUS
 10
131.8007755516
 20
83.8935364962
 11
131.8007755516
 21
97.7399319248
  0
LINE
  5
2E0
100
AcDbEntity
  8
0
100
AcDbLine
 62
7
  6
CONTINUOUS
 10
131.8007755516
 20
106.3935364962
 11
131.8007755516
 21
120.2399319248
  0
LINE
  5
2E1
100
AcDbEntity
  8
DRAFT
100
AcDbLine
 62
7
  6
CONTINUOUS
 10
137.8007755516
 20
98.3167342105
 11
136.2007755516
 21
98.2888061066
  0
LINE
  5
2E2
100
AcDbEntity
  8
0
100
AcDbLine
 62
7
  6
CONTINUOUS
 10
136.2007755516
 20
98.3167342105
 11
132.3006993992
 21
98.2486581281
  0
LINE
  5
2E3
100
AcDbEntity
  8
DRAFT
100
AcDbLine
 62
7
  6
CONTINUOUS
 10
137.8007755516
 20
97.7297653836
 11
136.2007755516
 21
97.7188489762
  0
LINE
  5
2E4
100
AcDbEntity
  8
0
100
AcDbLine
 62
7
  6
CONTINUOUS
 10
136.2007755516
 20
97.7297653836
 11
132.3006993992
 21
97.7031258023
  0
LINE
  5
2E5
100
AcDbEntity
  8
DRAFT
100
AcDbLine
 62
7
  6
CONTINUOUS
 10
138.4356378487
 20
97.5611909566
 11
137.8007755516
 21
97.6167342105
  0
LINE
  5
2E6
100
AcDbEntity
  8
0
100
AcDbLine
 62
7
  6
CONTINUOUS
 10
132.3006993992
 20
83.384810293
 11
132.3006993992
 21
98.2486581281
  0
LINE
  5
2E7
100
AcDbEntity
  8
0
100
AcDbLine
 62
7
  6
CONTINUOUS
 10
132.3006993992
 20
105.884810293
 11
132.3006993992
 21
120.7486581281
  0
LINE
  5
2E8
100
AcDbEntity
  8
0
100
AcDbLine
 62
7
  6
CONTINUOUS
 10
132.3006993992
 20
98.2486581281
 11
131.8007755516
 21
97.7399319248
  0
LINE
  5
2E9
100
AcDbEntity
  8
0
100
AcDbLine
 62
7
  6
CONTINUOUS
 10
132.3006993992
 20
105.884810293
 11
131.8007755516
 21
106.3935364962
  0
LINE
  5
2EA
100
AcDbEntity
  8
0
100
AcDbLine
 62
7
  6
CONTINUOUS
 10
136.2007755516
 20
83.3167342105
 11
136.2007755516
 21
98.3167342105
  0
LINE
  5
2EB
100
AcDbEntity
  8
0
100
AcDbLine
 62
7
  6
CONTINUOUS
 10
136.2007755516
 20
105.8167342105
 11
136.2007755516
 21
120.8167342105
  0
LINE
  5
2EC
100
AcDbEntity
  8
DRAFT
100
AcDbLine
 62
7
  6
CONTINUOUS
 10
137.8007755516
 20
83.3167342105
 11
137.8007755516
 21
98.3167342105
  0
LINE
  5
2ED
100
AcDbEntity
  8
DRAFT
100
AcDbLine
 62
7
  6
CONTINUOUS
 10
137.8007755516
 20
105.8167342105
 11
137.8007755516
 21
120.8167342105
  0
LINE
  5
2EE
100
AcDbEntity
  8
RACCORDO
100
AcDbLine
 62
250
  6
CONTINUOUS
 10
138.4356378487
 20
120.0611909566
 11
138.4356378487
 21
119.0722774644
  0
LINE
  5
2EF
100
AcDbEntity
  8
RACCORDO
100
AcDbLine
 62
250
  6
CONTINUOUS
 10
138.4356378487
 20
107.5611909566
 11
138.4356378487
 21
106.5722774644
  0
LINE
  5
2F0
100
AcDbEntity
  8
RACCORDO
100
AcDbLine
 62
250
  6
CONTINUOUS
 10
138.4356378487
 20
97.5611909566
 11
138.4356378487
 21
96.5722774644
  0
LINE
  5
2F1
100
AcDbEntity
  8
RACCORDO
100
AcDbLine
 62
250
  6
CONTINUOUS
 10
138.4356378487
 20
85.0611909566
 11
138.4356378487
 21
84.0722774644
  0
LINE
  5
2F2
100
AcDbEntity
  8
0
100
AcDbLine
 62
7
  6
CONTINUOUS
 10
132.0481284313
 20
97.6016064643
 11
131.8007755516
 21
97.5006901991
  0
LINE
  5
2F3
100
AcDbEntity
  8
0
100
AcDbLine
 62
7
  6
CONTINUOUS
 10
132.3006993992
 20
97.7031258023
 11
132.0481284313
 21
97.6016064643
  0
LINE
  5
2F4
100
AcDbEntity
  8
0
100
AcDbLine
 62
7
  6
CONTINUOUS
 10
132.3006993992
 20
106.4303426188
 11
132.0482930884
 21
106.531795279
  0
LINE
  5
2F5
100
AcDbEntity
  8
0
100
AcDbLine
 62
7
  6
CONTINUOUS
 10
132.0482930884
 20
106.531795279
 11
131.8007755516
 21
106.6327782219
  0
LINE
  5
2F6
100
AcDbEntity
  8
RACCORDO
100
AcDbLine
 62
7
  6
CONTINUOUS
 10
138.8007755516
 20
119.6627130773
 11
138.8007755516
 21
119.4707553437
  0
LINE
  5
2F7
100
AcDbEntity
  8
RACCORDO
100
AcDbLine
 62
7
  6
CONTINUOUS
 10
138.8007755516
 20
107.1627130773
 11
138.8007755516
 21
106.9707553437
  0
LINE
  5
2F8
100
AcDbEntity
  8
RACCORDO
100
AcDbLine
 62
7
  6
CONTINUOUS
 10
138.8007755516
 20
97.1627130773
 11
138.8007755516
 21
96.9707553437
  0
LINE
  5
2F9
100
AcDbEntity
  8
RACCORDO
100
AcDbLine
 62
7
  6
CONTINUOUS
 10
138.8007755516
 20
84.6627130773
 11
138.8007755516
 21
84.4707553437
  0
LINE
  5
2FA
100
AcDbEntity
  8
DRAFT
100
AcDbLine
 62
7
  6
CONTINUOUS
 10
138.8007755516
 20
88.5841892755
 11
138.8007755516
 21
93.0492791456
  0
LINE
  5
2FB
100
AcDbEntity
  8
DRAFT
100
AcDbLine
 62
7
  6
CONTINUOUS
 10
138.8007755516
 20
111.0841892755
 11
138.8007755516
 21
115.5492791456
  0
LINE
  5
2FC
100
AcDbEntity
  8
DRAFT
100
AcDbLine
 62
7
  6
CONTINUOUS
 10
138.9079552285
 20
88.5860601037
 11
138.9079552285
 21
93.0474083174
  0
LINE
  5
2FD
100
AcDbEntity
  8
DRAFT
100
AcDbLine
 62
7
  6
CONTINUOUS
 10
138.9079552285
 20
111.0860601037
 11
138.9079552285
 21
115.5474083174
  0
LINE
  5
2FE
100
AcDbEntity
  8
DRAFT
100
AcDbLine
 62
7
  6
CONTINUOUS
 10
139.2579552285
 20
88.5921693764
 11
139.2579552285
 21
93.0412990447
  0
LINE
  5
2FF
100
AcDbEntity
  8
DRAFT
100
AcDbLine
 62
7
  6
CONTINUOUS
 10
139.2579552285
 20
111.0921693764
 11
139.2579552285
 21
115.5412990447
  0
LINE
  5
300
100
AcDbEntity
  8
0
100
AcDbLine
 62
7
  6
CONTINUOUS
 10
136.2007755516
 20
105.8167342105
 11
132.3006993992
 21
105.884810293
  0
LINE
  5
301
100
AcDbEntity
  8
DRAFT
100
AcDbLine
 62
7
  6
CONTINUOUS
 10
137.8007755516
 20
105.8167342105
 11
136.2007755516
 21
105.8446623144
  0
LINE
  5
302
100
AcDbEntity
  8
RACCORDO
100
AcDbLine
 62
250
  6
CONTINUOUS
 10
139.9601797053
 20
88.6044267502
 11
139.9601797053
 21
93.0290416708
  0
LINE
  5
303
100
AcDbEntity
  8
RACCORDO
100
AcDbLine
 62
250
  6
CONTINUOUS
 10
139.9601797053
 20
111.1044267502
 11
139.9601797053
 21
115.5290416708
  0
LINE
  5
304
100
AcDbEntity
  8
RACCORDO
100
AcDbLine
 62
7
  6
CONTINUOUS
 10
140.048047671
 20
88.6059604913
 11
140.048047671
 21
93.0275079298
  0
LINE
  5
305
100
AcDbEntity
  8
RACCORDO
100
AcDbLine
 62
7
  6
CONTINUOUS
 10
140.048047671
 20
111.1059604913
 11
140.048047671
 21
115.5275079298
  0
LINE
  5
306
100
AcDbEntity
  8
DRAFT
100
AcDbLine
 62
7
  6
CONTINUOUS
 10
138.4356378487
 20
106.5722774644
 11
137.8007755516
 21
106.5167342105
  0
LINE
  5
307
100
AcDbEntity
  8
0
100
AcDbLine
 62
7
  6
CONTINUOUS
 10
136.2007755516
 20
106.4037030374
 11
132.3006993992
 21
106.4303426188
  0
LINE
  5
308
100
AcDbEntity
  8
DRAFT
100
AcDbLine
 62
7
  6
CONTINUOUS
 10
137.8007755516
 20
106.4037030374
 11
136.2007755516
 21
106.4146194448
  0
LWPOLYLINE
  5
309
100
AcDbEntity
  8
0
100
AcDbPolyline
 62
7
  6
CONTINUOUS
 90
10
 70
0
 43
0.3500000006
 10
124.7293138733
 20
135.7654403687
 10
124.8007450562
 20
135.6225780029
 10
124.8007450562
 20
135.5511558838
 10
124.6578917542
 20
135.4082935181
 10
124.5864605713
 20
135.4082935181
 10
124.5150293884
 20
135.4797337646
 10
124.5150293884
 20
135.5511558838
 10
124.5864605713
 20
135.6940182495
 10
124.6578917542
 20
135.7654403687
 10
124.7293138733
 20
135.7654403687
  0
LINE
  5
30A
100
AcDbEntity
  8
DRAFT
100
AcDbLine
 62
7
  6
CONTINUOUS
 10
138.4356378487
 20
107.5611909566
 11
137.8007755516
 21
107.6167342105
  0
LINE
  5
30B
100
AcDbEntity
  8
DRAFT
100
AcDbLine
 62
7
  6
CONTINUOUS
 10
137.8007755516
 20
111.0667342105
 11
139.2579552285
 21
111.0921693764
  0
LINE
  5
30C
100
AcDbEntity
  8
RACCORDO
100
AcDbLine
 62
7
  6
CONTINUOUS
 10
139.2579552285
 20
111.0921693764
 11
140.0480454748
 21
111.1059604529
  0
LINE
  5
30D
100
AcDbEntity
  8
DRAFT
100
AcDbLine
 62
7
  6
CONTINUOUS
 10
137.8007755516
 20
115.5667342105
 11
139.2579552285
 21
115.5412990447
  0
LINE
  5
30E
100
AcDbEntity
  8
RACCORDO
100
AcDbLine
 62
7
  6
CONTINUOUS
 10
139.2579552285
 20
115.5412990447
 11
140.0480454748
 21
115.5275079681
  0
LINE
  5
30F
100
AcDbEntity
  8
DRAFT
100
AcDbLine
 62
7
  6
CONTINUOUS
 10
138.4356378487
 20
119.0722774644
 11
137.8007755516
 21
119.0167342105
  0
LINE
  5
310
100
AcDbEntity
  8
DRAFT
100
AcDbLine
 62
7
  6
CONTINUOUS
 10
137.8007755516
 20
120.8167342105
 11
136.2007755516
 21
120.7888061066
  0
LINE
  5
311
100
AcDbEntity
  8
0
100
AcDbLine
 62
7
  6
CONTINUOUS
 10
136.2007755516
 20
120.8167342105
 11
132.3006993992
 21
120.7486581281
  0
LINE
  5
312
100
AcDbEntity
  8
DRAFT
100
AcDbLine
 62
7
  6
CONTINUOUS
 10
137.8007755516
 20
120.2297653836
 11
136.2007755516
 21
120.2188489762
  0
LINE
  5
313
100
AcDbEntity
  8
0
100
AcDbLine
 62
7
  6
CONTINUOUS
 10
136.2007755516
 20
120.2297653836
 11
132.3006993992
 21
120.2031258023
  0
LWPOLYLINE
  5
314
100
AcDbEntity
  8
0
100
AcDbPolyline
 62
7
  6
CONTINUOUS
 90
7
 70
0
 43
0.3500000006
 10
127.3007458191
 20
135.2654492798
 10
125.8007453613
 20
135.2654492798
 10
127.3007458191
 20
137.4082941284
 10
127.3007458191
 20
137.8368630981
 10
126.8721768494
 20
138.2654320679
 10
126.2293143311
 20
138.2654320679
 10
125.8007453613
 20
137.6225786133
  0
LWPOLYLINE
  5
315
100
AcDbEntity
  8
0
100
AcDbPolyline
 62
7
  6
CONTINUOUS
 90
8
 70
0
 43
0.3500000006
 10
128.1578928223
 20
135.2654492798
 10
129.0150307617
 20
135.2654492798
 10
129.4435997314
 20
135.6940182495
 10
129.4435997314
 20
136.551156189
 10
129.0150307617
 20
136.9797251587
 10
128.1578928223
 20
136.9797251587
 10
128.1578928223
 20
138.2654320679
 10
129.4435997314
 20
138.2654320679
  0
LINE
  5
316
100
AcDbEntity
  8
DRAFT
100
AcDbLine
 62
7
  6
CONTINUOUS
 10
138.4356378487
 20
120.0611909566
 11
137.8007755516
 21
120.1167342105
  0
LWPOLYLINE
  5
317
100
AcDbEntity
  8
0
100
AcDbPolyline
 62
7
  6
CONTINUOUS
 90
13
 70
0
 43
0.3500000006
 10
122.1578909912
 20
136.9797251587
 10
121.8721753235
 20
137.1940096436
 10
121.8721753235
 20
137.8368630981
 10
122.1578909912
 20
138.2654320679
 10
122.8007444458
 20
138.2654320679
 10
123.0864601135
 20
137.8368630981
 10
123.0864601135
 20
137.1940096436
 10
122.8007444458
 20
136.9797251587
 10
123.2293134155
 20
136.551156189
 10
123.2293134155
 20
135.6940182495
 10
122.8007444458
 20
135.2654492798
 10
122.1578909912
 20
135.2654492798
 10
121.7293129578
 20
135.6940182495
  0
ARC
  5
318
100
AcDbEntity
  8
0
100
AcDbCircle
 62
7
  6
CONTINUOUS
 10
168.7572074013
 20
90.8167342105
 40
10.2
100
AcDbArc
 50
222.6679254941
 51
227.3320745059
  0
ARC
  5
319
100
AcDbEntity
  8
0
100
AcDbCircle
 62
7
  6
CONTINUOUS
 10
168.7572074013
 20
90.8167342105
 40
10.2
100
AcDbArc
 50
312.6679254941
 51
317.3320745059
  0
ARC
  5
31A
100
AcDbEntity
  8
0
100
AcDbCircle
 62
7
  6
CONTINUOUS
 10
168.7572074013
 20
90.8167342105
 40
10.2
100
AcDbArc
 50
42.6679254941
 51
47.3320745059
  0
ARC
  5
31B
100
AcDbEntity
  8
0
100
AcDbCircle
 62
7
  6
CONTINUOUS
 10
168.7572074013
 20
90.8167342105
 40
10.2
100
AcDbArc
 50
132.6679254941
 51
137.3320745059
  0
ARC
  5
31C
100
AcDbEntity
  8
0
100
AcDbCircle
 62
7
  6
CONTINUOUS
 10
168.7572074013
 20
90.8167342105
 40
10.1319239175
100
AcDbArc
 50
132.8180681543
 51
137.1819318457
  0
ARC
  5
31D
100
AcDbEntity
  8
0
100
AcDbCircle
 62
7
  6
CONTINUOUS
 10
168.7572074013
 20
90.8167342105
 40
10.1319239175
100
AcDbArc
 50
42.8180681543
 51
47.1819318457
  0
ARC
  5
31E
100
AcDbEntity
  8
0
100
AcDbCircle
 62
7
  6
CONTINUOUS
 10
168.7572074013
 20
90.8167342105
 40
10.1319239175
100
AcDbArc
 50
312.8180681543
 51
317.1819318457
  0
ARC
  5
31F
100
AcDbEntity
  8
0
100
AcDbCircle
 62
7
  6
CONTINUOUS
 10
168.7572074013
 20
90.8167342105
 40
10.1319239175
100
AcDbArc
 50
222.8180681543
 51
227.1819318457
  0
ARC
  5
320
100
AcDbEntity
  8
0
100
AcDbCircle
 62
7
  6
CONTINUOUS
 10
168.7572074013
 20
90.8167342105
 40
9.6231977143
100
AcDbArc
 50
43.9927262332
 51
46.0072737668
  0
ARC
  5
321
100
AcDbEntity
  8
0
100
AcDbCircle
 62
7
  6
CONTINUOUS
 10
168.7572074013
 20
90.8167342105
 40
9.6231977143
100
AcDbArc
 50
313.9927262332
 51
316.0072737668
  0
ARC
  5
322
100
AcDbEntity
  8
0
100
AcDbCircle
 62
7
  6
CONTINUOUS
 10
168.7572074013
 20
90.8167342105
 40
9.6231977143
100
AcDbArc
 50
223.9927262332
 51
226.0072737668
  0
ARC
  5
323
100
AcDbEntity
  8
0
100
AcDbCircle
 62
7
  6
CONTINUOUS
 10
168.7572074013
 20
90.8167342105
 40
9.6231977143
100
AcDbArc
 50
133.9927262332
 51
136.0072737668
  0
ARC
  5
324
100
AcDbEntity
  8
0
100
AcDbCircle
 62
7
  6
CONTINUOUS
 10
168.7572074013
 20
113.3167342105
 40
10.2
100
AcDbArc
 50
222.6679254941
 51
227.3320745059
  0
ARC
  5
325
100
AcDbEntity
  8
0
100
AcDbCircle
 62
7
  6
CONTINUOUS
 10
168.7572074013
 20
113.3167342105
 40
10.2
100
AcDbArc
 50
312.6679254941
 51
317.3320745059
  0
ARC
  5
326
100
AcDbEntity
  8
0
100
AcDbCircle
 62
7
  6
CONTINUOUS
 10
168.7572074013
 20
113.3167342105
 40
10.2
100
AcDbArc
 50
42.6679254941
 51
47.3320745059
  0
ARC
  5
327
100
AcDbEntity
  8
0
100
AcDbCircle
 62
7
  6
CONTINUOUS
 10
168.7572074013
 20
113.3167342105
 40
10.2
100
AcDbArc
 50
132.6679254941
 51
137.3320745059
  0
ARC
  5
328
100
AcDbEntity
  8
0
100
AcDbCircle
 62
7
  6
CONTINUOUS
 10
168.7572074013
 20
113.3167342105
 40
10.1319239175
100
AcDbArc
 50
132.8180681543
 51
137.1819318457
  0
ARC
  5
329
100
AcDbEntity
  8
0
100
AcDbCircle
 62
7
  6
CONTINUOUS
 10
168.7572074013
 20
113.3167342105
 40
10.1319239175
100
AcDbArc
 50
42.8180681543
 51
47.1819318457
  0
ARC
  5
32A
100
AcDbEntity
  8
0
100
AcDbCircle
 62
7
  6
CONTINUOUS
 10
168.7572074013
 20
113.3167342105
 40
10.1319239175
100
AcDbArc
 50
312.8180681543
 51
317.1819318457
  0
ARC
  5
32B
100
AcDbEntity
  8
0
100
AcDbCircle
 62
7
  6
CONTINUOUS
 10
168.7572074013
 20
113.3167342105
 40
10.1319239175
100
AcDbArc
 50
222.8180681543
 51
227.1819318457
  0
ARC
  5
32C
100
AcDbEntity
  8
0
100
AcDbCircle
 62
7
  6
CONTINUOUS
 10
168.7572074013
 20
113.3167342105
 40
9.6231977143
100
AcDbArc
 50
43.9927262332
 51
46.0072737668
  0
ARC
  5
32D
100
AcDbEntity
  8
0
100
AcDbCircle
 62
7
  6
CONTINUOUS
 10
168.7572074013
 20
113.3167342105
 40
9.6231977143
100
AcDbArc
 50
313.9927262332
 51
316.0072737668
  0
ARC
  5
32E
100
AcDbEntity
  8
0
100
AcDbCircle
 62
7
  6
CONTINUOUS
 10
168.7572074013
 20
113.3167342105
 40
9.6231977143
100
AcDbArc
 50
223.9927262332
 51
226.0072737668
  0
ARC
  5
32F
100
AcDbEntity
  8
0
100
AcDbCircle
 62
7
  6
CONTINUOUS
 10
168.7572074013
 20
113.3167342105
 40
9.6231977143
100
AcDbArc
 50
133.9927262332
 51
136.0072737668
  0
CIRCLE
  5
330
100
AcDbEntity
  8
0
100
AcDbCircle
 62
7
  6
CONTINUOUS
 10
168.7572074013
 20
113.3167342105
 40
0.8132585906
  0
ARC
  5
331
100
AcDbEntity
  8
0
100
AcDbCircle
 62
7
  6
CONTINUOUS
 10
167.0948479992
 20
113.3168753216
 40
0.2559579166
100
AcDbArc
 50
270.0
 51
90.0
  0
ARC
  5
332
100
AcDbEntity
  8
0
100
AcDbCircle
 62
7
  6
CONTINUOUS
 10
166.0237441377
 20
113.3168753216
 40
0.2559579166
100
AcDbArc
 50
90.0
 51
270.0
  0
ARC
  5
333
100
AcDbEntity
  8
0
100
AcDbCircle
 62
7
  6
CONTINUOUS
 10
167.5817264591
 20
112.141535453
 40
0.2558500137
100
AcDbArc
 50
314.9717391465
 51
135.0226731035
  0
ARC
  5
334
100
AcDbEntity
  8
0
100
AcDbCircle
 62
7
  6
CONTINUOUS
 10
167.5816885644
 20
114.492288359
 40
0.2558499955
100
AcDbArc
 50
224.9893276862
 51
45.0162600638
  0
ARC
  5
335
100
AcDbEntity
  8
0
100
AcDbCircle
 62
7
  6
CONTINUOUS
 10
168.7571368457
 20
114.9786395036
 40
0.2557286049
100
AcDbArc
 50
179.9970473162
 51
0.0029526838
  0
ARC
  5
336
100
AcDbEntity
  8
0
100
AcDbCircle
 62
7
  6
CONTINUOUS
 10
168.7571368457
 20
111.6548157387
 40
0.2557286046
100
AcDbArc
 50
0.0
 51
180.0
  0
ARC
  5
337
100
AcDbEntity
  8
0
100
AcDbCircle
 62
7
  6
CONTINUOUS
 10
168.7571368457
 20
110.5829357389
 40
0.2557286046
100
AcDbArc
 50
180.0
 51
360.0
  0
ARC
  5
338
100
AcDbEntity
  8
0
100
AcDbCircle
 62
7
  6
CONTINUOUS
 10
168.7571368457
 20
116.049897682
 40
0.2557286046
100
AcDbArc
 50
0.0
 51
180.0
  0
ARC
  5
339
100
AcDbEntity
  8
0
100
AcDbCircle
 62
7
  6
CONTINUOUS
 10
166.824464662
 20
115.2495647314
 40
0.2556881728
100
AcDbArc
 50
45.0066725928
 51
224.8703525893
  0
ARC
  5
33A
100
AcDbEntity
  8
0
100
AcDbCircle
 62
7
  6
CONTINUOUS
 10
166.8241274634
 20
111.3835657664
 40
0.2556880505
100
AcDbArc
 50
135.0226731035
 51
315.1003017145
  0
ARC
  5
33B
100
AcDbEntity
  8
0
100
AcDbCircle
 62
7
  6
CONTINUOUS
 10
170.4192536379
 20
113.3168753216
 40
0.2559579252
100
AcDbArc
 50
89.9851765373
 51
270.0148234627
  0
ARC
  5
33C
100
AcDbEntity
  8
0
100
AcDbCircle
 62
7
  6
CONTINUOUS
 10
171.4908823315
 20
113.3168753216
 40
0.2559579166
100
AcDbArc
 50
270.0
 51
90.0
  0
ARC
  5
33D
100
AcDbEntity
  8
0
100
AcDbCircle
 62
7
  6
CONTINUOUS
 10
170.6900613207
 20
115.2494993333
 40
0.2557871766
100
AcDbArc
 50
314.9826541391
 51
134.9947899425
  0
ARC
  5
33E
100
AcDbEntity
  8
0
100
AcDbCircle
 62
7
  6
CONTINUOUS
 10
169.9323523816
 20
112.1415890828
 40
0.2557503025
100
AcDbArc
 50
44.9826631843
 51
225.0676344766
  0
ARC
  5
33F
100
AcDbEntity
  8
0
100
AcDbCircle
 62
7
  6
CONTINUOUS
 10
169.9325236591
 20
114.4923679654
 40
0.2557502375
100
AcDbArc
 50
134.9866069723
 51
314.9630953668
  0
ARC
  5
340
100
AcDbEntity
  8
0
100
AcDbCircle
 62
7
  6
CONTINUOUS
 10
170.6901017703
 20
111.3836286939
 40
0.2555752015
100
AcDbArc
 50
224.9448424062
 51
44.9826631843
  0
ARC
  5
341
100
AcDbEntity
  8
RACCORDO
100
AcDbCircle
 62
7
  6
CONTINUOUS
 10
138.4007755516
 20
84.6627130774
 40
0.4
100
AcDbArc
 50
0.0
 51
85.0
  0
ARC
  5
342
100
AcDbEntity
  8
RACCORDO
100
AcDbCircle
 62
7
  6
CONTINUOUS
 10
138.4007755516
 20
84.4707553437
 40
0.4
100
AcDbArc
 50
275.0
 51
360.0
  0
ARC
  5
343
100
AcDbEntity
  8
RACCORDO
100
AcDbCircle
 62
7
  6
CONTINUOUS
 10
138.4007755516
 20
97.1627130774
 40
0.4
100
AcDbArc
 50
0.0
 51
85.0
  0
ARC
  5
344
100
AcDbEntity
  8
RACCORDO
100
AcDbCircle
 62
7
  6
CONTINUOUS
 10
138.4007755516
 20
96.9707553437
 40
0.4
100
AcDbArc
 50
275.0
 51
360.0
  0
ARC
  5
345
100
AcDbEntity
  8
RACCORDO
100
AcDbCircle
 62
7
  6
CONTINUOUS
 10
138.4007755516
 20
107.1627130774
 40
0.4
100
AcDbArc
 50
0.0
 51
85.0
  0
ARC
  5
346
100
AcDbEntity
  8
RACCORDO
100
AcDbCircle
 62
7
  6
CONTINUOUS
 10
138.4007755516
 20
106.9707553437
 40
0.4
100
AcDbArc
 50
275.0
 51
360.0
  0
ARC
  5
347
100
AcDbEntity
  8
RACCORDO
100
AcDbCircle
 62
7
  6
CONTINUOUS
 10
138.4007755516
 20
119.6627130774
 40
0.4
100
AcDbArc
 50
0.0
 51
85.0
  0
ARC
  5
348
100
AcDbEntity
  8
RACCORDO
100
AcDbCircle
 62
7
  6
CONTINUOUS
 10
138.4007755516
 20
119.4707553437
 40
0.4
100
AcDbArc
 50
275.0
 51
360.0
  0
ENDSEC
  0
SECTION
  2
OBJECTS
  0
DICTIONARY
  5
C
100
AcDbDictionary
280
0
281
1
  3
ACAD_GROUP
350
D
  3
ACAD_MLINESTYLE
350
17
  3
ACAD_LAYOUT
350
1A
  3
ACAD_PLOTSETTINGS
350
19
  3
ACAD_PLOTSTYLENAME
350
E
  0
DICTIONARY
  5
D
102
{ACAD_REACTORS
330
C
102
}
100
AcDbDictionary
280
0
281
1
  0
ACDBDICTIONARYWDFLT
  5
E
102
{ACAD_REACTORS
330
C
102
}
100
AcDbDictionary
281
1
  3
Normal
350
F
100
AcDbDictionaryWithDefault
340
F
  0
DICTIONARY
  5
17
102
{ACAD_REACTORS
330
C
102
}
100
AcDbDictionary
280
0
281
1
  3
Standard
350
18
  0
DICTIONARY
  5
19
102
{ACAD_REACTORS
330
C
102
}
100
AcDbDictionary
281
1
  0
DICTIONARY
  5
1A
102
{ACAD_REACTORS
330
C
102
}
100
AcDbDictionary
281
1
  3
Model
350
349
  3
Layout1
350
34A
  0
ACDBPLACEHOLDER
  5
F
102
{ACAD_REACTORS
330
E
102
}
  0
MLINESTYLE
  5
18
102
{ACAD_REACTORS
330
17
102
}
100
AcDbMlineStyle
  2
STANDARD
 70
0
  3

 62
256
 51
90.0
 52
90.0
 71
2
 49
0.5
 62
256
  6
BYLAYER
 49
-0.5
 62
256
  6
BYLAYER
  0
LAYOUT
  5
349
102
{ACAD_REACTORS
330
1A
102
}
100
AcDbPlotSettings
  1

  2
none_device
  4
ISO_A4_(297.00_x_210.00_MM)
  6

 40
0.0
 41
0.0
 42
0.0
 43
0.0
 44
297.0
 45
210.0
 46
0.0
 47
0.0
 48
0.0
 49
0.0
140
0.0
141
0.0
142
1.0
143
1.0
 70
1024
 72
1
 73
0
 74
0
  7

 75
0
147
1.0
148
0.0
149
0.0
100
AcDbLayout
  1
Model
 70
0
 71
0
 10
0.0
 20
0.0
 11
297.0
 21
210.0
 12
0.0
 22
0.0
 32
0.0
 14
0.0
 24
0.0
 34
0.0
 15
0.0
 25
0.0
 35
0.0
146
0.0
 13
0.0
 23
0.0
 33
0.0
 16
1.0
 26
0.0
 36
0.0
 17
0.0
 27
1.0
 37
0.0
 76
0
330
219
345
0
346
0
  0
LAYOUT
  5
34A
102
{ACAD_REACTORS
330
1A
102
}
100
AcDbPlotSettings
  1

  2
none_device
  4
ISO_A4_(297.00_x_210.00_MM)
  6

 40
0.0
 41
0.0
 42
0.0
 43
0.0
 44
297.0
 45
210.0
 46
0.0
 47
0.0
 48
0.0
 49
0.0
140
0.0
141
0.0
142
1.0
143
1.0
 70
0
 72
1
 73
0
 74
0
  7

 75
0
147
1.0
148
0.0
149
0.0
100
AcDbLayout
  1
Layout1
 70
0
 71
1
 10
0.0
 20
0.0
 11
297.0
 21
210.0
 12
0.0
 22
0.0
 32
0.0
 14
0.0
 24
0.0
 34
0.0
 15
0.0
 25
0.0
 35
0.0
146
0.0
 13
0.0
 23
0.0
 33
0.0
 16
1.0
 26
0.0
 36
0.0
 17
0.0
 27
1.0
 37
0.0
 76
0
330
21A
345
0
346
0
  0
ENDSEC
  0
EOF
