  0
SECTION
  2
HEADER
  9
$ACADVER
  1
AC1024
  9
$DWGCODEPAGE
  3
ANSI_1252
  9
$EXTMAX
 10
297.0
 20
210.0
 30
0.0
  9
$EXTMIN
 10
0.0
 20
0.0
 30
0.0
  9
$LIMMIN
 10
0.0
 20
0.0
  9
$LIMMAX
 10
297.0
 20
210.0
  9
$VIEWCTR
 10
148.5
 20
105.0
  9
$VIEWSIZE
 40
210.0
  9
$CLAYER
  8
0
  9
$LTSCALE
 40
16.335
  9
$CELTYPE
  6
BYLAYER
  9
$DIMSCALE
 40
1.0
  9
$DIMASZ
 40
3.0
  9
$DIMEXO
 40
0.5
  9
$DIMDLI
 40
11.286
  9
$DIMEXE
 40
1.5
  9
$DIMCEN
 40
2.673
  9
$DIMLFAC
 40
1.0
  9
$DIMBLK
  1
_FILLED
  9
$DIMALT
 70
0
  9
$DIMALTF
 40
0.0393700787
  9
$DIMTXT
 40
3.0
  9
$DIMTOL
 70
1
  9
$DIMLIM
 70
0
  9
$DIMTFAC
 40
1.0
  9
$DIMTP
 40
0.01
  9
$DIMTM
 40
0.01
  9
$DIMGAP
 40
0.625
  9
$DIMDSEP
 70
44
  9
$AUNITS
 70
0
  9
$PDMODE
 70
3
  9
$PDSIZE
 40
3.0
  9
$HANDSEED
  5
34D
  9
$TILEMODE
 70
1
  9
$MEASUREMENT
 70
1
  9
$INSUNITS
 70
4
  0
ENDSEC
  0
SECTION
  2
CLASSES
  0
CLASS
  1
ACDBDICTIONARYWDFLT
  2
AcDbDictionaryWithDefault
  3
AutoCAD 2000
 90
0
 91
1
280
0
281
0
  0
CLASS
  1
ACDBPLACEHOLDER
  2
AcDbPlaceHolder
  3
AutoCAD 2000
 90
0
 91
1
280
0
281
0
  0
CLASS
  1
LAYOUT
  2
AcDbLayout
  3
AutoCAD 2000
 90
0
 91
0
280
0
281
0
  0
ENDSEC
  0
SECTION
  2
TABLES
  0
TABLE
  2
VPORT
  5
8
100
AcDbSymbolTable
 70
2
  0
VPORT
  5
1F4
100
AcDbSymbolTableRecord
100
AcDbViewportTableRecord
  2
*ACTIVE
 70
0
 10
0.0
 20
0.0
 11
1.0
 21
1.0
 12
148.5
 22
105.0
 13
0.0
 23
0.0
 14
1.0
 24
1.0
 15
0.0
 25
0.0
 16
0.0
 26
0.0
 36
1.0
 17
0.0
 27
0.0
 37
0.0
 40
210.0
 41
1.4142857143
 42
50.0
 43
0.0
 44
0.0
 50
0.0
 51
0.0
 71
0
 72
100
 73
1
 74
1
 75
0
 76
0
 77
0
 78
0
  0
ENDTAB
  0
TABLE
  2
LTYPE
  5
5
100
AcDbSymbolTable
 70
6
  0
LTYPE
  5
14
100
AcDbSymbolTableRecord
100
AcDbLinetypeTableRecord
  2
BYBLOCK
 70
0
  3

 72
65
 73
0
 40
0.0
  0
LTYPE
  5
15
100
AcDbSymbolTableRecord
100
AcDbLinetypeTableRecord
  2
BYLAYER
 70
0
  3

 72
65
 73
0
 40
0.0
  0
LTYPE
  5
16
100
AcDbSymbolTableRecord
100
AcDbLinetypeTableRecord
  2
CONTINUOUS
 70
64
  3
Solid line
 72
65
 73
0
 40
0.0
  0
LTYPE
  5
1F5
100
AcDbSymbolTableRecord
100
AcDbLinetypeTableRecord
  2
CENTER
 70
64
  3
____ _ ____ _ ____ _ ____ _ ____ _ ____ _ ____
 72
65
 73
4
 40
0.6
 49
0.375
 74
0
 49
-0.075
 74
0
 49
0.075
 74
0
 49
-0.075
 74
0
  0
LTYPE
  5
1F6
100
AcDbSymbolTableRecord
100
AcDbLinetypeTableRecord
  2
HIDDEN
 70
64
  3
- - - - - - - - - - - - - - - - - - - -
 72
65
 73
2
 40
0.2
 49
0.1
 74
0
 49
-0.1
 74
0
  0
LTYPE
  5
1F7
100
AcDbSymbolTableRecord
100
AcDbLinetypeTableRecord
  2
PHANTOM
 70
64
  3
_____ _ _ _____ _ _ _____ _ _ _____
 72
65
 73
6
 40
0.8
 49
0.45
 74
0
 49
-0.05
 74
0
 49
0.1
 74
0
 49
-0.05
 74
0
 49
0.1
 74
0
 49
-0.05
 74
0
  0
LTYPE
  5
1F8
100
AcDbSymbolTableRecord
100
AcDbLinetypeTableRecord
  2
DOT
 70
64
  3
. . . . . . . . . . . . . . . . . . . .
 72
65
 73
2
 40
0.2
 49
0.1
 74
0
 49
-0.1
 74
0
  0
LTYPE
  5
1F9
100
AcDbSymbolTableRecord
100
AcDbLinetypeTableRecord
  2
DASHED
 70
64
  3
- - - - - - - - - - - - - - - - - - - -
 72
65
 73
2
 40
0.2
 49
0.1
 74
0
 49
-0.1
 74
0
  0
ENDTAB
  0
TABLE
  2
LAYER
  5
2
100
AcDbSymbolTable
 70
36
  0
LAYER
  5
10
100
AcDbSymbolTableRecord
100
AcDbLayerTableRecord
  2
0
 70
0
 62
7
  6
CONTINUOUS
370
-3
390
F
  0
LAYER
  5
1FA
100
AcDbSymbolTableRecord
100
AcDbLayerTableRecord
  2
DEFAULT_1
 70
0
 62
7
  6
CENTER
370
-3
390
F
  0
LAYER
  5
1FB
100
AcDbSymbolTableRecord
100
AcDbLayerTableRecord
  2
DEFAULT_2
 70
0
 62
7
  6
HIDDEN
370
-3
390
F
  0
LAYER
  5
1FC
100
AcDbSymbolTableRecord
100
AcDbLayerTableRecord
  2
DEFAULT_3
 70
0
 62
7
  6
PHANTOM
370
-3
390
F
  0
LAYER
  5
1FD
100
AcDbSymbolTableRecord
100
AcDbLayerTableRecord
  2
ASSI
 70
0
 62
7
  6
CONTINUOUS
370
-3
390
F
  0
LAYER
  5
1FE
100
AcDbSymbolTableRecord
100
AcDbLayerTableRecord
  2
COLOR9
 70
0
 62
7
  6
CONTINUOUS
370
-3
390
F
  0
LAYER
  5
1FF
100
AcDbSymbolTableRecord
100
AcDbLayerTableRecord
  2
COORDINATE
 70
0
 62
7
  6
CONTINUOUS
370
-3
390
F
  0
LAYER
  5
200
100
AcDbSymbolTableRecord
100
AcDbLayerTableRecord
  2
COORD_ORIGINE
 70
0
 62
7
  6
CONTINUOUS
370
-3
390
F
  0
LAYER
  5
201
100
AcDbSymbolTableRecord
100
AcDbLayerTableRecord
  2
COPY_PUBLISH
 70
0
 62
7
  6
CONTINUOUS
370
-3
390
F
  0
LAYER
  5
202
100
AcDbSymbolTableRecord
100
AcDbLayerTableRecord
  2
COSMETICI
 70
0
 62
7
  6
CONTINUOUS
370
-3
390
F
  0
LAYER
  5
203
100
AcDbSymbolTableRecord
100
AcDbLayerTableRecord
  2
CURVE
 70
0
 62
7
  6
CONTINUOUS
370
-3
390
F
  0
LAYER
  5
204
100
AcDbSymbolTableRecord
100
AcDbLayerTableRecord
  2
DRAFT
 70
0
 62
7
  6
CONTINUOUS
370
-3
390
F
  0
LAYER
  5
205
100
AcDbSymbolTableRecord
100
AcDbLayerTableRecord
  2
IMPORT_IGES
 70
0
 62
7
  6
CONTINUOUS
370
-3
390
F
  0
LAYER
  5
206
100
AcDbSymbolTableRecord
100
AcDbLayerTableRecord
  2
INTF_1
 70
0
 62
7
  6
CONTINUOUS
370
-3
390
F
  0
LAYER
  5
207
100
AcDbSymbolTableRecord
100
AcDbLayerTableRecord
  2
INTF_5
 70
0
 62
7
  6
CONTINUOUS
370
-3
390
F
  0
LAYER
  5
208
100
AcDbSymbolTableRecord
100
AcDbLayerTableRecord
  2
INTF_6
 70
0
 62
7
  6
CONTINUOUS
370
-3
390
F
  0
LAYER
  5
209
100
AcDbSymbolTableRecord
100
AcDbLayerTableRecord
  2
INTF_YELLOW
 70
0
 62
7
  6
CONTINUOUS
370
-3
390
F
  0
LAYER
  5
20A
100
AcDbSymbolTableRecord
100
AcDbLayerTableRecord
  2
LIVELLO_1
 70
0
 62
7
  6
CONTINUOUS
370
-3
390
F
  0
LAYER
  5
20B
100
AcDbSymbolTableRecord
100
AcDbLayerTableRecord
  2
NOTE
 70
0
 62
7
  6
CONTINUOUS
370
-3
390
F
  0
LAYER
  5
20C
100
AcDbSymbolTableRecord
100
AcDbLayerTableRecord
  2
PIANI
 70
0
 62
7
  6
CONTINUOUS
370
-3
390
F
  0
LAYER
  5
20D
100
AcDbSymbolTableRecord
100
AcDbLayerTableRecord
  2
PIANI_ORIGINE
 70
0
 62
7
  6
CONTINUOUS
370
-3
390
F
  0
LAYER
  5
20E
100
AcDbSymbolTableRecord
100
AcDbLayerTableRecord
  2
PIANI_RIFERIMENTO
 70
0
 62
7
  6
CONTINUOUS
370
-3
390
F
  0
LAYER
  5
20F
100
AcDbSymbolTableRecord
100
AcDbLayerTableRecord
  2
PUNTI
 70
0
 62
7
  6
CONTINUOUS
370
-3
390
F
  0
LAYER
  5
210
100
AcDbSymbolTableRecord
100
AcDbLayerTableRecord
  2
RACCORDO
 70
0
 62
7
  6
CONTINUOUS
370
-3
390
F
  0
LAYER
  5
211
100
AcDbSymbolTableRecord
100
AcDbLayerTableRecord
  2
SIMBOLI
 70
0
 62
7
  6
CONTINUOUS
370
-3
390
F
  0
LAYER
  5
212
100
AcDbSymbolTableRecord
100
AcDbLayerTableRecord
  2
SMUSSO
 70
0
 62
7
  6
CONTINUOUS
370
-3
390
F
  0
LAYER
  5
213
100
AcDbSymbolTableRecord
100
AcDbLayerTableRecord
  2
SUPERFICI
 70
0
 62
7
  6
CONTINUOUS
370
-3
390
F
  0
LAYER
  5
214
100
AcDbSymbolTableRecord
100
AcDbLayerTableRecord
  2
TRASH
 70
0
 62
7
  6
CONTINUOUS
370
-3
390
F
  0
LAYER
  5
215
100
AcDbSymbolTableRecord
100
AcDbLayerTableRecord
  2
WHITE
 70
0
 62
7
  6
CONTINUOUS
370
-3
390
F
  0
LAYER
  5
216
100
AcDbSymbolTableRecord
100
AcDbLayerTableRecord
  2
XSEC_DATUMS
 70
0
 62
7
  6
CONTINUOUS
370
-3
390
F
  0
ENDTAB
  0
TABLE
  2
STYLE
  5
3
100
AcDbSymbolTable
 70
1
  0
STYLE
  5
11
100
AcDbSymbolTableRecord
100
AcDbTextStyleTableRecord
  2
STANDARD
 70
0
 40
0.0
 41
0.8
 50
0.0
 71
0
 42
0.2
  3
txt
  4

  0
STYLE
  5
217
100
AcDbSymbolTableRecord
100
AcDbTextStyleTableRecord
  2
TEXTSTYLE_1
 70
0
 40
0.0
 41
0.8
 50
0.0
 71
0
 42
0.2
  3
gdt
  4

  0
ENDTAB
  0
TABLE
  2
VIEW
  5
6
100
AcDbSymbolTable
 70
0
  0
ENDTAB
  0
TABLE
  2
UCS
  5
7
100
AcDbSymbolTable
 70
0
  0
ENDTAB
  0
TABLE
  2
APPID
  5
9
100
AcDbSymbolTable
 70
1
  0
APPID
  5
218
100
AcDbSymbolTableRecord
100
AcDbRegAppTableRecord
  2
ACAD
 70
0
  0
ENDTAB
  0
TABLE
  2
BLOCK_RECORD
  5
1
100
AcDbSymbolTable
 70
0
  0
BLOCK_RECORD
  5
219
100
AcDbSymbolTableRecord
100
AcDbBlockTableRecord
  2
*Model_Space
  0
BLOCK_RECORD
  5
21A
100
AcDbSymbolTableRecord
100
AcDbBlockTableRecord
  2
*Paper_Space
  0
BLOCK_RECORD
  5
21B
100
AcDbSymbolTableRecord
100
AcDbBlockTableRecord
  2
_FILLED
  0
BLOCK_RECORD
  5
21C
100
AcDbSymbolTableRecord
100
AcDbBlockTableRecord
  2
*D0
  0
BLOCK_RECORD
  5
21D
100
AcDbSymbolTableRecord
100
AcDbBlockTableRecord
  2
*D1
  0
BLOCK_RECORD
  5
21E
100
AcDbSymbolTableRecord
100
AcDbBlockTableRecord
  2
*D2
  0
BLOCK_RECORD
  5
21F
100
AcDbSymbolTableRecord
100
AcDbBlockTableRecord
  2
*D3
  0
ENDTAB
  0
TABLE
  2
DIMSTYLE
  5
A
100
AcDbSymbolTable
 70
1
100
AcDbDimStyleTable
 71
0
  0
DIMSTYLE
105
220
100
AcDbSymbolTableRecord
100
AcDbDimStyleTableRecord
  2
STANDARD
 70
0
  3

  4

 40
1.0
 41
3.0
 42
0.5
 43
0.38
 44
1.5
 45
0.0
 46
0.0
 47
0.01
 48
0.01
140
3.0
141
0.09
142
0.0
143
25.4
144
1.0
145
0.0
146
1.0
147
0.625
 71
1.0
 72
0.0
 73
0
 74
0
 75
0
 76
0
 77
1
 78
8
 79
2
170
0
171
1
172
0
173
0
174
0
175
0
176
0
177
0
178
0
270
2
179
2
271
2
272
2
273
2
274
2
275
0
280
0
281
0
282
0
283
1
284
8
285
0
286
0
287
3
288
0
340
11
278
44
341
21B
342
21B
343
21B
344
21B
  0
DIMSTYLE
105
221
100
AcDbSymbolTableRecord
100
AcDbDimStyleTableRecord
  2
DIMSTYLE_1
 70
0
  3

  4

 40
1.0
 41
3.0
 42
0.5
 43
0.38
 44
1.5
 45
0.0
 46
0.0
 47
0.0
 48
0.0
140
3.0
141
0.09
142
0.0
143
25.4
144
1.0
145
0.0
146
1.0
147
0.75
 71
0.0
 72
0.0
 73
0
 74
0
 75
0
 76
0
 77
1
 78
8
 79
2
170
0
171
1
172
0
173
0
174
0
175
0
176
0
177
0
178
0
270
2
179
2
271
2
272
2
273
2
274
2
275
0
280
0
281
0
282
0
283
1
284
8
285
0
286
0
287
3
288
0
340
11
278
44
341
21B
342
21B
343
21B
344
21B
  0
ENDTAB
  0
ENDSEC
  0
SECTION
  2
BLOCKS
  0
BLOCK
  5
20
100
AcDbEntity
  8
0
100
AcDbBlockBegin
  2
*Model_Space
 70
0
 10
0.0
 20
0.0
 30
0.0
  3
*Model_Space
  1

  0
ENDBLK
  5
21
100
AcDbEntity
  8
0
100
AcDbBlockEnd
  0
BLOCK
  5
1C
100
AcDbEntity
  8
0
100
AcDbBlockBegin
  2
*Paper_Space
 70
0
 10
0.0
 20
0.0
 30
0.0
  3
*Paper_Space
  1

  0
ENDBLK
  5
1D
100
AcDbEntity
  8
0
100
AcDbBlockEnd
  0
BLOCK
  5
222
100
AcDbEntity
  8
0
100
AcDbBlockBegin
  2
_FILLED
 70
64
 10
0.0
 20
0.0
  3
_FILLED
  1

  0
SOLID
  5
223
100
AcDbEntity
  8
0
  6
BYBLOCK
 62
0
100
AcDbTrace
 10
0.0
 20
0.0
 11
-1.0
 21
0.3166666667
 12
-1.0
 22
-0.3166666667
 13
-1.0
 23
-0.3166666667
  0
ENDBLK
  5
224
100
AcDbEntity
  8
0
  6
BYBLOCK
 62
0
100
AcDbBlockEnd
  0
BLOCK
  5
225
100
AcDbEntity
  8
0
100
AcDbBlockBegin
 62
7
  6
CONTINUOUS
  2
*D0
 70
65
 10
0.0
 20
0.0
  3
*D0
  1

  0
LINE
  5
226
100
AcDbEntity
  8
0
100
AcDbLine
 62
7
  6
CONTINUOUS
 10
176.1702385744
 20
105.8167342105
 11
184.8936165232
 21
105.8167342105
  0
LINE
  5
227
100
AcDbEntity
  8
0
100
AcDbLine
 62
7
  6
CONTINUOUS
 10
176.1702385744
 20
120.8167342105
 11
184.8936165232
 21
120.8167342105
  0
LINE
  5
228
100
AcDbEntity
  8
0
100
AcDbLine
 62
7
  6
CONTINUOUS
 10
183.3936165232
 20
105.8167342105
 11
183.3936165232
 21
113.3167342105
  0
LINE
  5
229
100
AcDbEntity
  8
0
100
AcDbLine
 62
7
  6
CONTINUOUS
 10
183.3936165232
 20
120.8167342105
 11
183.3936165232
 21
113.3167342105
  0
INSERT
  5
22A
100
AcDbEntity
  8
0
100
AcDbBlockReference
 62
7
  6
CONTINUOUS
  2
_FILLED
 10
183.3936165232
 20
105.8167342105
 41
3.0
 42
3.0
 43
3.0
 50
270.0
  0
INSERT
  5
22B
100
AcDbEntity
  8
0
100
AcDbBlockReference
 62
7
  6
CONTINUOUS
  2
_FILLED
 10
183.3936165232
 20
120.8167342105
 41
3.0
 42
3.0
 43
3.0
 50
90.0
  0
ENDBLK
  5
22C
100
AcDbEntity
  8
0
  6
BYBLOCK
 62
0
100
AcDbBlockEnd
  0
BLOCK
  5
22D
100
AcDbEntity
  8
0
100
AcDbBlockBegin
 62
7
  6
CONTINUOUS
  2
*D1
 70
65
 10
0.0
 20
0.0
  3
*D1
  1

  0
LINE
  5
22E
100
AcDbEntity
  8
0
100
AcDbLine
 62
7
  6
CONTINUOUS
 10
161.2572074013
 20
120.7297653836
 11
161.2572074013
 21
128.4199850415
  0
LINE
  5
22F
100
AcDbEntity
  8
0
100
AcDbLine
 62
7
  6
CONTINUOUS
 10
176.2572074013
 20
120.7297653836
 11
176.2572074013
 21
128.4199850415
  0
LINE
  5
230
100
AcDbEntity
  8
0
100
AcDbLine
 62
7
  6
CONTINUOUS
 10
161.2572074013
 20
126.9199850415
 11
168.7572074013
 21
126.9199850415
  0
LINE
  5
231
100
AcDbEntity
  8
0
100
AcDbLine
 62
7
  6
CONTINUOUS
 10
176.2572074013
 20
126.9199850415
 11
168.7572074013
 21
126.9199850415
  0
INSERT
  5
232
100
AcDbEntity
  8
0
100
AcDbBlockReference
 62
7
  6
CONTINUOUS
  2
_FILLED
 10
161.2572074013
 20
126.9199850415
 41
3.0
 42
3.0
 43
3.0
 50
180.0
  0
INSERT
  5
233
100
AcDbEntity
  8
0
100
AcDbBlockReference
 62
7
  6
CONTINUOUS
  2
_FILLED
 10
176.2572074013
 20
126.9199850415
 41
3.0
 42
3.0
 43
3.0
  0
ENDBLK
  5
234
100
AcDbEntity
  8
0
  6
BYBLOCK
 62
0
100
AcDbBlockEnd
  0
BLOCK
  5
235
100
AcDbEntity
  8
0
100
AcDbBlockBegin
 62
7
  6
CONTINUOUS
  2
*D2
 70
65
 10
0.0
 20
0.0
  3
*D2
  1

  0
LINE
  5
236
100
AcDbEntity
  8
0
100
AcDbLine
 62
7
  6
CONTINUOUS
 10
137.8007755516
 20
120.7297653836
 11
137.8007755516
 21
128.2922670952
  0
LINE
  5
237
100
AcDbEntity
  8
0
100
AcDbLine
 62
7
  6
CONTINUOUS
 10
131.8007755516
 20
120.5006901991
 11
131.8007755516
 21
128.2922670952
  0
LINE
  5
238
100
AcDbEntity
  8
0
100
AcDbLine
 62
7
  6
CONTINUOUS
 10
137.8007755516
 20
126.7922670952
 11
141.8007755516
 21
126.7922670952
  0
LINE
  5
239
100
AcDbEntity
  8
0
100
AcDbLine
 62
7
  6
CONTINUOUS
 10
141.8007755516
 20
126.7922670952
 11
134.8007755516
 21
126.7922670952
  0
LINE
  5
23A
100
AcDbEntity
  8
0
100
AcDbLine
 62
7
  6
CONTINUOUS
 10
131.8007755516
 20
126.7922670952
 11
127.8007755516
 21
126.7922670952
  0
LINE
  5
23B
100
AcDbEntity
  8
0
100
AcDbLine
 62
7
  6
CONTINUOUS
 10
127.8007755516
 20
126.7922670952
 11
134.8007755516
 21
126.7922670952
  0
INSERT
  5
23C
100
AcDbEntity
  8
0
100
AcDbBlockReference
 62
7
  6
CONTINUOUS
  2
_FILLED
 10
137.8007755516
 20
126.7922670952
 41
3.0
 42
3.0
 43
3.0
 50
180.0
  0
INSERT
  5
23D
100
AcDbEntity
  8
0
100
AcDbBlockReference
 62
7
  6
CONTINUOUS
  2
_FILLED
 10
131.8007755516
 20
126.7922670952
 41
3.0
 42
3.0
 43
3.0
  0
ENDBLK
  5
23E
100
AcDbEntity
  8
0
  6
BYBLOCK
 62
0
100
AcDbBlockEnd
  0
BLOCK
  5
23F
100
AcDbEntity
  8
0
100
AcDbBlockBegin
 62
7
  6
CONTINUOUS
  2
*D3
 70
65
 10
0.0
 20
0.0
  3
*D3
  1

  0
LINE
  5
240
100
AcDbEntity
  8
0
100
AcDbLine
 62
7
  6
CONTINUOUS
 10
131.8007755516
 20
120.5006901991
 11
131.8007755516
 21
136.0154408829
  0
LINE
  5
241
100
AcDbEntity
  8
0
100
AcDbLine
 62
7
  6
CONTINUOUS
 10
140.048047671
 20
116.0275079298
 11
140.048047671
 21
136.0154408829
  0
LINE
  5
242
100
AcDbEntity
  8
0
100
AcDbLine
 62
7
  6
CONTINUOUS
 10
131.8007755516
 20
134.5154408829
 11
135.9244116113
 21
134.5154408829
  0
LINE
  5
243
100
AcDbEntity
  8
0
100
AcDbLine
 62
7
  6
CONTINUOUS
 10
135.9244116113
 20
134.5154408829
 11
121.7293172801
 21
134.5154408829
  0
LINE
  5
244
100
AcDbEntity
  8
0
100
AcDbLine
 62
7
  6
CONTINUOUS
 10
140.048047671
 20
134.5154408829
 11
135.9244116113
 21
134.5154408829
  0
INSERT
  5
245
100
AcDbEntity
  8
0
100
AcDbBlockReference
 62
7
  6
CONTINUOUS
  2
_FILLED
 10
131.8007755516
 20
134.5154408829
 41
3.0
 42
3.0
 43
3.0
 50
180.0
  0
INSERT
  5
246
100
AcDbEntity
  8
0
100
AcDbBlockReference
 62
7
  6
CONTINUOUS
  2
_FILLED
 10
140.048047671
 20
134.5154408829
 41
3.0
 42
3.0
 43
3.0
  0
ENDBLK
  5
247
100
AcDbEntity
  8
0
  6
BYBLOCK
 62
0
100
AcDbBlockEnd
  0
ENDSEC
  0
SECTION
  2
ENTITIES
  0
DIMENSION
  5
248
100
AcDbEntity
  8
0
100
AcDbDimension
 62
7
  6
CONTINUOUS
  2
*D0
 10
183.3936165232
 20
120.8167342105
 11
183.3936165232
 21
111.388162782
 70
160
 71
2
 72
2
 41
0.9
 42
15.0
  3
DIMSTYLE_1
100
AcDbAlignedDimension
 13
175.6702385744
 23
105.8167342105
 14
175.6702385744
 24
120.8167342105
 50
90.0
100
AcDbRotatedDimension
  0
DIMENSION
  5
249
100
AcDbEntity
  8
0
100
AcDbDimension
 62
7
  6
CONTINUOUS
  2
*D1
 10
176.2572074013
 20
126.9199850415
 11
166.8286359727
 21
126.9199850415
 70
160
 71
2
 72
2
 41
0.9
 42
15.0
  3
DIMSTYLE_1
100
AcDbAlignedDimension
 13
161.2572074013
 23
120.2297653836
 14
176.2572074013
 24
120.2297653836
100
AcDbRotatedDimension
  0
DIMENSION
  5
24A
100
AcDbEntity
  8
0
100
AcDbDimension
 62
7
  6
CONTINUOUS
  2
*D2
 10
131.8007755516
 20
126.7922670952
 11
133.622204123
 21
126.7922670952
 70
160
 71
2
 72
2
 41
0.9
 42
6.0
  3
DIMSTYLE_1
100
AcDbAlignedDimension
 13
137.8007755516
 23
120.2297653836
 14
131.8007755516
 24
120.0006901991
 50
180.0
100
AcDbRotatedDimension
  0
DIMENSION
  5
24B
100
AcDbEntity
  8
0
100
AcDbDimension
 62
7
  6
CONTINUOUS
  2
*D3
 10
140.048047671
 20
134.5154408829
 11
121.7293172801
 21
134.5154408829
 70
160
 71
3
 72
2
 41
0.9
 42
8.2472721194
  3
DIMSTYLE_1
100
AcDbAlignedDimension
 13
131.8007755516
 23
120.0006901991
 14
140.048047671
 24
115.5275079298
100
AcDbRotatedDimension
  0
LWPOLYLINE
  5
24C
100
AcDbEntity
  8
0
100
AcDbPolyline
 62
7
  6
CONTINUOUS
 90
3
 70
0
 43
0.3500000006
 10
166.8286378784
 20
129.8128417969
 10
167.6857758179
 20
130.6699888
 10
167.6857758179
 20
127.6699878845
  0
LINE
  5
24D
100
AcDbEntity
  8
0
100
AcDbLine
 62
7
  6
CONTINUOUS
 10
161.8441762282
 20
83.3167342105
 11
175.6702385744
 21
83.3167342105
  0
LINE
  5
24E
100
AcDbEntity
  8
0
100
AcDbLine
 62
7
  6
CONTINUOUS
 10
161.8708158096
 20
83.384810293
 11
175.643598993
 21
83.384810293
  0
LINE
  5
24F
100
AcDbEntity
  8
0
100
AcDbLine
 62
7
  6
CONTINUOUS
 10
162.0732514127
 20
83.8935364962
 11
175.4411633899
 21
83.8935364962
  0
LINE
  5
250
100
AcDbEntity
  8
0
100
AcDbLine
 62
7
  6
CONTINUOUS
 10
175.9321132347
 20
120.1016064643
 11
175.6804051156
 21
120.0006901991
  0
LINE
  5
251
100
AcDbEntity
  8
0
100
AcDbLine
 62
7
  6
CONTINUOUS
 10
176.1891313189
 20
120.2031258023
 11
175.9321132347
 21
120.1016064643
  0
LINE
  5
252
100
AcDbEntity
  8
0
100
AcDbLine
 62
7
  6
CONTINUOUS
 10
176.2572074013
 20
120.2297653836
 11
176.1891313189
 21
120.2031258023
  0
LINE
  5
253
100
AcDbEntity
  8
0
100
AcDbLine
 62
7
  6
CONTINUOUS
 10
176.2572074013
 20
83.9037030374
 11
176.0173448722
 21
83.9980299164
  0
LWPOLYLINE
  5
254
100
AcDbEntity
  8
0
100
AcDbPolyline
 62
7
  6
CONTINUOUS
 90
3
 70
0
 10
176.0173448722
 20
83.9980299164
 10
175.7638109127
 20
84.0991694318
 10
175.6804051156
 20
84.1327782219
  0
LWPOLYLINE
  5
255
100
AcDbEntity
  8
0
100
AcDbPolyline
 62
7
  6
CONTINUOUS
 90
13
 70
0
 10
166.4115639663
 20
89.5572793283
 10
166.4879825862
 20
89.5686421005
 10
166.559077424
 20
89.5845322199
 10
166.6257598934
 20
89.6052302778
 10
166.6875451254
 20
89.6336226351
 10
166.744967431
 20
89.671338312
 10
166.7974924993
 20
89.7167482884
 10
166.8430325283
 20
89.7678518647
 10
166.8805051049
 20
89.8244848297
 10
166.9109926422
 20
89.8868113946
 10
166.9356545779
 20
89.9533234939
 10
166.9533034055
 20
90.0239694248
 10
166.9651266314
 20
90.09880089
  0
LWPOLYLINE
  5
256
100
AcDbEntity
  8
0
100
AcDbPolyline
 62
7
  6
CONTINUOUS
 90
10
 70
0
 10
169.183307436
 20
114.8639506947
 10
169.2315361279
 20
114.8810132584
 10
169.2798224245
 20
114.8943555496
 10
169.328166326
 20
114.9039775685
 10
169.3767243573
 20
114.909814683
 10
169.4253399933
 20
114.9119315251
 10
169.473543659
 20
114.910521991
 10
169.5211788292
 20
114.9056507128
 10
169.5684020289
 20
114.8972530585
 10
169.6152132583
 20
114.885329028
  0
LWPOLYLINE
  5
257
100
AcDbEntity
  8
0
100
AcDbPolyline
 62
7
  6
CONTINUOUS
 90
10
 70
0
 10
171.1168118311
 20
114.8732287503
 10
171.1542923821
 20
114.8857117091
 10
171.1921512622
 20
114.895652237
 10
171.2303884713
 20
114.9030503341
 10
171.2688877783
 20
114.9079179535
 10
171.3077654144
 20
114.910243142
 10
171.3473700731
 20
114.9099900407
 10
171.3878179854
 20
114.9071466967
 10
171.4289929202
 20
114.9017250628
 10
171.4708948776
 20
114.8937251392
  0
LINE
  5
258
100
AcDbEntity
  8
0
100
AcDbLine
 62
7
  6
CONTINUOUS
 10
170.9973604013
 20
90.6669802105
 11
172.5821084013
 21
90.6824672105
  0
LINE
  5
259
100
AcDbEntity
  8
0
100
AcDbLine
 62
7
  6
CONTINUOUS
 10
168.3907204013
 20
90.6669802105
 11
169.9754334013
 21
90.6824672105
  0
LINE
  5
25A
100
AcDbEntity
  8
0
100
AcDbLine
 62
7
  6
CONTINUOUS
 10
169.9587124017
 20
91.0368682091
 11
168.3907204013
 21
91.0390552105
  0
LINE
  5
25B
100
AcDbEntity
  8
0
100
AcDbLine
 62
7
  6
CONTINUOUS
 10
172.5653514013
 20
91.0368682105
 11
170.9973604013
 21
91.0390552105
  0
LWPOLYLINE
  5
25C
100
AcDbEntity
  8
0
100
AcDbPolyline
 62
7
  6
CONTINUOUS
 90
6
 70
0
 10
165.8671101051
 20
92.1343227593
 10
165.8559379585
 20
92.1327781528
 10
165.8501357103
 20
92.1320631468
 10
165.8441491424
 20
92.131366754
 10
165.8379656781
 20
92.1306962284
 10
165.8250472728
 20
92.1293494319
  0
LWPOLYLINE
  5
25D
100
AcDbEntity
  8
0
100
AcDbPolyline
 62
7
  6
CONTINUOUS
 90
50
 70
0
 10
165.811394478
 20
92.1278474886
 10
165.804299868
 20
92.1269453635
 10
165.7970307893
 20
92.12589723
 10
165.7895849167
 20
92.1247194289
 10
165.7819613181
 20
92.1233742861
 10
165.7741635634
 20
92.1218545439
 10
165.7661880828
 20
92.1201674601
 10
165.7580232346
 20
92.118297134
 10
165.7496688721
 20
92.1162529157
 10
165.741125142
 20
92.1140254552
 10
165.7323808436
 20
92.1115708014
 10
165.7234337884
 20
92.108891403
 10
165.7142861649
 20
92.1059848113
 10
165.7049333379
 20
92.1027997288
 10
165.6953728795
 20
92.0993371666
 10
165.6856072175
 20
92.0955961135
 10
165.6756390009
 20
92.0915222386
 10
165.6654651474
 20
92.0871194786
 10
165.6550887393
 20
92.0823838968
 10
165.6445216719
 20
92.0772493514
 10
165.6337590544
 20
92.0717185766
 10
165.6228057778
 20
92.0657888383
 10
165.6116884103
 20
92.0593857915
 10
165.6004019087
 20
92.0525132252
 10
165.5889513162
 20
92.0451673505
 10
165.5773783318
 20
92.0372624561
 10
165.5656782168
 20
92.0288010734
 10
165.5538557098
 20
92.019780671
 10
165.5419667253
 20
92.0101079429
 10
165.5299992556
 20
91.9997881033
 10
165.5179653083
 20
91.988815938
 10
165.5059568214
 20
91.9770824985
 10
165.4939615004
 20
91.9645913413
 10
165.4819916397
 20
91.95133891
 10
165.4701760604
 20
91.9372055862
 10
165.4584980024
 20
91.9221872173
 10
165.4469742259
 20
91.906287956
 10
165.4357838323
 20
91.8894006409
 10
165.424905414
 20
91.8715152446
 10
165.4143603787
 20
91.8526417947
 10
165.4043920514
 20
91.8327032127
 10
165.3949872881
 20
91.8116760474
 10
165.3861592328
 20
91.78958375
 10
165.3781906435
 20
91.7664195966
 10
165.3713245803
 20
91.742122775
 10
165.3653179831
 20
91.7167540973
 10
165.3597244288
 20
91.6904892756
 10
165.3545265576
 20
91.6633767004
 10
165.3497417292
 20
91.6353679811
 10
165.3400781603
 20
91.5767844232
  0
LINE
  5
25E
100
AcDbEntity
  8
0
100
AcDbLine
 62
7
  6
CONTINUOUS
 10
165.8250472728
 20
92.1293494319
 11
165.811394478
 21
92.1278474886
  0
LINE
  5
25F
100
AcDbEntity
  8
0
100
AcDbLine
 62
7
  6
CONTINUOUS
 10
168.9137844013
 20
92.0873342105
 11
169.9587124013
 21
92.0873342105
  0
LINE
  5
260
100
AcDbEntity
  8
0
100
AcDbLine
 62
7
  6
CONTINUOUS
 10
171.5204594013
 20
92.0873342105
 11
172.5653514013
 21
92.0873342105
  0
LINE
  5
261
100
AcDbEntity
  8
0
100
AcDbLine
 62
7
  6
CONTINUOUS
 10
172.5653514013
 20
92.4550702105
 11
171.5204594013
 21
92.4550702105
  0
LINE
  5
262
100
AcDbEntity
  8
0
100
AcDbLine
 62
7
  6
CONTINUOUS
 10
169.9587124013
 20
92.4550702105
 11
168.9137844013
 21
92.4550702105
  0
LINE
  5
263
100
AcDbEntity
  8
0
100
AcDbLine
 62
7
  6
CONTINUOUS
 10
166.4587025065
 20
92.5021086207
 11
166.4194694013
 21
92.5058862105
  0
LINE
  5
264
100
AcDbEntity
  8
0
100
AcDbLine
 62
7
  6
CONTINUOUS
 10
166.4237024013
 20
92.1375702105
 11
166.5071344013
 21
92.1264222105
  0
LINE
  5
265
100
AcDbEntity
  8
0
100
AcDbLine
 62
7
  6
CONTINUOUS
 10
166.4128484013
 20
92.1434762105
 11
166.4237024013
 21
92.1375702105
  0
LWPOLYLINE
  5
266
100
AcDbEntity
  8
0
100
AcDbPolyline
 62
7
  6
CONTINUOUS
 90
10
 70
0
 10
171.4876518216
 20
111.7534384733
 10
171.439357363
 20
111.7364687909
 10
171.3910141307
 20
111.7232218824
 10
171.3426221247
 20
111.7136977479
 10
171.2940264316
 20
111.7079613439
 10
171.2453819647
 20
111.7059477139
 10
171.197153464
 20
111.7074619877
 10
171.1494958429
 20
111.7124392087
 10
171.102254188
 20
111.7209443336
 10
171.0554284993
 20
111.7329773622
  0
LWPOLYLINE
  5
267
100
AcDbEntity
  8
0
100
AcDbPolyline
 62
7
  6
CONTINUOUS
 90
10
 70
0
 10
169.5541121488
 20
111.7447601399
 10
169.5166610459
 20
111.7323061063
 10
169.4788355404
 20
111.7223719809
 10
169.4406356323
 20
111.7149577637
 10
169.402192604
 20
111.7100533252
 10
169.363375173
 20
111.7076687949
 10
169.3237894921
 20
111.7078345613
 10
169.2833042787
 20
111.7105607538
 10
169.2420508154
 20
111.715837243
 10
169.2000291022
 20
111.7236640288
  0
LINE
  5
268
100
AcDbEntity
  8
0
100
AcDbLine
 62
7
  6
CONTINUOUS
 10
165.8171670384
 20
92.5015421397
 11
165.8348247689
 21
92.5055128549
  0
LWPOLYLINE
  5
269
100
AcDbEntity
  8
0
100
AcDbPolyline
 62
7
  6
CONTINUOUS
 90
44
 70
0
 10
165.8348247689
 20
92.5055128549
 10
165.8433160591
 20
92.5070908594
 10
165.851672735
 20
92.5082465627
 10
165.859834
 20
92.5090105715
 10
165.8677063828
 20
92.5091143278
 10
165.875450182
 20
92.5087083995
 10
165.882905099
 20
92.5076422188
 10
165.8894967666
 20
92.5051955241
 10
165.8949293514
 20
92.5008684524
 10
165.8994986867
 20
92.4951608667
 10
165.9035179053
 20
92.4888520937
 10
165.9070086267
 20
92.4821206776
 10
165.9099492314
 20
92.4747880743
 10
165.9125879931
 20
92.4670979786
 10
165.9149766995
 20
92.4591174751
 10
165.9170635628
 20
92.4507794792
 10
165.918941494
 20
92.4421264324
 10
165.920625829
 20
92.4331865997
 10
165.9221012318
 20
92.4239317161
 10
165.9234146052
 20
92.4143194272
 10
165.9245784793
 20
92.4042760967
 10
165.9255803241
 20
92.3938753609
 10
165.9264294523
 20
92.3832957746
 10
165.9271212661
 20
92.3725250106
 10
165.9276603633
 20
92.361575396
 10
165.9280698503
 20
92.3506624673
 10
165.9283490399
 20
92.3398201243
 10
165.9284986193
 20
92.3290144671
 10
165.9285437571
 20
92.318359333
 10
165.9284945314
 20
92.3078699525
 10
165.928340864
 20
92.2975310951
 10
165.9280776892
 20
92.2874109075
 10
165.9277045896
 20
92.2775097715
 10
165.9272219824
 20
92.2678273052
 10
165.9266260535
 20
92.2584305092
 10
165.9259148284
 20
92.2493292637
 10
165.9250902815
 20
92.2405136885
 10
165.9241545218
 20
92.2320211433
 10
165.9231104169
 20
92.2238685742
 10
165.9219550993
 20
92.2160390351
 10
165.9206820745
 20
92.2085190471
 10
165.9192953622
 20
92.2013109671
 10
165.9177909428
 20
92.1944124383
 10
165.9161502628
 20
92.1878029104
  0
LINE
  5
26A
100
AcDbEntity
  8
0
100
AcDbLine
 62
7
  6
CONTINUOUS
 10
161.2572074013
 20
120.2297653836
 11
161.2572074013
 21
106.4037030374
  0
LINE
  5
26B
100
AcDbEntity
  8
0
100
AcDbLine
 62
7
  6
CONTINUOUS
 10
161.2572074013
 20
97.7297653836
 11
161.2572074013
 21
83.9037030374
  0
LINE
  5
26C
100
AcDbEntity
  8
0
100
AcDbLine
 62
7
  6
CONTINUOUS
 10
161.3252834838
 20
120.2031258023
 11
161.3252834838
 21
106.4303426188
  0
LINE
  5
26D
100
AcDbEntity
  8
0
100
AcDbLine
 62
7
  6
CONTINUOUS
 10
161.3252834838
 20
97.7031258023
 11
161.3252834838
 21
83.9303426188
  0
LINE
  5
26E
100
AcDbEntity
  8
0
100
AcDbLine
 62
7
  6
CONTINUOUS
 10
161.834009687
 20
120.0006901991
 11
161.834009687
 21
106.6327782219
  0
LINE
  5
26F
100
AcDbEntity
  8
0
100
AcDbLine
 62
7
  6
CONTINUOUS
 10
161.834009687
 20
97.5006901991
 11
161.834009687
 21
84.1327782219
  0
LINE
  5
270
100
AcDbEntity
  8
0
100
AcDbLine
 62
7
  6
CONTINUOUS
 10
161.8441762282
 20
105.8167342105
 11
161.9385451116
 21
106.0567022937
  0
LWPOLYLINE
  5
271
100
AcDbEntity
  8
0
100
AcDbPolyline
 62
7
  6
CONTINUOUS
 90
3
 70
0
 10
161.9385451116
 20
106.0567022937
 10
162.0396688753
 20
106.3101966704
 10
162.0732514127
 20
106.3935364962
  0
LINE
  5
272
100
AcDbEntity
  8
0
100
AcDbLine
 62
7
  6
CONTINUOUS
 10
161.5822752232
 20
106.531851473
 11
161.834009687
 21
106.6327782219
  0
LINE
  5
273
100
AcDbEntity
  8
0
100
AcDbLine
 62
7
  6
CONTINUOUS
 10
161.3252834838
 20
106.4303426188
 11
161.5822752232
 21
106.531851473
  0
LINE
  5
274
100
AcDbEntity
  8
0
100
AcDbLine
 62
7
  6
CONTINUOUS
 10
161.2572074013
 20
106.4037030374
 11
161.3252834838
 21
106.4303426188
  0
LINE
  5
275
100
AcDbEntity
  8
0
100
AcDbLine
 62
7
  6
CONTINUOUS
 10
161.2572074013
 20
97.7297653836
 11
161.4970037865
 21
97.6354648259
  0
LWPOLYLINE
  5
276
100
AcDbEntity
  8
0
100
AcDbPolyline
 62
7
  6
CONTINUOUS
 90
3
 70
0
 10
161.4970037865
 20
97.6354648259
 10
161.75056255
 20
97.5343154401
 10
161.834009687
 20
97.5006901991
  0
LINE
  5
277
100
AcDbEntity
  8
0
100
AcDbLine
 62
7
  6
CONTINUOUS
 10
166.3975324013
 20
92.1684312105
 11
166.4128484013
 21
92.1434762105
  0
LINE
  5
278
100
AcDbEntity
  8
0
100
AcDbLine
 62
7
  6
CONTINUOUS
 10
161.9723229137
 20
97.9916707866
 11
162.0732514127
 21
97.7399319248
  0
LINE
  5
279
100
AcDbEntity
  8
0
100
AcDbLine
 62
7
  6
CONTINUOUS
 10
161.8708158096
 20
98.2486581281
 11
161.9723229137
 21
97.9916707866
  0
LINE
  5
27A
100
AcDbEntity
  8
0
100
AcDbLine
 62
7
  6
CONTINUOUS
 10
161.8441762282
 20
98.3167342105
 11
161.8708158096
 21
98.2486581281
  0
LWPOLYLINE
  5
27B
100
AcDbEntity
  8
0
100
AcDbPolyline
 62
7
  6
CONTINUOUS
 90
10
 70
0
 10
166.4854755966
 20
114.1669323616
 10
166.4533105625
 20
113.9795143275
 10
166.4291747036
 20
113.7904708893
 10
166.4130680199
 20
113.599802047
 10
166.4049861595
 20
113.4064188739
 10
166.4049334742
 20
113.2114102967
 10
166.4129230197
 20
113.0180430955
 10
166.4289591479
 20
112.8274061972
 10
166.4530375068
 20
112.6384106749
 10
166.4851580966
 20
112.4510565287
  0
LINE
  5
27C
100
AcDbEntity
  8
0
100
AcDbLine
 62
7
  6
CONTINUOUS
 10
175.4411633899
 20
97.7399319248
 11
162.0732514127
 21
97.7399319248
  0
LINE
  5
27D
100
AcDbEntity
  8
0
100
AcDbLine
 62
7
  6
CONTINUOUS
 10
166.3843924013
 20
92.2227392105
 11
166.3975324013
 21
92.1684312105
  0
LWPOLYLINE
  5
27E
100
AcDbEntity
  8
0
100
AcDbPolyline
 62
7
  6
CONTINUOUS
 90
20
 70
0
 10
165.3357804371
 20
90.137856439
 10
165.3468839124
 20
90.0639426564
 10
165.362562917
 20
89.9928508645
 10
165.3829423983
 20
89.9253737378
 10
165.4078974089
 20
89.8607186017
 10
165.4402167871
 20
89.8011938797
 10
165.4815936628
 20
89.7468333014
 10
165.530334906
 20
89.6976031373
 10
165.5841499655
 20
89.6557106226
 10
165.6426573169
 20
89.622364338
 10
165.7062384846
 20
89.5963557028
 10
165.77374749
 20
89.5762662101
 10
165.8451832821
 20
89.5627438102
 10
165.920546912
 20
89.5551405528
 10
165.9986955544
 20
89.55009408
 10
166.0805743578
 20
89.5464147505
 10
166.1652381737
 20
89.5452922056
 10
166.2487087316
 20
89.5469330115
 10
166.330732978
 20
89.5507244945
 10
166.4115639663
 20
89.5572793283
  0
LINE
  5
27F
100
AcDbEntity
  8
0
100
AcDbLine
 62
7
  6
CONTINUOUS
 10
175.643598993
 20
98.2486581281
 11
161.8708158096
 21
98.2486581281
  0
LINE
  5
280
100
AcDbEntity
  8
0
100
AcDbLine
 62
7
  6
CONTINUOUS
 10
175.6702385744
 20
98.3167342105
 11
161.8441762282
 21
98.3167342105
  0
LWPOLYLINE
  5
281
100
AcDbEntity
  8
0
100
AcDbPolyline
 62
7
  6
CONTINUOUS
 90
30
 70
0
 10
165.3400781603
 20
91.5767844232
 10
165.3351994197
 20
91.5462095845
 10
165.3303950703
 20
91.5147076205
 10
165.3256564412
 20
91.4822771746
 10
165.3209922033
 20
91.4489196034
 10
165.3164840609
 20
91.4145774539
 10
165.312136096
 20
91.3792487377
 10
165.3079442267
 20
91.3429354432
 10
165.3039779116
 20
91.3055860835
 10
165.3002353542
 20
91.2672283145
 10
165.2967183511
 20
91.2278344803
 10
165.2935017512
 20
91.1872701261
 10
165.2905768387
 20
91.1455483005
 10
165.2879523294
 20
91.1026559549
 10
165.2857292192
 20
91.0584194887
 10
165.2839091002
 20
91.0128403877
 10
165.2824903802
 20
90.9659171662
 10
165.2815692785
 20
90.9174717666
 10
165.2811307537
 20
90.8674780976
 10
165.281189847
 20
90.8159622505
 10
165.281887902
 20
90.7628244424
 10
165.2831778021
 20
90.7080149785
 10
165.2851066638
 20
90.6515835536
 10
165.2879571797
 20
90.5935794687
 10
165.2917825285
 20
90.5341199698
 10
165.2965295316
 20
90.4730878108
 10
165.3023213457
 20
90.4101805545
 10
165.3090766771
 20
90.3452938417
 10
165.3168768195
 20
90.2785320316
 10
165.3357804371
 20
90.137856439
  0
LWPOLYLINE
  5
282
100
AcDbEntity
  8
0
100
AcDbPolyline
 62
7
  6
CONTINUOUS
 90
10
 70
0
 10
168.0664835756
 20
112.4510565287
 10
168.0984737773
 20
112.63841043
 10
168.1224797411
 20
112.8273969653
 10
168.1385014671
 20
113.0180161346
 10
168.1465449461
 20
113.211345127
 10
168.1466041872
 20
113.4063067533
 10
168.1386612179
 20
113.5996694467
 10
168.1227100475
 20
113.790356018
 10
168.0987566667
 20
113.9794436563
 10
168.0668010756
 20
114.1669323616
  0
LINE
  5
283
100
AcDbEntity
  8
0
100
AcDbLine
 62
7
  6
CONTINUOUS
 10
168.0207984013
 20
91.5620832105
 11
168.0341334013
 21
89.2704742105
  0
LINE
  5
284
100
AcDbEntity
  8
0
100
AcDbLine
 62
7
  6
CONTINUOUS
 10
168.3907204013
 20
91.0390552105
 11
168.3885334013
 21
91.5620832105
  0
LINE
  5
285
100
AcDbEntity
  8
0
100
AcDbLine
 62
7
  6
CONTINUOUS
 10
168.3885334013
 20
89.2871962105
 11
168.3907204013
 21
90.6669802105
  0
LWPOLYLINE
  5
286
100
AcDbEntity
  8
0
100
AcDbPolyline
 62
7
  6
CONTINUOUS
 90
16
 70
0
 10
166.9651266314
 20
90.09880089
 10
166.9871434557
 20
90.2565368203
 10
166.997337054
 20
90.3394412853
 10
167.0061050428
 20
90.4250995625
 10
167.013500917
 20
90.5132687644
 10
167.0194711815
 20
90.6041917784
 10
167.0235333867
 20
90.6985185031
 10
167.0257820514
 20
90.79645826
 10
167.0261226566
 20
90.8978017275
 10
167.0237891954
 20
91.0025708389
 10
167.0188036244
 20
91.1106347267
 10
167.0111439869
 20
91.2221242583
 10
166.9999784057
 20
91.3374539699
 10
166.9850295885
 20
91.4567620402
 10
166.9665748275
 20
91.5799102905
 10
166.9446141229
 20
91.7068987208
  0
LWPOLYLINE
  5
287
100
AcDbEntity
  8
0
100
AcDbPolyline
 62
7
  6
CONTINUOUS
 90
52
 70
0
 10
165.0128403774
 20
91.8231735265
 10
165.0238271612
 20
91.8650431589
 10
165.0367663028
 20
91.9048171374
 10
165.0511745521
 20
91.9426147379
 10
165.0665578708
 20
91.9785379596
 10
165.0828899187
 20
92.012557656
 10
165.1001970361
 20
92.0447029737
 10
165.1180642053
 20
92.0751633519
 10
165.1364542152
 20
92.1039350997
 10
165.155404277
 20
92.1310219081
 10
165.1746110065
 20
92.1566242893
 10
165.1940449846
 20
92.1807433909
 10
165.2137356305
 20
92.2033780652
 10
165.2334678173
 20
92.2247253817
 10
165.2532191971
 20
92.2447897922
 10
165.2730121178
 20
92.2635668448
 10
165.2926984968
 20
92.2812402531
 10
165.3122622992
 20
92.2978163693
 10
165.3317195597
 20
92.313288841
 10
165.3509703002
 20
92.3278223254
 10
165.3700027993
 20
92.3414233217
 10
165.3888287783
 20
92.3540853306
 10
165.4073834227
 20
92.3659535114
 10
165.4256579403
 20
92.3770339327
 10
165.4436611235
 20
92.3873205259
 10
165.4613545347
 20
92.3969402442
 10
165.4787320024
 20
92.4058990855
 10
165.4957996983
 20
92.4141910519
 10
165.5125376997
 20
92.4219251029
 10
165.5289417362
 20
92.4291059199
 10
165.5450160783
 20
92.4357288214
 10
165.5607536145
 20
92.4418887232
 10
165.5761517945
 20
92.4475920402
 10
165.5912131686
 20
92.4528323576
 10
165.6059382755
 20
92.4576853462
 10
165.6203240886
 20
92.4621523923
 10
165.6343736345
 20
92.4662321097
 10
165.648096532
 20
92.4699960107
 10
165.6614908435
 20
92.4734444307
 10
165.6745585066
 20
92.4765770344
 10
165.6873149525
 20
92.4794643283
 10
165.699764027
 20
92.4821345508
 10
165.7119018843
 20
92.4845594636
 10
165.7237324189
 20
92.4867248581
 10
165.7352499132
 20
92.4885714561
 10
165.7464600847
 20
92.4901585358
 10
165.7573839805
 20
92.4916497242
 10
165.7680208618
 20
92.4930020915
 10
165.7783714674
 20
92.4942585674
 10
165.7884590614
 20
92.4957115686
 10
165.7982985043
 20
92.4975345145
 10
165.8171670384
 20
92.5015421397
  0
LWPOLYLINE
  5
288
100
AcDbEntity
  8
0
100
AcDbPolyline
 62
7
  6
CONTINUOUS
 90
15
 70
0
 10
165.9161502628
 20
92.1878029104
 10
165.9143860658
 20
92.1814816758
 10
165.9124856083
 20
92.1754494423
 10
165.9103921057
 20
92.1696877826
 10
165.9081302471
 20
92.1641633767
 10
165.9056753436
 20
92.1589095448
 10
165.9028965437
 20
92.1540078201
 10
165.8998042212
 20
92.1493332479
 10
165.8963880024
 20
92.145010783
 10
165.8924859151
 20
92.141496823
 10
165.8879311564
 20
92.1391195322
 10
165.8828905292
 20
92.1375507463
 10
165.8777024698
 20
92.1362623692
 10
165.8724800036
 20
92.1351523598
 10
165.8671101051
 20
92.1343227593
  0
LINE
  5
289
100
AcDbEntity
  8
0
100
AcDbLine
 62
7
  6
CONTINUOUS
 10
175.6702385744
 20
120.8167342105
 11
175.5758713571
 21
120.5767703141
  0
LWPOLYLINE
  5
28A
100
AcDbEntity
  8
0
100
AcDbPolyline
 62
7
  6
CONTINUOUS
 90
3
 70
0
 10
175.5758713571
 20
120.5767703141
 10
175.4747469686
 20
120.3232743673
 10
175.4411633899
 20
120.2399319248
  0
LINE
  5
28B
100
AcDbEntity
  8
0
100
AcDbLine
 62
7
  6
CONTINUOUS
 10
175.5420998693
 20
83.6417775804
 11
175.4411633899
 21
83.8935364962
  0
LINE
  5
28C
100
AcDbEntity
  8
0
100
AcDbLine
 62
7
  6
CONTINUOUS
 10
175.643598993
 20
83.384810293
 11
175.5420998693
 21
83.6417775804
  0
LINE
  5
28D
100
AcDbEntity
  8
0
100
AcDbLine
 62
7
  6
CONTINUOUS
 10
175.6702385744
 20
83.3167342105
 11
175.643598993
 21
83.384810293
  0
LWPOLYLINE
  5
28E
100
AcDbEntity
  8
0
100
AcDbPolyline
 62
7
  6
CONTINUOUS
 90
10
 70
0
 10
166.12394893
 20
112.380994862
 10
166.0892692599
 20
112.5828366037
 10
166.0632453903
 20
112.7866368035
 10
166.0458773212
 20
112.9923954614
 10
166.0371462298
 20
113.2012872442
 10
166.037070939
 20
113.4121374851
 10
166.0457079168
 20
113.6214221839
 10
166.0630759859
 20
113.827966674
 10
166.0891563236
 20
114.0329456221
 10
166.12394893
 20
114.2363590282
  0
LINE
  5
28F
100
AcDbEntity
  8
0
100
AcDbLine
 62
7
  6
CONTINUOUS
 10
169.183307436
 20
114.8639506947
 11
169.2000291022
 21
111.7236640288
  0
LINE
  5
290
100
AcDbEntity
  8
0
100
AcDbLine
 62
7
  6
CONTINUOUS
 10
169.5541121488
 20
111.7447601399
 11
169.5522777044
 21
114.2912512504
  0
LINE
  5
291
100
AcDbEntity
  8
0
100
AcDbLine
 62
7
  6
CONTINUOUS
 10
161.8441762282
 20
83.3167342105
 11
161.9385451116
 21
83.5567022937
  0
LWPOLYLINE
  5
292
100
AcDbEntity
  8
0
100
AcDbPolyline
 62
7
  6
CONTINUOUS
 90
3
 70
0
 10
161.9385451116
 20
83.5567022937
 10
162.0396688753
 20
83.8101966704
 10
162.0732514127
 20
83.8935364962
  0
LINE
  5
293
100
AcDbEntity
  8
0
100
AcDbLine
 62
7
  6
CONTINUOUS
 10
161.9723229137
 20
120.4916707866
 11
162.0732514127
 21
120.2399319248
  0
LINE
  5
294
100
AcDbEntity
  8
0
100
AcDbLine
 62
7
  6
CONTINUOUS
 10
161.8708158096
 20
120.7486581281
 11
161.9723229137
 21
120.4916707866
  0
LINE
  5
295
100
AcDbEntity
  8
0
100
AcDbLine
 62
7
  6
CONTINUOUS
 10
161.8441762282
 20
120.8167342105
 11
161.8708158096
 21
120.7486581281
  0
LINE
  5
296
100
AcDbEntity
  8
0
100
AcDbLine
 62
7
  6
CONTINUOUS
 10
170.6274734013
 20
91.5620832105
 11
170.6408084013
 21
89.2704742105
  0
LINE
  5
297
100
AcDbEntity
  8
0
100
AcDbLine
 62
7
  6
CONTINUOUS
 10
171.4876518216
 20
111.7534384733
 11
171.4708948776
 21
114.8937251392
  0
LINE
  5
298
100
AcDbEntity
  8
0
100
AcDbLine
 62
7
  6
CONTINUOUS
 10
170.9973604013
 20
91.0390552105
 11
170.9952084013
 21
91.5620832105
  0
LINE
  5
299
100
AcDbEntity
  8
0
100
AcDbLine
 62
7
  6
CONTINUOUS
 10
171.1168118311
 20
114.8732287503
 11
171.1183640533
 21
112.3264201398
  0
LINE
  5
29A
100
AcDbEntity
  8
0
100
AcDbLine
 62
7
  6
CONTINUOUS
 10
170.9952084013
 20
89.2871962105
 11
170.9973604013
 21
90.6669802105
  0
LWPOLYLINE
  5
29B
100
AcDbEntity
  8
0
100
AcDbPolyline
 62
7
  6
CONTINUOUS
 90
57
 70
0
 10
167.3055057804
 20
89.9209612213
 10
167.2794947101
 20
89.8202119812
 10
167.2434936056
 20
89.7252917295
 10
167.1975024669
 20
89.6362004662
 10
167.1398834702
 20
89.5516277293
 10
167.0722744393
 20
89.4728839808
 10
166.9995888452
 20
89.4039006064
 10
166.922357753
 20
89.3461440762
 10
166.8400500976
 20
89.2981479202
 10
166.7559861547
 20
89.2594441135
 10
166.6719894925
 20
89.2315044603
 10
166.5862365429
 20
89.2128571564
 10
166.4965768767
 20
89.1986187641
 10
166.4022162061
 20
89.1873334168
 10
166.303948819
 20
89.180456981
 10
166.2020071506
 20
89.1774736191
 10
166.0947387706
 20
89.1776292703
 10
165.9837961094
 20
89.1816779954
 10
165.874368893
 20
89.191366139
 10
165.7667680527
 20
89.2057882578
 10
165.6606826572
 20
89.225849795
 10
165.5603696381
 20
89.2560134245
 10
165.4666787034
 20
89.2981939438
 10
165.3787601452
 20
89.3504765554
 10
165.2983217715
 20
89.4115795409
 10
165.2251112997
 20
89.4818948473
 10
165.1593810125
 20
89.5610305275
 10
165.1035955655
 20
89.6465290221
 10
165.0598383677
 20
89.7385276019
 10
165.0260260103
 20
89.8368889961
 10
164.9983729219
 20
89.9387438326
 10
164.976812626
 20
90.0455469445
 10
164.9614115991
 20
90.1558434988
 10
164.9485837
 20
90.2623996248
 10
164.937320228
 20
90.3627967001
 10
164.9286298837
 20
90.4594533472
 10
164.9219526278
 20
90.5523915622
 10
164.9173409456
 20
90.6414279019
 10
164.9147423518
 20
90.7267458095
 10
164.9134393512
 20
90.8089176111
 10
164.9132770848
 20
90.8879856487
 10
164.9144104115
 20
90.9639075804
 10
164.9165864128
 20
91.0371287065
 10
164.9198712361
 20
91.1076868184
 10
164.924198734
 20
91.1755441248
 10
164.9291175462
 20
91.2410325516
 10
164.9345037031
 20
91.3041844705
 10
164.9404811744
 20
91.3649675099
 10
164.9469705089
 20
91.4236164809
 10
164.9540259012
 20
91.4801134888
 10
164.9615931566
 20
91.5344764284
 10
164.9694302398
 20
91.5869937953
 10
164.9773752831
 20
91.6377200805
 10
164.9855901541
 20
91.6866007929
 10
164.9943184207
 20
91.7337609548
 10
165.0033227013
 20
91.7793275159
 10
165.0128403774
 20
91.8231735265
  0
LWPOLYLINE
  5
29C
100
AcDbEntity
  8
0
100
AcDbPolyline
 62
7
  6
CONTINUOUS
 90
10
 70
0
 10
168.427692733
 20
114.2363590282
 10
168.4621351726
 20
114.0353782976
 10
168.4880243541
 20
113.8324739098
 10
168.5053602776
 20
113.6276458646
 10
168.5141619223
 20
113.4197419332
 10
168.5144103091
 20
113.2099143445
 10
168.5060484995
 20
113.0016197855
 10
168.4890575143
 20
112.796010485
 10
168.4634563329
 20
112.5919342143
 10
168.4292449552
 20
112.3893909731
  0
LINE
  5
29D
100
AcDbEntity
  8
0
100
AcDbLine
 62
7
  6
CONTINUOUS
 10
161.8441762282
 20
105.8167342105
 11
175.6702385744
 21
105.8167342105
  0
LINE
  5
29E
100
AcDbEntity
  8
0
100
AcDbLine
 62
7
  6
CONTINUOUS
 10
161.8708158096
 20
105.884810293
 11
175.643598993
 21
105.884810293
  0
LINE
  5
29F
100
AcDbEntity
  8
0
100
AcDbLine
 62
7
  6
CONTINUOUS
 10
162.0732514127
 20
106.3935364962
 11
175.4411633899
 21
106.3935364962
  0
LINE
  5
2A0
100
AcDbEntity
  8
0
100
AcDbLine
 62
7
  6
CONTINUOUS
 10
175.9321132347
 20
97.6016064643
 11
175.6804051156
 21
97.5006901991
  0
LINE
  5
2A1
100
AcDbEntity
  8
0
100
AcDbLine
 62
7
  6
CONTINUOUS
 10
176.1891313189
 20
97.7031258023
 11
175.9321132347
 21
97.6016064643
  0
LINE
  5
2A2
100
AcDbEntity
  8
0
100
AcDbLine
 62
7
  6
CONTINUOUS
 10
176.2572074013
 20
97.7297653836
 11
176.1891313189
 21
97.7031258023
  0
LINE
  5
2A3
100
AcDbEntity
  8
0
100
AcDbLine
 62
7
  6
CONTINUOUS
 10
176.2572074013
 20
106.4037030374
 11
176.0173448722
 21
106.4980299164
  0
LWPOLYLINE
  5
2A4
100
AcDbEntity
  8
0
100
AcDbPolyline
 62
7
  6
CONTINUOUS
 90
3
 70
0
 10
176.0173448722
 20
106.4980299164
 10
175.7638109127
 20
106.5991694318
 10
175.6804051156
 20
106.6327782219
  0
LINE
  5
2A5
100
AcDbEntity
  8
0
100
AcDbLine
 62
7
  6
CONTINUOUS
 10
169.5522777044
 20
114.2912512504
 11
171.0554284993
 21
111.7329773622
  0
LINE
  5
2A6
100
AcDbEntity
  8
0
100
AcDbLine
 62
7
  6
CONTINUOUS
 10
175.6804051156
 20
84.1327782219
 11
175.6804051156
 21
97.5006901991
  0
LINE
  5
2A7
100
AcDbEntity
  8
0
100
AcDbLine
 62
7
  6
CONTINUOUS
 10
175.6804051156
 20
106.6327782219
 11
175.6804051156
 21
120.0006901991
  0
LINE
  5
2A8
100
AcDbEntity
  8
0
100
AcDbLine
 62
7
  6
CONTINUOUS
 10
176.1891313189
 20
83.9303426188
 11
176.1891313189
 21
97.7031258023
  0
LINE
  5
2A9
100
AcDbEntity
  8
0
100
AcDbLine
 62
7
  6
CONTINUOUS
 10
176.1891313189
 20
106.4303426188
 11
176.1891313189
 21
120.2031258023
  0
LINE
  5
2AA
100
AcDbEntity
  8
0
100
AcDbLine
 62
7
  6
CONTINUOUS
 10
176.2572074013
 20
83.9037030374
 11
176.2572074013
 21
97.7297653836
  0
LINE
  5
2AB
100
AcDbEntity
  8
0
100
AcDbLine
 62
7
  6
CONTINUOUS
 10
176.2572074013
 20
106.4037030374
 11
176.2572074013
 21
120.2297653836
  0
LINE
  5
2AC
100
AcDbEntity
  8
0
100
AcDbLine
 62
7
  6
CONTINUOUS
 10
175.6702385744
 20
98.3167342105
 11
175.5758713571
 21
98.0767703141
  0
LWPOLYLINE
  5
2AD
100
AcDbEntity
  8
0
100
AcDbPolyline
 62
7
  6
CONTINUOUS
 90
3
 70
0
 10
175.5758713571
 20
98.0767703141
 10
175.4747469686
 20
97.8232743673
 10
175.4411633899
 20
97.7399319248
  0
LINE
  5
2AE
100
AcDbEntity
  8
0
100
AcDbLine
 62
7
  6
CONTINUOUS
 10
171.1183640533
 20
112.3264201398
 11
169.6152132583
 21
114.885329028
  0
LINE
  5
2AF
100
AcDbEntity
  8
0
100
AcDbLine
 62
7
  6
CONTINUOUS
 10
175.5420998693
 20
106.1417775804
 11
175.4411633899
 21
106.3935364962
  0
LINE
  5
2B0
100
AcDbEntity
  8
0
100
AcDbLine
 62
7
  6
CONTINUOUS
 10
175.643598993
 20
105.884810293
 11
175.5420998693
 21
106.1417775804
  0
LINE
  5
2B1
100
AcDbEntity
  8
0
100
AcDbLine
 62
7
  6
CONTINUOUS
 10
175.6702385744
 20
105.8167342105
 11
175.643598993
 21
105.884810293
  0
LWPOLYLINE
  5
2B2
100
AcDbEntity
  8
0
100
AcDbPolyline
 62
7
  6
CONTINUOUS
 90
13
 70
0
 10
167.6289685868
 20
112.0312509732
 10
167.682599691
 20
112.0424360468
 10
167.7337198815
 20
112.0583900039
 10
167.7823291585
 20
112.0791128444
 10
167.8287985806
 20
112.1047795524
 10
167.872757089
 20
112.135215144
 10
167.9130915077
 20
112.169894667
 10
167.9498116004
 20
112.2091982461
 10
167.9829076034
 20
112.2527457568
 10
168.0112370491
 20
112.298871873
 10
168.0344191152
 20
112.3470214861
 10
168.052834624
 20
112.3977497046
 10
168.0664835756
 20
112.4510565287
  0
LWPOLYLINE
  5
2B3
100
AcDbEntity
  8
0
100
AcDbPolyline
 62
7
  6
CONTINUOUS
 90
10
 70
0
 10
167.6305208089
 20
111.6604462511
 10
167.5523475033
 20
111.651303853
 10
167.4738610461
 20
111.6444467391
 10
167.3950614373
 20
111.6398749094
 10
167.3157369919
 20
111.6375879435
 10
167.2360993948
 20
111.6375862618
 10
167.1567837012
 20
111.6398711256
 10
167.0780015962
 20
111.6444429553
 10
166.9995413946
 20
111.6513013305
 10
166.9214030965
 20
111.6604462511
  0
LWPOLYLINE
  5
2B4
100
AcDbEntity
  8
0
100
AcDbPolyline
 62
7
  6
CONTINUOUS
 90
10
 70
0
 10
166.9226378187
 20
112.0312509732
 10
167.0001418168
 20
112.0209436874
 10
167.0780932659
 20
112.0132108549
 10
167.1564921661
 20
112.0080524757
 10
167.2356093859
 20
112.0054653925
 10
167.3151740568
 20
112.0054527626
 10
167.3943735729
 20
112.0080240585
 10
167.4729370656
 20
112.0131824377
 10
167.5511354036
 20
112.0209247426
 10
167.6289685868
 20
112.0312509732
  0
LINE
  5
2B5
100
AcDbEntity
  8
0
100
AcDbLine
 62
7
  6
CONTINUOUS
 10
167.5458541444
 20
114.5973212503
 11
167.6289685868
 21
114.5864556948
  0
LWPOLYLINE
  5
2B6
100
AcDbEntity
  8
0
100
AcDbPolyline
 62
7
  6
CONTINUOUS
 90
58
 70
0
 10
167.0057875409
 20
114.9672087502
 10
167.0099221336
 20
114.9663312331
 10
167.0137190059
 20
114.9646251698
 10
167.0171781577
 20
114.9620905603
 10
167.0202456362
 20
114.958572404
 10
167.0229753943
 20
114.9542257016
 10
167.0255292904
 20
114.9495154548
 10
167.0279597446
 20
114.9444820999
 10
167.0302143368
 20
114.9390852006
 10
167.0322976649
 20
114.933668451
 10
167.0342041894
 20
114.9283607771
 10
167.0359394498
 20
114.9230332529
 10
167.0375246635
 20
114.9176427935
 10
167.0389476812
 20
114.9122265673
 10
167.0402206522
 20
114.906747406
 10
167.0414012418
 20
114.9010507194
 10
167.0424961848
 20
114.8951041887
 10
167.0434987464
 20
114.8889401329
 10
167.0444463872
 20
114.8825009184
 10
167.0453539946
 20
114.8757673364
 10
167.0462066812
 20
114.8687585957
 10
167.0469972458
 20
114.8614746896
 10
167.0477290793
 20
114.8539084298
 10
167.0483987909
 20
114.8460670046
 10
167.0489890063
 20
114.837971972
 10
167.0494973544
 20
114.8296218357
 10
167.0499262063
 20
114.821018092
 10
167.0502653017
 20
114.8121867878
 10
167.0505106036
 20
114.8031060533
 10
167.050666149
 20
114.7937977583
 10
167.0507337875
 20
114.7843535592
 10
167.050718309
 20
114.7747535257
 10
167.0506149236
 20
114.765017588
 10
167.0504111113
 20
114.7552971935
 10
167.0501061357
 20
114.7455886538
 10
167.0497007333
 20
114.7358956572
 10
167.049184593
 20
114.7263807159
 10
167.0485510357
 20
114.7170563207
 10
167.0478067405
 20
114.7079099808
 10
167.0469614343
 20
114.6990667352
 10
167.0460145045
 20
114.6905360477
 10
167.0449665637
 20
114.6823084545
 10
167.0438291765
 20
114.6744806039
 10
167.0426275381
 20
114.6671184452
 10
167.0413364533
 20
114.6601560291
 10
167.0398919018
 20
114.6534921561
 10
167.0382891556
 20
114.6471429238
 10
167.0365329425
 20
114.6410922346
 10
167.0345734253
 20
114.6351905963
 10
167.0324018194
 20
114.6293381283
 10
167.0300269092
 20
114.6236347112
 10
167.0274252118
 20
114.6182304951
 10
167.0246340097
 20
114.612992844
 10
167.0216160202
 20
114.608054394
 10
167.0182359117
 20
114.6039632037
 10
167.0144485738
 20
114.6009019595
 10
167.0102991168
 20
114.598687975
 10
167.0057875409
 20
114.5973212503
  0
LWPOLYLINE
  5
2B7
100
AcDbEntity
  8
0
100
AcDbPolyline
 62
7
  6
CONTINUOUS
 90
58
 70
0
 10
167.5458541444
 20
114.5973212503
 10
167.5413253516
 20
114.5986800651
 10
167.5371539808
 20
114.6008945825
 10
167.5333400319
 20
114.6039648027
 10
167.5299252697
 20
114.6080770695
 10
167.5268679293
 20
114.6130450391
 10
167.5240427171
 20
114.6183096796
 10
167.5214116393
 20
114.6237535631
 10
167.5190126896
 20
114.6294941174
 10
167.5168345553
 20
114.635324594
 10
167.5148917829
 20
114.6411500705
 10
167.5131698259
 20
114.6470654691
 10
167.5116137317
 20
114.6531488085
 10
167.5102310032
 20
114.6593943079
 10
167.5090141375
 20
114.665807748
 10
167.5078856739
 20
114.6724844895
 10
167.5068230092
 20
114.6794564038
 10
167.5058487467
 20
114.6866916194
 10
167.504953235
 20
114.6941898822
 10
167.5041307181
 20
114.7019492721
 10
167.503386952
 20
114.7099717092
 10
167.5027295542
 20
114.7182626997
 10
167.5021594491
 20
114.7268493895
 10
167.5016757123
 20
114.7357046328
 10
167.5012831868
 20
114.7447524988
 10
167.5009848469
 20
114.7540170095
 10
167.5007777183
 20
114.7634741429
 10
167.5006577216
 20
114.7729759015
 10
167.5006200478
 20
114.7825192886
 10
167.5006695059
 20
114.7921073009
 10
167.5008164437
 20
114.8016009322
 10
167.5010626573
 20
114.8109777992
 10
167.5014063507
 20
114.820260285
 10
167.5018524824
 20
114.8293765332
 10
167.5024082694
 20
114.8383363087
 10
167.5030664948
 20
114.8471298464
 10
167.5038104673
 20
114.855655995
 10
167.5046419483
 20
114.8639116873
 10
167.5055591763
 20
114.8718999904
 10
167.506540175
 20
114.8795289541
 10
167.5075704008
 20
114.8867647232
 10
167.5086643972
 20
114.8936411529
 10
167.5098438194
 20
114.9001678586
 10
167.5110973976
 20
114.9062780605
 10
167.5124364015
 20
114.9120385385
 10
167.5139162946
 20
114.9176592472
 10
167.5155487435
 20
114.9231821324
 10
167.5173220816
 20
114.9285652485
 10
167.5192567725
 20
114.9338927124
 10
167.5213543693
 20
114.9392940314
 10
167.523613319
 20
114.9446396983
 10
167.526049426
 20
114.9496253093
 10
167.5286147669
 20
114.9543034793
 10
167.5313572651
 20
114.9586215934
 10
167.5344364945
 20
114.9621174025
 10
167.5379056466
 20
114.9646368235
 10
167.5417115299
 20
114.9663339394
 10
167.5458541444
 20
114.9672087502
  0
LINE
  5
2B8
100
AcDbEntity
  8
0
100
AcDbLine
 62
7
  6
CONTINUOUS
 10
166.9229553187
 20
114.5864556948
 11
167.0057875409
 21
114.5973212503
  0
LINE
  5
2B9
100
AcDbEntity
  8
0
100
AcDbLine
 62
7
  6
CONTINUOUS
 10
167.0057875409
 20
114.9672087502
 11
166.8674633743
 21
114.9504518058
  0
LINE
  5
2BA
100
AcDbEntity
  8
0
100
AcDbLine
 62
7
  6
CONTINUOUS
 10
167.6838617074
 20
114.9504518058
 11
167.5458541444
 21
114.9672087502
  0
LWPOLYLINE
  5
2BB
100
AcDbEntity
  8
0
100
AcDbPolyline
 62
7
  6
CONTINUOUS
 90
8
 70
0
 43
0.3500000006
 10
182.6436159668
 20
113.1024496765
 10
182.6436159668
 20
113.959587616
 10
182.2150469971
 20
114.3881656494
 10
181.3579090576
 20
114.3881656494
 10
180.9293219604
 20
113.959587616
 10
180.9293219604
 20
113.1024496765
 10
179.6436150513
 20
113.1024496765
 10
179.6436150513
 20
114.3881656494
  0
LINE
  5
2BC
100
AcDbEntity
  8
0
100
AcDbLine
 62
7
  6
CONTINUOUS
 10
161.5822752232
 20
84.031851473
 11
161.834009687
 21
84.1327782219
  0
LINE
  5
2BD
100
AcDbEntity
  8
0
100
AcDbLine
 62
7
  6
CONTINUOUS
 10
161.3252834838
 20
83.9303426188
 11
161.5822752232
 21
84.031851473
  0
LINE
  5
2BE
100
AcDbEntity
  8
0
100
AcDbLine
 62
7
  6
CONTINUOUS
 10
161.2572074013
 20
83.9037030374
 11
161.3252834838
 21
83.9303426188
  0
LINE
  5
2BF
100
AcDbEntity
  8
0
100
AcDbLine
 62
7
  6
CONTINUOUS
 10
161.2572074013
 20
120.2297653836
 11
161.4970037865
 21
120.1354648259
  0
LWPOLYLINE
  5
2C0
100
AcDbEntity
  8
0
100
AcDbPolyline
 62
7
  6
CONTINUOUS
 90
3
 70
0
 10
161.4970037865
 20
120.1354648259
 10
161.75056255
 20
120.0343154401
 10
161.834009687
 20
120.0006901991
  0
LWPOLYLINE
  5
2C1
100
AcDbEntity
  8
0
100
AcDbPolyline
 62
7
  6
CONTINUOUS
 90
3
 70
0
 43
0.3500000006
 10
180.5007529907
 20
111.3881647339
 10
179.6436150513
 20
112.2453026733
 10
182.6436159668
 20
112.2453026733
  0
LINE
  5
2C2
100
AcDbEntity
  8
0
100
AcDbLine
 62
7
  6
CONTINUOUS
 10
175.4411633899
 20
120.2399319248
 11
162.0732514127
 21
120.2399319248
  0
LINE
  5
2C3
100
AcDbEntity
  8
0
100
AcDbLine
 62
7
  6
CONTINUOUS
 10
175.643598993
 20
120.7486581281
 11
161.8708158096
 21
120.7486581281
  0
LINE
  5
2C4
100
AcDbEntity
  8
0
100
AcDbLine
 62
7
  6
CONTINUOUS
 10
175.6702385744
 20
120.8167342105
 11
161.8441762282
 21
120.8167342105
  0
LWPOLYLINE
  5
2C5
100
AcDbEntity
  8
0
100
AcDbPolyline
 62
7
  6
CONTINUOUS
 90
8
 70
0
 43
0.3500000006
 10
168.5429137573
 20
127.6699878845
 10
169.4000698242
 20
127.6699878845
 10
169.8286387939
 20
128.0985568542
 10
169.8286387939
 20
128.9557038574
 10
169.4000698242
 20
129.3842728271
 10
168.5429137573
 20
129.3842728271
 10
168.5429137573
 20
130.6699888
 10
169.8286387939
 20
130.6699888
  0
LWPOLYLINE
  5
2C6
100
AcDbEntity
  8
0
100
AcDbPolyline
 62
7
  6
CONTINUOUS
 90
3
 70
0
 43
0.3500000006
 10
124.8007450562
 20
135.5511558838
 10
124.7293138733
 20
135.3368713989
 10
124.5864605713
 20
135.0511466675
  0
LWPOLYLINE
  5
2C7
100
AcDbEntity
  8
0
100
AcDbPolyline
 62
7
  6
CONTINUOUS
 90
10
 70
0
 43
0.3500000006
 10
134.6936330566
 20
130.5422628479
 10
134.0507796021
 20
129.8994093933
 10
133.6222015686
 20
129.0422714539
 10
133.6222015686
 20
127.9708399658
 10
134.0507796021
 20
127.5422709961
 10
134.6936330566
 20
127.5422709961
 10
135.1222020264
 20
127.9708399658
 10
135.1222020264
 20
128.8279779053
 10
134.6936330566
 20
129.2565559387
 10
133.7650639343
 20
129.2565559387
  0
LINE
  5
2C8
100
AcDbEntity
  8
0
100
AcDbLine
 62
7
  6
CONTINUOUS
 10
132.0481284313
 20
120.1016064643
 11
131.8007755516
 21
120.0006901991
  0
LINE
  5
2C9
100
AcDbEntity
  8
0
100
AcDbLine
 62
7
  6
CONTINUOUS
 10
132.3006993992
 20
120.2031258023
 11
132.0481284313
 21
120.1016064643
  0
LINE
  5
2CA
100
AcDbEntity
  8
DRAFT
100
AcDbLine
 62
7
  6
CONTINUOUS
 10
138.4356378487
 20
84.0722774644
 11
137.8007755516
 21
84.0167342105
  0
LINE
  5
2CB
100
AcDbEntity
  8
0
100
AcDbLine
 62
7
  6
CONTINUOUS
 10
136.2007755516
 20
83.9037030374
 11
132.3006993992
 21
83.9303426188
  0
LINE
  5
2CC
100
AcDbEntity
  8
DRAFT
100
AcDbLine
 62
7
  6
CONTINUOUS
 10
137.8007755516
 20
83.9037030374
 11
136.2007755516
 21
83.9146194448
  0
LINE
  5
2CD
100
AcDbEntity
  8
0
100
AcDbLine
 62
7
  6
CONTINUOUS
 10
136.2007755516
 20
83.3167342105
 11
132.3006993992
 21
83.384810293
  0
LINE
  5
2CE
100
AcDbEntity
  8
DRAFT
100
AcDbLine
 62
7
  6
CONTINUOUS
 10
137.8007755516
 20
83.3167342105
 11
136.2007755516
 21
83.3446623144
  0
LINE
  5
2CF
100
AcDbEntity
  8
0
100
AcDbLine
 62
7
  6
CONTINUOUS
 10
132.3006993992
 20
83.9303426188
 11
132.0482930884
 21
84.031795279
  0
LINE
  5
2D0
100
AcDbEntity
  8
0
100
AcDbLine
 62
7
  6
CONTINUOUS
 10
132.0482930884
 20
84.031795279
 11
131.8007755516
 21
84.1327782219
  0
LINE
  5
2D1
100
AcDbEntity
  8
DRAFT
100
AcDbLine
 62
7
  6
CONTINUOUS
 10
138.4356378487
 20
85.0611909566
 11
137.8007755516
 21
85.1167342105
  0
LINE
  5
2D2
100
AcDbEntity
  8
0
100
AcDbLine
 62
7
  6
CONTINUOUS
 10
132.3006993992
 20
120.7486581281
 11
131.8007755516
 21
120.2399319248
  0
LINE
  5
2D3
100
AcDbEntity
  8
0
100
AcDbLine
 62
7
  6
CONTINUOUS
 10
132.3006993992
 20
83.384810293
 11
131.8007755516
 21
83.8935364962
  0
LWPOLYLINE
  5
2D4
100
AcDbEntity
  8
0
100
AcDbPolyline
 62
7
  6
CONTINUOUS
 90
4
 70
0
 43
0.3500000006
 10
121.7293129578
 20
135.6940182495
 10
121.7293129578
 20
136.551156189
 10
122.1578909912
 20
136.9797251587
 10
122.8007444458
 20
136.9797251587
  0
LINE
  5
2D5
100
AcDbEntity
  8
DRAFT
100
AcDbLine
 62
7
  6
CONTINUOUS
 10
137.8007755516
 20
88.5667342105
 11
139.2579552285
 21
88.5921693764
  0
LINE
  5
2D6
100
AcDbEntity
  8
RACCORDO
100
AcDbLine
 62
7
  6
CONTINUOUS
 10
139.2579552285
 20
88.5921693764
 11
140.0480454748
 21
88.6059604529
  0
LINE
  5
2D7
100
AcDbEntity
  8
DRAFT
100
AcDbLine
 62
7
  6
CONTINUOUS
 10
137.8007755516
 20
93.0667342105
 11
139.2579552285
 21
93.0412990447
  0
LINE
  5
2D8
100
AcDbEntity
  8
RACCORDO
100
AcDbLine
 62
7
  6
CONTINUOUS
 10
139.2579552285
 20
93.0412990447
 11
140.0480454748
 21
93.0275079681
  0
LINE
  5
2D9
100
AcDbEntity
  8
DRAFT
100
AcDbLine
 62
7
  6
CONTINUOUS
 10
138.4356378487
 20
96.5722774644
 11
137.8007755516
 21
96.5167342105
  0
LINE
  5
2DA
100
AcDbEntity
  8
0
100
AcDbLine
 62
7
  6
CONTINUOUS
 10
131.8007755516
 20
83.8935364962
 11
131.8007755516
 21
97.7399319248
  0
LINE
  5
2DB
100
AcDbEntity
  8
0
100
AcDbLine
 62
7
  6
CONTINUOUS
 10
131.8007755516
 20
106.3935364962
 11
131.8007755516
 21
120.2399319248
  0
LINE
  5
2DC
100
AcDbEntity
  8
DRAFT
100
AcDbLine
 62
7
  6
CONTINUOUS
 10
137.8007755516
 20
98.3167342105
 11
136.2007755516
 21
98.2888061066
  0
LINE
  5
2DD
100
AcDbEntity
  8
0
100
AcDbLine
 62
7
  6
CONTINUOUS
 10
136.2007755516
 20
98.3167342105
 11
132.3006993992
 21
98.2486581281
  0
LINE
  5
2DE
100
AcDbEntity
  8
DRAFT
100
AcDbLine
 62
7
  6
CONTINUOUS
 10
137.8007755516
 20
97.7297653836
 11
136.2007755516
 21
97.7188489762
  0
LINE
  5
2DF
100
AcDbEntity
  8
0
100
AcDbLine
 62
7
  6
CONTINUOUS
 10
136.2007755516
 20
97.7297653836
 11
132.3006993992
 21
97.7031258023
  0
LINE
  5
2E0
100
AcDbEntity
  8
DRAFT
100
AcDbLine
 62
7
  6
CONTINUOUS
 10
138.4356378487
 20
97.5611909566
 11
137.8007755516
 21
97.6167342105
  0
LINE
  5
2E1
100
AcDbEntity
  8
0
100
AcDbLine
 62
7
  6
CONTINUOUS
 10
132.3006993992
 20
83.384810293
 11
132.3006993992
 21
98.2486581281
  0
LINE
  5
2E2
100
AcDbEntity
  8
0
100
AcDbLine
 62
7
  6
CONTINUOUS
 10
132.3006993992
 20
105.884810293
 11
132.3006993992
 21
120.7486581281
  0
LINE
  5
2E3
100
AcDbEntity
  8
0
100
AcDbLine
 62
7
  6
CONTINUOUS
 10
132.3006993992
 20
98.2486581281
 11
131.8007755516
 21
97.7399319248
  0
LINE
  5
2E4
100
AcDbEntity
  8
0
100
AcDbLine
 62
7
  6
CONTINUOUS
 10
132.3006993992
 20
105.884810293
 11
131.8007755516
 21
106.3935364962
  0
LINE
  5
2E5
100
AcDbEntity
  8
0
100
AcDbLine
 62
7
  6
CONTINUOUS
 10
136.2007755516
 20
83.3167342105
 11
136.2007755516
 21
98.3167342105
  0
LINE
  5
2E6
100
AcDbEntity
  8
0
100
AcDbLine
 62
7
  6
CONTINUOUS
 10
136.2007755516
 20
105.8167342105
 11
136.2007755516
 21
120.8167342105
  0
LINE
  5
2E7
100
AcDbEntity
  8
DRAFT
100
AcDbLine
 62
7
  6
CONTINUOUS
 10
137.8007755516
 20
83.3167342105
 11
137.8007755516
 21
98.3167342105
  0
LINE
  5
2E8
100
AcDbEntity
  8
DRAFT
100
AcDbLine
 62
7
  6
CONTINUOUS
 10
137.8007755516
 20
105.8167342105
 11
137.8007755516
 21
120.8167342105
  0
LINE
  5
2E9
100
AcDbEntity
  8
RACCORDO
100
AcDbLine
 62
250
  6
CONTINUOUS
 10
138.4356378487
 20
120.0611909566
 11
138.4356378487
 21
119.0722774644
  0
LINE
  5
2EA
100
AcDbEntity
  8
RACCORDO
100
AcDbLine
 62
250
  6
CONTINUOUS
 10
138.4356378487
 20
107.5611909566
 11
138.4356378487
 21
106.5722774644
  0
LINE
  5
2EB
100
AcDbEntity
  8
RACCORDO
100
AcDbLine
 62
250
  6
CONTINUOUS
 10
138.4356378487
 20
97.5611909566
 11
138.4356378487
 21
96.5722774644
  0
LINE
  5
2EC
100
AcDbEntity
  8
RACCORDO
100
AcDbLine
 62
250
  6
CONTINUOUS
 10
138.4356378487
 20
85.0611909566
 11
138.4356378487
 21
84.0722774644
  0
LINE
  5
2ED
100
AcDbEntity
  8
0
100
AcDbLine
 62
7
  6
CONTINUOUS
 10
132.0481284313
 20
97.6016064643
 11
131.8007755516
 21
97.5006901991
  0
LINE
  5
2EE
100
AcDbEntity
  8
0
100
AcDbLine
 62
7
  6
CONTINUOUS
 10
132.3006993992
 20
97.7031258023
 11
132.0481284313
 21
97.6016064643
  0
LINE
  5
2EF
100
AcDbEntity
  8
0
100
AcDbLine
 62
7
  6
CONTINUOUS
 10
132.3006993992
 20
106.4303426188
 11
132.0482930884
 21
106.531795279
  0
LINE
  5
2F0
100
AcDbEntity
  8
0
100
AcDbLine
 62
7
  6
CONTINUOUS
 10
132.0482930884
 20
106.531795279
 11
131.8007755516
 21
106.6327782219
  0
LINE
  5
2F1
100
AcDbEntity
  8
RACCORDO
100
AcDbLine
 62
7
  6
CONTINUOUS
 10
138.8007755516
 20
119.6627130773
 11
138.8007755516
 21
119.4707553437
  0
LINE
  5
2F2
100
AcDbEntity
  8
RACCORDO
100
AcDbLine
 62
7
  6
CONTINUOUS
 10
138.8007755516
 20
107.1627130773
 11
138.8007755516
 21
106.9707553437
  0
LINE
  5
2F3
100
AcDbEntity
  8
RACCORDO
100
AcDbLine
 62
7
  6
CONTINUOUS
 10
138.8007755516
 20
97.1627130773
 11
138.8007755516
 21
96.9707553437
  0
LINE
  5
2F4
100
AcDbEntity
  8
RACCORDO
100
AcDbLine
 62
7
  6
CONTINUOUS
 10
138.8007755516
 20
84.6627130773
 11
138.8007755516
 21
84.4707553437
  0
LINE
  5
2F5
100
AcDbEntity
  8
DRAFT
100
AcDbLine
 62
7
  6
CONTINUOUS
 10
138.8007755516
 20
88.5841892755
 11
138.8007755516
 21
93.0492791456
  0
LINE
  5
2F6
100
AcDbEntity
  8
DRAFT
100
AcDbLine
 62
7
  6
CONTINUOUS
 10
138.8007755516
 20
111.0841892755
 11
138.8007755516
 21
115.5492791456
  0
LINE
  5
2F7
100
AcDbEntity
  8
DRAFT
100
AcDbLine
 62
7
  6
CONTINUOUS
 10
138.9079552285
 20
88.5860601037
 11
138.9079552285
 21
93.0474083174
  0
LINE
  5
2F8
100
AcDbEntity
  8
DRAFT
100
AcDbLine
 62
7
  6
CONTINUOUS
 10
138.9079552285
 20
111.0860601037
 11
138.9079552285
 21
115.5474083174
  0
LINE
  5
2F9
100
AcDbEntity
  8
DRAFT
100
AcDbLine
 62
7
  6
CONTINUOUS
 10
139.2579552285
 20
88.5921693764
 11
139.2579552285
 21
93.0412990447
  0
LINE
  5
2FA
100
AcDbEntity
  8
DRAFT
100
AcDbLine
 62
7
  6
CONTINUOUS
 10
139.2579552285
 20
111.0921693764
 11
139.2579552285
 21
115.5412990447
  0
LINE
  5
2FB
100
AcDbEntity
  8
0
100
AcDbLine
 62
7
  6
CONTINUOUS
 10
136.2007755516
 20
105.8167342105
 11
132.3006993992
 21
105.884810293
  0
LINE
  5
2FC
100
AcDbEntity
  8
DRAFT
100
AcDbLine
 62
7
  6
CONTINUOUS
 10
137.8007755516
 20
105.8167342105
 11
136.2007755516
 21
105.8446623144
  0
LINE
  5
2FD
100
AcDbEntity
  8
RACCORDO
100
AcDbLine
 62
250
  6
CONTINUOUS
 10
139.9601797053
 20
88.6044267502
 11
139.9601797053
 21
93.0290416708
  0
LINE
  5
2FE
100
AcDbEntity
  8
RACCORDO
100
AcDbLine
 62
250
  6
CONTINUOUS
 10
139.9601797053
 20
111.1044267502
 11
139.9601797053
 21
115.5290416708
  0
LINE
  5
2FF
100
AcDbEntity
  8
RACCORDO
100
AcDbLine
 62
7
  6
CONTINUOUS
 10
140.048047671
 20
88.6059604913
 11
140.048047671
 21
93.0275079298
  0
LINE
  5
300
100
AcDbEntity
  8
RACCORDO
100
AcDbLine
 62
7
  6
CONTINUOUS
 10
140.048047671
 20
111.1059604913
 11
140.048047671
 21
115.5275079298
  0
LINE
  5
301
100
AcDbEntity
  8
DRAFT
100
AcDbLine
 62
7
  6
CONTINUOUS
 10
138.4356378487
 20
106.5722774644
 11
137.8007755516
 21
106.5167342105
  0
LINE
  5
302
100
AcDbEntity
  8
0
100
AcDbLine
 62
7
  6
CONTINUOUS
 10
136.2007755516
 20
106.4037030374
 11
132.3006993992
 21
106.4303426188
  0
LINE
  5
303
100
AcDbEntity
  8
DRAFT
100
AcDbLine
 62
7
  6
CONTINUOUS
 10
137.8007755516
 20
106.4037030374
 11
136.2007755516
 21
106.4146194448
  0
LWPOLYLINE
  5
304
100
AcDbEntity
  8
0
100
AcDbPolyline
 62
7
  6
CONTINUOUS
 90
10
 70
0
 43
0.3500000006
 10
124.7293138733
 20
135.7654403687
 10
124.8007450562
 20
135.6225780029
 10
124.8007450562
 20
135.5511558838
 10
124.6578917542
 20
135.4082935181
 10
124.5864605713
 20
135.4082935181
 10
124.5150293884
 20
135.4797337646
 10
124.5150293884
 20
135.5511558838
 10
124.5864605713
 20
135.6940182495
 10
124.6578917542
 20
135.7654403687
 10
124.7293138733
 20
135.7654403687
  0
LINE
  5
305
100
AcDbEntity
  8
DRAFT
100
AcDbLine
 62
7
  6
CONTINUOUS
 10
138.4356378487
 20
107.5611909566
 11
137.8007755516
 21
107.6167342105
  0
LINE
  5
306
100
AcDbEntity
  8
DRAFT
100
AcDbLine
 62
7
  6
CONTINUOUS
 10
137.8007755516
 20
111.0667342105
 11
139.2579552285
 21
111.0921693764
  0
LINE
  5
307
100
AcDbEntity
  8
RACCORDO
100
AcDbLine
 62
7
  6
CONTINUOUS
 10
139.2579552285
 20
111.0921693764
 11
140.0480454748
 21
111.1059604529
  0
LINE
  5
308
100
AcDbEntity
  8
DRAFT
100
AcDbLine
 62
7
  6
CONTINUOUS
 10
137.8007755516
 20
115.5667342105
 11
139.2579552285
 21
115.5412990447
  0
LINE
  5
309
100
AcDbEntity
  8
RACCORDO
100
AcDbLine
 62
7
  6
CONTINUOUS
 10
139.2579552285
 20
115.5412990447
 11
140.0480454748
 21
115.5275079681
  0
LINE
  5
30A
100
AcDbEntity
  8
DRAFT
100
AcDbLine
 62
7
  6
CONTINUOUS
 10
138.4356378487
 20
119.0722774644
 11
137.8007755516
 21
119.0167342105
  0
LINE
  5
30B
100
AcDbEntity
  8
DRAFT
100
AcDbLine
 62
7
  6
CONTINUOUS
 10
137.8007755516
 20
120.8167342105
 11
136.2007755516
 21
120.7888061066
  0
LINE
  5
30C
100
AcDbEntity
  8
0
100
AcDbLine
 62
7
  6
CONTINUOUS
 10
136.2007755516
 20
120.8167342105
 11
132.3006993992
 21
120.7486581281
  0
LINE
  5
30D
100
AcDbEntity
  8
DRAFT
100
AcDbLine
 62
7
  6
CONTINUOUS
 10
137.8007755516
 20
120.2297653836
 11
136.2007755516
 21
120.2188489762
  0
LINE
  5
30E
100
AcDbEntity
  8
0
100
AcDbLine
 62
7
  6
CONTINUOUS
 10
136.2007755516
 20
120.2297653836
 11
132.3006993992
 21
120.2031258023
  0
LWPOLYLINE
  5
30F
100
AcDbEntity
  8
0
100
AcDbPolyline
 62
7
  6
CONTINUOUS
 90
7
 70
0
 43
0.3500000006
 10
127.3007458191
 20
135.2654492798
 10
125.8007453613
 20
135.2654492798
 10
127.3007458191
 20
137.4082941284
 10
127.3007458191
 20
137.8368630981
 10
126.8721768494
 20
138.2654320679
 10
126.2293143311
 20
138.2654320679
 10
125.8007453613
 20
137.6225786133
  0
LWPOLYLINE
  5
310
100
AcDbEntity
  8
0
100
AcDbPolyline
 62
7
  6
CONTINUOUS
 90
8
 70
0
 43
0.3500000006
 10
128.1578928223
 20
135.2654492798
 10
129.0150307617
 20
135.2654492798
 10
129.4435997314
 20
135.6940182495
 10
129.4435997314
 20
136.551156189
 10
129.0150307617
 20
136.9797251587
 10
128.1578928223
 20
136.9797251587
 10
128.1578928223
 20
138.2654320679
 10
129.4435997314
 20
138.2654320679
  0
LINE
  5
311
100
AcDbEntity
  8
DRAFT
100
AcDbLine
 62
7
  6
CONTINUOUS
 10
138.4356378487
 20
120.0611909566
 11
137.8007755516
 21
120.1167342105
  0
LWPOLYLINE
  5
312
100
AcDbEntity
  8
0
100
AcDbPolyline
 62
7
  6
CONTINUOUS
 90
13
 70
0
 43
0.3500000006
 10
122.1578909912
 20
136.9797251587
 10
121.8721753235
 20
137.1940096436
 10
121.8721753235
 20
137.8368630981
 10
122.1578909912
 20
138.2654320679
 10
122.8007444458
 20
138.2654320679
 10
123.0864601135
 20
137.8368630981
 10
123.0864601135
 20
137.1940096436
 10
122.8007444458
 20
136.9797251587
 10
123.2293134155
 20
136.551156189
 10
123.2293134155
 20
135.6940182495
 10
122.8007444458
 20
135.2654492798
 10
122.1578909912
 20
135.2654492798
 10
121.7293129578
 20
135.6940182495
  0
ARC
  5
313
100
AcDbEntity
  8
0
100
AcDbCircle
 62
7
  6
CONTINUOUS
 10
162.5027718509
 20
90.8496242852
 40
4.8916938052
100
AcDbArc
 50
349.0562678032
 51
10.9241185587
  0
ARC
  5
314
100
AcDbEntity
  8
0
100
AcDbCircle
 62
7
  6
CONTINUOUS
 10
166.3297818959
 20
90.9429958006
 40
1.5644338624
100
AcDbArc
 50
81.4640245406
 51
85.2730549709
  0
ARC
  5
315
100
AcDbEntity
  8
0
100
AcDbCircle
 62
7
  6
CONTINUOUS
 10
166.4295210172
 20
91.6075113813
 40
0.8924748983
100
AcDbArc
 50
10.9241185587
 51
81.4640245406
  0
ARC
  5
316
100
AcDbEntity
  8
0
100
AcDbCircle
 62
7
  6
CONTINUOUS
 10
166.9074480646
 20
92.3218656248
 40
0.5323657322
100
AcDbArc
 50
163.3066639497
 51
190.7310937283
  0
ARC
  5
317
100
AcDbEntity
  8
0
100
AcDbCircle
 62
7
  6
CONTINUOUS
 10
166.4506655638
 20
91.6211914143
 40
0.5013291547
100
AcDbArc
 50
9.8436487739
 51
55.4430010491
  0
ARC
  5
318
100
AcDbEntity
  8
0
100
AcDbCircle
 62
7
  6
CONTINUOUS
 10
166.4587025065
 20
91.6795486878
 40
0.4494903711
100
AcDbArc
 50
52.0653234489
 51
83.8144596963
  0
ARC
  5
319
100
AcDbEntity
  8
0
100
AcDbCircle
 62
7
  6
CONTINUOUS
 10
166.4549051316
 20
92.4575776856
 40
0.0599116396
100
AcDbArc
 50
126.2611476578
 51
163.3067044539
  0
ARC
  5
31A
100
AcDbEntity
  8
0
100
AcDbCircle
 62
7
  6
CONTINUOUS
 10
167.0451942367
 20
112.599008167
 40
0.9466904015
100
AcDbArc
 50
193.3141441378
 51
262.4863718051
  0
ARC
  5
31B
100
AcDbEntity
  8
0
100
AcDbCircle
 62
7
  6
CONTINUOUS
 10
167.0015606298
 20
114.0667089951
 40
0.8938587301
100
AcDbArc
 50
98.6281224684
 51
169.0591715866
  0
ARC
  5
31C
100
AcDbEntity
  8
0
100
AcDbCircle
 62
7
  6
CONTINUOUS
 10
167.0012041891
 20
112.5509768246
 40
0.5256307022
100
AcDbArc
 50
190.9583869082
 51
261.4037479459
  0
ARC
  5
31D
100
AcDbEntity
  8
0
100
AcDbCircle
 62
7
  6
CONTINUOUS
 10
167.0011100711
 20
114.067091766
 40
0.5252114392
100
AcDbArc
 50
98.5577541942
 51
169.0416130937
  0
ARC
  5
31E
100
AcDbEntity
  8
0
100
AcDbCircle
 62
7
  6
CONTINUOUS
 10
168.7572074013
 20
90.8167342105
 40
10.2
100
AcDbArc
 50
222.6679254941
 51
227.3320745059
  0
ARC
  5
31F
100
AcDbEntity
  8
0
100
AcDbCircle
 62
7
  6
CONTINUOUS
 10
168.7572074013
 20
90.8167342105
 40
10.2
100
AcDbArc
 50
312.6679254941
 51
317.3320745059
  0
ARC
  5
320
100
AcDbEntity
  8
0
100
AcDbCircle
 62
7
  6
CONTINUOUS
 10
168.7572074013
 20
90.8167342105
 40
10.2
100
AcDbArc
 50
42.6679254941
 51
47.3320745059
  0
ARC
  5
321
100
AcDbEntity
  8
0
100
AcDbCircle
 62
7
  6
CONTINUOUS
 10
168.7572074013
 20
90.8167342105
 40
10.2
100
AcDbArc
 50
132.6679254941
 51
137.3320745059
  0
ARC
  5
322
100
AcDbEntity
  8
0
100
AcDbCircle
 62
7
  6
CONTINUOUS
 10
168.7572074013
 20
90.8167342105
 40
10.1319239175
100
AcDbArc
 50
132.8180681543
 51
137.1819318457
  0
ARC
  5
323
100
AcDbEntity
  8
0
100
AcDbCircle
 62
7
  6
CONTINUOUS
 10
168.7572074013
 20
90.8167342105
 40
10.1319239175
100
AcDbArc
 50
42.8180681543
 51
47.1819318457
  0
ARC
  5
324
100
AcDbEntity
  8
0
100
AcDbCircle
 62
7
  6
CONTINUOUS
 10
168.7572074013
 20
90.8167342105
 40
10.1319239175
100
AcDbArc
 50
312.8180681543
 51
317.1819318457
  0
ARC
  5
325
100
AcDbEntity
  8
0
100
AcDbCircle
 62
7
  6
CONTINUOUS
 10
168.7572074013
 20
90.8167342105
 40
10.1319239175
100
AcDbArc
 50
222.8180681543
 51
227.1819318457
  0
ARC
  5
326
100
AcDbEntity
  8
0
100
AcDbCircle
 62
7
  6
CONTINUOUS
 10
168.7572074013
 20
90.8167342105
 40
9.6231977143
100
AcDbArc
 50
43.9927262332
 51
46.0072737668
  0
ARC
  5
327
100
AcDbEntity
  8
0
100
AcDbCircle
 62
7
  6
CONTINUOUS
 10
168.7572074013
 20
90.8167342105
 40
9.6231977143
100
AcDbArc
 50
313.9927262332
 51
316.0072737668
  0
ARC
  5
328
100
AcDbEntity
  8
0
100
AcDbCircle
 62
7
  6
CONTINUOUS
 10
168.7572074013
 20
90.8167342105
 40
9.6231977143
100
AcDbArc
 50
223.9927262332
 51
226.0072737668
  0
ARC
  5
329
100
AcDbEntity
  8
0
100
AcDbCircle
 62
7
  6
CONTINUOUS
 10
168.7572074013
 20
90.8167342105
 40
9.6231977143
100
AcDbArc
 50
133.9927262332
 51
136.0072737668
  0
ARC
  5
32A
100
AcDbEntity
  8
0
100
AcDbCircle
 62
7
  6
CONTINUOUS
 10
168.9137844013
 20
91.5620842105
 40
0.892986
100
AcDbArc
 50
90.0
 51
180.000064162
  0
ARC
  5
32B
100
AcDbEntity
  8
0
100
AcDbCircle
 62
7
  6
CONTINUOUS
 10
171.5152941175
 20
91.5672494886
 40
0.8878357475
100
AcDbArc
 50
89.6666606031
 51
180.3334035589
  0
ARC
  5
32C
100
AcDbEntity
  8
0
100
AcDbCircle
 62
7
  6
CONTINUOUS
 10
168.1819922476
 20
89.9006809742
 40
0.6473197073
100
AcDbArc
 50
256.7961062939
 51
288.6067715756
  0
ARC
  5
32D
100
AcDbEntity
  8
0
100
AcDbCircle
 62
7
  6
CONTINUOUS
 10
169.345914373
 20
90.8303608186
 40
0.6466581217
100
AcDbArc
 50
346.779189058
 51
18.6233508684
  0
ARC
  5
32E
100
AcDbEntity
  8
0
100
AcDbCircle
 62
7
  6
CONTINUOUS
 10
171.95762801
 20
90.8305368125
 40
0.6417946449
100
AcDbArc
 50
346.6610176136
 51
18.7531366968
  0
ARC
  5
32F
100
AcDbEntity
  8
0
100
AcDbCircle
 62
7
  6
CONTINUOUS
 10
170.7893077382
 20
89.8871066509
 40
0.6342614757
100
AcDbArc
 50
256.4596832929
 51
288.9431945769
  0
ARC
  5
330
100
AcDbEntity
  8
0
100
AcDbCircle
 62
7
  6
CONTINUOUS
 10
171.5204594013
 20
91.5620832105
 40
0.525251
100
AcDbArc
 50
90.0
 51
180.0
  0
ARC
  5
331
100
AcDbEntity
  8
0
100
AcDbCircle
 62
7
  6
CONTINUOUS
 10
168.9137844013
 20
91.5620832105
 40
0.525251
100
AcDbArc
 50
90.0
 51
180.0
  0
ARC
  5
332
100
AcDbEntity
  8
0
100
AcDbCircle
 62
7
  6
CONTINUOUS
 10
169.4939456502
 20
92.2712022105
 40
0.4998155403
100
AcDbArc
 50
338.4155798234
 51
21.5844201766
  0
ARC
  5
333
100
AcDbEntity
  8
0
100
AcDbCircle
 62
7
  6
CONTINUOUS
 10
172.1007269987
 20
92.2712022105
 40
0.4996831766
100
AcDbArc
 50
338.4095753209
 51
21.5904246791
  0
ARC
  5
334
100
AcDbEntity
  8
0
100
AcDbCircle
 62
7
  6
CONTINUOUS
 10
168.7572074013
 20
113.3167342105
 40
10.2
100
AcDbArc
 50
222.6679254941
 51
227.3320745059
  0
ARC
  5
335
100
AcDbEntity
  8
0
100
AcDbCircle
 62
7
  6
CONTINUOUS
 10
168.7572074013
 20
113.3167342105
 40
10.2
100
AcDbArc
 50
312.6679254941
 51
317.3320745059
  0
ARC
  5
336
100
AcDbEntity
  8
0
100
AcDbCircle
 62
7
  6
CONTINUOUS
 10
168.7572074013
 20
113.3167342105
 40
10.2
100
AcDbArc
 50
42.6679254941
 51
47.3320745059
  0
ARC
  5
337
100
AcDbEntity
  8
0
100
AcDbCircle
 62
7
  6
CONTINUOUS
 10
168.7572074013
 20
113.3167342105
 40
10.2
100
AcDbArc
 50
132.6679254941
 51
137.3320745059
  0
ARC
  5
338
100
AcDbEntity
  8
0
100
AcDbCircle
 62
7
  6
CONTINUOUS
 10
168.7572074013
 20
113.3167342105
 40
10.1319239175
100
AcDbArc
 50
132.8180681543
 51
137.1819318457
  0
ARC
  5
339
100
AcDbEntity
  8
0
100
AcDbCircle
 62
7
  6
CONTINUOUS
 10
168.7572074013
 20
113.3167342105
 40
10.1319239175
100
AcDbArc
 50
42.8180681543
 51
47.1819318457
  0
ARC
  5
33A
100
AcDbEntity
  8
0
100
AcDbCircle
 62
7
  6
CONTINUOUS
 10
168.7572074013
 20
113.3167342105
 40
10.1319239175
100
AcDbArc
 50
312.8180681543
 51
317.1819318457
  0
ARC
  5
33B
100
AcDbEntity
  8
0
100
AcDbCircle
 62
7
  6
CONTINUOUS
 10
168.7572074013
 20
113.3167342105
 40
10.1319239175
100
AcDbArc
 50
222.8180681543
 51
227.1819318457
  0
ARC
  5
33C
100
AcDbEntity
  8
0
100
AcDbCircle
 62
7
  6
CONTINUOUS
 10
168.7572074013
 20
113.3167342105
 40
9.6231977143
100
AcDbArc
 50
43.9927262332
 51
46.0072737668
  0
ARC
  5
33D
100
AcDbEntity
  8
0
100
AcDbCircle
 62
7
  6
CONTINUOUS
 10
168.7572074013
 20
113.3167342105
 40
9.6231977143
100
AcDbArc
 50
313.9927262332
 51
316.0072737668
  0
ARC
  5
33E
100
AcDbEntity
  8
0
100
AcDbCircle
 62
7
  6
CONTINUOUS
 10
168.7572074013
 20
113.3167342105
 40
9.6231977143
100
AcDbArc
 50
223.9927262332
 51
226.0072737668
  0
ARC
  5
33F
100
AcDbEntity
  8
0
100
AcDbCircle
 62
7
  6
CONTINUOUS
 10
168.7572074013
 20
113.3167342105
 40
9.6231977143
100
AcDbArc
 50
133.9927262332
 51
136.0072737668
  0
ARC
  5
340
100
AcDbEntity
  8
0
100
AcDbCircle
 62
7
  6
CONTINUOUS
 10
167.5427330259
 20
112.5587016841
 40
0.9025350506
100
AcDbArc
 50
275.5818715678
 51
349.1875584391
  0
ARC
  5
341
100
AcDbEntity
  8
0
100
AcDbCircle
 62
7
  6
CONTINUOUS
 10
167.5503584193
 20
114.0669385533
 40
0.8935428335
100
AcDbArc
 50
10.9297520308
 51
81.4073246368
  0
ARC
  5
342
100
AcDbEntity
  8
0
100
AcDbCircle
 62
7
  6
CONTINUOUS
 10
167.5519223463
 20
114.0678149241
 40
0.5243323109
100
AcDbArc
 50
10.8965043317
 51
81.5502695448
  0
ARC
  5
343
100
AcDbEntity
  8
RACCORDO
100
AcDbCircle
 62
7
  6
CONTINUOUS
 10
138.4007755516
 20
84.6627130774
 40
0.4
100
AcDbArc
 50
0.0
 51
85.0
  0
ARC
  5
344
100
AcDbEntity
  8
RACCORDO
100
AcDbCircle
 62
7
  6
CONTINUOUS
 10
138.4007755516
 20
84.4707553437
 40
0.4
100
AcDbArc
 50
275.0
 51
360.0
  0
ARC
  5
345
100
AcDbEntity
  8
RACCORDO
100
AcDbCircle
 62
7
  6
CONTINUOUS
 10
138.4007755516
 20
97.1627130774
 40
0.4
100
AcDbArc
 50
0.0
 51
85.0
  0
ARC
  5
346
100
AcDbEntity
  8
RACCORDO
100
AcDbCircle
 62
7
  6
CONTINUOUS
 10
138.4007755516
 20
96.9707553437
 40
0.4
100
AcDbArc
 50
275.0
 51
360.0
  0
ARC
  5
347
100
AcDbEntity
  8
RACCORDO
100
AcDbCircle
 62
7
  6
CONTINUOUS
 10
138.4007755516
 20
107.1627130774
 40
0.4
100
AcDbArc
 50
0.0
 51
85.0
  0
ARC
  5
348
100
AcDbEntity
  8
RACCORDO
100
AcDbCircle
 62
7
  6
CONTINUOUS
 10
138.4007755516
 20
106.9707553437
 40
0.4
100
AcDbArc
 50
275.0
 51
360.0
  0
ARC
  5
349
100
AcDbEntity
  8
RACCORDO
100
AcDbCircle
 62
7
  6
CONTINUOUS
 10
138.4007755516
 20
119.6627130774
 40
0.4
100
AcDbArc
 50
0.0
 51
85.0
  0
ARC
  5
34A
100
AcDbEntity
  8
RACCORDO
100
AcDbCircle
 62
7
  6
CONTINUOUS
 10
138.4007755516
 20
119.4707553437
 40
0.4
100
AcDbArc
 50
275.0
 51
360.0
  0
ENDSEC
  0
SECTION
  2
OBJECTS
  0
DICTIONARY
  5
C
100
AcDbDictionary
280
0
281
1
  3
ACAD_GROUP
350
D
  3
ACAD_MLINESTYLE
350
17
  3
ACAD_LAYOUT
350
1A
  3
ACAD_PLOTSETTINGS
350
19
  3
ACAD_PLOTSTYLENAME
350
E
  0
DICTIONARY
  5
D
102
{ACAD_REACTORS
330
C
102
}
100
AcDbDictionary
280
0
281
1
  0
ACDBDICTIONARYWDFLT
  5
E
102
{ACAD_REACTORS
330
C
102
}
100
AcDbDictionary
281
1
  3
Normal
350
F
100
AcDbDictionaryWithDefault
340
F
  0
DICTIONARY
  5
17
102
{ACAD_REACTORS
330
C
102
}
100
AcDbDictionary
280
0
281
1
  3
Standard
350
18
  0
DICTIONARY
  5
19
102
{ACAD_REACTORS
330
C
102
}
100
AcDbDictionary
281
1
  0
DICTIONARY
  5
1A
102
{ACAD_REACTORS
330
C
102
}
100
AcDbDictionary
281
1
  3
Model
350
34B
  3
Layout1
350
34C
  0
ACDBPLACEHOLDER
  5
F
102
{ACAD_REACTORS
330
E
102
}
  0
MLINESTYLE
  5
18
102
{ACAD_REACTORS
330
17
102
}
100
AcDbMlineStyle
  2
STANDARD
 70
0
  3

 62
256
 51
90.0
 52
90.0
 71
2
 49
0.5
 62
256
  6
BYLAYER
 49
-0.5
 62
256
  6
BYLAYER
  0
LAYOUT
  5
34B
102
{ACAD_REACTORS
330
1A
102
}
100
AcDbPlotSettings
  1

  2
none_device
  4
ISO_A4_(297.00_x_210.00_MM)
  6

 40
0.0
 41
0.0
 42
0.0
 43
0.0
 44
297.0
 45
210.0
 46
0.0
 47
0.0
 48
0.0
 49
0.0
140
0.0
141
0.0
142
1.0
143
1.0
 70
1024
 72
1
 73
0
 74
0
  7

 75
0
147
1.0
148
0.0
149
0.0
100
AcDbLayout
  1
Model
 70
0
 71
0
 10
0.0
 20
0.0
 11
297.0
 21
210.0
 12
0.0
 22
0.0
 32
0.0
 14
0.0
 24
0.0
 34
0.0
 15
0.0
 25
0.0
 35
0.0
146
0.0
 13
0.0
 23
0.0
 33
0.0
 16
1.0
 26
0.0
 36
0.0
 17
0.0
 27
1.0
 37
0.0
 76
0
330
219
345
0
346
0
  0
LAYOUT
  5
34C
102
{ACAD_REACTORS
330
1A
102
}
100
AcDbPlotSettings
  1

  2
none_device
  4
ISO_A4_(297.00_x_210.00_MM)
  6

 40
0.0
 41
0.0
 42
0.0
 43
0.0
 44
297.0
 45
210.0
 46
0.0
 47
0.0
 48
0.0
 49
0.0
140
0.0
141
0.0
142
1.0
143
1.0
 70
0
 72
1
 73
0
 74
0
  7

 75
0
147
1.0
148
0.0
149
0.0
100
AcDbLayout
  1
Layout1
 70
0
 71
1
 10
0.0
 20
0.0
 11
297.0
 21
210.0
 12
0.0
 22
0.0
 32
0.0
 14
0.0
 24
0.0
 34
0.0
 15
0.0
 25
0.0
 35
0.0
146
0.0
 13
0.0
 23
0.0
 33
0.0
 16
1.0
 26
0.0
 36
0.0
 17
0.0
 27
1.0
 37
0.0
 76
0
330
21A
345
0
346
0
  0
ENDSEC
  0
EOF
