  0
SECTION
  2
HEADER
  9
$ACADVER
  1
AC1024
  9
$DWGCODEPAGE
  3
ANSI_1252
  9
$EXTMAX
 10
297.0
 20
210.0
 30
0.0
  9
$EXTMIN
 10
0.0
 20
0.0
 30
0.0
  9
$LIMMIN
 10
0.0
 20
0.0
  9
$LIMMAX
 10
297.0
 20
210.0
  9
$VIEWCTR
 10
148.5
 20
105.0
  9
$VIEWSIZE
 40
210.0
  9
$CLAYER
  8
0
  9
$LTSCALE
 40
16.335
  9
$CELTYPE
  6
BYLAYER
  9
$DIMSCALE
 40
1.0
  9
$DIMASZ
 40
3.0
  9
$DIMEXO
 40
0.5
  9
$DIMDLI
 40
11.286
  9
$DIMEXE
 40
1.5
  9
$DIMCEN
 40
2.673
  9
$DIMLFAC
 40
1.0
  9
$DIMBLK
  1
_FILLED
  9
$DIMALT
 70
0
  9
$DIMALTF
 40
0.0393700787
  9
$DIMTXT
 40
3.0
  9
$DIMTOL
 70
1
  9
$DIMLIM
 70
0
  9
$DIMTFAC
 40
1.0
  9
$DIMTP
 40
0.01
  9
$DIMTM
 40
0.01
  9
$DIMGAP
 40
0.625
  9
$DIMDSEP
 70
44
  9
$AUNITS
 70
0
  9
$PDMODE
 70
3
  9
$PDSIZE
 40
3.0
  9
$HANDSEED
  5
4A0
  9
$TILEMODE
 70
1
  9
$MEASUREMENT
 70
1
  9
$INSUNITS
 70
4
  0
ENDSEC
  0
SECTION
  2
CLASSES
  0
CLASS
  1
ACDBDICTIONARYWDFLT
  2
AcDbDictionaryWithDefault
  3
AutoCAD 2000
 90
0
 91
1
280
0
281
0
  0
CLASS
  1
ACDBPLACEHOLDER
  2
AcDbPlaceHolder
  3
AutoCAD 2000
 90
0
 91
1
280
0
281
0
  0
CLASS
  1
LAYOUT
  2
AcDbLayout
  3
AutoCAD 2000
 90
0
 91
0
280
0
281
0
  0
ENDSEC
  0
SECTION
  2
TABLES
  0
TABLE
  2
VPORT
  5
8
100
AcDbSymbolTable
 70
2
  0
VPORT
  5
1F4
100
AcDbSymbolTableRecord
100
AcDbViewportTableRecord
  2
*ACTIVE
 70
0
 10
0.0
 20
0.0
 11
1.0
 21
1.0
 12
148.5
 22
105.0
 13
0.0
 23
0.0
 14
1.0
 24
1.0
 15
0.0
 25
0.0
 16
0.0
 26
0.0
 36
1.0
 17
0.0
 27
0.0
 37
0.0
 40
210.0
 41
1.4142857143
 42
50.0
 43
0.0
 44
0.0
 50
0.0
 51
0.0
 71
0
 72
100
 73
1
 74
1
 75
0
 76
0
 77
0
 78
0
  0
ENDTAB
  0
TABLE
  2
LTYPE
  5
5
100
AcDbSymbolTable
 70
6
  0
LTYPE
  5
14
100
AcDbSymbolTableRecord
100
AcDbLinetypeTableRecord
  2
BYBLOCK
 70
0
  3

 72
65
 73
0
 40
0.0
  0
LTYPE
  5
15
100
AcDbSymbolTableRecord
100
AcDbLinetypeTableRecord
  2
BYLAYER
 70
0
  3

 72
65
 73
0
 40
0.0
  0
LTYPE
  5
16
100
AcDbSymbolTableRecord
100
AcDbLinetypeTableRecord
  2
CONTINUOUS
 70
64
  3
Solid line
 72
65
 73
0
 40
0.0
  0
LTYPE
  5
1F5
100
AcDbSymbolTableRecord
100
AcDbLinetypeTableRecord
  2
CENTER
 70
64
  3
____ _ ____ _ ____ _ ____ _ ____ _ ____ _ ____
 72
65
 73
4
 40
0.6
 49
0.375
 74
0
 49
-0.075
 74
0
 49
0.075
 74
0
 49
-0.075
 74
0
  0
LTYPE
  5
1F6
100
AcDbSymbolTableRecord
100
AcDbLinetypeTableRecord
  2
HIDDEN
 70
64
  3
- - - - - - - - - - - - - - - - - - - -
 72
65
 73
2
 40
0.2
 49
0.1
 74
0
 49
-0.1
 74
0
  0
LTYPE
  5
1F7
100
AcDbSymbolTableRecord
100
AcDbLinetypeTableRecord
  2
PHANTOM
 70
64
  3
_____ _ _ _____ _ _ _____ _ _ _____
 72
65
 73
6
 40
0.8
 49
0.45
 74
0
 49
-0.05
 74
0
 49
0.1
 74
0
 49
-0.05
 74
0
 49
0.1
 74
0
 49
-0.05
 74
0
  0
LTYPE
  5
1F8
100
AcDbSymbolTableRecord
100
AcDbLinetypeTableRecord
  2
DOT
 70
64
  3
. . . . . . . . . . . . . . . . . . . .
 72
65
 73
2
 40
0.2
 49
0.1
 74
0
 49
-0.1
 74
0
  0
LTYPE
  5
1F9
100
AcDbSymbolTableRecord
100
AcDbLinetypeTableRecord
  2
DASHED
 70
64
  3
- - - - - - - - - - - - - - - - - - - -
 72
65
 73
2
 40
0.2
 49
0.1
 74
0
 49
-0.1
 74
0
  0
ENDTAB
  0
TABLE
  2
LAYER
  5
2
100
AcDbSymbolTable
 70
36
  0
LAYER
  5
10
100
AcDbSymbolTableRecord
100
AcDbLayerTableRecord
  2
0
 70
0
 62
7
  6
CONTINUOUS
370
-3
390
F
  0
LAYER
  5
1FA
100
AcDbSymbolTableRecord
100
AcDbLayerTableRecord
  2
DEFAULT_1
 70
0
 62
7
  6
CENTER
370
-3
390
F
  0
LAYER
  5
1FB
100
AcDbSymbolTableRecord
100
AcDbLayerTableRecord
  2
DEFAULT_2
 70
0
 62
7
  6
HIDDEN
370
-3
390
F
  0
LAYER
  5
1FC
100
AcDbSymbolTableRecord
100
AcDbLayerTableRecord
  2
DEFAULT_3
 70
0
 62
7
  6
PHANTOM
370
-3
390
F
  0
LAYER
  5
1FD
100
AcDbSymbolTableRecord
100
AcDbLayerTableRecord
  2
ASSI
 70
0
 62
7
  6
CONTINUOUS
370
-3
390
F
  0
LAYER
  5
1FE
100
AcDbSymbolTableRecord
100
AcDbLayerTableRecord
  2
COORDINATE
 70
0
 62
7
  6
CONTINUOUS
370
-3
390
F
  0
LAYER
  5
1FF
100
AcDbSymbolTableRecord
100
AcDbLayerTableRecord
  2
COORD_ORIGINE
 70
0
 62
7
  6
CONTINUOUS
370
-3
390
F
  0
LAYER
  5
200
100
AcDbSymbolTableRecord
100
AcDbLayerTableRecord
  2
COPY_PUBLISH
 70
0
 62
7
  6
CONTINUOUS
370
-3
390
F
  0
LAYER
  5
201
100
AcDbSymbolTableRecord
100
AcDbLayerTableRecord
  2
COSMETIC
 70
0
 62
7
  6
CONTINUOUS
370
-3
390
F
  0
LAYER
  5
202
100
AcDbSymbolTableRecord
100
AcDbLayerTableRecord
  2
COSMETICI
 70
0
 62
7
  6
CONTINUOUS
370
-3
390
F
  0
LAYER
  5
203
100
AcDbSymbolTableRecord
100
AcDbLayerTableRecord
  2
CURVE
 70
0
 62
7
  6
CONTINUOUS
370
-3
390
F
  0
LAYER
  5
204
100
AcDbSymbolTableRecord
100
AcDbLayerTableRecord
  2
CURVE_COSTRUZIONE
 70
0
 62
7
  6
CONTINUOUS
370
-3
390
F
  0
LAYER
  5
205
100
AcDbSymbolTableRecord
100
AcDbLayerTableRecord
  2
CURVE_TASSELLI
 70
0
 62
7
  6
CONTINUOUS
370
-3
390
F
  0
LAYER
  5
206
100
AcDbSymbolTableRecord
100
AcDbLayerTableRecord
  2
DRAFT
 70
0
 62
7
  6
CONTINUOUS
370
-3
390
F
  0
LAYER
  5
207
100
AcDbSymbolTableRecord
100
AcDbLayerTableRecord
  2
IMPORT_IGES
 70
0
 62
7
  6
CONTINUOUS
370
-3
390
F
  0
LAYER
  5
208
100
AcDbSymbolTableRecord
100
AcDbLayerTableRecord
  2
INTFCLR_2
 70
0
 62
7
  6
CONTINUOUS
370
-3
390
F
  0
LAYER
  5
209
100
AcDbSymbolTableRecord
100
AcDbLayerTableRecord
  2
INTF_1
 70
0
 62
7
  6
CONTINUOUS
370
-3
390
F
  0
LAYER
  5
20A
100
AcDbSymbolTableRecord
100
AcDbLayerTableRecord
  2
INTF_6
 70
0
 62
7
  6
CONTINUOUS
370
-3
390
F
  0
LAYER
  5
20B
100
AcDbSymbolTableRecord
100
AcDbLayerTableRecord
  2
INTF_7
 70
0
 62
7
  6
CONTINUOUS
370
-3
390
F
  0
LAYER
  5
20C
100
AcDbSymbolTableRecord
100
AcDbLayerTableRecord
  2
INTF_CYAN
 70
0
 62
7
  6
CONTINUOUS
370
-3
390
F
  0
LAYER
  5
20D
100
AcDbSymbolTableRecord
100
AcDbLayerTableRecord
  2
LIVELLO_1
 70
0
 62
7
  6
CONTINUOUS
370
-3
390
F
  0
LAYER
  5
20E
100
AcDbSymbolTableRecord
100
AcDbLayerTableRecord
  2
NOTE
 70
0
 62
7
  6
CONTINUOUS
370
-3
390
F
  0
LAYER
  5
20F
100
AcDbSymbolTableRecord
100
AcDbLayerTableRecord
  2
PIANI
 70
0
 62
7
  6
CONTINUOUS
370
-3
390
F
  0
LAYER
  5
210
100
AcDbSymbolTableRecord
100
AcDbLayerTableRecord
  2
PIANI_ORIGINE
 70
0
 62
7
  6
CONTINUOUS
370
-3
390
F
  0
LAYER
  5
211
100
AcDbSymbolTableRecord
100
AcDbLayerTableRecord
  2
PIANI_RIFERIMENTO
 70
0
 62
7
  6
CONTINUOUS
370
-3
390
F
  0
LAYER
  5
212
100
AcDbSymbolTableRecord
100
AcDbLayerTableRecord
  2
PUNTI
 70
0
 62
7
  6
CONTINUOUS
370
-3
390
F
  0
LAYER
  5
213
100
AcDbSymbolTableRecord
100
AcDbLayerTableRecord
  2
RACCORDO
 70
0
 62
7
  6
CONTINUOUS
370
-3
390
F
  0
LAYER
  5
214
100
AcDbSymbolTableRecord
100
AcDbLayerTableRecord
  2
RGB__255__255__255__
 70
0
 62
7
  6
CONTINUOUS
370
-3
390
F
  0
LAYER
  5
215
100
AcDbSymbolTableRecord
100
AcDbLayerTableRecord
  2
RGB____0____0____0__
 70
0
 62
7
  6
CONTINUOUS
370
-3
390
F
  0
LAYER
  5
216
100
AcDbSymbolTableRecord
100
AcDbLayerTableRecord
  2
SIMBOLI
 70
0
 62
7
  6
CONTINUOUS
370
-3
390
F
  0
LAYER
  5
217
100
AcDbSymbolTableRecord
100
AcDbLayerTableRecord
  2
SMUSSO
 70
0
 62
7
  6
CONTINUOUS
370
-3
390
F
  0
LAYER
  5
218
100
AcDbSymbolTableRecord
100
AcDbLayerTableRecord
  2
SUPERFICI
 70
0
 62
7
  6
CONTINUOUS
370
-3
390
F
  0
LAYER
  5
219
100
AcDbSymbolTableRecord
100
AcDbLayerTableRecord
  2
TRASH
 70
0
 62
7
  6
CONTINUOUS
370
-3
390
F
  0
LAYER
  5
21A
100
AcDbSymbolTableRecord
100
AcDbLayerTableRecord
  2
WHITE
 70
0
 62
7
  6
CONTINUOUS
370
-3
390
F
  0
LAYER
  5
21B
100
AcDbSymbolTableRecord
100
AcDbLayerTableRecord
  2
XSEC_DATUMS
 70
0
 62
7
  6
CONTINUOUS
370
-3
390
F
  0
ENDTAB
  0
TABLE
  2
STYLE
  5
3
100
AcDbSymbolTable
 70
1
  0
STYLE
  5
11
100
AcDbSymbolTableRecord
100
AcDbTextStyleTableRecord
  2
STANDARD
 70
0
 40
0.0
 41
0.8
 50
0.0
 71
0
 42
0.2
  3
txt
  4

  0
STYLE
  5
21C
100
AcDbSymbolTableRecord
100
AcDbTextStyleTableRecord
  2
TEXTSTYLE_1
 70
0
 40
0.0
 41
0.8
 50
0.0
 71
0
 42
0.2
  3
gdt
  4

  0
ENDTAB
  0
TABLE
  2
VIEW
  5
6
100
AcDbSymbolTable
 70
0
  0
ENDTAB
  0
TABLE
  2
UCS
  5
7
100
AcDbSymbolTable
 70
0
  0
ENDTAB
  0
TABLE
  2
APPID
  5
9
100
AcDbSymbolTable
 70
1
  0
APPID
  5
21D
100
AcDbSymbolTableRecord
100
AcDbRegAppTableRecord
  2
ACAD
 70
0
  0
ENDTAB
  0
TABLE
  2
BLOCK_RECORD
  5
1
100
AcDbSymbolTable
 70
0
  0
BLOCK_RECORD
  5
21E
100
AcDbSymbolTableRecord
100
AcDbBlockTableRecord
  2
*Model_Space
  0
BLOCK_RECORD
  5
21F
100
AcDbSymbolTableRecord
100
AcDbBlockTableRecord
  2
*Paper_Space
  0
BLOCK_RECORD
  5
220
100
AcDbSymbolTableRecord
100
AcDbBlockTableRecord
  2
_FILLED
  0
BLOCK_RECORD
  5
221
100
AcDbSymbolTableRecord
100
AcDbBlockTableRecord
  2
*D0
  0
BLOCK_RECORD
  5
222
100
AcDbSymbolTableRecord
100
AcDbBlockTableRecord
  2
*D1
  0
BLOCK_RECORD
  5
223
100
AcDbSymbolTableRecord
100
AcDbBlockTableRecord
  2
*D2
  0
BLOCK_RECORD
  5
224
100
AcDbSymbolTableRecord
100
AcDbBlockTableRecord
  2
*D3
  0
ENDTAB
  0
TABLE
  2
DIMSTYLE
  5
A
100
AcDbSymbolTable
 70
1
100
AcDbDimStyleTable
 71
0
  0
DIMSTYLE
105
225
100
AcDbSymbolTableRecord
100
AcDbDimStyleTableRecord
  2
STANDARD
 70
0
  3

  4

 40
1.0
 41
3.0
 42
0.5
 43
0.38
 44
1.5
 45
0.0
 46
0.0
 47
0.01
 48
0.01
140
3.0
141
0.09
142
0.0
143
25.4
144
1.0
145
0.0
146
1.0
147
0.625
 71
1
 72
0
 73
0
 74
0
 75
0
 76
0
 77
1
 78
8
 79
2
170
0
171
1
172
0
173
0
174
0
175
0
176
0
177
0
178
0
270
2
179
2
271
2
272
2
273
2
274
2
275
0
280
0
281
0
282
0
283
1
284
8
285
0
286
0
287
3
288
0
340
11
278
44
341
220
342
220
343
220
344
220
  0
DIMSTYLE
105
226
100
AcDbSymbolTableRecord
100
AcDbDimStyleTableRecord
  2
DIMSTYLE_1
 70
0
  3

  4

 40
1.0
 41
3.0
 42
0.5
 43
0.38
 44
1.5
 45
0.0
 46
0.0
 47
0.0
 48
0.0
140
3.0
141
0.09
142
0.0
143
25.4
144
1.0
145
0.0
146
1.0
147
0.75
 71
0
 72
0
 73
0
 74
0
 75
0
 76
0
 77
1
 78
8
 79
2
170
0
171
1
172
0
173
0
174
0
175
0
176
0
177
0
178
0
270
2
179
2
271
2
272
2
273
2
274
2
275
0
280
0
281
0
282
0
283
1
284
8
285
0
286
0
287
3
288
0
340
11
278
44
341
220
342
220
343
220
344
220
  0
ENDTAB
  0
ENDSEC
  0
SECTION
  2
BLOCKS
  0
BLOCK
  5
20
100
AcDbEntity
  8
0
100
AcDbBlockBegin
  2
*Model_Space
 70
0
 10
0.0
 20
0.0
 30
0.0
  3
*Model_Space
  1

  0
ENDBLK
  5
21
100
AcDbEntity
  8
0
100
AcDbBlockEnd
  0
BLOCK
  5
1C
100
AcDbEntity
  8
0
100
AcDbBlockBegin
  2
*Paper_Space
 70
0
 10
0.0
 20
0.0
 30
0.0
  3
*Paper_Space
  1

  0
ENDBLK
  5
1D
100
AcDbEntity
  8
0
100
AcDbBlockEnd
  0
BLOCK
  5
227
100
AcDbEntity
  8
0
100
AcDbBlockBegin
  2
_FILLED
 70
64
 10
0.0
 20
0.0
  3
_FILLED
  1

  0
SOLID
  5
228
100
AcDbEntity
  8
0
  6
BYBLOCK
 62
0
100
AcDbTrace
 10
0.0
 20
0.0
 11
-1.0
 21
0.3166666667
 12
-1.0
 22
-0.3166666667
 13
-1.0
 23
-0.3166666667
  0
ENDBLK
  5
229
100
AcDbEntity
  8
0
  6
BYBLOCK
 62
0
100
AcDbBlockEnd
  0
BLOCK
  5
22A
100
AcDbEntity
  8
0
100
AcDbBlockBegin
 62
7
  6
CONTINUOUS
  2
*D0
 70
65
 10
0.0
 20
0.0
  3
*D0
  1

  0
MTEXT
  5
22B
100
AcDbEntity
  8
0
100
AcDbMText
 62
7
  6
CONTINUOUS
  7
STANDARD
 71
2
 72
1
 10
180.5551853429
 20
165.4766089312
 30
0.0
 11
1.0
 21
0.0
 31
0.0
 73
2
 44
0.9
  1
{\ftxt;\W0.0001;\H0.0001;\~}{\ftxt;\W1.5714285714;\H3.0; }{\ftxt;\W0.0001;\H0.0001;\~}
 40
3.0
 41
7.0714285714
  0
LINE
  5
22C
100
AcDbEntity
  8
0
100
AcDbLine
 62
7
  6
CONTINUOUS
 10
135.5551853429
 20
150.2150228273
 11
135.5551853429
 21
163.2266089312
  0
LINE
  5
22D
100
AcDbEntity
  8
0
100
AcDbLine
 62
7
  6
CONTINUOUS
 10
225.5551853429
 20
150.2150228273
 11
225.5551853429
 21
163.2266089312
  0
LINE
  5
22E
100
AcDbEntity
  8
0
100
AcDbLine
 62
7
  6
CONTINUOUS
 10
135.5551853429
 20
161.7266089312
 11
180.5551853429
 21
161.7266089312
  0
LINE
  5
22F
100
AcDbEntity
  8
0
100
AcDbLine
 62
7
  6
CONTINUOUS
 10
225.5551853429
 20
161.7266089312
 11
180.5551853429
 21
161.7266089312
  0
INSERT
  5
230
100
AcDbEntity
  8
0
100
AcDbBlockReference
 62
7
  6
CONTINUOUS
  2
_FILLED
 10
135.5551853429
 20
161.7266089312
 41
3.0
 42
3.0
 43
3.0
 50
180.0
  0
INSERT
  5
231
100
AcDbEntity
  8
0
100
AcDbBlockReference
 62
7
  6
CONTINUOUS
  2
_FILLED
 10
225.5551853429
 20
161.7266089312
 41
3.0
 42
3.0
 43
3.0
  0
ENDBLK
  5
232
100
AcDbEntity
  8
0
  6
BYBLOCK
 62
0
100
AcDbBlockEnd
  0
BLOCK
  5
233
100
AcDbEntity
  8
0
100
AcDbBlockBegin
 62
7
  6
CONTINUOUS
  2
*D1
 70
65
 10
0.0
 20
0.0
  3
*D1
  1

  0
MTEXT
  5
234
100
AcDbEntity
  8
0
100
AcDbMText
 62
7
  6
CONTINUOUS
  7
STANDARD
 71
2
 72
1
 10
231.8701989049
 20
105.7156316294
 30
0.0
 11
0.0
 21
1.0
 31
0.0
 73
2
 44
0.9
  1
{\ftxt;\W0.0001;\H0.0001;\~}{\ftxt;\W1.5714285714;\H3.0; }{\ftxt;\W0.0001;\H0.0001;\~}
 40
3.0
 41
7.0714285714
  0
LINE
  5
235
100
AcDbEntity
  8
0
100
AcDbLine
 62
7
  6
CONTINUOUS
 10
225.0545765408
 20
150.7156316294
 11
237.1201989049
 21
150.7156316294
  0
LINE
  5
236
100
AcDbEntity
  8
0
100
AcDbLine
 62
7
  6
CONTINUOUS
 10
225.0545765408
 20
60.7156316294
 11
237.1201989049
 21
60.7156316294
  0
LINE
  5
237
100
AcDbEntity
  8
0
100
AcDbLine
 62
7
  6
CONTINUOUS
 10
235.6201989049
 20
150.7156316294
 11
235.6201989049
 21
105.7156316294
  0
LINE
  5
238
100
AcDbEntity
  8
0
100
AcDbLine
 62
7
  6
CONTINUOUS
 10
235.6201989049
 20
60.7156316294
 11
235.6201989049
 21
105.7156316294
  0
INSERT
  5
239
100
AcDbEntity
  8
0
100
AcDbBlockReference
 62
7
  6
CONTINUOUS
  2
_FILLED
 10
235.6201989049
 20
150.7156316294
 41
3.0
 42
3.0
 43
3.0
 50
90.0
  0
INSERT
  5
23A
100
AcDbEntity
  8
0
100
AcDbBlockReference
 62
7
  6
CONTINUOUS
  2
_FILLED
 10
235.6201989049
 20
60.7156316294
 41
3.0
 42
3.0
 43
3.0
 50
270.0
  0
ENDBLK
  5
23B
100
AcDbEntity
  8
0
  6
BYBLOCK
 62
0
100
AcDbBlockEnd
  0
BLOCK
  5
23C
100
AcDbEntity
  8
0
100
AcDbBlockBegin
 62
7
  6
CONTINUOUS
  2
*D2
 70
65
 10
0.0
 20
0.0
  3
*D2
  1

  0
MTEXT
  5
23D
100
AcDbEntity
  8
0
100
AcDbMText
 62
7
  6
CONTINUOUS
  7
STANDARD
 71
3
 72
1
 10
78.9855606599
 20
163.2660875328
 30
0.0
 11
1.0
 21
0.0
 31
0.0
 73
2
 44
0.9
  1
{\ftxt;\W0.0001;\H0.0001;\~}{\ftxt;\W2.6428571429;\H3.0; }{\ftxt;\W0.0001;\H0.0001;\~}
 40
3.0
 41
11.8928571429
  0
LINE
  5
23E
100
AcDbEntity
  8
0
100
AcDbLine
 62
7
  6
CONTINUOUS
 10
89.9916709119
 20
147.419529149
 11
89.9916709119
 21
161.0160875328
  0
LINE
  5
23F
100
AcDbEntity
  8
0
100
AcDbLine
 62
7
  6
CONTINUOUS
 10
82.8416709119
 20
149.5923690396
 11
82.8416709119
 21
161.0160875328
  0
LINE
  5
240
100
AcDbEntity
  8
0
100
AcDbLine
 62
7
  6
CONTINUOUS
 10
89.9916709119
 20
159.5160875328
 11
86.4166709119
 21
159.5160875328
  0
LINE
  5
241
100
AcDbEntity
  8
0
100
AcDbLine
 62
7
  6
CONTINUOUS
 10
82.8416709119
 20
159.5160875328
 11
86.4166709119
 21
159.5160875328
  0
LINE
  5
242
100
AcDbEntity
  8
0
100
AcDbLine
 62
7
  6
CONTINUOUS
 10
86.4166709119
 20
159.5160875328
 11
71.0569892313
 21
159.5160875328
  0
INSERT
  5
243
100
AcDbEntity
  8
0
100
AcDbBlockReference
 62
7
  6
CONTINUOUS
  2
_FILLED
 10
89.9916709119
 20
159.5160875328
 41
3.0
 42
3.0
 43
3.0
  0
INSERT
  5
244
100
AcDbEntity
  8
0
100
AcDbBlockReference
 62
7
  6
CONTINUOUS
  2
_FILLED
 10
82.8416709119
 20
159.5160875328
 41
3.0
 42
3.0
 43
3.0
 50
180.0
  0
ENDBLK
  5
245
100
AcDbEntity
  8
0
  6
BYBLOCK
 62
0
100
AcDbBlockEnd
  0
BLOCK
  5
246
100
AcDbEntity
  8
0
100
AcDbBlockBegin
 62
7
  6
CONTINUOUS
  2
*D3
 70
65
 10
0.0
 20
0.0
  3
*D3
  1

  0
MTEXT
  5
247
100
AcDbEntity
  8
0
100
AcDbMText
 62
7
  6
CONTINUOUS
  7
STANDARD
 71
3
 72
1
 10
80.4411682302
 20
170.4413080013
 30
0.0
 11
1.0
 21
0.0
 31
0.0
 73
2
 44
0.9
  1
{\ftxt;\W0.0001;\H0.0001;\~}{\ftxt;\W3.2142857143;\H3.0; }{\ftxt;\W0.0001;\H0.0001;\~}
 40
3.0
 41
14.4642857143
  0
LINE
  5
248
100
AcDbEntity
  8
0
100
AcDbLine
 62
7
  6
CONTINUOUS
 10
82.8416709119
 20
149.5923690396
 11
82.8416709119
 21
168.1913080013
  0
LINE
  5
249
100
AcDbEntity
  8
0
100
AcDbLine
 62
7
  6
CONTINUOUS
 10
92.9916709119
 20
132.2059576623
 11
92.9916709119
 21
168.1913080013
  0
LINE
  5
24A
100
AcDbEntity
  8
0
100
AcDbLine
 62
7
  6
CONTINUOUS
 10
82.8416709119
 20
166.6913080013
 11
87.9166709119
 21
166.6913080013
  0
LINE
  5
24B
100
AcDbEntity
  8
0
100
AcDbLine
 62
7
  6
CONTINUOUS
 10
87.9166709119
 20
166.6913080013
 11
70.7983110873
 21
166.6913080013
  0
LINE
  5
24C
100
AcDbEntity
  8
0
100
AcDbLine
 62
7
  6
CONTINUOUS
 10
92.9916709119
 20
166.6913080013
 11
87.9166709119
 21
166.6913080013
  0
INSERT
  5
24D
100
AcDbEntity
  8
0
100
AcDbBlockReference
 62
7
  6
CONTINUOUS
  2
_FILLED
 10
82.8416709119
 20
166.6913080013
 41
3.0
 42
3.0
 43
3.0
 50
180.0
  0
INSERT
  5
24E
100
AcDbEntity
  8
0
100
AcDbBlockReference
 62
7
  6
CONTINUOUS
  2
_FILLED
 10
92.9916709119
 20
166.6913080013
 41
3.0
 42
3.0
 43
3.0
  0
ENDBLK
  5
24F
100
AcDbEntity
  8
0
  6
BYBLOCK
 62
0
100
AcDbBlockEnd
  0
ENDSEC
  0
SECTION
  2
ENTITIES
  0
DIMENSION
  5
250
100
AcDbEntity
  8
0
100
AcDbDimension
 62
7
  6
CONTINUOUS
  2
*D0
 10
225.5551853429
 20
161.7266089312
 11
180.1266116638
 21
161.7266089312
 70
160
 71
2
 72
2
 41
0.9
 42
90.0
  1
{\ftxt;\W0.0001;\H0.0001;\~}{\ftxt;\W1.5714285714;\H3.0; }{\ftxt;\W0.0001;\H0.0001;\~}
  3
DIMSTYLE_1
100
AcDbAlignedDimension
 13
135.5551853429
 23
149.7150228273
 14
225.5551853429
 24
149.7150228273
100
AcDbRotatedDimension
  0
DIMENSION
  5
251
100
AcDbEntity
  8
0
100
AcDbDimension
 62
7
  6
CONTINUOUS
  2
*D1
 10
235.6201989049
 20
60.7156316294
 11
235.6201989049
 21
105.2870660209
 70
160
 71
2
 72
2
 41
0.9
 42
90.0
  1
{\ftxt;\W0.0001;\H0.0001;\~}{\ftxt;\W1.5714285714;\H3.0; }{\ftxt;\W0.0001;\H0.0001;\~}
  3
DIMSTYLE_1
100
AcDbAlignedDimension
 13
224.5545765408
 23
150.7156316294
 14
224.5545765408
 24
60.7156316294
 50
270.0
100
AcDbRotatedDimension
  0
DIMENSION
  5
252
100
AcDbEntity
  8
0
100
AcDbDimension
 62
7
  6
CONTINUOUS
  2
*D2
 10
82.8416709119
 20
159.5160875328
 11
74.5927038116
 21
159.5160875328
 70
160
 71
3
 72
2
 41
0.9
 42
7.15
  1
{\ftxt;\W0.0001;\H0.0001;\~}{\ftxt;\W2.6428571429;\H3.0; }{\ftxt;\W0.0001;\H0.0001;\~}
  3
DIMSTYLE_1
100
AcDbAlignedDimension
 13
89.9916709119
 23
146.919529149
 14
82.8416709119
 24
149.0923690396
 50
180.0
100
AcDbRotatedDimension
  0
DIMENSION
  5
253
100
AcDbEntity
  8
0
100
AcDbDimension
 62
7
  6
CONTINUOUS
  2
*D3
 10
92.9916709119
 20
166.6913080013
 11
75.19116996
 21
166.6913080013
 70
160
 71
3
 72
2
 41
0.9
 42
10.15
  1
{\ftxt;\W0.0001;\H0.0001;\~}{\ftxt;\W3.2142857143;\H3.0; }{\ftxt;\W0.0001;\H0.0001;\~}
  3
DIMSTYLE_1
100
AcDbAlignedDimension
 13
82.8416709119
 23
149.0923690396
 14
92.9916709119
 24
131.7059576623
100
AcDbRotatedDimension
  0
LINE
  5
254
100
AcDbEntity
  8
0
100
AcDbLine
 62
7
  6
CONTINUOUS
 10
136.735199873
 20
150.5063309517
 11
136.7496256885
 21
150.5218000859
  0
LINE
  5
255
100
AcDbEntity
  8
ASSI
100
AcDbLine
 62
7
  6
CONTINUOUS
 10
136.735199873
 20
150.5063309517
 11
136.7496256885
 21
150.5218000859
  0
LINE
  5
256
100
AcDbEntity
  8
0
100
AcDbLine
 62
7
  6
CONTINUOUS
 10
135.5551853429
 20
149.7150228273
 11
136.555794145
 21
150.7156316294
  0
LINE
  5
257
100
AcDbEntity
  8
ASSI
100
AcDbLine
 62
7
  6
CONTINUOUS
 10
135.5551853429
 20
149.7150228273
 11
136.555794145
 21
150.7156316294
  0
LINE
  5
258
100
AcDbEntity
  8
0
100
AcDbLine
 62
7
  6
CONTINUOUS
 10
136.735199873
 20
150.5063309517
 11
135.7644860206
 21
149.5356170993
  0
LINE
  5
259
100
AcDbEntity
  8
ASSI
100
AcDbLine
 62
7
  6
CONTINUOUS
 10
136.735199873
 20
150.5063309517
 11
135.7644860206
 21
149.5356170993
  0
LINE
  5
25A
100
AcDbEntity
  8
0
100
AcDbLine
 62
7
  6
CONTINUOUS
 10
137.1784479327
 20
149.4869005892
 11
136.7839163831
 21
149.0923690396
  0
LINE
  5
25B
100
AcDbEntity
  8
ASSI
100
AcDbLine
 62
7
  6
CONTINUOUS
 10
137.1784479327
 20
149.4869005892
 11
136.7839163831
 21
149.0923690396
  0
LINE
  5
25C
100
AcDbEntity
  8
0
100
AcDbLine
 62
7
  6
CONTINUOUS
 10
135.7490168864
 20
149.5211912838
 11
135.7644860206
 21
149.5356170993
  0
LINE
  5
25D
100
AcDbEntity
  8
ASSI
100
AcDbLine
 62
7
  6
CONTINUOUS
 10
135.7490168864
 20
149.5211912838
 11
135.7644860206
 21
149.5356170993
  0
LINE
  5
25E
100
AcDbEntity
  8
0
100
AcDbLine
 62
7
  6
CONTINUOUS
 10
135.7644860206
 20
61.8956461595
 11
135.7490168864
 21
61.910071975
  0
LINE
  5
25F
100
AcDbEntity
  8
ASSI
100
AcDbLine
 62
7
  6
CONTINUOUS
 10
135.7644860206
 20
61.8956461595
 11
135.7490168864
 21
61.910071975
  0
LINE
  5
260
100
AcDbEntity
  8
0
100
AcDbLine
 62
7
  6
CONTINUOUS
 10
136.555794145
 20
60.7156316294
 11
135.5551853429
 21
61.7162404315
  0
LINE
  5
261
100
AcDbEntity
  8
ASSI
100
AcDbLine
 62
7
  6
CONTINUOUS
 10
136.555794145
 20
60.7156316294
 11
135.5551853429
 21
61.7162404315
  0
LINE
  5
262
100
AcDbEntity
  8
0
100
AcDbLine
 62
7
  6
CONTINUOUS
 10
135.7644860206
 20
61.8956461595
 11
136.735199873
 21
60.9249323071
  0
LINE
  5
263
100
AcDbEntity
  8
ASSI
100
AcDbLine
 62
7
  6
CONTINUOUS
 10
135.7644860206
 20
61.8956461595
 11
136.735199873
 21
60.9249323071
  0
LINE
  5
264
100
AcDbEntity
  8
0
100
AcDbLine
 62
7
  6
CONTINUOUS
 10
136.7839163831
 20
62.3388942192
 11
137.1784479327
 21
61.9443626696
  0
LINE
  5
265
100
AcDbEntity
  8
ASSI
100
AcDbLine
 62
7
  6
CONTINUOUS
 10
136.7839163831
 20
62.3388942192
 11
137.1784479327
 21
61.9443626696
  0
LINE
  5
266
100
AcDbEntity
  8
0
100
AcDbLine
 62
7
  6
CONTINUOUS
 10
136.7496256885
 20
60.9094631729
 11
136.735199873
 21
60.9249323071
  0
LINE
  5
267
100
AcDbEntity
  8
ASSI
100
AcDbLine
 62
7
  6
CONTINUOUS
 10
136.7496256885
 20
60.9094631729
 11
136.735199873
 21
60.9249323071
  0
LINE
  5
268
100
AcDbEntity
  8
0
100
AcDbLine
 62
7
  6
CONTINUOUS
 10
135.5551853429
 20
149.7150228273
 11
135.5551853429
 21
61.7162404315
  0
LINE
  5
269
100
AcDbEntity
  8
ASSI
100
AcDbLine
 62
7
  6
CONTINUOUS
 10
135.5551853429
 20
149.7150228273
 11
135.5551853429
 21
61.7162404315
  0
LINE
  5
26A
100
AcDbEntity
  8
0
100
AcDbLine
 62
7
  6
CONTINUOUS
 10
135.7490168864
 20
149.5211912838
 11
135.7490168864
 21
61.910071975
  0
LINE
  5
26B
100
AcDbEntity
  8
ASSI
100
AcDbLine
 62
7
  6
CONTINUOUS
 10
135.7490168864
 20
149.5211912838
 11
135.7490168864
 21
61.910071975
  0
LINE
  5
26C
100
AcDbEntity
  8
0
100
AcDbLine
 62
7
  6
CONTINUOUS
 10
136.7839163831
 20
149.0923690396
 11
136.7839163831
 21
62.3388942192
  0
LINE
  5
26D
100
AcDbEntity
  8
ASSI
100
AcDbLine
 62
7
  6
CONTINUOUS
 10
136.7839163831
 20
149.0923690396
 11
136.7839163831
 21
62.3388942192
  0
LINE
  5
26E
100
AcDbEntity
  8
0
100
AcDbLine
 62
7
  6
CONTINUOUS
 10
136.555794145
 20
60.7156316294
 11
224.5545765408
 21
60.7156316294
  0
LINE
  5
26F
100
AcDbEntity
  8
ASSI
100
AcDbLine
 62
7
  6
CONTINUOUS
 10
136.555794145
 20
60.7156316294
 11
224.5545765408
 21
60.7156316294
  0
LINE
  5
270
100
AcDbEntity
  8
0
100
AcDbLine
 62
7
  6
CONTINUOUS
 10
136.7496256885
 20
60.9094631729
 11
224.3607449973
 21
60.9094631729
  0
LINE
  5
271
100
AcDbEntity
  8
ASSI
100
AcDbLine
 62
7
  6
CONTINUOUS
 10
136.7496256885
 20
60.9094631729
 11
224.3607449973
 21
60.9094631729
  0
LINE
  5
272
100
AcDbEntity
  8
0
100
AcDbLine
 62
7
  6
CONTINUOUS
 10
137.1784479327
 20
61.9443626696
 11
223.9319227531
 21
61.9443626696
  0
LINE
  5
273
100
AcDbEntity
  8
ASSI
100
AcDbLine
 62
7
  6
CONTINUOUS
 10
137.1784479327
 20
61.9443626696
 11
223.9319227531
 21
61.9443626696
  0
LWPOLYLINE
  5
274
100
AcDbEntity
  8
0
100
AcDbPolyline
 62
7
  6
CONTINUOUS
 90
10
 70
0
 43
0.3500000006
 10
178.6266112061
 20
162.476605957
 10
179.4837491455
 20
163.3337438965
 10
179.6980336304
 20
164.1908999634
 10
179.6980336304
 20
165.0480379028
 10
179.2694646606
 20
165.4766068726
 10
178.6266112061
 20
165.4766068726
 10
178.1980422363
 20
165.0480379028
 10
178.1980422363
 20
164.1908999634
 10
178.6266112061
 20
163.7623309937
 10
179.5551893921
 20
163.7623309937
  0
LINE
  5
275
100
AcDbEntity
  8
CURVE
100
AcDbLine
 62
250
  6
CONTINUOUS
 10
225.4144435406
 20
69.4582336294
 11
225.5016882689
 21
69.4582336294
  0
LINE
  5
276
100
AcDbEntity
  8
CURVE
100
AcDbLine
 62
250
  6
CONTINUOUS
 10
225.5016882689
 20
69.9800266294
 11
225.4144435406
 21
69.9800266294
  0
LWPOLYLINE
  5
277
100
AcDbEntity
  8
CURVE
100
AcDbPolyline
 62
250
  6
CONTINUOUS
 90
21
 70
0
 10
225.4397028357
 20
76.2929959845
 10
225.4400816159
 20
76.2930246682
 10
225.4404633252
 20
76.2927771425
 10
225.4408474408
 20
76.2922532852
 10
225.44123344
 20
76.2914529741
 10
225.4416207998
 20
76.290376087
 10
225.4420089976
 20
76.2890225015
 10
225.4423975105
 20
76.2873920955
 10
225.4427858158
 20
76.2854847467
 10
225.4431733906
 20
76.283300333
 10
225.4435597122
 20
76.2808387319
 10
225.4439442578
 20
76.2780998214
 10
225.4443265046
 20
76.2750834792
 10
225.4447059298
 20
76.271789583
 10
225.4450820106
 20
76.2682180106
 10
225.4454542242
 20
76.2643686397
 10
225.4458220479
 20
76.2602413482
 10
225.4461849588
 20
76.2558360138
 10
225.4465424342
 20
76.2511525142
 10
225.4468939513
 20
76.2461907273
 10
225.4472389872
 20
76.2409505307
  0
LINE
  5
278
100
AcDbEntity
  8
CURVE
100
AcDbLine
 62
250
  6
CONTINUOUS
 10
225.415468003
 20
75.0870764906
 11
225.5016882695
 21
75.0870764906
  0
LINE
  5
279
100
AcDbEntity
  8
CURVE
100
AcDbLine
 62
250
  6
CONTINUOUS
 10
225.4532598188
 20
75.5894679654
 11
225.4293108714
 21
75.5894679654
  0
LINE
  5
27A
100
AcDbEntity
  8
CURVE
100
AcDbLine
 62
250
  6
CONTINUOUS
 10
225.5016882695
 20
75.6067698322
 11
225.467547543
 21
75.6067698322
  0
LINE
  5
27B
100
AcDbEntity
  8
CURVE
100
AcDbLine
 62
250
  6
CONTINUOUS
 10
225.4609656385
 20
76.4285803858
 11
225.4604501291
 21
76.4285803858
  0
LINE
  5
27C
100
AcDbEntity
  8
0
100
AcDbLine
 62
7
  6
CONTINUOUS
 10
137.1784479327
 20
61.9443626696
 11
136.735199873
 21
60.9249323071
  0
LINE
  5
27D
100
AcDbEntity
  8
ASSI
100
AcDbLine
 62
7
  6
CONTINUOUS
 10
137.1784479327
 20
61.9443626696
 11
136.735199873
 21
60.9249323071
  0
LINE
  5
27E
100
AcDbEntity
  8
0
100
AcDbLine
 62
7
  6
CONTINUOUS
 10
224.3264543027
 20
149.0923690396
 11
225.3458846652
 21
149.5356170993
  0
LINE
  5
27F
100
AcDbEntity
  8
ASSI
100
AcDbLine
 62
7
  6
CONTINUOUS
 10
224.3264543027
 20
149.0923690396
 11
225.3458846652
 21
149.5356170993
  0
LINE
  5
280
100
AcDbEntity
  8
0
100
AcDbLine
 62
7
  6
CONTINUOUS
 10
224.3264543027
 20
62.3388942192
 11
225.3458846652
 21
61.8956461595
  0
LINE
  5
281
100
AcDbEntity
  8
ASSI
100
AcDbLine
 62
7
  6
CONTINUOUS
 10
224.3264543027
 20
62.3388942192
 11
225.3458846652
 21
61.8956461595
  0
LINE
  5
282
100
AcDbEntity
  8
0
100
AcDbLine
 62
7
  6
CONTINUOUS
 10
137.1784479327
 20
149.4869005892
 11
136.735199873
 21
150.5063309517
  0
LINE
  5
283
100
AcDbEntity
  8
ASSI
100
AcDbLine
 62
7
  6
CONTINUOUS
 10
137.1784479327
 20
149.4869005892
 11
136.735199873
 21
150.5063309517
  0
LWPOLYLINE
  5
284
100
AcDbEntity
  8
0
100
AcDbPolyline
 62
7
  6
CONTINUOUS
 90
13
 70
0
 43
0.3500000006
 10
180.5551896973
 20
163.3337438965
 10
180.5551896973
 20
164.6194689331
 10
180.7694741821
 20
165.0480379028
 10
181.1980431519
 20
165.4766068726
 10
181.4123276367
 20
165.4766068726
 10
181.8408966064
 20
165.0480379028
 10
182.0551810913
 20
164.6194689331
 10
182.0551810913
 20
163.3337438965
 10
181.8408966064
 20
162.9051749268
 10
181.4123276367
 20
162.476605957
 10
181.1980431519
 20
162.476605957
 10
180.7694741821
 20
162.9051749268
 10
180.5551896973
 20
163.3337438965
  0
LINE
  5
285
100
AcDbEntity
  8
0
100
AcDbLine
 62
7
  6
CONTINUOUS
 10
135.7490168864
 20
61.910071975
 11
135.5551853429
 21
61.7162404315
  0
LINE
  5
286
100
AcDbEntity
  8
ASSI
100
AcDbLine
 62
7
  6
CONTINUOUS
 10
135.7490168864
 20
61.910071975
 11
135.5551853429
 21
61.7162404315
  0
LINE
  5
287
100
AcDbEntity
  8
0
100
AcDbLine
 62
7
  6
CONTINUOUS
 10
224.3607449973
 20
150.5218000859
 11
224.5545765408
 21
150.7156316294
  0
LINE
  5
288
100
AcDbEntity
  8
ASSI
100
AcDbLine
 62
7
  6
CONTINUOUS
 10
224.3607449973
 20
150.5218000859
 11
224.5545765408
 21
150.7156316294
  0
LWPOLYLINE
  5
289
100
AcDbEntity
  8
0
100
AcDbPolyline
 62
7
  6
CONTINUOUS
 90
13
 70
0
 43
0.3500000006
 10
234.0130506592
 20
105.7156351318
 10
232.72734375
 20
105.7156351318
 10
232.2987747803
 20
105.9299196167
 10
231.8702058105
 20
106.3584885864
 10
231.8702058105
 20
106.5727730713
 10
232.2987747803
 20
107.001342041
 10
232.72734375
 20
107.2156355896
 10
234.0130506592
 20
107.2156355896
 10
234.4416196289
 20
107.001342041
 10
234.8702067261
 20
106.5727730713
 10
234.8702067261
 20
106.3584885864
 10
234.4416196289
 20
105.9299196167
 10
234.0130506592
 20
105.7156351318
  0
LINE
  5
28A
100
AcDbEntity
  8
0
100
AcDbLine
 62
7
  6
CONTINUOUS
 10
135.7490168864
 20
149.5211912838
 11
135.5551853429
 21
149.7150228273
  0
LINE
  5
28B
100
AcDbEntity
  8
ASSI
100
AcDbLine
 62
7
  6
CONTINUOUS
 10
135.7490168864
 20
149.5211912838
 11
135.5551853429
 21
149.7150228273
  0
LINE
  5
28C
100
AcDbEntity
  8
0
100
AcDbLine
 62
7
  6
CONTINUOUS
 10
224.3607449973
 20
60.9094631729
 11
224.5545765408
 21
60.7156316294
  0
LINE
  5
28D
100
AcDbEntity
  8
ASSI
100
AcDbLine
 62
7
  6
CONTINUOUS
 10
224.3607449973
 20
60.9094631729
 11
224.5545765408
 21
60.7156316294
  0
LINE
  5
28E
100
AcDbEntity
  8
0
100
AcDbLine
 62
7
  6
CONTINUOUS
 10
136.7496256885
 20
60.9094631729
 11
136.555794145
 21
60.7156316294
  0
LINE
  5
28F
100
AcDbEntity
  8
ASSI
100
AcDbLine
 62
7
  6
CONTINUOUS
 10
136.7496256885
 20
60.9094631729
 11
136.555794145
 21
60.7156316294
  0
LINE
  5
290
100
AcDbEntity
  8
0
100
AcDbLine
 62
7
  6
CONTINUOUS
 10
225.3613537994
 20
149.5211912838
 11
225.5551853429
 21
149.7150228273
  0
LINE
  5
291
100
AcDbEntity
  8
ASSI
100
AcDbLine
 62
7
  6
CONTINUOUS
 10
225.3613537994
 20
149.5211912838
 11
225.5551853429
 21
149.7150228273
  0
LINE
  5
292
100
AcDbEntity
  8
0
100
AcDbLine
 62
7
  6
CONTINUOUS
 10
136.7496256885
 20
150.5218000859
 11
136.555794145
 21
150.7156316294
  0
LINE
  5
293
100
AcDbEntity
  8
ASSI
100
AcDbLine
 62
7
  6
CONTINUOUS
 10
136.7496256885
 20
150.5218000859
 11
136.555794145
 21
150.7156316294
  0
LINE
  5
294
100
AcDbEntity
  8
0
100
AcDbLine
 62
7
  6
CONTINUOUS
 10
225.3613537994
 20
61.910071975
 11
225.5551853429
 21
61.7162404315
  0
LINE
  5
295
100
AcDbEntity
  8
ASSI
100
AcDbLine
 62
7
  6
CONTINUOUS
 10
225.3613537994
 20
61.910071975
 11
225.5551853429
 21
61.7162404315
  0
LINE
  5
296
100
AcDbEntity
  8
0
100
AcDbLine
 62
7
  6
CONTINUOUS
 10
223.9319227531
 20
149.4869005892
 11
224.3751708128
 21
150.5063309517
  0
LINE
  5
297
100
AcDbEntity
  8
ASSI
100
AcDbLine
 62
7
  6
CONTINUOUS
 10
223.9319227531
 20
149.4869005892
 11
224.3751708128
 21
150.5063309517
  0
LINE
  5
298
100
AcDbEntity
  8
0
100
AcDbLine
 62
7
  6
CONTINUOUS
 10
136.7839163831
 20
62.3388942192
 11
135.7644860206
 21
61.8956461595
  0
LINE
  5
299
100
AcDbEntity
  8
ASSI
100
AcDbLine
 62
7
  6
CONTINUOUS
 10
136.7839163831
 20
62.3388942192
 11
135.7644860206
 21
61.8956461595
  0
LINE
  5
29A
100
AcDbEntity
  8
0
100
AcDbLine
 62
7
  6
CONTINUOUS
 10
136.7839163831
 20
149.0923690396
 11
135.7644860206
 21
149.5356170993
  0
LINE
  5
29B
100
AcDbEntity
  8
ASSI
100
AcDbLine
 62
7
  6
CONTINUOUS
 10
136.7839163831
 20
149.0923690396
 11
135.7644860206
 21
149.5356170993
  0
LINE
  5
29C
100
AcDbEntity
  8
CURVE
100
AcDbLine
 62
250
  6
CONTINUOUS
 10
225.4447225184
 20
70.8727126294
 11
225.5016882689
 21
70.7601096294
  0
LINE
  5
29D
100
AcDbEntity
  8
0
100
AcDbLine
 62
7
  6
CONTINUOUS
 10
223.9319227531
 20
61.9443626696
 11
224.3751708128
 21
60.9249323071
  0
LINE
  5
29E
100
AcDbEntity
  8
ASSI
100
AcDbLine
 62
7
  6
CONTINUOUS
 10
223.9319227531
 20
61.9443626696
 11
224.3751708128
 21
60.9249323071
  0
LINE
  5
29F
100
AcDbEntity
  8
CURVE
100
AcDbLine
 62
250
  6
CONTINUOUS
 10
225.5016882689
 20
70.2609236294
 11
225.4144487406
 21
70.4866356294
  0
LWPOLYLINE
  5
2A0
100
AcDbEntity
  8
0
100
AcDbPolyline
 62
7
  6
CONTINUOUS
 90
10
 70
0
 43
0.3500000006
 10
234.8702067261
 20
103.7870566406
 10
234.0130506592
 20
104.6442036438
 10
233.1559127197
 20
104.8584881287
 10
232.2987747803
 20
104.8584881287
 10
231.8702058105
 20
104.4299191589
 10
231.8702058105
 20
103.7870566406
 10
232.2987747803
 20
103.3584876709
 10
233.1559127197
 20
103.3584876709
 10
233.5844816895
 20
103.7870566406
 10
233.5844816895
 20
104.7156348267
  0
LINE
  5
2A1
100
AcDbEntity
  8
CURVE
100
AcDbLine
 62
250
  6
CONTINUOUS
 10
225.4144487406
 20
69.2645946294
 11
225.5016882689
 21
68.4610796294
  0
LINE
  5
2A2
100
AcDbEntity
  8
CURVE
100
AcDbLine
 62
250
  6
CONTINUOUS
 10
225.462884391
 20
71.5242786294
 11
225.4144487406
 21
72.0460716294
  0
LINE
  5
2A3
100
AcDbEntity
  8
CURVE
100
AcDbLine
 62
250
  6
CONTINUOUS
 10
225.4449599746
 20
72.1784316294
 11
225.5016882689
 21
71.5580206294
  0
LINE
  5
2A4
100
AcDbEntity
  8
CURVE
100
AcDbLine
 62
250
  6
CONTINUOUS
 10
225.4384199485
 20
73.9046816294
 11
225.4707956532
 21
73.6448726294
  0
LINE
  5
2A5
100
AcDbEntity
  8
CURVE
100
AcDbLine
 62
250
  6
CONTINUOUS
 10
225.47449842
 20
68.2521076294
 11
225.4144487406
 21
68.7431586294
  0
LINE
  5
2A6
100
AcDbEntity
  8
CURVE
100
AcDbLine
 62
250
  6
CONTINUOUS
 10
225.4842721637
 20
73.5381376294
 11
225.5016882689
 21
73.3941546294
  0
LINE
  5
2A7
100
AcDbEntity
  8
CURVE
100
AcDbLine
 62
250
  6
CONTINUOUS
 10
225.5016882689
 20
72.8780236294
 11
225.4144487406
 21
73.6620996294
  0
LWPOLYLINE
  5
2A8
100
AcDbEntity
  8
CURVE
100
AcDbPolyline
 62
250
  6
CONTINUOUS
 90
36
 70
0
 10
225.4527088689
 20
76.6724679175
 10
225.4519987853
 20
76.684870012
 10
225.4512715389
 20
76.6965591015
 10
225.4505289085
 20
76.7075240756
 10
225.4497726726
 20
76.7177538243
 10
225.4490046099
 20
76.7272372373
 10
225.448226499
 20
76.7359632043
 10
225.4474401184
 20
76.7439206151
 10
225.4466477456
 20
76.7510957464
 10
225.4458493508
 20
76.7575026087
 10
225.4450453911
 20
76.7631511922
 10
225.4442363237
 20
76.7680514871
 10
225.4434226059
 20
76.7722134837
 10
225.4426046949
 20
76.7756471722
 10
225.4416651976
 20
76.7786933745
 10
225.4407220106
 20
76.7808170136
 10
225.4397763269
 20
76.7820342927
 10
225.4388293394
 20
76.7823614152
 10
225.437882241
 20
76.7818145844
 10
225.4369362246
 20
76.7804100037
 10
225.4360159857
 20
76.7782225774
 10
225.4350990274
 20
76.7752055462
 10
225.4341864673
 20
76.7713293978
 10
225.433279423
 20
76.7665646195
 10
225.4323790124
 20
76.760881699
 10
225.4315762385
 20
76.7549679652
 10
225.4307807034
 20
76.7482827921
 10
225.4299933827
 20
76.740820476
 10
225.429215252
 20
76.7325753126
 10
225.4284472867
 20
76.7235415982
 10
225.4276239843
 20
76.7128092193
 10
225.4268152547
 20
76.7011582932
 10
225.4260224675
 20
76.6886115327
 10
225.4252469925
 20
76.6751916507
 10
225.4244901991
 20
76.6609213603
 10
225.4230381362
 20
76.629920406
  0
LINE
  5
2A9
100
AcDbEntity
  8
CURVE
100
AcDbLine
 62
250
  6
CONTINUOUS
 10
225.4472389872
 20
76.2409505307
 11
225.4479075246
 21
76.2296344198
  0
LINE
  5
2AA
100
AcDbEntity
  8
CURVE
100
AcDbLine
 62
250
  6
CONTINUOUS
 10
225.4479075246
 20
76.2296344198
 11
225.448543864
 21
76.2172032035
  0
LINE
  5
2AB
100
AcDbEntity
  8
CURVE
100
AcDbLine
 62
250
  6
CONTINUOUS
 10
225.4540704335
 20
76.6455691543
 11
225.4527088689
 21
76.6724679175
  0
LINE
  5
2AC
100
AcDbEntity
  8
CURVE
100
AcDbLine
 62
250
  6
CONTINUOUS
 10
225.448543864
 20
76.2172032035
 11
225.4491438231
 21
76.203655904
  0
LINE
  5
2AD
100
AcDbEntity
  8
CURVE
100
AcDbLine
 62
250
  6
CONTINUOUS
 10
225.4552973272
 20
76.6170987992
 11
225.4540704335
 21
76.6455691543
  0
LINE
  5
2AE
100
AcDbEntity
  8
CURVE
100
AcDbLine
 62
250
  6
CONTINUOUS
 10
225.4491438231
 20
76.203655904
 11
225.4497032197
 21
76.1889915433
  0
LINE
  5
2AF
100
AcDbEntity
  8
CURVE
100
AcDbLine
 62
250
  6
CONTINUOUS
 10
225.4564031457
 20
76.587477524
 11
225.4552973272
 21
76.6170987992
  0
LINE
  5
2B0
100
AcDbEntity
  8
CURVE
100
AcDbLine
 62
250
  6
CONTINUOUS
 10
225.4497032197
 20
76.1889915433
 11
225.4502178713
 21
76.1732091437
  0
LINE
  5
2B1
100
AcDbEntity
  8
CURVE
100
AcDbLine
 62
250
  6
CONTINUOUS
 10
225.4584785104
 20
76.5223470662
 11
225.4564031457
 21
76.587477524
  0
LINE
  5
2B2
100
AcDbEntity
  8
CURVE
100
AcDbLine
 62
250
  6
CONTINUOUS
 10
225.4595709268
 20
76.4836552232
 11
225.4584785104
 21
76.5223470662
  0
LINE
  5
2B3
100
AcDbEntity
  8
CURVE
100
AcDbLine
 62
250
  6
CONTINUOUS
 10
225.4502178713
 20
76.1732091437
 11
225.4508918677
 21
76.1478585468
  0
LINE
  5
2B4
100
AcDbEntity
  8
CURVE
100
AcDbLine
 62
250
  6
CONTINUOUS
 10
225.4599190512
 20
76.4688571097
 11
225.4595709268
 21
76.4836552232
  0
LINE
  5
2B5
100
AcDbEntity
  8
CURVE
100
AcDbLine
 62
250
  6
CONTINUOUS
 10
225.4508918677
 20
76.1478585468
 11
225.4514655723
 21
76.1204035315
  0
LINE
  5
2B6
100
AcDbEntity
  8
CURVE
100
AcDbLine
 62
250
  6
CONTINUOUS
 10
225.4602025409
 20
76.4533926295
 11
225.4599190512
 21
76.4688571097
  0
LINE
  5
2B7
100
AcDbEntity
  8
CURVE
100
AcDbLine
 62
250
  6
CONTINUOUS
 10
225.4514655723
 20
76.1204035315
 11
225.4520863489
 21
76.0811215292
  0
LINE
  5
2B8
100
AcDbEntity
  8
CURVE
100
AcDbLine
 62
250
  6
CONTINUOUS
 10
225.4520863489
 20
76.0811215292
 11
225.4526534755
 21
76.0288731307
  0
LWPOLYLINE
  5
2B9
100
AcDbEntity
  8
CURVE
100
AcDbPolyline
 62
250
  6
CONTINUOUS
 90
3
 70
0
 10
225.4604501291
 20
76.4285803858
 10
225.4603955872
 20
76.437094429
 10
225.4602025409
 20
76.4533926295
  0
LINE
  5
2BA
100
AcDbEntity
  8
CURVE
100
AcDbLine
 62
250
  6
CONTINUOUS
 10
225.4526534755
 20
76.0288731307
 11
225.4531144729
 21
75.9527245115
  0
LINE
  5
2BB
100
AcDbEntity
  8
CURVE
100
AcDbLine
 62
250
  6
CONTINUOUS
 10
225.4293108714
 20
75.5894679654
 11
225.4285430184
 21
75.7788210542
  0
LINE
  5
2BC
100
AcDbEntity
  8
CURVE
100
AcDbLine
 62
250
  6
CONTINUOUS
 10
225.4134431694
 20
75.7099563579
 11
225.415468003
 21
75.0870764906
  0
LINE
  5
2BD
100
AcDbEntity
  8
0
100
AcDbLine
 62
7
  6
CONTINUOUS
 10
224.3264543027
 20
62.3388942192
 11
224.3264543027
 21
149.0923690396
  0
LINE
  5
2BE
100
AcDbEntity
  8
ASSI
100
AcDbLine
 62
7
  6
CONTINUOUS
 10
224.3264543027
 20
62.3388942192
 11
224.3264543027
 21
149.0923690396
  0
LINE
  5
2BF
100
AcDbEntity
  8
0
100
AcDbLine
 62
7
  6
CONTINUOUS
 10
225.3613537994
 20
61.910071975
 11
225.3613537994
 21
149.5211912838
  0
LINE
  5
2C0
100
AcDbEntity
  8
ASSI
100
AcDbLine
 62
7
  6
CONTINUOUS
 10
225.3613537994
 20
61.910071975
 11
225.3613537994
 21
149.5211912838
  0
LINE
  5
2C1
100
AcDbEntity
  8
CURVE
100
AcDbLine
 62
250
  6
CONTINUOUS
 10
225.4144435406
 20
69.9800266294
 11
225.4144435406
 21
69.4582336294
  0
LINE
  5
2C2
100
AcDbEntity
  8
CURVE
100
AcDbLine
 62
250
  6
CONTINUOUS
 10
225.4144487406
 20
67.2087846294
 11
225.4144487406
 21
67.7756126294
  0
LINE
  5
2C3
100
AcDbEntity
  8
CURVE
100
AcDbLine
 62
250
  6
CONTINUOUS
 10
225.4144487406
 20
68.7431586294
 11
225.4144487406
 21
69.2645946294
  0
LINE
  5
2C4
100
AcDbEntity
  8
CURVE
100
AcDbLine
 62
250
  6
CONTINUOUS
 10
225.4144487406
 20
70.4866356294
 11
225.4144487406
 21
71.0079966294
  0
LINE
  5
2C5
100
AcDbEntity
  8
CURVE
100
AcDbLine
 62
250
  6
CONTINUOUS
 10
225.4144487406
 20
72.0460716294
 11
225.4144487406
 21
72.5623346294
  0
LINE
  5
2C6
100
AcDbEntity
  8
CURVE
100
AcDbLine
 62
250
  6
CONTINUOUS
 10
225.4144487406
 20
73.6620996294
 11
225.4144487406
 21
74.1668716294
  0
LINE
  5
2C7
100
AcDbEntity
  8
CURVE
100
AcDbLine
 62
250
  6
CONTINUOUS
 10
225.4531144729
 20
75.9527245115
 11
225.4532598188
 21
75.5894679654
  0
LINE
  5
2C8
100
AcDbEntity
  8
CURVE
100
AcDbLine
 62
250
  6
CONTINUOUS
 10
225.4707956532
 20
73.6448726294
 11
225.4707956532
 21
74.1444526294
  0
LINE
  5
2C9
100
AcDbEntity
  8
CURVE
100
AcDbLine
 62
250
  6
CONTINUOUS
 10
225.4842721637
 20
74.2487326294
 11
225.4842721637
 21
73.5381376294
  0
LINE
  5
2CA
100
AcDbEntity
  8
CURVE
100
AcDbLine
 62
250
  6
CONTINUOUS
 10
225.5016882689
 20
74.9338526294
 11
225.5016882689
 21
74.3839046294
  0
LINE
  5
2CB
100
AcDbEntity
  8
CURVE
100
AcDbLine
 62
250
  6
CONTINUOUS
 10
225.5016882689
 20
73.3941546294
 11
225.5016882689
 21
72.8780236294
  0
LINE
  5
2CC
100
AcDbEntity
  8
CURVE
100
AcDbLine
 62
250
  6
CONTINUOUS
 10
225.5016882689
 20
72.7960876294
 11
225.5016882689
 21
72.2856356294
  0
LINE
  5
2CD
100
AcDbEntity
  8
CURVE
100
AcDbLine
 62
250
  6
CONTINUOUS
 10
225.5016882689
 20
71.5580206294
 11
225.5016882689
 21
71.4848386294
  0
LINE
  5
2CE
100
AcDbEntity
  8
CURVE
100
AcDbLine
 62
250
  6
CONTINUOUS
 10
225.5016882689
 20
70.7601096294
 11
225.5016882689
 21
70.2609236294
  0
LINE
  5
2CF
100
AcDbEntity
  8
CURVE
100
AcDbLine
 62
250
  6
CONTINUOUS
 10
225.5016882689
 20
68.4610796294
 11
225.5016882689
 21
68.0012496294
  0
LINE
  5
2D0
100
AcDbEntity
  8
CURVE
100
AcDbLine
 62
250
  6
CONTINUOUS
 10
225.5016882689
 20
69.4582336294
 11
225.5016882689
 21
69.9800266294
  0
LINE
  5
2D1
100
AcDbEntity
  8
CURVE
100
AcDbLine
 62
250
  6
CONTINUOUS
 10
225.5016882695
 20
75.0870764906
 11
225.5016882695
 21
75.6067698322
  0
LINE
  5
2D2
100
AcDbEntity
  8
CURVE
100
AcDbLine
 62
250
  6
CONTINUOUS
 10
225.5016882695
 20
76.4058236509
 11
225.5016882695
 21
76.9077277492
  0
LINE
  5
2D3
100
AcDbEntity
  8
0
100
AcDbLine
 62
7
  6
CONTINUOUS
 10
225.5551853429
 20
61.7162404315
 11
225.5551853429
 21
149.7150228273
  0
LINE
  5
2D4
100
AcDbEntity
  8
ASSI
100
AcDbLine
 62
7
  6
CONTINUOUS
 10
225.5551853429
 20
61.7162404315
 11
225.5551853429
 21
149.7150228273
  0
LINE
  5
2D5
100
AcDbEntity
  8
CURVE
100
AcDbLine
 62
250
  6
CONTINUOUS
 10
225.4285430184
 20
75.7788210542
 11
225.4286576575
 21
75.958546868
  0
LINE
  5
2D6
100
AcDbEntity
  8
CURVE
100
AcDbLine
 62
250
  6
CONTINUOUS
 10
225.4139806724
 20
76.0627597843
 11
225.4134431694
 21
75.7099563579
  0
LINE
  5
2D7
100
AcDbEntity
  8
CURVE
100
AcDbLine
 62
250
  6
CONTINUOUS
 10
225.467547543
 20
75.6067698322
 11
225.4676375118
 21
75.926773123
  0
LINE
  5
2D8
100
AcDbEntity
  8
CURVE
100
AcDbLine
 62
250
  6
CONTINUOUS
 10
225.4286576575
 20
75.958546868
 11
225.4290243604
 21
76.0364601465
  0
LINE
  5
2D9
100
AcDbEntity
  8
CURVE
100
AcDbLine
 62
250
  6
CONTINUOUS
 10
225.4151164297
 20
76.2523257618
 11
225.4139806724
 21
76.0627597843
  0
LINE
  5
2DA
100
AcDbEntity
  8
CURVE
100
AcDbLine
 62
250
  6
CONTINUOUS
 10
225.4676375118
 20
75.926773123
 11
225.467912272
 21
75.9665332825
  0
LINE
  5
2DB
100
AcDbEntity
  8
CURVE
100
AcDbLine
 62
250
  6
CONTINUOUS
 10
225.4163864996
 20
76.3747815151
 11
225.4151164297
 21
76.2523257618
  0
LINE
  5
2DC
100
AcDbEntity
  8
CURVE
100
AcDbLine
 62
250
  6
CONTINUOUS
 10
225.4290243604
 20
76.0364601465
 11
225.4295092379
 21
76.0834529347
  0
LINE
  5
2DD
100
AcDbEntity
  8
CURVE
100
AcDbLine
 62
250
  6
CONTINUOUS
 10
225.467912272
 20
75.9665332825
 11
225.4682700227
 21
75.9973082478
  0
LINE
  5
2DE
100
AcDbEntity
  8
CURVE
100
AcDbLine
 62
250
  6
CONTINUOUS
 10
225.4171290971
 20
76.42372734
 11
225.4163864996
 21
76.3747815151
  0
LINE
  5
2DF
100
AcDbEntity
  8
CURVE
100
AcDbLine
 62
250
  6
CONTINUOUS
 10
225.4295092379
 20
76.0834529347
 11
225.4300560278
 21
76.1196053111
  0
LINE
  5
2E0
100
AcDbEntity
  8
CURVE
100
AcDbLine
 62
250
  6
CONTINUOUS
 10
225.4614515645
 20
76.4583341445
 11
225.4609656385
 21
76.4285803858
  0
LINE
  5
2E1
100
AcDbEntity
  8
CURVE
100
AcDbLine
 62
250
  6
CONTINUOUS
 10
225.4682700227
 20
75.9973082478
 11
225.4687578721
 21
76.0267733439
  0
LINE
  5
2E2
100
AcDbEntity
  8
CURVE
100
AcDbLine
 62
250
  6
CONTINUOUS
 10
225.4180589867
 20
76.4701767611
 11
225.4171290971
 21
76.42372734
  0
LINE
  5
2E3
100
AcDbEntity
  8
CURVE
100
AcDbLine
 62
250
  6
CONTINUOUS
 10
225.4300560278
 20
76.1196053111
 11
225.4307422931
 21
76.1537457331
  0
LINE
  5
2E4
100
AcDbEntity
  8
CURVE
100
AcDbLine
 62
250
  6
CONTINUOUS
 10
225.4620478031
 20
76.4862176111
 11
225.4614515645
 21
76.4583341445
  0
LINE
  5
2E5
100
AcDbEntity
  8
CURVE
100
AcDbLine
 62
250
  6
CONTINUOUS
 10
225.4687578721
 20
76.0267733439
 11
225.469216152
 21
76.0480127393
  0
LINE
  5
2E6
100
AcDbEntity
  8
CURVE
100
AcDbLine
 62
250
  6
CONTINUOUS
 10
225.419410924
 20
76.5246420998
 11
225.4180589867
 21
76.4701767611
  0
LINE
  5
2E7
100
AcDbEntity
  8
CURVE
100
AcDbLine
 62
250
  6
CONTINUOUS
 10
225.4307422931
 20
76.1537457331
 11
225.4313475463
 21
76.1776251741
  0
LINE
  5
2E8
100
AcDbEntity
  8
CURVE
100
AcDbLine
 62
250
  6
CONTINUOUS
 10
225.469216152
 20
76.0480127393
 11
225.4697415016
 21
76.0680725006
  0
LINE
  5
2E9
100
AcDbEntity
  8
CURVE
100
AcDbLine
 62
250
  6
CONTINUOUS
 10
225.4627441195
 20
76.512292393
 11
225.4620478031
 21
76.4862176111
  0
LINE
  5
2EA
100
AcDbEntity
  8
CURVE
100
AcDbLine
 62
250
  6
CONTINUOUS
 10
225.4205161731
 20
76.5619271137
 11
225.419410924
 21
76.5246420998
  0
LINE
  5
2EB
100
AcDbEntity
  8
CURVE
100
AcDbLine
 62
250
  6
CONTINUOUS
 10
225.4697415016
 20
76.0680725006
 11
225.4703267934
 21
76.0869057572
  0
LINE
  5
2EC
100
AcDbEntity
  8
CURVE
100
AcDbLine
 62
250
  6
CONTINUOUS
 10
225.4313475463
 20
76.1776251741
 11
225.4320296567
 21
76.1997092952
  0
LINE
  5
2ED
100
AcDbEntity
  8
CURVE
100
AcDbLine
 62
250
  6
CONTINUOUS
 10
225.4635302784
 20
76.5366200977
 11
225.4627441195
 21
76.512292393
  0
LINE
  5
2EE
100
AcDbEntity
  8
CURVE
100
AcDbLine
 62
250
  6
CONTINUOUS
 10
225.4217135818
 20
76.5967792211
 11
225.4205161731
 21
76.5619271137
  0
LINE
  5
2EF
100
AcDbEntity
  8
CURVE
100
AcDbLine
 62
250
  6
CONTINUOUS
 10
225.4320296567
 20
76.1997092952
 11
225.4325253106
 21
76.2132601312
  0
LINE
  5
2F0
100
AcDbEntity
  8
CURVE
100
AcDbLine
 62
250
  6
CONTINUOUS
 10
225.4703267934
 20
76.0869057572
 11
225.4709648999
 21
76.1044656382
  0
LINE
  5
2F1
100
AcDbEntity
  8
CURVE
100
AcDbLine
 62
250
  6
CONTINUOUS
 10
225.4643960449
 20
76.5592623327
 11
225.4635302784
 21
76.5366200977
  0
LINE
  5
2F2
100
AcDbEntity
  8
CURVE
100
AcDbLine
 62
250
  6
CONTINUOUS
 10
225.4230381362
 20
76.629920406
 11
225.4217135818
 21
76.5967792211
  0
LINE
  5
2F3
100
AcDbEntity
  8
CURVE
100
AcDbLine
 62
250
  6
CONTINUOUS
 10
225.4325253106
 20
76.2132601312
 11
225.4330514219
 21
76.2258061345
  0
LINE
  5
2F4
100
AcDbEntity
  8
CURVE
100
AcDbLine
 62
250
  6
CONTINUOUS
 10
225.4709648999
 20
76.1044656382
 11
225.4716486936
 21
76.1207052729
  0
LINE
  5
2F5
100
AcDbEntity
  8
CURVE
100
AcDbLine
 62
250
  6
CONTINUOUS
 10
225.465331184
 20
76.5802807053
 11
225.4643960449
 21
76.5592623327
  0
LINE
  5
2F6
100
AcDbEntity
  8
CURVE
100
AcDbLine
 62
250
  6
CONTINUOUS
 10
225.4716486936
 20
76.1207052729
 11
225.4721264181
 21
76.1307750799
  0
LINE
  5
2F7
100
AcDbEntity
  8
CURVE
100
AcDbLine
 62
250
  6
CONTINUOUS
 10
225.4330514219
 20
76.2258061345
 11
225.433606192
 21
76.2373597616
  0
LINE
  5
2F8
100
AcDbEntity
  8
CURVE
100
AcDbLine
 62
250
  6
CONTINUOUS
 10
225.465988096
 20
76.5934212314
 11
225.465331184
 21
76.5802807053
  0
LINE
  5
2F9
100
AcDbEntity
  8
CURVE
100
AcDbLine
 62
250
  6
CONTINUOUS
 10
225.4721264181
 20
76.1307750799
 11
225.4726191683
 21
76.1402233916
  0
LINE
  5
2FA
100
AcDbEntity
  8
CURVE
100
AcDbLine
 62
250
  6
CONTINUOUS
 10
225.4666682588
 20
76.6058856761
 11
225.465988096
 21
76.5934212314
  0
LWPOLYLINE
  5
2FB
100
AcDbEntity
  8
CURVE
100
AcDbPolyline
 62
250
  6
CONTINUOUS
 90
19
 70
0
 10
225.433606192
 20
76.2373597616
 10
225.4341864668
 20
76.2478968034
 10
225.4344851828
 20
76.2527765395
 10
225.4347890922
 20
76.2573930508
 10
225.4350978007
 20
76.2617433114
 10
225.435410914
 20
76.2658242949
 10
225.4357280379
 20
76.2696329753
 10
225.4360487781
 20
76.2731663265
 10
225.4363727404
 20
76.2764213223
 10
225.4366995304
 20
76.2793949366
 10
225.4370287539
 20
76.2820841432
 10
225.4373600166
 20
76.284485916
 10
225.4376929243
 20
76.2865972289
 10
225.4380270827
 20
76.2884150557
 10
225.4383620975
 20
76.2899363704
 10
225.4386975745
 20
76.2911581468
 10
225.4390331194
 20
76.2920773586
 10
225.4393683378
 20
76.2926909799
 10
225.4397028357
 20
76.2929959845
  0
LINE
  5
2FC
100
AcDbEntity
  8
CURVE
100
AcDbLine
 62
250
  6
CONTINUOUS
 10
225.4726191683
 20
76.1402233916
 11
225.4731248325
 21
76.1490363204
  0
LINE
  5
2FD
100
AcDbEntity
  8
CURVE
100
AcDbLine
 62
250
  6
CONTINUOUS
 10
225.4673686396
 20
76.6176922934
 11
225.4666682588
 21
76.6058856761
  0
LINE
  5
2FE
100
AcDbEntity
  8
CURVE
100
AcDbLine
 62
250
  6
CONTINUOUS
 10
225.4731248325
 20
76.1490363204
 11
225.4736412987
 21
76.1571999788
  0
LINE
  5
2FF
100
AcDbEntity
  8
CURVE
100
AcDbLine
 62
250
  6
CONTINUOUS
 10
225.4680862061
 20
76.6288593374
 11
225.4673686396
 21
76.6176922934
  0
LINE
  5
300
100
AcDbEntity
  8
CURVE
100
AcDbLine
 62
250
  6
CONTINUOUS
 10
225.4688179254
 20
76.6394050621
 11
225.4680862061
 21
76.6288593374
  0
LINE
  5
301
100
AcDbEntity
  8
CURVE
100
AcDbLine
 62
250
  6
CONTINUOUS
 10
225.4736412987
 20
76.1571999788
 11
225.4741664551
 21
76.164700479
  0
LINE
  5
302
100
AcDbEntity
  8
CURVE
100
AcDbLine
 62
250
  6
CONTINUOUS
 10
225.4695607651
 20
76.6493477217
 11
225.4688179254
 21
76.6394050621
  0
LWPOLYLINE
  5
303
100
AcDbEntity
  8
CURVE
100
AcDbPolyline
 62
250
  6
CONTINUOUS
 90
4
 70
0
 10
225.4741664551
 20
76.164700479
 10
225.4746981898
 20
76.1715239334
 10
225.4749658641
 20
76.1746774286
 10
225.475234391
 20
76.1776564545
  0
LWPOLYLINE
  5
304
100
AcDbEntity
  8
CURVE
100
AcDbPolyline
 62
250
  6
CONTINUOUS
 90
3
 70
0
 10
225.4706892414
 20
76.6631708946
 10
225.4703116925
 20
76.6587055701
 10
225.4695607651
 20
76.6493477217
  0
LINE
  5
305
100
AcDbEntity
  8
0
100
AcDbLine
 62
7
  6
CONTINUOUS
 10
223.9319227531
 20
149.4869005892
 11
137.1784479327
 21
149.4869005892
  0
LINE
  5
306
100
AcDbEntity
  8
ASSI
100
AcDbLine
 62
7
  6
CONTINUOUS
 10
223.9319227531
 20
149.4869005892
 11
137.1784479327
 21
149.4869005892
  0
LINE
  5
307
100
AcDbEntity
  8
0
100
AcDbLine
 62
7
  6
CONTINUOUS
 10
224.3607449973
 20
150.5218000859
 11
136.7496256885
 21
150.5218000859
  0
LINE
  5
308
100
AcDbEntity
  8
ASSI
100
AcDbLine
 62
7
  6
CONTINUOUS
 10
224.3607449973
 20
150.5218000859
 11
136.7496256885
 21
150.5218000859
  0
LINE
  5
309
100
AcDbEntity
  8
0
100
AcDbLine
 62
7
  6
CONTINUOUS
 10
224.5545765408
 20
150.7156316294
 11
136.555794145
 21
150.7156316294
  0
LINE
  5
30A
100
AcDbEntity
  8
ASSI
100
AcDbLine
 62
7
  6
CONTINUOUS
 10
224.5545765408
 20
150.7156316294
 11
136.555794145
 21
150.7156316294
  0
LINE
  5
30B
100
AcDbEntity
  8
CURVE
100
AcDbLine
 62
250
  6
CONTINUOUS
 10
225.4714466142
 20
76.6716857527
 11
225.4706892414
 21
76.6631708946
  0
LINE
  5
30C
100
AcDbEntity
  8
CURVE
100
AcDbLine
 62
250
  6
CONTINUOUS
 10
225.5016882689
 20
71.4848386294
 11
225.4447225184
 21
70.8727126294
  0
LINE
  5
30D
100
AcDbEntity
  8
CURVE
100
AcDbLine
 62
250
  6
CONTINUOUS
 10
225.4144487406
 20
71.0079966294
 11
225.462884391
 21
71.5242786294
  0
LINE
  5
30E
100
AcDbEntity
  8
CURVE
100
AcDbLine
 62
250
  6
CONTINUOUS
 10
225.475234391
 20
76.1776564545
 11
225.4764416668
 21
76.1903393818
  0
LINE
  5
30F
100
AcDbEntity
  8
CURVE
100
AcDbLine
 62
250
  6
CONTINUOUS
 10
225.4722044932
 20
76.6796614348
 11
225.4714466142
 21
76.6716857527
  0
LINE
  5
310
100
AcDbEntity
  8
CURVE
100
AcDbLine
 62
250
  6
CONTINUOUS
 10
225.4764416668
 20
76.1903393818
 11
225.4788741831
 21
76.2142105111
  0
LINE
  5
311
100
AcDbEntity
  8
CURVE
100
AcDbLine
 62
250
  6
CONTINUOUS
 10
225.5016882689
 20
68.0012496294
 11
225.4144487406
 21
67.2087846294
  0
LINE
  5
312
100
AcDbEntity
  8
CURVE
100
AcDbLine
 62
250
  6
CONTINUOUS
 10
225.4788741831
 20
76.2142105111
 11
225.4813260715
 21
76.2364634208
  0
LINE
  5
313
100
AcDbEntity
  8
CURVE
100
AcDbLine
 62
250
  6
CONTINUOUS
 10
225.4144487406
 20
74.1668716294
 11
225.5016882689
 21
74.9338526294
  0
LWPOLYLINE
  5
314
100
AcDbEntity
  8
CURVE
100
AcDbPolyline
 62
250
  6
CONTINUOUS
 90
5
 70
0
 10
225.4746986731
 20
76.7026538165
 10
225.4740194128
 20
76.6968232282
 10
225.4733356271
 20
76.6906539338
 10
225.4729598459
 20
76.687116195
 10
225.4722044932
 20
76.6796614348
  0
LINE
  5
315
100
AcDbEntity
  8
CURVE
100
AcDbLine
 62
250
  6
CONTINUOUS
 10
225.4813260715
 20
76.2364634208
 11
225.483791835
 21
76.2575478081
  0
LINE
  5
316
100
AcDbEntity
  8
CURVE
100
AcDbLine
 62
250
  6
CONTINUOUS
 10
225.483791835
 20
76.2575478081
 11
225.5016882695
 21
76.4058236509
  0
LINE
  5
317
100
AcDbEntity
  8
CURVE
100
AcDbLine
 62
250
  6
CONTINUOUS
 10
225.4760492336
 20
76.7135985062
 11
225.4746986731
 21
76.7026538165
  0
LINE
  5
318
100
AcDbEntity
  8
CURVE
100
AcDbLine
 62
250
  6
CONTINUOUS
 10
225.4144487406
 20
67.7756126294
 11
225.47449842
 21
68.2521076294
  0
LINE
  5
319
100
AcDbEntity
  8
CURVE
100
AcDbLine
 62
250
  6
CONTINUOUS
 10
225.5016882689
 20
74.3839046294
 11
225.4842721637
 21
74.2487326294
  0
LINE
  5
31A
100
AcDbEntity
  8
CURVE
100
AcDbLine
 62
250
  6
CONTINUOUS
 10
225.4875387974
 20
76.8014833829
 11
225.4760492336
 21
76.7135985062
  0
LINE
  5
31B
100
AcDbEntity
  8
CURVE
100
AcDbLine
 62
250
  6
CONTINUOUS
 10
225.5016882695
 20
76.9077277492
 11
225.4875387974
 21
76.8014833829
  0
LINE
  5
31C
100
AcDbEntity
  8
CURVE
100
AcDbLine
 62
250
  6
CONTINUOUS
 10
225.4707956532
 20
74.1444526294
 11
225.4384199485
 21
73.9046816294
  0
LINE
  5
31D
100
AcDbEntity
  8
CURVE
100
AcDbLine
 62
250
  6
CONTINUOUS
 10
225.4144487406
 20
72.5623346294
 11
225.5016882689
 21
72.7960876294
  0
LINE
  5
31E
100
AcDbEntity
  8
CURVE
100
AcDbLine
 62
250
  6
CONTINUOUS
 10
225.5016882689
 20
72.2856356294
 11
225.4449599746
 21
72.1784316294
  0
LINE
  5
31F
100
AcDbEntity
  8
CURVE
100
AcDbLine
 62
7
  6
CONTINUOUS
 10
225.4989617673
 20
76.8870102511
 11
225.5016882695
 21
76.8897367534
  0
LINE
  5
320
100
AcDbEntity
  8
CURVE
100
AcDbLine
 62
7
  6
CONTINUOUS
 10
225.421858102
 20
76.5998958718
 11
225.4546428754
 21
76.6326806453
  0
LINE
  5
321
100
AcDbEntity
  8
CURVE
100
AcDbLine
 62
7
  6
CONTINUOUS
 10
225.4694310767
 20
76.6474688466
 11
225.5016882695
 21
76.6797260394
  0
LINE
  5
322
100
AcDbEntity
  8
CURVE
100
AcDbLine
 62
7
  6
CONTINUOUS
 10
225.4165389526
 20
76.3845660084
 11
225.5016882695
 21
76.4697153254
  0
LINE
  5
323
100
AcDbEntity
  8
CURVE
100
AcDbLine
 62
7
  6
CONTINUOUS
 10
225.4145517339
 20
76.1725680757
 11
225.4317161136
 21
76.1897324555
  0
LINE
  5
324
100
AcDbEntity
  8
CURVE
100
AcDbLine
 62
7
  6
CONTINUOUS
 10
225.4489794263
 20
76.2069957681
 11
225.4817322056
 21
76.2397485475
  0
LINE
  5
325
100
AcDbEntity
  8
CURVE
100
AcDbLine
 62
7
  6
CONTINUOUS
 10
225.4136866873
 20
75.9616923151
 11
225.4287273372
 21
75.9767329651
  0
LINE
  5
326
100
AcDbEntity
  8
CURVE
100
AcDbLine
 62
7
  6
CONTINUOUS
 10
225.4528574319
 20
76.0008630597
 11
225.4685755767
 21
76.0165812045
  0
LINE
  5
327
100
AcDbEntity
  8
CURVE
100
AcDbLine
 62
7
  6
CONTINUOUS
 10
225.4134576726
 20
75.7514525864
 11
225.4285710386
 21
75.7665659524
  0
LINE
  5
328
100
AcDbEntity
  8
CURVE
100
AcDbLine
 62
7
  6
CONTINUOUS
 10
225.4532598188
 20
75.7912547326
 11
225.467547543
 21
75.8055424568
  0
LINE
  5
329
100
AcDbEntity
  8
CURVE
100
AcDbLine
 62
7
  6
CONTINUOUS
 10
225.4136928652
 20
75.541677065
 11
225.4787856324
 21
75.6067698322
  0
LINE
  5
32A
100
AcDbEntity
  8
CURVE
100
AcDbLine
 62
7
  6
CONTINUOUS
 10
225.414364553
 20
75.3323380387
 11
225.5016882695
 21
75.4196617553
  0
LINE
  5
32B
100
AcDbEntity
  8
CURVE
100
AcDbLine
 62
7
  6
CONTINUOUS
 10
225.4152938467
 20
75.1232566185
 11
225.5016882695
 21
75.2096510413
  0
LINE
  5
32C
100
AcDbEntity
  8
CURVE
100
AcDbLine
 62
7
  6
CONTINUOUS
 10
225.483178367
 20
74.7711197108
 11
225.5016882689
 21
74.7896296127
  0
LINE
  5
32D
100
AcDbEntity
  8
CURVE
100
AcDbLine
 62
7
  6
CONTINUOUS
 10
225.4562251262
 20
74.5341557559
 11
225.5016882689
 21
74.5796188987
  0
LINE
  5
32E
100
AcDbEntity
  8
CURVE
100
AcDbLine
 62
7
  6
CONTINUOUS
 10
225.4292718853
 20
74.297191801
 11
225.4995738237
 21
74.3674937395
  0
LINE
  5
32F
100
AcDbEntity
  8
CURVE
100
AcDbLine
 62
7
  6
CONTINUOUS
 10
225.4144487406
 20
74.0723579424
 11
225.468337327
 21
74.1262465287
  0
LINE
  5
330
100
AcDbEntity
  8
CURVE
100
AcDbLine
 62
7
  6
CONTINUOUS
 10
225.4707956532
 20
74.128704855
 11
225.4842721637
 21
74.1421813654
  0
LINE
  5
331
100
AcDbEntity
  8
CURVE
100
AcDbLine
 62
7
  6
CONTINUOUS
 10
225.4144487406
 20
73.8623472283
 11
225.4404546934
 21
73.8883531811
  0
LINE
  5
332
100
AcDbEntity
  8
CURVE
100
AcDbLine
 62
7
  6
CONTINUOUS
 10
225.4707956532
 20
73.9186941409
 11
225.4842721637
 21
73.9321706514
  0
LINE
  5
333
100
AcDbEntity
  8
CURVE
100
AcDbLine
 62
7
  6
CONTINUOUS
 10
225.415426262
 20
73.6533140357
 11
225.4637250588
 21
73.7016128325
  0
LINE
  5
334
100
AcDbEntity
  8
CURVE
100
AcDbLine
 62
7
  6
CONTINUOUS
 10
225.4707956532
 20
73.7086834269
 11
225.4842721637
 21
73.7221599374
  0
LINE
  5
335
100
AcDbEntity
  8
CURVE
100
AcDbLine
 62
7
  6
CONTINUOUS
 10
225.4364533584
 20
73.4643304181
 11
225.4870764965
 21
73.5149535562
  0
LINE
  5
336
100
AcDbEntity
  8
CURVE
100
AcDbLine
 62
7
  6
CONTINUOUS
 10
225.4574804548
 20
73.2753468005
 11
225.5016882689
 21
73.3195546146
  0
LINE
  5
337
100
AcDbEntity
  8
CURVE
100
AcDbLine
 62
7
  6
CONTINUOUS
 10
225.4785075513
 20
73.0863631829
 11
225.5016882689
 21
73.1095439006
  0
LINE
  5
338
100
AcDbEntity
  8
CURVE
100
AcDbLine
 62
7
  6
CONTINUOUS
 10
225.4995346477
 20
72.8973795653
 11
225.5016882689
 21
72.8995331866
  0
LINE
  5
339
100
AcDbEntity
  8
CURVE
100
AcDbLine
 62
7
  6
CONTINUOUS
 10
225.4382354416
 20
72.6260696453
 11
225.5016882689
 21
72.6895224726
  0
LINE
  5
33A
100
AcDbEntity
  8
CURVE
100
AcDbLine
 62
7
  6
CONTINUOUS
 10
225.4144487406
 20
72.3922722303
 11
225.5016882689
 21
72.4795117585
  0
LINE
  5
33B
100
AcDbEntity
  8
CURVE
100
AcDbLine
 62
7
  6
CONTINUOUS
 10
225.4144487406
 20
72.1822615162
 11
225.4835550409
 21
72.2513678165
  0
LINE
  5
33C
100
AcDbEntity
  8
CURVE
100
AcDbLine
 62
7
  6
CONTINUOUS
 10
225.4207191372
 20
71.9785211988
 11
225.4596769412
 21
72.0174790028
  0
LINE
  5
33D
100
AcDbEntity
  8
0
100
AcDbLine
 62
7
  6
CONTINUOUS
 10
224.3751708128
 20
60.9249323071
 11
224.3607449973
 21
60.9094631729
  0
LINE
  5
33E
100
AcDbEntity
  8
ASSI
100
AcDbLine
 62
7
  6
CONTINUOUS
 10
224.3751708128
 20
60.9249323071
 11
224.3607449973
 21
60.9094631729
  0
LINE
  5
33F
100
AcDbEntity
  8
CURVE
100
AcDbLine
 62
7
  6
CONTINUOUS
 10
225.4385576052
 20
71.7863489528
 11
225.4772708834
 21
71.825062231
  0
LINE
  5
340
100
AcDbEntity
  8
CURVE
100
AcDbLine
 62
7
  6
CONTINUOUS
 10
225.4563960732
 20
71.5941767067
 11
225.4948648256
 21
71.6326454592
  0
LINE
  5
341
100
AcDbEntity
  8
CURVE
100
AcDbLine
 62
7
  6
CONTINUOUS
 10
225.449050403
 20
71.3768203226
 11
225.4960056063
 21
71.4237755259
  0
LINE
  5
342
100
AcDbEntity
  8
CURVE
100
AcDbLine
 62
7
  6
CONTINUOUS
 10
225.4273082102
 20
71.1450674158
 11
225.4744561205
 21
71.192215326
  0
LINE
  5
343
100
AcDbEntity
  8
CURVE
100
AcDbLine
 62
7
  6
CONTINUOUS
 10
225.4144487406
 20
70.9221972322
 11
225.4529066347
 21
70.9606551262
  0
LINE
  5
344
100
AcDbEntity
  8
CURVE
100
AcDbLine
 62
7
  6
CONTINUOUS
 10
225.4144487406
 20
70.7121865182
 11
225.4884801206
 21
70.7862178981
  0
LINE
  5
345
100
AcDbEntity
  8
CURVE
100
AcDbLine
 62
7
  6
CONTINUOUS
 10
225.4144487406
 20
70.5021758041
 11
225.5016882689
 21
70.5894153324
  0
LINE
  5
346
100
AcDbEntity
  8
CURVE
100
AcDbLine
 62
7
  6
CONTINUOUS
 10
225.4686600692
 20
70.3463764187
 11
225.5016882689
 21
70.3794046184
  0
LINE
  5
347
100
AcDbEntity
  8
CURVE
100
AcDbLine
 62
7
  6
CONTINUOUS
 10
225.4144435406
 20
69.8721384621
 11
225.5016882689
 21
69.9593831904
  0
LINE
  5
348
100
AcDbEntity
  8
CURVE
100
AcDbLine
 62
7
  6
CONTINUOUS
 10
225.4144435406
 20
69.6621277481
 11
225.5016882689
 21
69.7493724764
  0
LINE
  5
349
100
AcDbEntity
  8
CURVE
100
AcDbLine
 62
7
  6
CONTINUOUS
 10
225.420560136
 20
69.4582336294
 11
225.5016882689
 21
69.5393617624
  0
LINE
  5
34A
100
AcDbEntity
  8
CURVE
100
AcDbLine
 62
7
  6
CONTINUOUS
 10
225.4144487406
 20
69.2421115201
 11
225.4166507119
 21
69.2443134913
  0
LINE
  5
34B
100
AcDbEntity
  8
CURVE
100
AcDbLine
 62
7
  6
CONTINUOUS
 10
225.4144487406
 20
69.0321008061
 11
225.4372189325
 21
69.0548709979
  0
LINE
  5
34C
100
AcDbEntity
  8
CURVE
100
AcDbLine
 62
7
  6
CONTINUOUS
 10
225.4144487406
 20
68.822090092
 11
225.457787153
 21
68.8654285045
  0
LINE
  5
34D
100
AcDbEntity
  8
CURVE
100
AcDbLine
 62
7
  6
CONTINUOUS
 10
225.428731552
 20
68.6263621893
 11
225.4783553736
 21
68.675986011
  0
LINE
  5
34E
100
AcDbEntity
  8
CURVE
100
AcDbLine
 62
7
  6
CONTINUOUS
 10
225.451614986
 20
68.4392349094
 11
225.4989235942
 21
68.4865435176
  0
LINE
  5
34F
100
AcDbEntity
  8
CURVE
100
AcDbLine
 62
7
  6
CONTINUOUS
 10
225.47449842
 20
68.2521076294
 11
225.5016882689
 21
68.2792974783
  0
LINE
  5
350
100
AcDbEntity
  8
CURVE
100
AcDbLine
 62
7
  6
CONTINUOUS
 10
225.4442157504
 20
68.0118142458
 11
225.5016882689
 21
68.0692867643
  0
LINE
  5
351
100
AcDbEntity
  8
CURVE
100
AcDbLine
 62
7
  6
CONTINUOUS
 10
225.4144487406
 20
67.772036522
 11
225.4841255056
 21
67.8417132869
  0
LINE
  5
352
100
AcDbEntity
  8
CURVE
100
AcDbLine
 62
7
  6
CONTINUOUS
 10
225.4144487406
 20
67.562025808
 11
225.4581462459
 21
67.6057233133
  0
LINE
  5
353
100
AcDbEntity
  8
CURVE
100
AcDbLine
 62
7
  6
CONTINUOUS
 10
225.4144487406
 20
67.352015094
 11
225.4321669863
 21
67.3697333396
  0
LINE
  5
354
100
AcDbEntity
  8
0
100
AcDbLine
 62
7
  6
CONTINUOUS
 10
223.9319227531
 20
61.9443626696
 11
224.3264543027
 21
62.3388942192
  0
LINE
  5
355
100
AcDbEntity
  8
ASSI
100
AcDbLine
 62
7
  6
CONTINUOUS
 10
223.9319227531
 20
61.9443626696
 11
224.3264543027
 21
62.3388942192
  0
LINE
  5
356
100
AcDbEntity
  8
0
100
AcDbLine
 62
7
  6
CONTINUOUS
 10
224.3751708128
 20
60.9249323071
 11
225.3458846652
 21
61.8956461595
  0
LINE
  5
357
100
AcDbEntity
  8
ASSI
100
AcDbLine
 62
7
  6
CONTINUOUS
 10
224.3751708128
 20
60.9249323071
 11
225.3458846652
 21
61.8956461595
  0
LINE
  5
358
100
AcDbEntity
  8
0
100
AcDbLine
 62
7
  6
CONTINUOUS
 10
225.5551853429
 20
61.7162404315
 11
224.5545765408
 21
60.7156316294
  0
LINE
  5
359
100
AcDbEntity
  8
ASSI
100
AcDbLine
 62
7
  6
CONTINUOUS
 10
225.5551853429
 20
61.7162404315
 11
224.5545765408
 21
60.7156316294
  0
LINE
  5
35A
100
AcDbEntity
  8
0
100
AcDbLine
 62
7
  6
CONTINUOUS
 10
225.3613537994
 20
61.910071975
 11
225.3458846652
 21
61.8956461595
  0
LINE
  5
35B
100
AcDbEntity
  8
ASSI
100
AcDbLine
 62
7
  6
CONTINUOUS
 10
225.3613537994
 20
61.910071975
 11
225.3458846652
 21
61.8956461595
  0
LINE
  5
35C
100
AcDbEntity
  8
0
100
AcDbLine
 62
7
  6
CONTINUOUS
 10
225.3458846652
 20
149.5356170993
 11
225.3613537994
 21
149.5211912838
  0
LINE
  5
35D
100
AcDbEntity
  8
ASSI
100
AcDbLine
 62
7
  6
CONTINUOUS
 10
225.3458846652
 20
149.5356170993
 11
225.3613537994
 21
149.5211912838
  0
LINE
  5
35E
100
AcDbEntity
  8
0
100
AcDbLine
 62
7
  6
CONTINUOUS
 10
224.3264543027
 20
149.0923690396
 11
223.9319227531
 21
149.4869005892
  0
LINE
  5
35F
100
AcDbEntity
  8
ASSI
100
AcDbLine
 62
7
  6
CONTINUOUS
 10
224.3264543027
 20
149.0923690396
 11
223.9319227531
 21
149.4869005892
  0
LINE
  5
360
100
AcDbEntity
  8
0
100
AcDbLine
 62
7
  6
CONTINUOUS
 10
225.3458846652
 20
149.5356170993
 11
224.3751708128
 21
150.5063309517
  0
LINE
  5
361
100
AcDbEntity
  8
ASSI
100
AcDbLine
 62
7
  6
CONTINUOUS
 10
225.3458846652
 20
149.5356170993
 11
224.3751708128
 21
150.5063309517
  0
LINE
  5
362
100
AcDbEntity
  8
0
100
AcDbLine
 62
7
  6
CONTINUOUS
 10
224.5545765408
 20
150.7156316294
 11
225.5551853429
 21
149.7150228273
  0
LINE
  5
363
100
AcDbEntity
  8
ASSI
100
AcDbLine
 62
7
  6
CONTINUOUS
 10
224.5545765408
 20
150.7156316294
 11
225.5551853429
 21
149.7150228273
  0
LINE
  5
364
100
AcDbEntity
  8
0
100
AcDbLine
 62
7
  6
CONTINUOUS
 10
224.3607449973
 20
150.5218000859
 11
224.3751708128
 21
150.5063309517
  0
LINE
  5
365
100
AcDbEntity
  8
ASSI
100
AcDbLine
 62
7
  6
CONTINUOUS
 10
224.3607449973
 20
150.5218000859
 11
224.3751708128
 21
150.5063309517
  0
LWPOLYLINE
  5
366
100
AcDbEntity
  8
0
100
AcDbPolyline
 62
7
  6
CONTINUOUS
 90
3
 70
0
 43
0.3500000006
 10
70.7983130951
 20
169.5841582031
 10
71.6554555664
 20
170.44131427
 10
71.6554555664
 20
167.4413133545
  0
LWPOLYLINE
  5
367
100
AcDbEntity
  8
0
100
AcDbPolyline
 62
7
  6
CONTINUOUS
 90
3
 70
0
 43
0.3500000006
 10
76.5840259094
 20
169.5841582031
 10
77.4411638489
 20
170.44131427
 10
77.4411638489
 20
167.4413133545
  0
LWPOLYLINE
  5
368
100
AcDbEntity
  8
0
100
AcDbPolyline
 62
7
  6
CONTINUOUS
 90
3
 70
0
 43
0.3500000006
 10
75.1284195557
 20
162.4089362183
 10
75.985562027
 20
163.2660922852
 10
75.985562027
 20
160.2660913696
  0
LINE
  5
369
100
AcDbEntity
  8
0
100
AcDbLine
 62
7
  6
CONTINUOUS
 10
83.8410617433
 20
60.9094631729
 11
89.3916709163
 21
60.7156316294
  0
LINE
  5
36A
100
AcDbEntity
  8
ASSI
100
AcDbLine
 62
7
  6
CONTINUOUS
 10
83.8410617433
 20
60.9094631729
 11
89.3916709163
 21
60.7156316294
  0
LINE
  5
36B
100
AcDbEntity
  8
0
100
AcDbLine
 62
7
  6
CONTINUOUS
 10
83.8410617433
 20
61.910071975
 11
89.3916709163
 21
61.7162404315
  0
LINE
  5
36C
100
AcDbEntity
  8
ASSI
100
AcDbLine
 62
7
  6
CONTINUOUS
 10
83.8410617433
 20
61.910071975
 11
89.3916709163
 21
61.7162404315
  0
LINE
  5
36D
100
AcDbEntity
  8
0
100
AcDbLine
 62
7
  6
CONTINUOUS
 10
89.3916709163
 20
62.9575877166
 11
89.9916709163
 21
62.9156316294
  0
LINE
  5
36E
100
AcDbEntity
  8
0
100
AcDbLine
 62
7
  6
CONTINUOUS
 10
82.8416709163
 20
149.0923690396
 11
83.8261233741
 21
149.5356170993
  0
LINE
  5
36F
100
AcDbEntity
  8
ASSI
100
AcDbLine
 62
7
  6
CONTINUOUS
 10
82.8416709163
 20
149.0923690396
 11
83.8261233741
 21
149.5356170993
  0
LINE
  5
370
100
AcDbEntity
  8
0
100
AcDbLine
 62
250
  6
CONTINUOUS
 10
89.3916709163
 20
64.2544209819
 11
89.9916709163
 21
64.2124648947
  0
LINE
  5
371
100
AcDbEntity
  8
0
100
AcDbLine
 62
7
  6
CONTINUOUS
 10
82.8416709163
 20
62.3388942192
 11
83.8261233741
 21
61.8956461595
  0
LINE
  5
372
100
AcDbEntity
  8
ASSI
100
AcDbLine
 62
7
  6
CONTINUOUS
 10
82.8416709163
 20
62.3388942192
 11
83.8261233741
 21
61.8956461595
  0
LINE
  5
373
100
AcDbEntity
  8
CURVE
100
AcDbLine
 62
250
  6
CONTINUOUS
 10
85.3615019278
 20
67.7756126294
 11
87.0810997567
 21
68.2521076294
  0
LINE
  5
374
100
AcDbEntity
  8
CURVE
100
AcDbLine
 62
250
  6
CONTINUOUS
 10
85.3613530185
 20
69.4582336294
 11
87.8597151561
 21
69.4582336294
  0
LINE
  5
375
100
AcDbEntity
  8
CURVE
100
AcDbLine
 62
250
  6
CONTINUOUS
 10
87.0810997567
 20
68.2521076294
 11
85.3615019278
 21
68.7431586294
  0
LINE
  5
376
100
AcDbEntity
  8
0
100
AcDbLine
 62
7
  6
CONTINUOUS
 10
82.8416709163
 20
149.4869005892
 11
83.8410617433
 21
150.5218000859
  0
LINE
  5
377
100
AcDbEntity
  8
ASSI
100
AcDbLine
 62
7
  6
CONTINUOUS
 10
82.8416709163
 20
149.4869005892
 11
83.8410617433
 21
150.5218000859
  0
LINE
  5
378
100
AcDbEntity
  8
CURVE
100
AcDbLine
 62
250
  6
CONTINUOUS
 10
87.8597151561
 20
72.2856356294
 11
86.2352293522
 21
72.1784316294
  0
LINE
  5
379
100
AcDbEntity
  8
CURVE
100
AcDbLine
 62
250
  6
CONTINUOUS
 10
87.8597151561
 20
69.9800266294
 11
85.3613530185
 21
69.9800266294
  0
LINE
  5
37A
100
AcDbEntity
  8
CURVE
100
AcDbLine
 62
250
  6
CONTINUOUS
 10
86.228429497
 20
70.8727126294
 11
87.8597151561
 21
70.7601096294
  0
LINE
  5
37B
100
AcDbEntity
  8
CURVE
100
AcDbLine
 62
250
  6
CONTINUOUS
 10
87.8597151561
 20
70.2609236294
 11
85.3615019278
 21
70.4866356294
  0
LINE
  5
37C
100
AcDbEntity
  8
CURVE
100
AcDbLine
 62
250
  6
CONTINUOUS
 10
85.3615019278
 20
69.2645946294
 11
87.8597151561
 21
68.4610796294
  0
LINE
  5
37D
100
AcDbEntity
  8
0
100
AcDbLine
 62
7
  6
CONTINUOUS
 10
82.8416709163
 20
61.9443626696
 11
83.8410617433
 21
60.9094631729
  0
LINE
  5
37E
100
AcDbEntity
  8
ASSI
100
AcDbLine
 62
7
  6
CONTINUOUS
 10
82.8416709163
 20
61.9443626696
 11
83.8410617433
 21
60.9094631729
  0
LWPOLYLINE
  5
37F
100
AcDbEntity
  8
0
100
AcDbPolyline
 62
7
  6
CONTINUOUS
 90
3
 70
0
 43
0.3500000006
 10
75.5840256042
 20
167.7270199585
 10
75.5125989532
 20
167.5127354736
 10
75.3697411194
 20
167.2270288696
  0
LWPOLYLINE
  5
380
100
AcDbEntity
  8
0
100
AcDbPolyline
 62
7
  6
CONTINUOUS
 90
3
 70
0
 43
0.3500000006
 10
74.1284192505
 20
160.5517979736
 10
74.0569880676
 20
160.3375134888
 10
73.9141302338
 20
160.0518068848
  0
LINE
  5
381
100
AcDbEntity
  8
CURVE
100
AcDbLine
 62
250
  6
CONTINUOUS
 10
87.8597151561
 20
74.3839046294
 11
87.3609831554
 21
74.2487326294
  0
LINE
  5
382
100
AcDbEntity
  8
CURVE
100
AcDbLine
 62
250
  6
CONTINUOUS
 10
86.9750663887
 20
74.1444526294
 11
86.0479475088
 21
73.9046816294
  0
LINE
  5
383
100
AcDbEntity
  8
CURVE
100
AcDbLine
 62
250
  6
CONTINUOUS
 10
85.3615019278
 20
72.5623346294
 11
87.8597151561
 21
72.7960876294
  0
LINE
  5
384
100
AcDbEntity
  8
CURVE
100
AcDbLine
 62
250
  6
CONTINUOUS
 10
85.3906897839
 20
75.0870764906
 11
87.8597151726
 21
75.0870764906
  0
LINE
  5
385
100
AcDbEntity
  8
CURVE
100
AcDbLine
 62
250
  6
CONTINUOUS
 10
86.472905791
 20
75.5894679654
 11
85.7870976691
 21
75.5894679654
  0
LINE
  5
386
100
AcDbEntity
  8
CURVE
100
AcDbLine
 62
250
  6
CONTINUOUS
 10
87.8597151726
 20
75.6067698322
 11
86.8820526819
 21
75.6067698322
  0
LINE
  5
387
100
AcDbEntity
  8
CURVE
100
AcDbLine
 62
250
  6
CONTINUOUS
 10
86.0479475088
 20
73.9046816294
 11
86.9750663887
 21
73.6448726294
  0
LINE
  5
388
100
AcDbEntity
  8
CURVE
100
AcDbLine
 62
250
  6
CONTINUOUS
 10
87.3609831554
 20
73.5381376294
 11
87.8597151561
 21
73.3941546294
  0
LINE
  5
389
100
AcDbEntity
  8
CURVE
100
AcDbLine
 62
250
  6
CONTINUOUS
 10
87.8597151561
 20
72.8780236294
 11
85.3615019278
 21
73.6620996294
  0
LINE
  5
38A
100
AcDbEntity
  8
CURVE
100
AcDbLine
 62
250
  6
CONTINUOUS
 10
86.7485174803
 20
71.5242786294
 11
85.3615019278
 21
72.0460716294
  0
LINE
  5
38B
100
AcDbEntity
  8
CURVE
100
AcDbLine
 62
250
  6
CONTINUOUS
 10
86.2352293522
 20
72.1784316294
 11
87.8597151561
 21
71.5580206294
  0
LWPOLYLINE
  5
38C
100
AcDbEntity
  8
CURVE
100
AcDbPolyline
 62
250
  6
CONTINUOUS
 90
4
 70
0
 10
87.4180784845
 20
76.27791337
 10
87.4890111299
 20
76.2980098035
 10
87.5244591986
 20
76.3080976275
 10
87.8597151726
 20
76.4058236509
  0
LWPOLYLINE
  5
38D
100
AcDbEntity
  8
CURVE
100
AcDbPolyline
 62
250
  6
CONTINUOUS
 90
45
 70
0
 10
87.125509247
 20
76.7135985062
 10
87.1061963394
 20
76.7082206066
 10
87.0868342543
 20
76.7026538165
 10
87.0673827848
 20
76.6968232282
 10
87.0478017241
 20
76.6906539338
 10
87.0370407574
 20
76.687116195
 10
87.0262399934
 20
76.6834527893
 10
87.0154102876
 20
76.6796614348
 10
87.0045624951
 20
76.6757398499
 10
86.9937074713
 20
76.6716857527
 10
86.9828560715
 20
76.6674968615
 10
86.9720191511
 20
76.6631708946
 10
86.9612075652
 20
76.6587055701
 10
86.9504321692
 20
76.6540986064
 10
86.9397038184
 20
76.6493477217
 10
86.9290333681
 20
76.6444506342
 10
86.9184316737
 20
76.6394050621
 10
86.9079095903
 20
76.6342087238
 10
86.8974779733
 20
76.6288593374
 10
86.8871476779
 20
76.6233546212
 10
86.8769295596
 20
76.6176922934
 10
86.8668344736
 20
76.6118700723
 10
86.8568732752
 20
76.6058856761
 10
86.8470568197
 20
76.599736823
 10
86.8373959623
 20
76.5934212314
 10
86.8279015585
 20
76.5869366194
 10
86.8185844635
 20
76.5802807053
 10
86.8094555325
 20
76.5734512073
 10
86.8005256209
 20
76.5664458437
 10
86.7918055841
 20
76.5592623327
 10
86.7833062772
 20
76.5518983925
 10
86.7750385556
 20
76.5443517415
 10
86.7670132746
 20
76.5366200977
 10
86.7592412895
 20
76.5287011796
 10
86.7517334556
 20
76.5205927053
 10
86.7445006282
 20
76.512292393
 10
86.7375536626
 20
76.5037979611
 10
86.7309034141
 20
76.4951071277
 10
86.7245607379
 20
76.4862176111
 10
86.7185364895
 20
76.4771271295
 10
86.712841524
 20
76.4678334013
 10
86.7074866969
 20
76.4583341445
 10
86.7024828633
 20
76.4486270775
 10
86.6978408786
 20
76.4387099185
 10
86.6935715981
 20
76.4285803858
  0
LINE
  5
38E
100
AcDbEntity
  8
CURVE
100
AcDbLine
 62
250
  6
CONTINUOUS
 10
87.2737920435
 20
76.7537184875
 11
87.125509247
 21
76.7135985062
  0
LINE
  5
38F
100
AcDbEntity
  8
CURVE
100
AcDbLine
 62
250
  6
CONTINUOUS
 10
87.8597151726
 20
76.9077277492
 11
87.7705244459
 21
76.8839212722
  0
LINE
  5
390
100
AcDbEntity
  8
CURVE
100
AcDbLine
 62
250
  6
CONTINUOUS
 10
87.4545273069
 20
76.8014833829
 11
87.2737920435
 21
76.7537184875
  0
LINE
  5
391
100
AcDbEntity
  8
CURVE
100
AcDbLine
 62
250
  6
CONTINUOUS
 10
87.7705244459
 20
76.8839212722
 11
87.4545273069
 21
76.8014833829
  0
LWPOLYLINE
  5
392
100
AcDbEntity
  8
CURVE
100
AcDbPolyline
 62
250
  6
CONTINUOUS
 90
59
 70
0
 10
86.0846845904
 20
76.2929959845
 10
86.0955314367
 20
76.2930246682
 10
86.1064621611
 20
76.2927771425
 10
86.117461793
 20
76.2922532852
 10
86.1285153616
 20
76.2914529741
 10
86.1396078961
 20
76.290376087
 10
86.1507244258
 20
76.2890225015
 10
86.1618499801
 20
76.2873920955
 10
86.1729695882
 20
76.2854847467
 10
86.1840682793
 20
76.283300333
 10
86.1951310827
 20
76.2808387319
 10
86.2061430277
 20
76.2780998214
 10
86.2170891435
 20
76.2750834792
 10
86.2279544595
 20
76.271789583
 10
86.2387240049
 20
76.2682180106
 10
86.249382809
 20
76.2643686397
 10
86.259915901
 20
76.2602413482
 10
86.2703083102
 20
76.2558360138
 10
86.2805450658
 20
76.2511525142
 10
86.2906111973
 20
76.2461907273
 10
86.3004917337
 20
76.2409505307
 10
86.3101717045
 20
76.2354318023
 10
86.3196361388
 20
76.2296344198
 10
86.3288700659
 20
76.2235582609
 10
86.3378585152
 20
76.2172032035
 10
86.3465865158
 20
76.2105691253
 10
86.355039097
 20
76.203655904
 10
86.3632012882
 20
76.1964634174
 10
86.3710581186
 20
76.1889915433
 10
86.3785946174
 20
76.1812401595
 10
86.3857958139
 20
76.1732091437
 10
86.3925606148
 20
76.1650141341
 10
86.3989917684
 20
76.1565596621
 10
86.405096544
 20
76.1478585468
 10
86.4108822109
 20
76.1389236072
 10
86.4163560383
 20
76.1297676624
 10
86.4215252956
 20
76.1204035315
 10
86.426397252
 20
76.1108440337
 10
86.430979177
 20
76.1011019879
 10
86.4352783398
 20
76.0911902134
 10
86.4393020097
 20
76.0811215292
 10
86.443057456
 20
76.0709087543
 10
86.446551948
 20
76.060564708
 10
86.449792755
 20
76.0501022092
 10
86.4527871464
 20
76.0395340771
 10
86.4555423914
 20
76.0288731307
 10
86.4580657593
 20
76.0181321892
 10
86.4603645195
 20
76.0073240717
 10
86.4624459412
 20
75.9964615972
 10
86.4643172938
 20
75.9855575848
 10
86.4659858465
 20
75.9746248537
 10
86.4674588687
 20
75.9636762229
 10
86.4687436297
 20
75.9527245115
 10
86.4698473988
 20
75.9417825386
 10
86.4707774452
 20
75.9308631233
 10
86.4715410384
 20
75.9199790847
 10
86.4721454475
 20
75.9091432418
 10
86.4725979419
 20
75.8983684139
 10
86.472905791
 20
75.8876674199
  0
LINE
  5
393
100
AcDbEntity
  8
0
100
AcDbLine
 62
7
  6
CONTINUOUS
 10
90.9175080673
 20
78.5655021907
 11
89.9916709163
 21
78.5638862984
  0
LINE
  5
394
100
AcDbEntity
  8
0
100
AcDbLine
 62
250
  6
CONTINUOUS
 10
90.9174435
 20
78.7879523855
 11
89.9916709163
 21
78.787534191
  0
LINE
  5
395
100
AcDbEntity
  8
CURVE
100
AcDbLine
 62
250
  6
CONTINUOUS
 10
86.6935715981
 20
76.4285803858
 11
86.6788093385
 21
76.4285803858
  0
LINE
  5
396
100
AcDbEntity
  8
0
100
AcDbLine
 62
7
  6
CONTINUOUS
 10
92.4417201485
 20
79.3740677691
 11
89.9916709163
 21
79.3598137996
  0
LINE
  5
397
100
AcDbEntity
  8
0
100
AcDbLine
 62
250
  6
CONTINUOUS
 10
92.4417201485
 20
79.4619342477
 11
89.9916709163
 21
79.4476802782
  0
LINE
  5
398
100
AcDbEntity
  8
0
100
AcDbLine
 62
7
  6
CONTINUOUS
 10
90.9417952952
 20
80.5156316294
 11
89.9916709163
 21
80.5156316294
  0
LINE
  5
399
100
AcDbEntity
  8
0
100
AcDbLine
 62
7
  6
CONTINUOUS
 10
89.9916709163
 20
80.6656316294
 11
90.1416709163
 21
80.6656316294
  0
LINE
  5
39A
100
AcDbEntity
  8
0
100
AcDbLine
 62
7
  6
CONTINUOUS
 10
90.4416709163
 20
80.6656316294
 11
90.6416709163
 21
80.6656316294
  0
LINE
  5
39B
100
AcDbEntity
  8
0
100
AcDbLine
 62
7
  6
CONTINUOUS
 10
89.9916709163
 20
79.9598117549
 11
92.8021381075
 21
79.8356449618
  0
LINE
  5
39C
100
AcDbEntity
  8
0
100
AcDbLine
 62
7
  6
CONTINUOUS
 10
91.0412990142
 20
80.5106688196
 11
92.9916709163
 21
80.3156316294
  0
LWPOLYLINE
  5
39D
100
AcDbEntity
  8
0
100
AcDbPolyline
 62
250
  6
CONTINUOUS
 90
4
 70
0
 10
92.4942854722
 20
132.0097284952
 10
92.4771084001
 20
131.9986257459
 10
92.4595293788
 20
131.985119652
 10
92.4417201485
 20
131.9693290111
  0
LWPOLYLINE
  5
39E
100
AcDbEntity
  8
0
100
AcDbPolyline
 62
250
  6
CONTINUOUS
 90
4
 70
0
 10
92.4942021408
 20
79.4215833878
 10
92.4770193848
 20
79.4327005561
 10
92.4594679073
 20
79.446194502
 10
92.4417201485
 20
79.4619342477
  0
LWPOLYLINE
  5
39F
100
AcDbEntity
  8
0
100
AcDbPolyline
 62
7
  6
CONTINUOUS
 90
4
 70
0
 43
0.3500000006
 10
71.0569871521
 20
162.6232388306
 10
71.0569871521
 20
163.2660922852
 10
72.5569876099
 20
163.2660922852
 10
71.6998451385
 20
160.2660913696
  0
LWPOLYLINE
  5
3A0
100
AcDbEntity
  8
0
100
AcDbPolyline
 62
7
  6
CONTINUOUS
 90
13
 70
0
 43
0.3500000006
 10
72.5125980377
 20
168.2984512939
 10
72.5125980377
 20
169.5841582031
 10
72.7268825226
 20
170.0127453003
 10
73.1554560242
 20
170.44131427
 10
73.369740509
 20
170.44131427
 10
73.7983094788
 20
170.0127453003
 10
74.0125984955
 20
169.5841582031
 10
74.0125984955
 20
168.2984512939
 10
73.7983094788
 20
167.8698823242
 10
73.369740509
 20
167.4413133545
 10
73.1554560242
 20
167.4413133545
 10
72.7268825226
 20
167.8698823242
 10
72.5125980377
 20
168.2984512939
  0
LINE
  5
3A1
100
AcDbEntity
  8
0
100
AcDbLine
 62
7
  6
CONTINUOUS
 10
90.1416709163
 20
130.7656316294
 11
90.2916709163
 21
130.9156316294
  0
LINE
  5
3A2
100
AcDbEntity
  8
0
100
AcDbLine
 62
7
  6
CONTINUOUS
 10
90.6416709163
 20
130.7656316294
 11
90.7916709163
 21
130.9156316294
  0
LINE
  5
3A3
100
AcDbEntity
  8
0
100
AcDbLine
 62
7
  6
CONTINUOUS
 10
90.1416709163
 20
80.6656316294
 11
90.2916709163
 21
80.5156316294
  0
LINE
  5
3A4
100
AcDbEntity
  8
0
100
AcDbLine
 62
7
  6
CONTINUOUS
 10
90.6416709163
 20
80.6656316294
 11
90.7916709163
 21
80.5156316294
  0
LWPOLYLINE
  5
3A5
100
AcDbEntity
  8
0
100
AcDbPolyline
 62
250
  6
CONTINUOUS
 90
9
 70
0
 10
91.0116037528
 20
78.6410314269
 10
91.0188644258
 20
78.6318362522
 10
91.025910312
 20
78.6234375412
 10
91.0326572197
 20
78.6160072802
 10
91.0389798384
 20
78.6097597944
 10
91.0447544692
 20
78.6048978321
 10
91.0498597927
 20
78.6016213042
 10
91.054175967
 20
78.6001287869
 10
91.05757715
 20
78.6006158333
  0
LWPOLYLINE
  5
3A6
100
AcDbEntity
  8
0
100
AcDbPolyline
 62
250
  6
CONTINUOUS
 90
19
 70
0
 10
90.9174435
 20
132.6433108733
 10
90.925401388
 20
132.6571259973
 10
90.9337122407
 20
132.6713239532
 10
90.9423425849
 20
132.6858116097
 10
90.9512597708
 20
132.7005010033
 10
90.960403797
 20
132.7152476515
 10
90.969688766
 20
132.7298576536
 10
90.9790418994
 20
132.7441714281
 10
90.9883927136
 20
132.7580432734
 10
90.997647915
 20
132.7712891326
 10
91.0067435994
 20
132.7837662656
 10
91.0155438137
 20
132.7952324106
 10
91.0238547977
 20
132.8053876071
 10
91.031600932
 20
132.8140917863
 10
91.0386633944
 20
132.8211666728
 10
91.0448429719
 20
132.8263956104
 10
91.0500622435
 20
132.8297211368
 10
91.0543186093
 20
132.8311443952
 10
91.05757715
 20
132.8306474255
  0
LWPOLYLINE
  5
3A7
100
AcDbEntity
  8
0
100
AcDbPolyline
 62
7
  6
CONTINUOUS
 90
7
 70
0
 10
92.9638120013
 20
79.7390699119
 10
92.9720819621
 20
79.7250177495
 10
92.9789931529
 20
79.7119361136
 10
92.9844689436
 20
79.6998250044
 10
92.9884425507
 20
79.6886844217
 10
92.9908579809
 20
79.6785143657
 10
92.9916709163
 20
79.6693148362
  0
LWPOLYLINE
  5
3A8
100
AcDbEntity
  8
0
100
AcDbPolyline
 62
250
  6
CONTINUOUS
 90
14
 70
0
 10
90.9174435
 20
78.7879523855
 10
90.9242166788
 20
78.7761589722
 10
90.9310966309
 20
78.764343587
 10
90.9380663707
 20
78.7525451457
 10
90.9450697487
 20
78.7408645601
 10
90.9521245913
 20
78.7292834339
 10
90.9593186197
 20
78.717680779
 10
90.9666373081
 20
78.7061035954
 10
90.9740324329
 20
78.6946476044
 10
90.9815276645
 20
78.6833019579
 10
90.9890843284
 20
78.6721564157
 10
90.9966413995
 20
78.6613342957
 10
91.0041724862
 20
78.6509109905
 10
91.0116037528
 20
78.6410314269
  0
LWPOLYLINE
  5
3A9
100
AcDbEntity
  8
CURVE
100
AcDbPolyline
 62
250
  6
CONTINUOUS
 90
73
 70
0
 10
86.6788093385
 20
76.4285803858
 10
86.677247465
 20
76.437094429
 10
86.6748533381
 20
76.4453582039
 10
86.6717193401
 20
76.4533926295
 10
86.667937853
 20
76.461218625
 10
86.6636012591
 20
76.4688571097
 10
86.6588019406
 20
76.4763290027
 10
86.6536322797
 20
76.4836552232
 10
86.6481846586
 20
76.4908566903
 10
86.6425514596
 20
76.4979543233
 10
86.6368250647
 20
76.5049690414
 10
86.622349567
 20
76.5223470662
 10
86.6077950556
 20
76.5393094247
 10
86.5930876764
 20
76.555833619
 10
86.5781535752
 20
76.5718971514
 10
86.562918898
 20
76.587477524
 10
86.5473097907
 20
76.6025522392
 10
86.5312523992
 20
76.6170987992
 10
86.5146728694
 20
76.631094706
 10
86.4961187609
 20
76.6455691543
 10
86.4769203773
 20
76.6593639282
 10
86.4571286517
 20
76.6724679175
 10
86.4367945172
 20
76.684870012
 10
86.4159689069
 20
76.6965591015
 10
86.394702754
 20
76.7075240756
 10
86.3730469915
 20
76.7177538243
 10
86.3510525526
 20
76.7272372373
 10
86.3287703703
 20
76.7359632043
 10
86.3062513778
 20
76.7439206151
 10
86.2835607898
 20
76.7510957464
 10
86.2606977527
 20
76.7575026087
 10
86.2376753592
 20
76.7631511922
 10
86.2145067018
 20
76.7680514871
 10
86.1912048733
 20
76.7722134837
 10
86.1677829662
 20
76.7756471722
 10
86.1408792833
 20
76.7786933745
 10
86.113869942
 20
76.7808170136
 10
86.0867891034
 20
76.7820342927
 10
86.0596709286
 20
76.7823614152
 10
86.0325495787
 20
76.7818145844
 10
86.0054592149
 20
76.7804100037
 10
85.97910702
 20
76.7782225774
 10
85.9528487688
 20
76.7752055462
 10
85.9267164665
 20
76.7713293978
 10
85.9007421188
 20
76.7665646195
 10
85.8749577312
 20
76.760881699
 10
85.8519692946
 20
76.7549679652
 10
85.8291881503
 20
76.7482827921
 10
85.8066422351
 20
76.740820476
 10
85.784359486
 20
76.7325753126
 10
85.7623678399
 20
76.7235415982
 10
85.7387915429
 20
76.7128092193
 10
85.7156325568
 20
76.7011582932
 10
85.6929301029
 20
76.6886115327
 10
85.6707234025
 20
76.6751916507
 10
85.6490516767
 20
76.6609213603
 10
85.6279541468
 20
76.6458233744
 10
85.6074700341
 20
76.629920406
 10
85.5876385597
 20
76.6132351681
 10
85.5695397598
 20
76.5967792211
 10
85.5520723248
 20
76.5796688341
 10
85.5352504605
 20
76.5619271137
 10
85.5190883726
 20
76.5435771666
 10
85.5036002667
 20
76.5246420998
 10
85.4888003488
 20
76.5051450199
 10
85.4747028244
 20
76.4851090336
 10
85.4648858482
 20
76.4701767611
 10
85.4555034017
 20
76.4549696102
 10
85.4466092839
 20
76.4394867475
 10
85.4382572941
 20
76.42372734
 10
85.4305012314
 20
76.4076905542
 10
85.423394895
 20
76.391375557
 10
85.416992084
 20
76.3747815151
  0
LWPOLYLINE
  5
3AA
100
AcDbEntity
  8
CURVE
100
AcDbPolyline
 62
250
  6
CONTINUOUS
 90
22
 70
0
 10
85.7870976691
 20
75.5894679654
 10
85.7840535722
 20
75.6076874344
 10
85.781147339
 20
75.6259290588
 10
85.7784022578
 20
75.6441960033
 10
85.7758416173
 20
75.6624914328
 10
85.7734887058
 20
75.6808185119
 10
85.7713668118
 20
75.6991804054
 10
85.7693578074
 20
75.7190396926
 10
85.7676451458
 20
75.7389370269
 10
85.7662289236
 20
75.7588662126
 10
85.765109237
 20
75.7788210542
 10
85.7642861825
 20
75.7987953561
 10
85.7637598565
 20
75.8187829227
 10
85.7635303554
 20
75.8387775582
 10
85.7635977756
 20
75.8587730673
 10
85.7639622135
 20
75.8787632542
 10
85.7646237655
 20
75.8987419233
 10
85.765582528
 20
75.918702879
 10
85.7668385974
 20
75.9386399258
 10
85.76839207
 20
75.958546868
 10
85.7702430424
 20
75.97841751
 10
85.7723916109
 20
75.9982456562
  0
LINE
  5
3AB
100
AcDbEntity
  8
0
100
AcDbLine
 62
7
  6
CONTINUOUS
 10
82.8416709163
 20
61.9443626696
 11
82.8416709163
 21
149.4869005892
  0
LINE
  5
3AC
100
AcDbEntity
  8
ASSI
100
AcDbLine
 62
7
  6
CONTINUOUS
 10
82.8416709163
 20
61.9443626696
 11
82.8416709163
 21
149.4869005892
  0
LINE
  5
3AD
100
AcDbEntity
  8
0
100
AcDbLine
 62
7
  6
CONTINUOUS
 10
83.8261233741
 20
60.9249323071
 11
83.8261233741
 21
61.8956461595
  0
LINE
  5
3AE
100
AcDbEntity
  8
ASSI
100
AcDbLine
 62
7
  6
CONTINUOUS
 10
83.8261233741
 20
60.9249323071
 11
83.8261233741
 21
61.8956461595
  0
LINE
  5
3AF
100
AcDbEntity
  8
0
100
AcDbLine
 62
7
  6
CONTINUOUS
 10
83.8261233741
 20
149.5356170993
 11
83.8261233741
 21
150.5063309517
  0
LINE
  5
3B0
100
AcDbEntity
  8
ASSI
100
AcDbLine
 62
7
  6
CONTINUOUS
 10
83.8261233741
 20
149.5356170993
 11
83.8261233741
 21
150.5063309517
  0
LINE
  5
3B1
100
AcDbEntity
  8
0
100
AcDbLine
 62
7
  6
CONTINUOUS
 10
83.8410617433
 20
61.910071975
 11
83.8410617433
 21
149.5211912838
  0
LINE
  5
3B2
100
AcDbEntity
  8
ASSI
100
AcDbLine
 62
7
  6
CONTINUOUS
 10
83.8410617433
 20
61.910071975
 11
83.8410617433
 21
149.5211912838
  0
LINE
  5
3B3
100
AcDbEntity
  8
CURVE
100
AcDbLine
 62
250
  6
CONTINUOUS
 10
85.3613530185
 20
69.9800266294
 11
85.3613530185
 21
69.4582336294
  0
LINE
  5
3B4
100
AcDbEntity
  8
CURVE
100
AcDbLine
 62
250
  6
CONTINUOUS
 10
85.3615019278
 20
67.2087846294
 11
85.3615019278
 21
67.7756126294
  0
LINE
  5
3B5
100
AcDbEntity
  8
CURVE
100
AcDbLine
 62
250
  6
CONTINUOUS
 10
85.3615019278
 20
68.7431586294
 11
85.3615019278
 21
69.2645946294
  0
LINE
  5
3B6
100
AcDbEntity
  8
CURVE
100
AcDbLine
 62
250
  6
CONTINUOUS
 10
85.3615019278
 20
70.4866356294
 11
85.3615019278
 21
71.0079966294
  0
LINE
  5
3B7
100
AcDbEntity
  8
CURVE
100
AcDbLine
 62
250
  6
CONTINUOUS
 10
85.3615019278
 20
72.0460716294
 11
85.3615019278
 21
72.5623346294
  0
LINE
  5
3B8
100
AcDbEntity
  8
CURVE
100
AcDbLine
 62
250
  6
CONTINUOUS
 10
85.3615019278
 20
73.6620996294
 11
85.3615019278
 21
74.1668716294
  0
LINE
  5
3B9
100
AcDbEntity
  8
CURVE
100
AcDbLine
 62
250
  6
CONTINUOUS
 10
86.472905791
 20
75.8876674199
 11
86.472905791
 21
75.5894679654
  0
LINE
  5
3BA
100
AcDbEntity
  8
CURVE
100
AcDbLine
 62
250
  6
CONTINUOUS
 10
86.8820526819
 20
75.6067698322
 11
86.8820526819
 21
75.8865427049
  0
LINE
  5
3BB
100
AcDbEntity
  8
CURVE
100
AcDbLine
 62
250
  6
CONTINUOUS
 10
86.9750663887
 20
73.6448726294
 11
86.9750663887
 21
74.1444526294
  0
LINE
  5
3BC
100
AcDbEntity
  8
CURVE
100
AcDbLine
 62
250
  6
CONTINUOUS
 10
87.3609831554
 20
74.2487326294
 11
87.3609831554
 21
73.5381376294
  0
LINE
  5
3BD
100
AcDbEntity
  8
CURVE
100
AcDbLine
 62
250
  6
CONTINUOUS
 10
87.8597151561
 20
74.9338526294
 11
87.8597151561
 21
74.3839046294
  0
LINE
  5
3BE
100
AcDbEntity
  8
CURVE
100
AcDbLine
 62
250
  6
CONTINUOUS
 10
87.8597151561
 20
73.3941546294
 11
87.8597151561
 21
72.8780236294
  0
LINE
  5
3BF
100
AcDbEntity
  8
CURVE
100
AcDbLine
 62
250
  6
CONTINUOUS
 10
87.8597151561
 20
72.7960876294
 11
87.8597151561
 21
72.2856356294
  0
LINE
  5
3C0
100
AcDbEntity
  8
CURVE
100
AcDbLine
 62
250
  6
CONTINUOUS
 10
87.8597151561
 20
71.5580206294
 11
87.8597151561
 21
71.4848386294
  0
LINE
  5
3C1
100
AcDbEntity
  8
CURVE
100
AcDbLine
 62
250
  6
CONTINUOUS
 10
87.8597151561
 20
70.7601096294
 11
87.8597151561
 21
70.2609236294
  0
LINE
  5
3C2
100
AcDbEntity
  8
CURVE
100
AcDbLine
 62
250
  6
CONTINUOUS
 10
87.8597151561
 20
68.4610796294
 11
87.8597151561
 21
68.0012496294
  0
LINE
  5
3C3
100
AcDbEntity
  8
CURVE
100
AcDbLine
 62
250
  6
CONTINUOUS
 10
87.8597151561
 20
69.4582336294
 11
87.8597151561
 21
69.9800266294
  0
LINE
  5
3C4
100
AcDbEntity
  8
CURVE
100
AcDbLine
 62
250
  6
CONTINUOUS
 10
87.8597151726
 20
75.0870764906
 11
87.8597151726
 21
75.6067698322
  0
LINE
  5
3C5
100
AcDbEntity
  8
CURVE
100
AcDbLine
 62
250
  6
CONTINUOUS
 10
87.8597151726
 20
76.4058236509
 11
87.8597151726
 21
76.9077277492
  0
LWPOLYLINE
  5
3C6
100
AcDbEntity
  8
CURVE
100
AcDbPolyline
 62
250
  6
CONTINUOUS
 90
48
 70
0
 10
86.8820526819
 20
75.8865427049
 10
86.8821546247
 20
75.8945767966
 10
86.882461565
 20
75.902625153
 10
86.8829751707
 20
75.9106795054
 10
86.8836971099
 20
75.918731585
 10
86.8846290505
 20
75.926773123
 10
86.8857726605
 20
75.9347958506
 10
86.8871296078
 20
75.9427914992
 10
86.8887015603
 20
75.9507517998
 10
86.8904901861
 20
75.9586684839
 10
86.892497153
 20
75.9665332825
 10
86.8947241292
 20
75.974337927
 10
86.8971727824
 20
75.9820741485
 10
86.8998447807
 20
75.9897336784
 10
86.902741792
 20
75.9973082478
 10
86.9058654843
 20
76.004789588
 10
86.9092175255
 20
76.0121694302
 10
86.9127995837
 20
76.0194395057
 10
86.916711973
 20
76.0267733439
 10
86.9208604436
 20
76.0339813196
 10
86.9252374361
 20
76.0410616967
 10
86.929835391
 20
76.0480127393
 10
86.9346467487
 20
76.0548327114
 10
86.9396639499
 20
76.0615198772
 10
86.9448794351
 20
76.0680725006
 10
86.9502856448
 20
76.0744888457
 10
86.9558750196
 20
76.0807671766
 10
86.9616399999
 20
76.0869057572
 10
86.9675730264
 20
76.0929028516
 10
86.9736665396
 20
76.098756724
 10
86.9799129799
 20
76.1044656382
 10
86.986304788
 20
76.1100278584
 10
86.9928344044
 20
76.1154416487
 10
86.9994942696
 20
76.1207052729
 10
87.0062768241
 20
76.1258169953
 10
87.0131745085
 20
76.1307750799
 10
87.0201797633
 20
76.1355777906
 10
87.0272850291
 20
76.1402233916
 10
87.0344827464
 20
76.1447101468
 10
87.0417653558
 20
76.1490363204
 10
87.0491252977
 20
76.1532001764
 10
87.0565550127
 20
76.1571999788
 10
87.0640469413
 20
76.1610339916
 10
87.0715935241
 20
76.164700479
 10
87.0791872017
 20
76.1681977049
 10
87.0868204145
 20
76.1715239334
 10
87.094485603
 20
76.1746774286
 10
87.1021752079
 20
76.1776564545
  0
LINE
  5
3C7
100
AcDbEntity
  8
0
100
AcDbLine
 62
7
  6
CONTINUOUS
 10
89.3916709163
 20
60.7156316294
 11
89.3916709163
 21
150.7156316294
  0
LINE
  5
3C8
100
AcDbEntity
  8
ASSI
100
AcDbLine
 62
7
  6
CONTINUOUS
 10
89.3916709163
 20
60.7156316294
 11
89.3916709163
 21
150.7156316294
  0
LINE
  5
3C9
100
AcDbEntity
  8
0
100
AcDbLine
 62
7
  6
CONTINUOUS
 10
89.9916709163
 20
62.9156316294
 11
89.9916709163
 21
148.5156316294
  0
LINE
  5
3CA
100
AcDbEntity
  8
0
100
AcDbLine
 62
250
  6
CONTINUOUS
 10
90.917508275
 20
78.5658539176
 11
90.9174435
 21
78.7879523855
  0
LINE
  5
3CB
100
AcDbEntity
  8
0
100
AcDbLine
 62
250
  6
CONTINUOUS
 10
90.9174435
 20
132.6433108733
 11
90.9175081223
 21
132.8654076746
  0
LWPOLYLINE
  5
3CC
100
AcDbEntity
  8
0
100
AcDbPolyline
 62
7
  6
CONTINUOUS
 90
7
 70
0
 10
92.9916709163
 20
131.7619484226
 10
92.9908581316
 20
131.752749966
 10
92.9884430298
 20
131.7425805536
 10
92.9844697445
 20
131.7314401855
 10
92.9789940909
 20
131.7193288617
 10
92.9720826843
 20
131.7062465821
 10
92.9638120013
 20
131.6921933469
  0
LWPOLYLINE
  5
3CD
100
AcDbEntity
  8
CURVE
100
AcDbPolyline
 62
250
  6
CONTINUOUS
 90
49
 70
0
 10
85.7723916109
 20
75.9982456562
 10
85.7736301859
 20
76.007808834
 10
85.7751271043
 20
76.0173726639
 10
85.7768816397
 20
76.0269266125
 10
85.778893066
 20
76.0364601465
 10
85.7811606569
 20
76.0459627328
 10
85.783683686
 20
76.055423838
 10
85.7864614272
 20
76.0648329289
 10
85.7894931542
 20
76.0741794722
 10
85.7927781407
 20
76.0834529347
 10
85.7963156604
 20
76.0926427831
 10
85.8001049871
 20
76.1017384841
 10
85.8041453946
 20
76.1107295045
 10
85.8084361565
 20
76.1196053111
 10
85.8129765465
 20
76.1283553705
 10
85.8177658385
 20
76.1369691494
 10
85.8228033062
 20
76.1454361147
 10
85.8280882232
 20
76.1537457331
 10
85.8336198634
 20
76.1618874713
 10
85.8393975005
 20
76.169850796
 10
85.8454204081
 20
76.1776251741
 10
85.8516878601
 20
76.1852000721
 10
85.8581991301
 20
76.1925649569
 10
85.864953492
 20
76.1997092952
 10
85.8719502194
 20
76.2066225538
 10
85.8791471652
 20
76.2132601312
 10
85.8865718623
 20
76.2196556668
 10
85.8942130203
 20
76.2258061345
 10
85.9020593489
 20
76.2317085081
 10
85.9100995577
 20
76.2373597616
 10
85.9183223563
 20
76.2427568687
 10
85.9267164544
 20
76.2478968034
 10
85.9352705617
 20
76.2527765395
 10
85.9439733877
 20
76.2573930508
 10
85.9528136421
 20
76.2617433114
 10
85.9617800347
 20
76.2658242949
 10
85.9708612749
 20
76.2696329753
 10
85.9800460725
 20
76.2731663265
 10
85.9893231371
 20
76.2764213223
 10
85.9986811784
 20
76.2793949366
 10
86.0081089059
 20
76.2820841432
 10
86.0175950294
 20
76.284485916
 10
86.0271282585
 20
76.2865972289
 10
86.0366973028
 20
76.2884150557
 10
86.046290872
 20
76.2899363704
 10
86.0558976757
 20
76.2911581468
 10
86.0655064236
 20
76.2920773586
 10
86.0751058253
 20
76.2926909799
 10
86.0846845904
 20
76.2929959845
  0
LWPOLYLINE
  5
3CE
100
AcDbEntity
  8
0
100
AcDbPolyline
 62
250
  6
CONTINUOUS
 90
3
 70
0
 10
92.441819169
 20
132.0526369153
 10
92.4417765149
 20
132.0560534988
 10
92.4417201485
 20
132.0571954898
  0
LINE
  5
3CF
100
AcDbEntity
  8
0
100
AcDbLine
 62
250
  6
CONTINUOUS
 10
92.4418621475
 20
132.0391006765
 11
92.441819169
 21
132.0526369153
  0
LINE
  5
3D0
100
AcDbEntity
  8
0
100
AcDbLine
 62
250
  6
CONTINUOUS
 10
92.4418621475
 20
79.3921625823
 11
92.4417201485
 21
79.4619342477
  0
LINE
  5
3D1
100
AcDbEntity
  8
0
100
AcDbLine
 62
250
  6
CONTINUOUS
 10
92.8021381075
 20
131.5956182971
 11
92.8021381075
 21
131.0966783485
  0
LINE
  5
3D2
100
AcDbEntity
  8
0
100
AcDbLine
 62
250
  6
CONTINUOUS
 10
92.8021381075
 20
80.3345849103
 11
92.8021381075
 21
79.8356449618
  0
LINE
  5
3D3
100
AcDbEntity
  8
0
100
AcDbLine
 62
7
  6
CONTINUOUS
 10
92.9916709163
 20
131.8039959698
 11
92.9916709163
 21
131.1156316294
  0
LINE
  5
3D4
100
AcDbEntity
  8
0
100
AcDbLine
 62
7
  6
CONTINUOUS
 10
92.9916709163
 20
80.3156316294
 11
92.9916709163
 21
79.627267289
  0
LINE
  5
3D5
100
AcDbEntity
  8
0
100
AcDbLine
 62
250
  6
CONTINUOUS
 10
92.4417201485
 20
131.9693290111
 11
92.4418621475
 21
132.0391006765
  0
LWPOLYLINE
  5
3D6
100
AcDbEntity
  8
0
100
AcDbPolyline
 62
250
  6
CONTINUOUS
 90
4
 70
0
 10
92.4417201485
 20
79.3740677691
 10
92.4417765149
 20
79.3752097601
 10
92.441819169
 20
79.3786263435
 10
92.4418621475
 20
79.3921625823
  0
LWPOLYLINE
  5
3D7
100
AcDbEntity
  8
CURVE
100
AcDbPolyline
 62
250
  6
CONTINUOUS
 90
32
 70
0
 10
85.416992084
 20
76.3747815151
 10
85.4066030181
 20
76.3445769467
 10
85.3971072101
 20
76.3140823905
 10
85.3884613283
 20
76.2833234583
 10
85.3806220407
 20
76.2523257618
 10
85.3735460155
 20
76.2211149125
 10
85.3671899207
 20
76.1897165222
 10
85.3615104245
 20
76.1581562026
 10
85.356464195
 20
76.1264595652
 10
85.3520079003
 20
76.0946522219
 10
85.3480982085
 20
76.0627597843
 10
85.3446917877
 20
76.0308078639
 10
85.3417453061
 20
75.9988220727
 10
85.3381028556
 20
75.950694435
 10
85.3353650593
 20
75.9025532676
 10
85.3334942032
 20
75.8544037234
 10
85.3324525734
 20
75.8062509551
 10
85.3322024558
 20
75.7581001157
 10
85.3327061366
 20
75.7099563579
 10
85.3339259017
 20
75.6618248347
 10
85.3358240372
 20
75.6137106989
 10
85.3383628292
 20
75.5656191033
 10
85.3415045637
 20
75.5175552009
 10
85.3452115268
 20
75.4695241444
 10
85.3494460044
 20
75.4215310868
 10
85.3541702827
 20
75.3735811809
 10
85.3593466476
 20
75.3256795795
 10
85.3649373853
 20
75.2778314355
 10
85.3709047817
 20
75.2300419017
 10
85.3772111229
 20
75.1823161311
 10
85.3838186949
 20
75.1346592764
 10
85.3906897839
 20
75.0870764906
  0
LWPOLYLINE
  5
3D8
100
AcDbEntity
  8
0
100
AcDbPolyline
 62
7
  6
CONTINUOUS
 90
10
 70
0
 43
0.3500000006
 10
74.0569880676
 20
160.7660824585
 10
74.1284192505
 20
160.6232382202
 10
74.1284192505
 20
160.5517979736
 10
73.9855614166
 20
160.4089537354
 10
73.9141302338
 20
160.4089537354
 10
73.8427035828
 20
160.4803758545
 10
73.8427035828
 20
160.5517979736
 10
73.9141302338
 20
160.6946603394
 10
73.9855614166
 20
160.7660824585
 10
74.0569880676
 20
160.7660824585
  0
LWPOLYLINE
  5
3D9
100
AcDbEntity
  8
0
100
AcDbPolyline
 62
7
  6
CONTINUOUS
 90
10
 70
0
 43
0.3500000006
 10
75.5125989532
 20
167.9413044434
 10
75.5840256042
 20
167.7984420776
 10
75.5840256042
 20
167.7270199585
 10
75.4411677704
 20
167.5841575928
 10
75.3697411194
 20
167.5841575928
 10
75.2983099365
 20
167.6555978394
 10
75.2983099365
 20
167.7270199585
 10
75.3697411194
 20
167.8698823242
 10
75.4411677704
 20
167.9413044434
 10
75.5125989532
 20
167.9413044434
  0
LINE
  5
3DA
100
AcDbEntity
  8
CURVE
100
AcDbLine
 62
7
  6
CONTINUOUS
 10
85.3698289016
 20
76.2013296189
 11
85.9421291058
 21
76.7736298231
  0
LINE
  5
3DB
100
AcDbEntity
  8
CURVE
100
AcDbLine
 62
7
  6
CONTINUOUS
 10
85.3396487795
 20
75.9611387827
 11
86.1551531478
 21
76.776643151
  0
LINE
  5
3DC
100
AcDbEntity
  8
CURVE
100
AcDbLine
 62
7
  6
CONTINUOUS
 10
85.3331111441
 20
75.7445904333
 11
86.3252018524
 21
76.7366811416
  0
LINE
  5
3DD
100
AcDbEntity
  8
0
100
AcDbLine
 62
7
  6
CONTINUOUS
 10
90.2916709163
 20
80.5156316294
 11
90.4416709163
 21
80.6656316294
  0
LINE
  5
3DE
100
AcDbEntity
  8
CURVE
100
AcDbLine
 62
7
  6
CONTINUOUS
 10
85.3398802526
 20
75.5413488278
 11
85.7698864113
 21
75.9713549865
  0
LINE
  5
3DF
100
AcDbEntity
  8
CURVE
100
AcDbLine
 62
7
  6
CONTINUOUS
 10
86.0913757932
 20
76.2928443684
 11
86.4654924579
 21
76.6669610331
  0
LINE
  5
3E0
100
AcDbEntity
  8
CURVE
100
AcDbLine
 62
7
  6
CONTINUOUS
 10
85.3572212448
 20
75.348679106
 11
85.7663224043
 21
75.7577802656
  0
LINE
  5
3E1
100
AcDbEntity
  8
CURVE
100
AcDbLine
 62
7
  6
CONTINUOUS
 10
86.2659040202
 20
76.2573618814
 11
86.578923203
 21
76.5703810642
  0
LINE
  5
3E2
100
AcDbEntity
  8
CURVE
100
AcDbLine
 62
7
  6
CONTINUOUS
 10
85.3803851996
 20
75.1618323468
 11
85.8080208182
 21
75.5894679654
  0
LINE
  5
3E3
100
AcDbEntity
  8
CURVE
100
AcDbLine
 62
7
  6
CONTINUOUS
 10
86.3883682275
 20
76.1698153747
 11
86.6715617285
 21
76.4530088758
  0
LINE
  5
3E4
100
AcDbEntity
  8
CURVE
100
AcDbLine
 62
7
  6
CONTINUOUS
 10
85.5156400574
 20
75.0870764906
 11
86.0180315322
 21
75.5894679654
  0
LINE
  5
3E5
100
AcDbEntity
  8
CURVE
100
AcDbLine
 62
7
  6
CONTINUOUS
 10
86.4558007714
 20
76.0272372046
 11
87.148390603
 21
76.7198270362
  0
LINE
  5
3E6
100
AcDbEntity
  8
CURVE
100
AcDbLine
 62
7
  6
CONTINUOUS
 10
85.7256507714
 20
75.0870764906
 11
86.2280422462
 21
75.5894679654
  0
LINE
  5
3E7
100
AcDbEntity
  8
CURVE
100
AcDbLine
 62
7
  6
CONTINUOUS
 10
86.472905791
 20
75.8343315102
 11
87.434808265
 21
76.7962339841
  0
LINE
  5
3E8
100
AcDbEntity
  8
CURVE
100
AcDbLine
 62
7
  6
CONTINUOUS
 10
85.9356614854
 20
75.0870764906
 11
86.4380529602
 21
75.5894679654
  0
LINE
  5
3E9
100
AcDbEntity
  8
CURVE
100
AcDbLine
 62
7
  6
CONTINUOUS
 10
86.472905791
 20
75.6243207962
 11
87.7190088189
 21
76.8704238241
  0
LINE
  5
3EA
100
AcDbEntity
  8
CURVE
100
AcDbLine
 62
7
  6
CONTINUOUS
 10
86.1456721994
 20
75.0870764906
 11
86.8820526819
 21
75.8234569731
  0
LINE
  5
3EB
100
AcDbEntity
  8
CURVE
100
AcDbLine
 62
7
  6
CONTINUOUS
 10
87.3029234498
 20
76.244327741
 11
87.8597151726
 21
76.8011194638
  0
LINE
  5
3EC
100
AcDbEntity
  8
CURVE
100
AcDbLine
 62
7
  6
CONTINUOUS
 10
85.3615019278
 20
74.0928955049
 11
85.4682514035
 21
74.1996449807
  0
LINE
  5
3ED
100
AcDbEntity
  8
CURVE
100
AcDbLine
 62
7
  6
CONTINUOUS
 10
86.3556829135
 20
75.0870764906
 11
86.8820526819
 21
75.6134462591
  0
LINE
  5
3EE
100
AcDbEntity
  8
CURVE
100
AcDbLine
 62
7
  6
CONTINUOUS
 10
87.5981518183
 20
76.3295453954
 11
87.8597151726
 21
76.5911087498
  0
LINE
  5
3EF
100
AcDbEntity
  8
CURVE
100
AcDbLine
 62
7
  6
CONTINUOUS
 10
85.3615019278
 20
73.8828847909
 11
85.7713023376
 21
74.2926852007
  0
LINE
  5
3F0
100
AcDbEntity
  8
CURVE
100
AcDbLine
 62
7
  6
CONTINUOUS
 10
86.5656936275
 20
75.0870764906
 11
87.085386969
 21
75.6067698322
  0
LINE
  5
3F1
100
AcDbEntity
  8
CURVE
100
AcDbLine
 62
7
  6
CONTINUOUS
 10
85.3615019278
 20
73.6728740769
 11
86.0743532716
 21
74.3857254207
  0
LINE
  5
3F2
100
AcDbEntity
  8
CURVE
100
AcDbLine
 62
7
  6
CONTINUOUS
 10
86.7757043415
 20
75.0870764906
 11
87.295397683
 21
75.6067698322
  0
LINE
  5
3F3
100
AcDbEntity
  8
CURVE
100
AcDbLine
 62
7
  6
CONTINUOUS
 10
85.5131444681
 20
73.6145059032
 11
86.3774042056
 21
74.4787656408
  0
LINE
  5
3F4
100
AcDbEntity
  8
CURVE
100
AcDbLine
 62
7
  6
CONTINUOUS
 10
86.9857150555
 20
75.0870764906
 11
87.5054083971
 21
75.6067698322
  0
LINE
  5
3F5
100
AcDbEntity
  8
CURVE
100
AcDbLine
 62
7
  6
CONTINUOUS
 10
85.6729876468
 20
73.5643383679
 11
86.6804551397
 21
74.5718058608
  0
LINE
  5
3F6
100
AcDbEntity
  8
CURVE
100
AcDbLine
 62
7
  6
CONTINUOUS
 10
87.1957257695
 20
75.0870764906
 11
87.7154191111
 21
75.6067698322
  0
LINE
  5
3F7
100
AcDbEntity
  8
CURVE
100
AcDbLine
 62
7
  6
CONTINUOUS
 10
85.8328308256
 20
73.5141708327
 11
86.1849492566
 21
73.8662892637
  0
LINE
  5
3F8
100
AcDbEntity
  8
CURVE
100
AcDbLine
 62
7
  6
CONTINUOUS
 10
86.2845252285
 20
73.9658652356
 11
86.9835060737
 21
74.6648460808
  0
LINE
  5
3F9
100
AcDbEntity
  8
CURVE
100
AcDbLine
 62
7
  6
CONTINUOUS
 10
87.4057364835
 20
75.0870764906
 11
87.8597151726
 21
75.5410551797
  0
LINE
  5
3FA
100
AcDbEntity
  8
CURVE
100
AcDbLine
 62
7
  6
CONTINUOUS
 10
85.9926740043
 20
73.4640032974
 11
86.3489903085
 21
73.8203196016
  0
LINE
  5
3FB
100
AcDbEntity
  8
CURVE
100
AcDbLine
 62
7
  6
CONTINUOUS
 10
86.5677950306
 20
74.0391243237
 11
87.2865570078
 21
74.7578863008
  0
LINE
  5
3FC
100
AcDbEntity
  8
CURVE
100
AcDbLine
 62
7
  6
CONTINUOUS
 10
87.6157471975
 20
75.0870764906
 11
87.8597151726
 21
75.3310444657
  0
LINE
  5
3FD
100
AcDbEntity
  8
0
100
AcDbLine
 62
7
  6
CONTINUOUS
 10
90.2916709163
 20
130.9156316294
 11
90.4416709163
 21
130.7656316294
  0
LINE
  5
3FE
100
AcDbEntity
  8
CURVE
100
AcDbLine
 62
7
  6
CONTINUOUS
 10
86.1525171831
 20
73.4138357621
 11
86.5130313604
 21
73.7743499395
  0
LINE
  5
3FF
100
AcDbEntity
  8
CURVE
100
AcDbLine
 62
7
  6
CONTINUOUS
 10
86.8510648328
 20
74.1123834118
 11
87.5896079418
 21
74.8509265209
  0
LINE
  5
400
100
AcDbEntity
  8
CURVE
100
AcDbLine
 62
7
  6
CONTINUOUS
 10
87.8257579115
 20
75.0870764906
 11
87.8597151726
 21
75.1210337517
  0
LINE
  5
401
100
AcDbEntity
  8
CURVE
100
AcDbLine
 62
7
  6
CONTINUOUS
 10
85.3615019278
 20
72.4128097928
 11
85.5264617359
 21
72.5777696009
  0
LINE
  5
402
100
AcDbEntity
  8
CURVE
100
AcDbLine
 62
7
  6
CONTINUOUS
 10
86.3123603618
 20
73.3636682269
 11
86.6770724123
 21
73.7283802773
  0
LINE
  5
403
100
AcDbEntity
  8
CURVE
100
AcDbLine
 62
7
  6
CONTINUOUS
 10
86.9750663887
 20
74.0263742538
 11
87.8597151561
 21
74.9110230212
  0
LINE
  5
404
100
AcDbEntity
  8
CURVE
100
AcDbLine
 62
7
  6
CONTINUOUS
 10
85.3615019278
 20
72.2027990788
 11
85.7581511854
 21
72.5994483365
  0
LINE
  5
405
100
AcDbEntity
  8
CURVE
100
AcDbLine
 62
7
  6
CONTINUOUS
 10
86.4722035406
 20
73.3135006916
 11
86.8411134642
 21
73.6824106152
  0
LINE
  5
406
100
AcDbEntity
  8
CURVE
100
AcDbLine
 62
7
  6
CONTINUOUS
 10
86.9750663887
 20
73.8163635398
 11
87.3609831554
 21
74.2022803064
  0
LINE
  5
407
100
AcDbEntity
  8
CURVE
100
AcDbLine
 62
7
  6
CONTINUOUS
 10
87.4247065021
 20
74.2660036531
 11
87.8597151561
 21
74.7010123072
  0
LINE
  5
408
100
AcDbEntity
  8
CURVE
100
AcDbLine
 62
7
  6
CONTINUOUS
 10
85.4002196486
 20
72.0315060856
 11
85.989840635
 21
72.621127072
  0
LINE
  5
409
100
AcDbEntity
  8
CURVE
100
AcDbLine
 62
7
  6
CONTINUOUS
 10
86.6320467193
 20
73.2633331564
 11
87.3609831554
 21
73.9922695924
  0
LINE
  5
40A
100
AcDbEntity
  8
CURVE
100
AcDbLine
 62
7
  6
CONTINUOUS
 10
87.7127994259
 20
74.3440858629
 11
87.8597151561
 21
74.4910015932
  0
LINE
  5
40B
100
AcDbEntity
  8
CURVE
100
AcDbLine
 62
7
  6
CONTINUOUS
 10
85.5528217135
 20
71.9740974365
 11
86.2215300845
 21
72.6428058075
  0
LINE
  5
40C
100
AcDbEntity
  8
CURVE
100
AcDbLine
 62
7
  6
CONTINUOUS
 10
86.7918898981
 20
73.2131656211
 11
87.3609831554
 21
73.7822588784
  0
LINE
  5
40D
100
AcDbEntity
  8
CURVE
100
AcDbLine
 62
7
  6
CONTINUOUS
 10
85.7054237783
 20
71.9166887873
 11
86.4532195341
 21
72.6644845431
  0
LINE
  5
40E
100
AcDbEntity
  8
CURVE
100
AcDbLine
 62
7
  6
CONTINUOUS
 10
86.9517330768
 20
73.1629980858
 11
87.3609831554
 21
73.5722481644
  0
LINE
  5
40F
100
AcDbEntity
  8
CURVE
100
AcDbLine
 62
7
  6
CONTINUOUS
 10
85.8580258432
 20
71.8592801382
 11
86.6849089836
 21
72.6861632786
  0
LINE
  5
410
100
AcDbEntity
  8
CURVE
100
AcDbLine
 62
7
  6
CONTINUOUS
 10
87.1115762556
 20
73.1128305506
 11
87.4974776329
 21
73.4987319279
  0
LINE
  5
411
100
AcDbEntity
  8
CURVE
100
AcDbLine
 62
7
  6
CONTINUOUS
 10
86.0106279081
 20
71.801871489
 11
86.3451919769
 21
72.1364355579
  0
LINE
  5
412
100
AcDbEntity
  8
CURVE
100
AcDbLine
 62
7
  6
CONTINUOUS
 10
86.3979247356
 20
72.1891683166
 11
86.9165984332
 21
72.7078420142
  0
LINE
  5
413
100
AcDbEntity
  8
CURVE
100
AcDbLine
 62
7
  6
CONTINUOUS
 10
87.2714194343
 20
73.0626630153
 11
87.660441098
 21
73.451684679
  0
LINE
  5
414
100
AcDbEntity
  8
CURVE
100
AcDbLine
 62
7
  6
CONTINUOUS
 10
85.3615019278
 20
70.9427347947
 11
85.4654593088
 21
71.0466921757
  0
LINE
  5
415
100
AcDbEntity
  8
CURVE
100
AcDbLine
 62
7
  6
CONTINUOUS
 10
86.1632299729
 20
71.7444628399
 11
86.4971630711
 21
72.0783959381
  0
LINE
  5
416
100
AcDbEntity
  8
CURVE
100
AcDbLine
 62
7
  6
CONTINUOUS
 10
86.6227738195
 20
72.2040066864
 11
87.1482878827
 21
72.7295207497
  0
LINE
  5
417
100
AcDbEntity
  8
CURVE
100
AcDbLine
 62
7
  6
CONTINUOUS
 10
87.4312626131
 20
73.0124954801
 11
87.8234045631
 21
73.40463743
  0
LINE
  5
418
100
AcDbEntity
  8
CURVE
100
AcDbLine
 62
7
  6
CONTINUOUS
 10
85.3615019278
 20
70.7327240807
 11
85.7999911822
 21
71.1712133351
  0
LINE
  5
419
100
AcDbEntity
  8
CURVE
100
AcDbLine
 62
7
  6
CONTINUOUS
 10
86.3158320378
 20
71.6870541907
 11
86.6491341653
 21
72.0203563182
  0
LINE
  5
41A
100
AcDbEntity
  8
CURVE
100
AcDbLine
 62
7
  6
CONTINUOUS
 10
86.8476229033
 20
72.2188450563
 11
87.3799773323
 21
72.7511994852
  0
LINE
  5
41B
100
AcDbEntity
  8
CURVE
100
AcDbLine
 62
7
  6
CONTINUOUS
 10
87.5911057918
 20
72.9623279448
 11
87.8597151561
 21
73.2309373091
  0
LINE
  5
41C
100
AcDbEntity
  8
CURVE
100
AcDbLine
 62
7
  6
CONTINUOUS
 10
85.3615019278
 20
70.5227133667
 11
86.1345230555
 21
71.2957344944
  0
LINE
  5
41D
100
AcDbEntity
  8
CURVE
100
AcDbLine
 62
7
  6
CONTINUOUS
 10
86.4684341026
 20
71.6296455416
 11
86.8011052594
 21
71.9623166984
  0
LINE
  5
41E
100
AcDbEntity
  8
CURVE
100
AcDbLine
 62
7
  6
CONTINUOUS
 10
87.0724719872
 20
72.2336834261
 11
87.6116667819
 21
72.7728782208
  0
LINE
  5
41F
100
AcDbEntity
  8
CURVE
100
AcDbLine
 62
7
  6
CONTINUOUS
 10
87.7509489706
 20
72.9121604095
 11
87.8597151561
 21
73.0209265951
  0
LINE
  5
420
100
AcDbEntity
  8
CURVE
100
AcDbLine
 62
7
  6
CONTINUOUS
 10
85.5210223356
 20
70.4722230605
 11
86.4690549289
 21
71.4202556538
  0
LINE
  5
421
100
AcDbEntity
  8
CURVE
100
AcDbLine
 62
7
  6
CONTINUOUS
 10
86.6210361675
 20
71.5722368924
 11
86.9530763536
 21
71.9042770785
  0
LINE
  5
422
100
AcDbEntity
  8
CURVE
100
AcDbLine
 62
7
  6
CONTINUOUS
 10
87.2973210711
 20
72.248521796
 11
87.8433562314
 21
72.7945569563
  0
LINE
  5
423
100
AcDbEntity
  8
CURVE
100
AcDbLine
 62
7
  6
CONTINUOUS
 10
85.7136309793
 20
70.4548209902
 11
87.1050474478
 21
71.8462374587
  0
LINE
  5
424
100
AcDbEntity
  8
CURVE
100
AcDbLine
 62
7
  6
CONTINUOUS
 10
87.522170155
 20
72.2633601659
 11
87.8597151561
 21
72.600905167
  0
LINE
  5
425
100
AcDbEntity
  8
CURVE
100
AcDbLine
 62
7
  6
CONTINUOUS
 10
85.3613530185
 20
69.8925323154
 11
85.4488473325
 21
69.9800266294
  0
LINE
  5
426
100
AcDbEntity
  8
CURVE
100
AcDbLine
 62
7
  6
CONTINUOUS
 10
85.906239623
 20
70.4374189199
 11
86.3342302108
 21
70.8654095077
  0
LINE
  5
427
100
AcDbEntity
  8
CURVE
100
AcDbLine
 62
7
  6
CONTINUOUS
 10
86.4094655724
 20
70.9406448693
 11
87.2570185419
 21
71.7881978388
  0
LINE
  5
428
100
AcDbEntity
  8
CURVE
100
AcDbLine
 62
7
  6
CONTINUOUS
 10
87.7470192388
 20
72.2781985357
 11
87.8597151561
 21
72.390894453
  0
LINE
  5
429
100
AcDbEntity
  8
CURVE
100
AcDbLine
 62
7
  6
CONTINUOUS
 10
85.3613530185
 20
69.6825216014
 11
85.6588580465
 21
69.9800266294
  0
LINE
  5
42A
100
AcDbEntity
  8
CURVE
100
AcDbLine
 62
7
  6
CONTINUOUS
 10
86.0988482668
 20
70.4200168496
 11
86.5306805198
 21
70.8518491027
  0
LINE
  5
42B
100
AcDbEntity
  8
CURVE
100
AcDbLine
 62
7
  6
CONTINUOUS
 10
86.7456125764
 20
71.0667811593
 11
87.4089896361
 21
71.730158219
  0
LINE
  5
42C
100
AcDbEntity
  8
CURVE
100
AcDbLine
 62
7
  6
CONTINUOUS
 10
85.3613530185
 20
69.4725108874
 11
85.8688687605
 21
69.9800266294
  0
LINE
  5
42D
100
AcDbEntity
  8
CURVE
100
AcDbLine
 62
7
  6
CONTINUOUS
 10
86.2914569105
 20
70.4026147794
 11
86.7271308289
 21
70.8382886977
  0
LINE
  5
42E
100
AcDbEntity
  8
CURVE
100
AcDbLine
 62
7
  6
CONTINUOUS
 10
87.0817595804
 20
71.1929174493
 11
87.5609607303
 21
71.6721185991
  0
LINE
  5
42F
100
AcDbEntity
  8
CURVE
100
AcDbLine
 62
7
  6
CONTINUOUS
 10
85.3615019278
 20
69.2626490826
 11
85.3629740025
 21
69.2641211574
  0
LINE
  5
430
100
AcDbEntity
  8
CURVE
100
AcDbLine
 62
7
  6
CONTINUOUS
 10
85.5570864745
 20
69.4582336294
 11
86.0788794745
 21
69.9800266294
  0
LINE
  5
431
100
AcDbEntity
  8
CURVE
100
AcDbLine
 62
7
  6
CONTINUOUS
 10
86.4840655542
 20
70.3852127091
 11
86.9235811379
 21
70.8247282928
  0
LINE
  5
432
100
AcDbEntity
  8
CURVE
100
AcDbLine
 62
7
  6
CONTINUOUS
 10
87.4179065844
 20
71.3190537393
 11
87.7129318244
 21
71.6140789793
  0
LINE
  5
433
100
AcDbEntity
  8
CURVE
100
AcDbLine
 62
7
  6
CONTINUOUS
 10
85.3615019278
 20
69.0526383686
 11
85.5218761009
 21
69.2130125417
  0
LINE
  5
434
100
AcDbEntity
  8
CURVE
100
AcDbLine
 62
7
  6
CONTINUOUS
 10
85.7670971886
 20
69.4582336294
 11
86.2888901886
 21
69.9800266294
  0
LINE
  5
435
100
AcDbEntity
  8
CURVE
100
AcDbLine
 62
7
  6
CONTINUOUS
 10
86.6766741979
 20
70.3678106388
 11
87.120031447
 21
70.8111678878
  0
LINE
  5
436
100
AcDbEntity
  8
CURVE
100
AcDbLine
 62
7
  6
CONTINUOUS
 10
87.7540535884
 20
71.4451900293
 11
87.8597151561
 21
71.550851597
  0
LINE
  5
437
100
AcDbEntity
  8
CURVE
100
AcDbLine
 62
7
  6
CONTINUOUS
 10
85.3615019278
 20
68.8426276546
 11
85.6807781993
 21
69.1619039261
  0
LINE
  5
438
100
AcDbEntity
  8
CURVE
100
AcDbLine
 62
7
  6
CONTINUOUS
 10
85.9771079026
 20
69.4582336294
 11
86.4989009026
 21
69.9800266294
  0
LINE
  5
439
100
AcDbEntity
  8
CURVE
100
AcDbLine
 62
7
  6
CONTINUOUS
 10
86.8692828417
 20
70.3504085685
 11
87.316481756
 21
70.7976074828
  0
LINE
  5
43A
100
AcDbEntity
  8
CURVE
100
AcDbLine
 62
7
  6
CONTINUOUS
 10
85.4474890125
 20
68.7186040253
 11
85.8396802977
 21
69.1107953105
  0
LINE
  5
43B
100
AcDbEntity
  8
CURVE
100
AcDbLine
 62
7
  6
CONTINUOUS
 10
86.1871186166
 20
69.4582336294
 11
86.7089116166
 21
69.9800266294
  0
LINE
  5
43C
100
AcDbEntity
  8
CURVE
100
AcDbLine
 62
7
  6
CONTINUOUS
 10
87.0618914854
 20
70.3330064982
 11
87.5129320651
 21
70.7840470779
  0
LINE
  5
43D
100
AcDbEntity
  8
CURVE
100
AcDbLine
 62
7
  6
CONTINUOUS
 10
85.6108500869
 20
68.6719543857
 11
85.9985823961
 21
69.0596866949
  0
LINE
  5
43E
100
AcDbEntity
  8
CURVE
100
AcDbLine
 62
7
  6
CONTINUOUS
 10
86.3971293306
 20
69.4582336294
 11
86.9189223306
 21
69.9800266294
  0
LINE
  5
43F
100
AcDbEntity
  8
CURVE
100
AcDbLine
 62
7
  6
CONTINUOUS
 10
87.2545001291
 20
70.3156044279
 11
87.7093823741
 21
70.7704866729
  0
LINE
  5
440
100
AcDbEntity
  8
CURVE
100
AcDbLine
 62
7
  6
CONTINUOUS
 10
85.7742111613
 20
68.6253047461
 11
86.1574844945
 21
69.0085780793
  0
LINE
  5
441
100
AcDbEntity
  8
CURVE
100
AcDbLine
 62
7
  6
CONTINUOUS
 10
86.6071400446
 20
69.4582336294
 11
87.1289330446
 21
69.9800266294
  0
LINE
  5
442
100
AcDbEntity
  8
CURVE
100
AcDbLine
 62
7
  6
CONTINUOUS
 10
87.4471087728
 20
70.2982023576
 11
87.8597151561
 21
70.7108087409
  0
LINE
  5
443
100
AcDbEntity
  8
CURVE
100
AcDbLine
 62
7
  6
CONTINUOUS
 10
85.9375722357
 20
68.5786551065
 11
86.3163865929
 21
68.9574694637
  0
LINE
  5
444
100
AcDbEntity
  8
CURVE
100
AcDbLine
 62
7
  6
CONTINUOUS
 10
86.8171507586
 20
69.4582336294
 11
87.3389437586
 21
69.9800266294
  0
LINE
  5
445
100
AcDbEntity
  8
CURVE
100
AcDbLine
 62
7
  6
CONTINUOUS
 10
87.6397174166
 20
70.2808002873
 11
87.8597151561
 21
70.5007980269
  0
LINE
  5
446
100
AcDbEntity
  8
CURVE
100
AcDbLine
 62
7
  6
CONTINUOUS
 10
86.1009333102
 20
68.5320054669
 11
86.4752886913
 21
68.9063608481
  0
LINE
  5
447
100
AcDbEntity
  8
CURVE
100
AcDbLine
 62
7
  6
CONTINUOUS
 10
87.0271614726
 20
69.4582336294
 11
87.5489544726
 21
69.9800266294
  0
LINE
  5
448
100
AcDbEntity
  8
CURVE
100
AcDbLine
 62
7
  6
CONTINUOUS
 10
87.8323260603
 20
70.2633982171
 11
87.8597151561
 21
70.2907873129
  0
LINE
  5
449
100
AcDbEntity
  8
CURVE
100
AcDbLine
 62
7
  6
CONTINUOUS
 10
85.3615019278
 20
67.5825633705
 11
85.6285490929
 21
67.8496105357
  0
LINE
  5
44A
100
AcDbEntity
  8
CURVE
100
AcDbLine
 62
7
  6
CONTINUOUS
 10
86.2642943846
 20
68.4853558273
 11
86.6341907897
 21
68.8552522325
  0
LINE
  5
44B
100
AcDbEntity
  8
CURVE
100
AcDbLine
 62
7
  6
CONTINUOUS
 10
87.2371721866
 20
69.4582336294
 11
87.7589651866
 21
69.9800266294
  0
LINE
  5
44C
100
AcDbEntity
  8
CURVE
100
AcDbLine
 62
7
  6
CONTINUOUS
 10
85.3615019278
 20
67.3725526565
 11
85.9190592257
 21
67.9301099544
  0
LINE
  5
44D
100
AcDbEntity
  8
CURVE
100
AcDbLine
 62
7
  6
CONTINUOUS
 10
86.427655459
 20
68.4387061878
 11
86.7930928881
 21
68.8041436169
  0
LINE
  5
44E
100
AcDbEntity
  8
CURVE
100
AcDbLine
 62
7
  6
CONTINUOUS
 10
87.4471829007
 20
69.4582336294
 11
87.8597151561
 21
69.8707658849
  0
LINE
  5
44F
100
AcDbEntity
  8
CURVE
100
AcDbLine
 62
7
  6
CONTINUOUS
 10
85.4292282723
 20
67.230268287
 11
86.2095693584
 21
68.0106093732
  0
LINE
  5
450
100
AcDbEntity
  8
CURVE
100
AcDbLine
 62
7
  6
CONTINUOUS
 10
86.5910165334
 20
68.3920565482
 11
86.9519949865
 21
68.7530350013
  0
LINE
  5
451
100
AcDbEntity
  8
CURVE
100
AcDbLine
 62
7
  6
CONTINUOUS
 10
87.6571936147
 20
69.4582336294
 11
87.8597151561
 21
69.6607551709
  0
LINE
  5
452
100
AcDbEntity
  8
CURVE
100
AcDbLine
 62
7
  6
CONTINUOUS
 10
85.7368068088
 20
67.3278361096
 11
86.5000794912
 21
68.0911087919
  0
LINE
  5
453
100
AcDbEntity
  8
CURVE
100
AcDbLine
 62
7
  6
CONTINUOUS
 10
86.7543776079
 20
68.3454069086
 11
87.1108970849
 21
68.7019263857
  0
LINE
  5
454
100
AcDbEntity
  8
CURVE
100
AcDbLine
 62
7
  6
CONTINUOUS
 10
86.0443853454
 20
67.4254039321
 11
86.7905896239
 21
68.1716082107
  0
LINE
  5
455
100
AcDbEntity
  8
CURVE
100
AcDbLine
 62
7
  6
CONTINUOUS
 10
86.9177386823
 20
68.298757269
 11
87.2697991833
 21
68.65081777
  0
LINE
  5
456
100
AcDbEntity
  8
CURVE
100
AcDbLine
 62
7
  6
CONTINUOUS
 10
86.351963882
 20
67.5229717547
 11
87.4287012817
 21
68.5997091544
  0
LINE
  5
457
100
AcDbEntity
  8
CURVE
100
AcDbLine
 62
7
  6
CONTINUOUS
 10
86.6595424186
 20
67.6205395772
 11
87.5876033801
 21
68.5486005388
  0
LINE
  5
458
100
AcDbEntity
  8
CURVE
100
AcDbLine
 62
7
  6
CONTINUOUS
 10
86.9671209551
 20
67.7181073998
 11
87.7465054785
 21
68.4974919232
  0
LINE
  5
459
100
AcDbEntity
  8
CURVE
100
AcDbLine
 62
7
  6
CONTINUOUS
 10
87.2746994917
 20
67.8156752224
 11
87.8597151561
 21
68.4006908868
  0
LINE
  5
45A
100
AcDbEntity
  8
CURVE
100
AcDbLine
 62
7
  6
CONTINUOUS
 10
87.5822780283
 20
67.9132430449
 11
87.8597151561
 21
68.1906801728
  0
LINE
  5
45B
100
AcDbEntity
  8
0
100
AcDbLine
 62
250
  6
CONTINUOUS
 10
90.9174435
 20
78.7879523855
 11
92.0169623599
 21
79.3715966005
  0
LINE
  5
45C
100
AcDbEntity
  8
0
100
AcDbLine
 62
250
  6
CONTINUOUS
 10
92.4417201485
 20
79.4619342477
 11
92.9638120013
 21
79.7390699119
  0
LINE
  5
45D
100
AcDbEntity
  8
0
100
AcDbLine
 62
7
  6
CONTINUOUS
 10
91.056682878
 20
78.6001411379
 11
92.9916709163
 21
79.627267289
  0
LWPOLYLINE
  5
45E
100
AcDbEntity
  8
0
100
AcDbPolyline
 62
250
  6
CONTINUOUS
 90
7
 70
0
 10
92.5806320775
 20
79.4090805447
 10
92.5689383016
 20
79.4045441144
 10
92.5559785912
 20
79.4026595133
 10
92.54188117
 20
79.4034435719
 10
92.5267877355
 20
79.4068861317
 10
92.5108450279
 20
79.4129515977
 10
92.4942021408
 20
79.4215833878
  0
LWPOLYLINE
  5
45F
100
AcDbEntity
  8
CURVE
100
AcDbPolyline
 62
250
  6
CONTINUOUS
 90
8
 70
0
 10
87.1021752079
 20
76.1776564545
 10
87.1367470627
 20
76.1903393818
 10
87.1714969573
 20
76.2025053299
 10
87.2064052151
 20
76.2142105111
 10
87.2414521591
 20
76.2255111373
 10
87.2766181125
 20
76.2364634208
 10
87.3118833986
 20
76.2471235737
 10
87.3472283405
 20
76.2575478081
  0
LINE
  5
460
100
AcDbEntity
  8
0
100
AcDbLine
 62
7
  6
CONTINUOUS
 10
91.0412990142
 20
130.9205944392
 11
92.9916709163
 21
131.1156316294
  0
LINE
  5
461
100
AcDbEntity
  8
0
100
AcDbLine
 62
7
  6
CONTINUOUS
 10
89.9916709163
 20
131.4714515039
 11
92.8021381075
 21
131.5956182971
  0
LINE
  5
462
100
AcDbEntity
  8
0
100
AcDbLine
 62
7
  6
CONTINUOUS
 10
89.9916709163
 20
130.7656316294
 11
90.1416709163
 21
130.7656316294
  0
LINE
  5
463
100
AcDbEntity
  8
0
100
AcDbLine
 62
7
  6
CONTINUOUS
 10
90.4416709163
 20
130.7656316294
 11
90.6416709163
 21
130.7656316294
  0
LINE
  5
464
100
AcDbEntity
  8
0
100
AcDbLine
 62
7
  6
CONTINUOUS
 10
89.9916709163
 20
130.9156316294
 11
90.9417952952
 21
130.9156316294
  0
LINE
  5
465
100
AcDbEntity
  8
0
100
AcDbLine
 62
250
  6
CONTINUOUS
 10
90.9174435
 20
132.6433108733
 11
89.9916709163
 21
132.6437290678
  0
LINE
  5
466
100
AcDbEntity
  8
0
100
AcDbLine
 62
7
  6
CONTINUOUS
 10
90.9175080673
 20
132.8657610681
 11
89.9916709163
 21
132.8673769604
  0
LINE
  5
467
100
AcDbEntity
  8
0
100
AcDbLine
 62
250
  6
CONTINUOUS
 10
92.4417201485
 20
131.9693290111
 11
89.9916709163
 21
131.9835829806
  0
LINE
  5
468
100
AcDbEntity
  8
0
100
AcDbLine
 62
7
  6
CONTINUOUS
 10
92.4417201485
 20
132.0571954898
 11
89.9916709163
 21
132.0714494592
  0
LWPOLYLINE
  5
469
100
AcDbEntity
  8
0
100
AcDbPolyline
 62
250
  6
CONTINUOUS
 90
7
 70
0
 10
92.5806320775
 20
132.0221827141
 10
92.5688854942
 20
132.0267328695
 10
92.5558902814
 20
132.0286072779
 10
92.5417829527
 20
132.0278054059
 10
92.526732003
 20
132.0243600372
 10
92.5108709426
 20
132.0183233462
 10
92.4942854722
 20
132.0097284952
  0
LINE
  5
46A
100
AcDbEntity
  8
0
100
AcDbLine
 62
250
  6
CONTINUOUS
 10
92.0169623599
 20
132.0596666583
 11
90.9174435
 21
132.6433108733
  0
LINE
  5
46B
100
AcDbEntity
  8
0
100
AcDbLine
 62
250
  6
CONTINUOUS
 10
92.9638120013
 20
131.6921933469
 11
92.4417201485
 21
131.9693290111
  0
LINE
  5
46C
100
AcDbEntity
  8
0
100
AcDbLine
 62
7
  6
CONTINUOUS
 10
91.056682878
 20
132.831122121
 11
92.9916709163
 21
131.8039959698
  0
LINE
  5
46D
100
AcDbEntity
  8
0
100
AcDbLine
 62
7
  6
CONTINUOUS
 10
83.8410617433
 20
61.910071975
 11
83.8261233741
 21
61.8956461595
  0
LINE
  5
46E
100
AcDbEntity
  8
ASSI
100
AcDbLine
 62
7
  6
CONTINUOUS
 10
83.8410617433
 20
61.910071975
 11
83.8261233741
 21
61.8956461595
  0
LINE
  5
46F
100
AcDbEntity
  8
CURVE
100
AcDbLine
 62
250
  6
CONTINUOUS
 10
85.3615019278
 20
74.1668716294
 11
87.8597151561
 21
74.9338526294
  0
LINE
  5
470
100
AcDbEntity
  8
CURVE
100
AcDbLine
 62
250
  6
CONTINUOUS
 10
87.3472283405
 20
76.2575478081
 11
87.4180784845
 21
76.27791337
  0
LINE
  5
471
100
AcDbEntity
  8
0
100
AcDbLine
 62
7
  6
CONTINUOUS
 10
83.8261233741
 20
149.5356170993
 11
83.8410617433
 21
149.5211912838
  0
LINE
  5
472
100
AcDbEntity
  8
ASSI
100
AcDbLine
 62
7
  6
CONTINUOUS
 10
83.8261233741
 20
149.5356170993
 11
83.8410617433
 21
149.5211912838
  0
LINE
  5
473
100
AcDbEntity
  8
CURVE
100
AcDbLine
 62
250
  6
CONTINUOUS
 10
87.8597151561
 20
71.4848386294
 11
86.228429497
 21
70.8727126294
  0
LINE
  5
474
100
AcDbEntity
  8
CURVE
100
AcDbLine
 62
250
  6
CONTINUOUS
 10
85.3615019278
 20
71.0079966294
 11
86.7485174803
 21
71.5242786294
  0
LINE
  5
475
100
AcDbEntity
  8
CURVE
100
AcDbLine
 62
250
  6
CONTINUOUS
 10
87.8597151561
 20
68.0012496294
 11
85.3615019278
 21
67.2087846294
  0
LINE
  5
476
100
AcDbEntity
  8
0
100
AcDbLine
 62
250
  6
CONTINUOUS
 10
89.3916709163
 20
147.1768422769
 11
89.9916709163
 21
147.2187983641
  0
LINE
  5
477
100
AcDbEntity
  8
0
100
AcDbLine
 62
7
  6
CONTINUOUS
 10
89.3916709163
 20
148.4736755422
 11
89.9916709163
 21
148.5156316294
  0
LINE
  5
478
100
AcDbEntity
  8
0
100
AcDbLine
 62
7
  6
CONTINUOUS
 10
83.8410617433
 20
149.5211912838
 11
89.3916709163
 21
149.7150228273
  0
LINE
  5
479
100
AcDbEntity
  8
ASSI
100
AcDbLine
 62
7
  6
CONTINUOUS
 10
83.8410617433
 20
149.5211912838
 11
89.3916709163
 21
149.7150228273
  0
LINE
  5
47A
100
AcDbEntity
  8
0
100
AcDbLine
 62
7
  6
CONTINUOUS
 10
83.8410617433
 20
150.5218000859
 11
89.3916709163
 21
150.7156316294
  0
LINE
  5
47B
100
AcDbEntity
  8
ASSI
100
AcDbLine
 62
7
  6
CONTINUOUS
 10
83.8410617433
 20
150.5218000859
 11
89.3916709163
 21
150.7156316294
  0
LWPOLYLINE
  5
47C
100
AcDbEntity
  8
0
100
AcDbPolyline
 62
7
  6
CONTINUOUS
 90
8
 70
0
 43
0.3500000006
 10
76.8427044983
 20
160.2660913696
 10
77.6998424377
 20
160.2660913696
 10
78.1284204712
 20
160.6946603394
 10
78.1284204712
 20
161.5517982788
 10
77.6998424377
 20
161.9803672485
 10
76.8427044983
 20
161.9803672485
 10
76.8427044983
 20
163.2660922852
 10
78.1284204712
 20
163.2660922852
  0
LWPOLYLINE
  5
47D
100
AcDbEntity
  8
0
100
AcDbPolyline
 62
7
  6
CONTINUOUS
 90
8
 70
0
 43
0.3500000006
 10
78.2983108521
 20
167.4413133545
 10
79.1554578552
 20
167.4413133545
 10
79.584026825
 20
167.8698823242
 10
79.584026825
 20
168.7270202637
 10
79.1554578552
 20
169.1555892334
 10
78.2983108521
 20
169.1555892334
 10
78.2983108521
 20
170.44131427
 10
79.584026825
 20
170.44131427
  0
CIRCLE
  5
47E
100
AcDbEntity
  8
0
100
AcDbCircle
 62
7
  6
CONTINUOUS
 10
158.0551853429
 20
95.4656316294
 40
4.85
  0
CIRCLE
  5
47F
100
AcDbEntity
  8
ASSI
100
AcDbCircle
 62
7
  6
CONTINUOUS
 10
158.0551853429
 20
95.4656316294
 40
4.85
  0
CIRCLE
  5
480
100
AcDbEntity
  8
0
100
AcDbCircle
 62
7
  6
CONTINUOUS
 10
158.0551853429
 20
95.4656316294
 40
4.35
  0
CIRCLE
  5
481
100
AcDbEntity
  8
ASSI
100
AcDbCircle
 62
7
  6
CONTINUOUS
 10
158.0551853429
 20
95.4656316294
 40
4.35
  0
CIRCLE
  5
482
100
AcDbEntity
  8
0
100
AcDbCircle
 62
7
  6
CONTINUOUS
 10
158.0551853429
 20
115.9656316294
 40
4.85
  0
CIRCLE
  5
483
100
AcDbEntity
  8
ASSI
100
AcDbCircle
 62
7
  6
CONTINUOUS
 10
158.0551853429
 20
115.9656316294
 40
4.85
  0
CIRCLE
  5
484
100
AcDbEntity
  8
0
100
AcDbCircle
 62
7
  6
CONTINUOUS
 10
158.0551853429
 20
115.9656316294
 40
4.35
  0
CIRCLE
  5
485
100
AcDbEntity
  8
ASSI
100
AcDbCircle
 62
7
  6
CONTINUOUS
 10
158.0551853429
 20
115.9656316294
 40
4.35
  0
CIRCLE
  5
486
100
AcDbEntity
  8
0
100
AcDbCircle
 62
7
  6
CONTINUOUS
 10
203.0551853429
 20
95.4656316294
 40
4.85
  0
CIRCLE
  5
487
100
AcDbEntity
  8
0
100
AcDbCircle
 62
7
  6
CONTINUOUS
 10
180.5551853429
 20
95.4656316294
 40
4.85
  0
CIRCLE
  5
488
100
AcDbEntity
  8
ASSI
100
AcDbCircle
 62
7
  6
CONTINUOUS
 10
203.0551853429
 20
95.4656316294
 40
4.85
  0
CIRCLE
  5
489
100
AcDbEntity
  8
ASSI
100
AcDbCircle
 62
7
  6
CONTINUOUS
 10
180.5551853429
 20
95.4656316294
 40
4.85
  0
CIRCLE
  5
48A
100
AcDbEntity
  8
0
100
AcDbCircle
 62
7
  6
CONTINUOUS
 10
180.5551853429
 20
95.4656316294
 40
4.35
  0
CIRCLE
  5
48B
100
AcDbEntity
  8
0
100
AcDbCircle
 62
7
  6
CONTINUOUS
 10
203.0551853429
 20
95.4656316294
 40
4.35
  0
CIRCLE
  5
48C
100
AcDbEntity
  8
ASSI
100
AcDbCircle
 62
7
  6
CONTINUOUS
 10
180.5551853429
 20
95.4656316294
 40
4.35
  0
CIRCLE
  5
48D
100
AcDbEntity
  8
ASSI
100
AcDbCircle
 62
7
  6
CONTINUOUS
 10
203.0551853429
 20
95.4656316294
 40
4.35
  0
CIRCLE
  5
48E
100
AcDbEntity
  8
0
100
AcDbCircle
 62
7
  6
CONTINUOUS
 10
203.0551853429
 20
115.9656316294
 40
4.85
  0
CIRCLE
  5
48F
100
AcDbEntity
  8
0
100
AcDbCircle
 62
7
  6
CONTINUOUS
 10
180.5551853429
 20
115.9656316294
 40
4.85
  0
CIRCLE
  5
490
100
AcDbEntity
  8
ASSI
100
AcDbCircle
 62
7
  6
CONTINUOUS
 10
203.0551853429
 20
115.9656316294
 40
4.85
  0
CIRCLE
  5
491
100
AcDbEntity
  8
ASSI
100
AcDbCircle
 62
7
  6
CONTINUOUS
 10
180.5551853429
 20
115.9656316294
 40
4.85
  0
CIRCLE
  5
492
100
AcDbEntity
  8
0
100
AcDbCircle
 62
7
  6
CONTINUOUS
 10
180.5551853429
 20
115.9656316294
 40
4.35
  0
CIRCLE
  5
493
100
AcDbEntity
  8
0
100
AcDbCircle
 62
7
  6
CONTINUOUS
 10
203.0551853429
 20
115.9656316294
 40
4.35
  0
CIRCLE
  5
494
100
AcDbEntity
  8
ASSI
100
AcDbCircle
 62
7
  6
CONTINUOUS
 10
180.5551853429
 20
115.9656316294
 40
4.35
  0
CIRCLE
  5
495
100
AcDbEntity
  8
ASSI
100
AcDbCircle
 62
7
  6
CONTINUOUS
 10
203.0551853429
 20
115.9656316294
 40
4.35
  0
ARC
  5
496
100
AcDbEntity
  8
0
100
AcDbCircle
 62
7
  6
CONTINUOUS
 10
90.9417952952
 20
131.9156316294
 40
1.0
100
AcDbArc
 50
270.0
 51
275.7105931375
  0
ARC
  5
497
100
AcDbEntity
  8
0
100
AcDbCircle
 62
7
  6
CONTINUOUS
 10
90.9417952952
 20
79.5156316294
 40
1.0
100
AcDbArc
 50
84.2894068625
 51
90.0
  0
ARC
  5
498
100
AcDbEntity
  8
0
100
AcDbCircle
 62
7
  6
CONTINUOUS
 10
90.9169842412
 20
132.5656311254
 40
0.3
100
AcDbArc
 50
62.0510370175
 51
89.8999998573
  0
ARC
  5
499
100
AcDbEntity
  8
0
100
AcDbCircle
 62
7
  6
CONTINUOUS
 10
90.9169842412
 20
78.8656321334
 40
0.3
100
AcDbArc
 50
270.1000001427
 51
297.9489629825
  0
ARC
  5
49A
100
AcDbEntity
  8
0
100
AcDbCircle
 62
7
  6
CONTINUOUS
 10
92.4399748291
 20
79.6740626921
 40
0.3
100
AcDbArc
 50
270.3333333333
 51
297.9601595781
  0
ARC
  5
49B
100
AcDbEntity
  8
0
100
AcDbCircle
 62
7
  6
CONTINUOUS
 10
92.4399748291
 20
131.7572005667
 40
0.3
100
AcDbArc
 50
62.0398404207
 51
89.6666666667
  0
ELLIPSE
  5
49C
100
AcDbEntity
  8
0
100
AcDbEllipse
 62
7
  6
CONTINUOUS
 10
92.7916709163
 20
79.6358329344
 30
0.0
 11
0.1417119467
 21
0.1422961243
 31
0.0
 40
0.9918061237
 41
-0.2491986107
 42
0.7350951877
  0
ELLIPSE
  5
49D
100
AcDbEntity
  8
0
100
AcDbEllipse
 62
7
  6
CONTINUOUS
 10
92.7916709163
 20
131.7954303244
 30
0.0
 11
-0.1417119467
 21
0.1422961243
 31
0.0
 40
0.9918061237
 41
-3.8766878413
 42
-2.8923940429
  0
ENDSEC
  0
SECTION
  2
OBJECTS
  0
DICTIONARY
  5
C
100
AcDbDictionary
280
0
281
1
  3
ACAD_GROUP
350
D
  3
ACAD_MLINESTYLE
350
17
  3
ACAD_LAYOUT
350
1A
  3
ACAD_PLOTSETTINGS
350
19
  3
ACAD_PLOTSTYLENAME
350
E
  0
DICTIONARY
  5
D
102
{ACAD_REACTORS
330
C
102
}
100
AcDbDictionary
280
0
281
1
  0
ACDBDICTIONARYWDFLT
  5
E
102
{ACAD_REACTORS
330
C
102
}
100
AcDbDictionary
281
1
  3
Normal
350
F
100
AcDbDictionaryWithDefault
340
F
  0
DICTIONARY
  5
17
102
{ACAD_REACTORS
330
C
102
}
100
AcDbDictionary
280
0
281
1
  3
Standard
350
18
  0
DICTIONARY
  5
19
102
{ACAD_REACTORS
330
C
102
}
100
AcDbDictionary
281
1
  0
DICTIONARY
  5
1A
102
{ACAD_REACTORS
330
C
102
}
100
AcDbDictionary
281
1
  3
Model
350
49E
  3
Layout1
350
49F
  0
ACDBPLACEHOLDER
  5
F
102
{ACAD_REACTORS
330
E
102
}
  0
MLINESTYLE
  5
18
102
{ACAD_REACTORS
330
17
102
}
100
AcDbMlineStyle
  2
STANDARD
 70
0
  3

 62
256
 51
90.0
 52
90.0
 71
2
 49
0.5
 62
256
  6
BYLAYER
 49
-0.5
 62
256
  6
BYLAYER
  0
LAYOUT
  5
49E
102
{ACAD_REACTORS
330
1A
102
}
100
AcDbPlotSettings
  1

  2
none_device
  4
ISO_A4_(297.00_x_210.00_MM)
  6

 40
0.0
 41
0.0
 42
0.0
 43
0.0
 44
297.0
 45
210.0
 46
0.0
 47
0.0
 48
0.0
 49
0.0
140
0.0
141
0.0
142
1.0
143
1.0
 70
1024
 72
1
 73
0
 74
0
  7

 75
0
147
1.0
148
0.0
149
0.0
100
AcDbLayout
  1
Model
 70
0
 71
0
 10
0.0
 20
0.0
 11
297.0
 21
210.0
 12
0.0
 22
0.0
 32
0.0
 14
0.0
 24
0.0
 34
0.0
 15
0.0
 25
0.0
 35
0.0
146
0.0
 13
0.0
 23
0.0
 33
0.0
 16
1.0
 26
0.0
 36
0.0
 17
0.0
 27
1.0
 37
0.0
 76
0
330
21E
345
0
346
0
  0
LAYOUT
  5
49F
102
{ACAD_REACTORS
330
1A
102
}
100
AcDbPlotSettings
  1

  2
none_device
  4
ISO_A4_(297.00_x_210.00_MM)
  6

 40
0.0
 41
0.0
 42
0.0
 43
0.0
 44
297.0
 45
210.0
 46
0.0
 47
0.0
 48
0.0
 49
0.0
140
0.0
141
0.0
142
1.0
143
1.0
 70
0
 72
1
 73
0
 74
0
  7

 75
0
147
1.0
148
0.0
149
0.0
100
AcDbLayout
  1
Layout1
 70
0
 71
1
 10
0.0
 20
0.0
 11
297.0
 21
210.0
 12
0.0
 22
0.0
 32
0.0
 14
0.0
 24
0.0
 34
0.0
 15
0.0
 25
0.0
 35
0.0
146
0.0
 13
0.0
 23
0.0
 33
0.0
 16
1.0
 26
0.0
 36
0.0
 17
0.0
 27
1.0
 37
0.0
 76
0
330
21F
345
0
346
0
  0
ENDSEC
  0
EOF
