  0
SECTION
  2
HEADER
  9
$ACADVER
  1
AC1024
  9
$DWGCODEPAGE
  3
ANSI_1252
  9
$EXTMAX
 10
297.0
 20
210.0
 30
0.0
  9
$EXTMIN
 10
0.0
 20
0.0
 30
0.0
  9
$LIMMIN
 10
0.0
 20
0.0
  9
$LIMMAX
 10
297.0
 20
210.0
  9
$VIEWCTR
 10
148.5
 20
105.0
  9
$VIEWSIZE
 40
210.0
  9
$CLAYER
  8
0
  9
$LTSCALE
 40
16.335
  9
$CELTYPE
  6
BYLAYER
  9
$DIMSCALE
 40
1.0
  9
$DIMASZ
 40
3.0
  9
$DIMEXO
 40
0.5
  9
$DIMDLI
 40
11.286
  9
$DIMEXE
 40
1.5
  9
$DIMCEN
 40
2.673
  9
$DIMLFAC
 40
1.0
  9
$DIMBLK
  1
_FILLED
  9
$DIMALT
 70
0
  9
$DIMALTF
 40
0.0393700787
  9
$DIMTXT
 40
3.0
  9
$DIMTOL
 70
1
  9
$DIMLIM
 70
0
  9
$DIMTFAC
 40
1.0
  9
$DIMTP
 40
0.01
  9
$DIMTM
 40
0.01
  9
$DIMGAP
 40
0.625
  9
$DIMDSEP
 70
44
  9
$AUNITS
 70
0
  9
$PDMODE
 70
3
  9
$PDSIZE
 40
3.0
  9
$HANDSEED
  5
4B9
  9
$TILEMODE
 70
1
  9
$MEASUREMENT
 70
1
  9
$INSUNITS
 70
4
  0
ENDSEC
  0
SECTION
  2
CLASSES
  0
CLASS
  1
ACDBDICTIONARYWDFLT
  2
AcDbDictionaryWithDefault
  3
AutoCAD 2000
 90
0
 91
1
280
0
281
0
  0
CLASS
  1
ACDBPLACEHOLDER
  2
AcDbPlaceHolder
  3
AutoCAD 2000
 90
0
 91
1
280
0
281
0
  0
CLASS
  1
LAYOUT
  2
AcDbLayout
  3
AutoCAD 2000
 90
0
 91
0
280
0
281
0
  0
ENDSEC
  0
SECTION
  2
TABLES
  0
TABLE
  2
VPORT
  5
8
100
AcDbSymbolTable
 70
2
  0
VPORT
  5
1F4
100
AcDbSymbolTableRecord
100
AcDbViewportTableRecord
  2
*ACTIVE
 70
0
 10
0.0
 20
0.0
 11
1.0
 21
1.0
 12
148.5
 22
105.0
 13
0.0
 23
0.0
 14
1.0
 24
1.0
 15
0.0
 25
0.0
 16
0.0
 26
0.0
 36
1.0
 17
0.0
 27
0.0
 37
0.0
 40
210.0
 41
1.4142857143
 42
50.0
 43
0.0
 44
0.0
 50
0.0
 51
0.0
 71
0
 72
100
 73
1
 74
1
 75
0
 76
0
 77
0
 78
0
  0
ENDTAB
  0
TABLE
  2
LTYPE
  5
5
100
AcDbSymbolTable
 70
6
  0
LTYPE
  5
14
100
AcDbSymbolTableRecord
100
AcDbLinetypeTableRecord
  2
BYBLOCK
 70
0
  3

 72
65
 73
0
 40
0.0
  0
LTYPE
  5
15
100
AcDbSymbolTableRecord
100
AcDbLinetypeTableRecord
  2
BYLAYER
 70
0
  3

 72
65
 73
0
 40
0.0
  0
LTYPE
  5
16
100
AcDbSymbolTableRecord
100
AcDbLinetypeTableRecord
  2
CONTINUOUS
 70
64
  3
Solid line
 72
65
 73
0
 40
0.0
  0
LTYPE
  5
1F5
100
AcDbSymbolTableRecord
100
AcDbLinetypeTableRecord
  2
CENTER
 70
64
  3
____ _ ____ _ ____ _ ____ _ ____ _ ____ _ ____
 72
65
 73
4
 40
0.6
 49
0.375
 74
0
 49
-0.075
 74
0
 49
0.075
 74
0
 49
-0.075
 74
0
  0
LTYPE
  5
1F6
100
AcDbSymbolTableRecord
100
AcDbLinetypeTableRecord
  2
HIDDEN
 70
64
  3
- - - - - - - - - - - - - - - - - - - -
 72
65
 73
2
 40
0.2
 49
0.1
 74
0
 49
-0.1
 74
0
  0
LTYPE
  5
1F7
100
AcDbSymbolTableRecord
100
AcDbLinetypeTableRecord
  2
PHANTOM
 70
64
  3
_____ _ _ _____ _ _ _____ _ _ _____
 72
65
 73
6
 40
0.8
 49
0.45
 74
0
 49
-0.05
 74
0
 49
0.1
 74
0
 49
-0.05
 74
0
 49
0.1
 74
0
 49
-0.05
 74
0
  0
LTYPE
  5
1F8
100
AcDbSymbolTableRecord
100
AcDbLinetypeTableRecord
  2
DOT
 70
64
  3
. . . . . . . . . . . . . . . . . . . .
 72
65
 73
2
 40
0.2
 49
0.1
 74
0
 49
-0.1
 74
0
  0
LTYPE
  5
1F9
100
AcDbSymbolTableRecord
100
AcDbLinetypeTableRecord
  2
DASHED
 70
64
  3
- - - - - - - - - - - - - - - - - - - -
 72
65
 73
2
 40
0.2
 49
0.1
 74
0
 49
-0.1
 74
0
  0
ENDTAB
  0
TABLE
  2
LAYER
  5
2
100
AcDbSymbolTable
 70
36
  0
LAYER
  5
10
100
AcDbSymbolTableRecord
100
AcDbLayerTableRecord
  2
0
 70
0
 62
7
  6
CONTINUOUS
370
-3
390
F
  0
LAYER
  5
1FA
100
AcDbSymbolTableRecord
100
AcDbLayerTableRecord
  2
DEFAULT_1
 70
0
 62
7
  6
CENTER
370
-3
390
F
  0
LAYER
  5
1FB
100
AcDbSymbolTableRecord
100
AcDbLayerTableRecord
  2
DEFAULT_2
 70
0
 62
7
  6
HIDDEN
370
-3
390
F
  0
LAYER
  5
1FC
100
AcDbSymbolTableRecord
100
AcDbLayerTableRecord
  2
DEFAULT_3
 70
0
 62
7
  6
PHANTOM
370
-3
390
F
  0
LAYER
  5
1FD
100
AcDbSymbolTableRecord
100
AcDbLayerTableRecord
  2
ASSI
 70
0
 62
7
  6
CONTINUOUS
370
-3
390
F
  0
LAYER
  5
1FE
100
AcDbSymbolTableRecord
100
AcDbLayerTableRecord
  2
COORDINATE
 70
0
 62
7
  6
CONTINUOUS
370
-3
390
F
  0
LAYER
  5
1FF
100
AcDbSymbolTableRecord
100
AcDbLayerTableRecord
  2
COORD_ORIGINE
 70
0
 62
7
  6
CONTINUOUS
370
-3
390
F
  0
LAYER
  5
200
100
AcDbSymbolTableRecord
100
AcDbLayerTableRecord
  2
COPY_PUBLISH
 70
0
 62
7
  6
CONTINUOUS
370
-3
390
F
  0
LAYER
  5
201
100
AcDbSymbolTableRecord
100
AcDbLayerTableRecord
  2
COSMETIC
 70
0
 62
7
  6
CONTINUOUS
370
-3
390
F
  0
LAYER
  5
202
100
AcDbSymbolTableRecord
100
AcDbLayerTableRecord
  2
COSMETICI
 70
0
 62
7
  6
CONTINUOUS
370
-3
390
F
  0
LAYER
  5
203
100
AcDbSymbolTableRecord
100
AcDbLayerTableRecord
  2
CURVA_TASSELLO
 70
0
 62
7
  6
CONTINUOUS
370
-3
390
F
  0
LAYER
  5
204
100
AcDbSymbolTableRecord
100
AcDbLayerTableRecord
  2
CURVE
 70
0
 62
7
  6
CONTINUOUS
370
-3
390
F
  0
LAYER
  5
205
100
AcDbSymbolTableRecord
100
AcDbLayerTableRecord
  2
DRAFT
 70
0
 62
7
  6
CONTINUOUS
370
-3
390
F
  0
LAYER
  5
206
100
AcDbSymbolTableRecord
100
AcDbLayerTableRecord
  2
IMPORT_IGES
 70
0
 62
7
  6
CONTINUOUS
370
-3
390
F
  0
LAYER
  5
207
100
AcDbSymbolTableRecord
100
AcDbLayerTableRecord
  2
INTFCLR_2
 70
0
 62
7
  6
CONTINUOUS
370
-3
390
F
  0
LAYER
  5
208
100
AcDbSymbolTableRecord
100
AcDbLayerTableRecord
  2
INTF_1
 70
0
 62
7
  6
CONTINUOUS
370
-3
390
F
  0
LAYER
  5
209
100
AcDbSymbolTableRecord
100
AcDbLayerTableRecord
  2
INTF_6
 70
0
 62
7
  6
CONTINUOUS
370
-3
390
F
  0
LAYER
  5
20A
100
AcDbSymbolTableRecord
100
AcDbLayerTableRecord
  2
INTF_7
 70
0
 62
7
  6
CONTINUOUS
370
-3
390
F
  0
LAYER
  5
20B
100
AcDbSymbolTableRecord
100
AcDbLayerTableRecord
  2
LINEA_CHIUSURA
 70
0
 62
7
  6
CONTINUOUS
370
-3
390
F
  0
LAYER
  5
20C
100
AcDbSymbolTableRecord
100
AcDbLayerTableRecord
  2
LIVELLO_1
 70
0
 62
7
  6
CONTINUOUS
370
-3
390
F
  0
LAYER
  5
20D
100
AcDbSymbolTableRecord
100
AcDbLayerTableRecord
  2
NOTE
 70
0
 62
7
  6
CONTINUOUS
370
-3
390
F
  0
LAYER
  5
20E
100
AcDbSymbolTableRecord
100
AcDbLayerTableRecord
  2
PIANI
 70
0
 62
7
  6
CONTINUOUS
370
-3
390
F
  0
LAYER
  5
20F
100
AcDbSymbolTableRecord
100
AcDbLayerTableRecord
  2
PIANI_ORIGINE
 70
0
 62
7
  6
CONTINUOUS
370
-3
390
F
  0
LAYER
  5
210
100
AcDbSymbolTableRecord
100
AcDbLayerTableRecord
  2
PIANI_RIFERIMENTO
 70
0
 62
7
  6
CONTINUOUS
370
-3
390
F
  0
LAYER
  5
211
100
AcDbSymbolTableRecord
100
AcDbLayerTableRecord
  2
PUNTI
 70
0
 62
7
  6
CONTINUOUS
370
-3
390
F
  0
LAYER
  5
212
100
AcDbSymbolTableRecord
100
AcDbLayerTableRecord
  2
RACCORDO
 70
0
 62
7
  6
CONTINUOUS
370
-3
390
F
  0
LAYER
  5
213
100
AcDbSymbolTableRecord
100
AcDbLayerTableRecord
  2
RGB__255__255__255__
 70
0
 62
7
  6
CONTINUOUS
370
-3
390
F
  0
LAYER
  5
214
100
AcDbSymbolTableRecord
100
AcDbLayerTableRecord
  2
RGB____0____0____0__
 70
0
 62
7
  6
CONTINUOUS
370
-3
390
F
  0
LAYER
  5
215
100
AcDbSymbolTableRecord
100
AcDbLayerTableRecord
  2
SIMBOLI
 70
0
 62
7
  6
CONTINUOUS
370
-3
390
F
  0
LAYER
  5
216
100
AcDbSymbolTableRecord
100
AcDbLayerTableRecord
  2
SMUSSO
 70
0
 62
7
  6
CONTINUOUS
370
-3
390
F
  0
LAYER
  5
217
100
AcDbSymbolTableRecord
100
AcDbLayerTableRecord
  2
SNAPLINE
 70
0
 62
7
  6
CONTINUOUS
370
-3
390
F
  0
LAYER
  5
218
100
AcDbSymbolTableRecord
100
AcDbLayerTableRecord
  2
SUPERFICI
 70
0
 62
7
  6
CONTINUOUS
370
-3
390
F
  0
LAYER
  5
219
100
AcDbSymbolTableRecord
100
AcDbLayerTableRecord
  2
TRASH
 70
0
 62
7
  6
CONTINUOUS
370
-3
390
F
  0
LAYER
  5
21A
100
AcDbSymbolTableRecord
100
AcDbLayerTableRecord
  2
WHITE
 70
0
 62
7
  6
CONTINUOUS
370
-3
390
F
  0
LAYER
  5
21B
100
AcDbSymbolTableRecord
100
AcDbLayerTableRecord
  2
XSEC_DATUMS
 70
0
 62
7
  6
CONTINUOUS
370
-3
390
F
  0
ENDTAB
  0
TABLE
  2
STYLE
  5
3
100
AcDbSymbolTable
 70
1
  0
STYLE
  5
11
100
AcDbSymbolTableRecord
100
AcDbTextStyleTableRecord
  2
STANDARD
 70
0
 40
0.0
 41
0.8
 50
0.0
 71
0
 42
0.2
  3
txt
  4

  0
STYLE
  5
21C
100
AcDbSymbolTableRecord
100
AcDbTextStyleTableRecord
  2
TEXTSTYLE_1
 70
0
 40
0.0
 41
0.8
 50
0.0
 71
0
 42
0.2
  3
gdt
  4

  0
ENDTAB
  0
TABLE
  2
VIEW
  5
6
100
AcDbSymbolTable
 70
0
  0
ENDTAB
  0
TABLE
  2
UCS
  5
7
100
AcDbSymbolTable
 70
0
  0
ENDTAB
  0
TABLE
  2
APPID
  5
9
100
AcDbSymbolTable
 70
1
  0
APPID
  5
21D
100
AcDbSymbolTableRecord
100
AcDbRegAppTableRecord
  2
ACAD
 70
0
  0
ENDTAB
  0
TABLE
  2
BLOCK_RECORD
  5
1
100
AcDbSymbolTable
 70
0
  0
BLOCK_RECORD
  5
21E
100
AcDbSymbolTableRecord
100
AcDbBlockTableRecord
  2
*Model_Space
  0
BLOCK_RECORD
  5
21F
100
AcDbSymbolTableRecord
100
AcDbBlockTableRecord
  2
*Paper_Space
  0
BLOCK_RECORD
  5
220
100
AcDbSymbolTableRecord
100
AcDbBlockTableRecord
  2
_FILLED
  0
BLOCK_RECORD
  5
221
100
AcDbSymbolTableRecord
100
AcDbBlockTableRecord
  2
*D0
  0
BLOCK_RECORD
  5
222
100
AcDbSymbolTableRecord
100
AcDbBlockTableRecord
  2
*D1
  0
BLOCK_RECORD
  5
223
100
AcDbSymbolTableRecord
100
AcDbBlockTableRecord
  2
*D2
  0
BLOCK_RECORD
  5
224
100
AcDbSymbolTableRecord
100
AcDbBlockTableRecord
  2
*D3
  0
ENDTAB
  0
TABLE
  2
DIMSTYLE
  5
A
100
AcDbSymbolTable
 70
1
100
AcDbDimStyleTable
 71
0
  0
DIMSTYLE
105
225
100
AcDbSymbolTableRecord
100
AcDbDimStyleTableRecord
  2
STANDARD
 70
0
  3

  4

 40
1.0
 41
3.0
 42
0.5
 43
0.38
 44
1.5
 45
0.0
 46
0.0
 47
0.01
 48
0.01
140
3.0
141
0.09
142
0.0
143
25.4
144
1.0
145
0.0
146
1.0
147
0.625
 71
1
 72
0
 73
0
 74
0
 75
0
 76
0
 77
1
 78
8
 79
2
170
0
171
1
172
0
173
0
174
0
175
0
176
0
177
0
178
0
270
2
179
2
271
2
272
2
273
2
274
2
275
0
280
0
281
0
282
0
283
1
284
8
285
0
286
0
287
3
288
0
340
11
278
44
341
220
342
220
343
220
344
220
  0
DIMSTYLE
105
226
100
AcDbSymbolTableRecord
100
AcDbDimStyleTableRecord
  2
DIMSTYLE_1
 70
0
  3

  4

 40
1.0
 41
3.0
 42
0.5
 43
0.38
 44
1.5
 45
0.0
 46
0.0
 47
0.0
 48
0.0
140
3.0
141
0.09
142
0.0
143
25.4
144
1.0
145
0.0
146
1.0
147
0.75
 71
0
 72
0
 73
0
 74
0
 75
0
 76
0
 77
1
 78
8
 79
2
170
0
171
1
172
0
173
0
174
0
175
0
176
0
177
0
178
0
270
2
179
2
271
2
272
2
273
2
274
2
275
0
280
0
281
0
282
0
283
1
284
8
285
0
286
0
287
3
288
0
340
11
278
44
341
220
342
220
343
220
344
220
  0
ENDTAB
  0
ENDSEC
  0
SECTION
  2
BLOCKS
  0
BLOCK
  5
20
100
AcDbEntity
  8
0
100
AcDbBlockBegin
  2
*Model_Space
 70
0
 10
0.0
 20
0.0
 30
0.0
  3
*Model_Space
  1

  0
ENDBLK
  5
21
100
AcDbEntity
  8
0
100
AcDbBlockEnd
  0
BLOCK
  5
1C
100
AcDbEntity
  8
0
100
AcDbBlockBegin
  2
*Paper_Space
 70
0
 10
0.0
 20
0.0
 30
0.0
  3
*Paper_Space
  1

  0
ENDBLK
  5
1D
100
AcDbEntity
  8
0
100
AcDbBlockEnd
  0
BLOCK
  5
227
100
AcDbEntity
  8
0
100
AcDbBlockBegin
  2
_FILLED
 70
64
 10
0.0
 20
0.0
  3
_FILLED
  1

  0
SOLID
  5
228
100
AcDbEntity
  8
0
  6
BYBLOCK
 62
0
100
AcDbTrace
 10
0.0
 20
0.0
 11
-1.0
 21
0.3166666667
 12
-1.0
 22
-0.3166666667
 13
-1.0
 23
-0.3166666667
  0
ENDBLK
  5
229
100
AcDbEntity
  8
0
  6
BYBLOCK
 62
0
100
AcDbBlockEnd
  0
BLOCK
  5
22A
100
AcDbEntity
  8
0
100
AcDbBlockBegin
 62
7
  6
CONTINUOUS
  2
*D0
 70
65
 10
0.0
 20
0.0
  3
*D0
  1

  0
MTEXT
  5
22B
100
AcDbEntity
  8
0
100
AcDbMText
 62
7
  6
CONTINUOUS
  7
STANDARD
 71
2
 72
1
 10
0.0
 20
58.75
 30
0.0
 11
1.0
 21
0.0
 31
0.0
 73
2
 44
0.9
  1
{\ftxt;\W0.0001;\H0.0001;\~}{\ftxt;\W3.4285714286;\H3.0; }{\ftxt;\W0.0001;\H0.0001;\~}
 40
3.0
 41
15.4285714286
  0
LINE
  5
22C
100
AcDbEntity
  8
0
100
AcDbLine
 62
7
  6
CONTINUOUS
 10
-72.25
 20
44.4993911979
 11
-72.25
 21
56.5
  0
LINE
  5
22D
100
AcDbEntity
  8
0
100
AcDbLine
 62
7
  6
CONTINUOUS
 10
72.25
 20
44.4993911979
 11
72.25
 21
56.5
  0
LINE
  5
22E
100
AcDbEntity
  8
0
100
AcDbLine
 62
7
  6
CONTINUOUS
 10
-72.25
 20
55.0
 11
0.0
 21
55.0
  0
LINE
  5
22F
100
AcDbEntity
  8
0
100
AcDbLine
 62
7
  6
CONTINUOUS
 10
72.25
 20
55.0
 11
0.0
 21
55.0
  0
INSERT
  5
230
100
AcDbEntity
  8
0
100
AcDbBlockReference
 62
7
  6
CONTINUOUS
  2
_FILLED
 10
-72.25
 20
55.0
 41
3.0
 42
3.0
 43
3.0
 50
180.0
  0
INSERT
  5
231
100
AcDbEntity
  8
0
100
AcDbBlockReference
 62
7
  6
CONTINUOUS
  2
_FILLED
 10
72.25
 20
55.0
 41
3.0
 42
3.0
 43
3.0
 50
0.0
  0
ENDBLK
  5
232
100
AcDbEntity
  8
0
  6
BYBLOCK
 62
0
100
AcDbBlockEnd
  0
BLOCK
  5
233
100
AcDbEntity
  8
0
100
AcDbBlockBegin
 62
7
  6
CONTINUOUS
  2
*D1
 70
65
 10
0.0
 20
0.0
  3
*D1
  1

  0
MTEXT
  5
234
100
AcDbEntity
  8
0
100
AcDbMText
 62
7
  6
CONTINUOUS
  7
STANDARD
 71
2
 72
1
 10
78.5
 20
0.0
 30
0.0
 11
0.0
 21
1.0
 31
0.0
 73
2
 44
0.9
  1
{\ftxt;\W0.0001;\H0.0001;\~}{\ftxt;\W1.5714285714;\H3.0; }{\ftxt;\W0.0001;\H0.0001;\~}
 40
3.0
 41
7.0714285714
  0
LINE
  5
235
100
AcDbEntity
  8
0
100
AcDbLine
 62
7
  6
CONTINUOUS
 10
71.7493911979
 20
45.0
 11
83.75
 21
45.0
  0
LINE
  5
236
100
AcDbEntity
  8
0
100
AcDbLine
 62
7
  6
CONTINUOUS
 10
71.7493911979
 20
-45.0
 11
83.75
 21
-45.0
  0
LINE
  5
237
100
AcDbEntity
  8
0
100
AcDbLine
 62
7
  6
CONTINUOUS
 10
82.25
 20
45.0
 11
82.25
 21
0.0
  0
LINE
  5
238
100
AcDbEntity
  8
0
100
AcDbLine
 62
7
  6
CONTINUOUS
 10
82.25
 20
-45.0
 11
82.25
 21
0.0
  0
INSERT
  5
239
100
AcDbEntity
  8
0
100
AcDbBlockReference
 62
7
  6
CONTINUOUS
  2
_FILLED
 10
82.25
 20
45.0
 41
3.0
 42
3.0
 43
3.0
 50
90.0
  0
INSERT
  5
23A
100
AcDbEntity
  8
0
100
AcDbBlockReference
 62
7
  6
CONTINUOUS
  2
_FILLED
 10
82.25
 20
-45.0
 41
3.0
 42
3.0
 43
3.0
 50
270.0
  0
ENDBLK
  5
23B
100
AcDbEntity
  8
0
  6
BYBLOCK
 62
0
100
AcDbBlockEnd
  0
BLOCK
  5
23C
100
AcDbEntity
  8
0
100
AcDbBlockBegin
 62
7
  6
CONTINUOUS
  2
*D2
 70
65
 10
0.0
 20
0.0
  3
*D2
  1

  0
MTEXT
  5
23D
100
AcDbEntity
  8
0
100
AcDbMText
 62
7
  6
CONTINUOUS
  7
STANDARD
 71
3
 72
1
 10
-116.0140037276
 20
58.75
 30
0.0
 11
1.0
 21
0.0
 31
0.0
 73
2
 44
0.9
  1
{\ftxt;\W0.0001;\H0.0001;\~}{\ftxt;\W2.6428571429;\H3.0; }{\ftxt;\W0.0001;\H0.0001;\~}
 40
3.0
 41
11.8928571429
  0
LINE
  5
23E
100
AcDbEntity
  8
0
100
AcDbLine
 62
7
  6
CONTINUOUS
 10
-107.3933255518
 20
41.7038975196
 11
-107.3933255518
 21
56.5
  0
LINE
  5
23F
100
AcDbEntity
  8
0
100
AcDbLine
 62
7
  6
CONTINUOUS
 10
-114.5433255518
 20
43.8767374102
 11
-114.5433255518
 21
56.5
  0
LINE
  5
240
100
AcDbEntity
  8
0
100
AcDbLine
 62
7
  6
CONTINUOUS
 10
-107.3933255518
 20
55.0
 11
-110.9683255518
 21
55.0
  0
LINE
  5
241
100
AcDbEntity
  8
0
100
AcDbLine
 62
7
  6
CONTINUOUS
 10
-114.5433255518
 20
55.0
 11
-110.9683255518
 21
55.0
  0
LINE
  5
242
100
AcDbEntity
  8
0
100
AcDbLine
 62
7
  6
CONTINUOUS
 10
-110.9683255518
 20
55.0
 11
-123.9425751562
 21
55.0
  0
INSERT
  5
243
100
AcDbEntity
  8
0
100
AcDbBlockReference
 62
7
  6
CONTINUOUS
  2
_FILLED
 10
-107.3933255518
 20
55.0
 41
3.0
 42
3.0
 43
3.0
  0
INSERT
  5
244
100
AcDbEntity
  8
0
100
AcDbBlockReference
 62
7
  6
CONTINUOUS
  2
_FILLED
 10
-114.5433255518
 20
55.0
 41
3.0
 42
3.0
 43
3.0
 50
180.0
  0
ENDBLK
  5
245
100
AcDbEntity
  8
0
  6
BYBLOCK
 62
0
100
AcDbBlockEnd
  0
BLOCK
  5
246
100
AcDbEntity
  8
0
100
AcDbBlockBegin
 62
7
  6
CONTINUOUS
  2
*D3
 70
65
 10
0.0
 20
0.0
  3
*D3
  1

  0
MTEXT
  5
247
100
AcDbEntity
  8
0
100
AcDbMText
 62
7
  6
CONTINUOUS
  7
STANDARD
 71
3
 72
1
 10
-116.7897840303
 20
66.75
 30
0.0
 11
1.0
 21
0.0
 31
0.0
 73
2
 44
0.9
  1
{\ftxt;\W0.0001;\H0.0001;\~}{\ftxt;\W3.2142857143;\H3.0; }{\ftxt;\W0.0001;\H0.0001;\~}
 40
3.0
 41
14.4642857143
  0
LINE
  5
248
100
AcDbEntity
  8
0
100
AcDbLine
 62
7
  6
CONTINUOUS
 10
-114.5433255518
 20
43.8767374102
 11
-114.5433255518
 21
64.5
  0
LINE
  5
249
100
AcDbEntity
  8
0
100
AcDbLine
 62
7
  6
CONTINUOUS
 10
-104.3933255518
 20
26.5463167932
 11
-104.3933255518
 21
64.5
  0
LINE
  5
24A
100
AcDbEntity
  8
0
100
AcDbLine
 62
7
  6
CONTINUOUS
 10
-114.5433255518
 20
63.0
 11
-109.4683255518
 21
63.0
  0
LINE
  5
24B
100
AcDbEntity
  8
0
100
AcDbLine
 62
7
  6
CONTINUOUS
 10
-109.4683255518
 20
63.0
 11
-126.4326411732
 21
63.0
  0
LINE
  5
24C
100
AcDbEntity
  8
0
100
AcDbLine
 62
7
  6
CONTINUOUS
 10
-104.3933255518
 20
63.0
 11
-109.4683255518
 21
63.0
  0
INSERT
  5
24D
100
AcDbEntity
  8
0
100
AcDbBlockReference
 62
7
  6
CONTINUOUS
  2
_FILLED
 10
-114.5433255518
 20
63.0
 41
3.0
 42
3.0
 43
3.0
 50
180.0
  0
INSERT
  5
24E
100
AcDbEntity
  8
0
100
AcDbBlockReference
 62
7
  6
CONTINUOUS
  2
_FILLED
 10
-104.3933255518
 20
63.0
 41
3.0
 42
3.0
 43
3.0
  0
ENDBLK
  5
24F
100
AcDbEntity
  8
0
  6
BYBLOCK
 62
0
100
AcDbBlockEnd
  0
ENDSEC
  0
SECTION
  2
ENTITIES
  0
DIMENSION
  5
250
100
AcDbEntity
  8
0
100
AcDbDimension
 62
7
  6
CONTINUOUS
  2
*D0
 10
72.25
 20
55.0
 11
-0.4285713773
 21
55.0
 70
160
 71
2
 72
2
 41
0.9
 42
144.5
  1
{\ftxt;\W0.0001;\H0.0001;\~}{\ftxt;\W3.4285714286;\H3.0; }{\ftxt;\W0.0001;\H0.0001;\~}
  3
DIMSTYLE_1
100
AcDbAlignedDimension
 13
-72.25
 23
43.9993911979
 14
72.25
 24
43.9993911979
100
AcDbRotatedDimension
  0
DIMENSION
  5
251
100
AcDbEntity
  8
0
100
AcDbDimension
 62
7
  6
CONTINUOUS
  2
*D1
 10
82.25
 20
-45.0
 11
82.25
 21
-0.4285712171
 70
160
 71
2
 72
2
 41
0.9
 42
90.0
  1
{\ftxt;\W0.0001;\H0.0001;\~}{\ftxt;\W1.5714285714;\H3.0; }{\ftxt;\W0.0001;\H0.0001;\~}
  3
DIMSTYLE_1
100
AcDbAlignedDimension
 13
71.2493911979
 23
45.0
 14
71.2493911979
 24
-45.0
 50
270.0
100
AcDbRotatedDimension
  0
DIMENSION
  5
252
100
AcDbEntity
  8
0
100
AcDbDimension
 62
7
  6
CONTINUOUS
  2
*D2
 10
-114.5433255518
 20
55.0
 11
-120.4068617249
 21
55.0
 70
160
 71
3
 72
2
 41
0.9
 42
7.15
  1
{\ftxt;\W0.0001;\H0.0001;\~}{\ftxt;\W2.6428571429;\H3.0; }{\ftxt;\W0.0001;\H0.0001;\~}
  3
DIMSTYLE_1
100
AcDbAlignedDimension
 13
-107.3933255518
 23
41.2038975196
 14
-114.5433255518
 24
43.3767374102
 50
180.0
100
AcDbRotatedDimension
  0
DIMENSION
  5
253
100
AcDbEntity
  8
0
100
AcDbDimension
 62
7
  6
CONTINUOUS
  2
*D3
 10
-104.3933255518
 20
63.0
 11
-122.0397816467
 21
63.0
 70
160
 71
3
 72
2
 41
0.9
 42
10.15
  1
{\ftxt;\W0.0001;\H0.0001;\~}{\ftxt;\W3.2142857143;\H3.0; }{\ftxt;\W0.0001;\H0.0001;\~}
  3
DIMSTYLE_1
100
AcDbAlignedDimension
 13
-114.5433255518
 23
43.3767374102
 14
-104.3933255518
 24
26.0463167932
100
AcDbRotatedDimension
  0
LINE
  5
254
100
AcDbEntity
  8
0
100
AcDbLine
 62
7
  6
CONTINUOUS
 10
-71.0699854699
 20
44.7906993223
 11
-71.0555596544
 21
44.8061684565
  0
LINE
  5
255
100
AcDbEntity
  8
ASSI
100
AcDbLine
 62
7
  6
CONTINUOUS
 10
-71.0699854699
 20
44.7906993223
 11
-71.0555596544
 21
44.8061684565
  0
LINE
  5
256
100
AcDbEntity
  8
0
100
AcDbLine
 62
7
  6
CONTINUOUS
 10
-72.25
 20
43.9993911979
 11
-71.2493911979
 21
45.0
  0
LINE
  5
257
100
AcDbEntity
  8
ASSI
100
AcDbLine
 62
7
  6
CONTINUOUS
 10
-72.25
 20
43.9993911979
 11
-71.2493911979
 21
45.0
  0
LINE
  5
258
100
AcDbEntity
  8
0
100
AcDbLine
 62
7
  6
CONTINUOUS
 10
-71.0699854699
 20
44.7906993223
 11
-72.0406993223
 21
43.8199854699
  0
LINE
  5
259
100
AcDbEntity
  8
ASSI
100
AcDbLine
 62
7
  6
CONTINUOUS
 10
-71.0699854699
 20
44.7906993223
 11
-72.0406993223
 21
43.8199854699
  0
LINE
  5
25A
100
AcDbEntity
  8
0
100
AcDbLine
 62
7
  6
CONTINUOUS
 10
-70.6267374102
 20
43.7712689598
 11
-71.0212689598
 21
43.3767374102
  0
LINE
  5
25B
100
AcDbEntity
  8
ASSI
100
AcDbLine
 62
7
  6
CONTINUOUS
 10
-70.6267374102
 20
43.7712689598
 11
-71.0212689598
 21
43.3767374102
  0
LINE
  5
25C
100
AcDbEntity
  8
0
100
AcDbLine
 62
7
  6
CONTINUOUS
 10
-72.0561684565
 20
43.8055596544
 11
-72.0406993223
 21
43.8199854699
  0
LINE
  5
25D
100
AcDbEntity
  8
ASSI
100
AcDbLine
 62
7
  6
CONTINUOUS
 10
-72.0561684565
 20
43.8055596544
 11
-72.0406993223
 21
43.8199854699
  0
LINE
  5
25E
100
AcDbEntity
  8
0
100
AcDbLine
 62
7
  6
CONTINUOUS
 10
-72.0406993223
 20
-43.8199854699
 11
-72.0561684565
 21
-43.8055596544
  0
LINE
  5
25F
100
AcDbEntity
  8
ASSI
100
AcDbLine
 62
7
  6
CONTINUOUS
 10
-72.0406993223
 20
-43.8199854699
 11
-72.0561684565
 21
-43.8055596544
  0
LINE
  5
260
100
AcDbEntity
  8
0
100
AcDbLine
 62
7
  6
CONTINUOUS
 10
-71.2493911979
 20
-45.0
 11
-72.25
 21
-43.9993911979
  0
LINE
  5
261
100
AcDbEntity
  8
ASSI
100
AcDbLine
 62
7
  6
CONTINUOUS
 10
-71.2493911979
 20
-45.0
 11
-72.25
 21
-43.9993911979
  0
LINE
  5
262
100
AcDbEntity
  8
0
100
AcDbLine
 62
7
  6
CONTINUOUS
 10
-72.0406993223
 20
-43.8199854699
 11
-71.0699854699
 21
-44.7906993223
  0
LINE
  5
263
100
AcDbEntity
  8
ASSI
100
AcDbLine
 62
7
  6
CONTINUOUS
 10
-72.0406993223
 20
-43.8199854699
 11
-71.0699854699
 21
-44.7906993223
  0
LINE
  5
264
100
AcDbEntity
  8
0
100
AcDbLine
 62
7
  6
CONTINUOUS
 10
-71.0212689598
 20
-43.3767374102
 11
-70.6267374102
 21
-43.7712689598
  0
LINE
  5
265
100
AcDbEntity
  8
ASSI
100
AcDbLine
 62
7
  6
CONTINUOUS
 10
-71.0212689598
 20
-43.3767374102
 11
-70.6267374102
 21
-43.7712689598
  0
LINE
  5
266
100
AcDbEntity
  8
0
100
AcDbLine
 62
7
  6
CONTINUOUS
 10
-71.0555596544
 20
-44.8061684565
 11
-71.0699854699
 21
-44.7906993223
  0
LINE
  5
267
100
AcDbEntity
  8
ASSI
100
AcDbLine
 62
7
  6
CONTINUOUS
 10
-71.0555596544
 20
-44.8061684565
 11
-71.0699854699
 21
-44.7906993223
  0
LINE
  5
268
100
AcDbEntity
  8
0
100
AcDbLine
 62
7
  6
CONTINUOUS
 10
-72.25
 20
43.9993911979
 11
-72.25
 21
-43.9993911979
  0
LINE
  5
269
100
AcDbEntity
  8
ASSI
100
AcDbLine
 62
7
  6
CONTINUOUS
 10
-72.25
 20
43.9993911979
 11
-72.25
 21
-43.9993911979
  0
LINE
  5
26A
100
AcDbEntity
  8
0
100
AcDbLine
 62
7
  6
CONTINUOUS
 10
-72.0561684565
 20
43.8055596544
 11
-72.0561684565
 21
-43.8055596544
  0
LINE
  5
26B
100
AcDbEntity
  8
ASSI
100
AcDbLine
 62
7
  6
CONTINUOUS
 10
-72.0561684565
 20
43.8055596544
 11
-72.0561684565
 21
-43.8055596544
  0
LINE
  5
26C
100
AcDbEntity
  8
0
100
AcDbLine
 62
7
  6
CONTINUOUS
 10
-71.0212689598
 20
43.3767374102
 11
-71.0212689598
 21
-43.3767374102
  0
LINE
  5
26D
100
AcDbEntity
  8
ASSI
100
AcDbLine
 62
7
  6
CONTINUOUS
 10
-71.0212689598
 20
43.3767374102
 11
-71.0212689598
 21
-43.3767374102
  0
LINE
  5
26E
100
AcDbEntity
  8
0
100
AcDbLine
 62
7
  6
CONTINUOUS
 10
-70.6267374102
 20
-43.7712689598
 11
-71.0699854699
 21
-44.7906993223
  0
LINE
  5
26F
100
AcDbEntity
  8
ASSI
100
AcDbLine
 62
7
  6
CONTINUOUS
 10
-70.6267374102
 20
-43.7712689598
 11
-71.0699854699
 21
-44.7906993223
  0
LINE
  5
270
100
AcDbEntity
  8
0
100
AcDbLine
 62
7
  6
CONTINUOUS
 10
-71.2493911979
 20
-45.0
 11
71.2493911979
 21
-45.0
  0
LINE
  5
271
100
AcDbEntity
  8
ASSI
100
AcDbLine
 62
7
  6
CONTINUOUS
 10
-71.2493911979
 20
-45.0
 11
71.2493911979
 21
-45.0
  0
LINE
  5
272
100
AcDbEntity
  8
0
100
AcDbLine
 62
7
  6
CONTINUOUS
 10
-71.0555596544
 20
-44.8061684565
 11
71.0555596544
 21
-44.8061684565
  0
LINE
  5
273
100
AcDbEntity
  8
ASSI
100
AcDbLine
 62
7
  6
CONTINUOUS
 10
-71.0555596544
 20
-44.8061684565
 11
71.0555596544
 21
-44.8061684565
  0
LINE
  5
274
100
AcDbEntity
  8
0
100
AcDbLine
 62
7
  6
CONTINUOUS
 10
-70.6267374102
 20
43.7712689598
 11
-71.0699854699
 21
44.7906993223
  0
LINE
  5
275
100
AcDbEntity
  8
ASSI
100
AcDbLine
 62
7
  6
CONTINUOUS
 10
-70.6267374102
 20
43.7712689598
 11
-71.0699854699
 21
44.7906993223
  0
LWPOLYLINE
  5
276
100
AcDbEntity
  8
0
100
AcDbPolyline
 62
7
  6
CONTINUOUS
 90
3
 70
0
 43
0.3500000006
 10
-5.1428570938
 20
57.8928615417
 10
-4.2857143393
 20
58.7499994812
 10
-4.2857143393
 20
55.7499985657
  0
LINE
  5
277
100
AcDbEntity
  8
0
100
AcDbLine
 62
7
  6
CONTINUOUS
 10
-70.6267374102
 20
-43.7712689598
 11
70.6267374102
 21
-43.7712689598
  0
LINE
  5
278
100
AcDbEntity
  8
ASSI
100
AcDbLine
 62
7
  6
CONTINUOUS
 10
-70.6267374102
 20
-43.7712689598
 11
70.6267374102
 21
-43.7712689598
  0
LWPOLYLINE
  5
279
100
AcDbEntity
  8
CURVE
100
AcDbPolyline
 62
250
  6
CONTINUOUS
 90
21
 70
0
 10
72.1345174928
 20
-29.4226356449
 10
72.134896273
 20
-29.4226069612
 10
72.1352779823
 20
-29.4228544869
 10
72.1356620979
 20
-29.4233783442
 10
72.1360480971
 20
-29.4241786553
 10
72.1364354569
 20
-29.4252555424
 10
72.1368236547
 20
-29.4266091279
 10
72.1372121676
 20
-29.4282395339
 10
72.1376004729
 20
-29.4301468827
 10
72.1379880477
 20
-29.4323312964
 10
72.1383743693
 20
-29.4347928975
 10
72.1387589149
 20
-29.437531808
 10
72.1391411617
 20
-29.4405481502
 10
72.1395205869
 20
-29.4438420464
 10
72.1398966677
 20
-29.4474136188
 10
72.1402688813
 20
-29.4512629897
 10
72.140636705
 20
-29.4553902812
 10
72.1409996159
 20
-29.4597956156
 10
72.1413570913
 20
-29.4644791152
 10
72.1417086084
 20
-29.4694409021
 10
72.1420536443
 20
-29.4746810987
  0
LINE
  5
27A
100
AcDbEntity
  8
CURVE
100
AcDbLine
 62
250
  6
CONTINUOUS
 10
72.1092581977
 20
-36.257398
 11
72.196502926
 21
-36.257398
  0
LINE
  5
27B
100
AcDbEntity
  8
CURVE
100
AcDbLine
 62
250
  6
CONTINUOUS
 10
72.196502926
 20
-35.735605
 11
72.1092581977
 21
-35.735605
  0
LINE
  5
27C
100
AcDbEntity
  8
CURVE
100
AcDbLine
 62
250
  6
CONTINUOUS
 10
72.1102826601
 20
-30.6285551388
 11
72.1965029266
 21
-30.6285551388
  0
LINE
  5
27D
100
AcDbEntity
  8
CURVE
100
AcDbLine
 62
250
  6
CONTINUOUS
 10
72.1480744759
 20
-30.126163664
 11
72.1241255285
 21
-30.126163664
  0
LINE
  5
27E
100
AcDbEntity
  8
CURVE
100
AcDbLine
 62
250
  6
CONTINUOUS
 10
72.1965029266
 20
-30.1088617972
 11
72.1623622001
 21
-30.1088617972
  0
LINE
  5
27F
100
AcDbEntity
  8
CURVE
100
AcDbLine
 62
250
  6
CONTINUOUS
 10
72.1557802956
 20
-29.2870512436
 11
72.1552647862
 21
-29.2870512436
  0
LINE
  5
280
100
AcDbEntity
  8
0
100
AcDbLine
 62
7
  6
CONTINUOUS
 10
-72.0561684565
 20
-43.8055596544
 11
-72.25
 21
-43.9993911979
  0
LINE
  5
281
100
AcDbEntity
  8
ASSI
100
AcDbLine
 62
7
  6
CONTINUOUS
 10
-72.0561684565
 20
-43.8055596544
 11
-72.25
 21
-43.9993911979
  0
LINE
  5
282
100
AcDbEntity
  8
0
100
AcDbLine
 62
7
  6
CONTINUOUS
 10
-71.0555596544
 20
-44.8061684565
 11
-71.2493911979
 21
-45.0
  0
LINE
  5
283
100
AcDbEntity
  8
ASSI
100
AcDbLine
 62
7
  6
CONTINUOUS
 10
-71.0555596544
 20
-44.8061684565
 11
-71.2493911979
 21
-45.0
  0
LINE
  5
284
100
AcDbEntity
  8
0
100
AcDbLine
 62
7
  6
CONTINUOUS
 10
-72.0561684565
 20
43.8055596544
 11
-72.25
 21
43.9993911979
  0
LINE
  5
285
100
AcDbEntity
  8
ASSI
100
AcDbLine
 62
7
  6
CONTINUOUS
 10
-72.0561684565
 20
43.8055596544
 11
-72.25
 21
43.9993911979
  0
LINE
  5
286
100
AcDbEntity
  8
0
100
AcDbLine
 62
7
  6
CONTINUOUS
 10
-71.0555596544
 20
44.8061684565
 11
-71.2493911979
 21
45.0
  0
LINE
  5
287
100
AcDbEntity
  8
ASSI
100
AcDbLine
 62
7
  6
CONTINUOUS
 10
-71.0555596544
 20
44.8061684565
 11
-71.2493911979
 21
45.0
  0
LWPOLYLINE
  5
288
100
AcDbEntity
  8
0
100
AcDbPolyline
 62
7
  6
CONTINUOUS
 90
3
 70
0
 43
0.3500000006
 10
2.0000000439
 20
56.0357142334
 10
1.9285714102
 20
55.8214297485
 10
1.7857142844
 20
55.5357140808
  0
LINE
  5
289
100
AcDbEntity
  8
0
100
AcDbLine
 62
7
  6
CONTINUOUS
 10
71.0212689598
 20
43.3767374102
 11
72.0406993223
 21
43.8199854699
  0
LINE
  5
28A
100
AcDbEntity
  8
ASSI
100
AcDbLine
 62
7
  6
CONTINUOUS
 10
71.0212689598
 20
43.3767374102
 11
72.0406993223
 21
43.8199854699
  0
LINE
  5
28B
100
AcDbEntity
  8
0
100
AcDbLine
 62
7
  6
CONTINUOUS
 10
71.0212689598
 20
-43.3767374102
 11
72.0406993223
 21
-43.8199854699
  0
LINE
  5
28C
100
AcDbEntity
  8
ASSI
100
AcDbLine
 62
7
  6
CONTINUOUS
 10
71.0212689598
 20
-43.3767374102
 11
72.0406993223
 21
-43.8199854699
  0
LWPOLYLINE
  5
28D
100
AcDbEntity
  8
0
100
AcDbPolyline
 62
7
  6
CONTINUOUS
 90
2
 70
0
 43
0.3500000006
 10
-2.4285715628
 20
55.7499985657
 10
-2.4285715628
 20
57.2499990234
  0
LWPOLYLINE
  5
28E
100
AcDbEntity
  8
0
100
AcDbPolyline
 62
7
  6
CONTINUOUS
 90
2
 70
0
 43
0.3500000006
 10
-0.0714285717
 20
55.7499985657
 10
-0.0714285717
 20
57.2499990234
  0
LWPOLYLINE
  5
28F
100
AcDbEntity
  8
0
100
AcDbPolyline
 62
7
  6
CONTINUOUS
 90
13
 70
0
 43
0.3500000006
 10
80.6428597412
 20
-0.0000003204
 10
79.3571437683
 20
-0.0000003204
 10
78.9285747986
 20
0.2142864304
 10
78.4999967651
 20
0.642857666
 10
78.4999967651
 20
0.8571421509
 10
78.9285747986
 20
1.2857133865
 10
79.3571437683
 20
1.5000001373
 10
80.6428597412
 20
1.5000001373
 10
81.0714287109
 20
1.2857133865
 10
81.4999976807
 20
0.8571421509
 10
81.4999976807
 20
0.642857666
 10
81.0714287109
 20
0.2142864304
 10
80.6428597412
 20
-0.0000003204
  0
LINE
  5
290
100
AcDbEntity
  8
0
100
AcDbLine
 62
7
  6
CONTINUOUS
 10
-71.0212689598
 20
-43.3767374102
 11
-72.0406993223
 21
-43.8199854699
  0
LINE
  5
291
100
AcDbEntity
  8
ASSI
100
AcDbLine
 62
7
  6
CONTINUOUS
 10
-71.0212689598
 20
-43.3767374102
 11
-72.0406993223
 21
-43.8199854699
  0
LINE
  5
292
100
AcDbEntity
  8
0
100
AcDbLine
 62
7
  6
CONTINUOUS
 10
-71.0212689598
 20
43.3767374102
 11
-72.0406993223
 21
43.8199854699
  0
LINE
  5
293
100
AcDbEntity
  8
ASSI
100
AcDbLine
 62
7
  6
CONTINUOUS
 10
-71.0212689598
 20
43.3767374102
 11
-72.0406993223
 21
43.8199854699
  0
LINE
  5
294
100
AcDbEntity
  8
0
100
AcDbLine
 62
7
  6
CONTINUOUS
 10
71.0555596544
 20
44.8061684565
 11
71.2493911979
 21
45.0
  0
LINE
  5
295
100
AcDbEntity
  8
ASSI
100
AcDbLine
 62
7
  6
CONTINUOUS
 10
71.0555596544
 20
44.8061684565
 11
71.2493911979
 21
45.0
  0
LINE
  5
296
100
AcDbEntity
  8
0
100
AcDbLine
 62
7
  6
CONTINUOUS
 10
72.0561684565
 20
43.8055596544
 11
72.25
 21
43.9993911979
  0
LINE
  5
297
100
AcDbEntity
  8
ASSI
100
AcDbLine
 62
7
  6
CONTINUOUS
 10
72.0561684565
 20
43.8055596544
 11
72.25
 21
43.9993911979
  0
LINE
  5
298
100
AcDbEntity
  8
0
100
AcDbLine
 62
7
  6
CONTINUOUS
 10
71.0555596544
 20
-44.8061684565
 11
71.2493911979
 21
-45.0
  0
LINE
  5
299
100
AcDbEntity
  8
ASSI
100
AcDbLine
 62
7
  6
CONTINUOUS
 10
71.0555596544
 20
-44.8061684565
 11
71.2493911979
 21
-45.0
  0
LINE
  5
29A
100
AcDbEntity
  8
0
100
AcDbLine
 62
7
  6
CONTINUOUS
 10
72.0561684565
 20
-43.8055596544
 11
72.25
 21
-43.9993911979
  0
LINE
  5
29B
100
AcDbEntity
  8
ASSI
100
AcDbLine
 62
7
  6
CONTINUOUS
 10
72.0561684565
 20
-43.8055596544
 11
72.25
 21
-43.9993911979
  0
LWPOLYLINE
  5
29C
100
AcDbEntity
  8
0
100
AcDbPolyline
 62
7
  6
CONTINUOUS
 90
10
 70
0
 43
0.3500000006
 10
1.9285714102
 20
56.2499987183
 10
2.0000000439
 20
56.1071454163
 10
2.0000000439
 20
56.0357142334
 10
1.8571429181
 20
55.8928609314
 10
1.7857142844
 20
55.8928609314
 10
1.7142856507
 20
55.9642830505
 10
1.7142856507
 20
56.0357142334
 10
1.7857142844
 20
56.1785675354
 10
1.8571429181
 20
56.2499987183
 10
1.9285714102
 20
56.2499987183
  0
LINE
  5
29D
100
AcDbEntity
  8
0
100
AcDbLine
 62
7
  6
CONTINUOUS
 10
70.6267374102
 20
43.7712689598
 11
-70.6267374102
 21
43.7712689598
  0
LINE
  5
29E
100
AcDbEntity
  8
ASSI
100
AcDbLine
 62
7
  6
CONTINUOUS
 10
70.6267374102
 20
43.7712689598
 11
-70.6267374102
 21
43.7712689598
  0
LINE
  5
29F
100
AcDbEntity
  8
0
100
AcDbLine
 62
7
  6
CONTINUOUS
 10
71.0555596544
 20
44.8061684565
 11
-71.0555596544
 21
44.8061684565
  0
LINE
  5
2A0
100
AcDbEntity
  8
ASSI
100
AcDbLine
 62
7
  6
CONTINUOUS
 10
71.0555596544
 20
44.8061684565
 11
-71.0555596544
 21
44.8061684565
  0
LINE
  5
2A1
100
AcDbEntity
  8
0
100
AcDbLine
 62
7
  6
CONTINUOUS
 10
71.2493911979
 20
45.0
 11
-71.2493911979
 21
45.0
  0
LINE
  5
2A2
100
AcDbEntity
  8
ASSI
100
AcDbLine
 62
7
  6
CONTINUOUS
 10
71.2493911979
 20
45.0
 11
-71.2493911979
 21
45.0
  0
LINE
  5
2A3
100
AcDbEntity
  8
0
100
AcDbLine
 62
7
  6
CONTINUOUS
 10
70.6267374102
 20
43.7712689598
 11
71.0699854699
 21
44.7906993223
  0
LINE
  5
2A4
100
AcDbEntity
  8
ASSI
100
AcDbLine
 62
7
  6
CONTINUOUS
 10
70.6267374102
 20
43.7712689598
 11
71.0699854699
 21
44.7906993223
  0
LINE
  5
2A5
100
AcDbEntity
  8
CURVE
100
AcDbLine
 62
250
  6
CONTINUOUS
 10
72.1395371756
 20
-34.842919
 11
72.196502926
 21
-34.955522
  0
LINE
  5
2A6
100
AcDbEntity
  8
0
100
AcDbLine
 62
7
  6
CONTINUOUS
 10
70.6267374102
 20
-43.7712689598
 11
71.0699854699
 21
-44.7906993223
  0
LINE
  5
2A7
100
AcDbEntity
  8
ASSI
100
AcDbLine
 62
7
  6
CONTINUOUS
 10
70.6267374102
 20
-43.7712689598
 11
71.0699854699
 21
-44.7906993223
  0
LWPOLYLINE
  5
2A8
100
AcDbEntity
  8
0
100
AcDbPolyline
 62
7
  6
CONTINUOUS
 90
8
 70
0
 43
0.3500000006
 10
3.0000000658
 20
55.7499985657
 10
3.8571428204
 20
55.7499985657
 10
4.2857143393
 20
56.1785675354
 10
4.2857143393
 20
57.0357145386
 10
3.8571428204
 20
57.4642835083
 10
3.0000000658
 20
57.4642835083
 10
3.0000000658
 20
58.7499994812
 10
4.2857143393
 20
58.7499994812
  0
LWPOLYLINE
  5
2A9
100
AcDbEntity
  8
0
100
AcDbPolyline
 62
7
  6
CONTINUOUS
 90
3
 70
0
 43
0.3500000006
 10
0.4285714127
 20
56.392861084
 10
-1.0714285848
 20
56.392861084
 10
-0.4285714127
 20
58.7499994812
  0
LWPOLYLINE
  5
2AA
100
AcDbEntity
  8
0
100
AcDbPolyline
 62
7
  6
CONTINUOUS
 90
3
 70
0
 43
0.3500000006
 10
-1.9285714102
 20
56.392861084
 10
-3.4285713015
 20
56.392861084
 10
-2.7857141647
 20
58.7499994812
  0
LWPOLYLINE
  5
2AB
100
AcDbEntity
  8
0
100
AcDbPolyline
 62
7
  6
CONTINUOUS
 90
10
 70
0
 43
0.3500000006
 10
81.4999976807
 20
-1.9285708809
 10
80.6428597412
 20
-1.0714295425
 10
79.785712738
 20
-0.8571427917
 10
78.9285747986
 20
-0.8571427917
 10
78.4999967651
 20
-1.2857140274
 10
78.4999967651
 20
-1.9285708809
 10
78.9285747986
 20
-2.3571432495
 10
79.785712738
 20
-2.3571432495
 10
80.2142817078
 20
-1.9285708809
 10
80.2142817078
 20
-1.0000006256
  0
LINE
  5
2AC
100
AcDbEntity
  8
CURVE
100
AcDbLine
 62
250
  6
CONTINUOUS
 10
72.196502926
 20
-35.454708
 11
72.1092633977
 21
-35.228996
  0
LINE
  5
2AD
100
AcDbEntity
  8
CURVE
100
AcDbLine
 62
250
  6
CONTINUOUS
 10
72.1092633977
 20
-36.451037
 11
72.196502926
 21
-37.254552
  0
LINE
  5
2AE
100
AcDbEntity
  8
CURVE
100
AcDbLine
 62
250
  6
CONTINUOUS
 10
72.1576990481
 20
-34.191353
 11
72.1092633977
 21
-33.66956
  0
LINE
  5
2AF
100
AcDbEntity
  8
CURVE
100
AcDbLine
 62
250
  6
CONTINUOUS
 10
72.1397746317
 20
-33.5372
 11
72.196502926
 21
-34.157611
  0
LINE
  5
2B0
100
AcDbEntity
  8
CURVE
100
AcDbLine
 62
250
  6
CONTINUOUS
 10
72.1332346056
 20
-31.81095
 11
72.1656103103
 21
-32.070759
  0
LINE
  5
2B1
100
AcDbEntity
  8
CURVE
100
AcDbLine
 62
250
  6
CONTINUOUS
 10
72.1693130771
 20
-37.463524
 11
72.1092633977
 21
-36.972473
  0
LINE
  5
2B2
100
AcDbEntity
  8
CURVE
100
AcDbLine
 62
250
  6
CONTINUOUS
 10
72.1790868208
 20
-32.177494
 11
72.196502926
 21
-32.321477
  0
LINE
  5
2B3
100
AcDbEntity
  8
CURVE
100
AcDbLine
 62
250
  6
CONTINUOUS
 10
72.196502926
 20
-32.837608
 11
72.1092633977
 21
-32.053532
  0
LWPOLYLINE
  5
2B4
100
AcDbEntity
  8
CURVE
100
AcDbPolyline
 62
250
  6
CONTINUOUS
 90
36
 70
0
 10
72.147523526
 20
-29.0431637119
 10
72.1468134424
 20
-29.0307616174
 10
72.1460861961
 20
-29.0190725279
 10
72.1453435656
 20
-29.0081075538
 10
72.1445873297
 20
-28.9978778051
 10
72.143819267
 20
-28.9883943921
 10
72.1430411561
 20
-28.9796684252
 10
72.1422547755
 20
-28.9717110143
 10
72.1414624027
 20
-28.964535883
 10
72.1406640079
 20
-28.9581290207
 10
72.1398600482
 20
-28.9524804372
 10
72.1390509808
 20
-28.9475801423
 10
72.138237263
 20
-28.9434181457
 10
72.137419352
 20
-28.9399844572
 10
72.1364798547
 20
-28.9369382549
 10
72.1355366677
 20
-28.9348146158
 10
72.134590984
 20
-28.9335973367
 10
72.1336439965
 20
-28.9332702142
 10
72.1326968981
 20
-28.933817045
 10
72.1317508817
 20
-28.9352216257
 10
72.1308306428
 20
-28.937409052
 10
72.1299136845
 20
-28.9404260832
 10
72.1290011244
 20
-28.9443022316
 10
72.1280940802
 20
-28.9490670099
 10
72.1271936695
 20
-28.9547499304
 10
72.1263908956
 20
-28.9606636642
 10
72.1255953605
 20
-28.9673488373
 10
72.1248080398
 20
-28.9748111535
 10
72.1240299091
 20
-28.9830563168
 10
72.1232619439
 20
-28.9920900312
 10
72.1224386414
 20
-29.0028224101
 10
72.1216299118
 20
-29.0144733362
 10
72.1208371246
 20
-29.0270200968
 10
72.1200616496
 20
-29.0404399787
 10
72.1193048562
 20
-29.0547102691
 10
72.1178527933
 20
-29.0857112234
  0
LINE
  5
2B5
100
AcDbEntity
  8
CURVE
100
AcDbLine
 62
250
  6
CONTINUOUS
 10
72.1420536443
 20
-29.4746810987
 11
72.1427221817
 21
-29.4859972096
  0
LINE
  5
2B6
100
AcDbEntity
  8
CURVE
100
AcDbLine
 62
250
  6
CONTINUOUS
 10
72.1427221817
 20
-29.4859972096
 11
72.1433585211
 21
-29.4984284259
  0
LINE
  5
2B7
100
AcDbEntity
  8
CURVE
100
AcDbLine
 62
250
  6
CONTINUOUS
 10
72.1488850906
 20
-29.0700624751
 11
72.147523526
 21
-29.0431637119
  0
LINE
  5
2B8
100
AcDbEntity
  8
CURVE
100
AcDbLine
 62
250
  6
CONTINUOUS
 10
72.1433585211
 20
-29.4984284259
 11
72.1439584802
 21
-29.5119757254
  0
LINE
  5
2B9
100
AcDbEntity
  8
CURVE
100
AcDbLine
 62
250
  6
CONTINUOUS
 10
72.1501119843
 20
-29.0985328302
 11
72.1488850906
 21
-29.0700624751
  0
LINE
  5
2BA
100
AcDbEntity
  8
CURVE
100
AcDbLine
 62
250
  6
CONTINUOUS
 10
72.1439584802
 20
-29.5119757254
 11
72.1445178768
 21
-29.5266400861
  0
LINE
  5
2BB
100
AcDbEntity
  8
CURVE
100
AcDbLine
 62
250
  6
CONTINUOUS
 10
72.1512178028
 20
-29.1281541054
 11
72.1501119843
 21
-29.0985328302
  0
LINE
  5
2BC
100
AcDbEntity
  8
CURVE
100
AcDbLine
 62
250
  6
CONTINUOUS
 10
72.1445178768
 20
-29.5266400861
 11
72.1450325284
 21
-29.5424224857
  0
LINE
  5
2BD
100
AcDbEntity
  8
CURVE
100
AcDbLine
 62
250
  6
CONTINUOUS
 10
72.1532931675
 20
-29.1932845632
 11
72.1512178028
 21
-29.1281541054
  0
LINE
  5
2BE
100
AcDbEntity
  8
CURVE
100
AcDbLine
 62
250
  6
CONTINUOUS
 10
72.1543855839
 20
-29.2319764062
 11
72.1532931675
 21
-29.1932845632
  0
LINE
  5
2BF
100
AcDbEntity
  8
CURVE
100
AcDbLine
 62
250
  6
CONTINUOUS
 10
72.1450325284
 20
-29.5424224857
 11
72.1457065248
 21
-29.5677730826
  0
LINE
  5
2C0
100
AcDbEntity
  8
CURVE
100
AcDbLine
 62
250
  6
CONTINUOUS
 10
72.1547337083
 20
-29.2467745197
 11
72.1543855839
 21
-29.2319764062
  0
LINE
  5
2C1
100
AcDbEntity
  8
CURVE
100
AcDbLine
 62
250
  6
CONTINUOUS
 10
72.1457065248
 20
-29.5677730826
 11
72.1462802294
 21
-29.5952280979
  0
LINE
  5
2C2
100
AcDbEntity
  8
CURVE
100
AcDbLine
 62
250
  6
CONTINUOUS
 10
72.155017198
 20
-29.2622389999
 11
72.1547337083
 21
-29.2467745197
  0
LINE
  5
2C3
100
AcDbEntity
  8
CURVE
100
AcDbLine
 62
250
  6
CONTINUOUS
 10
72.1462802294
 20
-29.5952280979
 11
72.146901006
 21
-29.6345101002
  0
LINE
  5
2C4
100
AcDbEntity
  8
CURVE
100
AcDbLine
 62
250
  6
CONTINUOUS
 10
72.146901006
 20
-29.6345101002
 11
72.1474681326
 21
-29.6867584987
  0
LWPOLYLINE
  5
2C5
100
AcDbEntity
  8
CURVE
100
AcDbPolyline
 62
250
  6
CONTINUOUS
 90
3
 70
0
 10
72.1552647862
 20
-29.2870512436
 10
72.1552102444
 20
-29.2785372004
 10
72.155017198
 20
-29.2622389999
  0
LINE
  5
2C6
100
AcDbEntity
  8
CURVE
100
AcDbLine
 62
250
  6
CONTINUOUS
 10
72.1474681326
 20
-29.6867584987
 11
72.14792913
 21
-29.762907118
  0
LINE
  5
2C7
100
AcDbEntity
  8
CURVE
100
AcDbLine
 62
250
  6
CONTINUOUS
 10
72.1241255285
 20
-30.126163664
 11
72.1233576756
 21
-29.9368105752
  0
LINE
  5
2C8
100
AcDbEntity
  8
CURVE
100
AcDbLine
 62
250
  6
CONTINUOUS
 10
72.1082578266
 20
-30.0056752715
 11
72.1102826601
 21
-30.6285551388
  0
LINE
  5
2C9
100
AcDbEntity
  8
0
100
AcDbLine
 62
7
  6
CONTINUOUS
 10
71.0212689598
 20
-43.3767374102
 11
71.0212689598
 21
43.3767374102
  0
LINE
  5
2CA
100
AcDbEntity
  8
ASSI
100
AcDbLine
 62
7
  6
CONTINUOUS
 10
71.0212689598
 20
-43.3767374102
 11
71.0212689598
 21
43.3767374102
  0
LINE
  5
2CB
100
AcDbEntity
  8
0
100
AcDbLine
 62
7
  6
CONTINUOUS
 10
72.0561684565
 20
-43.8055596544
 11
72.0561684565
 21
43.8055596544
  0
LINE
  5
2CC
100
AcDbEntity
  8
ASSI
100
AcDbLine
 62
7
  6
CONTINUOUS
 10
72.0561684565
 20
-43.8055596544
 11
72.0561684565
 21
43.8055596544
  0
LINE
  5
2CD
100
AcDbEntity
  8
CURVE
100
AcDbLine
 62
250
  6
CONTINUOUS
 10
72.1092581977
 20
-35.735605
 11
72.1092581977
 21
-36.257398
  0
LINE
  5
2CE
100
AcDbEntity
  8
CURVE
100
AcDbLine
 62
250
  6
CONTINUOUS
 10
72.1092633977
 20
-38.506847
 11
72.1092633977
 21
-37.940019
  0
LINE
  5
2CF
100
AcDbEntity
  8
CURVE
100
AcDbLine
 62
250
  6
CONTINUOUS
 10
72.1092633977
 20
-36.972473
 11
72.1092633977
 21
-36.451037
  0
LINE
  5
2D0
100
AcDbEntity
  8
CURVE
100
AcDbLine
 62
250
  6
CONTINUOUS
 10
72.1092633977
 20
-35.228996
 11
72.1092633977
 21
-34.707635
  0
LINE
  5
2D1
100
AcDbEntity
  8
CURVE
100
AcDbLine
 62
250
  6
CONTINUOUS
 10
72.1092633977
 20
-33.66956
 11
72.1092633977
 21
-33.153297
  0
LINE
  5
2D2
100
AcDbEntity
  8
CURVE
100
AcDbLine
 62
250
  6
CONTINUOUS
 10
72.1092633977
 20
-32.053532
 11
72.1092633977
 21
-31.54876
  0
LINE
  5
2D3
100
AcDbEntity
  8
CURVE
100
AcDbLine
 62
250
  6
CONTINUOUS
 10
72.14792913
 20
-29.762907118
 11
72.1480744759
 21
-30.126163664
  0
LINE
  5
2D4
100
AcDbEntity
  8
CURVE
100
AcDbLine
 62
250
  6
CONTINUOUS
 10
72.1656103103
 20
-32.070759
 11
72.1656103103
 21
-31.571179
  0
LINE
  5
2D5
100
AcDbEntity
  8
CURVE
100
AcDbLine
 62
250
  6
CONTINUOUS
 10
72.1790868208
 20
-31.466899
 11
72.1790868208
 21
-32.177494
  0
LINE
  5
2D6
100
AcDbEntity
  8
CURVE
100
AcDbLine
 62
250
  6
CONTINUOUS
 10
72.196502926
 20
-36.257398
 11
72.196502926
 21
-35.735605
  0
LINE
  5
2D7
100
AcDbEntity
  8
CURVE
100
AcDbLine
 62
250
  6
CONTINUOUS
 10
72.1965029266
 20
-30.6285551388
 11
72.1965029266
 21
-30.1088617972
  0
LINE
  5
2D8
100
AcDbEntity
  8
CURVE
100
AcDbLine
 62
250
  6
CONTINUOUS
 10
72.1965029266
 20
-29.3098079785
 11
72.1965029266
 21
-28.8079038802
  0
LINE
  5
2D9
100
AcDbEntity
  8
CURVE
100
AcDbLine
 62
250
  6
CONTINUOUS
 10
72.196502926
 20
-30.781779
 11
72.196502926
 21
-31.331727
  0
LINE
  5
2DA
100
AcDbEntity
  8
CURVE
100
AcDbLine
 62
250
  6
CONTINUOUS
 10
72.196502926
 20
-32.321477
 11
72.196502926
 21
-32.837608
  0
LINE
  5
2DB
100
AcDbEntity
  8
CURVE
100
AcDbLine
 62
250
  6
CONTINUOUS
 10
72.196502926
 20
-32.919544
 11
72.196502926
 21
-33.429996
  0
LINE
  5
2DC
100
AcDbEntity
  8
CURVE
100
AcDbLine
 62
250
  6
CONTINUOUS
 10
72.196502926
 20
-34.157611
 11
72.196502926
 21
-34.230793
  0
LINE
  5
2DD
100
AcDbEntity
  8
CURVE
100
AcDbLine
 62
250
  6
CONTINUOUS
 10
72.196502926
 20
-34.955522
 11
72.196502926
 21
-35.454708
  0
LINE
  5
2DE
100
AcDbEntity
  8
CURVE
100
AcDbLine
 62
250
  6
CONTINUOUS
 10
72.196502926
 20
-37.254552
 11
72.196502926
 21
-37.714382
  0
LINE
  5
2DF
100
AcDbEntity
  8
0
100
AcDbLine
 62
7
  6
CONTINUOUS
 10
72.25
 20
-43.9993911979
 11
72.25
 21
43.9993911979
  0
LINE
  5
2E0
100
AcDbEntity
  8
ASSI
100
AcDbLine
 62
7
  6
CONTINUOUS
 10
72.25
 20
-43.9993911979
 11
72.25
 21
43.9993911979
  0
LINE
  5
2E1
100
AcDbEntity
  8
CURVE
100
AcDbLine
 62
250
  6
CONTINUOUS
 10
72.1233576756
 20
-29.9368105752
 11
72.1234723146
 21
-29.7570847614
  0
LINE
  5
2E2
100
AcDbEntity
  8
CURVE
100
AcDbLine
 62
250
  6
CONTINUOUS
 10
72.1087953295
 20
-29.6528718452
 11
72.1082578266
 21
-30.0056752715
  0
LINE
  5
2E3
100
AcDbEntity
  8
CURVE
100
AcDbLine
 62
250
  6
CONTINUOUS
 10
72.1623622001
 20
-30.1088617972
 11
72.1624521689
 21
-29.7888585064
  0
LINE
  5
2E4
100
AcDbEntity
  8
CURVE
100
AcDbLine
 62
250
  6
CONTINUOUS
 10
72.1234723146
 20
-29.7570847614
 11
72.1238390175
 21
-29.6791714829
  0
LINE
  5
2E5
100
AcDbEntity
  8
CURVE
100
AcDbLine
 62
250
  6
CONTINUOUS
 10
72.1099310868
 20
-29.4633058676
 11
72.1087953295
 21
-29.6528718452
  0
LINE
  5
2E6
100
AcDbEntity
  8
CURVE
100
AcDbLine
 62
250
  6
CONTINUOUS
 10
72.1624521689
 20
-29.7888585064
 11
72.1627269291
 21
-29.7490983469
  0
LINE
  5
2E7
100
AcDbEntity
  8
CURVE
100
AcDbLine
 62
250
  6
CONTINUOUS
 10
72.1112011567
 20
-29.3408501143
 11
72.1099310868
 21
-29.4633058676
  0
LINE
  5
2E8
100
AcDbEntity
  8
CURVE
100
AcDbLine
 62
250
  6
CONTINUOUS
 10
72.1238390175
 20
-29.6791714829
 11
72.124323895
 21
-29.6321786947
  0
LINE
  5
2E9
100
AcDbEntity
  8
CURVE
100
AcDbLine
 62
250
  6
CONTINUOUS
 10
72.1627269291
 20
-29.7490983469
 11
72.1630846798
 21
-29.7183233816
  0
LINE
  5
2EA
100
AcDbEntity
  8
CURVE
100
AcDbLine
 62
250
  6
CONTINUOUS
 10
72.1119437542
 20
-29.2919042894
 11
72.1112011567
 21
-29.3408501143
  0
LINE
  5
2EB
100
AcDbEntity
  8
CURVE
100
AcDbLine
 62
250
  6
CONTINUOUS
 10
72.124323895
 20
-29.6321786947
 11
72.1248706849
 21
-29.5960263183
  0
LINE
  5
2EC
100
AcDbEntity
  8
CURVE
100
AcDbLine
 62
250
  6
CONTINUOUS
 10
72.1562662216
 20
-29.2572974849
 11
72.1557802956
 21
-29.2870512436
  0
LINE
  5
2ED
100
AcDbEntity
  8
CURVE
100
AcDbLine
 62
250
  6
CONTINUOUS
 10
72.1630846798
 20
-29.7183233816
 11
72.1635725292
 21
-29.6888582855
  0
LINE
  5
2EE
100
AcDbEntity
  8
CURVE
100
AcDbLine
 62
250
  6
CONTINUOUS
 10
72.1128736438
 20
-29.2454548683
 11
72.1119437542
 21
-29.2919042894
  0
LINE
  5
2EF
100
AcDbEntity
  8
CURVE
100
AcDbLine
 62
250
  6
CONTINUOUS
 10
72.1248706849
 20
-29.5960263183
 11
72.1255569502
 21
-29.5618858963
  0
LINE
  5
2F0
100
AcDbEntity
  8
CURVE
100
AcDbLine
 62
250
  6
CONTINUOUS
 10
72.1568624603
 20
-29.2294140183
 11
72.1562662216
 21
-29.2572974849
  0
LINE
  5
2F1
100
AcDbEntity
  8
CURVE
100
AcDbLine
 62
250
  6
CONTINUOUS
 10
72.1635725292
 20
-29.6888582855
 11
72.1640308091
 21
-29.6676188901
  0
LINE
  5
2F2
100
AcDbEntity
  8
CURVE
100
AcDbLine
 62
250
  6
CONTINUOUS
 10
72.1142255811
 20
-29.1909895296
 11
72.1128736438
 21
-29.2454548683
  0
LINE
  5
2F3
100
AcDbEntity
  8
CURVE
100
AcDbLine
 62
250
  6
CONTINUOUS
 10
72.1255569502
 20
-29.5618858963
 11
72.1261622034
 21
-29.5380064553
  0
LINE
  5
2F4
100
AcDbEntity
  8
CURVE
100
AcDbLine
 62
250
  6
CONTINUOUS
 10
72.1640308091
 20
-29.6676188901
 11
72.1645561587
 21
-29.6475591288
  0
LINE
  5
2F5
100
AcDbEntity
  8
CURVE
100
AcDbLine
 62
250
  6
CONTINUOUS
 10
72.1575587766
 20
-29.2033392364
 11
72.1568624603
 21
-29.2294140183
  0
LINE
  5
2F6
100
AcDbEntity
  8
CURVE
100
AcDbLine
 62
250
  6
CONTINUOUS
 10
72.1153308302
 20
-29.1537045158
 11
72.1142255811
 21
-29.1909895296
  0
LINE
  5
2F7
100
AcDbEntity
  8
CURVE
100
AcDbLine
 62
250
  6
CONTINUOUS
 10
72.1645561587
 20
-29.6475591288
 11
72.1651414505
 21
-29.6287258722
  0
LINE
  5
2F8
100
AcDbEntity
  8
CURVE
100
AcDbLine
 62
250
  6
CONTINUOUS
 10
72.1261622034
 20
-29.5380064553
 11
72.1268443138
 21
-29.5159223342
  0
LINE
  5
2F9
100
AcDbEntity
  8
CURVE
100
AcDbLine
 62
250
  6
CONTINUOUS
 10
72.1583449355
 20
-29.1790115317
 11
72.1575587766
 21
-29.2033392364
  0
LINE
  5
2FA
100
AcDbEntity
  8
CURVE
100
AcDbLine
 62
250
  6
CONTINUOUS
 10
72.1165282389
 20
-29.1188524083
 11
72.1153308302
 21
-29.1537045158
  0
LINE
  5
2FB
100
AcDbEntity
  8
CURVE
100
AcDbLine
 62
250
  6
CONTINUOUS
 10
72.1268443138
 20
-29.5159223342
 11
72.1273399678
 21
-29.5023714982
  0
LINE
  5
2FC
100
AcDbEntity
  8
CURVE
100
AcDbLine
 62
250
  6
CONTINUOUS
 10
72.1651414505
 20
-29.6287258722
 11
72.165779557
 21
-29.6111659912
  0
LINE
  5
2FD
100
AcDbEntity
  8
CURVE
100
AcDbLine
 62
250
  6
CONTINUOUS
 10
72.159210702
 20
-29.1563692967
 11
72.1583449355
 21
-29.1790115317
  0
LINE
  5
2FE
100
AcDbEntity
  8
CURVE
100
AcDbLine
 62
250
  6
CONTINUOUS
 10
72.1178527933
 20
-29.0857112234
 11
72.1165282389
 21
-29.1188524083
  0
LINE
  5
2FF
100
AcDbEntity
  8
CURVE
100
AcDbLine
 62
250
  6
CONTINUOUS
 10
72.1273399678
 20
-29.5023714982
 11
72.127866079
 21
-29.4898254949
  0
LINE
  5
300
100
AcDbEntity
  8
CURVE
100
AcDbLine
 62
250
  6
CONTINUOUS
 10
72.165779557
 20
-29.6111659912
 11
72.1664633507
 21
-29.5949263565
  0
LINE
  5
301
100
AcDbEntity
  8
CURVE
100
AcDbLine
 62
250
  6
CONTINUOUS
 10
72.1601458411
 20
-29.1353509241
 11
72.159210702
 21
-29.1563692967
  0
LINE
  5
302
100
AcDbEntity
  8
CURVE
100
AcDbLine
 62
250
  6
CONTINUOUS
 10
72.1664633507
 20
-29.5949263565
 11
72.1669410752
 21
-29.5848565495
  0
LINE
  5
303
100
AcDbEntity
  8
CURVE
100
AcDbLine
 62
250
  6
CONTINUOUS
 10
72.127866079
 20
-29.4898254949
 11
72.1284208491
 21
-29.4782718679
  0
LINE
  5
304
100
AcDbEntity
  8
CURVE
100
AcDbLine
 62
250
  6
CONTINUOUS
 10
72.1608027531
 20
-29.122210398
 11
72.1601458411
 21
-29.1353509241
  0
LINE
  5
305
100
AcDbEntity
  8
CURVE
100
AcDbLine
 62
250
  6
CONTINUOUS
 10
72.1669410752
 20
-29.5848565495
 11
72.1674338254
 21
-29.5754082378
  0
LINE
  5
306
100
AcDbEntity
  8
CURVE
100
AcDbLine
 62
250
  6
CONTINUOUS
 10
72.1614829159
 20
-29.1097459533
 11
72.1608027531
 21
-29.122210398
  0
LWPOLYLINE
  5
307
100
AcDbEntity
  8
CURVE
100
AcDbPolyline
 62
250
  6
CONTINUOUS
 90
19
 70
0
 10
72.1284208491
 20
-29.4782718679
 10
72.1290011239
 20
-29.467734826
 10
72.1292998399
 20
-29.4628550899
 10
72.1296037493
 20
-29.4582385786
 10
72.1299124578
 20
-29.453888318
 10
72.1302255711
 20
-29.4498073345
 10
72.130542695
 20
-29.4459986541
 10
72.1308634352
 20
-29.4424653029
 10
72.1311873975
 20
-29.4392103071
 10
72.1315141875
 20
-29.4362366929
 10
72.131843411
 20
-29.4335474862
 10
72.1321746737
 20
-29.4311457134
 10
72.1325075814
 20
-29.4290344005
 10
72.1328417398
 20
-29.4272165737
 10
72.1331767546
 20
-29.425695259
 10
72.1335122316
 20
-29.4244734827
 10
72.1338477765
 20
-29.4235542708
 10
72.134182995
 20
-29.4229406495
 10
72.1345174928
 20
-29.4226356449
  0
LINE
  5
308
100
AcDbEntity
  8
CURVE
100
AcDbLine
 62
250
  6
CONTINUOUS
 10
72.1674338254
 20
-29.5754082378
 11
72.1679394896
 21
-29.566595309
  0
LINE
  5
309
100
AcDbEntity
  8
CURVE
100
AcDbLine
 62
250
  6
CONTINUOUS
 10
72.1621832968
 20
-29.097939336
 11
72.1614829159
 21
-29.1097459533
  0
LINE
  5
30A
100
AcDbEntity
  8
CURVE
100
AcDbLine
 62
250
  6
CONTINUOUS
 10
72.1679394896
 20
-29.566595309
 11
72.1684559558
 21
-29.5584316506
  0
LINE
  5
30B
100
AcDbEntity
  8
CURVE
100
AcDbLine
 62
250
  6
CONTINUOUS
 10
72.1629008632
 20
-29.086772292
 11
72.1621832968
 21
-29.097939336
  0
LINE
  5
30C
100
AcDbEntity
  8
CURVE
100
AcDbLine
 62
250
  6
CONTINUOUS
 10
72.1636325825
 20
-29.0762265673
 11
72.1629008632
 21
-29.086772292
  0
LINE
  5
30D
100
AcDbEntity
  8
CURVE
100
AcDbLine
 62
250
  6
CONTINUOUS
 10
72.1684559558
 20
-29.5584316506
 11
72.1689811122
 21
-29.5509311504
  0
LINE
  5
30E
100
AcDbEntity
  8
CURVE
100
AcDbLine
 62
250
  6
CONTINUOUS
 10
72.1643754222
 20
-29.0662839077
 11
72.1636325825
 21
-29.0762265673
  0
LWPOLYLINE
  5
30F
100
AcDbEntity
  8
CURVE
100
AcDbPolyline
 62
250
  6
CONTINUOUS
 90
4
 70
0
 10
72.1689811122
 20
-29.5509311504
 10
72.1695128469
 20
-29.544107696
 10
72.1697805212
 20
-29.5409542008
 10
72.1700490481
 20
-29.5379751749
  0
LINE
  5
310
100
AcDbEntity
  8
CURVE
100
AcDbLine
 62
250
  6
CONTINUOUS
 10
72.1651263496
 20
-29.0569260593
 11
72.1643754222
 21
-29.0662839077
  0
LWPOLYLINE
  5
311
100
AcDbEntity
  8
CURVE
100
AcDbPolyline
 62
250
  6
CONTINUOUS
 90
3
 70
0
 10
72.1662612713
 20
-29.0439458767
 10
72.1658823321
 20
-29.0481347679
 10
72.1651263496
 20
-29.0569260593
  0
LINE
  5
312
100
AcDbEntity
  8
CURVE
100
AcDbLine
 62
7
  6
CONTINUOUS
 10
72.1937764244
 20
-28.8286213783
 11
72.1965029266
 21
-28.825894876
  0
LINE
  5
313
100
AcDbEntity
  8
CURVE
100
AcDbLine
 62
7
  6
CONTINUOUS
 10
72.1166727591
 20
-29.1157357576
 11
72.1494575325
 21
-29.0829509841
  0
LINE
  5
314
100
AcDbEntity
  8
CURVE
100
AcDbLine
 62
7
  6
CONTINUOUS
 10
72.1642457338
 20
-29.0681627828
 11
72.1965029266
 21
-29.03590559
  0
LINE
  5
315
100
AcDbEntity
  8
CURVE
100
AcDbLine
 62
7
  6
CONTINUOUS
 10
72.1113536097
 20
-29.331065621
 11
72.1965029266
 21
-29.2459163041
  0
LINE
  5
316
100
AcDbEntity
  8
CURVE
100
AcDbLine
 62
7
  6
CONTINUOUS
 10
72.109366391
 20
-29.5430635537
 11
72.1265307707
 21
-29.5258991739
  0
LINE
  5
317
100
AcDbEntity
  8
CURVE
100
AcDbLine
 62
7
  6
CONTINUOUS
 10
72.1437940834
 20
-29.5086358613
 11
72.1765468627
 21
-29.4758830819
  0
LINE
  5
318
100
AcDbEntity
  8
CURVE
100
AcDbLine
 62
7
  6
CONTINUOUS
 10
72.1085013444
 20
-29.7539393143
 11
72.1235419943
 21
-29.7388986643
  0
LINE
  5
319
100
AcDbEntity
  8
CURVE
100
AcDbLine
 62
7
  6
CONTINUOUS
 10
72.147672089
 20
-29.7147685697
 11
72.1633902338
 21
-29.6990504249
  0
LINE
  5
31A
100
AcDbEntity
  8
CURVE
100
AcDbLine
 62
7
  6
CONTINUOUS
 10
72.1082723297
 20
-29.964179043
 11
72.1233856957
 21
-29.949065677
  0
LINE
  5
31B
100
AcDbEntity
  8
CURVE
100
AcDbLine
 62
7
  6
CONTINUOUS
 10
72.1480744759
 20
-29.9243768968
 11
72.1623622001
 21
-29.9100891726
  0
LINE
  5
31C
100
AcDbEntity
  8
CURVE
100
AcDbLine
 62
7
  6
CONTINUOUS
 10
72.1085075223
 20
-30.1739545644
 11
72.1736002895
 21
-30.1088617972
  0
LINE
  5
31D
100
AcDbEntity
  8
CURVE
100
AcDbLine
 62
7
  6
CONTINUOUS
 10
72.1091792101
 20
-30.3832935907
 11
72.1965029266
 21
-30.2959698741
  0
LINE
  5
31E
100
AcDbEntity
  8
CURVE
100
AcDbLine
 62
7
  6
CONTINUOUS
 10
72.1101085038
 20
-30.5923750109
 11
72.1965029266
 21
-30.5059805881
  0
LINE
  5
31F
100
AcDbEntity
  8
CURVE
100
AcDbLine
 62
7
  6
CONTINUOUS
 10
72.1779930241
 20
-30.9445119186
 11
72.196502926
 21
-30.9260020167
  0
LINE
  5
320
100
AcDbEntity
  8
CURVE
100
AcDbLine
 62
7
  6
CONTINUOUS
 10
72.1510397833
 20
-31.1814758735
 11
72.196502926
 21
-31.1360127307
  0
LINE
  5
321
100
AcDbEntity
  8
CURVE
100
AcDbLine
 62
7
  6
CONTINUOUS
 10
72.1240865424
 20
-31.4184398284
 11
72.1943884808
 21
-31.34813789
  0
LINE
  5
322
100
AcDbEntity
  8
CURVE
100
AcDbLine
 62
7
  6
CONTINUOUS
 10
72.1092633977
 20
-31.6432736871
 11
72.1631519841
 21
-31.5893851007
  0
LINE
  5
323
100
AcDbEntity
  8
CURVE
100
AcDbLine
 62
7
  6
CONTINUOUS
 10
72.1656103103
 20
-31.5869267745
 11
72.1790868208
 21
-31.573450264
  0
LINE
  5
324
100
AcDbEntity
  8
CURVE
100
AcDbLine
 62
7
  6
CONTINUOUS
 10
72.1092633977
 20
-31.8532844011
 11
72.1352693505
 21
-31.8272784483
  0
LINE
  5
325
100
AcDbEntity
  8
CURVE
100
AcDbLine
 62
7
  6
CONTINUOUS
 10
72.1656103103
 20
-31.7969374885
 11
72.1790868208
 21
-31.783460978
  0
LINE
  5
326
100
AcDbEntity
  8
CURVE
100
AcDbLine
 62
7
  6
CONTINUOUS
 10
72.1102409191
 20
-32.0623175937
 11
72.1585397159
 21
-32.0140187969
  0
LINE
  5
327
100
AcDbEntity
  8
CURVE
100
AcDbLine
 62
7
  6
CONTINUOUS
 10
72.1656103103
 20
-32.0069482025
 11
72.1790868208
 21
-31.993471692
  0
LINE
  5
328
100
AcDbEntity
  8
CURVE
100
AcDbLine
 62
7
  6
CONTINUOUS
 10
72.1312680155
 20
-32.2513012113
 11
72.1818911537
 21
-32.2006780732
  0
LINE
  5
329
100
AcDbEntity
  8
CURVE
100
AcDbLine
 62
7
  6
CONTINUOUS
 10
72.152295112
 20
-32.4402848289
 11
72.196502926
 21
-32.3960770148
  0
LINE
  5
32A
100
AcDbEntity
  8
CURVE
100
AcDbLine
 62
7
  6
CONTINUOUS
 10
72.1733222084
 20
-32.6292684465
 11
72.196502926
 21
-32.6060877288
  0
LINE
  5
32B
100
AcDbEntity
  8
CURVE
100
AcDbLine
 62
7
  6
CONTINUOUS
 10
72.1943493048
 20
-32.8182520641
 11
72.196502926
 21
-32.8160984428
  0
LINE
  5
32C
100
AcDbEntity
  8
CURVE
100
AcDbLine
 62
7
  6
CONTINUOUS
 10
72.1330500987
 20
-33.0895619841
 11
72.196502926
 21
-33.0261091569
  0
LINE
  5
32D
100
AcDbEntity
  8
CURVE
100
AcDbLine
 62
250
  6
CONTINUOUS
 10
72.196502926
 20
-34.230793
 11
72.1395371756
 21
-34.842919
  0
LINE
  5
32E
100
AcDbEntity
  8
CURVE
100
AcDbLine
 62
250
  6
CONTINUOUS
 10
72.1092633977
 20
-34.707635
 11
72.1576990481
 21
-34.191353
  0
LINE
  5
32F
100
AcDbEntity
  8
CURVE
100
AcDbLine
 62
250
  6
CONTINUOUS
 10
72.1700490481
 20
-29.5379751749
 11
72.1712563239
 21
-29.5252922476
  0
LINE
  5
330
100
AcDbEntity
  8
CURVE
100
AcDbLine
 62
250
  6
CONTINUOUS
 10
72.1670191503
 20
-29.0359701946
 11
72.1662612713
 21
-29.0439458767
  0
LINE
  5
331
100
AcDbEntity
  8
CURVE
100
AcDbLine
 62
250
  6
CONTINUOUS
 10
72.1712563239
 20
-29.5252922476
 11
72.1736888402
 21
-29.5014211183
  0
LINE
  5
332
100
AcDbEntity
  8
CURVE
100
AcDbLine
 62
250
  6
CONTINUOUS
 10
72.196502926
 20
-37.714382
 11
72.1092633977
 21
-38.506847
  0
LINE
  5
333
100
AcDbEntity
  8
CURVE
100
AcDbLine
 62
250
  6
CONTINUOUS
 10
72.1736888402
 20
-29.5014211183
 11
72.1761407286
 21
-29.4791682086
  0
LINE
  5
334
100
AcDbEntity
  8
CURVE
100
AcDbLine
 62
250
  6
CONTINUOUS
 10
72.1092633977
 20
-31.54876
 11
72.196502926
 21
-30.781779
  0
LWPOLYLINE
  5
335
100
AcDbEntity
  8
CURVE
100
AcDbPolyline
 62
250
  6
CONTINUOUS
 90
5
 70
0
 10
72.1695133302
 20
-29.0129778129
 10
72.1688340699
 20
-29.0188084012
 10
72.1681502842
 20
-29.0249776956
 10
72.167774503
 20
-29.0285154344
 10
72.1670191503
 20
-29.0359701946
  0
LINE
  5
336
100
AcDbEntity
  8
CURVE
100
AcDbLine
 62
250
  6
CONTINUOUS
 10
72.1761407286
 20
-29.4791682086
 11
72.1786064921
 21
-29.4580838213
  0
LINE
  5
337
100
AcDbEntity
  8
CURVE
100
AcDbLine
 62
250
  6
CONTINUOUS
 10
72.1786064921
 20
-29.4580838213
 11
72.1965029266
 21
-29.3098079785
  0
LINE
  5
338
100
AcDbEntity
  8
CURVE
100
AcDbLine
 62
250
  6
CONTINUOUS
 10
72.1708638907
 20
-29.0020331232
 11
72.1695133302
 21
-29.0129778129
  0
LINE
  5
339
100
AcDbEntity
  8
CURVE
100
AcDbLine
 62
250
  6
CONTINUOUS
 10
72.1092633977
 20
-37.940019
 11
72.1693130771
 21
-37.463524
  0
LINE
  5
33A
100
AcDbEntity
  8
CURVE
100
AcDbLine
 62
250
  6
CONTINUOUS
 10
72.196502926
 20
-31.331727
 11
72.1790868208
 21
-31.466899
  0
LINE
  5
33B
100
AcDbEntity
  8
CURVE
100
AcDbLine
 62
250
  6
CONTINUOUS
 10
72.1823534545
 20
-28.9141482465
 11
72.1708638907
 21
-29.0020331232
  0
LINE
  5
33C
100
AcDbEntity
  8
CURVE
100
AcDbLine
 62
250
  6
CONTINUOUS
 10
72.1965029266
 20
-28.8079038802
 11
72.1823534545
 21
-28.9141482465
  0
LINE
  5
33D
100
AcDbEntity
  8
CURVE
100
AcDbLine
 62
250
  6
CONTINUOUS
 10
72.1656103103
 20
-31.571179
 11
72.1332346056
 21
-31.81095
  0
LINE
  5
33E
100
AcDbEntity
  8
CURVE
100
AcDbLine
 62
250
  6
CONTINUOUS
 10
72.1092633977
 20
-33.153297
 11
72.196502926
 21
-32.919544
  0
LINE
  5
33F
100
AcDbEntity
  8
CURVE
100
AcDbLine
 62
250
  6
CONTINUOUS
 10
72.196502926
 20
-33.429996
 11
72.1397746317
 21
-33.5372
  0
LINE
  5
340
100
AcDbEntity
  8
0
100
AcDbLine
 62
7
  6
CONTINUOUS
 10
71.0699854699
 20
-44.7906993223
 11
71.0555596544
 21
-44.8061684565
  0
LINE
  5
341
100
AcDbEntity
  8
ASSI
100
AcDbLine
 62
7
  6
CONTINUOUS
 10
71.0699854699
 20
-44.7906993223
 11
71.0555596544
 21
-44.8061684565
  0
LINE
  5
342
100
AcDbEntity
  8
CURVE
100
AcDbLine
 62
7
  6
CONTINUOUS
 10
72.1092633977
 20
-33.3233593992
 11
72.196502926
 21
-33.2361198709
  0
LINE
  5
343
100
AcDbEntity
  8
CURVE
100
AcDbLine
 62
7
  6
CONTINUOUS
 10
72.1092633977
 20
-33.5333701132
 11
72.178369698
 21
-33.4642638129
  0
LINE
  5
344
100
AcDbEntity
  8
CURVE
100
AcDbLine
 62
7
  6
CONTINUOUS
 10
72.1155337943
 20
-33.7371104306
 11
72.1544915983
 21
-33.6981526266
  0
LINE
  5
345
100
AcDbEntity
  8
CURVE
100
AcDbLine
 62
7
  6
CONTINUOUS
 10
72.1333722623
 20
-33.9292826766
 11
72.1720855405
 21
-33.8905693984
  0
LINE
  5
346
100
AcDbEntity
  8
CURVE
100
AcDbLine
 62
7
  6
CONTINUOUS
 10
72.1512107303
 20
-34.1214549227
 11
72.1896794827
 21
-34.0829861703
  0
LINE
  5
347
100
AcDbEntity
  8
CURVE
100
AcDbLine
 62
7
  6
CONTINUOUS
 10
72.1438650601
 20
-34.3388113068
 11
72.1908202634
 21
-34.2918561035
  0
LINE
  5
348
100
AcDbEntity
  8
CURVE
100
AcDbLine
 62
7
  6
CONTINUOUS
 10
72.1221228673
 20
-34.5705642136
 11
72.1692707776
 21
-34.5234163034
  0
LINE
  5
349
100
AcDbEntity
  8
CURVE
100
AcDbLine
 62
7
  6
CONTINUOUS
 10
72.1092633977
 20
-34.7934343972
 11
72.1477212918
 21
-34.7549765032
  0
LINE
  5
34A
100
AcDbEntity
  8
CURVE
100
AcDbLine
 62
7
  6
CONTINUOUS
 10
72.1092633977
 20
-35.0034451113
 11
72.1832947777
 21
-34.9294137313
  0
LINE
  5
34B
100
AcDbEntity
  8
CURVE
100
AcDbLine
 62
7
  6
CONTINUOUS
 10
72.1092633977
 20
-35.2134558253
 11
72.196502926
 21
-35.126216297
  0
LINE
  5
34C
100
AcDbEntity
  8
CURVE
100
AcDbLine
 62
7
  6
CONTINUOUS
 10
72.1634747263
 20
-35.3692552108
 11
72.196502926
 21
-35.336227011
  0
LINE
  5
34D
100
AcDbEntity
  8
CURVE
100
AcDbLine
 62
7
  6
CONTINUOUS
 10
72.1092581977
 20
-35.8434931673
 11
72.196502926
 21
-35.756248439
  0
LINE
  5
34E
100
AcDbEntity
  8
CURVE
100
AcDbLine
 62
7
  6
CONTINUOUS
 10
72.1092581977
 20
-36.0535038813
 11
72.196502926
 21
-35.966259153
  0
LINE
  5
34F
100
AcDbEntity
  8
CURVE
100
AcDbLine
 62
7
  6
CONTINUOUS
 10
72.1153747931
 20
-36.257398
 11
72.196502926
 21
-36.176269867
  0
LINE
  5
350
100
AcDbEntity
  8
CURVE
100
AcDbLine
 62
7
  6
CONTINUOUS
 10
72.1092633977
 20
-36.4735201093
 11
72.111465369
 21
-36.4713181381
  0
LINE
  5
351
100
AcDbEntity
  8
CURVE
100
AcDbLine
 62
7
  6
CONTINUOUS
 10
72.1092633977
 20
-36.6835308234
 11
72.1320335896
 21
-36.6607606315
  0
LINE
  5
352
100
AcDbEntity
  8
CURVE
100
AcDbLine
 62
7
  6
CONTINUOUS
 10
72.1092633977
 20
-36.8935415374
 11
72.1526018102
 21
-36.850203125
  0
LINE
  5
353
100
AcDbEntity
  8
CURVE
100
AcDbLine
 62
7
  6
CONTINUOUS
 10
72.1235462091
 20
-37.0892694401
 11
72.1731700307
 21
-37.0396456184
  0
LINE
  5
354
100
AcDbEntity
  8
CURVE
100
AcDbLine
 62
7
  6
CONTINUOUS
 10
72.1464296431
 20
-37.27639672
 11
72.1937382513
 21
-37.2290881118
  0
LINE
  5
355
100
AcDbEntity
  8
CURVE
100
AcDbLine
 62
7
  6
CONTINUOUS
 10
72.1693130771
 20
-37.463524
 11
72.196502926
 21
-37.4363341511
  0
LINE
  5
356
100
AcDbEntity
  8
CURVE
100
AcDbLine
 62
7
  6
CONTINUOUS
 10
72.1390304075
 20
-37.7038173836
 11
72.196502926
 21
-37.6463448651
  0
LINE
  5
357
100
AcDbEntity
  8
CURVE
100
AcDbLine
 62
7
  6
CONTINUOUS
 10
72.1092633977
 20
-37.9435951074
 11
72.1789401627
 21
-37.8739183425
  0
LINE
  5
358
100
AcDbEntity
  8
CURVE
100
AcDbLine
 62
7
  6
CONTINUOUS
 10
72.1092633977
 20
-38.1536058214
 11
72.152960903
 21
-38.1099083161
  0
LINE
  5
359
100
AcDbEntity
  8
CURVE
100
AcDbLine
 62
7
  6
CONTINUOUS
 10
72.1092633977
 20
-38.3636165355
 11
72.1269816434
 21
-38.3458982898
  0
LINE
  5
35A
100
AcDbEntity
  8
0
100
AcDbLine
 62
7
  6
CONTINUOUS
 10
70.6267374102
 20
-43.7712689598
 11
71.0212689598
 21
-43.3767374102
  0
LINE
  5
35B
100
AcDbEntity
  8
ASSI
100
AcDbLine
 62
7
  6
CONTINUOUS
 10
70.6267374102
 20
-43.7712689598
 11
71.0212689598
 21
-43.3767374102
  0
LINE
  5
35C
100
AcDbEntity
  8
0
100
AcDbLine
 62
7
  6
CONTINUOUS
 10
71.0699854699
 20
-44.7906993223
 11
72.0406993223
 21
-43.8199854699
  0
LINE
  5
35D
100
AcDbEntity
  8
ASSI
100
AcDbLine
 62
7
  6
CONTINUOUS
 10
71.0699854699
 20
-44.7906993223
 11
72.0406993223
 21
-43.8199854699
  0
LINE
  5
35E
100
AcDbEntity
  8
0
100
AcDbLine
 62
7
  6
CONTINUOUS
 10
72.25
 20
-43.9993911979
 11
71.2493911979
 21
-45.0
  0
LINE
  5
35F
100
AcDbEntity
  8
ASSI
100
AcDbLine
 62
7
  6
CONTINUOUS
 10
72.25
 20
-43.9993911979
 11
71.2493911979
 21
-45.0
  0
LINE
  5
360
100
AcDbEntity
  8
0
100
AcDbLine
 62
7
  6
CONTINUOUS
 10
72.0561684565
 20
-43.8055596544
 11
72.0406993223
 21
-43.8199854699
  0
LINE
  5
361
100
AcDbEntity
  8
ASSI
100
AcDbLine
 62
7
  6
CONTINUOUS
 10
72.0561684565
 20
-43.8055596544
 11
72.0406993223
 21
-43.8199854699
  0
LINE
  5
362
100
AcDbEntity
  8
0
100
AcDbLine
 62
7
  6
CONTINUOUS
 10
72.0406993223
 20
43.8199854699
 11
72.0561684565
 21
43.8055596544
  0
LINE
  5
363
100
AcDbEntity
  8
ASSI
100
AcDbLine
 62
7
  6
CONTINUOUS
 10
72.0406993223
 20
43.8199854699
 11
72.0561684565
 21
43.8055596544
  0
LINE
  5
364
100
AcDbEntity
  8
0
100
AcDbLine
 62
7
  6
CONTINUOUS
 10
71.0212689598
 20
43.3767374102
 11
70.6267374102
 21
43.7712689598
  0
LINE
  5
365
100
AcDbEntity
  8
ASSI
100
AcDbLine
 62
7
  6
CONTINUOUS
 10
71.0212689598
 20
43.3767374102
 11
70.6267374102
 21
43.7712689598
  0
LINE
  5
366
100
AcDbEntity
  8
0
100
AcDbLine
 62
7
  6
CONTINUOUS
 10
72.0406993223
 20
43.8199854699
 11
71.0699854699
 21
44.7906993223
  0
LINE
  5
367
100
AcDbEntity
  8
ASSI
100
AcDbLine
 62
7
  6
CONTINUOUS
 10
72.0406993223
 20
43.8199854699
 11
71.0699854699
 21
44.7906993223
  0
LINE
  5
368
100
AcDbEntity
  8
0
100
AcDbLine
 62
7
  6
CONTINUOUS
 10
71.2493911979
 20
45.0
 11
72.25
 21
43.9993911979
  0
LINE
  5
369
100
AcDbEntity
  8
ASSI
100
AcDbLine
 62
7
  6
CONTINUOUS
 10
71.2493911979
 20
45.0
 11
72.25
 21
43.9993911979
  0
LINE
  5
36A
100
AcDbEntity
  8
0
100
AcDbLine
 62
7
  6
CONTINUOUS
 10
71.0555596544
 20
44.8061684565
 11
71.0699854699
 21
44.7906993223
  0
LINE
  5
36B
100
AcDbEntity
  8
ASSI
100
AcDbLine
 62
7
  6
CONTINUOUS
 10
71.0555596544
 20
44.8061684565
 11
71.0699854699
 21
44.7906993223
  0
LWPOLYLINE
  5
36C
100
AcDbEntity
  8
0
100
AcDbPolyline
 62
7
  6
CONTINUOUS
 90
3
 70
0
 43
0.3500000006
 10
-126.4326407776
 20
65.8928549194
 10
-125.5755028381
 20
66.7500019226
 10
-125.5755028381
 20
63.7500010071
  0
LWPOLYLINE
  5
36D
100
AcDbEntity
  8
0
100
AcDbPolyline
 62
7
  6
CONTINUOUS
 90
3
 70
0
 43
0.3500000006
 10
-120.6469234314
 20
65.8928549194
 10
-119.7897854919
 20
66.7500019226
 10
-119.7897854919
 20
63.7500010071
  0
LWPOLYLINE
  5
36E
100
AcDbEntity
  8
0
100
AcDbPolyline
 62
7
  6
CONTINUOUS
 90
3
 70
0
 43
0.3500000006
 10
-119.8711505127
 20
57.8928615417
 10
-119.0140035095
 20
58.7499994812
 10
-119.0140035095
 20
55.7499985657
  0
LINE
  5
36F
100
AcDbEntity
  8
0
100
AcDbLine
 62
7
  6
CONTINUOUS
 10
-113.5439347248
 20
-44.8061684565
 11
-107.9933255518
 21
-45.0
  0
LINE
  5
370
100
AcDbEntity
  8
ASSI
100
AcDbLine
 62
7
  6
CONTINUOUS
 10
-113.5439347248
 20
-44.8061684565
 11
-107.9933255518
 21
-45.0
  0
LINE
  5
371
100
AcDbEntity
  8
0
100
AcDbLine
 62
7
  6
CONTINUOUS
 10
-113.5439347248
 20
-43.8055596544
 11
-107.9933255518
 21
-43.9993911979
  0
LINE
  5
372
100
AcDbEntity
  8
ASSI
100
AcDbLine
 62
7
  6
CONTINUOUS
 10
-113.5439347248
 20
-43.8055596544
 11
-107.9933255518
 21
-43.9993911979
  0
LINE
  5
373
100
AcDbEntity
  8
0
100
AcDbLine
 62
7
  6
CONTINUOUS
 10
-107.9933255518
 20
-42.7580439128
 11
-107.3933255518
 21
-42.8
  0
LINE
  5
374
100
AcDbEntity
  8
0
100
AcDbLine
 62
7
  6
CONTINUOUS
 10
-114.5433255518
 20
43.3767374102
 11
-113.558873094
 21
43.8199854699
  0
LINE
  5
375
100
AcDbEntity
  8
ASSI
100
AcDbLine
 62
7
  6
CONTINUOUS
 10
-114.5433255518
 20
43.3767374102
 11
-113.558873094
 21
43.8199854699
  0
LINE
  5
376
100
AcDbEntity
  8
0
100
AcDbLine
 62
250
  6
CONTINUOUS
 10
-107.9933255518
 20
-41.1619414324
 11
-107.3933255518
 21
-41.2038975196
  0
LINE
  5
377
100
AcDbEntity
  8
0
100
AcDbLine
 62
7
  6
CONTINUOUS
 10
-114.5433255518
 20
-43.3767374102
 11
-113.558873094
 21
-43.8199854699
  0
LINE
  5
378
100
AcDbEntity
  8
ASSI
100
AcDbLine
 62
7
  6
CONTINUOUS
 10
-114.5433255518
 20
-43.3767374102
 11
-113.558873094
 21
-43.8199854699
  0
LINE
  5
379
100
AcDbEntity
  8
CURVE
100
AcDbLine
 62
250
  6
CONTINUOUS
 10
-112.0234945403
 20
-37.940019
 11
-110.3038967114
 21
-37.463524
  0
LINE
  5
37A
100
AcDbEntity
  8
CURVE
100
AcDbLine
 62
250
  6
CONTINUOUS
 10
-112.0236434495
 20
-36.257398
 11
-109.5252813119
 21
-36.257398
  0
LINE
  5
37B
100
AcDbEntity
  8
CURVE
100
AcDbLine
 62
250
  6
CONTINUOUS
 10
-110.3038967114
 20
-37.463524
 11
-112.0234945403
 21
-36.972473
  0
LINE
  5
37C
100
AcDbEntity
  8
0
100
AcDbLine
 62
7
  6
CONTINUOUS
 10
-113.5439347248
 20
44.8061684565
 11
-114.5433255518
 21
43.7712689598
  0
LINE
  5
37D
100
AcDbEntity
  8
ASSI
100
AcDbLine
 62
7
  6
CONTINUOUS
 10
-113.5439347248
 20
44.8061684565
 11
-114.5433255518
 21
43.7712689598
  0
LINE
  5
37E
100
AcDbEntity
  8
CURVE
100
AcDbLine
 62
250
  6
CONTINUOUS
 10
-109.5252813119
 20
-33.429996
 11
-111.1497671159
 21
-33.5372
  0
LINE
  5
37F
100
AcDbEntity
  8
CURVE
100
AcDbLine
 62
250
  6
CONTINUOUS
 10
-109.5252813119
 20
-35.735605
 11
-112.0236434495
 21
-35.735605
  0
LINE
  5
380
100
AcDbEntity
  8
CURVE
100
AcDbLine
 62
250
  6
CONTINUOUS
 10
-111.1565669711
 20
-34.842919
 11
-109.5252813119
 21
-34.955522
  0
LINE
  5
381
100
AcDbEntity
  8
CURVE
100
AcDbLine
 62
250
  6
CONTINUOUS
 10
-109.5252813119
 20
-35.454708
 11
-112.0234945403
 21
-35.228996
  0
LINE
  5
382
100
AcDbEntity
  8
CURVE
100
AcDbLine
 62
250
  6
CONTINUOUS
 10
-112.0234945403
 20
-36.451037
 11
-109.5252813119
 21
-37.254552
  0
LINE
  5
383
100
AcDbEntity
  8
0
100
AcDbLine
 62
7
  6
CONTINUOUS
 10
-114.5433255518
 20
-43.7712689598
 11
-113.5439347248
 21
-44.8061684565
  0
LINE
  5
384
100
AcDbEntity
  8
ASSI
100
AcDbLine
 62
7
  6
CONTINUOUS
 10
-114.5433255518
 20
-43.7712689598
 11
-113.5439347248
 21
-44.8061684565
  0
LWPOLYLINE
  5
385
100
AcDbEntity
  8
0
100
AcDbPolyline
 62
7
  6
CONTINUOUS
 90
3
 70
0
 43
0.3500000006
 10
-121.6469237366
 20
64.0357166748
 10
-121.7183549194
 20
63.8214321899
 10
-121.8612082214
 20
63.5357165222
  0
LINE
  5
386
100
AcDbEntity
  8
CURVE
100
AcDbLine
 62
250
  6
CONTINUOUS
 10
-109.5252813119
 20
-31.331727
 11
-110.0240133127
 21
-31.466899
  0
LINE
  5
387
100
AcDbEntity
  8
CURVE
100
AcDbLine
 62
250
  6
CONTINUOUS
 10
-110.4099300793
 20
-31.571179
 11
-111.3370489593
 21
-31.81095
  0
LINE
  5
388
100
AcDbEntity
  8
CURVE
100
AcDbLine
 62
250
  6
CONTINUOUS
 10
-112.0234945403
 20
-33.153297
 11
-109.5252813119
 21
-32.919544
  0
LINE
  5
389
100
AcDbEntity
  8
CURVE
100
AcDbLine
 62
250
  6
CONTINUOUS
 10
-111.9943066842
 20
-30.6285551388
 11
-109.5252812955
 21
-30.6285551388
  0
LINE
  5
38A
100
AcDbEntity
  8
CURVE
100
AcDbLine
 62
250
  6
CONTINUOUS
 10
-110.9120906771
 20
-30.126163664
 11
-111.597898799
 21
-30.126163664
  0
LINE
  5
38B
100
AcDbEntity
  8
CURVE
100
AcDbLine
 62
250
  6
CONTINUOUS
 10
-109.5252812955
 20
-30.1088617972
 11
-110.5029437862
 21
-30.1088617972
  0
LINE
  5
38C
100
AcDbEntity
  8
CURVE
100
AcDbLine
 62
250
  6
CONTINUOUS
 10
-111.3370489593
 20
-31.81095
 11
-110.4099300793
 21
-32.070759
  0
LINE
  5
38D
100
AcDbEntity
  8
CURVE
100
AcDbLine
 62
250
  6
CONTINUOUS
 10
-110.0240133127
 20
-32.177494
 11
-109.5252813119
 21
-32.321477
  0
LINE
  5
38E
100
AcDbEntity
  8
CURVE
100
AcDbLine
 62
250
  6
CONTINUOUS
 10
-109.5252813119
 20
-32.837608
 11
-112.0234945403
 21
-32.053532
  0
LINE
  5
38F
100
AcDbEntity
  8
CURVE
100
AcDbLine
 62
250
  6
CONTINUOUS
 10
-110.6364789877
 20
-34.191353
 11
-112.0234945403
 21
-33.66956
  0
LINE
  5
390
100
AcDbEntity
  8
CURVE
100
AcDbLine
 62
250
  6
CONTINUOUS
 10
-111.1497671159
 20
-33.5372
 11
-109.5252813119
 21
-34.157611
  0
LWPOLYLINE
  5
391
100
AcDbEntity
  8
0
100
AcDbPolyline
 62
7
  6
CONTINUOUS
 90
3
 70
0
 43
0.3500000006
 10
-120.8711508179
 20
56.0357142334
 10
-120.942572937
 20
55.8214297485
 10
-121.0854353027
 20
55.5357140808
  0
LWPOLYLINE
  5
392
100
AcDbEntity
  8
CURVE
100
AcDbPolyline
 62
250
  6
CONTINUOUS
 90
4
 70
0
 10
-109.9669179836
 20
-29.4377182594
 10
-109.8959853382
 20
-29.4176218259
 10
-109.8605372695
 20
-29.407534002
 10
-109.5252812955
 20
-29.3098079785
  0
LWPOLYLINE
  5
393
100
AcDbEntity
  8
CURVE
100
AcDbPolyline
 62
250
  6
CONTINUOUS
 90
45
 70
0
 10
-110.2594872211
 20
-29.0020331232
 10
-110.2788001287
 20
-29.0074110228
 10
-110.2981622138
 20
-29.0129778129
 10
-110.3176136833
 20
-29.0188084012
 10
-110.3371947439
 20
-29.0249776956
 10
-110.3479557107
 20
-29.0285154344
 10
-110.3587564747
 20
-29.0321788401
 10
-110.3695861805
 20
-29.0359701946
 10
-110.380433973
 20
-29.0398917796
 10
-110.3912889967
 20
-29.0439458767
 10
-110.4021403965
 20
-29.0481347679
 10
-110.412977317
 20
-29.0524607348
 10
-110.4237889029
 20
-29.0569260593
 10
-110.4345642989
 20
-29.061533023
 10
-110.4452926496
 20
-29.0662839077
 10
-110.4559630999
 20
-29.0711809952
 10
-110.4665647944
 20
-29.0762265673
 10
-110.4770868778
 20
-29.0814229056
 10
-110.4875184948
 20
-29.086772292
 10
-110.4978487901
 20
-29.0922770082
 10
-110.5080669084
 20
-29.097939336
 10
-110.5181619945
 20
-29.1037615571
 10
-110.5281231929
 20
-29.1097459533
 10
-110.5379396484
 20
-29.1158948064
 10
-110.5476005057
 20
-29.122210398
 10
-110.5570949096
 20
-29.12869501
 10
-110.5664120046
 20
-29.1353509241
 10
-110.5755409356
 20
-29.1421804221
 10
-110.5844708471
 20
-29.1491857857
 10
-110.593190884
 20
-29.1563692967
 10
-110.6016901909
 20
-29.1637332369
 10
-110.6099579124
 20
-29.171279888
 10
-110.6179831934
 20
-29.1790115317
 10
-110.6257551785
 20
-29.1869304498
 10
-110.6332630124
 20
-29.1950389241
 10
-110.6404958398
 20
-29.2033392364
 10
-110.6474428055
 20
-29.2118336683
 10
-110.654093054
 20
-29.2205245017
 10
-110.6604357301
 20
-29.2294140183
 10
-110.6664599786
 20
-29.2385044999
 10
-110.672154944
 20
-29.2477982281
 10
-110.6775097712
 20
-29.2572974849
 10
-110.6825136048
 20
-29.2670045519
 10
-110.6871555894
 20
-29.2769217109
 10
-110.6914248699
 20
-29.2870512436
  0
LINE
  5
394
100
AcDbEntity
  8
CURVE
100
AcDbLine
 62
250
  6
CONTINUOUS
 10
-110.1112044246
 20
-28.9619131419
 11
-110.2594872211
 21
-29.0020331232
  0
LINE
  5
395
100
AcDbEntity
  8
CURVE
100
AcDbLine
 62
250
  6
CONTINUOUS
 10
-109.5252812955
 20
-28.8079038802
 11
-109.6144720221
 21
-28.8317103572
  0
LINE
  5
396
100
AcDbEntity
  8
CURVE
100
AcDbLine
 62
250
  6
CONTINUOUS
 10
-109.9304691612
 20
-28.9141482465
 11
-110.1112044246
 21
-28.9619131419
  0
LINE
  5
397
100
AcDbEntity
  8
CURVE
100
AcDbLine
 62
250
  6
CONTINUOUS
 10
-109.6144720221
 20
-28.8317103572
 11
-109.9304691612
 21
-28.9141482465
  0
LWPOLYLINE
  5
398
100
AcDbEntity
  8
CURVE
100
AcDbPolyline
 62
250
  6
CONTINUOUS
 90
59
 70
0
 10
-111.3003118777
 20
-29.4226356449
 10
-111.2894650314
 20
-29.4226069612
 10
-111.2785343069
 20
-29.4228544869
 10
-111.2675346751
 20
-29.4233783442
 10
-111.2564811065
 20
-29.4241786553
 10
-111.245388572
 20
-29.4252555424
 10
-111.2342720422
 20
-29.4266091279
 10
-111.223146488
 20
-29.4282395339
 10
-111.2120268799
 20
-29.4301468827
 10
-111.2009281888
 20
-29.4323312964
 10
-111.1898653854
 20
-29.4347928975
 10
-111.1788534404
 20
-29.437531808
 10
-111.1679073245
 20
-29.4405481502
 10
-111.1570420085
 20
-29.4438420464
 10
-111.1462724632
 20
-29.4474136188
 10
-111.1356136591
 20
-29.4512629897
 10
-111.1250805671
 20
-29.4553902812
 10
-111.1146881579
 20
-29.4597956156
 10
-111.1044514022
 20
-29.4644791152
 10
-111.0943852708
 20
-29.4694409021
 10
-111.0845047343
 20
-29.4746810987
 10
-111.0748247636
 20
-29.4801998271
 10
-111.0653603293
 20
-29.4859972096
 10
-111.0561264021
 20
-29.4920733685
 10
-111.0471379529
 20
-29.4984284259
 10
-111.0384099523
 20
-29.5050625042
 10
-111.029957371
 20
-29.5119757254
 10
-111.0217951799
 20
-29.519168212
 10
-111.0139383495
 20
-29.5266400861
 10
-111.0064018507
 20
-29.5343914699
 10
-110.9992006542
 20
-29.5424224857
 10
-110.9924358532
 20
-29.5506174953
 10
-110.9860046996
 20
-29.5590719673
 10
-110.9798999241
 20
-29.5677730826
 10
-110.9741142572
 20
-29.5767080222
 10
-110.9686404298
 20
-29.585863967
 10
-110.9634711725
 20
-29.5952280979
 10
-110.958599216
 20
-29.6047875957
 10
-110.954017291
 20
-29.6145296415
 10
-110.9497181283
 20
-29.624441416
 10
-110.9456944584
 20
-29.6345101002
 10
-110.9419390121
 20
-29.6447228751
 10
-110.9384445201
 20
-29.6550669214
 10
-110.935203713
 20
-29.6655294202
 10
-110.9322093217
 20
-29.6760975523
 10
-110.9294540767
 20
-29.6867584987
 10
-110.9269307088
 20
-29.6974994402
 10
-110.9246319486
 20
-29.7083075577
 10
-110.9225505269
 20
-29.7191700322
 10
-110.9206791743
 20
-29.7300740446
 10
-110.9190106215
 20
-29.7410067757
 10
-110.9175375993
 20
-29.7519554065
 10
-110.9162528383
 20
-29.762907118
 10
-110.9151490693
 20
-29.7738490909
 10
-110.9142190228
 20
-29.7847685061
 10
-110.9134554297
 20
-29.7956525448
 10
-110.9128510206
 20
-29.8064883876
 10
-110.9123985261
 20
-29.8172632155
 10
-110.9120906771
 20
-29.8279642095
  0
LINE
  5
399
100
AcDbEntity
  8
0
100
AcDbLine
 62
7
  6
CONTINUOUS
 10
-106.3933255518
 20
-27.15
 11
-107.3933255518
 21
-27.151745331
  0
LINE
  5
39A
100
AcDbEntity
  8
0
100
AcDbLine
 62
250
  6
CONTINUOUS
 10
-106.467552968
 20
-26.9276792439
 11
-107.3933255518
 21
-26.9280974384
  0
LINE
  5
39B
100
AcDbEntity
  8
CURVE
100
AcDbLine
 62
250
  6
CONTINUOUS
 10
-110.6914248699
 20
-29.2870512436
 11
-110.7061871295
 21
-29.2870512436
  0
LINE
  5
39C
100
AcDbEntity
  8
0
100
AcDbLine
 62
7
  6
CONTINUOUS
 10
-104.9432763196
 20
-26.3415638603
 11
-107.3933255518
 21
-26.3558178298
  0
LINE
  5
39D
100
AcDbEntity
  8
0
100
AcDbLine
 62
250
  6
CONTINUOUS
 10
-104.9432763196
 20
-26.2536973817
 11
-107.3933255518
 21
-26.2679513512
  0
LINE
  5
39E
100
AcDbEntity
  8
0
100
AcDbLine
 62
7
  6
CONTINUOUS
 10
-104.3933255518
 20
-26.1523612067
 11
-104.5138883188
 21
-26.1523612067
  0
LINE
  5
39F
100
AcDbEntity
  8
0
100
AcDbLine
 62
7
  6
CONTINUOUS
 10
-106.4432011729
 20
-25.2
 11
-107.3933255518
 21
-25.2
  0
LINE
  5
3A0
100
AcDbEntity
  8
0
100
AcDbLine
 62
7
  6
CONTINUOUS
 10
-107.3933255518
 20
-25.05
 11
-107.2433255518
 21
-25.05
  0
LINE
  5
3A1
100
AcDbEntity
  8
0
100
AcDbLine
 62
7
  6
CONTINUOUS
 10
-106.9433255518
 20
-25.05
 11
-106.7433255518
 21
-25.05
  0
LINE
  5
3A2
100
AcDbEntity
  8
0
100
AcDbLine
 62
7
  6
CONTINUOUS
 10
-104.3933445899
 20
-25.3545427575
 11
-104.8913590388
 21
-25.3501966513
  0
LINE
  5
3A3
100
AcDbEntity
  8
0
100
AcDbLine
 62
7
  6
CONTINUOUS
 10
-107.3933255518
 20
-25.7558198745
 11
-104.5828583605
 21
-25.8799866677
  0
LINE
  5
3A4
100
AcDbEntity
  8
0
100
AcDbLine
 62
7
  6
CONTINUOUS
 10
-104.3933255518
 20
-25.4
 11
-106.3436974539
 21
-25.2049628098
  0
LWPOLYLINE
  5
3A5
100
AcDbEntity
  8
0
100
AcDbPolyline
 62
250
  6
CONTINUOUS
 90
4
 70
0
 10
-104.9036461364
 20
26.2859337461
 10
-104.9167239483
 20
26.2764685448
 10
-104.9299584248
 20
26.2657032341
 10
-104.9432763196
 20
26.2536973817
  0
LWPOLYLINE
  5
3A6
100
AcDbEntity
  8
0
100
AcDbPolyline
 62
250
  6
CONTINUOUS
 90
4
 70
0
 10
-104.9036428196
 20
-26.2859359948
 10
-104.9167199201
 20
-26.2764716418
 10
-104.9299554922
 20
-26.2657057491
 10
-104.9432763196
 20
-26.2536973817
  0
LWPOLYLINE
  5
3A7
100
AcDbEntity
  8
0
100
AcDbPolyline
 62
7
  6
CONTINUOUS
 90
13
 70
0
 43
0.3500000006
 10
-124.718355835
 20
64.6071389465
 10
-124.718355835
 20
65.8928549194
 10
-124.5040713501
 20
66.3214329529
 10
-124.0755023804
 20
66.7500019226
 10
-123.8612088318
 20
66.7500019226
 10
-123.4326398621
 20
66.3214329529
 10
-123.2183553772
 20
65.8928549194
 10
-123.2183553772
 20
64.6071389465
 10
-123.4326398621
 20
64.1785699768
 10
-123.8612088318
 20
63.7500010071
 10
-124.0755023804
 20
63.7500010071
 10
-124.5040713501
 20
64.1785699768
 10
-124.718355835
 20
64.6071389465
  0
LINE
  5
3A8
100
AcDbEntity
  8
0
100
AcDbLine
 62
7
  6
CONTINUOUS
 10
-107.2433255518
 20
25.05
 11
-107.0933255518
 21
25.2
  0
LINE
  5
3A9
100
AcDbEntity
  8
0
100
AcDbLine
 62
7
  6
CONTINUOUS
 10
-106.7433255518
 20
25.05
 11
-106.5933255518
 21
25.2
  0
LINE
  5
3AA
100
AcDbEntity
  8
0
100
AcDbLine
 62
7
  6
CONTINUOUS
 10
-107.2433255518
 20
-25.05
 11
-107.0933255518
 21
-25.2
  0
LINE
  5
3AB
100
AcDbEntity
  8
0
100
AcDbLine
 62
7
  6
CONTINUOUS
 10
-106.7433255518
 20
-25.05
 11
-106.5933255518
 21
-25.2
  0
LWPOLYLINE
  5
3AC
100
AcDbEntity
  8
0
100
AcDbPolyline
 62
7
  6
CONTINUOUS
 90
4
 70
0
 43
0.3500000006
 10
-123.9425738525
 20
58.1071460266
 10
-123.9425738525
 20
58.7499994812
 10
-122.4425733948
 20
58.7499994812
 10
-123.2997203979
 20
55.7499985657
  0
LWPOLYLINE
  5
3AD
100
AcDbEntity
  8
0
100
AcDbPolyline
 62
250
  6
CONTINUOUS
 90
9
 70
0
 10
-106.3738452763
 20
-27.07401124
 10
-106.3664782014
 20
-27.0833685385
 10
-106.359321218
 20
-27.0919235013
 10
-106.3524479815
 20
-27.0995102082
 10
-106.3460090178
 20
-27.1058788677
 10
-106.3401772012
 20
-27.1107823523
 10
-106.3350728353
 20
-27.1140426981
 10
-106.3307841386
 20
-27.1155076942
 10
-106.3274193181
 20
-27.1150157961
  0
LWPOLYLINE
  5
3AE
100
AcDbEntity
  8
0
100
AcDbPolyline
 62
250
  6
CONTINUOUS
 90
19
 70
0
 10
-106.467552968
 20
26.9276792439
 10
-106.4590804371
 20
26.9423839666
 10
-106.4505227467
 20
26.9569847278
 10
-106.4419120174
 20
26.9714147881
 10
-106.4333423404
 20
26.9855122056
 10
-106.4247891897
 20
26.9993028641
 10
-106.4161191581
 20
27.0129648749
 10
-106.4073793178
 20
27.0263866054
 10
-106.3986377478
 20
27.0394339597
 10
-106.3898263987
 20
27.0521621614
 10
-106.3809960312
 20
27.0644333945
 10
-106.3723033742
 20
27.0759591159
 10
-106.3638720987
 20
27.0865018142
 10
-106.3557822109
 20
27.0958682157
 10
-106.3482405421
 20
27.1037216877
 10
-106.3415256831
 20
27.1097044491
 10
-106.3357752867
 20
27.113649505
 10
-106.3310413489
 20
27.1154612881
 10
-106.3274193181
 20
27.1150157961
  0
LWPOLYLINE
  5
3AF
100
AcDbEntity
  8
0
100
AcDbPolyline
 62
7
  6
CONTINUOUS
 90
7
 70
0
 10
-104.4211844668
 20
-25.9765617175
 10
-104.4129130797
 20
-25.9906159986
 10
-104.4060014627
 20
-26.0036989056
 10
-104.4005259427
 20
-26.0158104386
 10
-104.3965529713
 20
-26.0269505975
 10
-104.3941381895
 20
-26.0371193824
 10
-104.3933255518
 20
-26.0463167932
  0
LWPOLYLINE
  5
3B0
100
AcDbEntity
  8
0
100
AcDbPolyline
 62
250
  6
CONTINUOUS
 90
14
 70
0
 10
-106.467552968
 20
-26.9276792439
 10
-106.4609353365
 20
-26.9392028222
 10
-106.4541897489
 20
-26.9507924602
 10
-106.4473324421
 20
-26.9624091987
 10
-106.4404176093
 20
-26.9739539252
 10
-106.433428638
 20
-26.985441494
 10
-106.4262819504
 20
-26.9969849219
 10
-106.4189927114
 20
-27.0085350055
 10
-106.411608724
 20
-27.0199953609
 10
-106.4041088114
 20
-27.0313718033
 10
-106.3965381262
 20
-27.0425637488
 10
-106.3889523581
 20
-27.0534545958
 10
-106.3813646609
 20
-27.0639853563
 10
-106.3738452763
 20
-27.07401124
  0
LWPOLYLINE
  5
3B1
100
AcDbEntity
  8
CURVE
100
AcDbPolyline
 62
250
  6
CONTINUOUS
 90
73
 70
0
 10
-110.7061871295
 20
-29.2870512436
 10
-110.707749003
 20
-29.2785372004
 10
-110.7101431299
 20
-29.2702734255
 10
-110.713277128
 20
-29.2622389999
 10
-110.7170586151
 20
-29.2544130044
 10
-110.721395209
 20
-29.2467745197
 10
-110.7261945275
 20
-29.2393026267
 10
-110.7313641884
 20
-29.2319764062
 10
-110.7368118095
 20
-29.2247749391
 10
-110.7424450085
 20
-29.2176773061
 10
-110.7481714034
 20
-29.210662588
 10
-110.7626469011
 20
-29.1932845632
 10
-110.7772014125
 20
-29.1763222047
 10
-110.7919087917
 20
-29.1597980104
 10
-110.8068428929
 20
-29.143734478
 10
-110.82207757
 20
-29.1281541054
 10
-110.8376866773
 20
-29.1130793902
 10
-110.8537440688
 20
-29.0985328302
 10
-110.8703235986
 20
-29.0845369234
 10
-110.8888777072
 20
-29.0700624751
 10
-110.9080760908
 20
-29.0562677012
 10
-110.9278678164
 20
-29.0431637119
 10
-110.9482019509
 20
-29.0307616174
 10
-110.9690275612
 20
-29.0190725279
 10
-110.9902937141
 20
-29.0081075538
 10
-111.0119494766
 20
-28.9978778051
 10
-111.0339439155
 20
-28.9883943921
 10
-111.0562260978
 20
-28.9796684252
 10
-111.0787450903
 20
-28.9717110143
 10
-111.1014356783
 20
-28.964535883
 10
-111.1242987154
 20
-28.9581290207
 10
-111.1473211089
 20
-28.9524804372
 10
-111.1704897662
 20
-28.9475801423
 10
-111.1937915948
 20
-28.9434181457
 10
-111.2172135019
 20
-28.9399844572
 10
-111.2441171847
 20
-28.9369382549
 10
-111.271126526
 20
-28.9348146158
 10
-111.2982073646
 20
-28.9335973367
 10
-111.3253255394
 20
-28.9332702142
 10
-111.3524468893
 20
-28.933817045
 10
-111.3795372532
 20
-28.9352216257
 10
-111.405889448
 20
-28.937409052
 10
-111.4321476993
 20
-28.9404260832
 10
-111.4582800016
 20
-28.9443022316
 10
-111.4842543493
 20
-28.9490670099
 10
-111.5100387369
 20
-28.9547499304
 10
-111.5330271734
 20
-28.9606636642
 10
-111.5558083178
 20
-28.9673488373
 10
-111.578354233
 20
-28.9748111535
 10
-111.6006369821
 20
-28.9830563168
 10
-111.6226286281
 20
-28.9920900312
 10
-111.6462049252
 20
-29.0028224101
 10
-111.6693639112
 20
-29.0144733362
 10
-111.6920663651
 20
-29.0270200968
 10
-111.7142730656
 20
-29.0404399787
 10
-111.7359447914
 20
-29.0547102691
 10
-111.7570423213
 20
-29.069808255
 10
-111.777526434
 20
-29.0857112234
 10
-111.7973579083
 20
-29.1023964613
 10
-111.8154567082
 20
-29.1188524083
 10
-111.8329241432
 20
-29.1359627953
 10
-111.8497460075
 20
-29.1537045158
 10
-111.8659080955
 20
-29.1720544628
 10
-111.8813962013
 20
-29.1909895296
 10
-111.8961961193
 20
-29.2104866096
 10
-111.9102936437
 20
-29.2305225958
 10
-111.9201106199
 20
-29.2454548683
 10
-111.9294930664
 20
-29.2606620192
 10
-111.9383871842
 20
-29.2761448819
 10
-111.946739174
 20
-29.2919042894
 10
-111.9544952367
 20
-29.3079410752
 10
-111.9616015731
 20
-29.3242560724
 10
-111.968004384
 20
-29.3408501143
  0
LWPOLYLINE
  5
3B2
100
AcDbEntity
  8
CURVE
100
AcDbPolyline
 62
250
  6
CONTINUOUS
 90
22
 70
0
 10
-111.597898799
 20
-30.126163664
 10
-111.6009428959
 20
-30.107944195
 10
-111.6038491291
 20
-30.0897025706
 10
-111.6065942102
 20
-30.0714356261
 10
-111.6091548508
 20
-30.0531401966
 10
-111.6115077623
 20
-30.0348131175
 10
-111.6136296563
 20
-30.016451224
 10
-111.6156386607
 20
-29.9965919368
 10
-111.6173513222
 20
-29.9766946025
 10
-111.6187675445
 20
-29.9567654168
 10
-111.619887231
 20
-29.9368105752
 10
-111.6207102855
 20
-29.9168362733
 10
-111.6212366115
 20
-29.8968487068
 10
-111.6214661126
 20
-29.8768540712
 10
-111.6213986924
 20
-29.8568585621
 10
-111.6210342546
 20
-29.8368683753
 10
-111.6203727026
 20
-29.8168897061
 10
-111.6194139401
 20
-29.7969287504
 10
-111.6181578707
 20
-29.7769917036
 10
-111.616604398
 20
-29.7570847614
 10
-111.6147534256
 20
-29.7372141194
 10
-111.6126048571
 20
-29.7173859732
  0
LINE
  5
3B3
100
AcDbEntity
  8
0
100
AcDbLine
 62
7
  6
CONTINUOUS
 10
-114.5433255518
 20
-43.7712689598
 11
-114.5433255518
 21
43.7712689598
  0
LINE
  5
3B4
100
AcDbEntity
  8
ASSI
100
AcDbLine
 62
7
  6
CONTINUOUS
 10
-114.5433255518
 20
-43.7712689598
 11
-114.5433255518
 21
43.7712689598
  0
LINE
  5
3B5
100
AcDbEntity
  8
0
100
AcDbLine
 62
7
  6
CONTINUOUS
 10
-113.558873094
 20
-44.7906993223
 11
-113.558873094
 21
-43.8199854699
  0
LINE
  5
3B6
100
AcDbEntity
  8
ASSI
100
AcDbLine
 62
7
  6
CONTINUOUS
 10
-113.558873094
 20
-44.7906993223
 11
-113.558873094
 21
-43.8199854699
  0
LINE
  5
3B7
100
AcDbEntity
  8
0
100
AcDbLine
 62
7
  6
CONTINUOUS
 10
-113.558873094
 20
43.8199854699
 11
-113.558873094
 21
44.7906993223
  0
LINE
  5
3B8
100
AcDbEntity
  8
ASSI
100
AcDbLine
 62
7
  6
CONTINUOUS
 10
-113.558873094
 20
43.8199854699
 11
-113.558873094
 21
44.7906993223
  0
LINE
  5
3B9
100
AcDbEntity
  8
0
100
AcDbLine
 62
7
  6
CONTINUOUS
 10
-113.5439347248
 20
-43.8055596544
 11
-113.5439347248
 21
43.8055596544
  0
LINE
  5
3BA
100
AcDbEntity
  8
ASSI
100
AcDbLine
 62
7
  6
CONTINUOUS
 10
-113.5439347248
 20
-43.8055596544
 11
-113.5439347248
 21
43.8055596544
  0
LINE
  5
3BB
100
AcDbEntity
  8
0
100
AcDbLine
 62
250
  6
CONTINUOUS
 10
-107.1433255518
 20
-2.6214065094
 11
-107.3933255518
 21
-2.6214065094
  0
LINE
  5
3BC
100
AcDbEntity
  8
CURVE
100
AcDbLine
 62
250
  6
CONTINUOUS
 10
-112.0236434495
 20
-35.735605
 11
-112.0236434495
 21
-36.257398
  0
LINE
  5
3BD
100
AcDbEntity
  8
CURVE
100
AcDbLine
 62
250
  6
CONTINUOUS
 10
-112.0234945403
 20
-38.506847
 11
-112.0234945403
 21
-37.940019
  0
LINE
  5
3BE
100
AcDbEntity
  8
CURVE
100
AcDbLine
 62
250
  6
CONTINUOUS
 10
-112.0234945403
 20
-36.972473
 11
-112.0234945403
 21
-36.451037
  0
LINE
  5
3BF
100
AcDbEntity
  8
CURVE
100
AcDbLine
 62
250
  6
CONTINUOUS
 10
-112.0234945403
 20
-35.228996
 11
-112.0234945403
 21
-34.707635
  0
LINE
  5
3C0
100
AcDbEntity
  8
CURVE
100
AcDbLine
 62
250
  6
CONTINUOUS
 10
-112.0234945403
 20
-33.66956
 11
-112.0234945403
 21
-33.153297
  0
LINE
  5
3C1
100
AcDbEntity
  8
CURVE
100
AcDbLine
 62
250
  6
CONTINUOUS
 10
-112.0234945403
 20
-32.053532
 11
-112.0234945403
 21
-31.54876
  0
LINE
  5
3C2
100
AcDbEntity
  8
CURVE
100
AcDbLine
 62
250
  6
CONTINUOUS
 10
-110.9120906771
 20
-29.8279642095
 11
-110.9120906771
 21
-30.126163664
  0
LINE
  5
3C3
100
AcDbEntity
  8
CURVE
100
AcDbLine
 62
250
  6
CONTINUOUS
 10
-110.5029437862
 20
-30.1088617972
 11
-110.5029437862
 21
-29.8290889245
  0
LINE
  5
3C4
100
AcDbEntity
  8
CURVE
100
AcDbLine
 62
250
  6
CONTINUOUS
 10
-110.4099300793
 20
-32.070759
 11
-110.4099300793
 21
-31.571179
  0
LINE
  5
3C5
100
AcDbEntity
  8
CURVE
100
AcDbLine
 62
250
  6
CONTINUOUS
 10
-110.0240133127
 20
-31.466899
 11
-110.0240133127
 21
-32.177494
  0
LINE
  5
3C6
100
AcDbEntity
  8
CURVE
100
AcDbLine
 62
250
  6
CONTINUOUS
 10
-109.5252813119
 20
-36.257398
 11
-109.5252813119
 21
-35.735605
  0
LINE
  5
3C7
100
AcDbEntity
  8
CURVE
100
AcDbLine
 62
250
  6
CONTINUOUS
 10
-109.5252813119
 20
-30.781779
 11
-109.5252813119
 21
-31.331727
  0
LINE
  5
3C8
100
AcDbEntity
  8
CURVE
100
AcDbLine
 62
250
  6
CONTINUOUS
 10
-109.5252813119
 20
-32.321477
 11
-109.5252813119
 21
-32.837608
  0
LINE
  5
3C9
100
AcDbEntity
  8
CURVE
100
AcDbLine
 62
250
  6
CONTINUOUS
 10
-109.5252813119
 20
-32.919544
 11
-109.5252813119
 21
-33.429996
  0
LINE
  5
3CA
100
AcDbEntity
  8
CURVE
100
AcDbLine
 62
250
  6
CONTINUOUS
 10
-109.5252813119
 20
-34.157611
 11
-109.5252813119
 21
-34.230793
  0
LINE
  5
3CB
100
AcDbEntity
  8
CURVE
100
AcDbLine
 62
250
  6
CONTINUOUS
 10
-109.5252813119
 20
-34.955522
 11
-109.5252813119
 21
-35.454708
  0
LINE
  5
3CC
100
AcDbEntity
  8
CURVE
100
AcDbLine
 62
250
  6
CONTINUOUS
 10
-109.5252813119
 20
-37.254552
 11
-109.5252813119
 21
-37.714382
  0
LINE
  5
3CD
100
AcDbEntity
  8
CURVE
100
AcDbLine
 62
250
  6
CONTINUOUS
 10
-109.5252812955
 20
-30.6285551388
 11
-109.5252812955
 21
-30.1088617972
  0
LINE
  5
3CE
100
AcDbEntity
  8
CURVE
100
AcDbLine
 62
250
  6
CONTINUOUS
 10
-109.5252812955
 20
-29.3098079785
 11
-109.5252812955
 21
-28.8079038802
  0
LWPOLYLINE
  5
3CF
100
AcDbEntity
  8
CURVE
100
AcDbPolyline
 62
250
  6
CONTINUOUS
 90
48
 70
0
 10
-110.5029437862
 20
-29.8290889245
 10
-110.5028418434
 20
-29.8210548328
 10
-110.5025349031
 20
-29.8130064764
 10
-110.5020212973
 20
-29.804952124
 10
-110.5012993581
 20
-29.7969000444
 10
-110.5003674175
 20
-29.7888585064
 10
-110.4992238076
 20
-29.7808357788
 10
-110.4978668603
 20
-29.7728401303
 10
-110.4962949078
 20
-29.7648798296
 10
-110.494506282
 20
-29.7569631455
 10
-110.492499315
 20
-29.7490983469
 10
-110.4902723389
 20
-29.7412937024
 10
-110.4878236857
 20
-29.7335574809
 10
-110.4851516874
 20
-29.725897951
 10
-110.4822546761
 20
-29.7183233816
 10
-110.4791309838
 20
-29.7108420414
 10
-110.4757789425
 20
-29.7034621992
 10
-110.4721968844
 20
-29.6961921237
 10
-110.4682844951
 20
-29.6888582855
 10
-110.4641360244
 20
-29.6816503098
 10
-110.459759032
 20
-29.6745699327
 10
-110.4551610771
 20
-29.6676188901
 10
-110.4503497194
 20
-29.660798918
 10
-110.4453325182
 20
-29.6541117522
 10
-110.440117033
 20
-29.6475591288
 10
-110.4347108233
 20
-29.6411427837
 10
-110.4291214485
 20
-29.6348644528
 10
-110.4233564682
 20
-29.6287258722
 10
-110.4174234417
 20
-29.6227287778
 10
-110.4113299285
 20
-29.6168749054
 10
-110.4050834882
 20
-29.6111659912
 10
-110.3986916801
 20
-29.605603771
 10
-110.3921620637
 20
-29.6001899807
 10
-110.3855021985
 20
-29.5949263565
 10
-110.378719644
 20
-29.5898146341
 10
-110.3718219596
 20
-29.5848565495
 10
-110.3648167047
 20
-29.5800538388
 10
-110.3577114389
 20
-29.5754082378
 10
-110.3505137216
 20
-29.5709214826
 10
-110.3432311123
 20
-29.566595309
 10
-110.3358711704
 20
-29.562431453
 10
-110.3284414554
 20
-29.5584316506
 10
-110.3209495268
 20
-29.5545976378
 10
-110.3134029439
 20
-29.5509311504
 10
-110.3058092664
 20
-29.5474339245
 10
-110.2981760536
 20
-29.544107696
 10
-110.290510865
 20
-29.5409542008
 10
-110.2828212601
 20
-29.5379751749
  0
LINE
  5
3D0
100
AcDbEntity
  8
0
100
AcDbLine
 62
7
  6
CONTINUOUS
 10
-107.9933255518
 20
-45.0
 11
-107.9933255518
 21
45.0
  0
LINE
  5
3D1
100
AcDbEntity
  8
ASSI
100
AcDbLine
 62
7
  6
CONTINUOUS
 10
-107.9933255518
 20
-45.0
 11
-107.9933255518
 21
45.0
  0
LINE
  5
3D2
100
AcDbEntity
  8
0
100
AcDbLine
 62
7
  6
CONTINUOUS
 10
-107.3933255518
 20
-42.8
 11
-107.3933255518
 21
42.8
  0
LINE
  5
3D3
100
AcDbEntity
  8
0
100
AcDbLine
 62
7
  6
CONTINUOUS
 10
-107.1433255518
 20
2.6214065094
 11
-107.1433255518
 21
-2.6214065094
  0
LINE
  5
3D4
100
AcDbEntity
  8
0
100
AcDbLine
 62
250
  6
CONTINUOUS
 10
-106.4674884094
 20
-27.1501294387
 11
-106.467552968
 21
-26.9276792439
  0
LINE
  5
3D5
100
AcDbEntity
  8
0
100
AcDbLine
 62
250
  6
CONTINUOUS
 10
-106.467552968
 20
26.9276792439
 11
-106.4674884129
 21
27.1489857392
  0
LWPOLYLINE
  5
3D6
100
AcDbEntity
  8
0
100
AcDbPolyline
 62
7
  6
CONTINUOUS
 90
7
 70
0
 10
-104.3933255518
 20
26.0463167932
 10
-104.3941380711
 20
26.0371202257
 10
-104.3965525947
 20
26.0269519468
 10
-104.4005253132
 20
26.0158119565
 10
-104.4060007254
 20
26.0037002549
 10
-104.412912512
 20
25.9906168419
 10
-104.4211844668
 20
25.9765617175
  0
LWPOLYLINE
  5
3D7
100
AcDbEntity
  8
CURVE
100
AcDbPolyline
 62
250
  6
CONTINUOUS
 90
49
 70
0
 10
-111.6126048571
 20
-29.7173859732
 10
-111.6113662822
 20
-29.7078227954
 10
-111.6098693638
 20
-29.6982589655
 10
-111.6081148284
 20
-29.6887050169
 10
-111.6061034021
 20
-29.6791714829
 10
-111.6038358112
 20
-29.6696688966
 10
-111.6013127821
 20
-29.6602077914
 10
-111.5985350409
 20
-29.6507987005
 10
-111.5955033139
 20
-29.6414521572
 10
-111.5922183274
 20
-29.6321786947
 10
-111.5886808077
 20
-29.6229888463
 10
-111.5848914809
 20
-29.6138931453
 10
-111.5808510735
 20
-29.6049021249
 10
-111.5765603116
 20
-29.5960263183
 10
-111.5720199215
 20
-29.587276259
 10
-111.5672306295
 20
-29.57866248
 10
-111.5621931619
 20
-29.5701955147
 10
-111.5569082448
 20
-29.5618858963
 10
-111.5513766046
 20
-29.5537441581
 10
-111.5455989676
 20
-29.5457808334
 10
-111.53957606
 20
-29.5380064553
 10
-111.533308608
 20
-29.5304315573
 10
-111.5267973379
 20
-29.5230666725
 10
-111.5200429761
 20
-29.5159223342
 10
-111.5130462487
 20
-29.5090090756
 10
-111.5058493028
 20
-29.5023714982
 10
-111.4984246057
 20
-29.4959759626
 10
-111.4907834477
 20
-29.4898254949
 10
-111.4829371192
 20
-29.4839231213
 10
-111.4748969104
 20
-29.4782718679
 10
-111.4666741118
 20
-29.4728747607
 10
-111.4582800137
 20
-29.467734826
 10
-111.4497259064
 20
-29.4628550899
 10
-111.4410230804
 20
-29.4582385786
 10
-111.4321828259
 20
-29.453888318
 10
-111.4232164334
 20
-29.4498073345
 10
-111.4141351932
 20
-29.4459986541
 10
-111.4049503956
 20
-29.4424653029
 10
-111.395673331
 20
-29.4392103071
 10
-111.3863152897
 20
-29.4362366929
 10
-111.3768875621
 20
-29.4335474862
 10
-111.3674014386
 20
-29.4311457134
 10
-111.3578682096
 20
-29.4290344005
 10
-111.3482991653
 20
-29.4272165737
 10
-111.3387055961
 20
-29.425695259
 10
-111.3290987924
 20
-29.4244734827
 10
-111.3194900445
 20
-29.4235542708
 10
-111.3098906428
 20
-29.4229406495
 10
-111.3003118777
 20
-29.4226356449
  0
LINE
  5
3D8
100
AcDbEntity
  8
0
100
AcDbLine
 62
250
  6
CONTINUOUS
 10
-107.1433255518
 20
2.6214065094
 11
-107.3933255518
 21
2.6214065094
  0
LWPOLYLINE
  5
3D9
100
AcDbEntity
  8
0
100
AcDbPolyline
 62
250
  6
CONTINUOUS
 90
3
 70
0
 10
-104.9431772991
 20
26.3370052859
 10
-104.9432199532
 20
26.3404218694
 10
-104.9432763196
 20
26.3415638603
  0
LINE
  5
3DA
100
AcDbEntity
  8
0
100
AcDbLine
 62
250
  6
CONTINUOUS
 10
-104.9431343206
 20
26.3234690471
 11
-104.9431772991
 21
26.3370052859
  0
LINE
  5
3DB
100
AcDbEntity
  8
0
100
AcDbLine
 62
250
  6
CONTINUOUS
 10
-104.9431343206
 20
-26.3234690471
 11
-104.9432763196
 21
-26.2536973817
  0
LINE
  5
3DC
100
AcDbEntity
  8
0
100
AcDbLine
 62
250
  6
CONTINUOUS
 10
-104.6776247649
 20
25.3715700787
 11
-104.6776247649
 21
25.3498801651
  0
LINE
  5
3DD
100
AcDbEntity
  8
0
100
AcDbLine
 62
250
  6
CONTINUOUS
 10
-104.6776247649
 20
-25.3498801651
 11
-104.6776247649
 21
-25.3715700787
  0
LINE
  5
3DE
100
AcDbEntity
  8
0
100
AcDbLine
 62
250
  6
CONTINUOUS
 10
-104.5828583605
 20
25.8799866677
 11
-104.5828583605
 21
25.3810467191
  0
LINE
  5
3DF
100
AcDbEntity
  8
0
100
AcDbLine
 62
250
  6
CONTINUOUS
 10
-104.5828583605
 20
-25.3810467191
 11
-104.5828583605
 21
-25.8799866677
  0
LINE
  5
3E0
100
AcDbEntity
  8
0
100
AcDbLine
 62
7
  6
CONTINUOUS
 10
-104.3933255518
 20
26.1523612067
 11
-104.3933255518
 21
25.3523612067
  0
LINE
  5
3E1
100
AcDbEntity
  8
0
100
AcDbLine
 62
7
  6
CONTINUOUS
 10
-104.3933255518
 20
-25.3523612067
 11
-104.3933255518
 21
-26.1523612067
  0
LINE
  5
3E2
100
AcDbEntity
  8
0
100
AcDbLine
 62
250
  6
CONTINUOUS
 10
-104.9432763196
 20
26.2536973817
 11
-104.9431343206
 21
26.3234690471
  0
LWPOLYLINE
  5
3E3
100
AcDbEntity
  8
0
100
AcDbPolyline
 62
250
  6
CONTINUOUS
 90
4
 70
0
 10
-104.9432763196
 20
-26.3415638603
 10
-104.9432199532
 20
-26.3404218694
 10
-104.9431772991
 20
-26.3370052859
 10
-104.9431343206
 20
-26.3234690471
  0
LWPOLYLINE
  5
3E4
100
AcDbEntity
  8
CURVE
100
AcDbPolyline
 62
250
  6
CONTINUOUS
 90
32
 70
0
 10
-111.968004384
 20
-29.3408501143
 10
-111.97839345
 20
-29.3710546827
 10
-111.9878892579
 20
-29.4015492389
 10
-111.9965351398
 20
-29.4323081711
 10
-112.0043744273
 20
-29.4633058676
 10
-112.0114504526
 20
-29.4945167169
 10
-112.0178065473
 20
-29.5259151072
 10
-112.0234860435
 20
-29.5574754269
 10
-112.0285322731
 20
-29.5891720642
 10
-112.0329885678
 20
-29.6209794075
 10
-112.0368982596
 20
-29.6528718452
 10
-112.0403046804
 20
-29.6848237655
 10
-112.043251162
 20
-29.7168095567
 10
-112.0468936125
 20
-29.7649371944
 10
-112.0496314088
 20
-29.8130783618
 10
-112.0515022648
 20
-29.861227906
 10
-112.0525438947
 20
-29.9093806743
 10
-112.0527940123
 20
-29.9575315137
 10
-112.0522903315
 20
-30.0056752715
 10
-112.0510705664
 20
-30.0538067947
 10
-112.0491724308
 20
-30.1019209305
 10
-112.0466336388
 20
-30.1500125261
 10
-112.0434919043
 20
-30.1980764285
 10
-112.0397849413
 20
-30.246107485
 10
-112.0355504636
 20
-30.2941005426
 10
-112.0308261854
 20
-30.3420504485
 10
-112.0256498204
 20
-30.3899520499
 10
-112.0200590828
 20
-30.4378001939
 10
-112.0140916864
 20
-30.4855897277
 10
-112.0077853452
 20
-30.5333154983
 10
-112.0011777731
 20
-30.580972353
 10
-111.9943066842
 20
-30.6285551388
  0
LWPOLYLINE
  5
3E5
100
AcDbEntity
  8
0
100
AcDbPolyline
 62
7
  6
CONTINUOUS
 90
10
 70
0
 43
0.3500000006
 10
-120.942572937
 20
56.2499987183
 10
-120.8711508179
 20
56.1071454163
 10
-120.8711508179
 20
56.0357142334
 10
-121.0140041199
 20
55.8928609314
 10
-121.0854353027
 20
55.8928609314
 10
-121.1568574219
 20
55.9642830505
 10
-121.1568574219
 20
56.0357142334
 10
-121.0854353027
 20
56.1785675354
 10
-121.0140041199
 20
56.2499987183
 10
-120.942572937
 20
56.2499987183
  0
LWPOLYLINE
  5
3E6
100
AcDbEntity
  8
0
100
AcDbPolyline
 62
7
  6
CONTINUOUS
 90
10
 70
0
 43
0.3500000006
 10
-121.7183549194
 20
64.2500011597
 10
-121.6469237366
 20
64.1071387939
 10
-121.6469237366
 20
64.0357166748
 10
-121.7897861023
 20
63.8928543091
 10
-121.8612082214
 20
63.8928543091
 10
-121.9326394043
 20
63.9642854919
 10
-121.9326394043
 20
64.0357166748
 10
-121.8612082214
 20
64.1785699768
 10
-121.7897861023
 20
64.2500011597
 10
-121.7183549194
 20
64.2500011597
  0
LINE
  5
3E7
100
AcDbEntity
  8
CURVE
100
AcDbLine
 62
7
  6
CONTINUOUS
 10
-112.0151675665
 20
-29.5143020106
 11
-111.4428673622
 21
-28.9420018063
  0
LINE
  5
3E8
100
AcDbEntity
  8
CURVE
100
AcDbLine
 62
7
  6
CONTINUOUS
 10
-112.0453476886
 20
-29.7544928467
 11
-111.2298433203
 21
-28.9389884784
  0
LINE
  5
3E9
100
AcDbEntity
  8
CURVE
100
AcDbLine
 62
7
  6
CONTINUOUS
 10
-112.051885324
 20
-29.9710411961
 11
-111.0597946157
 21
-28.9789504878
  0
LINE
  5
3EA
100
AcDbEntity
  8
0
100
AcDbLine
 62
7
  6
CONTINUOUS
 10
-107.0933255518
 20
-25.2
 11
-106.9433255518
 21
-25.05
  0
LINE
  5
3EB
100
AcDbEntity
  8
CURVE
100
AcDbLine
 62
7
  6
CONTINUOUS
 10
-112.0451162155
 20
-30.1742828016
 11
-111.6151100568
 21
-29.7442766429
  0
LINE
  5
3EC
100
AcDbEntity
  8
CURVE
100
AcDbLine
 62
7
  6
CONTINUOUS
 10
-111.2936206749
 20
-29.422787261
 11
-110.9195040102
 21
-29.0486705963
  0
LINE
  5
3ED
100
AcDbEntity
  8
CURVE
100
AcDbLine
 62
7
  6
CONTINUOUS
 10
-112.0277752233
 20
-30.3669525234
 11
-111.6186740637
 21
-29.9578513638
  0
LINE
  5
3EE
100
AcDbEntity
  8
CURVE
100
AcDbLine
 62
7
  6
CONTINUOUS
 10
-111.1190924478
 20
-29.458269748
 11
-110.8060732651
 21
-29.1452505652
  0
LINE
  5
3EF
100
AcDbEntity
  8
CURVE
100
AcDbLine
 62
7
  6
CONTINUOUS
 10
-112.0046112685
 20
-30.5537992826
 11
-111.5769756499
 21
-30.126163664
  0
LINE
  5
3F0
100
AcDbEntity
  8
CURVE
100
AcDbLine
 62
7
  6
CONTINUOUS
 10
-110.9966282405
 20
-29.5458162547
 11
-110.7134347395
 21
-29.2626227537
  0
LINE
  5
3F1
100
AcDbEntity
  8
CURVE
100
AcDbLine
 62
7
  6
CONTINUOUS
 10
-111.8693564107
 20
-30.6285551388
 11
-111.3669649359
 21
-30.126163664
  0
LINE
  5
3F2
100
AcDbEntity
  8
CURVE
100
AcDbLine
 62
7
  6
CONTINUOUS
 10
-110.9291956967
 20
-29.6883944248
 11
-110.2366058651
 21
-28.9958045932
  0
LINE
  5
3F3
100
AcDbEntity
  8
CURVE
100
AcDbLine
 62
7
  6
CONTINUOUS
 10
-111.6593456967
 20
-30.6285551388
 11
-111.1569542218
 21
-30.126163664
  0
LINE
  5
3F4
100
AcDbEntity
  8
CURVE
100
AcDbLine
 62
7
  6
CONTINUOUS
 10
-110.9120906771
 20
-29.8813001192
 11
-109.9501882031
 21
-28.9193976453
  0
LINE
  5
3F5
100
AcDbEntity
  8
CURVE
100
AcDbLine
 62
7
  6
CONTINUOUS
 10
-111.4493349826
 20
-30.6285551388
 11
-110.9469435078
 21
-30.126163664
  0
LINE
  5
3F6
100
AcDbEntity
  8
CURVE
100
AcDbLine
 62
7
  6
CONTINUOUS
 10
-110.9120906771
 20
-30.0913108332
 11
-109.6659876491
 21
-28.8452078053
  0
LINE
  5
3F7
100
AcDbEntity
  8
CURVE
100
AcDbLine
 62
7
  6
CONTINUOUS
 10
-111.2393242686
 20
-30.6285551388
 11
-110.5029437862
 21
-29.8921746563
  0
LINE
  5
3F8
100
AcDbEntity
  8
CURVE
100
AcDbLine
 62
7
  6
CONTINUOUS
 10
-110.0820730182
 20
-29.4713038884
 11
-109.5252812955
 21
-28.9145121656
  0
LINE
  5
3F9
100
AcDbEntity
  8
CURVE
100
AcDbLine
 62
7
  6
CONTINUOUS
 10
-112.0234945403
 20
-31.6227361245
 11
-111.9167450645
 21
-31.5159866487
  0
LINE
  5
3FA
100
AcDbEntity
  8
CURVE
100
AcDbLine
 62
7
  6
CONTINUOUS
 10
-111.0293135546
 20
-30.6285551388
 11
-110.5029437862
 21
-30.1021853703
  0
LINE
  5
3FB
100
AcDbEntity
  8
CURVE
100
AcDbLine
 62
7
  6
CONTINUOUS
 10
-109.7868446498
 20
-29.386086234
 11
-109.5252812955
 21
-29.1245228797
  0
LINE
  5
3FC
100
AcDbEntity
  8
CURVE
100
AcDbLine
 62
7
  6
CONTINUOUS
 10
-112.0234945403
 20
-31.8327468385
 11
-111.6136941305
 21
-31.4229464287
  0
LINE
  5
3FD
100
AcDbEntity
  8
CURVE
100
AcDbLine
 62
7
  6
CONTINUOUS
 10
-110.8193028406
 20
-30.6285551388
 11
-110.299609499
 21
-30.1088617972
  0
LINE
  5
3FE
100
AcDbEntity
  8
CURVE
100
AcDbLine
 62
7
  6
CONTINUOUS
 10
-112.0234945403
 20
-32.0427575525
 11
-111.3106431965
 21
-31.3299062087
  0
LINE
  5
3FF
100
AcDbEntity
  8
CURVE
100
AcDbLine
 62
7
  6
CONTINUOUS
 10
-110.6092921266
 20
-30.6285551388
 11
-110.089598785
 21
-30.1088617972
  0
LINE
  5
400
100
AcDbEntity
  8
CURVE
100
AcDbLine
 62
7
  6
CONTINUOUS
 10
-111.871852
 20
-32.1011257262
 11
-111.0075922624
 21
-31.2368659887
  0
LINE
  5
401
100
AcDbEntity
  8
CURVE
100
AcDbLine
 62
7
  6
CONTINUOUS
 10
-110.3992814126
 20
-30.6285551388
 11
-109.879588071
 21
-30.1088617972
  0
LINE
  5
402
100
AcDbEntity
  8
CURVE
100
AcDbLine
 62
7
  6
CONTINUOUS
 10
-111.7120088212
 20
-32.1512932615
 11
-110.7045413284
 21
-31.1438257686
  0
LINE
  5
403
100
AcDbEntity
  8
CURVE
100
AcDbLine
 62
7
  6
CONTINUOUS
 10
-110.1892706986
 20
-30.6285551388
 11
-109.669577357
 21
-30.1088617972
  0
LINE
  5
404
100
AcDbEntity
  8
CURVE
100
AcDbLine
 62
7
  6
CONTINUOUS
 10
-111.5521656425
 20
-32.2014607967
 11
-111.2000472115
 21
-31.8493423657
  0
LINE
  5
405
100
AcDbEntity
  8
CURVE
100
AcDbLine
 62
7
  6
CONTINUOUS
 10
-111.1004712396
 20
-31.7497663938
 11
-110.4014903943
 21
-31.0507855486
  0
LINE
  5
406
100
AcDbEntity
  8
CURVE
100
AcDbLine
 62
7
  6
CONTINUOUS
 10
-109.9792599846
 20
-30.6285551388
 11
-109.5252812955
 21
-30.1745764497
  0
LINE
  5
407
100
AcDbEntity
  8
CURVE
100
AcDbLine
 62
7
  6
CONTINUOUS
 10
-111.3923224637
 20
-32.251628332
 11
-111.0360061596
 21
-31.8953120278
  0
LINE
  5
408
100
AcDbEntity
  8
CURVE
100
AcDbLine
 62
7
  6
CONTINUOUS
 10
-110.8172014374
 20
-31.6765073057
 11
-110.0984394603
 21
-30.9577453286
  0
LINE
  5
409
100
AcDbEntity
  8
CURVE
100
AcDbLine
 62
7
  6
CONTINUOUS
 10
-109.7692492705
 20
-30.6285551388
 11
-109.5252812955
 21
-30.3845871637
  0
LINE
  5
40A
100
AcDbEntity
  8
0
100
AcDbLine
 62
7
  6
CONTINUOUS
 10
-107.0933255518
 20
25.2
 11
-106.9433255518
 21
25.05
  0
LINE
  5
40B
100
AcDbEntity
  8
CURVE
100
AcDbLine
 62
7
  6
CONTINUOUS
 10
-111.232479285
 20
-32.3017958673
 11
-110.8719651077
 21
-31.9412816899
  0
LINE
  5
40C
100
AcDbEntity
  8
CURVE
100
AcDbLine
 62
7
  6
CONTINUOUS
 10
-110.5339316353
 20
-31.6032482176
 11
-109.7953885263
 21
-30.8647051085
  0
LINE
  5
40D
100
AcDbEntity
  8
CURVE
100
AcDbLine
 62
7
  6
CONTINUOUS
 10
-109.5592385565
 20
-30.6285551388
 11
-109.5252812955
 21
-30.5945978777
  0
LINE
  5
40E
100
AcDbEntity
  8
CURVE
100
AcDbLine
 62
7
  6
CONTINUOUS
 10
-112.0234945403
 20
-33.3028218366
 11
-111.8585347322
 21
-33.1378620285
  0
LINE
  5
40F
100
AcDbEntity
  8
CURVE
100
AcDbLine
 62
7
  6
CONTINUOUS
 10
-111.0726361062
 20
-32.3519634025
 11
-110.7079240558
 21
-31.9872513521
  0
LINE
  5
410
100
AcDbEntity
  8
CURVE
100
AcDbLine
 62
7
  6
CONTINUOUS
 10
-110.4099300793
 20
-31.6892573756
 11
-109.5252813119
 21
-30.8046086082
  0
LINE
  5
411
100
AcDbEntity
  8
CURVE
100
AcDbLine
 62
7
  6
CONTINUOUS
 10
-112.0234945403
 20
-33.5128325506
 11
-111.6268452826
 21
-33.1161832929
  0
LINE
  5
412
100
AcDbEntity
  8
CURVE
100
AcDbLine
 62
7
  6
CONTINUOUS
 10
-110.9127929275
 20
-32.4021309378
 11
-110.5438830039
 21
-32.0332210142
  0
LINE
  5
413
100
AcDbEntity
  8
CURVE
100
AcDbLine
 62
7
  6
CONTINUOUS
 10
-110.4099300793
 20
-31.8992680896
 11
-110.0240133127
 21
-31.513351323
  0
LINE
  5
414
100
AcDbEntity
  8
CURVE
100
AcDbLine
 62
7
  6
CONTINUOUS
 10
-109.960289966
 20
-31.4496279763
 11
-109.5252813119
 21
-31.0146193222
  0
LINE
  5
415
100
AcDbEntity
  8
CURVE
100
AcDbLine
 62
7
  6
CONTINUOUS
 10
-111.9847768194
 20
-33.6841255438
 11
-111.3951558331
 21
-33.0945045574
  0
LINE
  5
416
100
AcDbEntity
  8
CURVE
100
AcDbLine
 62
7
  6
CONTINUOUS
 10
-110.7529497487
 20
-32.452298473
 11
-110.0240133127
 21
-31.723362037
  0
LINE
  5
417
100
AcDbEntity
  8
CURVE
100
AcDbLine
 62
7
  6
CONTINUOUS
 10
-109.6721970422
 20
-31.3715457665
 11
-109.5252813119
 21
-31.2246300363
  0
LINE
  5
418
100
AcDbEntity
  8
CURVE
100
AcDbLine
 62
7
  6
CONTINUOUS
 10
-111.8321747546
 20
-33.7415341929
 11
-111.1634663835
 21
-33.0728258219
  0
LINE
  5
419
100
AcDbEntity
  8
CURVE
100
AcDbLine
 62
7
  6
CONTINUOUS
 10
-110.59310657
 20
-32.5024660083
 11
-110.0240133127
 21
-31.933372751
  0
LINE
  5
41A
100
AcDbEntity
  8
CURVE
100
AcDbLine
 62
7
  6
CONTINUOUS
 10
-111.6795726897
 20
-33.7989428421
 11
-110.931776934
 21
-33.0511470863
  0
LINE
  5
41B
100
AcDbEntity
  8
CURVE
100
AcDbLine
 62
7
  6
CONTINUOUS
 10
-110.4332633912
 20
-32.5526335436
 11
-110.0240133127
 21
-32.143383465
  0
LINE
  5
41C
100
AcDbEntity
  8
CURVE
100
AcDbLine
 62
7
  6
CONTINUOUS
 10
-111.5269706249
 20
-33.8563514912
 11
-110.7000874844
 21
-33.0294683508
  0
LINE
  5
41D
100
AcDbEntity
  8
CURVE
100
AcDbLine
 62
7
  6
CONTINUOUS
 10
-110.2734202125
 20
-32.6028010788
 11
-109.8875188352
 21
-32.2168997015
  0
LINE
  5
41E
100
AcDbEntity
  8
CURVE
100
AcDbLine
 62
7
  6
CONTINUOUS
 10
-111.37436856
 20
-33.9137601404
 11
-111.0398044911
 21
-33.5791960715
  0
LINE
  5
41F
100
AcDbEntity
  8
CURVE
100
AcDbLine
 62
7
  6
CONTINUOUS
 10
-110.9870717325
 20
-33.5264633128
 11
-110.4683980349
 21
-33.0077896152
  0
LINE
  5
420
100
AcDbEntity
  8
CURVE
100
AcDbLine
 62
7
  6
CONTINUOUS
 10
-110.1135770337
 20
-32.6529686141
 11
-109.7245553701
 21
-32.2639469505
  0
LINE
  5
421
100
AcDbEntity
  8
CURVE
100
AcDbLine
 62
7
  6
CONTINUOUS
 10
-112.0234945403
 20
-34.7728968347
 11
-111.9195371593
 21
-34.6689394537
  0
LINE
  5
422
100
AcDbEntity
  8
CURVE
100
AcDbLine
 62
7
  6
CONTINUOUS
 10
-111.2217664951
 20
-33.9711687895
 11
-110.887833397
 21
-33.6372356913
  0
LINE
  5
423
100
AcDbEntity
  8
CURVE
100
AcDbLine
 62
7
  6
CONTINUOUS
 10
-110.7622226486
 20
-33.511624943
 11
-110.2367085853
 21
-32.9861108797
  0
LINE
  5
424
100
AcDbEntity
  8
CURVE
100
AcDbLine
 62
7
  6
CONTINUOUS
 10
-109.953733855
 20
-32.7031361494
 11
-109.561591905
 21
-32.3109941994
  0
LINE
  5
425
100
AcDbEntity
  8
CURVE
100
AcDbLine
 62
7
  6
CONTINUOUS
 10
-112.0234945403
 20
-34.9829075487
 11
-111.5850052859
 21
-34.5444182943
  0
LINE
  5
426
100
AcDbEntity
  8
CURVE
100
AcDbLine
 62
7
  6
CONTINUOUS
 10
-111.0691644303
 20
-34.0285774387
 11
-110.7358623028
 21
-33.6952753112
  0
LINE
  5
427
100
AcDbEntity
  8
CURVE
100
AcDbLine
 62
7
  6
CONTINUOUS
 10
-110.5373735647
 20
-33.4967865731
 11
-110.0050191358
 21
-32.9644321442
  0
LINE
  5
428
100
AcDbEntity
  8
CURVE
100
AcDbLine
 62
7
  6
CONTINUOUS
 10
-109.7938906762
 20
-32.7533036846
 11
-109.5252813119
 21
-32.4846943203
  0
LINE
  5
429
100
AcDbEntity
  8
CURVE
100
AcDbLine
 62
7
  6
CONTINUOUS
 10
-112.0234945403
 20
-35.1929182627
 11
-111.2504734126
 21
-34.419897135
  0
LINE
  5
42A
100
AcDbEntity
  8
CURVE
100
AcDbLine
 62
7
  6
CONTINUOUS
 10
-110.9165623654
 20
-34.0859860878
 11
-110.5838912086
 21
-33.753314931
  0
LINE
  5
42B
100
AcDbEntity
  8
CURVE
100
AcDbLine
 62
7
  6
CONTINUOUS
 10
-110.3125244809
 20
-33.4819482033
 11
-109.7733296862
 21
-32.9427534086
  0
LINE
  5
42C
100
AcDbEntity
  8
CURVE
100
AcDbLine
 62
7
  6
CONTINUOUS
 10
-109.6340474975
 20
-32.8034712199
 11
-109.5252813119
 21
-32.6947050343
  0
LINE
  5
42D
100
AcDbEntity
  8
CURVE
100
AcDbLine
 62
7
  6
CONTINUOUS
 10
-111.8639741325
 20
-35.2434085689
 11
-110.9159415392
 21
-34.2953759756
  0
LINE
  5
42E
100
AcDbEntity
  8
CURVE
100
AcDbLine
 62
7
  6
CONTINUOUS
 10
-110.7639603006
 20
-34.143394737
 11
-110.4319201145
 21
-33.8113545509
  0
LINE
  5
42F
100
AcDbEntity
  8
CURVE
100
AcDbLine
 62
7
  6
CONTINUOUS
 10
-110.087675397
 20
-33.4671098334
 11
-109.5416402367
 21
-32.9210746731
  0
LINE
  5
430
100
AcDbEntity
  8
CURVE
100
AcDbLine
 62
7
  6
CONTINUOUS
 10
-111.6713654888
 20
-35.2608106392
 11
-110.2799490203
 21
-33.8693941707
  0
LINE
  5
431
100
AcDbEntity
  8
CURVE
100
AcDbLine
 62
7
  6
CONTINUOUS
 10
-109.8628263131
 20
-33.4522714635
 11
-109.5252813119
 21
-33.1147264624
  0
LINE
  5
432
100
AcDbEntity
  8
CURVE
100
AcDbLine
 62
7
  6
CONTINUOUS
 10
-112.0236434495
 20
-35.823099314
 11
-111.9361491356
 21
-35.735605
  0
LINE
  5
433
100
AcDbEntity
  8
CURVE
100
AcDbLine
 62
7
  6
CONTINUOUS
 10
-111.478756845
 20
-35.2782127095
 11
-111.0507662573
 21
-34.8502221217
  0
LINE
  5
434
100
AcDbEntity
  8
CURVE
100
AcDbLine
 62
7
  6
CONTINUOUS
 10
-110.9755308957
 20
-34.7749867601
 11
-110.1279779261
 21
-33.9274337906
  0
LINE
  5
435
100
AcDbEntity
  8
CURVE
100
AcDbLine
 62
7
  6
CONTINUOUS
 10
-109.6379772292
 20
-33.4374330937
 11
-109.5252813119
 21
-33.3247371764
  0
LINE
  5
436
100
AcDbEntity
  8
CURVE
100
AcDbLine
 62
7
  6
CONTINUOUS
 10
-112.0236434495
 20
-36.033110028
 11
-111.7261384215
 21
-35.735605
  0
LINE
  5
437
100
AcDbEntity
  8
CURVE
100
AcDbLine
 62
7
  6
CONTINUOUS
 10
-111.2861482013
 20
-35.2956147798
 11
-110.8543159483
 21
-34.8637825267
  0
LINE
  5
438
100
AcDbEntity
  8
CURVE
100
AcDbLine
 62
7
  6
CONTINUOUS
 10
-110.6393838917
 20
-34.6488504701
 11
-109.976006832
 21
-33.9854734104
  0
LINE
  5
439
100
AcDbEntity
  8
CURVE
100
AcDbLine
 62
7
  6
CONTINUOUS
 10
-112.0236434495
 20
-36.243120742
 11
-111.5161277075
 21
-35.735605
  0
LINE
  5
43A
100
AcDbEntity
  8
CURVE
100
AcDbLine
 62
7
  6
CONTINUOUS
 10
-111.0935395576
 20
-35.3130168501
 11
-110.6578656392
 21
-34.8773429317
  0
LINE
  5
43B
100
AcDbEntity
  8
CURVE
100
AcDbLine
 62
7
  6
CONTINUOUS
 10
-110.3032368877
 20
-34.5227141801
 11
-109.8240357378
 21
-34.0435130303
  0
LINE
  5
43C
100
AcDbEntity
  8
CURVE
100
AcDbLine
 62
7
  6
CONTINUOUS
 10
-112.0234945403
 20
-36.4529825468
 11
-112.0220224656
 21
-36.451510472
  0
LINE
  5
43D
100
AcDbEntity
  8
CURVE
100
AcDbLine
 62
7
  6
CONTINUOUS
 10
-111.8279099935
 20
-36.257398
 11
-111.3061169935
 21
-35.735605
  0
LINE
  5
43E
100
AcDbEntity
  8
CURVE
100
AcDbLine
 62
7
  6
CONTINUOUS
 10
-110.9009309139
 20
-35.3304189203
 11
-110.4614153302
 21
-34.8909033366
  0
LINE
  5
43F
100
AcDbEntity
  8
CURVE
100
AcDbLine
 62
7
  6
CONTINUOUS
 10
-109.9670898837
 20
-34.3965778901
 11
-109.6720646436
 21
-34.1015526501
  0
LINE
  5
440
100
AcDbEntity
  8
CURVE
100
AcDbLine
 62
7
  6
CONTINUOUS
 10
-112.0234945403
 20
-36.6629932608
 11
-111.8631203672
 21
-36.5026190877
  0
LINE
  5
441
100
AcDbEntity
  8
CURVE
100
AcDbLine
 62
7
  6
CONTINUOUS
 10
-111.6178992795
 20
-36.257398
 11
-111.0961062795
 21
-35.735605
  0
LINE
  5
442
100
AcDbEntity
  8
CURVE
100
AcDbLine
 62
7
  6
CONTINUOUS
 10
-110.7083222701
 20
-35.3478209906
 11
-110.2649650211
 21
-34.9044637416
  0
LINE
  5
443
100
AcDbEntity
  8
CURVE
100
AcDbLine
 62
7
  6
CONTINUOUS
 10
-109.6309428796
 20
-34.2704416001
 11
-109.5252813119
 21
-34.1647800324
  0
LINE
  5
444
100
AcDbEntity
  8
CURVE
100
AcDbLine
 62
7
  6
CONTINUOUS
 10
-112.0234945403
 20
-36.8730039748
 11
-111.7042182688
 21
-36.5537277033
  0
LINE
  5
445
100
AcDbEntity
  8
CURVE
100
AcDbLine
 62
7
  6
CONTINUOUS
 10
-111.4078885655
 20
-36.257398
 11
-110.8860955655
 21
-35.735605
  0
LINE
  5
446
100
AcDbEntity
  8
CURVE
100
AcDbLine
 62
7
  6
CONTINUOUS
 10
-110.5157136264
 20
-35.3652230609
 11
-110.0685147121
 21
-34.9180241466
  0
LINE
  5
447
100
AcDbEntity
  8
CURVE
100
AcDbLine
 62
7
  6
CONTINUOUS
 10
-111.9375074556
 20
-36.9970276041
 11
-111.5453161704
 21
-36.6048363189
  0
LINE
  5
448
100
AcDbEntity
  8
CURVE
100
AcDbLine
 62
7
  6
CONTINUOUS
 10
-111.1978778515
 20
-36.257398
 11
-110.6760848515
 21
-35.735605
  0
LINE
  5
449
100
AcDbEntity
  8
CURVE
100
AcDbLine
 62
7
  6
CONTINUOUS
 10
-110.3231049827
 20
-35.3826251312
 11
-109.872064403
 21
-34.9315845515
  0
LINE
  5
44A
100
AcDbEntity
  8
CURVE
100
AcDbLine
 62
7
  6
CONTINUOUS
 10
-111.7741463812
 20
-37.0436772437
 11
-111.386414072
 21
-36.6559449345
  0
LINE
  5
44B
100
AcDbEntity
  8
CURVE
100
AcDbLine
 62
7
  6
CONTINUOUS
 10
-110.9878671375
 20
-36.257398
 11
-110.4660741375
 21
-35.735605
  0
LINE
  5
44C
100
AcDbEntity
  8
CURVE
100
AcDbLine
 62
7
  6
CONTINUOUS
 10
-110.130496339
 20
-35.4000272015
 11
-109.675614094
 21
-34.9451449565
  0
LINE
  5
44D
100
AcDbEntity
  8
CURVE
100
AcDbLine
 62
7
  6
CONTINUOUS
 10
-111.6107853068
 20
-37.0903268833
 11
-111.2275119736
 21
-36.7070535501
  0
LINE
  5
44E
100
AcDbEntity
  8
CURVE
100
AcDbLine
 62
7
  6
CONTINUOUS
 10
-110.7778564235
 20
-36.257398
 11
-110.2560634235
 21
-35.735605
  0
LINE
  5
44F
100
AcDbEntity
  8
CURVE
100
AcDbLine
 62
7
  6
CONTINUOUS
 10
-109.9378876952
 20
-35.4174292718
 11
-109.5252813119
 21
-35.0048228885
  0
LINE
  5
450
100
AcDbEntity
  8
CURVE
100
AcDbLine
 62
7
  6
CONTINUOUS
 10
-111.4474242323
 20
-37.1369765229
 11
-111.0686098752
 21
-36.7581621657
  0
LINE
  5
451
100
AcDbEntity
  8
CURVE
100
AcDbLine
 62
7
  6
CONTINUOUS
 10
-110.5678457094
 20
-36.257398
 11
-110.0460527094
 21
-35.735605
  0
LINE
  5
452
100
AcDbEntity
  8
CURVE
100
AcDbLine
 62
7
  6
CONTINUOUS
 10
-109.7452790515
 20
-35.4348313421
 11
-109.5252813119
 21
-35.2148336025
  0
LINE
  5
453
100
AcDbEntity
  8
CURVE
100
AcDbLine
 62
7
  6
CONTINUOUS
 10
-111.2840631579
 20
-37.1836261625
 11
-110.9097077767
 21
-36.8092707813
  0
LINE
  5
454
100
AcDbEntity
  8
CURVE
100
AcDbLine
 62
7
  6
CONTINUOUS
 10
-110.3578349954
 20
-36.257398
 11
-109.8360419954
 21
-35.735605
  0
LINE
  5
455
100
AcDbEntity
  8
CURVE
100
AcDbLine
 62
7
  6
CONTINUOUS
 10
-109.5526704078
 20
-35.4522334124
 11
-109.5252813119
 21
-35.4248443165
  0
LINE
  5
456
100
AcDbEntity
  8
CURVE
100
AcDbLine
 62
7
  6
CONTINUOUS
 10
-112.0234945403
 20
-38.1330682589
 11
-111.7564473752
 21
-37.8660210937
  0
LINE
  5
457
100
AcDbEntity
  8
CURVE
100
AcDbLine
 62
7
  6
CONTINUOUS
 10
-111.1207020835
 20
-37.2302758021
 11
-110.7508056783
 21
-36.8603793969
  0
LINE
  5
458
100
AcDbEntity
  8
CURVE
100
AcDbLine
 62
7
  6
CONTINUOUS
 10
-110.1478242814
 20
-36.257398
 11
-109.6260312814
 21
-35.735605
  0
LINE
  5
459
100
AcDbEntity
  8
CURVE
100
AcDbLine
 62
7
  6
CONTINUOUS
 10
-112.0234945403
 20
-38.3430789729
 11
-111.4659372424
 21
-37.785521675
  0
LINE
  5
45A
100
AcDbEntity
  8
CURVE
100
AcDbLine
 62
7
  6
CONTINUOUS
 10
-110.9573410091
 20
-37.2769254416
 11
-110.5919035799
 21
-36.9114880125
  0
LINE
  5
45B
100
AcDbEntity
  8
CURVE
100
AcDbLine
 62
7
  6
CONTINUOUS
 10
-109.9378135674
 20
-36.257398
 11
-109.5252813119
 21
-35.8448657445
  0
LINE
  5
45C
100
AcDbEntity
  8
CURVE
100
AcDbLine
 62
7
  6
CONTINUOUS
 10
-111.9557681958
 20
-38.4853633424
 11
-111.1754271096
 21
-37.7050222562
  0
LINE
  5
45D
100
AcDbEntity
  8
CURVE
100
AcDbLine
 62
7
  6
CONTINUOUS
 10
-110.7939799346
 20
-37.3235750812
 11
-110.4330014815
 21
-36.9625966281
  0
LINE
  5
45E
100
AcDbEntity
  8
CURVE
100
AcDbLine
 62
7
  6
CONTINUOUS
 10
-109.7278028534
 20
-36.257398
 11
-109.5252813119
 21
-36.0548764585
  0
LINE
  5
45F
100
AcDbEntity
  8
CURVE
100
AcDbLine
 62
7
  6
CONTINUOUS
 10
-111.6481896592
 20
-38.3877955198
 11
-110.8849169769
 21
-37.6245228375
  0
LINE
  5
460
100
AcDbEntity
  8
CURVE
100
AcDbLine
 62
7
  6
CONTINUOUS
 10
-110.6306188602
 20
-37.3702247208
 11
-110.2740993831
 21
-37.0137052437
  0
LINE
  5
461
100
AcDbEntity
  8
CURVE
100
AcDbLine
 62
7
  6
CONTINUOUS
 10
-111.3406111227
 20
-38.2902276973
 11
-110.5944068441
 21
-37.5440234187
  0
LINE
  5
462
100
AcDbEntity
  8
CURVE
100
AcDbLine
 62
7
  6
CONTINUOUS
 10
-110.4672577858
 20
-37.4168743604
 11
-110.1151972847
 21
-37.0648138594
  0
LINE
  5
463
100
AcDbEntity
  8
CURVE
100
AcDbLine
 62
7
  6
CONTINUOUS
 10
-111.0330325861
 20
-38.1926598747
 11
-109.9562951863
 21
-37.115922475
  0
LINE
  5
464
100
AcDbEntity
  8
CURVE
100
AcDbLine
 62
7
  6
CONTINUOUS
 10
-110.7254540495
 20
-38.0950920522
 11
-109.7973930879
 21
-37.1670310906
  0
LINE
  5
465
100
AcDbEntity
  8
CURVE
100
AcDbLine
 62
7
  6
CONTINUOUS
 10
-110.4178755129
 20
-37.9975242296
 11
-109.6384909895
 21
-37.2181397062
  0
LINE
  5
466
100
AcDbEntity
  8
CURVE
100
AcDbLine
 62
7
  6
CONTINUOUS
 10
-110.1102969764
 20
-37.899956407
 11
-109.5252813119
 21
-37.3149407426
  0
LINE
  5
467
100
AcDbEntity
  8
CURVE
100
AcDbLine
 62
7
  6
CONTINUOUS
 10
-109.8027184398
 20
-37.8023885845
 11
-109.5252813119
 21
-37.5249514566
  0
LINE
  5
468
100
AcDbEntity
  8
0
100
AcDbLine
 62
250
  6
CONTINUOUS
 10
-106.467552968
 20
-26.9276792439
 11
-105.3680341082
 21
-26.3440350289
  0
LINE
  5
469
100
AcDbEntity
  8
0
100
AcDbLine
 62
250
  6
CONTINUOUS
 10
-104.9432763196
 20
-26.2536973817
 11
-104.4211844668
 21
-25.9765617175
  0
LINE
  5
46A
100
AcDbEntity
  8
0
100
AcDbLine
 62
7
  6
CONTINUOUS
 10
-104.3933255518
 20
-26.0883643404
 11
-106.3933255563
 21
-27.1500000024
  0
LWPOLYLINE
  5
46B
100
AcDbEntity
  8
0
100
AcDbPolyline
 62
250
  6
CONTINUOUS
 90
10
 70
0
 10
-104.8043643905
 20
-26.3065510847
 10
-104.8130147478
 20
-26.3102018966
 10
-104.8223929852
 20
-26.3123637555
 10
-104.8324464083
 20
-26.3130263217
 10
-104.8431166619
 20
-26.31218786
 10
-104.85434592
 20
-26.3098549013
 10
-104.8660782057
 20
-26.3060394381
 10
-104.8782514514
 20
-26.3007605114
 10
-104.8907962692
 20
-26.2940471078
 10
-104.9036428196
 20
-26.2859359948
  0
LWPOLYLINE
  5
46C
100
AcDbEntity
  8
CURVE
100
AcDbPolyline
 62
250
  6
CONTINUOUS
 90
8
 70
0
 10
-110.2828212601
 20
-29.5379751749
 10
-110.2482494054
 20
-29.5252922476
 10
-110.2134995108
 20
-29.5131262995
 10
-110.178591253
 20
-29.5014211183
 10
-110.143544309
 20
-29.4901204921
 10
-110.1083783555
 20
-29.4791682086
 10
-110.0731130694
 20
-29.4685080557
 10
-110.0377681275
 20
-29.4580838213
  0
LINE
  5
46D
100
AcDbEntity
  8
0
100
AcDbLine
 62
7
  6
CONTINUOUS
 10
-104.3933255518
 20
25.4
 11
-106.3436974539
 21
25.2049628098
  0
LINE
  5
46E
100
AcDbEntity
  8
0
100
AcDbLine
 62
7
  6
CONTINUOUS
 10
-107.3933255518
 20
25.7558198745
 11
-104.5828583605
 21
25.8799866677
  0
LINE
  5
46F
100
AcDbEntity
  8
0
100
AcDbLine
 62
7
  6
CONTINUOUS
 10
-104.3933255518
 20
25.3523612067
 11
-104.9152622061
 21
25.3478063346
  0
LINE
  5
470
100
AcDbEntity
  8
0
100
AcDbLine
 62
7
  6
CONTINUOUS
 10
-107.3933255518
 20
25.05
 11
-107.2433255518
 21
25.05
  0
LINE
  5
471
100
AcDbEntity
  8
0
100
AcDbLine
 62
7
  6
CONTINUOUS
 10
-106.9433255518
 20
25.05
 11
-106.7433255518
 21
25.05
  0
LINE
  5
472
100
AcDbEntity
  8
0
100
AcDbLine
 62
7
  6
CONTINUOUS
 10
-107.3933255518
 20
25.2
 11
-106.4432011729
 21
25.2
  0
LINE
  5
473
100
AcDbEntity
  8
0
100
AcDbLine
 62
7
  6
CONTINUOUS
 10
-104.3933255518
 20
26.1523612067
 11
-104.5138883188
 21
26.1523612067
  0
LINE
  5
474
100
AcDbEntity
  8
0
100
AcDbLine
 62
250
  6
CONTINUOUS
 10
-106.467552968
 20
26.9276792439
 11
-107.3933255518
 21
26.9280974384
  0
LINE
  5
475
100
AcDbEntity
  8
0
100
AcDbLine
 62
7
  6
CONTINUOUS
 10
-106.3933255518
 20
27.15
 11
-107.3933255518
 21
27.151745331
  0
LINE
  5
476
100
AcDbEntity
  8
0
100
AcDbLine
 62
250
  6
CONTINUOUS
 10
-104.9432763196
 20
26.2536973817
 11
-107.3933255518
 21
26.2679513512
  0
LINE
  5
477
100
AcDbEntity
  8
0
100
AcDbLine
 62
7
  6
CONTINUOUS
 10
-104.9432763196
 20
26.3415638603
 11
-107.3933255518
 21
26.3558178298
  0
LWPOLYLINE
  5
478
100
AcDbEntity
  8
0
100
AcDbPolyline
 62
250
  6
CONTINUOUS
 90
10
 70
0
 10
-104.8043643905
 20
26.3065510847
 10
-104.813012346
 20
26.3102011223
 10
-104.8223883827
 20
26.3123630865
 10
-104.8324399652
 20
26.3130263763
 10
-104.843108671
 20
26.312189017
 10
-104.8543369866
 20
26.3098572929
 10
-104.8660697286
 20
26.3060426626
 10
-104.8782462596
 20
26.3007630301
 10
-104.8907960886
 20
26.2940472133
 10
-104.9036461364
 20
26.2859337461
  0
LINE
  5
479
100
AcDbEntity
  8
0
100
AcDbLine
 62
250
  6
CONTINUOUS
 10
-105.3680341082
 20
26.3440350289
 11
-106.467552968
 21
26.9276792439
  0
LINE
  5
47A
100
AcDbEntity
  8
0
100
AcDbLine
 62
250
  6
CONTINUOUS
 10
-104.4211844668
 20
25.9765617175
 11
-104.9432763196
 21
26.2536973817
  0
LINE
  5
47B
100
AcDbEntity
  8
0
100
AcDbLine
 62
7
  6
CONTINUOUS
 10
-104.3933255518
 20
26.0883643404
 11
-106.3933255554
 21
27.1500000019
  0
LINE
  5
47C
100
AcDbEntity
  8
0
100
AcDbLine
 62
7
  6
CONTINUOUS
 10
-113.5439347248
 20
-43.8055596544
 11
-113.558873094
 21
-43.8199854699
  0
LINE
  5
47D
100
AcDbEntity
  8
ASSI
100
AcDbLine
 62
7
  6
CONTINUOUS
 10
-113.5439347248
 20
-43.8055596544
 11
-113.558873094
 21
-43.8199854699
  0
LINE
  5
47E
100
AcDbEntity
  8
CURVE
100
AcDbLine
 62
250
  6
CONTINUOUS
 10
-112.0234945403
 20
-31.54876
 11
-109.5252813119
 21
-30.781779
  0
LINE
  5
47F
100
AcDbEntity
  8
CURVE
100
AcDbLine
 62
250
  6
CONTINUOUS
 10
-110.0377681275
 20
-29.4580838213
 11
-109.9669179836
 21
-29.4377182594
  0
LINE
  5
480
100
AcDbEntity
  8
0
100
AcDbLine
 62
7
  6
CONTINUOUS
 10
-113.558873094
 20
43.8199854699
 11
-113.5439347248
 21
43.8055596544
  0
LINE
  5
481
100
AcDbEntity
  8
ASSI
100
AcDbLine
 62
7
  6
CONTINUOUS
 10
-113.558873094
 20
43.8199854699
 11
-113.5439347248
 21
43.8055596544
  0
LINE
  5
482
100
AcDbEntity
  8
CURVE
100
AcDbLine
 62
250
  6
CONTINUOUS
 10
-109.5252813119
 20
-34.230793
 11
-111.1565669711
 21
-34.842919
  0
LINE
  5
483
100
AcDbEntity
  8
CURVE
100
AcDbLine
 62
250
  6
CONTINUOUS
 10
-112.0234945403
 20
-34.707635
 11
-110.6364789877
 21
-34.191353
  0
LINE
  5
484
100
AcDbEntity
  8
CURVE
100
AcDbLine
 62
250
  6
CONTINUOUS
 10
-109.5252813119
 20
-37.714382
 11
-112.0234945403
 21
-38.506847
  0
LINE
  5
485
100
AcDbEntity
  8
0
100
AcDbLine
 62
250
  6
CONTINUOUS
 10
-107.9933255518
 20
41.1619414324
 11
-107.3933255518
 21
41.2038975196
  0
LINE
  5
486
100
AcDbEntity
  8
0
100
AcDbLine
 62
7
  6
CONTINUOUS
 10
-107.9933255518
 20
42.7580439128
 11
-107.3933255518
 21
42.8
  0
LINE
  5
487
100
AcDbEntity
  8
0
100
AcDbLine
 62
7
  6
CONTINUOUS
 10
-113.5439347248
 20
43.8055596544
 11
-107.9933255518
 21
43.9993911979
  0
LINE
  5
488
100
AcDbEntity
  8
ASSI
100
AcDbLine
 62
7
  6
CONTINUOUS
 10
-113.5439347248
 20
43.8055596544
 11
-107.9933255518
 21
43.9993911979
  0
LINE
  5
489
100
AcDbEntity
  8
0
100
AcDbLine
 62
7
  6
CONTINUOUS
 10
-113.5439347248
 20
44.8061684565
 11
-107.9933255518
 21
45.0
  0
LINE
  5
48A
100
AcDbEntity
  8
ASSI
100
AcDbLine
 62
7
  6
CONTINUOUS
 10
-113.5439347248
 20
44.8061684565
 11
-107.9933255518
 21
45.0
  0
LWPOLYLINE
  5
48B
100
AcDbEntity
  8
0
100
AcDbPolyline
 62
7
  6
CONTINUOUS
 90
8
 70
0
 43
0.3500000006
 10
-118.1568565063
 20
55.7499985657
 10
-117.2997185669
 20
55.7499985657
 10
-116.8711495972
 20
56.1785675354
 10
-116.8711495972
 20
57.0357145386
 10
-117.2997185669
 20
57.4642835083
 10
-118.1568565063
 20
57.4642835083
 10
-118.1568565063
 20
58.7499994812
 10
-116.8711495972
 20
58.7499994812
  0
LWPOLYLINE
  5
48C
100
AcDbEntity
  8
0
100
AcDbPolyline
 62
7
  6
CONTINUOUS
 90
8
 70
0
 43
0.3500000006
 10
-118.9326384888
 20
63.7500010071
 10
-118.0755005493
 20
63.7500010071
 10
-117.6469225159
 20
64.1785699768
 10
-117.6469225159
 20
65.03571698
 10
-118.0755005493
 20
65.4642859497
 10
-118.9326384888
 20
65.4642859497
 10
-118.9326384888
 20
66.7500019226
 10
-117.6469225159
 20
66.7500019226
  0
CIRCLE
  5
48D
100
AcDbEntity
  8
0
100
AcDbCircle
 62
7
  6
CONTINUOUS
 10
-11.25
 20
-10.25
 40
4.85
  0
CIRCLE
  5
48E
100
AcDbEntity
  8
0
100
AcDbCircle
 62
7
  6
CONTINUOUS
 10
-33.75
 20
-10.25
 40
4.85
  0
CIRCLE
  5
48F
100
AcDbEntity
  8
ASSI
100
AcDbCircle
 62
7
  6
CONTINUOUS
 10
-11.25
 20
-10.25
 40
4.85
  0
CIRCLE
  5
490
100
AcDbEntity
  8
ASSI
100
AcDbCircle
 62
7
  6
CONTINUOUS
 10
-33.75
 20
-10.25
 40
4.85
  0
CIRCLE
  5
491
100
AcDbEntity
  8
0
100
AcDbCircle
 62
7
  6
CONTINUOUS
 10
-33.75
 20
-10.25
 40
4.35
  0
CIRCLE
  5
492
100
AcDbEntity
  8
0
100
AcDbCircle
 62
7
  6
CONTINUOUS
 10
-11.25
 20
-10.25
 40
4.35
  0
CIRCLE
  5
493
100
AcDbEntity
  8
ASSI
100
AcDbCircle
 62
7
  6
CONTINUOUS
 10
-33.75
 20
-10.25
 40
4.35
  0
CIRCLE
  5
494
100
AcDbEntity
  8
ASSI
100
AcDbCircle
 62
7
  6
CONTINUOUS
 10
-11.25
 20
-10.25
 40
4.35
  0
CIRCLE
  5
495
100
AcDbEntity
  8
0
100
AcDbCircle
 62
7
  6
CONTINUOUS
 10
-11.25
 20
10.25
 40
4.85
  0
CIRCLE
  5
496
100
AcDbEntity
  8
0
100
AcDbCircle
 62
7
  6
CONTINUOUS
 10
-33.75
 20
10.25
 40
4.85
  0
CIRCLE
  5
497
100
AcDbEntity
  8
ASSI
100
AcDbCircle
 62
7
  6
CONTINUOUS
 10
-11.25
 20
10.25
 40
4.85
  0
CIRCLE
  5
498
100
AcDbEntity
  8
ASSI
100
AcDbCircle
 62
7
  6
CONTINUOUS
 10
-33.75
 20
10.25
 40
4.85
  0
CIRCLE
  5
499
100
AcDbEntity
  8
0
100
AcDbCircle
 62
7
  6
CONTINUOUS
 10
-33.75
 20
10.25
 40
4.35
  0
CIRCLE
  5
49A
100
AcDbEntity
  8
0
100
AcDbCircle
 62
7
  6
CONTINUOUS
 10
-11.25
 20
10.25
 40
4.35
  0
CIRCLE
  5
49B
100
AcDbEntity
  8
ASSI
100
AcDbCircle
 62
7
  6
CONTINUOUS
 10
-33.75
 20
10.25
 40
4.35
  0
CIRCLE
  5
49C
100
AcDbEntity
  8
ASSI
100
AcDbCircle
 62
7
  6
CONTINUOUS
 10
-11.25
 20
10.25
 40
4.35
  0
CIRCLE
  5
49D
100
AcDbEntity
  8
0
100
AcDbCircle
 62
7
  6
CONTINUOUS
 10
11.25
 20
-10.25
 40
4.85
  0
CIRCLE
  5
49E
100
AcDbEntity
  8
0
100
AcDbCircle
 62
7
  6
CONTINUOUS
 10
33.75
 20
-10.25
 40
4.85
  0
CIRCLE
  5
49F
100
AcDbEntity
  8
ASSI
100
AcDbCircle
 62
7
  6
CONTINUOUS
 10
11.25
 20
-10.25
 40
4.85
  0
CIRCLE
  5
4A0
100
AcDbEntity
  8
ASSI
100
AcDbCircle
 62
7
  6
CONTINUOUS
 10
33.75
 20
-10.25
 40
4.85
  0
CIRCLE
  5
4A1
100
AcDbEntity
  8
0
100
AcDbCircle
 62
7
  6
CONTINUOUS
 10
11.25
 20
-10.25
 40
4.35
  0
CIRCLE
  5
4A2
100
AcDbEntity
  8
0
100
AcDbCircle
 62
7
  6
CONTINUOUS
 10
33.75
 20
-10.25
 40
4.35
  0
CIRCLE
  5
4A3
100
AcDbEntity
  8
ASSI
100
AcDbCircle
 62
7
  6
CONTINUOUS
 10
11.25
 20
-10.25
 40
4.35
  0
CIRCLE
  5
4A4
100
AcDbEntity
  8
ASSI
100
AcDbCircle
 62
7
  6
CONTINUOUS
 10
33.75
 20
-10.25
 40
4.35
  0
CIRCLE
  5
4A5
100
AcDbEntity
  8
0
100
AcDbCircle
 62
7
  6
CONTINUOUS
 10
11.25
 20
10.25
 40
4.85
  0
CIRCLE
  5
4A6
100
AcDbEntity
  8
0
100
AcDbCircle
 62
7
  6
CONTINUOUS
 10
33.75
 20
10.25
 40
4.85
  0
CIRCLE
  5
4A7
100
AcDbEntity
  8
ASSI
100
AcDbCircle
 62
7
  6
CONTINUOUS
 10
11.25
 20
10.25
 40
4.85
  0
CIRCLE
  5
4A8
100
AcDbEntity
  8
ASSI
100
AcDbCircle
 62
7
  6
CONTINUOUS
 10
33.75
 20
10.25
 40
4.85
  0
CIRCLE
  5
4A9
100
AcDbEntity
  8
0
100
AcDbCircle
 62
7
  6
CONTINUOUS
 10
11.25
 20
10.25
 40
4.35
  0
CIRCLE
  5
4AA
100
AcDbEntity
  8
0
100
AcDbCircle
 62
7
  6
CONTINUOUS
 10
33.75
 20
10.25
 40
4.35
  0
CIRCLE
  5
4AB
100
AcDbEntity
  8
ASSI
100
AcDbCircle
 62
7
  6
CONTINUOUS
 10
11.25
 20
10.25
 40
4.35
  0
CIRCLE
  5
4AC
100
AcDbEntity
  8
ASSI
100
AcDbCircle
 62
7
  6
CONTINUOUS
 10
33.75
 20
10.25
 40
4.35
  0
ARC
  5
4AD
100
AcDbEntity
  8
0
100
AcDbCircle
 62
7
  6
CONTINUOUS
 10
-106.4432011729
 20
-26.2
 40
1.0
100
AcDbArc
 50
84.2894068625
 51
90.0
  0
ARC
  5
4AE
100
AcDbEntity
  8
0
100
AcDbCircle
 62
7
  6
CONTINUOUS
 10
-106.4432011729
 20
26.2
 40
1.0
100
AcDbArc
 50
270.0
 51
275.7105931375
  0
ARC
  5
4AF
100
AcDbEntity
  8
0
100
AcDbCircle
 62
7
  6
CONTINUOUS
 10
-106.4680122269
 20
-26.849999496
 40
0.3
100
AcDbArc
 50
270.1000001427
 51
297.9489685197
  0
ARC
  5
4B0
100
AcDbEntity
  8
0
100
AcDbCircle
 62
7
  6
CONTINUOUS
 10
-106.4680122269
 20
26.849999496
 40
0.3
100
AcDbArc
 50
62.0510314803
 51
89.8999998573
  0
ARC
  5
4B1
100
AcDbEntity
  8
0
100
AcDbCircle
 62
7
  6
CONTINUOUS
 10
-107.4433255518
 20
2.6214065094
 40
0.3
100
AcDbArc
 50
0.0
 51
80.4010886585
  0
ARC
  5
4B2
100
AcDbEntity
  8
0
100
AcDbCircle
 62
7
  6
CONTINUOUS
 10
-107.4433255518
 20
-2.6214065094
 40
0.3
100
AcDbArc
 50
279.5989113415
 51
360.0
  0
ARC
  5
4B3
100
AcDbEntity
  8
0
100
AcDbCircle
 62
7
  6
CONTINUOUS
 10
-104.945021639
 20
-26.0415689373
 40
0.3
100
AcDbArc
 50
270.3333333333
 51
297.9601595792
  0
ARC
  5
4B4
100
AcDbEntity
  8
0
100
AcDbCircle
 62
7
  6
CONTINUOUS
 10
-104.945021639
 20
26.0415689373
 40
0.3
100
AcDbArc
 50
62.0398404207
 51
89.6666666667
  0
ELLIPSE
  5
4B5
100
AcDbEntity
  8
0
100
AcDbEllipse
 62
7
  6
CONTINUOUS
 10
-104.5933255518
 20
-26.079798695
 30
0.0
 11
0.1417119467
 21
0.1422961243
 31
0.0
 40
0.9918061237
 41
-0.2491986107
 42
0.7350951877
  0
ELLIPSE
  5
4B6
100
AcDbEntity
  8
0
100
AcDbEllipse
 62
7
  6
CONTINUOUS
 10
-104.5933255518
 20
26.079798695
 30
0.0
 11
-0.1417119467
 21
0.1422961243
 31
0.0
 40
0.9918061237
 41
-3.8766878413
 42
-2.8923940429
  0
ENDSEC
  0
SECTION
  2
OBJECTS
  0
DICTIONARY
  5
C
100
AcDbDictionary
280
0
281
1
  3
ACAD_GROUP
350
D
  3
ACAD_MLINESTYLE
350
17
  3
ACAD_LAYOUT
350
1A
  3
ACAD_PLOTSETTINGS
350
19
  3
ACAD_PLOTSTYLENAME
350
E
  0
DICTIONARY
  5
D
102
{ACAD_REACTORS
330
C
102
}
100
AcDbDictionary
280
0
281
1
  0
ACDBDICTIONARYWDFLT
  5
E
102
{ACAD_REACTORS
330
C
102
}
100
AcDbDictionary
281
1
  3
Normal
350
F
100
AcDbDictionaryWithDefault
340
F
  0
DICTIONARY
  5
17
102
{ACAD_REACTORS
330
C
102
}
100
AcDbDictionary
280
0
281
1
  3
Standard
350
18
  0
DICTIONARY
  5
19
102
{ACAD_REACTORS
330
C
102
}
100
AcDbDictionary
281
1
  0
DICTIONARY
  5
1A
102
{ACAD_REACTORS
330
C
102
}
100
AcDbDictionary
281
1
  3
Model
350
4B7
  3
Layout1
350
4B8
  0
ACDBPLACEHOLDER
  5
F
102
{ACAD_REACTORS
330
E
102
}
  0
MLINESTYLE
  5
18
102
{ACAD_REACTORS
330
17
102
}
100
AcDbMlineStyle
  2
STANDARD
 70
0
  3

 62
256
 51
90.0
 52
90.0
 71
2
 49
0.5
 62
256
  6
BYLAYER
 49
-0.5
 62
256
  6
BYLAYER
  0
LAYOUT
  5
4B7
102
{ACAD_REACTORS
330
1A
102
}
100
AcDbPlotSettings
  1

  2
none_device
  4
ISO_A4_(297.00_x_210.00_MM)
  6

 40
0.0
 41
0.0
 42
0.0
 43
0.0
 44
297.0
 45
210.0
 46
0.0
 47
0.0
 48
0.0
 49
0.0
140
0.0
141
0.0
142
1.0
143
1.0
 70
1024
 72
1
 73
0
 74
0
  7

 75
0
147
1.0
148
0.0
149
0.0
100
AcDbLayout
  1
Model
 70
0
 71
0
 10
0.0
 20
0.0
 11
297.0
 21
210.0
 12
0.0
 22
0.0
 32
0.0
 14
0.0
 24
0.0
 34
0.0
 15
0.0
 25
0.0
 35
0.0
146
0.0
 13
0.0
 23
0.0
 33
0.0
 16
1.0
 26
0.0
 36
0.0
 17
0.0
 27
1.0
 37
0.0
 76
0
330
21E
345
0
346
0
  0
LAYOUT
  5
4B8
102
{ACAD_REACTORS
330
1A
102
}
100
AcDbPlotSettings
  1

  2
none_device
  4
ISO_A4_(297.00_x_210.00_MM)
  6

 40
0.0
 41
0.0
 42
0.0
 43
0.0
 44
297.0
 45
210.0
 46
0.0
 47
0.0
 48
0.0
 49
0.0
140
0.0
141
0.0
142
1.0
143
1.0
 70
0
 72
1
 73
0
 74
0
  7

 75
0
147
1.0
148
0.0
149
0.0
100
AcDbLayout
  1
Layout1
 70
0
 71
1
 10
0.0
 20
0.0
 11
297.0
 21
210.0
 12
0.0
 22
0.0
 32
0.0
 14
0.0
 24
0.0
 34
0.0
 15
0.0
 25
0.0
 35
0.0
146
0.0
 13
0.0
 23
0.0
 33
0.0
 16
1.0
 26
0.0
 36
0.0
 17
0.0
 27
1.0
 37
0.0
 76
0
330
21F
345
0
346
0
  0
ENDSEC
  0
EOF
