  0
SECTION
  2
HEADER
  9
$ACADVER
  1
AC1015
  9
$DWGCODEPAGE
  3
ANSI_1252
  9
$EXTMAX
 10
297.0
 20
210.0
 30
0.0
  9
$EXTMIN
 10
0.0
 20
0.0
 30
0.0
  9
$LIMMIN
 10
0.0
 20
0.0
  9
$LIMMAX
 10
297.0
 20
210.0
  9
$VIEWCTR
 10
148.5
 20
105.0
  9
$VIEWSIZE
 40
210.0
  9
$CLAYER
  8
0
  9
$LTSCALE
 40
16.335
  9
$CELTYPE
  6
BYLAYER
  9
$DIMSCALE
 40
1.0
  9
$DIMASZ
 40
3.0
  9
$DIMEXO
 40
1.85625
  9
$DIMDLI
 40
11.286
  9
$DIMEXE
 40
5.346
  9
$DIMCEN
 40
2.673
  9
$DIMLFAC
 40
1.0
  9
$DIMBLK
  1
_FILLED
  9
$DIMTXT
 40
3.0
  9
$DIMTOL
 70
1
  9
$DIMLIM
 70
0
  9
$DIMTFAC
 40
1.0
  9
$DIMTP
 40
0.01
  9
$DIMTM
 40
0.01
  9
$PDMODE
 70
3
  9
$PDSIZE
 40
3.0
  9
$HANDSEED
  5
38D
  9
$TILEMODE
 70
1
  9
$MEASUREMENT
 70
1
  9
$INSUNITS
 70
4
  0
ENDSEC
  0
SECTION
  2
CLASSES
  0
CLASS
  1
ACDBDICTIONARYWDFLT
  2
AcDbDictionaryWithDefault
  3
AutoCAD 2000
 90
0
280
0
281
0
  0
CLASS
  1
ACDBPLACEHOLDER
  2
AcDbPlaceHolder
  3
AutoCAD 2000
 90
0
280
0
281
0
  0
CLASS
  1
LAYOUT
  2
AcDbLayout
  3
AutoCAD 2000
 90
0
280
0
281
0
  0
ENDSEC
  0
SECTION
  2
TABLES
  0
TABLE
  2
VPORT
  5
8
100
AcDbSymbolTable
 70
2
  0
VPORT
  5
1F4
100
AcDbSymbolTableRecord
100
AcDbViewportTableRecord
  2
*ACTIVE
 70
0
 10
0.0
 20
0.0
 11
1.0
 21
1.0
 12
148.5
 22
105.0
 13
0.0
 23
0.0
 14
1.0
 24
1.0
 15
0.0
 25
0.0
 16
0.0
 26
0.0
 36
1.0
 17
0.0
 27
0.0
 37
0.0
 40
210.0
 41
1.4142857143
 42
50.0
 43
0.0
 44
0.0
 50
0.0
 51
0.0
 71
0
 72
100
 73
1
 74
1
 75
0
 76
0
 77
0
 78
0
  0
ENDTAB
  0
TABLE
  2
LTYPE
  5
5
100
AcDbSymbolTable
 70
6
  0
LTYPE
  5
14
100
AcDbSymbolTableRecord
100
AcDbLinetypeTableRecord
  2
BYBLOCK
 70
0
  3

 72
65
 73
0
 40
0.0
  0
LTYPE
  5
15
100
AcDbSymbolTableRecord
100
AcDbLinetypeTableRecord
  2
BYLAYER
 70
0
  3

 72
65
 73
0
 40
0.0
  0
LTYPE
  5
16
100
AcDbSymbolTableRecord
100
AcDbLinetypeTableRecord
  2
CONTINUOUS
 70
64
  3
Solid line
 72
65
 73
0
 40
0.0
  0
LTYPE
  5
1F5
100
AcDbSymbolTableRecord
100
AcDbLinetypeTableRecord
  2
CENTER
 70
64
  3
____ _ ____ _ ____ _ ____ _ ____ _ ____ _ ____
 72
65
 73
4
 40
0.6
 49
0.375
 74
0
 49
-0.075
 74
0
 49
0.075
 74
0
 49
-0.075
 74
0
  0
LTYPE
  5
1F6
100
AcDbSymbolTableRecord
100
AcDbLinetypeTableRecord
  2
HIDDEN
 70
64
  3
- - - - - - - - - - - - - - - - - - - -
 72
65
 73
2
 40
0.2
 49
0.1
 74
0
 49
-0.1
 74
0
  0
LTYPE
  5
1F7
100
AcDbSymbolTableRecord
100
AcDbLinetypeTableRecord
  2
PHANTOM
 70
64
  3
_____ _ _ _____ _ _ _____ _ _ _____
 72
65
 73
6
 40
0.8
 49
0.45
 74
0
 49
-0.05
 74
0
 49
0.1
 74
0
 49
-0.05
 74
0
 49
0.1
 74
0
 49
-0.05
 74
0
  0
LTYPE
  5
1F8
100
AcDbSymbolTableRecord
100
AcDbLinetypeTableRecord
  2
DOT
 70
64
  3
. . . . . . . . . . . . . . . . . . . .
 72
65
 73
2
 40
0.2
 49
0.1
 74
0
 49
-0.1
 74
0
  0
LTYPE
  5
1F9
100
AcDbSymbolTableRecord
100
AcDbLinetypeTableRecord
  2
DASHED
 70
64
  3
- - - - - - - - - - - - - - - - - - - -
 72
65
 73
2
 40
0.2
 49
0.1
 74
0
 49
-0.1
 74
0
  0
ENDTAB
  0
TABLE
  2
LAYER
  5
2
100
AcDbSymbolTable
 70
36
  0
LAYER
  5
10
100
AcDbSymbolTableRecord
100
AcDbLayerTableRecord
  2
0
 70
0
 62
7
  6
CONTINUOUS
370
-3
390
F
  0
LAYER
  5
1FA
100
AcDbSymbolTableRecord
100
AcDbLayerTableRecord
  2
DEFAULT_1
 70
0
 62
7
  6
CENTER
370
-3
390
F
  0
LAYER
  5
1FB
100
AcDbSymbolTableRecord
100
AcDbLayerTableRecord
  2
DEFAULT_2
 70
0
 62
7
  6
HIDDEN
370
-3
390
F
  0
LAYER
  5
1FC
100
AcDbSymbolTableRecord
100
AcDbLayerTableRecord
  2
DEFAULT_3
 70
0
 62
7
  6
PHANTOM
370
-3
390
F
  0
LAYER
  5
1FD
100
AcDbSymbolTableRecord
100
AcDbLayerTableRecord
  2
ASSI
 70
0
 62
7
  6
CONTINUOUS
370
-3
390
F
  0
LAYER
  5
1FE
100
AcDbSymbolTableRecord
100
AcDbLayerTableRecord
  2
COORDINATE
 70
0
 62
7
  6
CONTINUOUS
370
-3
390
F
  0
LAYER
  5
1FF
100
AcDbSymbolTableRecord
100
AcDbLayerTableRecord
  2
COORD_ORIGINE
 70
0
 62
7
  6
CONTINUOUS
370
-3
390
F
  0
LAYER
  5
200
100
AcDbSymbolTableRecord
100
AcDbLayerTableRecord
  2
COPY_PUBLISH
 70
0
 62
7
  6
CONTINUOUS
370
-3
390
F
  0
LAYER
  5
201
100
AcDbSymbolTableRecord
100
AcDbLayerTableRecord
  2
COSMETIC
 70
0
 62
7
  6
CONTINUOUS
370
-3
390
F
  0
LAYER
  5
202
100
AcDbSymbolTableRecord
100
AcDbLayerTableRecord
  2
CURVE
 70
0
 62
7
  6
CONTINUOUS
370
-3
390
F
  0
LAYER
  5
203
100
AcDbSymbolTableRecord
100
AcDbLayerTableRecord
  2
DRAFT
 70
0
 62
7
  6
CONTINUOUS
370
-3
390
F
  0
LAYER
  5
204
100
AcDbSymbolTableRecord
100
AcDbLayerTableRecord
  2
IMPORT_IGES
 70
0
 62
7
  6
CONTINUOUS
370
-3
390
F
  0
LAYER
  5
205
100
AcDbSymbolTableRecord
100
AcDbLayerTableRecord
  2
INTFCLR_2
 70
0
 62
7
  6
CONTINUOUS
370
-3
390
F
  0
LAYER
  5
206
100
AcDbSymbolTableRecord
100
AcDbLayerTableRecord
  2
PIANI
 70
0
 62
7
  6
CONTINUOUS
370
-3
390
F
  0
LAYER
  5
207
100
AcDbSymbolTableRecord
100
AcDbLayerTableRecord
  2
PIANI_ORIGINE
 70
0
 62
7
  6
CONTINUOUS
370
-3
390
F
  0
LAYER
  5
208
100
AcDbSymbolTableRecord
100
AcDbLayerTableRecord
  2
PIANI_RIFERIMENTO
 70
0
 62
7
  6
CONTINUOUS
370
-3
390
F
  0
LAYER
  5
209
100
AcDbSymbolTableRecord
100
AcDbLayerTableRecord
  2
PUNTI
 70
0
 62
7
  6
CONTINUOUS
370
-3
390
F
  0
LAYER
  5
20A
100
AcDbSymbolTableRecord
100
AcDbLayerTableRecord
  2
RACCORDO
 70
0
 62
7
  6
CONTINUOUS
370
-3
390
F
  0
LAYER
  5
20B
100
AcDbSymbolTableRecord
100
AcDbLayerTableRecord
  2
SMUSSO
 70
0
 62
7
  6
CONTINUOUS
370
-3
390
F
  0
LAYER
  5
20C
100
AcDbSymbolTableRecord
100
AcDbLayerTableRecord
  2
SNAPLINE
 70
0
 62
7
  6
CONTINUOUS
370
-3
390
F
  0
LAYER
  5
20D
100
AcDbSymbolTableRecord
100
AcDbLayerTableRecord
  2
SUPERFICI
 70
0
 62
7
  6
CONTINUOUS
370
-3
390
F
  0
LAYER
  5
20E
100
AcDbSymbolTableRecord
100
AcDbLayerTableRecord
  2
TRASH
 70
0
 62
7
  6
CONTINUOUS
370
-3
390
F
  0
LAYER
  5
20F
100
AcDbSymbolTableRecord
100
AcDbLayerTableRecord
  2
XSEC_DATUMS
 70
0
 62
7
  6
CONTINUOUS
370
-3
390
F
  0
ENDTAB
  0
TABLE
  2
STYLE
  5
3
100
AcDbSymbolTable
 70
1
  0
STYLE
  5
11
100
AcDbSymbolTableRecord
100
AcDbTextStyleTableRecord
  2
STANDARD
 70
0
 40
0.0
 41
0.8
 50
0.0
 71
0
 42
0.2
  3
txt
  4

  0
STYLE
  5
210
100
AcDbSymbolTableRecord
100
AcDbTextStyleTableRecord
  2
TEXTSTYLE_1
 70
0
 40
0.0
 41
0.8
 50
0.0
 71
0
 42
0.2
  3
gdt
  4

  0
ENDTAB
  0
TABLE
  2
VIEW
  5
6
100
AcDbSymbolTable
 70
0
  0
ENDTAB
  0
TABLE
  2
UCS
  5
7
100
AcDbSymbolTable
 70
0
  0
ENDTAB
  0
TABLE
  2
APPID
  5
9
100
AcDbSymbolTable
 70
1
  0
APPID
  5
211
100
AcDbSymbolTableRecord
100
AcDbRegAppTableRecord
  2
ACAD
 70
0
  0
ENDTAB
  0
TABLE
  2
BLOCK_RECORD
  5
1
100
AcDbSymbolTable
 70
0
  0
BLOCK_RECORD
  5
212
100
AcDbSymbolTableRecord
100
AcDbBlockTableRecord
  2
*Model_Space
  0
BLOCK_RECORD
  5
213
100
AcDbSymbolTableRecord
100
AcDbBlockTableRecord
  2
*Paper_Space
  0
BLOCK_RECORD
  5
214
100
AcDbSymbolTableRecord
100
AcDbBlockTableRecord
  2
_FILLED
  0
BLOCK_RECORD
  5
215
100
AcDbSymbolTableRecord
100
AcDbBlockTableRecord
  2
*D0
  0
BLOCK_RECORD
  5
216
100
AcDbSymbolTableRecord
100
AcDbBlockTableRecord
  2
*D1
  0
BLOCK_RECORD
  5
217
100
AcDbSymbolTableRecord
100
AcDbBlockTableRecord
  2
*D2
  0
BLOCK_RECORD
  5
218
100
AcDbSymbolTableRecord
100
AcDbBlockTableRecord
  2
*D3
  0
ENDTAB
  0
TABLE
  2
DIMSTYLE
  5
A
100
AcDbSymbolTable
 70
1
100
AcDbDimStyleTable
 71
0
  0
DIMSTYLE
105
219
100
AcDbSymbolTableRecord
100
AcDbDimStyleTableRecord
  2
STANDARD
 70
0
  3

  4

 40
1.0
 41
3.0
 42
0.0625
 43
0.38
 44
0.18
 45
0.0
 46
0.0
 47
0.01
 48
0.01
140
3.0
141
0.09
142
0.0
143
25.4
144
1.0
145
0.0
146
1.0
147
0.09
 71
1.0
 72
0.0
 73
0
 74
0
 75
0
 76
0
 77
1
 78
8
170
0
171
2
172
0
173
0
174
0
175
0
176
0
177
0
178
0
270
2
271
2
272
2
273
2
274
2
275
0
280
0
281
0
282
0
283
1
284
8
285
0
286
0
287
3
288
0
340
11
341
214
342
214
343
214
344
214
  0
DIMSTYLE
105
21A
100
AcDbSymbolTableRecord
100
AcDbDimStyleTableRecord
  2
DIMSTYLE_1
 70
0
  3

  4

 40
1.0
 41
3.0
 42
0.0625
 43
0.38
 44
0.18
 45
0.0
 46
0.0
 47
0.0
 48
0.0
140
3.0
141
0.09
142
0.0
143
25.4
144
1.0
145
0.0
146
1.0
147
0.09
 71
0.0
 72
0.0
 73
0
 74
0
 75
0
 76
0
 77
1
 78
8
170
0
171
2
172
0
173
0
174
0
175
0
176
0
177
0
178
0
270
2
271
2
272
2
273
2
274
2
275
0
280
0
281
0
282
0
283
1
284
8
285
0
286
0
287
3
288
0
340
11
341
214
342
214
343
214
344
214
  0
ENDTAB
  0
ENDSEC
  0
SECTION
  2
BLOCKS
  0
BLOCK
  5
20
100
AcDbEntity
  8
0
100
AcDbBlockBegin
  2
*Model_Space
 70
0
 10
0.0
 20
0.0
 30
0.0
  3
*Model_Space
  1

  0
ENDBLK
  5
21
100
AcDbEntity
  8
0
100
AcDbBlockEnd
  0
BLOCK
  5
1C
100
AcDbEntity
  8
0
100
AcDbBlockBegin
  2
*Paper_Space
 70
0
 10
0.0
 20
0.0
 30
0.0
  3
*Paper_Space
  1

  0
ENDBLK
  5
1D
100
AcDbEntity
  8
0
100
AcDbBlockEnd
  0
BLOCK
  5
21B
100
AcDbEntity
  8
0
100
AcDbBlockBegin
  2
_FILLED
 70
64
 10
0.0
 20
0.0
  3
_FILLED
  1

  0
SOLID
  5
21C
100
AcDbEntity
  8
0
  6
BYBLOCK
 62
0
100
AcDbTrace
 10
0.0
 20
0.0
 11
-1.0
 21
0.3166666667
 12
-1.0
 22
-0.3166666667
 13
-1.0
 23
-0.3166666667
  0
ENDBLK
  5
21D
100
AcDbEntity
  8
0
  6
BYBLOCK
 62
0
100
AcDbBlockEnd
  0
BLOCK
  5
21E
100
AcDbEntity
  8
0
100
AcDbBlockBegin
 62
7
  6
CONTINUOUS
  2
*D0
 70
65
 10
0.0
 20
0.0
  3
*D0
  1

  0
MTEXT
  5
21F
100
AcDbEntity
  8
0
100
AcDbMText
 62
7
  6
CONTINUOUS
  7
STANDARD
 71
2
 72
1
 10
76.5
 20
0.0
 30
0.0
 11
0.0
 21
1.0
 31
0.0
 44
0.9
  1
106
 40
3.0
 41
6.4285714286
  0
LINE
  5
220
100
AcDbEntity
  8
0
100
AcDbLine
 62
7
  6
CONTINUOUS
 10
69.75
 20
53.0
 11
81.75
 21
53.0
  0
LINE
  5
221
100
AcDbEntity
  8
0
100
AcDbLine
 62
7
  6
CONTINUOUS
 10
69.75
 20
-53.0
 11
81.75
 21
-53.0
  0
LINE
  5
222
100
AcDbEntity
  8
0
100
AcDbLine
 62
7
  6
CONTINUOUS
 10
80.25
 20
53.0
 11
80.25
 21
0.0
  0
LINE
  5
223
100
AcDbEntity
  8
0
100
AcDbLine
 62
7
  6
CONTINUOUS
 10
80.25
 20
-53.0
 11
80.25
 21
0.0
  0
INSERT
  5
224
100
AcDbEntity
  8
0
100
AcDbBlockReference
 62
7
  6
CONTINUOUS
  2
_FILLED
 10
80.25
 20
53.0
 41
3.0
 42
3.0
 43
3.0
 50
90.0
  0
INSERT
  5
225
100
AcDbEntity
  8
0
100
AcDbBlockReference
 62
7
  6
CONTINUOUS
  2
_FILLED
 10
80.25
 20
-53.0
 41
3.0
 42
3.0
 43
3.0
 50
270.0
  0
ENDBLK
  5
226
100
AcDbEntity
  8
0
  6
BYBLOCK
 62
0
100
AcDbBlockEnd
  0
BLOCK
  5
227
100
AcDbEntity
  8
0
100
AcDbBlockBegin
 62
7
  6
CONTINUOUS
  2
*D1
 70
65
 10
0.0
 20
0.0
  3
*D1
  1

  0
MTEXT
  5
228
100
AcDbEntity
  8
0
100
AcDbMText
 62
7
  6
CONTINUOUS
  7
STANDARD
 71
2
 72
1
 10
0.0
 20
66.75
 30
0.0
 11
1.0
 21
0.0
 31
0.0
 44
0.9
  1
140,5
 40
3.0
 41
10.2857142857
  0
LINE
  5
229
100
AcDbEntity
  8
0
100
AcDbLine
 62
7
  6
CONTINUOUS
 10
-70.25
 20
52.5
 11
-70.25
 21
64.5
  0
LINE
  5
22A
100
AcDbEntity
  8
0
100
AcDbLine
 62
7
  6
CONTINUOUS
 10
70.25
 20
52.5
 11
70.25
 21
64.5
  0
LINE
  5
22B
100
AcDbEntity
  8
0
100
AcDbLine
 62
7
  6
CONTINUOUS
 10
-70.25
 20
63.0
 11
0.0
 21
63.0
  0
LINE
  5
22C
100
AcDbEntity
  8
0
100
AcDbLine
 62
7
  6
CONTINUOUS
 10
70.25
 20
63.0
 11
0.0
 21
63.0
  0
INSERT
  5
22D
100
AcDbEntity
  8
0
100
AcDbBlockReference
 62
7
  6
CONTINUOUS
  2
_FILLED
 10
-70.25
 20
63.0
 41
3.0
 42
3.0
 43
3.0
 50
180.0
  0
INSERT
  5
22E
100
AcDbEntity
  8
0
100
AcDbBlockReference
 62
7
  6
CONTINUOUS
  2
_FILLED
 10
70.25
 20
63.0
 41
3.0
 42
3.0
 43
3.0
 50
0.0
  0
ENDBLK
  5
22F
100
AcDbEntity
  8
0
  6
BYBLOCK
 62
0
100
AcDbBlockEnd
  0
BLOCK
  5
230
100
AcDbEntity
  8
0
100
AcDbBlockBegin
 62
7
  6
CONTINUOUS
  2
*D2
 70
65
 10
0.0
 20
0.0
  3
*D2
  1

  0
MTEXT
  5
231
100
AcDbEntity
  8
0
100
AcDbMText
 62
7
  6
CONTINUOUS
  7
STANDARD
 71
3
 72
1
 10
-107.3339003733
 20
66.75
 30
0.0
 11
1.0
 21
0.0
 31
0.0
 44
0.9
  1
8,6
 40
3.0
 41
6.4285714286
  0
LINE
  5
232
100
AcDbEntity
  8
0
100
AcDbLine
 62
7
  6
CONTINUOUS
 10
-107.1758441279
 20
26.052013795
 11
-107.1758441279
 21
64.5
  0
LINE
  5
233
100
AcDbEntity
  8
0
100
AcDbLine
 62
7
  6
CONTINUOUS
 10
-98.5758441279
 20
51.95
 11
-98.5758441279
 21
64.5
  0
LINE
  5
234
100
AcDbEntity
  8
0
100
AcDbLine
 62
7
  6
CONTINUOUS
 10
-107.1758441279
 20
63.0
 11
-102.8758441279
 21
63.0
  0
LINE
  5
235
100
AcDbEntity
  8
0
100
AcDbLine
 62
7
  6
CONTINUOUS
 10
-102.8758441279
 20
63.0
 11
-113.7624718019
 21
63.0
  0
LINE
  5
236
100
AcDbEntity
  8
0
100
AcDbLine
 62
7
  6
CONTINUOUS
 10
-98.5758441279
 20
63.0
 11
-102.8758441279
 21
63.0
  0
INSERT
  5
237
100
AcDbEntity
  8
0
100
AcDbBlockReference
 62
7
  6
CONTINUOUS
  2
_FILLED
 10
-107.1758441279
 20
63.0
 41
3.0
 42
3.0
 43
3.0
 50
180.0
  0
INSERT
  5
238
100
AcDbEntity
  8
0
100
AcDbBlockReference
 62
7
  6
CONTINUOUS
  2
_FILLED
 10
-98.5758441279
 20
63.0
 41
3.0
 42
3.0
 43
3.0
  0
ENDBLK
  5
239
100
AcDbEntity
  8
0
  6
BYBLOCK
 62
0
100
AcDbBlockEnd
  0
BLOCK
  5
23A
100
AcDbEntity
  8
0
100
AcDbBlockBegin
 62
7
  6
CONTINUOUS
  2
*D3
 70
65
 10
0.0
 20
0.0
  3
*D3
  1

  0
MTEXT
  5
23B
100
AcDbEntity
  8
0
100
AcDbMText
 62
7
  6
CONTINUOUS
  7
STANDARD
 71
3
 72
1
 10
-107.5984144347
 20
74.75
 30
0.0
 11
1.0
 21
0.0
 31
0.0
 44
0.9
  1
10,3
 40
3.0
 41
7.9285714286
  0
LINE
  5
23C
100
AcDbEntity
  8
0
100
AcDbLine
 62
7
  6
CONTINUOUS
 10
-107.1758441279
 20
26.052013795
 11
-107.1758441279
 21
72.5
  0
LINE
  5
23D
100
AcDbEntity
  8
0
100
AcDbLine
 62
7
  6
CONTINUOUS
 10
-96.8758441279
 20
26.85
 11
-96.8758441279
 21
72.5
  0
LINE
  5
23E
100
AcDbEntity
  8
0
100
AcDbLine
 62
7
  6
CONTINUOUS
 10
-107.1758441279
 20
71.0
 11
-102.0258441279
 21
71.0
  0
LINE
  5
23F
100
AcDbEntity
  8
0
100
AcDbLine
 62
7
  6
CONTINUOUS
 10
-102.0258441279
 20
71.0
 11
-115.5269858633
 21
71.0
  0
LINE
  5
240
100
AcDbEntity
  8
0
100
AcDbLine
 62
7
  6
CONTINUOUS
 10
-96.8758441279
 20
71.0
 11
-102.0258441279
 21
71.0
  0
INSERT
  5
241
100
AcDbEntity
  8
0
100
AcDbBlockReference
 62
7
  6
CONTINUOUS
  2
_FILLED
 10
-107.1758441279
 20
71.0
 41
3.0
 42
3.0
 43
3.0
 50
180.0
  0
INSERT
  5
242
100
AcDbEntity
  8
0
100
AcDbBlockReference
 62
7
  6
CONTINUOUS
  2
_FILLED
 10
-96.8758441279
 20
71.0
 41
3.0
 42
3.0
 43
3.0
  0
ENDBLK
  5
243
100
AcDbEntity
  8
0
  6
BYBLOCK
 62
0
100
AcDbBlockEnd
  0
ENDSEC
  0
SECTION
  2
ENTITIES
  0
DIMENSION
  5
244
100
AcDbEntity
  8
0
100
AcDbDimension
 62
7
  6
CONTINUOUS
  2
*D0
 10
80.25
 20
-53.0
 11
79.4402366233
 21
-2.8735607044
 70
160
 71
2
 42
106.0
  3
DIMSTYLE_1
100
AcDbAlignedDimension
 13
69.75
 23
53.0
 14
69.75
 24
-53.0
 50
270.0
100
AcDbRotatedDimension
  0
DIMENSION
  5
245
100
AcDbEntity
  8
0
100
AcDbDimension
 62
7
  6
CONTINUOUS
  2
*D1
 10
70.25
 20
63.0
 11
-5.1428571429
 21
65.25
 70
160
 71
2
 42
140.5
  3
DIMSTYLE_1
100
AcDbAlignedDimension
 13
-70.25
 23
52.5
 14
70.25
 24
52.5
100
AcDbRotatedDimension
  0
DIMENSION
  5
246
100
AcDbEntity
  8
0
100
AcDbDimension
 62
7
  6
CONTINUOUS
  2
*D2
 10
-98.5758441279
 20
63.0
 11
-116.9767575162
 21
65.25
 70
160
 71
3
 42
8.6
  3
DIMSTYLE_1
100
AcDbAlignedDimension
 13
-107.1758441279
 23
26.052013795
 14
-98.5758441279
 24
51.95
100
AcDbRotatedDimension
  0
DIMENSION
  5
247
100
AcDbEntity
  8
0
100
AcDbDimension
 62
7
  6
CONTINUOUS
  2
*D3
 10
-96.8758441279
 20
71.0
 11
-119.4912715775
 21
73.25
 70
160
 71
3
 42
10.3
  3
DIMSTYLE_1
100
AcDbAlignedDimension
 13
-107.1758441279
 23
26.052013795
 14
-96.8758441279
 24
26.85
100
AcDbRotatedDimension
  0
LINE
  5
248
100
AcDbEntity
  8
SMUSSO
100
AcDbLine
 62
7
  6
CONTINUOUS
 10
-70.25
 20
52.0
 11
-70.25
 21
-52.0
  0
LINE
  5
249
100
AcDbEntity
  8
SMUSSO
100
AcDbLine
 62
7
  6
CONTINUOUS
 10
-64.25
 20
47.0
 11
-64.25
 21
-47.0
  0
LINE
  5
24A
100
AcDbEntity
  8
SMUSSO
100
AcDbLine
 62
7
  6
CONTINUOUS
 10
-69.25
 20
-53.0
 11
69.25
 21
-53.0
  0
LINE
  5
24B
100
AcDbEntity
  8
RACCORDO
100
AcDbLine
 62
7
  6
CONTINUOUS
 10
-48.4089805974
 20
-25.5590872108
 11
-48.4089805974
 21
25.5590872108
  0
LINE
  5
24C
100
AcDbEntity
  8
RACCORDO
100
AcDbLine
 62
253
  6
CONTINUOUS
 10
-48.4019071816
 20
25.552013795
 11
-48.4019071816
 21
-25.552013795
  0
LINE
  5
24D
100
AcDbEntity
  8
RACCORDO
100
AcDbLine
 62
253
  6
CONTINUOUS
 10
-48.101952873
 20
25.552013795
 11
-48.101952873
 21
-25.552013795
  0
LINE
  5
24E
100
AcDbEntity
  8
RACCORDO
100
AcDbLine
 62
253
  6
CONTINUOUS
 10
-47.7020137946
 20
26.2519071816
 11
-47.702013795
 21
25.951952873
  0
LINE
  5
24F
100
AcDbEntity
  8
RACCORDO
100
AcDbLine
 62
253
  6
CONTINUOUS
 10
-47.7020137949
 20
-26.2519071816
 11
-47.702013795
 21
-25.951952873
  0
LINE
  5
250
100
AcDbEntity
  8
SMUSSO
100
AcDbLine
 62
7
  6
CONTINUOUS
 10
-64.25
 20
-47.0
 11
64.25
 21
-47.0
  0
LINE
  5
251
100
AcDbEntity
  8
RACCORDO
100
AcDbLine
 62
253
  6
CONTINUOUS
 10
-45.7014857566
 20
-22.828226657
 11
-45.7014857566
 21
22.828226657
  0
LINE
  5
252
100
AcDbEntity
  8
RACCORDO
100
AcDbLine
 62
253
  6
CONTINUOUS
 10
-45.4060434307
 20
-22.8282268317
 11
-45.4060434307
 21
22.828226832
  0
LINE
  5
253
100
AcDbEntity
  8
RACCORDO
100
AcDbLine
 62
253
  6
CONTINUOUS
 10
-45.156833204
 20
22.2993589244
 11
-45.156833204
 21
-22.2993589244
  0
LINE
  5
254
100
AcDbEntity
  8
RACCORDO
100
AcDbLine
 62
253
  6
CONTINUOUS
 10
-45.1493132329
 20
22.2993589244
 11
-45.1493132329
 21
-22.2993589244
  0
LINE
  5
255
100
AcDbEntity
  8
RACCORDO
100
AcDbLine
 62
7
  6
CONTINUOUS
 10
-45.1412724675
 20
-22.291318159
 11
-45.1412724675
 21
22.291318159
  0
LINE
  5
256
100
AcDbEntity
  8
RACCORDO
100
AcDbLine
 62
253
  6
CONTINUOUS
 10
-45.128414217
 20
23.4288116597
 11
-45.128414217
 21
23.1469038735
  0
LINE
  5
257
100
AcDbEntity
  8
RACCORDO
100
AcDbLine
 62
253
  6
CONTINUOUS
 10
-45.128414217
 20
-23.4288116597
 11
-45.128414217
 21
-23.1469038735
  0
LINE
  5
258
100
AcDbEntity
  8
RACCORDO
100
AcDbLine
 62
253
  6
CONTINUOUS
 10
-44.8485854258
 20
-22.5985397344
 11
-44.8485854258
 21
-22.6286172716
  0
LINE
  5
259
100
AcDbEntity
  8
RACCORDO
100
AcDbLine
 62
253
  6
CONTINUOUS
 10
-44.8485854258
 20
22.5985397344
 11
-44.8485854263
 21
22.6286172716
  0
LINE
  5
25A
100
AcDbEntity
  8
RACCORDO
100
AcDbLine
 62
253
  6
CONTINUOUS
 10
-45.1284046363
 20
-23.1469038735
 11
-44.8771545714
 21
-22.6280811924
  0
LINE
  5
25B
100
AcDbEntity
  8
RACCORDO
100
AcDbLine
 62
253
  6
CONTINUOUS
 10
-45.4060434307
 20
-22.8282268317
 11
-45.1566937466
 21
-22.3135245816
  0
LINE
  5
25C
100
AcDbEntity
  8
RACCORDO
100
AcDbLine
 62
253
  6
CONTINUOUS
 10
-45.1566937466
 20
22.3135245816
 11
-45.4060434307
 21
22.828226832
  0
LINE
  5
25D
100
AcDbEntity
  8
RACCORDO
100
AcDbLine
 62
253
  6
CONTINUOUS
 10
-44.8771545981
 20
22.6280812031
 11
-45.1284055962
 21
23.1469038735
  0
LINE
  5
25E
100
AcDbEntity
  8
RACCORDO
100
AcDbLine
 62
7
  6
CONTINUOUS
 10
47.7090872108
 20
-26.2589805974
 11
-47.7090872108
 21
-26.2589805974
  0
LINE
  5
25F
100
AcDbEntity
  8
RACCORDO
100
AcDbLine
 62
253
  6
CONTINUOUS
 10
-47.702013795
 20
-26.2519071816
 11
47.702013795
 21
-26.2519071816
  0
LINE
  5
260
100
AcDbEntity
  8
RACCORDO
100
AcDbLine
 62
253
  6
CONTINUOUS
 10
-47.702013795
 20
-25.951952873
 11
47.702013795
 21
-25.951952873
  0
LINE
  5
261
100
AcDbEntity
  8
0
100
AcDbLine
 62
7
  6
CONTINUOUS
 10
-3.446727
 20
-25.765174
 11
-3.060461
 21
-25.765174
  0
LINE
  5
262
100
AcDbEntity
  8
0
100
AcDbLine
 62
7
  6
CONTINUOUS
 10
-2.222834
 20
-25.765174
 11
-1.784518
 21
-25.765174
  0
LINE
  5
263
100
AcDbEntity
  8
0
100
AcDbLine
 62
7
  6
CONTINUOUS
 10
-1.548559
 20
-25.765174
 11
-1.129234
 21
-25.765174
  0
LINE
  5
264
100
AcDbEntity
  8
0
100
AcDbLine
 62
7
  6
CONTINUOUS
 10
-0.520448
 20
-25.765174
 11
-0.458975
 21
-25.765174
  0
LINE
  5
265
100
AcDbEntity
  8
0
100
AcDbLine
 62
7
  6
CONTINUOUS
 10
0.152236
 20
-25.765174
 11
0.581025
 21
-25.765174
  0
LINE
  5
266
100
AcDbEntity
  8
0
100
AcDbLine
 62
7
  6
CONTINUOUS
 10
0.649852
 20
-25.765174
 11
1.083412
 21
-25.765174
  0
LINE
  5
267
100
AcDbEntity
  8
0
100
AcDbLine
 62
7
  6
CONTINUOUS
 10
1.91482
 20
-25.765174
 11
2.376786
 21
-25.765174
  0
LINE
  5
268
100
AcDbEntity
  8
0
100
AcDbLine
 62
7
  6
CONTINUOUS
 10
2.505496876
 20
-25.7651743977
 11
2.9420487595
 21
-25.7651743977
  0
LINE
  5
269
100
AcDbEntity
  8
0
100
AcDbLine
 62
7
  6
CONTINUOUS
 10
3.613268538
 20
-25.7651743977
 11
4.0348771327
 21
-25.7651743977
  0
LINE
  5
26A
100
AcDbEntity
  8
RACCORDO
100
AcDbLine
 62
253
  6
CONTINUOUS
 10
-48.4019071816
 20
-25.5520137946
 11
-48.101952873
 21
-25.552013795
  0
LINE
  5
26B
100
AcDbEntity
  8
RACCORDO
100
AcDbLine
 62
253
  6
CONTINUOUS
 10
48.4019071816
 20
-25.5520137949
 11
48.101952873
 21
-25.552013795
  0
LINE
  5
26C
100
AcDbEntity
  8
0
100
AcDbLine
 62
7
  6
CONTINUOUS
 10
1.20436
 20
-25.345975
 11
1.801273
 21
-25.345975
  0
LINE
  5
26D
100
AcDbEntity
  8
0
100
AcDbLine
 62
7
  6
CONTINUOUS
 10
1.713676
 20
-25.0216
 11
1.29402
 21
-25.0216
  0
LINE
  5
26E
100
AcDbEntity
  8
0
100
AcDbLine
 62
7
  6
CONTINUOUS
 10
2.9420487595
 20
-24.943419487
 11
3.1770630743
 21
-24.943419487
  0
LINE
  5
26F
100
AcDbEntity
  8
0
100
AcDbLine
 62
7
  6
CONTINUOUS
 10
3.1780078554
 20
-24.5995191431
 11
2.927514876
 21
-24.5995191431
  0
LINE
  5
270
100
AcDbEntity
  8
0
100
AcDbLine
 62
7
  6
CONTINUOUS
 10
1.732508
 20
-23.665351
 11
1.308491
 21
-23.665351
  0
LINE
  5
271
100
AcDbEntity
  8
0
100
AcDbLine
 62
7
  6
CONTINUOUS
 10
0.384668
 20
-23.665351
 11
-0.049002
 21
-23.665351
  0
LINE
  5
272
100
AcDbEntity
  8
0
100
AcDbLine
 62
7
  6
CONTINUOUS
 10
-0.921004
 20
-23.665351
 11
-1.358957
 21
-23.665351
  0
LINE
  5
273
100
AcDbEntity
  8
0
100
AcDbLine
 62
7
  6
CONTINUOUS
 10
-2.385493
 20
-23.665351
 11
-2.82351
 21
-23.665351
  0
LINE
  5
274
100
AcDbEntity
  8
0
100
AcDbLine
 62
7
  6
CONTINUOUS
 10
-3.636266
 20
-23.665351
 11
-4.112412
 21
-23.665351
  0
LINE
  5
275
100
AcDbEntity
  8
0
100
AcDbLine
 62
7
  6
CONTINUOUS
 10
-1.784518
 20
-23.665225
 11
-2.222834
 21
-23.665225
  0
LINE
  5
276
100
AcDbEntity
  8
RACCORDO
100
AcDbLine
 62
253
  6
CONTINUOUS
 10
45.128414217
 20
-23.4288116597
 11
-45.128414217
 21
-23.4288116597
  0
LINE
  5
277
100
AcDbEntity
  8
RACCORDO
100
AcDbLine
 62
253
  6
CONTINUOUS
 10
45.1284192061
 20
-23.1469038735
 11
-45.1284046363
 21
-23.1469038735
  0
LINE
  5
278
100
AcDbEntity
  8
RACCORDO
100
AcDbLine
 62
253
  6
CONTINUOUS
 10
-45.7014857566
 20
-22.828226657
 11
-45.4060434307
 21
-22.828226657
  0
LINE
  5
279
100
AcDbEntity
  8
RACCORDO
100
AcDbLine
 62
253
  6
CONTINUOUS
 10
45.7014857566
 20
-22.828226657
 11
45.4060434307
 21
-22.828226657
  0
LINE
  5
27A
100
AcDbEntity
  8
RACCORDO
100
AcDbLine
 62
253
  6
CONTINUOUS
 10
-44.8485854258
 20
-22.6286172716
 11
44.8485854258
 21
-22.6286172716
  0
LINE
  5
27B
100
AcDbEntity
  8
RACCORDO
100
AcDbLine
 62
253
  6
CONTINUOUS
 10
-44.8485854258
 20
-22.5985397344
 11
44.8485854258
 21
-22.5985397344
  0
LINE
  5
27C
100
AcDbEntity
  8
RACCORDO
100
AcDbLine
 62
7
  6
CONTINUOUS
 10
44.841318159
 20
-22.5912724675
 11
-44.841318159
 21
-22.5912724675
  0
LINE
  5
27D
100
AcDbEntity
  8
RACCORDO
100
AcDbLine
 62
253
  6
CONTINUOUS
 10
45.1493132329
 20
-22.2993589244
 11
45.156833204
 21
-22.2993589244
  0
LINE
  5
27E
100
AcDbEntity
  8
RACCORDO
100
AcDbLine
 62
253
  6
CONTINUOUS
 10
-45.1493132329
 20
-22.2993589244
 11
-45.156833204
 21
-22.2993589243
  0
LINE
  5
27F
100
AcDbEntity
  8
RACCORDO
100
AcDbLine
 62
253
  6
CONTINUOUS
 10
-45.1493132329
 20
-22.2993589244
 11
-45.1412724675
 21
-22.291318159
  0
LINE
  5
280
100
AcDbEntity
  8
RACCORDO
100
AcDbLine
 62
253
  6
CONTINUOUS
 10
-48.4019071816
 20
-25.552013795
 11
-48.4089805974
 21
-25.5590872108
  0
LINE
  5
281
100
AcDbEntity
  8
RACCORDO
100
AcDbLine
 62
253
  6
CONTINUOUS
 10
-44.8485854258
 20
-22.5985397344
 11
-44.841318159
 21
-22.5912724675
  0
LINE
  5
282
100
AcDbEntity
  8
RACCORDO
100
AcDbLine
 62
253
  6
CONTINUOUS
 10
-47.702013795
 20
-26.2519071816
 11
-47.7090872108
 21
-26.2589805974
  0
LINE
  5
283
100
AcDbEntity
  8
SMUSSO
100
AcDbLine
 62
7
  6
CONTINUOUS
 10
-69.9571067812
 20
-52.7071067812
 11
-64.25
 21
-47.0
  0
LINE
  5
284
100
AcDbEntity
  8
RACCORDO
100
AcDbLine
 62
253
  6
CONTINUOUS
 10
-45.1412724675
 20
22.291318159
 11
-45.1493132329
 21
22.2993589244
  0
LINE
  5
285
100
AcDbEntity
  8
RACCORDO
100
AcDbLine
 62
253
  6
CONTINUOUS
 10
-48.4019071816
 20
25.552013795
 11
-48.4089805974
 21
25.5590872108
  0
LINE
  5
286
100
AcDbEntity
  8
RACCORDO
100
AcDbLine
 62
253
  6
CONTINUOUS
 10
-44.841318159
 20
22.5912724675
 11
-44.8485854258
 21
22.5985397344
  0
LINE
  5
287
100
AcDbEntity
  8
RACCORDO
100
AcDbLine
 62
253
  6
CONTINUOUS
 10
-47.702013795
 20
26.2519071816
 11
-47.7090872108
 21
26.2589805974
  0
LINE
  5
288
100
AcDbEntity
  8
SMUSSO
100
AcDbLine
 62
7
  6
CONTINUOUS
 10
-69.9571067812
 20
52.7071067812
 11
-64.25
 21
47.0
  0
LINE
  5
289
100
AcDbEntity
  8
0
100
AcDbLine
 62
7
  6
CONTINUOUS
 10
-4.112412
 20
-23.665351
 11
-3.446727
 21
-25.765174
  0
LINE
  5
28A
100
AcDbEntity
  8
0
100
AcDbLine
 62
7
  6
CONTINUOUS
 10
-1.034645
 20
-24.394029
 11
-0.520448
 21
-25.765174
  0
LINE
  5
28B
100
AcDbEntity
  8
0
100
AcDbLine
 62
7
  6
CONTINUOUS
 10
-0.487318
 20
-24.831179
 11
-0.921004
 21
-23.665351
  0
LINE
  5
28C
100
AcDbEntity
  8
0
100
AcDbLine
 62
7
  6
CONTINUOUS
 10
2.376786
 20
-25.765174
 11
1.732508
 21
-23.665351
  0
LINE
  5
28D
100
AcDbEntity
  8
0
100
AcDbLine
 62
7
  6
CONTINUOUS
 10
-3.236001
 20
-25.110724
 11
-3.636266
 21
-23.665351
  0
LINE
  5
28E
100
AcDbEntity
  8
0
100
AcDbLine
 62
7
  6
CONTINUOUS
 10
0.581025
 20
-25.765174
 11
0.384668
 21
-23.665351
  0
LINE
  5
28F
100
AcDbEntity
  8
0
100
AcDbLine
 62
7
  6
CONTINUOUS
 10
0.062183
 20
-24.399745
 11
0.152236
 21
-25.765174
  0
LINE
  5
290
100
AcDbEntity
  8
0
100
AcDbLine
 62
7
  6
CONTINUOUS
 10
-2.222834
 20
-23.665225
 11
-2.222834
 21
-25.765174
  0
LINE
  5
291
100
AcDbEntity
  8
0
100
AcDbLine
 62
7
  6
CONTINUOUS
 10
-1.784518
 20
-25.765174
 11
-1.784518
 21
-23.665225
  0
LINE
  5
292
100
AcDbEntity
  8
0
100
AcDbLine
 62
7
  6
CONTINUOUS
 10
-1.129234
 20
-25.765174
 11
-1.034645
 21
-24.394029
  0
LINE
  5
293
100
AcDbEntity
  8
0
100
AcDbLine
 62
7
  6
CONTINUOUS
 10
-1.358957
 20
-23.665351
 11
-1.548559
 21
-25.765174
  0
LINE
  5
294
100
AcDbEntity
  8
0
100
AcDbLine
 62
7
  6
CONTINUOUS
 10
1.801273
 20
-25.345975
 11
1.91482
 21
-25.765174
  0
LINE
  5
295
100
AcDbEntity
  8
0
100
AcDbLine
 62
7
  6
CONTINUOUS
 10
1.512264
 20
-24.242329
 11
1.713676
 21
-25.0216
  0
LINE
  5
296
100
AcDbEntity
  8
0
100
AcDbLine
 62
7
  6
CONTINUOUS
 10
2.505496876
 20
-23.6898838377
 11
2.505496876
 21
-25.7651743977
  0
LINE
  5
297
100
AcDbEntity
  8
0
100
AcDbLine
 62
7
  6
CONTINUOUS
 10
2.927514876
 20
-24.5995191431
 11
2.927514876
 21
-24.0230766618
  0
LINE
  5
298
100
AcDbEntity
  8
0
100
AcDbLine
 62
7
  6
CONTINUOUS
 10
2.9420487595
 20
-25.7651743977
 11
2.9420487595
 21
-24.943419487
  0
LINE
  5
299
100
AcDbEntity
  8
0
100
AcDbLine
 62
7
  6
CONTINUOUS
 10
3.6323846102
 20
-24.784995432
 11
3.6323846102
 21
-24.7725873061
  0
LINE
  5
29A
100
AcDbEntity
  8
0
100
AcDbLine
 62
7
  6
CONTINUOUS
 10
-2.82351
 20
-23.665351
 11
-3.236001
 21
-25.110724
  0
LINE
  5
29B
100
AcDbEntity
  8
0
100
AcDbLine
 62
7
  6
CONTINUOUS
 10
-3.060461
 20
-25.765174
 11
-2.385493
 21
-23.665351
  0
LINE
  5
29C
100
AcDbEntity
  8
0
100
AcDbLine
 62
7
  6
CONTINUOUS
 10
1.29402
 20
-25.0216
 11
1.512264
 21
-24.242329
  0
LINE
  5
29D
100
AcDbEntity
  8
0
100
AcDbLine
 62
7
  6
CONTINUOUS
 10
1.083412
 20
-25.765174
 11
1.20436
 21
-25.345975
  0
LINE
  5
29E
100
AcDbEntity
  8
0
100
AcDbLine
 62
7
  6
CONTINUOUS
 10
1.308491
 20
-23.665351
 11
0.649852
 21
-25.765174
  0
LINE
  5
29F
100
AcDbEntity
  8
0
100
AcDbLine
 62
7
  6
CONTINUOUS
 10
-0.049002
 20
-23.665351
 11
-0.487318
 21
-24.831179
  0
LINE
  5
2A0
100
AcDbEntity
  8
0
100
AcDbLine
 62
7
  6
CONTINUOUS
 10
-0.458975
 20
-25.765174
 11
0.062183
 21
-24.399745
  0
LINE
  5
2A1
100
AcDbEntity
  8
SMUSSO
100
AcDbLine
 62
7
  6
CONTINUOUS
 10
69.9571067812
 20
52.7071067812
 11
64.25
 21
47.0
  0
LINE
  5
2A2
100
AcDbEntity
  8
SMUSSO
100
AcDbLine
 62
7
  6
CONTINUOUS
 10
69.9571067812
 20
-52.7071067812
 11
64.25
 21
-47.0
  0
LINE
  5
2A3
100
AcDbEntity
  8
RACCORDO
100
AcDbLine
 62
253
  6
CONTINUOUS
 10
47.702013795
 20
26.2519071816
 11
47.7090872108
 21
26.2589805974
  0
LINE
  5
2A4
100
AcDbEntity
  8
RACCORDO
100
AcDbLine
 62
253
  6
CONTINUOUS
 10
44.8485854258
 20
22.5985397344
 11
44.841318159
 21
22.5912724675
  0
LINE
  5
2A5
100
AcDbEntity
  8
RACCORDO
100
AcDbLine
 62
253
  6
CONTINUOUS
 10
48.4019071816
 20
25.552013795
 11
48.4089805974
 21
25.5590872108
  0
LINE
  5
2A6
100
AcDbEntity
  8
RACCORDO
100
AcDbLine
 62
253
  6
CONTINUOUS
 10
45.1493132329
 20
22.2993589244
 11
45.1412724675
 21
22.291318159
  0
LINE
  5
2A7
100
AcDbEntity
  8
RACCORDO
100
AcDbLine
 62
253
  6
CONTINUOUS
 10
47.702013795
 20
-26.2519071816
 11
47.7090872108
 21
-26.2589805974
  0
LINE
  5
2A8
100
AcDbEntity
  8
RACCORDO
100
AcDbLine
 62
253
  6
CONTINUOUS
 10
44.8485854258
 20
-22.5985397344
 11
44.841318159
 21
-22.5912724675
  0
LINE
  5
2A9
100
AcDbEntity
  8
RACCORDO
100
AcDbLine
 62
253
  6
CONTINUOUS
 10
48.4019071816
 20
-25.552013795
 11
48.4089805974
 21
-25.5590872108
  0
LINE
  5
2AA
100
AcDbEntity
  8
RACCORDO
100
AcDbLine
 62
253
  6
CONTINUOUS
 10
45.1493132329
 20
-22.2993589244
 11
45.1412724675
 21
-22.291318159
  0
LINE
  5
2AB
100
AcDbEntity
  8
RACCORDO
100
AcDbLine
 62
253
  6
CONTINUOUS
 10
45.1493132329
 20
22.2993589244
 11
45.156833204
 21
22.2993589243
  0
LINE
  5
2AC
100
AcDbEntity
  8
RACCORDO
100
AcDbLine
 62
253
  6
CONTINUOUS
 10
-45.1493132329
 20
22.2993589244
 11
-45.156833204
 21
22.2993589244
  0
LINE
  5
2AD
100
AcDbEntity
  8
RACCORDO
100
AcDbLine
 62
7
  6
CONTINUOUS
 10
-44.841318159
 20
22.5912724675
 11
44.841318159
 21
22.5912724675
  0
LINE
  5
2AE
100
AcDbEntity
  8
RACCORDO
100
AcDbLine
 62
253
  6
CONTINUOUS
 10
44.8485854258
 20
22.5985397344
 11
-44.8485854258
 21
22.5985397344
  0
LINE
  5
2AF
100
AcDbEntity
  8
RACCORDO
100
AcDbLine
 62
253
  6
CONTINUOUS
 10
44.8485854258
 20
22.6286172716
 11
-44.8485854258
 21
22.6286172716
  0
LINE
  5
2B0
100
AcDbEntity
  8
RACCORDO
100
AcDbLine
 62
253
  6
CONTINUOUS
 10
-45.7014857566
 20
22.828226657
 11
-45.4060434307
 21
22.828226657
  0
LINE
  5
2B1
100
AcDbEntity
  8
RACCORDO
100
AcDbLine
 62
253
  6
CONTINUOUS
 10
45.7014857566
 20
22.828226657
 11
45.4060434307
 21
22.828226657
  0
LINE
  5
2B2
100
AcDbEntity
  8
RACCORDO
100
AcDbLine
 62
253
  6
CONTINUOUS
 10
-45.1284055962
 20
23.1469038735
 11
45.1284046363
 21
23.1469038735
  0
LINE
  5
2B3
100
AcDbEntity
  8
RACCORDO
100
AcDbLine
 62
253
  6
CONTINUOUS
 10
-45.128414217
 20
23.4288116597
 11
45.128414217
 21
23.4288116597
  0
LINE
  5
2B4
100
AcDbEntity
  8
RACCORDO
100
AcDbLine
 62
253
  6
CONTINUOUS
 10
-48.4019071816
 20
25.5520137949
 11
-48.101952873
 21
25.552013795
  0
LINE
  5
2B5
100
AcDbEntity
  8
RACCORDO
100
AcDbLine
 62
253
  6
CONTINUOUS
 10
48.4019071816
 20
25.5520137946
 11
48.101952873
 21
25.552013795
  0
LINE
  5
2B6
100
AcDbEntity
  8
RACCORDO
100
AcDbLine
 62
253
  6
CONTINUOUS
 10
47.702013795
 20
25.951952873
 11
-47.702013795
 21
25.951952873
  0
LINE
  5
2B7
100
AcDbEntity
  8
RACCORDO
100
AcDbLine
 62
253
  6
CONTINUOUS
 10
47.702013795
 20
26.2519071816
 11
-47.702013795
 21
26.2519071816
  0
LINE
  5
2B8
100
AcDbEntity
  8
RACCORDO
100
AcDbLine
 62
7
  6
CONTINUOUS
 10
-47.7090872108
 20
26.2589805974
 11
47.7090872108
 21
26.2589805974
  0
LINE
  5
2B9
100
AcDbEntity
  8
RACCORDO
100
AcDbLine
 62
253
  6
CONTINUOUS
 10
45.1284046363
 20
23.1469038735
 11
44.8771545714
 21
22.6280811924
  0
LINE
  5
2BA
100
AcDbEntity
  8
RACCORDO
100
AcDbLine
 62
253
  6
CONTINUOUS
 10
45.4060434307
 20
22.8282268317
 11
45.1566937466
 21
22.3135245816
  0
LINE
  5
2BB
100
AcDbEntity
  8
RACCORDO
100
AcDbLine
 62
253
  6
CONTINUOUS
 10
45.1284192061
 20
-23.1469038735
 11
44.8770694484
 21
-22.6280835891
  0
LINE
  5
2BC
100
AcDbEntity
  8
RACCORDO
100
AcDbLine
 62
253
  6
CONTINUOUS
 10
45.4060434307
 20
-22.8282382755
 11
45.1566937466
 21
-22.3135245829
  0
LINE
  5
2BD
100
AcDbEntity
  8
RACCORDO
100
AcDbLine
 62
253
  6
CONTINUOUS
 10
44.8485854258
 20
-22.5985397344
 11
44.8485854262
 21
-22.6286172716
  0
LINE
  5
2BE
100
AcDbEntity
  8
RACCORDO
100
AcDbLine
 62
253
  6
CONTINUOUS
 10
44.8485854258
 20
22.5985397344
 11
44.8485854258
 21
22.6286172716
  0
LINE
  5
2BF
100
AcDbEntity
  8
RACCORDO
100
AcDbLine
 62
253
  6
CONTINUOUS
 10
45.128414217
 20
23.4288116597
 11
45.128414217
 21
23.1469038735
  0
LINE
  5
2C0
100
AcDbEntity
  8
RACCORDO
100
AcDbLine
 62
253
  6
CONTINUOUS
 10
45.128414217
 20
-23.4288116597
 11
45.128414217
 21
-23.1469038735
  0
LINE
  5
2C1
100
AcDbEntity
  8
RACCORDO
100
AcDbLine
 62
7
  6
CONTINUOUS
 10
45.1412724675
 20
22.291318159
 11
45.1412724675
 21
-22.291318159
  0
LINE
  5
2C2
100
AcDbEntity
  8
RACCORDO
100
AcDbLine
 62
253
  6
CONTINUOUS
 10
45.1493132329
 20
-22.2993589244
 11
45.1493132329
 21
22.2993589244
  0
LINE
  5
2C3
100
AcDbEntity
  8
RACCORDO
100
AcDbLine
 62
253
  6
CONTINUOUS
 10
45.156833204
 20
-22.2993589244
 11
45.156833204
 21
22.2993589244
  0
LINE
  5
2C4
100
AcDbEntity
  8
RACCORDO
100
AcDbLine
 62
253
  6
CONTINUOUS
 10
45.4060434307
 20
22.8282268317
 11
45.4060434307
 21
-22.8282382755
  0
LINE
  5
2C5
100
AcDbEntity
  8
RACCORDO
100
AcDbLine
 62
253
  6
CONTINUOUS
 10
45.7014857566
 20
22.828226657
 11
45.7014857566
 21
-22.828226657
  0
LINE
  5
2C6
100
AcDbEntity
  8
RACCORDO
100
AcDbLine
 62
253
  6
CONTINUOUS
 10
47.7020137949
 20
26.2519071816
 11
47.702013795
 21
25.951952873
  0
LINE
  5
2C7
100
AcDbEntity
  8
RACCORDO
100
AcDbLine
 62
253
  6
CONTINUOUS
 10
47.7020137946
 20
-26.2519071816
 11
47.702013795
 21
-25.951952873
  0
LINE
  5
2C8
100
AcDbEntity
  8
SMUSSO
100
AcDbLine
 62
7
  6
CONTINUOUS
 10
64.25
 20
47.0
 11
-64.25
 21
47.0
  0
LINE
  5
2C9
100
AcDbEntity
  8
RACCORDO
100
AcDbLine
 62
253
  6
CONTINUOUS
 10
48.101952873
 20
-25.552013795
 11
48.101952873
 21
25.552013795
  0
LINE
  5
2CA
100
AcDbEntity
  8
RACCORDO
100
AcDbLine
 62
253
  6
CONTINUOUS
 10
48.4019071816
 20
-25.552013795
 11
48.4019071816
 21
25.552013795
  0
LINE
  5
2CB
100
AcDbEntity
  8
RACCORDO
100
AcDbLine
 62
7
  6
CONTINUOUS
 10
48.4089805974
 20
25.5590872108
 11
48.4089805974
 21
-25.5590872108
  0
LINE
  5
2CC
100
AcDbEntity
  8
SMUSSO
100
AcDbLine
 62
7
  6
CONTINUOUS
 10
69.25
 20
53.0
 11
-69.25
 21
53.0
  0
LINE
  5
2CD
100
AcDbEntity
  8
SMUSSO
100
AcDbLine
 62
7
  6
CONTINUOUS
 10
64.25
 20
-47.0
 11
64.25
 21
47.0
  0
LINE
  5
2CE
100
AcDbEntity
  8
SMUSSO
100
AcDbLine
 62
7
  6
CONTINUOUS
 10
70.25
 20
-52.0
 11
70.25
 21
52.0
  0
LINE
  5
2CF
100
AcDbEntity
  8
SMUSSO
100
AcDbLine
 62
7
  6
CONTINUOUS
 10
-104.4758441279
 20
-53.0
 11
-102.9758441279
 21
-53.0
  0
LINE
  5
2D0
100
AcDbEntity
  8
DRAFT
100
AcDbLine
 62
7
  6
CONTINUOUS
 10
-101.9675922466
 20
-52.9082518813
 11
-99.5758441279
 21
-52.95
  0
LINE
  5
2D1
100
AcDbEntity
  8
SMUSSO
100
AcDbLine
 62
253
  6
CONTINUOUS
 10
-102.4758441279
 20
-52.0
 11
-104.4758441279
 21
-52.0
  0
LINE
  5
2D2
100
AcDbEntity
  8
DRAFT
100
AcDbLine
 62
253
  6
CONTINUOUS
 10
-98.5758441279
 20
-51.45
 11
-102.4258441279
 21
-51.45
  0
LINE
  5
2D3
100
AcDbEntity
  8
SMUSSO
100
AcDbLine
 62
7
  6
CONTINUOUS
 10
-102.425844128
 20
52.4499999999
 11
-101.9675922466
 21
52.9082518813
  0
LINE
  5
2D4
100
AcDbEntity
  8
DRAFT
100
AcDbLine
 62
7
  6
CONTINUOUS
 10
-102.4258441279
 20
52.45
 11
-101.9675922466
 21
52.9082518813
  0
LINE
  5
2D5
100
AcDbEntity
  8
DRAFT
100
AcDbLine
 62
7
  6
CONTINUOUS
 10
-102.4258441279
 20
-52.45
 11
-101.9675922466
 21
-52.9082518813
  0
LINE
  5
2D6
100
AcDbEntity
  8
ASSI
100
AcDbLine
 62
7
  6
CONTINUOUS
 10
-96.8758441279
 20
-26.35
 11
-98.5758441279
 21
-26.3598903107
  0
LINE
  5
2D7
100
AcDbEntity
  8
ASSI
100
AcDbLine
 62
7
  6
CONTINUOUS
 10
-96.8758441279
 20
-27.25
 11
-98.5758441279
 21
-27.2529670627
  0
LINE
  5
2D8
100
AcDbEntity
  8
DRAFT
100
AcDbLine
 62
7
  6
CONTINUOUS
 10
-98.5758441279
 20
-27.1459857386
 11
-96.8758441279
 21
-27.1430186759
  0
LINE
  5
2D9
100
AcDbEntity
  8
DRAFT
100
AcDbLine
 62
253
  6
CONTINUOUS
 10
-98.5758441279
 20
-26.8937435176
 11
-96.8758441279
 21
-26.8929755853
  0
LINE
  5
2DA
100
AcDbEntity
  8
0
100
AcDbLine
 62
7
  6
CONTINUOUS
 10
-107.1758441279
 20
-25.7651743977
 11
-107.3758441279
 21
-25.7651743977
  0
LINE
  5
2DB
100
AcDbEntity
  8
RACCORDO
100
AcDbLine
 62
253
  6
CONTINUOUS
 10
-106.8810798499
 20
-25.5520137949
 11
-107.1758441279
 21
-25.552013795
  0
LINE
  5
2DC
100
AcDbEntity
  8
ASSI
100
AcDbLine
 62
7
  6
CONTINUOUS
 10
-97.0758441279
 20
-25.2
 11
-98.5758441279
 21
-25.2
  0
LINE
  5
2DD
100
AcDbEntity
  8
0
100
AcDbLine
 62
253
  6
CONTINUOUS
 10
-107.1758441279
 20
-25.1968412881
 11
-107.3758441279
 21
-25.1968412881
  0
LINE
  5
2DE
100
AcDbEntity
  8
ASSI
100
AcDbLine
 62
7
  6
CONTINUOUS
 10
-98.4258441279
 20
-25.05
 11
-98.2258441279
 21
-25.05
  0
LINE
  5
2DF
100
AcDbEntity
  8
ASSI
100
AcDbLine
 62
7
  6
CONTINUOUS
 10
-97.9258441279
 20
-25.05
 11
-97.7258441279
 21
-25.05
  0
LINE
  5
2E0
100
AcDbEntity
  8
ASSI
100
AcDbLine
 62
7
  6
CONTINUOUS
 10
-97.4258441279
 20
-25.05
 11
-97.2258441279
 21
-25.05
  0
LINE
  5
2E1
100
AcDbEntity
  8
0
100
AcDbLine
 62
7
  6
CONTINUOUS
 10
-107.1758441279
 20
-24.784995432
 11
-107.3758441279
 21
-24.784995432
  0
LINE
  5
2E2
100
AcDbEntity
  8
0
100
AcDbLine
 62
7
  6
CONTINUOUS
 10
-107.1758441279
 20
-24.7725873061
 11
-107.3758441279
 21
-24.7725873061
  0
LINE
  5
2E3
100
AcDbEntity
  8
RACCORDO
100
AcDbLine
 62
7
  6
CONTINUOUS
 10
-106.8810798499
 20
-26.2519071816
 11
-106.4758441279
 21
-26.2589805974
  0
LINE
  5
2E4
100
AcDbEntity
  8
DRAFT
100
AcDbLine
 62
7
  6
CONTINUOUS
 10
-102.4258441279
 20
-25.8473817403
 11
-102.4758441279
 21
-25.846508987
  0
LINE
  5
2E5
100
AcDbEntity
  8
RACCORDO
100
AcDbLine
 62
7
  6
CONTINUOUS
 10
-102.4758441279
 20
-25.696508987
 11
-102.4258441279
 21
-25.6973817403
  0
LINE
  5
2E6
100
AcDbEntity
  8
RACCORDO
100
AcDbLine
 62
253
  6
CONTINUOUS
 10
-106.8810798499
 20
-25.552013795
 11
-106.4758441279
 21
-25.5590872108
  0
LINE
  5
2E7
100
AcDbEntity
  8
RACCORDO
100
AcDbLine
 62
253
  6
CONTINUOUS
 10
-102.4758441279
 20
-24.3967069833
 11
-102.4258441279
 21
-24.3975797366
  0
LINE
  5
2E8
100
AcDbEntity
  8
ASSI
100
AcDbLine
 62
7
  6
CONTINUOUS
 10
-97.0653769367
 20
-25.7916264167
 11
-98.5758441279
 21
-25.7248937867
  0
LINE
  5
2E9
100
AcDbEntity
  8
0
100
AcDbLine
 62
253
  6
CONTINUOUS
 10
-107.1758441279
 20
-23.7119917169
 11
-107.3758441279
 21
-23.7119917169
  0
LINE
  5
2EA
100
AcDbEntity
  8
0
100
AcDbLine
 62
7
  6
CONTINUOUS
 10
-107.1758441279
 20
-23.6407136252
 11
-107.3758441279
 21
-23.6407136252
  0
LINE
  5
2EB
100
AcDbEntity
  8
SMUSSO
100
AcDbLine
 62
7
  6
CONTINUOUS
 10
-104.4758441279
 20
53.0
 11
-106.4758441279
 21
47.0
  0
LINE
  5
2EC
100
AcDbEntity
  8
RACCORDO
100
AcDbLine
 62
7
  6
CONTINUOUS
 10
-102.4258441279
 20
-19.2405833099
 11
-102.4758441279
 21
-19.2407558157
  0
LINE
  5
2ED
100
AcDbEntity
  8
RACCORDO
100
AcDbLine
 62
7
  6
CONTINUOUS
 10
-102.4258441279
 20
-20.7594166901
 11
-102.4758441279
 21
-20.7592441843
  0
LINE
  5
2EE
100
AcDbEntity
  8
SMUSSO
100
AcDbLine
 62
7
  6
CONTINUOUS
 10
-104.4758441279
 20
-53.0
 11
-106.4758441279
 21
-47.0
  0
LINE
  5
2EF
100
AcDbEntity
  8
ASSI
100
AcDbLine
 62
7
  6
CONTINUOUS
 10
-98.2258441279
 20
25.05
 11
-98.0758441279
 21
25.2
  0
LINE
  5
2F0
100
AcDbEntity
  8
ASSI
100
AcDbLine
 62
7
  6
CONTINUOUS
 10
-97.7258441279
 20
25.05
 11
-97.5758441279
 21
25.2
  0
LINE
  5
2F1
100
AcDbEntity
  8
ASSI
100
AcDbLine
 62
7
  6
CONTINUOUS
 10
-97.2258441279
 20
25.05
 11
-97.0758441279
 21
25.2
  0
LINE
  5
2F2
100
AcDbEntity
  8
RACCORDO
100
AcDbLine
 62
7
  6
CONTINUOUS
 10
-102.4258441279
 20
-15.5270553506
 11
-102.4758441279
 21
-15.5279281039
  0
LINE
  5
2F3
100
AcDbEntity
  8
RACCORDO
100
AcDbLine
 62
7
  6
CONTINUOUS
 10
-102.4258441279
 20
-14.4729446494
 11
-102.4758441279
 21
-14.4720718961
  0
LINE
  5
2F4
100
AcDbEntity
  8
ASSI
100
AcDbLine
 62
7
  6
CONTINUOUS
 10
-98.2258441279
 20
-25.05
 11
-98.0758441279
 21
-25.2
  0
LINE
  5
2F5
100
AcDbEntity
  8
ASSI
100
AcDbLine
 62
7
  6
CONTINUOUS
 10
-97.7258441279
 20
-25.05
 11
-97.5758441279
 21
-25.2
  0
LINE
  5
2F6
100
AcDbEntity
  8
ASSI
100
AcDbLine
 62
7
  6
CONTINUOUS
 10
-97.2258441279
 20
-25.05
 11
-97.0758441279
 21
-25.2
  0
LINE
  5
2F7
100
AcDbEntity
  8
RACCORDO
100
AcDbLine
 62
7
  6
CONTINUOUS
 10
-102.4258441279
 20
-7.5270553506
 11
-102.4758441279
 21
-7.5279281039
  0
LINE
  5
2F8
100
AcDbEntity
  8
0
100
AcDbLine
 62
7
  6
CONTINUOUS
 10
-107.3758441279
 20
-25.7651743977
 11
-107.3758441279
 21
-23.6407233135
  0
LINE
  5
2F9
100
AcDbEntity
  8
RACCORDO
100
AcDbLine
 62
7
  6
CONTINUOUS
 10
-107.1758441279
 20
-25.951952873
 11
-107.1758441279
 21
25.951952873
  0
LINE
  5
2FA
100
AcDbEntity
  8
RACCORDO
100
AcDbLine
 62
253
  6
CONTINUOUS
 10
-106.8810798499
 20
-25.552013795
 11
-106.8810798499
 21
25.552013795
  0
LINE
  5
2FB
100
AcDbEntity
  8
SMUSSO
100
AcDbLine
 62
7
  6
CONTINUOUS
 10
-106.4758441279
 20
-47.0
 11
-106.4758441279
 21
47.0
  0
LINE
  5
2FC
100
AcDbEntity
  8
RACCORDO
100
AcDbLine
 62
7
  6
CONTINUOUS
 10
-97.6214810263
 20
-3.4170122834
 11
-98.5758441279
 21
-3.4336707533
  0
LINE
  5
2FD
100
AcDbEntity
  8
RACCORDO
100
AcDbLine
 62
253
  6
CONTINUOUS
 10
-97.6214810263
 20
-3.1670503596
 11
-98.5758441279
 21
-3.1837088295
  0
LINE
  5
2FE
100
AcDbEntity
  8
RACCORDO
100
AcDbLine
 62
253
  6
CONTINUOUS
 10
-97.3758441279
 20
-3.1670503596
 11
-97.6214810263
 21
-3.1670503596
  0
LINE
  5
2FF
100
AcDbEntity
  8
RACCORDO
100
AcDbLine
 62
7
  6
CONTINUOUS
 10
-102.4258441279
 20
-6.4729446494
 11
-102.4758441279
 21
-6.4720718961
  0
LINE
  5
300
100
AcDbEntity
  8
SMUSSO
100
AcDbLine
 62
7
  6
CONTINUOUS
 10
-104.4758441279
 20
-52.0
 11
-104.4758441279
 21
52.0
  0
LINE
  5
301
100
AcDbEntity
  8
SMUSSO
100
AcDbLine
 62
7
  6
CONTINUOUS
 10
-102.9758441279
 20
53.0
 11
-102.9758441279
 21
-53.0
  0
LINE
  5
302
100
AcDbEntity
  8
SMUSSO
100
AcDbLine
 62
7
  6
CONTINUOUS
 10
-102.4758441279
 20
52.5
 11
-102.4758441279
 21
-52.5
  0
LINE
  5
303
100
AcDbEntity
  8
SMUSSO
100
AcDbLine
 62
7
  6
CONTINUOUS
 10
-102.4258441279
 20
-52.45
 11
-102.4258441279
 21
52.45
  0
LINE
  5
304
100
AcDbEntity
  8
DRAFT
100
AcDbLine
 62
7
  6
CONTINUOUS
 10
-101.9675922466
 20
-52.9082518813
 11
-101.9675922466
 21
52.9082518813
  0
LINE
  5
305
100
AcDbEntity
  8
DRAFT
100
AcDbLine
 62
7
  6
CONTINUOUS
 10
-99.5758441279
 20
52.95
 11
-99.5758441279
 21
-52.95
  0
LINE
  5
306
100
AcDbEntity
  8
SMUSSO
100
AcDbLine
 62
7
  6
CONTINUOUS
 10
-98.5758441279
 20
51.95
 11
-98.5758441279
 21
-51.95
  0
LINE
  5
307
100
AcDbEntity
  8
RACCORDO
100
AcDbLine
 62
253
  6
CONTINUOUS
 10
-97.3758441279
 20
3.1670503596
 11
-97.6214810263
 21
3.1670503596
  0
LINE
  5
308
100
AcDbEntity
  8
RACCORDO
100
AcDbLine
 62
253
  6
CONTINUOUS
 10
-97.6214810263
 20
3.1670503596
 11
-98.5758441279
 21
3.1837088295
  0
LINE
  5
309
100
AcDbEntity
  8
RACCORDO
100
AcDbLine
 62
7
  6
CONTINUOUS
 10
-97.6214810263
 20
3.4170122834
 11
-98.5758441279
 21
3.4336707533
  0
LINE
  5
30A
100
AcDbEntity
  8
RACCORDO
100
AcDbLine
 62
253
  6
CONTINUOUS
 10
-97.6214810263
 20
3.1670503596
 11
-97.6214810263
 21
-3.1670503596
  0
LINE
  5
30B
100
AcDbEntity
  8
RACCORDO
100
AcDbLine
 62
7
  6
CONTINUOUS
 10
-97.3758441279
 20
3.1670503596
 11
-97.3758441279
 21
-3.1670503596
  0
LINE
  5
30C
100
AcDbEntity
  8
ASSI
100
AcDbLine
 62
253
  6
CONTINUOUS
 10
-97.0653769367
 20
25.7916264167
 11
-97.0653769367
 21
25.200274093
  0
LINE
  5
30D
100
AcDbEntity
  8
ASSI
100
AcDbLine
 62
253
  6
CONTINUOUS
 10
-97.0653769367
 20
-25.200274093
 11
-97.0653769367
 21
-25.7916264167
  0
LINE
  5
30E
100
AcDbEntity
  8
ASSI
100
AcDbLine
 62
7
  6
CONTINUOUS
 10
-96.8758441279
 20
-27.2499479268
 11
-96.8758441279
 21
-27.1430186759
  0
LINE
  5
30F
100
AcDbEntity
  8
ASSI
100
AcDbLine
 62
7
  6
CONTINUOUS
 10
-96.8758441279
 20
-25.4
 11
-96.8758441279
 21
-26.35
  0
LINE
  5
310
100
AcDbEntity
  8
DRAFT
100
AcDbLine
 62
7
  6
CONTINUOUS
 10
-96.8758441279
 20
-26.35
 11
-96.8758441279
 21
-27.1430186759
  0
LINE
  5
311
100
AcDbEntity
  8
ASSI
100
AcDbLine
 62
7
  6
CONTINUOUS
 10
-96.8758441279
 20
25.4
 11
-96.8758441279
 21
26.35
  0
LINE
  5
312
100
AcDbEntity
  8
DRAFT
100
AcDbLine
 62
7
  6
CONTINUOUS
 10
-96.8758441279
 20
26.35
 11
-96.8758441279
 21
27.1430186759
  0
LINE
  5
313
100
AcDbEntity
  8
ASSI
100
AcDbLine
 62
7
  6
CONTINUOUS
 10
-96.8758441279
 20
27.1983797235
 11
-96.8758441279
 21
27.2499479268
  0
LINE
  5
314
100
AcDbEntity
  8
RACCORDO
100
AcDbLine
 62
7
  6
CONTINUOUS
 10
-102.4258441279
 20
6.4729446494
 11
-102.4758441279
 21
6.4720718961
  0
LINE
  5
315
100
AcDbEntity
  8
RACCORDO
100
AcDbLine
 62
7
  6
CONTINUOUS
 10
-102.4258441279
 20
7.5270553506
 11
-102.4758441279
 21
7.5279281039
  0
LINE
  5
316
100
AcDbEntity
  8
RACCORDO
100
AcDbLine
 62
7
  6
CONTINUOUS
 10
-102.4258441279
 20
14.4729446494
 11
-102.4758441279
 21
14.4720718961
  0
LINE
  5
317
100
AcDbEntity
  8
RACCORDO
100
AcDbLine
 62
7
  6
CONTINUOUS
 10
-102.4258441279
 20
15.5270553506
 11
-102.4758441279
 21
15.5279281039
  0
LINE
  5
318
100
AcDbEntity
  8
ASSI
100
AcDbLine
 62
7
  6
CONTINUOUS
 10
-98.5758441279
 20
-25.2
 11
-98.4258441279
 21
-25.05
  0
LINE
  5
319
100
AcDbEntity
  8
ASSI
100
AcDbLine
 62
7
  6
CONTINUOUS
 10
-98.0758441279
 20
-25.2
 11
-97.9258441279
 21
-25.05
  0
LINE
  5
31A
100
AcDbEntity
  8
ASSI
100
AcDbLine
 62
7
  6
CONTINUOUS
 10
-97.5758441279
 20
-25.2
 11
-97.4258441279
 21
-25.05
  0
LINE
  5
31B
100
AcDbEntity
  8
RACCORDO
100
AcDbLine
 62
7
  6
CONTINUOUS
 10
-102.4258441279
 20
20.7594166901
 11
-102.4758441279
 21
20.7592441843
  0
LINE
  5
31C
100
AcDbEntity
  8
RACCORDO
100
AcDbLine
 62
7
  6
CONTINUOUS
 10
-102.4258441279
 20
19.2405833099
 11
-102.4758441279
 21
19.2407558157
  0
LINE
  5
31D
100
AcDbEntity
  8
ASSI
100
AcDbLine
 62
7
  6
CONTINUOUS
 10
-98.5758441279
 20
25.2
 11
-98.4258441279
 21
25.05
  0
LINE
  5
31E
100
AcDbEntity
  8
ASSI
100
AcDbLine
 62
7
  6
CONTINUOUS
 10
-98.0758441279
 20
25.2
 11
-97.9258441279
 21
25.05
  0
LINE
  5
31F
100
AcDbEntity
  8
ASSI
100
AcDbLine
 62
7
  6
CONTINUOUS
 10
-97.5758441279
 20
25.2
 11
-97.4258441279
 21
25.05
  0
LINE
  5
320
100
AcDbEntity
  8
RACCORDO
100
AcDbLine
 62
253
  6
CONTINUOUS
 10
-102.4758441279
 20
24.3967069833
 11
-102.4258441279
 21
24.3975797366
  0
LINE
  5
321
100
AcDbEntity
  8
ASSI
100
AcDbLine
 62
7
  6
CONTINUOUS
 10
-98.4258441279
 20
25.05
 11
-98.2258441279
 21
25.05
  0
LINE
  5
322
100
AcDbEntity
  8
ASSI
100
AcDbLine
 62
7
  6
CONTINUOUS
 10
-97.9258441279
 20
25.05
 11
-97.7258441279
 21
25.05
  0
LINE
  5
323
100
AcDbEntity
  8
ASSI
100
AcDbLine
 62
7
  6
CONTINUOUS
 10
-97.4258441279
 20
25.05
 11
-97.2258441279
 21
25.05
  0
LINE
  5
324
100
AcDbEntity
  8
ASSI
100
AcDbLine
 62
7
  6
CONTINUOUS
 10
-97.0758441279
 20
25.2
 11
-98.5758441279
 21
25.2
  0
LINE
  5
325
100
AcDbEntity
  8
ASSI
100
AcDbLine
 62
7
  6
CONTINUOUS
 10
-97.0653769367
 20
25.7916264167
 11
-98.5758441279
 21
25.7248937867
  0
LINE
  5
326
100
AcDbEntity
  8
RACCORDO
100
AcDbLine
 62
253
  6
CONTINUOUS
 10
-106.8810798499
 20
25.552013795
 11
-106.4758441279
 21
25.5590872108
  0
LINE
  5
327
100
AcDbEntity
  8
RACCORDO
100
AcDbLine
 62
7
  6
CONTINUOUS
 10
-102.4758441279
 20
25.696508987
 11
-102.4258441279
 21
25.6973817403
  0
LINE
  5
328
100
AcDbEntity
  8
DRAFT
100
AcDbLine
 62
7
  6
CONTINUOUS
 10
-102.4258441279
 20
25.8473817403
 11
-102.4758441279
 21
25.846508987
  0
LINE
  5
329
100
AcDbEntity
  8
RACCORDO
100
AcDbLine
 62
7
  6
CONTINUOUS
 10
-106.8810798499
 20
26.2519071816
 11
-106.4758441279
 21
26.2589805974
  0
LINE
  5
32A
100
AcDbEntity
  8
RACCORDO
100
AcDbLine
 62
253
  6
CONTINUOUS
 10
-106.8810798499
 20
25.5520137946
 11
-107.1758441279
 21
25.552013795
  0
LINE
  5
32B
100
AcDbEntity
  8
DRAFT
100
AcDbLine
 62
253
  6
CONTINUOUS
 10
-96.8758441279
 20
26.8929755853
 11
-98.5758441279
 21
26.8937435176
  0
LINE
  5
32C
100
AcDbEntity
  8
DRAFT
100
AcDbLine
 62
7
  6
CONTINUOUS
 10
-98.5758441279
 20
27.1459857386
 11
-96.8758441279
 21
27.1430186759
  0
LINE
  5
32D
100
AcDbEntity
  8
ASSI
100
AcDbLine
 62
7
  6
CONTINUOUS
 10
-96.8758441279
 20
27.25
 11
-98.5758441279
 21
27.2529670627
  0
LINE
  5
32E
100
AcDbEntity
  8
ASSI
100
AcDbLine
 62
7
  6
CONTINUOUS
 10
-96.8758441279
 20
26.35
 11
-98.5758441279
 21
26.3598903107
  0
LINE
  5
32F
100
AcDbEntity
  8
SMUSSO
100
AcDbLine
 62
7
  6
CONTINUOUS
 10
-102.4758441279
 20
-52.5
 11
-102.9758441279
 21
-53.0
  0
LINE
  5
330
100
AcDbEntity
  8
DRAFT
100
AcDbLine
 62
7
  6
CONTINUOUS
 10
-98.5758441279
 20
-51.95
 11
-99.5758441279
 21
-52.95
  0
LINE
  5
331
100
AcDbEntity
  8
SMUSSO
100
AcDbLine
 62
7
  6
CONTINUOUS
 10
-102.4758441279
 20
52.5
 11
-102.9758441279
 21
53.0
  0
LINE
  5
332
100
AcDbEntity
  8
DRAFT
100
AcDbLine
 62
7
  6
CONTINUOUS
 10
-98.5758441279
 20
51.95
 11
-99.5758441279
 21
52.95
  0
LINE
  5
333
100
AcDbEntity
  8
DRAFT
100
AcDbLine
 62
7
  6
CONTINUOUS
 10
-101.9675922466
 20
52.9082518813
 11
-99.5758441279
 21
52.95
  0
LINE
  5
334
100
AcDbEntity
  8
DRAFT
100
AcDbLine
 62
253
  6
CONTINUOUS
 10
-98.5758441279
 20
51.45
 11
-102.4258441279
 21
51.45
  0
LINE
  5
335
100
AcDbEntity
  8
SMUSSO
100
AcDbLine
 62
253
  6
CONTINUOUS
 10
-102.4758441279
 20
52.0
 11
-104.4758441279
 21
52.0
  0
LINE
  5
336
100
AcDbEntity
  8
RACCORDO
100
AcDbLine
 62
7
  6
CONTINUOUS
 10
-104.4758441279
 20
53.0
 11
-102.9758441279
 21
53.0
  0
LINE
  5
337
100
AcDbEntity
  8
SMUSSO
100
AcDbLine
 62
7
  6
CONTINUOUS
 10
-104.4758441279
 20
53.0
 11
-102.9758441279
 21
53.0
  0
ARC
  5
338
100
AcDbEntity
  8
SMUSSO
100
AcDbCircle
 62
7
  6
CONTINUOUS
 10
-69.25
 20
52.0
 40
1.0
100
AcDbArc
 50
90.0
 51
180.0
  0
ARC
  5
339
100
AcDbEntity
  8
SMUSSO
100
AcDbCircle
 62
7
  6
CONTINUOUS
 10
69.25
 20
52.0
 40
1.0
100
AcDbArc
 50
0.0
 51
90.0
  0
ARC
  5
33A
100
AcDbEntity
  8
SMUSSO
100
AcDbCircle
 62
7
  6
CONTINUOUS
 10
69.25
 20
-52.0
 40
1.0
100
AcDbArc
 50
270.0
 51
360.0
  0
ARC
  5
33B
100
AcDbEntity
  8
SMUSSO
100
AcDbCircle
 62
7
  6
CONTINUOUS
 10
-69.25
 20
-52.0
 40
1.0
100
AcDbArc
 50
180.0
 51
270.0
  0
ARC
  5
33C
100
AcDbEntity
  8
RACCORDO
100
AcDbCircle
 62
253
  6
CONTINUOUS
 10
44.3933302547
 20
-22.2989259424
 40
0.7635030721
100
AcDbArc
 50
358.9044032792
 51
359.9675076087
  0
ARC
  5
33D
100
AcDbEntity
  8
RACCORDO
100
AcDbCircle
 62
253
  6
CONTINUOUS
 10
-44.3970663784
 20
22.2989627231
 40
0.7597669289
100
AcDbArc
 50
178.9017893669
 51
179.9701215491
  0
ARC
  5
33E
100
AcDbEntity
  8
RACCORDO
100
AcDbCircle
 62
253
  6
CONTINUOUS
 10
-44.8488119749
 20
21.8791417741
 40
0.7494755317
100
AcDbArc
 50
89.9826808118
 51
92.1672488652
  0
ARC
  5
33F
100
AcDbEntity
  8
RACCORDO
100
AcDbCircle
 62
253
  6
CONTINUOUS
 10
44.8487902453
 20
-21.8791489118
 40
0.7494683878
100
AcDbArc
 50
269.9843418448
 51
272.1624176992
  0
ARC
  5
340
100
AcDbEntity
  8
RACCORDO
100
AcDbCircle
 62
253
  6
CONTINUOUS
 10
-44.8488164681
 20
-21.8793976803
 40
0.7492196269
100
AcDbArc
 50
267.8323564306
 51
270.0176687133
  0
ARC
  5
341
100
AcDbEntity
  8
RACCORDO
100
AcDbCircle
 62
253
  6
CONTINUOUS
 10
44.8488164681
 20
21.8793976804
 40
0.7492196268
100
AcDbArc
 50
87.8323564305
 51
90.0176687133
  0
ARC
  5
342
100
AcDbEntity
  8
RACCORDO
100
AcDbCircle
 62
253
  6
CONTINUOUS
 10
-44.4349612917
 20
-22.2993357892
 40
0.7218719127
100
AcDbArc
 50
180.0018362655
 51
181.1262528185
  0
ARC
  5
343
100
AcDbEntity
  8
RACCORDO
100
AcDbCircle
 62
253
  6
CONTINUOUS
 10
44.4349612916
 20
22.2993357892
 40
0.7218719128
100
AcDbArc
 50
0.0018362656
 51
1.1262528184
  0
ARC
  5
344
100
AcDbEntity
  8
RACCORDO
100
AcDbCircle
 62
253
  6
CONTINUOUS
 10
47.7019287493
 20
25.5519287493
 40
0.6999784374
100
AcDbArc
 50
0.0069612965
 51
89.9930387035
  0
ARC
  5
345
100
AcDbEntity
  8
RACCORDO
100
AcDbCircle
 62
253
  6
CONTINUOUS
 10
47.7019287493
 20
-25.5519287493
 40
0.6999784374
100
AcDbArc
 50
270.0069612965
 51
359.9930387035
  0
ARC
  5
346
100
AcDbEntity
  8
RACCORDO
100
AcDbCircle
 62
253
  6
CONTINUOUS
 10
-47.7019287493
 20
-25.5519287493
 40
0.6999784374
100
AcDbArc
 50
180.0069612965
 51
269.9930387035
  0
ARC
  5
347
100
AcDbEntity
  8
RACCORDO
100
AcDbCircle
 62
253
  6
CONTINUOUS
 10
-47.7019287493
 20
25.5519287493
 40
0.6999784374
100
AcDbArc
 50
90.0069612965
 51
179.9930387035
  0
ARC
  5
348
100
AcDbEntity
  8
RACCORDO
100
AcDbCircle
 62
253
  6
CONTINUOUS
 10
47.7020332457
 20
25.5520332457
 40
0.399919122
100
AcDbArc
 50
359.9972133242
 51
90.0027866764
  0
ARC
  5
349
100
AcDbEntity
  8
RACCORDO
100
AcDbCircle
 62
253
  6
CONTINUOUS
 10
47.7020332457
 20
-25.5520332457
 40
0.399919122
100
AcDbArc
 50
269.9972133243
 51
0.0027866762
  0
ARC
  5
34A
100
AcDbEntity
  8
RACCORDO
100
AcDbCircle
 62
253
  6
CONTINUOUS
 10
-47.7020374933
 20
25.5520374933
 40
0.3999138972
100
AcDbArc
 50
89.9966047449
 51
180.0033952552
  0
ARC
  5
34B
100
AcDbEntity
  8
RACCORDO
100
AcDbCircle
 62
253
  6
CONTINUOUS
 10
-47.7020374933
 20
-25.5520374933
 40
0.3999138972
100
AcDbArc
 50
179.9966047449
 51
270.0033952552
  0
ARC
  5
34C
100
AcDbEntity
  8
RACCORDO
100
AcDbCircle
 62
253
  6
CONTINUOUS
 10
44.8487511207
 20
-22.3367370809
 40
0.2618027059
100
AcDbArc
 50
269.9637375077
 51
272.2996789903
  0
ARC
  5
34D
100
AcDbEntity
  8
RACCORDO
100
AcDbCircle
 62
253
  6
CONTINUOUS
 10
44.8487543991
 20
22.3369030361
 40
0.2616367529
100
AcDbArc
 50
87.6995800775
 51
90.0370034247
  0
ARC
  5
34E
100
AcDbEntity
  8
RACCORDO
100
AcDbCircle
 62
253
  6
CONTINUOUS
 10
-44.8487543991
 20
-22.3369030361
 40
0.2616367529
100
AcDbArc
 50
267.6995800774
 51
270.0370034246
  0
ARC
  5
34F
100
AcDbEntity
  8
RACCORDO
100
AcDbCircle
 62
253
  6
CONTINUOUS
 10
-44.8487548099
 20
22.3369238331
 40
0.2616159562
100
AcDbArc
 50
89.9629036576
 51
92.3005128402
  0
ARC
  5
350
100
AcDbEntity
  8
RACCORDO
100
AcDbCircle
 62
253
  6
CONTINUOUS
 10
44.9161962345
 20
-22.2994532078
 40
0.2331170175
100
AcDbArc
 50
358.7189100882
 51
0.0231730845
  0
ARC
  5
351
100
AcDbEntity
  8
RACCORDO
100
AcDbCircle
 62
253
  6
CONTINUOUS
 10
-44.9165683692
 20
22.299457293
 40
0.2327448845
100
AcDbArc
 50
178.7178673579
 51
180.0242158149
  0
ARC
  5
352
100
AcDbEntity
  8
RACCORDO
100
AcDbCircle
 62
253
  6
CONTINUOUS
 10
44.9182144202
 20
22.2994753631
 40
0.2310988421
100
AcDbArc
 50
359.9711316323
 51
1.2867851949
  0
ARC
  5
353
100
AcDbEntity
  8
RACCORDO
100
AcDbCircle
 62
253
  6
CONTINUOUS
 10
-44.9182144202
 20
-22.2994753631
 40
0.2310988421
100
AcDbArc
 50
179.9711316323
 51
181.2867851948
  0
ARC
  5
354
100
AcDbEntity
  8
RACCORDO
100
AcDbCircle
 62
7
  6
CONTINUOUS
 10
-106.8758441279
 20
25.951952873
 40
0.3
100
AcDbArc
 50
91.0
 51
180.0
  0
ARC
  5
355
100
AcDbEntity
  8
RACCORDO
100
AcDbCircle
 62
7
  6
CONTINUOUS
 10
-106.8758441279
 20
-25.951952873
 40
0.3
100
AcDbArc
 50
180.0
 51
269.0
  0
ARC
  5
356
100
AcDbEntity
  8
RACCORDO
100
AcDbCircle
 62
7
  6
CONTINUOUS
 10
-97.6258441279
 20
3.1670503596
 40
0.25
100
AcDbArc
 50
0.0
 51
89.0
  0
ARC
  5
357
100
AcDbEntity
  8
RACCORDO
100
AcDbCircle
 62
7
  6
CONTINUOUS
 10
-97.6258441279
 20
-3.1670503596
 40
0.25
100
AcDbArc
 50
271.0
 51
360.0
  0
ARC
  5
358
100
AcDbEntity
  8
ASSI
100
AcDbCircle
 62
7
  6
CONTINUOUS
 10
-97.0758441279
 20
-25.4
 40
0.2
100
AcDbArc
 50
0.0
 51
90.0
  0
ARC
  5
359
100
AcDbEntity
  8
ASSI
100
AcDbCircle
 62
7
  6
CONTINUOUS
 10
-97.0758441279
 20
25.4
 40
0.2
100
AcDbArc
 50
270.0
 51
360.0
  0
SPLINE
  5
35A
100
AcDbEntity
  8
0
100
AcDbSpline
 62
7
  6
CONTINUOUS
 70
0
 71
3
 72
9
 73
5
 74
3
 42
0.0000001
 43
0.0000001
 44
0.0000000001
 12
0.384402302
 22
-0.0446290201
 32
0.0
 13
0.0060518841
 23
-0.3869370154
 33
0.0
 40
0.0
 40
0.0
 40
0.0
 40
0.0
 40
0.5013510385
 40
1.0
 40
1.0
 40
1.0
 40
1.0
 10
3.2708955903
 20
-24.0107157749
 30
0.0
 10
3.3351357547
 20
-24.0181740434
 30
0.0
 10
3.4650689916
 20
-24.0747468423
 30
0.0
 10
3.5174853189
 20
-24.2088922282
 30
0.0
 10
3.5184912408
 20
-24.2732074751
 30
0.0
 11
3.2708955903
 21
-24.0107157749
 31
0.0
 11
3.445935984
 21
-24.0943977982
 31
0.0
 11
3.5184912408
 21
-24.2732074751
 31
0.0
  0
SPLINE
  5
35B
100
AcDbEntity
  8
0
100
AcDbSpline
 62
7
  6
CONTINUOUS
 70
0
 71
3
 72
9
 73
5
 74
3
 42
0.0000001
 43
0.0000001
 44
0.0000000001
 12
0.0080713833
 22
-0.5230864262
 32
0.0
 13
-0.5230182478
 23
-0.0116819936
 33
0.0
 40
0.0
 40
0.0
 40
0.0
 40
0.0
 40
0.5206208722
 40
1.0
 40
1.0
 40
1.0
 40
1.0
 10
3.5184912408
 20
-24.2732074751
 30
0.0
 10
3.519891951
 20
-24.3639840456
 30
0.0
 10
3.4557627102
 20
-24.5622845708
 30
0.0
 10
3.2615825326
 20
-24.5976524418
 30
0.0
 10
3.1780078554
 20
-24.5995191431
 30
0.0
 11
3.5184912408
 21
-24.2732074751
 31
0.0
 11
3.4178681102
 21
-24.5263005711
 31
0.0
 11
3.1780078554
 21
-24.5995191431
 31
0.0
  0
SPLINE
  5
35C
100
AcDbEntity
  8
0
100
AcDbSpline
 62
7
  6
CONTINUOUS
 70
0
 71
3
 72
9
 73
5
 74
3
 42
0.0000001
 43
0.0000001
 44
0.0000000001
 12
0.3394200167
 22
0.0579167448
 32
0.0
 13
0.3420295105
 23
-0.0397002646
 33
0.0
 40
0.0
 40
0.0
 40
0.0
 40
0.0
 40
0.2703953699
 40
1.0
 40
1.0
 40
1.0
 40
1.0
 10
2.927514876
 20
-24.0230766618
 30
0.0
 10
2.9581074096
 20
-24.0178565219
 30
0.0
 10
3.0716013975
 20
-24.0006878979
 30
0.0
 10
3.1877134854
 20
-24.0010606092
 30
0.0
 10
3.2708955903
 20
-24.0107157749
 30
0.0
 11
2.927514876
 21
-24.0230766618
 31
0.0
 11
3.0196753261
 21
-24.0098544002
 31
0.0
 11
3.2708955903
 21
-24.0107157749
 31
0.0
  0
SPLINE
  5
35D
100
AcDbEntity
  8
0
100
AcDbSpline
 62
7
  6
CONTINUOUS
 70
0
 71
3
 72
9
 73
5
 74
3
 42
0.0000001
 43
0.0000001
 44
0.0000000001
 12
0.3219543356
 22
0.0
 32
0.0
 13
0.1131217834
 23
-0.3014267015
 33
0.0
 40
0.0
 40
0.0
 40
0.0
 40
0.0
 40
0.3559141631
 40
1.0
 40
1.0
 40
1.0
 40
1.0
 10
3.1770630743
 20
-24.943419487
 30
0.0
 10
3.2152591102
 20
-24.943419487
 30
0.0
 10
3.3251388628
 20
-24.9665483985
 30
0.0
 10
3.3973172195
 20
-25.063724242
 30
0.0
 10
3.4216039324
 20
-25.1284391318
 30
0.0
 11
3.1770630743
 21
-24.943419487
 31
0.0
 11
3.2886988103
 21
-24.9692631885
 31
0.0
 11
3.4216039324
 21
-25.1284391318
 31
0.0
  0
SPLINE
  5
35E
100
AcDbEntity
  8
0
100
AcDbSpline
 62
7
  6
CONTINUOUS
 70
0
 71
3
 72
9
 73
5
 74
3
 42
0.0000001
 43
0.0000001
 44
0.0000000001
 12
0.2338635552
 22
-0.622497147
 32
0.0
 13
0.1837405462
 23
-0.6390886262
 33
0.0
 40
0.0
 40
0.0
 40
0.0
 40
0.0
 40
0.5586214172
 40
1.0
 40
1.0
 40
1.0
 40
1.0
 10
3.4216039324
 20
-25.1284391318
 30
0.0
 10
3.4651509959
 20
-25.2443525446
 30
0.0
 10
3.522419256
 20
-25.4589914658
 30
0.0
 10
3.5862354907
 20
-25.6711477203
 30
0.0
 10
3.613268538
 20
-25.7651743977
 30
0.0
 11
3.4216039324
 21
-25.1284391318
 31
0.0
 11
3.5311768963
 21
-25.4833816056
 31
0.0
 11
3.613268538
 21
-25.7651743977
 31
0.0
  0
SPLINE
  5
35F
100
AcDbEntity
  8
0
100
AcDbSpline
 62
7
  6
CONTINUOUS
 70
0
 71
3
 72
9
 73
5
 74
3
 42
0.0000001
 43
0.0000001
 44
0.0000000001
 12
-0.1540517408
 22
0.5672067283
 32
0.0
 13
-0.1544993035
 23
0.5670849819
 33
0.0
 40
0.0
 40
0.0
 40
0.0
 40
0.0
 40
0.1980141723
 40
1.0
 40
1.0
 40
1.0
 40
1.0
 10
4.0348771327
 20
-25.7651743977
 30
0.0
 10
4.0247089901
 20
-25.7277360741
 30
0.0
 10
3.974940488
 20
-25.5382421876
 30
0.0
 10
3.926336924
 20
-25.3484393276
 30
0.0
 10
3.88503484
 20
-25.1968412881
 30
0.0
 11
4.0348771327
 21
-25.7651743977
 31
0.0
 11
4.0050449294
 21
-25.6526790092
 31
0.0
 11
3.88503484
 21
-25.1968412881
 31
0.0
  0
SPLINE
  5
360
100
AcDbEntity
  8
0
100
AcDbSpline
 62
7
  6
CONTINUOUS
 70
0
 71
3
 72
9
 73
5
 74
3
 42
0.0000001
 43
0.0000001
 44
0.0000000001
 12
-0.1285164
 22
0.4717407948
 32
0.0
 13
-0.4541587339
 23
0.1810957951
 33
0.0
 40
0.0
 40
0.0
 40
0.0
 40
0.0
 40
0.2426586216
 40
1.0
 40
1.0
 40
1.0
 40
1.0
 10
3.88503484
 20
-25.1968412881
 30
0.0
 10
3.8746396359
 20
-25.1586839644
 30
0.0
 10
3.8349315603
 20
-25.0045953927
 30
0.0
 10
3.7470356774
 20
-24.8307125451
 30
0.0
 10
3.6323846102
 20
-24.784995432
 30
0.0
 11
3.88503484
 21
-25.1968412881
 31
0.0
 11
3.8525311695
 21
-25.0827365731
 31
0.0
 11
3.6323846102
 21
-24.784995432
 31
0.0
  0
SPLINE
  5
361
100
AcDbEntity
  8
0
100
AcDbSpline
 62
7
  6
CONTINUOUS
 70
0
 71
3
 72
17
 73
13
 74
11
 42
0.0000001
 43
0.0000001
 44
0.0000000001
 12
1.2974582446
 22
0.167413967
 32
0.0
 13
-1.2305868136
 23
0.4439385397
 33
0.0
 40
0.0
 40
0.0
 40
0.0
 40
0.0
 40
0.0559780952
 40
0.1687540387
 40
0.321006234
 40
0.4122750837
 40
0.516613223
 40
0.6013931059
 40
0.6776022439
 40
0.8103422694
 40
0.9200404832
 40
1.0
 40
1.0
 40
1.0
 40
1.0
 10
3.6323846102
 20
-24.7725873061
 30
0.0
 10
3.6565943573
 20
-24.7694634678
 30
0.0
 10
3.7181324038
 20
-24.7209973091
 30
0.0
 10
3.8201860891
 20
-24.6286072901
 30
0.0
 10
3.8953301556
 20
-24.4863871999
 30
0.0
 10
3.9288051152
 20
-24.3380194545
 30
0.0
 10
3.9319500205
 20
-24.2148773229
 30
0.0
 10
3.9153760191
 20
-24.0998635709
 30
0.0
 10
3.8752063301
 20
-23.9776524871
 30
0.0
 10
3.7997594339
 20
-23.8578829609
 30
0.0
 10
3.693234287
 20
-23.764220045
 30
0.0
 10
3.6199916202
 20
-23.7238240873
 30
0.0
 10
3.5871925779
 20
-23.7119917169
 30
0.0
 11
3.6323846102
 21
-24.7725873061
 31
0.0
 11
3.6965524739
 21
-24.7372982534
 31
0.0
 11
3.8025003321
 21
-24.6346256365
 31
0.0
 11
3.8972761531
 21
-24.4594410653
 31
0.0
 11
3.9239270396
 21
-24.3430541748
 31
0.0
 11
3.9279279049
 21
-24.2066161494
 31
0.0
 11
3.9115237729
 21
-24.0969257029
 31
0.0
 11
3.8801574073
 21
-24.002290492
 31
0.0
 11
3.7874979945
 21
-23.8554252441
 31
0.0
 11
3.6798697052
 21
-23.7604993407
 31
0.0
 11
3.5871925779
 21
-23.7119917169
 31
0.0
  0
SPLINE
  5
362
100
AcDbEntity
  8
0
100
AcDbSpline
 62
7
  6
CONTINUOUS
 70
0
 71
3
 72
9
 73
5
 74
3
 42
0.0000001
 43
0.0000001
 44
0.0000000001
 12
-1.0242753953
 22
0.3700472763
 32
0.0
 13
-1.0774730544
 23
-0.1585146335
 33
0.0
 40
0.0
 40
0.0
 40
0.0
 40
0.0
 40
0.2957417834
 40
1.0
 40
1.0
 40
1.0
 40
1.0
 10
3.5871925779
 20
-23.7119917169
 30
0.0
 10
3.4862189005
 20
-23.6755122365
 30
0.0
 10
3.1232796563
 20
-23.616048509
 30
0.0
 10
2.7584366266
 20
-23.6526720933
 30
0.0
 10
2.505496876
 20
-23.6898838377
 30
0.0
 11
3.5871925779
 21
-23.7119917169
 31
0.0
 11
3.2713797906
 21
-23.6487445228
 31
0.0
 11
2.505496876
 21
-23.6898838377
 31
0.0
  0
SPLINE
  5
363
100
AcDbEntity
  8
RACCORDO
100
AcDbSpline
 62
253
  6
CONTINUOUS
 70
0
 71
3
 72
11
 73
7
 74
5
 42
0.0000001
 43
0.0000001
 44
0.0000000001
 12
0.0000594635
 22
-0.918363512
 32
0.0
 13
-0.9183635127
 23
0.0000482358
 33
0.0
 40
0.0
 40
0.0
 40
0.0
 40
0.0
 40
0.2502581732
 40
0.5002739594
 40
0.7501175503
 40
1.0
 40
1.0
 40
1.0
 40
1.0
 10
45.7014857566
 20
-22.828226657
 30
0.0
 10
45.701490717
 20
-22.9048359819
 30
0.0
 10
45.6746473658
 20
-23.0595347256
 30
0.0
 10
45.5521031319
 20
-23.2605321901
 30
0.0
 10
45.3598707091
 20
-23.397480765
 30
0.0
 10
45.204908525
 20
-23.4288156775
 30
0.0
 10
45.128414217
 20
-23.4288116597
 30
0.0
 11
45.7014857566
 21
-22.828226657
 31
0.0
 11
45.6608998712
 21
-23.0544426691
 31
0.0
 11
45.540441329
 21
-23.2499122787
 31
0.0
 11
45.3531733786
 21
-23.382489614
 31
0.0
 11
45.128414217
 21
-23.4288116597
 31
0.0
  0
SPLINE
  5
364
100
AcDbEntity
  8
RACCORDO
100
AcDbSpline
 62
253
  6
CONTINUOUS
 70
0
 71
3
 72
11
 73
7
 74
5
 42
0.0000001
 43
0.0000001
 44
0.0000000001
 12
0.0235254984
 22
-0.4756908658
 32
0.0
 13
-0.4755833564
 23
0.0256070293
 33
0.0
 40
0.0
 40
0.0
 40
0.0
 40
0.0
 40
0.2461538278
 40
0.4955244005
 40
0.7478693795
 40
1.0
 40
1.0
 40
1.0
 40
1.0
 10
45.406043985
 20
-22.8282394201
 30
0.0
 10
45.4079742821
 20
-22.8672704626
 30
0.0
 10
45.4005055501
 20
-22.9470528799
 30
0.0
 10
45.3481266737
 20
-23.0570854394
 30
0.0
 10
45.2510341999
 20
-23.135069312
 30
0.0
 10
45.1683889832
 20
-23.1490561196
 30
0.0
 10
45.1284192743
 20
-23.1469040142
 30
0.0
 11
45.406043985
 21
-22.8282394201
 31
0.0
 11
45.3938330161
 21
-22.9448379928
 31
0.0
 11
45.3410520861
 21
-23.0512338489
 31
0.0
 11
45.246585159
 21
-23.1255333243
 31
0.0
 11
45.1284192743
 21
-23.1469040142
 31
0.0
  0
SPLINE
  5
365
100
AcDbEntity
  8
RACCORDO
100
AcDbSpline
 62
253
  6
CONTINUOUS
 70
0
 71
3
 72
11
 73
7
 74
5
 42
0.0000001
 43
0.0000001
 44
0.0000000001
 12
0.4678693803
 22
0.003062946
 32
0.0
 13
-0.0178170315
 23
0.4675400433
 33
0.0
 40
0.0
 40
0.0
 40
0.0
 40
0.0
 40
0.2509715505
 40
0.5016098153
 40
0.7517110012
 40
1.0
 40
1.0
 40
1.0
 40
1.0
 10
44.8770694484
 20
-22.6280835891
 30
0.0
 10
44.9162100831
 20
-22.6278273517
 30
0.0
 10
44.9954910557
 20
-22.6105009957
 30
0.0
 10
45.0910802012
 20
-22.5364869365
 30
0.0
 10
45.1481334784
 20
-22.4311370981
 30
0.0
 10
45.1581683376
 20
-22.3522195994
 30
0.0
 10
45.1566937466
 20
-22.313524583
 30
0.0
 11
44.8770694484
 21
-22.6280835891
 31
0.0
 11
44.9916647786
 21
-22.6024631926
 31
0.0
 11
45.0847513214
 21
-22.531141439
 31
0.0
 11
45.141238803
 21
-22.4286612546
 31
0.0
 11
45.1566937466
 21
-22.313524583
 31
0.0
  0
SPLINE
  5
366
100
AcDbEntity
  8
RACCORDO
100
AcDbSpline
 62
253
  6
CONTINUOUS
 70
0
 71
3
 72
11
 73
7
 74
5
 42
0.0000001
 43
0.0000001
 44
0.0000000001
 12
0.4513114646
 22
0.0180610265
 32
0.0
 13
0.0103023584
 23
0.4515552017
 33
0.0
 40
0.0
 40
0.0
 40
0.0
 40
0.0
 40
0.2519611805
 40
0.5064231033
 40
0.7556690343
 40
1.0
 40
1.0
 40
1.0
 40
1.0
 10
44.859256267
 20
-22.5983289361
 30
0.0
 10
44.8971605901
 20
-22.5968120436
 30
0.0
 10
44.9735092021
 20
-22.5789495857
 30
0.0
 10
45.06893331
 20
-22.5121787817
 30
0.0
 10
45.1325267644
 20
-22.4161198394
 30
0.0
 10
45.1484159209
 20
-22.3414413983
 30
0.0
 10
45.1492549827
 20
-22.3046650921
 30
0.0
 11
44.859256267
 21
-22.5983289361
 31
0.0
 11
44.9700630525
 21
-22.5723827541
 31
0.0
 11
45.0642875401
 21
-22.5065689493
 31
0.0
 11
45.1262962534
 21
-22.4126081476
 31
0.0
 11
45.1492549827
 21
-22.3046650921
 31
0.0
  0
SPLINE
  5
367
100
AcDbEntity
  8
RACCORDO
100
AcDbSpline
 62
253
  6
CONTINUOUS
 70
0
 71
3
 72
11
 73
7
 74
5
 42
0.0000001
 43
0.0000001
 44
0.0000000001
 12
-0.45131293
 22
-0.0180195286
 32
0.0
 13
-0.0102832196
 23
-0.4515554446
 33
0.0
 40
0.0
 40
0.0
 40
0.0
 40
0.0
 40
0.2519951872
 40
0.5064714206
 40
0.7556918938
 40
1.0
 40
1.0
 40
1.0
 40
1.0
 10
-44.859256267
 20
22.5983289361
 30
0.0
 10
-44.8971658291
 20
22.5968153246
 30
0.0
 10
-44.9735209899
 20
22.578942417
 30
0.0
 10
-45.0689458805
 20
22.5121677693
 30
0.0
 10
-45.1325285961
 20
22.4161085306
 30
0.0
 10
-45.148417558
 20
22.3414379773
 30
0.0
 10
-45.1492549827
 20
22.3046650921
 30
0.0
 11
-44.859256267
 21
22.5983289361
 31
0.0
 11
-44.9700771106
 21
22.5723756345
 31
0.0
 11
-45.0643034129
 21
22.5065532259
 31
0.0
 11
-45.1263001873
 21
22.41259838
 31
0.0
 11
-45.1492549827
 21
22.3046650921
 31
0.0
  0
SPLINE
  5
368
100
AcDbEntity
  8
RACCORDO
100
AcDbSpline
 62
253
  6
CONTINUOUS
 70
0
 71
3
 72
11
 73
7
 74
5
 42
0.0000001
 43
0.0000001
 44
0.0000000001
 12
0.9183666192
 22
-0.0001008152
 32
0.0
 13
-0.0000071118
 23
-0.9183666247
 33
0.0
 40
0.0
 40
0.0
 40
0.0
 40
0.0
 40
0.2498823699
 40
0.4997260813
 40
0.7497419816
 40
1.0
 40
1.0
 40
1.0
 40
1.0
 10
45.128414217
 20
23.4288116597
 30
0.0
 10
45.2049087594
 20
23.4288032624
 30
0.0
 10
45.3598787573
 20
23.3975121585
 30
0.0
 10
45.5520971417
 20
23.2605274072
 30
0.0
 10
45.6746396374
 20
23.0595352356
 30
0.0
 10
45.7014863498
 20
22.9048361942
 30
0.0
 10
45.7014857566
 20
22.828226657
 30
0.0
 11
45.128414217
 21
23.4288116597
 31
0.0
 11
45.3531770733
 21
23.3825040554
 31
0.0
 11
45.5404373913
 21
23.2499144034
 31
0.0
 11
45.6608933054
 21
23.0544421375
 31
0.0
 11
45.7014857566
 21
22.828226657
 31
0.0
  0
SPLINE
  5
369
100
AcDbEntity
  8
RACCORDO
100
AcDbSpline
 62
253
  6
CONTINUOUS
 70
0
 71
3
 72
11
 73
7
 74
5
 42
0.0000001
 43
0.0000001
 44
0.0000000001
 12
-0.0235581144
 22
0.4757133455
 32
0.0
 13
0.4756157393
 23
-0.0254527096
 33
0.0
 40
0.0
 40
0.0
 40
0.0
 40
0.0
 40
0.2461553271
 40
0.4955276243
 40
0.7478690793
 40
1.0
 40
1.0
 40
1.0
 40
1.0
 10
-45.406043439
 20
22.8282268492
 30
0.0
 10
-45.4079764241
 20
22.8672599739
 30
0.0
 10
-45.4005064131
 20
22.9470486288
 30
0.0
 10
-45.3481210407
 20
23.0570806137
 30
0.0
 10
-45.2510283459
 20
23.1350842786
 30
0.0
 10
-45.1683779566
 20
23.1490427688
 30
0.0
 10
-45.1284054785
 20
23.1469036305
 30
0.0
 11
-45.406043439
 21
22.8282268492
 31
0.0
 11
-45.3938330904
 21
22.9448321608
 31
0.0
 11
-45.3410469965
 21
23.0512330709
 31
0.0
 11
-45.2465785357
 21
23.1255377039
 31
0.0
 11
-45.1284054785
 21
23.1469036305
 31
0.0
  0
SPLINE
  5
36A
100
AcDbEntity
  8
RACCORDO
100
AcDbSpline
 62
253
  6
CONTINUOUS
 70
0
 71
3
 72
11
 73
7
 74
5
 42
0.0000001
 43
0.0000001
 44
0.0000000001
 12
-0.4677856198
 22
-0.0029634157
 32
0.0
 13
0.0178639157
 23
-0.4674537928
 33
0.0
 40
0.0
 40
0.0
 40
0.0
 40
0.0
 40
0.2510034849
 40
0.501655292
 40
0.7517323415
 40
1.0
 40
1.0
 40
1.0
 40
1.0
 10
-44.8771547336
 20
22.6280814716
 30
0.0
 10
-44.9162933406
 20
22.6278335291
 30
0.0
 10
-44.9955600724
 20
22.6104517319
 30
0.0
 10
-45.0911192024
 20
22.5364424719
 30
0.0
 10
-45.1481384112
 20
22.4311038841
 30
0.0
 10
-45.1581720908
 20
22.3522091345
 30
0.0
 10
-45.1566937466
 20
22.3135245816
 30
0.0
 11
-44.8771547336
 21
22.6280814716
 31
0.0
 11
-44.9917359484
 21
22.6024265801
 31
0.0
 11
-45.0847944253
 21
22.5310925664
 31
0.0
 11
-45.1412493962
 21
22.428631459
 31
0.0
 11
-45.1566937466
 21
22.3135245816
 31
0.0
  0
SPLINE
  5
36B
100
AcDbEntity
  8
RACCORDO
100
AcDbSpline
 62
253
  6
CONTINUOUS
 70
0
 71
3
 72
11
 73
7
 74
5
 42
0.0000001
 43
0.0000001
 44
0.0000000001
 12
-0.475616594
 22
-0.0254548751
 32
0.0
 13
0.0235580752
 23
0.4757143179
 33
0.0
 40
0.0
 40
0.0
 40
0.0
 40
0.0
 40
0.2521304956
 40
0.5044722342
 40
0.7538445772
 40
1.0
 40
1.0
 40
1.0
 40
1.0
 10
-45.1284045055
 20
-23.1469036033
 30
0.0
 10
-45.168376988
 20
-23.1490429201
 30
0.0
 10
-45.2510275714
 20
-23.1350846743
 30
0.0
 10
-45.3481207287
 20
-23.0570811526
 30
0.0
 10
-45.4005063419
 20
-22.9470489047
 30
0.0
 10
-45.4079764217
 20
-22.8672600686
 30
0.0
 10
-45.406043439
 20
-22.8282268489
 30
0.0
 11
-45.1284045055
 21
-23.1469036033
 31
0.0
 11
-45.2465776837
 21
-23.1255381109
 31
0.0
 11
-45.341046661
 21
-23.0512335204
 31
0.0
 11
-45.3938329976
 21
-22.9448324366
 31
0.0
 11
-45.406043439
 21
-22.8282268489
 31
0.0
  0
SPLINE
  5
36C
100
AcDbEntity
  8
RACCORDO
100
AcDbSpline
 62
253
  6
CONTINUOUS
 70
0
 71
3
 72
11
 73
7
 74
5
 42
0.0000001
 43
0.0000001
 44
0.0000000001
 12
-0.0178616049
 22
-0.4674538783
 32
0.0
 13
0.4677856212
 23
-0.0029627551
 33
0.0
 40
0.0
 40
0.0
 40
0.0
 40
0.0
 40
0.2482676326
 40
0.4983446178
 40
0.7489964787
 40
1.0
 40
1.0
 40
1.0
 40
1.0
 10
-45.1566937466
 20
-22.3135245816
 30
0.0
 10
-45.1581718994
 20
-22.3522091375
 30
0.0
 10
-45.1481383758
 20
-22.4311038308
 30
0.0
 10
-45.0911192241
 20
-22.536442503
 30
0.0
 10
-44.9955600642
 20
-22.610451696
 30
0.0
 10
-44.9162933251
 20
-22.6278335849
 30
0.0
 10
-44.8771547124
 20
-22.6280814722
 30
0.0
 11
-45.1566937466
 21
-22.3135245816
 31
0.0
 11
-45.1412493303
 21
-22.4286314373
 31
0.0
 11
-45.0847944457
 21
-22.5310925569
 31
0.0
 11
-44.9917359433
 21
-22.6024265776
 31
0.0
 11
-44.8771547124
 21
-22.6280814722
 31
0.0
  0
SPLINE
  5
36D
100
AcDbEntity
  8
RACCORDO
100
AcDbSpline
 62
253
  6
CONTINUOUS
 70
0
 71
3
 72
11
 73
7
 74
5
 42
0.0000001
 43
0.0000001
 44
0.0000000001
 12
0.0102843396
 22
-0.4515554199
 32
0.0
 13
0.4513129328
 23
-0.0180194782
 33
0.0
 40
0.0
 40
0.0
 40
0.0
 40
0.0
 40
0.2443081402
 40
0.4935285759
 40
0.7480048048
 40
1.0
 40
1.0
 40
1.0
 40
1.0
 10
-45.1492549827
 20
-22.3046650921
 30
0.0
 10
-45.1484174667
 20
-22.3414379804
 30
0.0
 10
-45.1325286409
 20
-22.4161085377
 30
0.0
 10
-45.0689458638
 20
-22.5121677694
 30
0.0
 10
-44.973520996
 20
-22.578942416
 30
0.0
 10
-44.8971658305
 20
-22.5968153288
 30
0.0
 10
-44.859256267
 20
-22.5983289361
 30
0.0
 11
-45.1492549827
 21
-22.3046650921
 31
0.0
 11
-45.1263001833
 21
-22.4125983951
 31
0.0
 11
-45.0643034138
 21
-22.5065532242
 31
0.0
 11
-44.9700771144
 21
-22.5723756336
 31
0.0
 11
-44.859256267
 21
-22.5983289361
 31
0.0
  0
SPLINE
  5
36E
100
AcDbEntity
  8
RACCORDO
100
AcDbSpline
 62
253
  6
CONTINUOUS
 70
0
 71
3
 72
11
 73
7
 74
5
 42
0.0000001
 43
0.0000001
 44
0.0000000001
 12
-0.000007064
 22
0.9183665467
 32
0.0
 13
0.9183665419
 23
0.0000942869
 33
0.0
 40
0.0
 40
0.0
 40
0.0
 40
0.0
 40
0.2502579455
 40
0.5002738016
 40
0.750117296
 40
1.0
 40
1.0
 40
1.0
 40
1.0
 10
-45.7014857566
 20
22.828226657
 30
0.0
 10
-45.7014863458
 20
22.9048361654
 30
0.0
 10
-45.6746397317
 20
23.0595351632
 30
0.0
 10
-45.5520971461
 20
23.2605272416
 30
0.0
 10
-45.3598788626
 20
23.3975117055
 30
0.0
 10
-45.2049088552
 20
23.4288038062
 30
0.0
 10
-45.128414217
 20
23.4288116597
 30
0.0
 11
-45.7014857566
 21
22.828226657
 31
0.0
 11
-45.6608933589
 21
23.0544420593
 31
0.0
 11
-45.5404374095
 21
23.2499142328
 31
0.0
 11
-45.3531773199
 21
23.3825038287
 31
0.0
 11
-45.128414217
 21
23.4288116597
 31
0.0
  0
SPLINE
  5
36F
100
AcDbEntity
  8
RACCORDO
100
AcDbSpline
 62
253
  6
CONTINUOUS
 70
0
 71
3
 72
11
 73
7
 74
5
 42
0.0000001
 43
0.0000001
 44
0.0000000001
 12
-0.9183666192
 22
0.0001008152
 32
0.0
 13
0.0000071118
 23
0.9183666247
 33
0.0
 40
0.0
 40
0.0
 40
0.0
 40
0.0
 40
0.2498823699
 40
0.4997260813
 40
0.7497419816
 40
1.0
 40
1.0
 40
1.0
 40
1.0
 10
-45.128414217
 20
-23.4288116597
 30
0.0
 10
-45.2049087594
 20
-23.4288032624
 30
0.0
 10
-45.3598787573
 20
-23.3975121585
 30
0.0
 10
-45.5520971417
 20
-23.2605274072
 30
0.0
 10
-45.6746396374
 20
-23.0595352356
 30
0.0
 10
-45.7014863498
 20
-22.9048361942
 30
0.0
 10
-45.7014857566
 20
-22.828226657
 30
0.0
 11
-45.128414217
 21
-23.4288116597
 31
0.0
 11
-45.3531770733
 21
-23.3825040554
 31
0.0
 11
-45.5404373913
 21
-23.2499144034
 31
0.0
 11
-45.6608933054
 21
-23.0544421375
 31
0.0
 11
-45.7014857566
 21
-22.828226657
 31
0.0
  0
SPLINE
  5
370
100
AcDbEntity
  8
RACCORDO
100
AcDbSpline
 62
253
  6
CONTINUOUS
 70
0
 71
3
 72
9
 73
5
 74
3
 42
0.0000001
 43
0.0000001
 44
0.0000000001
 12
0.035078446
 22
0.0048738059
 32
0.0
 13
0.0108179982
 23
0.0337227263
 33
0.0
 40
0.0
 40
0.0
 40
0.0
 40
0.0
 40
0.3370837031
 40
1.0
 40
1.0
 40
1.0
 40
1.0
 10
44.8592562469
 20
22.598328374
 30
0.0
 10
44.8631977044
 20
22.5988760009
 30
0.0
 10
44.8711063259
 20
22.6102161525
 30
0.0
 10
44.8746789719
 20
22.6206349829
 30
0.0
 10
44.8770694476
 20
22.6280867645
 30
0.0
 11
44.8592562469
 21
22.598328374
 31
0.0
 11
44.8680367622
 21
22.606416476
 31
0.0
 11
44.8770694476
 21
22.6280867645
 31
0.0
  0
SPLINE
  5
371
100
AcDbEntity
  8
RACCORDO
100
AcDbSpline
 62
253
  6
CONTINUOUS
 70
0
 71
3
 72
9
 73
5
 74
3
 42
0.0000001
 43
0.0000001
 44
0.0000000001
 12
0.0016389238
 22
0.0116710822
 32
0.0
 13
0.0098668205
 23
0.0064456251
 33
0.0
 40
0.0
 40
0.0
 40
0.0
 40
0.0
 40
0.1960645079
 40
1.0
 40
1.0
 40
1.0
 40
1.0
 10
45.1492616267
 20
22.3046652131
 30
0.0
 10
45.1493687383
 20
22.3054279748
 30
0.0
 10
45.1506693545
 20
22.3092198797
 30
0.0
 10
45.1540577186
 20
22.3117972976
 30
0.0
 10
45.1567018143
 20
22.3135245865
 30
0.0
 11
45.1492616267
 21
22.3046652131
 31
0.0
 11
45.1499590034
 21
22.3068682043
 31
0.0
 11
45.1567018143
 21
22.3135245865
 31
0.0
  0
SPLINE
  5
372
100
AcDbEntity
  8
RACCORDO
100
AcDbSpline
 62
253
  6
CONTINUOUS
 70
0
 71
3
 72
9
 73
5
 74
3
 42
0.0000001
 43
0.0000001
 44
0.0000000001
 12
0.0016475477
 22
-0.0116734369
 32
0.0
 13
0.0098691394
 23
-0.006448537
 33
0.0
 40
0.0
 40
0.0
 40
0.0
 40
0.0
 40
0.1959586251
 40
1.0
 40
1.0
 40
1.0
 40
1.0
 10
45.149253971
 20
-22.3046650744
 30
0.0
 10
45.149361588
 20
-22.3054275779
 30
0.0
 10
45.1506656555
 20
-22.3092195031
 30
0.0
 10
45.1540550943
 20
-22.3117962873
 30
0.0
 10
45.1567001597
 20
-22.3135245842
 30
0.0
 11
45.149253971
 21
-22.3046650744
 31
0.0
 11
45.1499527524
 21
-22.3068670376
 31
0.0
 11
45.1567001597
 21
-22.3135245842
 31
0.0
  0
SPLINE
  5
373
100
AcDbEntity
  8
RACCORDO
100
AcDbSpline
 62
253
  6
CONTINUOUS
 70
0
 71
3
 72
9
 73
5
 74
3
 42
0.0000001
 43
0.0000001
 44
0.0000000001
 12
0.0350764017
 22
-0.0048687472
 32
0.0
 13
0.0108152565
 23
-0.0337207486
 33
0.0
 40
0.0
 40
0.0
 40
0.0
 40
0.0
 40
0.3371100381
 40
1.0
 40
1.0
 40
1.0
 40
1.0
 10
44.8592562757
 20
-22.5983291804
 30
0.0
 10
44.8631978114
 20
-22.5988762816
 30
0.0
 10
44.8711082526
 20
-22.6102138516
 30
0.0
 10
44.8746796734
 20
-22.6206327238
 30
0.0
 10
44.8770694484
 20
-22.6280837724
 30
0.0
 11
44.8592562757
 21
-22.5983291804
 31
0.0
 11
44.8680380896
 21
-22.6064158952
 31
0.0
 11
44.8770694484
 21
-22.6280837724
 31
0.0
  0
SPLINE
  5
374
100
AcDbEntity
  8
RACCORDO
100
AcDbSpline
 62
253
  6
CONTINUOUS
 70
0
 71
3
 72
9
 73
5
 74
3
 42
0.0000001
 43
0.0000001
 44
0.0000000001
 12
-0.035078446
 22
-0.0048738059
 32
0.0
 13
-0.0108179982
 23
-0.0337227263
 33
0.0
 40
0.0
 40
0.0
 40
0.0
 40
0.0
 40
0.3370837031
 40
1.0
 40
1.0
 40
1.0
 40
1.0
 10
-44.8592562469
 20
-22.598328374
 30
0.0
 10
-44.8631977044
 20
-22.5988760009
 30
0.0
 10
-44.8711063259
 20
-22.6102161525
 30
0.0
 10
-44.8746789719
 20
-22.6206349829
 30
0.0
 10
-44.8770694476
 20
-22.6280867645
 30
0.0
 11
-44.8592562469
 21
-22.598328374
 31
0.0
 11
-44.8680367622
 21
-22.606416476
 31
0.0
 11
-44.8770694476
 21
-22.6280867645
 31
0.0
  0
SPLINE
  5
375
100
AcDbEntity
  8
RACCORDO
100
AcDbSpline
 62
253
  6
CONTINUOUS
 70
0
 71
3
 72
9
 73
5
 74
3
 42
0.0000001
 43
0.0000001
 44
0.0000000001
 12
-0.0016389238
 22
-0.0116710822
 32
0.0
 13
-0.0098668205
 23
-0.0064456251
 33
0.0
 40
0.0
 40
0.0
 40
0.0
 40
0.0
 40
0.1960645079
 40
1.0
 40
1.0
 40
1.0
 40
1.0
 10
-45.1492616267
 20
-22.3046652131
 30
0.0
 10
-45.1493687383
 20
-22.3054279748
 30
0.0
 10
-45.1506693545
 20
-22.3092198797
 30
0.0
 10
-45.1540577186
 20
-22.3117972976
 30
0.0
 10
-45.1567018143
 20
-22.3135245865
 30
0.0
 11
-45.1492616267
 21
-22.3046652131
 31
0.0
 11
-45.1499590034
 21
-22.3068682043
 31
0.0
 11
-45.1567018143
 21
-22.3135245865
 31
0.0
  0
SPLINE
  5
376
100
AcDbEntity
  8
RACCORDO
100
AcDbSpline
 62
253
  6
CONTINUOUS
 70
0
 71
3
 72
9
 73
5
 74
3
 42
0.0000001
 43
0.0000001
 44
0.0000000001
 12
-0.0016481744
 22
0.0116734193
 32
0.0
 13
-0.0098685374
 23
0.0064495865
 33
0.0
 40
0.0
 40
0.0
 40
0.0
 40
0.0
 40
0.1959249304
 40
1.0
 40
1.0
 40
1.0
 40
1.0
 10
-45.1492539269
 20
22.3046650735
 30
0.0
 10
-45.1493615664
 20
22.3054274448
 30
0.0
 10
-45.1506660425
 20
22.3092192523
 30
0.0
 10
-45.1540553735
 20
22.3117959329
 30
0.0
 10
-45.1567003884
 20
22.3135245835
 30
0.0
 11
-45.1492539269
 21
22.3046650735
 31
0.0
 11
-45.1499527556
 21
22.3068666195
 31
0.0
 11
-45.1567003884
 21
22.3135245835
 31
0.0
  0
SPLINE
  5
377
100
AcDbEntity
  8
RACCORDO
100
AcDbSpline
 62
253
  6
CONTINUOUS
 70
0
 71
3
 72
9
 73
5
 74
3
 42
0.0000001
 43
0.0000001
 44
0.0000000001
 12
-0.0350770247
 22
0.0048685704
 32
0.0
 13
-0.0108153027
 23
0.0337213562
 33
0.0
 40
0.0
 40
0.0
 40
0.0
 40
0.0
 40
0.3371075372
 40
1.0
 40
1.0
 40
1.0
 40
1.0
 10
-44.8592561906
 20
22.598326771
 30
0.0
 10
-44.863197767
 20
22.5988738483
 30
0.0
 10
-44.8711082467
 20
22.6102117679
 30
0.0
 10
-44.8746796547
 20
22.6206307831
 30
0.0
 10
-44.8770694489
 20
22.628081994
 30
0.0
 11
-44.8592561906
 21
22.598326771
 31
0.0
 11
-44.8680380331
 21
22.6064136189
 31
0.0
 11
-44.8770694489
 21
22.628081994
 31
0.0
  0
SPLINE
  5
378
100
AcDbEntity
  8
RACCORDO
100
AcDbSpline
 62
253
  6
CONTINUOUS
 70
0
 71
3
 72
11
 73
7
 74
5
 42
0.0000001
 43
0.0000001
 44
0.0000000001
 12
0.475616594
 22
0.0254548751
 32
0.0
 13
-0.0235580752
 23
-0.4757143179
 33
0.0
 40
0.0
 40
0.0
 40
0.0
 40
0.0
 40
0.2521304956
 40
0.5044722342
 40
0.7538445772
 40
1.0
 40
1.0
 40
1.0
 40
1.0
 10
45.1284045055
 20
23.1469036033
 30
0.0
 10
45.168376988
 20
23.1490429201
 30
0.0
 10
45.2510275714
 20
23.1350846743
 30
0.0
 10
45.3481207287
 20
23.0570811526
 30
0.0
 10
45.4005063419
 20
22.9470489047
 30
0.0
 10
45.4079764217
 20
22.8672600686
 30
0.0
 10
45.406043439
 20
22.8282268489
 30
0.0
 11
45.1284045055
 21
23.1469036033
 31
0.0
 11
45.2465776837
 21
23.1255381109
 31
0.0
 11
45.341046661
 21
23.0512335204
 31
0.0
 11
45.3938329976
 21
22.9448324366
 31
0.0
 11
45.406043439
 21
22.8282268489
 31
0.0
  0
SPLINE
  5
379
100
AcDbEntity
  8
RACCORDO
100
AcDbSpline
 62
253
  6
CONTINUOUS
 70
0
 71
3
 72
11
 73
7
 74
5
 42
0.0000001
 43
0.0000001
 44
0.0000000001
 12
0.0178616049
 22
0.4674538783
 32
0.0
 13
-0.4677856212
 23
0.0029627551
 33
0.0
 40
0.0
 40
0.0
 40
0.0
 40
0.0
 40
0.2482676326
 40
0.4983446178
 40
0.7489964787
 40
1.0
 40
1.0
 40
1.0
 40
1.0
 10
45.1566937466
 20
22.3135245816
 30
0.0
 10
45.1581718994
 20
22.3522091375
 30
0.0
 10
45.1481383758
 20
22.4311038308
 30
0.0
 10
45.0911192241
 20
22.536442503
 30
0.0
 10
44.9955600642
 20
22.610451696
 30
0.0
 10
44.9162933251
 20
22.6278335849
 30
0.0
 10
44.8771547124
 20
22.6280814722
 30
0.0
 11
45.1566937466
 21
22.3135245816
 31
0.0
 11
45.1412493303
 21
22.4286314373
 31
0.0
 11
45.0847944457
 21
22.5310925569
 31
0.0
 11
44.9917359433
 21
22.6024265776
 31
0.0
 11
44.8771547124
 21
22.6280814722
 31
0.0
  0
SPLINE
  5
37A
100
AcDbEntity
  8
RACCORDO
100
AcDbSpline
 62
253
  6
CONTINUOUS
 70
0
 71
3
 72
11
 73
7
 74
5
 42
0.0000001
 43
0.0000001
 44
0.0000000001
 12
-0.0102843396
 22
0.4515554199
 32
0.0
 13
-0.4513129328
 23
0.0180194782
 33
0.0
 40
0.0
 40
0.0
 40
0.0
 40
0.0
 40
0.2443081402
 40
0.4935285759
 40
0.7480048048
 40
1.0
 40
1.0
 40
1.0
 40
1.0
 10
45.1492549827
 20
22.3046650921
 30
0.0
 10
45.1484174667
 20
22.3414379804
 30
0.0
 10
45.1325286409
 20
22.4161085377
 30
0.0
 10
45.0689458638
 20
22.5121677694
 30
0.0
 10
44.973520996
 20
22.578942416
 30
0.0
 10
44.8971658305
 20
22.5968153288
 30
0.0
 10
44.859256267
 20
22.5983289361
 30
0.0
 11
45.1492549827
 21
22.3046650921
 31
0.0
 11
45.1263001833
 21
22.4125983951
 31
0.0
 11
45.0643034138
 21
22.5065532242
 31
0.0
 11
44.9700771144
 21
22.5723756336
 31
0.0
 11
44.859256267
 21
22.5983289361
 31
0.0
  0
SPLINE
  5
37B
100
AcDbEntity
  8
RACCORDO
100
AcDbSpline
 62
253
  6
CONTINUOUS
 70
0
 71
3
 72
23
 73
19
 74
17
 42
0.0000001
 43
0.0000001
 44
0.0000000001
 12
-0.0052257347
 22
0.6999443711
 32
0.0
 13
0.6998536572
 23
0.0124213294
 33
0.0
 40
0.0
 40
0.0
 40
0.0
 40
0.0
 40
0.1950641242
 40
0.3826301144
 40
0.5554919623
 40
0.6343026066
 40
0.7070081797
 40
0.7729008773
 40
0.8313577349
 40
0.8818030146
 40
0.9237649001
 40
0.9568263775
 40
0.9699232741
 40
0.980685529
 40
0.9890832336
 40
0.9951024426
 40
0.9987357877
 40
1.0
 40
1.0
 40
1.0
 40
1.0
 10
-106.8810798499
 20
25.552013795
 30
0.0
 10
-106.8814196343
 20
25.5975251402
 30
0.0
 10
-106.8820234886
 20
25.6867988878
 30
0.0
 10
-106.8827044723
 20
25.8164052553
 30
0.0
 10
-106.8830712092
 20
25.9188883407
 30
0.0
 10
-106.8832205819
 20
25.9945725503
 30
0.0
 10
-106.8832590637
 20
26.0452985936
 30
0.0
 10
-106.8832276082
 20
26.0912760378
 30
0.0
 10
-106.8831264575
 20
26.1320584296
 30
0.0
 10
-106.8829597395
 20
26.1672604526
 30
0.0
 10
-106.8827232159
 20
26.1965267619
 30
0.0
 10
-106.8824741587
 20
26.2171026598
 30
0.0
 10
-106.8822078899
 20
26.2303548656
 30
0.0
 10
-106.8820472469
 20
26.2379342502
 30
0.0
 10
-106.8817753164
 20
26.2436619396
 30
0.0
 10
-106.8817323137
 20
26.2481957059
 30
0.0
 10
-106.8812421762
 20
26.2501559925
 30
0.0
 10
-106.8813747711
 20
26.2519019472
 30
0.0
 10
-106.8810798499
 20
26.2519071816
 30
0.0
 11
-106.8810798499
 21
25.552013795
 31
0.0
 11
-106.8820002924
 21
25.6885485333
 31
0.0
 11
-106.8826843358
 21
25.8198361693
 31
0.0
 11
-106.8831052776
 21
25.9408324865
 31
0.0
 11
-106.8832117722
 21
25.995996988
 31
0.0
 11
-106.8832474306
 21
26.0468882504
 31
0.0
 11
-106.8832117893
 21
26.0930107448
 31
0.0
 11
-106.8831053034
 21
26.133928295
 31
0.0
 11
-106.8829288839
 21
26.1692377279
 31
0.0
 11
-106.8826843473
 21
26.1986085141
 31
0.0
 11
-106.8823738859
 21
26.2217482714
 31
0.0
 11
-106.882194796
 21
26.2309138764
 31
0.0
 11
-106.8820002898
 21
26.2384445547
 31
0.0
 11
-106.8817908036
 21
26.2443189104
 31
0.0
 11
-106.8815670484
 21
26.2485261936
 31
0.0
 11
-106.8813298039
 21
26.251058314
 31
0.0
 11
-106.8810798499
 21
26.2519071816
 31
0.0
  0
SPLINE
  5
37C
100
AcDbEntity
  8
RACCORDO
100
AcDbSpline
 62
253
  6
CONTINUOUS
 70
0
 71
3
 72
23
 73
19
 74
17
 42
0.0000001
 43
0.0000001
 44
0.0000000001
 12
-0.6998216029
 22
0.0141116699
 32
0.0
 13
0.0052252213
 23
0.6999443636
 33
0.0
 40
0.0
 40
0.0
 40
0.0
 40
0.0
 40
0.0012647388
 40
0.0048981032
 40
0.010917051
 40
0.0193144565
 40
0.0300765666
 40
0.0431734589
 40
0.0762350873
 40
0.118197013
 40
0.168642253
 40
0.2270991019
 40
0.2929918124
 40
0.3656973896
 40
0.4445080324
 40
0.6173698865
 40
0.8049358768
 40
1.0
 40
1.0
 40
1.0
 40
1.0
 10
-106.8810798499
 20
-26.2519071816
 30
0.0
 10
-106.8813748804
 20
-26.2519012324
 30
0.0
 10
-106.881242079
 20
-26.2501566762
 30
0.0
 10
-106.8817323772
 20
-26.2481947536
 30
0.0
 10
-106.8817753056
 20
-26.2436620263
 30
0.0
 10
-106.8820472595
 20
-26.2379341004
 30
0.0
 10
-106.8822078835
 20
-26.2303549736
 30
0.0
 10
-106.8824741541
 20
-26.2171026955
 30
0.0
 10
-106.8827232029
 20
-26.1965268009
 30
0.0
 10
-106.8829597173
 20
-26.1672604365
 30
0.0
 10
-106.8831264289
 20
-26.1320584231
 30
0.0
 10
-106.8832275907
 20
-26.0912760379
 30
0.0
 10
-106.8832590646
 20
-26.0452985933
 30
0.0
 10
-106.8832206012
 20
-25.994572547
 30
0.0
 10
-106.8830712411
 20
-25.9188883366
 30
0.0
 10
-106.8827044775
 20
-25.8164052517
 30
0.0
 10
-106.8820234963
 20
-25.6867988851
 30
0.0
 10
-106.8814196009
 20
-25.5975251395
 30
0.0
 10
-106.8810798499
 20
-25.552013795
 30
0.0
 11
-106.8810798499
 21
-26.2519071816
 31
0.0
 11
-106.8813298199
 21
-26.2510579345
 31
0.0
 11
-106.881567066
 21
-26.2485258007
 31
0.0
 11
-106.8817908147
 21
-26.2443187005
 31
0.0
 11
-106.8820002924
 21
-26.2384445539
 31
0.0
 11
-106.8821947928
 21
-26.2309139771
 31
0.0
 11
-106.8823738795
 21
-26.2217483751
 31
0.0
 11
-106.8826843358
 21
-26.1986085124
 31
0.0
 11
-106.8829288631
 21
-26.1692376985
 31
0.0
 11
-106.8831052776
 21
-26.1339282939
 31
0.0
 11
-106.8832117722
 21
-26.0930107505
 31
0.0
 11
-106.8832474306
 21
-26.0468882478
 31
0.0
 11
-106.8832117893
 21
-25.9959969834
 31
0.0
 11
-106.8831053034
 21
-25.9408324838
 31
0.0
 11
-106.8826843473
 21
-25.8198361643
 31
0.0
 11
-106.8820002898
 21
-25.6885485304
 31
0.0
 11
-106.8810798499
 21
-25.552013795
 31
0.0
  0
SPLINE
  5
37D
100
AcDbEntity
  8
RACCORDO
100
AcDbSpline
 62
253
  6
CONTINUOUS
 70
0
 71
3
 72
18
 73
14
 74
12
 42
0.0000001
 43
0.0000001
 44
0.0000000001
 12
0.2500342746
 22
-0.0043643645
 32
0.0
 13
-0.0043630356
 23
-0.2500342978
 33
0.0
 40
0.0
 40
0.0
 40
0.0
 40
0.0
 40
0.0051160248
 40
0.0196013575
 40
0.0434834214
 40
0.0765712602
 40
0.1185209416
 40
0.1689620019
 40
0.2932687033
 40
0.4447392158
 40
0.6174912646
 40
0.8050719326
 40
1.0
 40
1.0
 40
1.0
 40
1.0
 10
-97.6214810263
 20
3.4170122834
 30
0.0
 10
-97.6210546325
 20
3.4170048406
 30
0.0
 10
-97.6211432954
 20
3.4145387483
 30
0.0
 10
-97.62050209
 20
3.411720728
 30
0.0
 10
-97.6204114164
 20
3.4053249784
 30
0.0
 10
-97.6200857295
 20
3.3972766746
 30
0.0
 10
-97.6199235461
 20
3.3867450015
 30
0.0
 10
-97.6197085337
 20
3.3687166626
 30
0.0
 10
-97.6196415399
 20
3.3415022867
 30
0.0
 10
-97.6197702975
 20
3.3041228653
 30
0.0
 10
-97.6201276364
 20
3.2614587203
 30
0.0
 10
-97.6206950096
 20
3.2151778737
 30
0.0
 10
-97.6211975336
 20
3.1832965937
 30
0.0
 10
-97.6214810263
 20
3.1670503596
 30
0.0
 11
-97.6214810263
 21
3.4170122834
 31
0.0
 11
-97.6210751849
 21
3.4157989834
 31
0.0
 11
-97.6207143575
 21
3.412194618
 31
0.0
 11
-97.6204028401
 21
3.4062305039
 31
0.0
 11
-97.6201440856
 21
3.3979601968
 31
0.0
 11
-97.6199402411
 21
3.3874717216
 31
0.0
 11
-97.6197932815
 21
3.3748586626
 31
0.0
 11
-97.61967471
 21
3.3437732183
 31
0.0
 11
-97.6197932815
 21
3.3058948151
 31
0.0
 11
-97.6201440856
 21
3.2626957265
 31
0.0
 11
-97.6207143575
 21
3.2157904524
 31
0.0
 11
-97.6214810263
 21
3.1670503596
 31
0.0
  0
SPLINE
  5
37E
100
AcDbEntity
  8
RACCORDO
100
AcDbSpline
 62
253
  6
CONTINUOUS
 70
0
 71
3
 72
18
 73
14
 74
12
 42
0.0000001
 43
0.0000001
 44
0.0000000001
 12
0.0043630356
 22
-0.2500342978
 32
0.0
 13
-0.2500342746
 23
-0.0043643646
 33
0.0
 40
0.0
 40
0.0
 40
0.0
 40
0.0
 40
0.1949280678
 40
0.382508738
 40
0.55526079
 40
0.7067313046
 40
0.8310380023
 40
0.8814790606
 40
0.9234287408
 40
0.956516579
 40
0.9803986427
 40
0.9948839752
 40
1.0
 40
1.0
 40
1.0
 40
1.0
 10
-97.6214810263
 20
-3.1670503596
 30
0.0
 10
-97.6211975336
 20
-3.1832965938
 30
0.0
 10
-97.6206950095
 20
-3.215177874
 30
0.0
 10
-97.6201276364
 20
-3.2614587211
 30
0.0
 10
-97.6197702975
 20
-3.3041228667
 30
0.0
 10
-97.6196415399
 20
-3.3415022882
 30
0.0
 10
-97.6197085337
 20
-3.3687166638
 30
0.0
 10
-97.6199235461
 20
-3.3867450021
 30
0.0
 10
-97.6200857295
 20
-3.3972766749
 30
0.0
 10
-97.6204114164
 20
-3.4053249786
 30
0.0
 10
-97.62050209
 20
-3.411720728
 30
0.0
 10
-97.6211432954
 20
-3.4145387483
 30
0.0
 10
-97.6210546325
 20
-3.4170048406
 30
0.0
 10
-97.6214810263
 20
-3.4170122834
 30
0.0
 11
-97.6214810263
 21
-3.1670503596
 31
0.0
 11
-97.6207143575
 21
-3.2157904525
 31
0.0
 11
-97.6201440856
 21
-3.2626957272
 31
0.0
 11
-97.6197932815
 21
-3.3058948165
 31
0.0
 11
-97.61967471
 21
-3.3437732203
 31
0.0
 11
-97.6197932815
 21
-3.3748586636
 31
0.0
 11
-97.6199402411
 21
-3.3874717221
 31
0.0
 11
-97.6201440856
 21
-3.397960197
 31
0.0
 11
-97.6204028401
 21
-3.406230504
 31
0.0
 11
-97.6207143575
 21
-3.412194618
 31
0.0
 11
-97.6210751849
 21
-3.4157989835
 31
0.0
 11
-97.6214810263
 21
-3.4170122834
 31
0.0
  0
ELLIPSE
  5
37F
100
AcDbEntity
  8
RACCORDO
100
AcDbEllipse
 62
7
  6
CONTINUOUS
 10
44.8412267691
 20
22.2912267691
 30
0.0
 11
-0.2121966568
 21
-0.2121966568
 31
0.0
 40
0.9996954599
 41
2.3563467834
 42
3.9268385237
  0
ELLIPSE
  5
380
100
AcDbEntity
  8
RACCORDO
100
AcDbEllipse
 62
7
  6
CONTINUOUS
 10
44.8412267691
 20
-22.2912267691
 30
0.0
 11
-0.2121966568
 21
0.2121966568
 31
0.0
 40
0.9996954599
 41
2.3563467834
 42
3.9268385237
  0
ELLIPSE
  5
381
100
AcDbEntity
  8
RACCORDO
100
AcDbEllipse
 62
7
  6
CONTINUOUS
 10
-44.8412267691
 20
22.2912267691
 30
0.0
 11
-0.2121966568
 21
0.2121966568
 31
0.0
 40
0.9996954599
 41
-0.7852458701
 42
0.7852458701
  0
ELLIPSE
  5
382
100
AcDbEntity
  8
RACCORDO
100
AcDbEllipse
 62
7
  6
CONTINUOUS
 10
-44.8412267691
 20
-22.2912267691
 30
0.0
 11
0.2121966568
 21
0.2121966568
 31
0.0
 40
0.9996954599
 41
2.3563467834
 42
3.9268385237
  0
ELLIPSE
  5
383
100
AcDbEntity
  8
RACCORDO
100
AcDbEllipse
 62
7
  6
CONTINUOUS
 10
47.7088739678
 20
25.5588739678
 30
0.0
 11
0.4951255324
 21
0.4951255324
 31
0.0
 40
0.9996954599
 41
-0.7852458701
 42
0.7852458702
  0
ELLIPSE
  5
384
100
AcDbEntity
  8
RACCORDO
100
AcDbEllipse
 62
7
  6
CONTINUOUS
 10
47.7088739678
 20
-25.5588739678
 30
0.0
 11
0.4951255324
 21
-0.4951255324
 31
0.0
 40
0.9996954599
 41
-0.7852458702
 42
0.7852458701
  0
ELLIPSE
  5
385
100
AcDbEntity
  8
RACCORDO
100
AcDbEllipse
 62
7
  6
CONTINUOUS
 10
-47.7088739678
 20
-25.5588739678
 30
0.0
 11
0.4951255324
 21
0.4951255324
 31
0.0
 40
0.9996954599
 41
-3.9268385237
 42
-2.3563467834
  0
ELLIPSE
  5
386
100
AcDbEntity
  8
RACCORDO
100
AcDbEllipse
 62
7
  6
CONTINUOUS
 10
-47.7088739678
 20
25.5588739678
 30
0.0
 11
0.4951255324
 21
-0.4951255324
 31
0.0
 40
0.9996954599
 41
2.3563467835
 42
3.9268385238
  0
ELLIPSE
  5
387
100
AcDbEntity
  8
SMUSSO
100
AcDbEllipse
 62
7
  6
CONTINUOUS
 10
-104.8091774613
 20
52.0
 30
0.0
 11
0.0
 21
1.0
 31
0.0
 40
0.3333333333
 41
-1.5707963268
 42
-0.7853981634
  0
ELLIPSE
  5
388
100
AcDbEntity
  8
SMUSSO
100
AcDbEllipse
 62
7
  6
CONTINUOUS
 10
-104.8091774613
 20
-52.0
 30
0.0
 11
0.0
 21
1.0
 31
0.0
 40
0.3333333333
 41
-2.3561944902
 42
-1.5707963268
  0
ELLIPSE
  5
389
100
AcDbEntity
  8
ASSI
100
AcDbEllipse
 62
7
  6
CONTINUOUS
 10
-97.0758441279
 20
-25.9914384441
 30
0.0
 11
0.1417119467
 21
0.1422961243
 31
0.0
 40
0.9918061237
 41
-0.7833412615
 42
0.7350951877
  0
ELLIPSE
  5
38A
100
AcDbEntity
  8
ASSI
100
AcDbEllipse
 62
7
  6
CONTINUOUS
 10
-97.0758441279
 20
25.9914384441
 30
0.0
 11
-0.1417119467
 21
0.1422961243
 31
0.0
 40
0.9918061237
 41
-3.8766878413
 42
-2.358251392
  0
ENDSEC
  0
SECTION
  2
OBJECTS
  0
DICTIONARY
  5
C
100
AcDbDictionary
280
0
281
1
  3
ACAD_GROUP
350
D
  3
ACAD_MLINESTYLE
350
17
  3
ACAD_LAYOUT
350
1A
  3
ACAD_PLOTSETTINGS
350
19
  3
ACAD_PLOTSTYLENAME
350
E
  0
DICTIONARY
  5
D
102
{ACAD_REACTORS
330
C
102
}
100
AcDbDictionary
280
0
281
1
  0
ACDBDICTIONARYWDFLT
  5
E
102
{ACAD_REACTORS
330
C
102
}
100
AcDbDictionary
281
1
  3
Normal
350
F
100
AcDbDictionaryWithDefault
340
F
  0
DICTIONARY
  5
17
102
{ACAD_REACTORS
330
C
102
}
100
AcDbDictionary
280
0
281
1
  3
Standard
350
18
  0
DICTIONARY
  5
19
102
{ACAD_REACTORS
330
C
102
}
100
AcDbDictionary
281
1
  0
DICTIONARY
  5
1A
102
{ACAD_REACTORS
330
C
102
}
100
AcDbDictionary
281
1
  3
Model
350
38B
  3
Layout1
350
38C
  0
ACDBPLACEHOLDER
  5
F
102
{ACAD_REACTORS
330
E
102
}
  0
MLINESTYLE
  5
18
102
{ACAD_REACTORS
330
17
102
}
100
AcDbMlineStyle
  2
STANDARD
 70
0
  3

 62
256
 51
90.0
 52
90.0
 71
2
 49
0.5
 62
256
  6
BYLAYER
 49
-0.5
 62
256
  6
BYLAYER
  0
LAYOUT
  5
38B
102
{ACAD_REACTORS
330
1A
102
}
100
AcDbPlotSettings
  1

  2
none_device
  4
ISO_A4_(297.00_x_210.00_MM)
  6

 40
0.0
 41
0.0
 42
0.0
 43
0.0
 44
297.0
 45
210.0
 46
0.0
 47
0.0
 48
0.0
 49
0.0
140
0.0
141
0.0
142
1.0
143
1.0
 70
1024
 72
1
 73
0
 74
0
  7

 75
0
147
1.0
148
0.0
149
0.0
100
AcDbLayout
  1
Model
 70
0
 71
0
 10
0.0
 20
0.0
 11
297.0
 21
210.0
 12
0.0
 22
0.0
 32
0.0
 14
0.0
 24
0.0
 34
0.0
 15
0.0
 25
0.0
 35
0.0
146
0.0
 13
0.0
 23
0.0
 33
0.0
 16
1.0
 26
0.0
 36
0.0
 17
0.0
 27
1.0
 37
0.0
 76
0
330
212
345
0
346
0
  0
LAYOUT
  5
38C
102
{ACAD_REACTORS
330
1A
102
}
100
AcDbPlotSettings
  1

  2
none_device
  4
ISO_A4_(297.00_x_210.00_MM)
  6

 40
0.0
 41
0.0
 42
0.0
 43
0.0
 44
297.0
 45
210.0
 46
0.0
 47
0.0
 48
0.0
 49
0.0
140
0.0
141
0.0
142
1.0
143
1.0
 70
0
 72
1
 73
0
 74
0
  7

 75
0
147
1.0
148
0.0
149
0.0
100
AcDbLayout
  1
Layout1
 70
0
 71
1
 10
0.0
 20
0.0
 11
297.0
 21
210.0
 12
0.0
 22
0.0
 32
0.0
 14
0.0
 24
0.0
 34
0.0
 15
0.0
 25
0.0
 35
0.0
146
0.0
 13
0.0
 23
0.0
 33
0.0
 16
1.0
 26
0.0
 36
0.0
 17
0.0
 27
1.0
 37
0.0
 76
0
330
213
345
0
346
0
  0
ENDSEC
  0
EOF
