  0
SECTION
  2
HEADER
  9
$ACADVER
  1
AC1015
  9
$DWGCODEPAGE
  3
ANSI_1252
  9
$EXTMAX
 10
297.0
 20
210.0
 30
0.0
  9
$EXTMIN
 10
0.0
 20
0.0
 30
0.0
  9
$LIMMIN
 10
0.0
 20
0.0
  9
$LIMMAX
 10
297.0
 20
210.0
  9
$VIEWCTR
 10
148.5
 20
105.0
  9
$VIEWSIZE
 40
210.0
  9
$CLAYER
  8
0
  9
$LTSCALE
 40
16.335
  9
$CELTYPE
  6
BYLAYER
  9
$DIMSCALE
 40
1.0
  9
$DIMASZ
 40
3.0
  9
$DIMEXO
 40
1.85625
  9
$DIMDLI
 40
11.286
  9
$DIMEXE
 40
5.346
  9
$DIMCEN
 40
2.673
  9
$DIMLFAC
 40
1.0
  9
$DIMBLK
  1
_FILLED
  9
$DIMTXT
 40
3.0
  9
$DIMTOL
 70
1
  9
$DIMLIM
 70
0
  9
$DIMTFAC
 40
1.0
  9
$DIMTP
 40
0.01
  9
$DIMTM
 40
0.01
  9
$PDMODE
 70
3
  9
$PDSIZE
 40
3.0
  9
$HANDSEED
  5
2CF
  9
$TILEMODE
 70
1
  9
$MEASUREMENT
 70
1
  9
$INSUNITS
 70
4
  0
ENDSEC
  0
SECTION
  2
CLASSES
  0
CLASS
  1
ACDBDICTIONARYWDFLT
  2
AcDbDictionaryWithDefault
  3
AutoCAD 2000
 90
0
280
0
281
0
  0
CLASS
  1
ACDBPLACEHOLDER
  2
AcDbPlaceHolder
  3
AutoCAD 2000
 90
0
280
0
281
0
  0
CLASS
  1
LAYOUT
  2
AcDbLayout
  3
AutoCAD 2000
 90
0
280
0
281
0
  0
ENDSEC
  0
SECTION
  2
TABLES
  0
TABLE
  2
VPORT
  5
8
100
AcDbSymbolTable
 70
2
  0
VPORT
  5
1F4
100
AcDbSymbolTableRecord
100
AcDbViewportTableRecord
  2
*ACTIVE
 70
0
 10
0.0
 20
0.0
 11
1.0
 21
1.0
 12
148.5
 22
105.0
 13
0.0
 23
0.0
 14
1.0
 24
1.0
 15
0.0
 25
0.0
 16
0.0
 26
0.0
 36
1.0
 17
0.0
 27
0.0
 37
0.0
 40
210.0
 41
1.4142857143
 42
50.0
 43
0.0
 44
0.0
 50
0.0
 51
0.0
 71
0
 72
100
 73
1
 74
1
 75
0
 76
0
 77
0
 78
0
  0
ENDTAB
  0
TABLE
  2
LTYPE
  5
5
100
AcDbSymbolTable
 70
6
  0
LTYPE
  5
14
100
AcDbSymbolTableRecord
100
AcDbLinetypeTableRecord
  2
BYBLOCK
 70
0
  3

 72
65
 73
0
 40
0.0
  0
LTYPE
  5
15
100
AcDbSymbolTableRecord
100
AcDbLinetypeTableRecord
  2
BYLAYER
 70
0
  3

 72
65
 73
0
 40
0.0
  0
LTYPE
  5
16
100
AcDbSymbolTableRecord
100
AcDbLinetypeTableRecord
  2
CONTINUOUS
 70
64
  3
Solid line
 72
65
 73
0
 40
0.0
  0
LTYPE
  5
1F5
100
AcDbSymbolTableRecord
100
AcDbLinetypeTableRecord
  2
CENTER
 70
64
  3
____ _ ____ _ ____ _ ____ _ ____ _ ____ _ ____
 72
65
 73
4
 40
0.6
 49
0.375
 74
0
 49
-0.075
 74
0
 49
0.075
 74
0
 49
-0.075
 74
0
  0
LTYPE
  5
1F6
100
AcDbSymbolTableRecord
100
AcDbLinetypeTableRecord
  2
HIDDEN
 70
64
  3
- - - - - - - - - - - - - - - - - - - -
 72
65
 73
2
 40
0.2
 49
0.1
 74
0
 49
-0.1
 74
0
  0
LTYPE
  5
1F7
100
AcDbSymbolTableRecord
100
AcDbLinetypeTableRecord
  2
PHANTOM
 70
64
  3
_____ _ _ _____ _ _ _____ _ _ _____
 72
65
 73
6
 40
0.8
 49
0.45
 74
0
 49
-0.05
 74
0
 49
0.1
 74
0
 49
-0.05
 74
0
 49
0.1
 74
0
 49
-0.05
 74
0
  0
LTYPE
  5
1F8
100
AcDbSymbolTableRecord
100
AcDbLinetypeTableRecord
  2
DOT
 70
64
  3
. . . . . . . . . . . . . . . . . . . .
 72
65
 73
2
 40
0.2
 49
0.1
 74
0
 49
-0.1
 74
0
  0
LTYPE
  5
1F9
100
AcDbSymbolTableRecord
100
AcDbLinetypeTableRecord
  2
DASHED
 70
64
  3
- - - - - - - - - - - - - - - - - - - -
 72
65
 73
2
 40
0.2
 49
0.1
 74
0
 49
-0.1
 74
0
  0
ENDTAB
  0
TABLE
  2
LAYER
  5
2
100
AcDbSymbolTable
 70
36
  0
LAYER
  5
10
100
AcDbSymbolTableRecord
100
AcDbLayerTableRecord
  2
0
 70
0
 62
7
  6
CONTINUOUS
370
-3
390
F
  0
LAYER
  5
1FA
100
AcDbSymbolTableRecord
100
AcDbLayerTableRecord
  2
DEFAULT_1
 70
0
 62
7
  6
CENTER
370
-3
390
F
  0
LAYER
  5
1FB
100
AcDbSymbolTableRecord
100
AcDbLayerTableRecord
  2
DEFAULT_2
 70
0
 62
7
  6
HIDDEN
370
-3
390
F
  0
LAYER
  5
1FC
100
AcDbSymbolTableRecord
100
AcDbLayerTableRecord
  2
DEFAULT_3
 70
0
 62
7
  6
PHANTOM
370
-3
390
F
  0
LAYER
  5
1FD
100
AcDbSymbolTableRecord
100
AcDbLayerTableRecord
  2
ASSI
 70
0
 62
7
  6
CONTINUOUS
370
-3
390
F
  0
LAYER
  5
1FE
100
AcDbSymbolTableRecord
100
AcDbLayerTableRecord
  2
COLOR9
 70
0
 62
7
  6
CONTINUOUS
370
-3
390
F
  0
LAYER
  5
1FF
100
AcDbSymbolTableRecord
100
AcDbLayerTableRecord
  2
COORDINATE
 70
0
 62
7
  6
CONTINUOUS
370
-3
390
F
  0
LAYER
  5
200
100
AcDbSymbolTableRecord
100
AcDbLayerTableRecord
  2
COORD_ORIGINE
 70
0
 62
7
  6
CONTINUOUS
370
-3
390
F
  0
LAYER
  5
201
100
AcDbSymbolTableRecord
100
AcDbLayerTableRecord
  2
COPY_PUBLISH
 70
0
 62
7
  6
CONTINUOUS
370
-3
390
F
  0
LAYER
  5
202
100
AcDbSymbolTableRecord
100
AcDbLayerTableRecord
  2
COSMETIC
 70
0
 62
7
  6
CONTINUOUS
370
-3
390
F
  0
LAYER
  5
203
100
AcDbSymbolTableRecord
100
AcDbLayerTableRecord
  2
CURVE
 70
0
 62
7
  6
CONTINUOUS
370
-3
390
F
  0
LAYER
  5
204
100
AcDbSymbolTableRecord
100
AcDbLayerTableRecord
  2
DRAFT
 70
0
 62
7
  6
CONTINUOUS
370
-3
390
F
  0
LAYER
  5
205
100
AcDbSymbolTableRecord
100
AcDbLayerTableRecord
  2
IGS_SCRITTE
 70
0
 62
7
  6
CONTINUOUS
370
-3
390
F
  0
LAYER
  5
206
100
AcDbSymbolTableRecord
100
AcDbLayerTableRecord
  2
IMPORT_IGES
 70
0
 62
7
  6
CONTINUOUS
370
-3
390
F
  0
LAYER
  5
207
100
AcDbSymbolTableRecord
100
AcDbLayerTableRecord
  2
INTF_YELLOW
 70
0
 62
7
  6
CONTINUOUS
370
-3
390
F
  0
LAYER
  5
208
100
AcDbSymbolTableRecord
100
AcDbLayerTableRecord
  2
PIANI
 70
0
 62
7
  6
CONTINUOUS
370
-3
390
F
  0
LAYER
  5
209
100
AcDbSymbolTableRecord
100
AcDbLayerTableRecord
  2
PIANI_ORIGINE
 70
0
 62
7
  6
CONTINUOUS
370
-3
390
F
  0
LAYER
  5
20A
100
AcDbSymbolTableRecord
100
AcDbLayerTableRecord
  2
PIANI_RIFERIMENTO
 70
0
 62
7
  6
CONTINUOUS
370
-3
390
F
  0
LAYER
  5
20B
100
AcDbSymbolTableRecord
100
AcDbLayerTableRecord
  2
RACCORDO
 70
0
 62
7
  6
CONTINUOUS
370
-3
390
F
  0
LAYER
  5
20C
100
AcDbSymbolTableRecord
100
AcDbLayerTableRecord
  2
SMUSSO
 70
0
 62
7
  6
CONTINUOUS
370
-3
390
F
  0
LAYER
  5
20D
100
AcDbSymbolTableRecord
100
AcDbLayerTableRecord
  2
SNAPLINE
 70
0
 62
7
  6
CONTINUOUS
370
-3
390
F
  0
LAYER
  5
20E
100
AcDbSymbolTableRecord
100
AcDbLayerTableRecord
  2
SOLIDO
 70
0
 62
7
  6
CONTINUOUS
370
-3
390
F
  0
LAYER
  5
20F
100
AcDbSymbolTableRecord
100
AcDbLayerTableRecord
  2
SUPERFICI
 70
0
 62
7
  6
CONTINUOUS
370
-3
390
F
  0
LAYER
  5
210
100
AcDbSymbolTableRecord
100
AcDbLayerTableRecord
  2
TRASH
 70
0
 62
7
  6
CONTINUOUS
370
-3
390
F
  0
LAYER
  5
211
100
AcDbSymbolTableRecord
100
AcDbLayerTableRecord
  2
WHITE
 70
0
 62
7
  6
CONTINUOUS
370
-3
390
F
  0
LAYER
  5
212
100
AcDbSymbolTableRecord
100
AcDbLayerTableRecord
  2
XSEC_DATUMS
 70
0
 62
7
  6
CONTINUOUS
370
-3
390
F
  0
ENDTAB
  0
TABLE
  2
STYLE
  5
3
100
AcDbSymbolTable
 70
1
  0
STYLE
  5
11
100
AcDbSymbolTableRecord
100
AcDbTextStyleTableRecord
  2
STANDARD
 70
0
 40
0.0
 41
0.8
 50
0.0
 71
0
 42
0.2
  3
txt
  4

  0
STYLE
  5
213
100
AcDbSymbolTableRecord
100
AcDbTextStyleTableRecord
  2
TEXTSTYLE_1
 70
0
 40
0.0
 41
0.8
 50
0.0
 71
0
 42
0.2
  3
gdt
  4

  0
ENDTAB
  0
TABLE
  2
VIEW
  5
6
100
AcDbSymbolTable
 70
0
  0
ENDTAB
  0
TABLE
  2
UCS
  5
7
100
AcDbSymbolTable
 70
0
  0
ENDTAB
  0
TABLE
  2
APPID
  5
9
100
AcDbSymbolTable
 70
1
  0
APPID
  5
214
100
AcDbSymbolTableRecord
100
AcDbRegAppTableRecord
  2
ACAD
 70
0
  0
ENDTAB
  0
TABLE
  2
BLOCK_RECORD
  5
1
100
AcDbSymbolTable
 70
0
  0
BLOCK_RECORD
  5
215
100
AcDbSymbolTableRecord
100
AcDbBlockTableRecord
  2
*Model_Space
  0
BLOCK_RECORD
  5
216
100
AcDbSymbolTableRecord
100
AcDbBlockTableRecord
  2
*Paper_Space
  0
BLOCK_RECORD
  5
217
100
AcDbSymbolTableRecord
100
AcDbBlockTableRecord
  2
_FILLED
  0
BLOCK_RECORD
  5
218
100
AcDbSymbolTableRecord
100
AcDbBlockTableRecord
  2
*D0
  0
BLOCK_RECORD
  5
219
100
AcDbSymbolTableRecord
100
AcDbBlockTableRecord
  2
*D1
  0
BLOCK_RECORD
  5
21A
100
AcDbSymbolTableRecord
100
AcDbBlockTableRecord
  2
*D2
  0
ENDTAB
  0
TABLE
  2
DIMSTYLE
  5
A
100
AcDbSymbolTable
 70
1
100
AcDbDimStyleTable
 71
0
  0
DIMSTYLE
105
21B
100
AcDbSymbolTableRecord
100
AcDbDimStyleTableRecord
  2
STANDARD
 70
0
  3

  4

 40
1.0
 41
3.0
 42
0.0625
 43
0.38
 44
0.18
 45
0.0
 46
0.0
 47
0.01
 48
0.01
140
3.0
141
0.09
142
0.0
143
25.4
144
1.0
145
0.0
146
1.0
147
0.09
 71
1.0
 72
0.0
 73
0
 74
0
 75
0
 76
0
 77
1
 78
8
170
0
171
2
172
0
173
0
174
0
175
0
176
0
177
0
178
0
270
2
271
2
272
2
273
2
274
2
275
0
280
0
281
0
282
0
283
1
284
8
285
0
286
0
287
3
288
0
340
11
341
217
342
217
343
217
344
217
  0
DIMSTYLE
105
21C
100
AcDbSymbolTableRecord
100
AcDbDimStyleTableRecord
  2
DIMSTYLE_1
 70
0
  3

  4

 40
1.0
 41
3.0
 42
0.0625
 43
0.38
 44
0.18
 45
0.0
 46
0.0
 47
0.0
 48
0.0
140
3.0
141
0.09
142
0.0
143
25.4
144
1.0
145
0.0
146
1.0
147
0.09
 71
0.0
 72
0.0
 73
0
 74
0
 75
0
 76
0
 77
1
 78
8
170
0
171
2
172
0
173
0
174
0
175
0
176
0
177
0
178
0
270
2
271
2
272
2
273
2
274
2
275
0
280
0
281
0
282
0
283
1
284
8
285
0
286
0
287
3
288
0
340
11
341
217
342
217
343
217
344
217
  0
DIMSTYLE
105
21D
100
AcDbSymbolTableRecord
100
AcDbDimStyleTableRecord
  2
DIMSTYLE_2
 70
0
  3

  4

 40
1.0
 41
3.0
 42
0.0625
 43
0.38
 44
0.18
 45
0.0
 46
0.0
 47
0.0
 48
0.0
140
3.0
141
0.09
142
0.0
143
25.4
144
1.0
145
0.0
146
1.0
147
0.09
 71
0.0
 72
0.0
 73
0
 74
0
 75
0
 76
0
 77
1
 78
8
170
0
171
2
172
0
173
0
174
0
175
0
176
0
177
0
178
0
270
2
271
1
272
1
273
2
274
2
275
0
280
0
281
0
282
0
283
1
284
8
285
0
286
0
287
3
288
0
340
11
341
217
342
217
343
217
344
217
  0
ENDTAB
  0
ENDSEC
  0
SECTION
  2
BLOCKS
  0
BLOCK
  5
20
100
AcDbEntity
  8
0
100
AcDbBlockBegin
  2
*Model_Space
 70
0
 10
0.0
 20
0.0
 30
0.0
  3
*Model_Space
  1

  0
ENDBLK
  5
21
100
AcDbEntity
  8
0
100
AcDbBlockEnd
  0
BLOCK
  5
1C
100
AcDbEntity
  8
0
100
AcDbBlockBegin
  2
*Paper_Space
 70
0
 10
0.0
 20
0.0
 30
0.0
  3
*Paper_Space
  1

  0
ENDBLK
  5
1D
100
AcDbEntity
  8
0
100
AcDbBlockEnd
  0
BLOCK
  5
21E
100
AcDbEntity
  8
0
100
AcDbBlockBegin
  2
_FILLED
 70
64
 10
0.0
 20
0.0
  3
_FILLED
  1

  0
SOLID
  5
21F
100
AcDbEntity
  8
0
  6
BYBLOCK
 62
0
100
AcDbTrace
 10
0.0
 20
0.0
 11
-1.0
 21
0.3166666667
 12
-1.0
 22
-0.3166666667
 13
-1.0
 23
-0.3166666667
  0
ENDBLK
  5
220
100
AcDbEntity
  8
0
  6
BYBLOCK
 62
0
100
AcDbBlockEnd
  0
BLOCK
  5
221
100
AcDbEntity
  8
0
100
AcDbBlockBegin
 62
7
  6
CONTINUOUS
  2
*D0
 70
65
 10
0.0
 20
0.0
  3
*D0
  1

  0
MTEXT
  5
222
100
AcDbEntity
  8
0
100
AcDbMText
 62
7
  6
CONTINUOUS
  7
STANDARD
 71
2
 72
1
 10
13.6295914693
 20
22.5760969194
 30
0.0
 11
1.0
 21
0.0
 31
0.0
 44
0.9
  1
44,7
 40
3.0
 41
8.7857142857
  0
LINE
  5
223
100
AcDbEntity
  8
0
100
AcDbLine
 62
7
  6
CONTINUOUS
 10
35.9795914693
 20
11.0759235406
 11
35.9795914693
 21
20.3260969194
  0
LINE
  5
224
100
AcDbEntity
  8
0
100
AcDbLine
 62
7
  6
CONTINUOUS
 10
-8.7204085307
 20
11.0759235406
 11
-8.7204085307
 21
20.3260969194
  0
LINE
  5
225
100
AcDbEntity
  8
0
100
AcDbLine
 62
7
  6
CONTINUOUS
 10
35.9795914693
 20
18.8260969194
 11
13.6295914693
 21
18.8260969194
  0
LINE
  5
226
100
AcDbEntity
  8
0
100
AcDbLine
 62
7
  6
CONTINUOUS
 10
-8.7204085307
 20
18.8260969194
 11
13.6295914693
 21
18.8260969194
  0
INSERT
  5
227
100
AcDbEntity
  8
0
100
AcDbBlockReference
 62
7
  6
CONTINUOUS
  2
_FILLED
 10
35.9795914693
 20
18.8260969194
 41
3.0
 42
3.0
 43
3.0
  0
INSERT
  5
228
100
AcDbEntity
  8
0
100
AcDbBlockReference
 62
7
  6
CONTINUOUS
  2
_FILLED
 10
-8.7204085307
 20
18.8260969194
 41
3.0
 42
3.0
 43
3.0
 50
180.0
  0
ENDBLK
  5
229
100
AcDbEntity
  8
0
  6
BYBLOCK
 62
0
100
AcDbBlockEnd
  0
BLOCK
  5
22A
100
AcDbEntity
  8
0
100
AcDbBlockBegin
 62
7
  6
CONTINUOUS
  2
*D1
 70
65
 10
0.0
 20
0.0
  3
*D1
  1

  0
MTEXT
  5
22B
100
AcDbEntity
  8
0
100
AcDbMText
 62
7
  6
CONTINUOUS
  7
STANDARD
 71
2
 72
1
 10
40.2295914693
 20
-0.2282620509
 30
0.0
 11
0.0
 21
1.0
 31
0.0
 44
0.9
  1
22,1
 40
3.0
 41
8.1428571429
  0
LINE
  5
22C
100
AcDbEntity
  8
0
100
AcDbLine
 62
7
  6
CONTINUOUS
 10
36.2295152676
 20
10.8258569194
 11
45.4795914693
 21
10.8258569194
  0
LINE
  5
22D
100
AcDbEntity
  8
0
100
AcDbLine
 62
7
  6
CONTINUOUS
 10
35.9523732746
 20
-11.2823810212
 11
45.4795914693
 21
-11.2823810212
  0
LINE
  5
22E
100
AcDbEntity
  8
0
100
AcDbLine
 62
7
  6
CONTINUOUS
 10
43.9795914693
 20
10.8258569194
 11
43.9795914693
 21
-0.2282620509
  0
LINE
  5
22F
100
AcDbEntity
  8
0
100
AcDbLine
 62
7
  6
CONTINUOUS
 10
43.9795914693
 20
-11.2823810212
 11
43.9795914693
 21
-0.2282620509
  0
INSERT
  5
230
100
AcDbEntity
  8
0
100
AcDbBlockReference
 62
7
  6
CONTINUOUS
  2
_FILLED
 10
43.9795914693
 20
10.8258569194
 41
3.0
 42
3.0
 43
3.0
 50
90.0
  0
INSERT
  5
231
100
AcDbEntity
  8
0
100
AcDbBlockReference
 62
7
  6
CONTINUOUS
  2
_FILLED
 10
43.9795914693
 20
-11.2823810212
 41
3.0
 42
3.0
 43
3.0
 50
270.0
  0
ENDBLK
  5
232
100
AcDbEntity
  8
0
  6
BYBLOCK
 62
0
100
AcDbBlockEnd
  0
BLOCK
  5
233
100
AcDbEntity
  8
0
100
AcDbBlockBegin
 62
7
  6
CONTINUOUS
  2
*D2
 70
65
 10
0.0
 20
0.0
  3
*D2
  1

  0
MTEXT
  5
234
100
AcDbEntity
  8
0
100
AcDbMText
 62
7
  6
CONTINUOUS
  7
STANDARD
 71
2
 72
1
 10
-23.1304933214
 20
22.5760969194
 30
0.0
 11
1.0
 21
0.0
 31
0.0
 44
0.9
  1
5,7
 40
3.0
 41
6.2142857143
  0
LINE
  5
235
100
AcDbEntity
  8
0
100
AcDbLine
 62
7
  6
CONTINUOUS
 10
-20.2805724313
 20
11.0759235406
 11
-20.2805724313
 21
20.3260969194
  0
LINE
  5
236
100
AcDbEntity
  8
0
100
AcDbLine
 62
7
  6
CONTINUOUS
 10
-25.9804142115
 20
11.0280884662
 11
-25.9804142115
 21
20.3260969194
  0
LINE
  5
237
100
AcDbEntity
  8
0
100
AcDbLine
 62
7
  6
CONTINUOUS
 10
-20.2805724313
 20
18.8260969194
 11
-16.2805724313
 21
18.8260969194
  0
LINE
  5
238
100
AcDbEntity
  8
0
100
AcDbLine
 62
7
  6
CONTINUOUS
 10
-16.2805724313
 20
18.8260969194
 11
-23.1304933214
 21
18.8260969194
  0
LINE
  5
239
100
AcDbEntity
  8
0
100
AcDbLine
 62
7
  6
CONTINUOUS
 10
-25.9804142115
 20
18.8260969194
 11
-29.9804142115
 21
18.8260969194
  0
LINE
  5
23A
100
AcDbEntity
  8
0
100
AcDbLine
 62
7
  6
CONTINUOUS
 10
-29.9804142115
 20
18.8260969194
 11
-23.1304933214
 21
18.8260969194
  0
INSERT
  5
23B
100
AcDbEntity
  8
0
100
AcDbBlockReference
 62
7
  6
CONTINUOUS
  2
_FILLED
 10
-20.2805724313
 20
18.8260969194
 41
3.0
 42
3.0
 43
3.0
 50
180.0
  0
INSERT
  5
23C
100
AcDbEntity
  8
0
100
AcDbBlockReference
 62
7
  6
CONTINUOUS
  2
_FILLED
 10
-25.9804142115
 20
18.8260969194
 41
3.0
 42
3.0
 43
3.0
  0
ENDBLK
  5
23D
100
AcDbEntity
  8
0
  6
BYBLOCK
 62
0
100
AcDbBlockEnd
  0
ENDSEC
  0
SECTION
  2
ENTITIES
  0
DIMENSION
  5
23E
100
AcDbEntity
  8
0
100
AcDbDimension
 62
7
  6
CONTINUOUS
  2
*D0
 10
-8.7204085307
 20
18.8260969194
 11
9.2367343265
 21
21.0760969194
 70
160
 71
2
 42
44.7
  3
DIMSTYLE_1
100
AcDbAlignedDimension
 13
35.9795914693
 23
11.0759235406
 14
-8.7204085307
 24
11.0759235406
 50
180.0
100
AcDbRotatedDimension
  0
DIMENSION
  5
23F
100
AcDbEntity
  8
0
100
AcDbDimension
 62
7
  6
CONTINUOUS
  2
*D1
 10
43.9795914693
 20
-11.2823810212
 11
43.5538911921
 21
-3.8681056099
 70
160
 71
2
 42
22.1082379406
  3
DIMSTYLE_2
100
AcDbAlignedDimension
 13
36.2295152676
 23
10.8258569194
 14
35.9523732746
 24
-11.2823810212
 50
270.0
100
AcDbRotatedDimension
  0
DIMENSION
  5
240
100
AcDbEntity
  8
0
100
AcDbDimension
 62
7
  6
CONTINUOUS
  2
*D2
 10
-25.9804142115
 20
18.8260969194
 11
-26.2376361785
 21
21.0760969194
 70
160
 71
2
 42
5.6998417802
  3
DIMSTYLE_1
100
AcDbAlignedDimension
 13
-20.2805724313
 23
11.0759235406
 14
-25.9804142115
 24
11.0280884662
 50
180.0
100
AcDbRotatedDimension
  0
LINE
  5
241
100
AcDbEntity
  8
0
100
AcDbLine
 62
7
  6
CONTINUOUS
 10
-8.6941012213
 20
-10.7848903884
 11
-8.7204085307
 21
-2.1741430806
  0
LINE
  5
242
100
AcDbEntity
  8
RACCORDO
100
AcDbLine
 62
7
  6
CONTINUOUS
 10
-8.7204085307
 20
10.5759235406
 11
-8.7204085307
 21
-2.1741430806
  0
LINE
  5
243
100
AcDbEntity
  8
RACCORDO
100
AcDbLine
 62
253
  6
CONTINUOUS
 10
-8.0385212768
 20
10.5280884659
 11
-8.0385212768
 21
10.7782778311
  0
LINE
  5
244
100
AcDbEntity
  8
0
100
AcDbLine
 62
253
  6
CONTINUOUS
 10
-8.6941012213
 20
-10.7848903884
 11
-8.5920742123
 21
-10.6317720852
  0
LINE
  5
245
100
AcDbEntity
  8
0
100
AcDbLine
 62
253
  6
CONTINUOUS
 10
-8.1931903359
 20
-11.2823810212
 11
-8.0923787988
 21
-11.1310868526
  0
LINE
  5
246
100
AcDbEntity
  8
RACCORDO
100
AcDbLine
 62
7
  6
CONTINUOUS
 10
28.2736377684
 20
-11.2823810212
 11
28.6218564424
 21
-11.2507721896
  0
LINE
  5
247
100
AcDbEntity
  8
RACCORDO
100
AcDbLine
 62
7
  6
CONTINUOUS
 10
-1.0144548298
 20
-11.2823810212
 11
-1.3626735038
 21
-11.2507721896
  0
LINE
  5
248
100
AcDbEntity
  8
RACCORDO
100
AcDbLine
 62
7
  6
CONTINUOUS
 10
17.0736377684
 20
-11.2823810212
 11
17.4218564424
 21
-11.2507721896
  0
LINE
  5
249
100
AcDbEntity
  8
RACCORDO
100
AcDbLine
 62
7
  6
CONTINUOUS
 10
5.7736377684
 20
-11.2823810212
 11
6.1218564424
 21
-11.2507721896
  0
LINE
  5
24A
100
AcDbEntity
  8
0
100
AcDbLine
 62
7
  6
CONTINUOUS
 10
35.4523732746
 20
-11.2823810212
 11
32.6855451702
 21
-11.2823810212
  0
LINE
  5
24B
100
AcDbEntity
  8
DRAFT
100
AcDbLine
 62
7
  6
CONTINUOUS
 10
28.2736377684
 20
-11.2823810212
 11
21.4855451702
 21
-11.2823810212
  0
LINE
  5
24C
100
AcDbEntity
  8
DRAFT
100
AcDbLine
 62
7
  6
CONTINUOUS
 10
17.0736377684
 20
-11.2823810212
 11
10.1855451702
 21
-11.2823810212
  0
LINE
  5
24D
100
AcDbEntity
  8
DRAFT
100
AcDbLine
 62
7
  6
CONTINUOUS
 10
5.7736377684
 20
-11.2823810212
 11
-1.0144548298
 21
-11.2823810212
  0
LINE
  5
24E
100
AcDbEntity
  8
0
100
AcDbLine
 62
7
  6
CONTINUOUS
 10
-5.4263622316
 20
-11.2823810212
 11
-8.1931903359
 21
-11.2823810212
  0
LINE
  5
24F
100
AcDbEntity
  8
RACCORDO
100
AcDbLine
 62
7
  6
CONTINUOUS
 10
32.1641214155
 20
-11.2455314117
 11
28.7950615232
 21
-11.2455314117
  0
LINE
  5
250
100
AcDbEntity
  8
RACCORDO
100
AcDbLine
 62
7
  6
CONTINUOUS
 10
20.9641214155
 20
-11.2455314117
 11
17.5950615232
 21
-11.2455314117
  0
LINE
  5
251
100
AcDbEntity
  8
RACCORDO
100
AcDbLine
 62
7
  6
CONTINUOUS
 10
9.6641214155
 20
-11.2455314117
 11
6.2950615232
 21
-11.2455314117
  0
LINE
  5
252
100
AcDbEntity
  8
RACCORDO
100
AcDbLine
 62
7
  6
CONTINUOUS
 10
-1.5358785845
 20
-11.2455314117
 11
-4.9049384768
 21
-11.2455314117
  0
LINE
  5
253
100
AcDbEntity
  8
0
100
AcDbLine
 62
253
  6
CONTINUOUS
 10
-8.0923787988
 20
-11.1310868526
 11
35.3515617374
 21
-11.1310868526
  0
LINE
  5
254
100
AcDbEntity
  8
0
100
AcDbLine
 62
253
  6
CONTINUOUS
 10
-8.0760273431
 20
-10.2815395002
 11
35.3352102817
 21
-10.2815395002
  0
LINE
  5
255
100
AcDbEntity
  8
RACCORDO
100
AcDbLine
 62
7
  6
CONTINUOUS
 10
10.1855451702
 20
-11.2823810212
 11
9.8373264962
 21
-11.2507721896
  0
LINE
  5
256
100
AcDbEntity
  8
RACCORDO
100
AcDbLine
 62
7
  6
CONTINUOUS
 10
21.4855451702
 20
-11.2823810212
 11
21.1373264962
 21
-11.2507721896
  0
LINE
  5
257
100
AcDbEntity
  8
RACCORDO
100
AcDbLine
 62
7
  6
CONTINUOUS
 10
-5.4263622316
 20
-11.2823810212
 11
-5.0781435576
 21
-11.2507721896
  0
LINE
  5
258
100
AcDbEntity
  8
RACCORDO
100
AcDbLine
 62
7
  6
CONTINUOUS
 10
32.6855451702
 20
-11.2823810212
 11
32.3373264962
 21
-11.2507721896
  0
LINE
  5
259
100
AcDbEntity
  8
0
100
AcDbLine
 62
253
  6
CONTINUOUS
 10
35.3008474279
 20
1.4258569194
 11
-8.0416644892
 21
1.4258569194
  0
LINE
  5
25A
100
AcDbEntity
  8
RACCORDO
100
AcDbLine
 62
253
  6
CONTINUOUS
 10
35.9795914693
 20
10.5759235406
 11
35.7973996729
 21
10.5303929368
  0
LINE
  5
25B
100
AcDbEntity
  8
RACCORDO
100
AcDbLine
 62
253
  6
CONTINUOUS
 10
-8.5382167343
 20
10.5303929368
 11
-8.7204085307
 21
10.5759235406
  0
LINE
  5
25C
100
AcDbEntity
  8
RACCORDO
100
AcDbLine
 62
253
  6
CONTINUOUS
 10
35.7295152676
 20
10.8258569194
 11
35.5475518694
 21
10.7803833934
  0
LINE
  5
25D
100
AcDbEntity
  8
RACCORDO
100
AcDbLine
 62
7
  6
CONTINUOUS
 10
17.7814900129
 20
5.3258569194
 11
9.4776929258
 21
5.3258569194
  0
LINE
  5
25E
100
AcDbEntity
  8
SUPERFICI
100
AcDbLine
 62
7
  6
CONTINUOUS
 10
9.4776929258
 20
5.3258569194
 11
17.7814900129
 21
5.3258569194
  0
LINE
  5
25F
100
AcDbEntity
  8
RACCORDO
100
AcDbLine
 62
253
  6
CONTINUOUS
 10
-8.2883689307
 20
10.7803833934
 11
-8.4703323289
 21
10.8258569194
  0
LINE
  5
260
100
AcDbEntity
  8
RACCORDO
100
AcDbLine
 62
7
  6
CONTINUOUS
 10
17.7808625401
 20
7.5258569194
 11
9.4783203986
 21
7.5258569194
  0
LINE
  5
261
100
AcDbEntity
  8
SUPERFICI
100
AcDbLine
 62
7
  6
CONTINUOUS
 10
9.4783203986
 20
7.5258569194
 11
17.7808625401
 21
7.5258569194
  0
LINE
  5
262
100
AcDbEntity
  8
DRAFT
100
AcDbLine
 62
7
  6
CONTINUOUS
 10
33.3920574599
 20
10.8258569194
 11
33.1295914693
 21
10.799676316
  0
LINE
  5
263
100
AcDbEntity
  8
DRAFT
100
AcDbLine
 62
7
  6
CONTINUOUS
 10
-6.1328745213
 20
10.8258569194
 11
-5.8704085307
 21
10.799676316
  0
LINE
  5
264
100
AcDbEntity
  8
RACCORDO
100
AcDbLine
 62
253
  6
CONTINUOUS
 10
35.2977015323
 20
10.5280884659
 11
-8.0385185936
 21
10.5280884659
  0
LINE
  5
265
100
AcDbEntity
  8
RACCORDO
100
AcDbLine
 62
253
  6
CONTINUOUS
 10
35.2977042155
 20
10.7782778311
 11
-8.0385212768
 21
10.7782778311
  0
LINE
  5
266
100
AcDbEntity
  8
DRAFT
100
AcDbLine
 62
7
  6
CONTINUOUS
 10
33.1295914693
 20
10.799676316
 11
-5.8704085307
 21
10.799676316
  0
LINE
  5
267
100
AcDbEntity
  8
RACCORDO
100
AcDbLine
 62
7
  6
CONTINUOUS
 10
35.7295152676
 20
10.8258569194
 11
33.3920574599
 21
10.8258569194
  0
LINE
  5
268
100
AcDbEntity
  8
RACCORDO
100
AcDbLine
 62
7
  6
CONTINUOUS
 10
-6.1328745213
 20
10.8258569194
 11
-8.4703323289
 21
10.8258569194
  0
LINE
  5
269
100
AcDbEntity
  8
0
100
AcDbLine
 62
253
  6
CONTINUOUS
 10
35.3515617374
 20
-11.1310868526
 11
35.4523732746
 21
-11.2823810212
  0
LINE
  5
26A
100
AcDbEntity
  8
0
100
AcDbLine
 62
253
  6
CONTINUOUS
 10
35.8512571509
 20
-10.6317720852
 11
35.95328416
 21
-10.7848903884
  0
LINE
  5
26B
100
AcDbEntity
  8
RACCORDO
100
AcDbLine
 62
253
  6
CONTINUOUS
 10
35.2977042155
 20
10.5280884659
 11
35.2977042155
 21
10.7782778311
  0
LINE
  5
26C
100
AcDbEntity
  8
RACCORDO
100
AcDbLine
 62
7
  6
CONTINUOUS
 10
35.9795914693
 20
10.5759235406
 11
35.9795914693
 21
-2.1741430806
  0
LINE
  5
26D
100
AcDbEntity
  8
0
100
AcDbLine
 62
7
  6
CONTINUOUS
 10
35.95328416
 20
-10.7848903884
 11
35.9795914693
 21
-2.1741430806
  0
LINE
  5
26E
100
AcDbEntity
  8
0
100
AcDbLine
 62
7
  6
CONTINUOUS
 10
-23.9643047077
 20
-11.1310868526
 11
-21.0774399958
 21
-11.2823810212
  0
LINE
  5
26F
100
AcDbEntity
  8
0
100
AcDbLine
 62
253
  6
CONTINUOUS
 10
-23.9555864779
 20
-10.6317720852
 11
-21.0339152052
 21
-10.7848903884
  0
LINE
  5
270
100
AcDbEntity
  8
RACCORDO
100
AcDbLine
 62
253
  6
CONTINUOUS
 10
-20.7034481516
 20
-7.0076346818
 11
-20.6805724313
 21
-7.0076346818
  0
LINE
  5
271
100
AcDbEntity
  8
RACCORDO
100
AcDbLine
 62
7
  6
CONTINUOUS
 10
-20.6805724313
 20
-7.0076346818
 11
-20.6805724313
 21
-6.7461640017
  0
LINE
  5
272
100
AcDbEntity
  8
RACCORDO
100
AcDbLine
 62
7
  6
CONTINUOUS
 10
-20.2805724313
 20
10.8258569194
 11
-20.2805724313
 21
-2.1741430806
  0
LINE
  5
273
100
AcDbEntity
  8
0
100
AcDbLine
 62
7
  6
CONTINUOUS
 10
-21.0774399958
 20
-11.2823810212
 11
-20.2805724313
 21
-2.1741430806
  0
LINE
  5
274
100
AcDbEntity
  8
0
100
AcDbLine
 62
253
  6
CONTINUOUS
 10
-25.4078542913
 20
1.4353569194
 11
-25.8903142844
 21
1.4258569194
  0
LINE
  5
275
100
AcDbEntity
  8
RACCORDO
100
AcDbLine
 62
7
  6
CONTINUOUS
 10
-20.7158938977
 20
-7.1498902097
 11
-20.7086809476
 21
-7.1344219884
  0
LINE
  5
276
100
AcDbEntity
  8
RACCORDO
100
AcDbLine
 62
253
  6
CONTINUOUS
 10
-20.2805724313
 20
10.5759235406
 11
-25.4978628589
 21
10.5303929368
  0
LINE
  5
277
100
AcDbEntity
  8
RACCORDO
100
AcDbLine
 62
7
  6
CONTINUOUS
 10
-20.2805724313
 20
10.8258569194
 11
-25.7325959243
 21
10.7782778311
  0
ARC
  5
278
100
AcDbEntity
  8
0
100
AcDbCircle
 62
253
  6
CONTINUOUS
 10
-2571.4239333111
 20
3.0920368703
 40
2563.3828049403
100
AcDbArc
 50
359.7010774351
 51
359.9627581626
  0
ARC
  5
279
100
AcDbEntity
  8
0
100
AcDbCircle
 62
253
  6
CONTINUOUS
 10
2594.6434224739
 20
3.0801840803
 40
2559.3430982989
100
AcDbArc
 50
180.037035273
 51
180.2991290416
  0
ARC
  5
27A
100
AcDbEntity
  8
0
100
AcDbCircle
 62
253
  6
CONTINUOUS
 10
-2543.521093318
 20
3.0922810297
 40
2534.9802695343
100
AcDbArc
 50
359.6994074901
 51
359.9625500971
  0
ARC
  5
27B
100
AcDbEntity
  8
0
100
AcDbCircle
 62
253
  6
CONTINUOUS
 10
2566.7853966391
 20
3.080494172
 40
2530.9853770512
100
AcDbArc
 50
180.0372421857
 51
180.3008001355
  0
ARC
  5
27C
100
AcDbEntity
  8
0
100
AcDbCircle
 62
253
  6
CONTINUOUS
 10
-8.0914847775
 20
-10.6304433603
 40
0.5006295736
100
AcDbArc
 50
180.1520810097
 51
269.8976844943
  0
ARC
  5
27D
100
AcDbEntity
  8
0
100
AcDbCircle
 62
253
  6
CONTINUOUS
 10
35.3506677149
 20
-10.6304433594
 40
0.5006295559
100
AcDbArc
 50
270.102315643
 51
359.8479188859
  0
ARC
  5
27E
100
AcDbEntity
  8
SUPERFICI
100
AcDbCircle
 62
7
  6
CONTINUOUS
 10
9.4816407753
 20
5.7243519985
 40
0.402049306
100
AcDbArc
 50
180.0004689369
 51
183.7309092605
  0
ARC
  5
27F
100
AcDbEntity
  8
SUPERFICI
100
AcDbCircle
 62
7
  6
CONTINUOUS
 10
17.7775421801
 20
5.7243520019
 40
0.4020492893
100
AcDbArc
 50
356.2680323005
 51
359.9995305818
  0
ARC
  5
280
100
AcDbEntity
  8
SUPERFICI
100
AcDbCircle
 62
7
  6
CONTINUOUS
 10
9.4783243167
 20
7.1242619669
 40
0.4015949525
100
AcDbArc
 50
90.000558983
 51
93.7325289332
  0
ARC
  5
281
100
AcDbEntity
  8
SUPERFICI
100
AcDbCircle
 62
7
  6
CONTINUOUS
 10
17.780858618
 20
7.1242619675
 40
0.4015949519
100
AcDbArc
 50
86.2663923291
 51
89.9994404664
  0
ARC
  5
282
100
AcDbEntity
  8
SUPERFICI
100
AcDbCircle
 62
7
  6
CONTINUOUS
 10
17.7814866894
 20
5.7267527038
 40
0.4008957844
100
AcDbArc
 50
270.0004749669
 51
273.7335044273
  0
ARC
  5
283
100
AcDbEntity
  8
SUPERFICI
100
AcDbCircle
 62
7
  6
CONTINUOUS
 10
9.4776962528
 20
5.7267526876
 40
0.4008957682
100
AcDbArc
 50
266.2654016501
 51
269.9995245206
  0
ARC
  5
284
100
AcDbEntity
  8
SUPERFICI
100
AcDbCircle
 62
7
  6
CONTINUOUS
 10
9.4804503745
 20
7.1273611231
 40
0.4008589051
100
AcDbArc
 50
176.2644402398
 51
179.999423772
  0
ARC
  5
285
100
AcDbEntity
  8
SUPERFICI
100
AcDbCircle
 62
7
  6
CONTINUOUS
 10
17.7787325667
 20
7.1273611272
 40
0.4008589027
100
AcDbArc
 50
0.0005756541
 51
3.7344650533
  0
ARC
  5
286
100
AcDbEntity
  8
RACCORDO
100
AcDbCircle
 62
253
  6
CONTINUOUS
 10
35.54737833
 20
10.5303816725
 40
0.2500124135
100
AcDbArc
 50
0.0025758277
 51
89.9602279776
  0
ARC
  5
287
100
AcDbEntity
  8
RACCORDO
100
AcDbCircle
 62
253
  6
CONTINUOUS
 10
-8.2881964925
 20
10.5303827729
 40
0.2500110379
100
AcDbArc
 50
90.0395198317
 51
179.9976763476
  0
ARC
  5
288
100
AcDbEntity
  8
0
100
AcDbCircle
 62
7
  6
CONTINUOUS
 10
-23.9119687515
 20
-10.1324573178
 40
1.0
100
AcDbArc
 50
188.5737414447
 51
267.0
  0
ARC
  5
289
100
AcDbEntity
  8
0
100
AcDbCircle
 62
253
  6
CONTINUOUS
 10
-23.9294184985
 20
-10.1324573164
 40
0.5000000015
100
AcDbArc
 50
188.5737415857
 51
266.9999998591
  0
ARC
  5
28A
100
AcDbEntity
  8
RACCORDO
100
AcDbCircle
 62
7
  6
CONTINUOUS
 10
-20.9805724313
 20
-7.0076346818
 40
0.3
100
AcDbArc
 50
334.9996147864
 51
360.0
  0
ARC
  5
28B
100
AcDbEntity
  8
0
100
AcDbCircle
 62
7
  6
CONTINUOUS
 10
64.0934392489
 20
3.1358569194
 40
90.0
100
AcDbArc
 50
181.08868532
 51
188.5737414447
  0
ARC
  5
28C
100
AcDbEntity
  8
0
100
AcDbCircle
 62
253
  6
CONTINUOUS
 10
64.0759895024
 20
3.1358569195
 40
89.5000000019
100
AcDbArc
 50
181.0886853201
 51
188.5737414446
  0
ARC
  5
28D
100
AcDbEntity
  8
RACCORDO
100
AcDbCircle
 62
7
  6
CONTINUOUS
 10
-25.7304142603
 20
10.5282873506
 40
0.25
100
AcDbArc
 50
90.5000068928
 51
180.0455810216
  0
ARC
  5
28E
100
AcDbEntity
  8
RACCORDO
100
AcDbCircle
 62
7
  6
CONTINUOUS
 10
474.0194275687
 20
10.9258569194
 40
500.0
100
AcDbArc
 50
180.045580912
 51
181.08868532
  0
ARC
  5
28F
100
AcDbEntity
  8
RACCORDO
100
AcDbCircle
 62
253
  6
CONTINUOUS
 10
473.9769058528
 20
10.9254717738
 40
499.4749253344
100
AcDbArc
 50
180.0453202977
 51
181.0886957922
  0
SPLINE
  5
290
100
AcDbEntity
  8
SUPERFICI
100
AcDbSpline
 62
7
  6
CONTINUOUS
 70
0
 71
3
 72
23
 73
19
 74
17
 42
0.0000001
 43
0.0000001
 44
0.0000000001
 12
-0.0373933977
 22
0.5728934317
 32
0.0
 13
-0.5728938165
 23
0.0373849722
 33
0.0
 40
0.0
 40
0.0
 40
0.0
 40
0.0
 40
0.0227624385
 40
0.0912783971
 40
0.1596589011
 40
0.2276200343
 40
0.2955485644
 40
0.3637816853
 40
0.431984831
 40
0.4998306796
 40
0.5676700012
 40
0.6358795281
 40
0.7041611229
 40
0.7721606806
 40
0.840172955
 40
0.9086013743
 40
0.9772044438
 40
1.0
 40
1.0
 40
1.0
 40
1.0
 10
18.1787402934
 20
7.1534700983
 30
0.0
 10
18.1784565718
 20
7.1578169154
 30
0.0
 10
18.1770345804
 20
7.175229915
 30
0.0
 10
18.172555359
 20
7.2054849477
 30
0.0
 10
18.1630231589
 20
7.2435567877
 30
0.0
 10
18.1498448736
 20
7.2804039133
 30
0.0
 10
18.1331383349
 20
7.3157605126
 30
0.0
 10
18.1130196027
 20
7.3493479683
 30
0.0
 10
18.0897035538
 20
7.3807805229
 30
0.0
 10
18.0634663332
 20
7.4097166016
 30
0.0
 10
18.0345218546
 20
7.4359463226
 30
0.0
 10
18.0030759856
 20
7.4592598701
 30
0.0
 10
17.9694632385
 20
7.4793832883
 30
0.0
 10
17.9340733831
 20
7.4960959589
 30
0.0
 10
17.8971931573
 20
7.5092782215
 30
0.0
 10
17.8590857187
 20
7.5188146126
 30
0.0
 10
17.8287986345
 20
7.5232969949
 30
0.0
 10
17.8113626775
 20
7.5247205015
 30
0.0
 10
17.8070095331
 20
7.5250045719
 30
0.0
 11
18.1787402934
 21
7.1534700983
 31
0.0
 11
18.177676537
 21
7.1664943968
 31
0.0
 11
18.1719179849
 21
7.2053853633
 31
0.0
 11
18.162386906
 21
7.2434474345
 31
0.0
 11
18.1492536935
 21
7.280166032
 31
0.0
 11
18.1326007303
 21
7.3154074387
 31
0.0
 11
18.1124812002
 21
7.3489952019
 31
0.0
 11
18.0891653687
 21
7.3804270133
 31
0.0
 11
18.0630151889
 21
7.409267086
 31
0.0
 11
18.0341705381
 21
7.4354066389
 31
0.0
 11
18.0027299881
 21
7.458716834
 31
0.0
 11
17.9691138509
 21
7.4788431217
 31
0.0
 11
17.9338319802
 21
7.4955058457
 31
0.0
 11
17.897083319
 21
7.5086421374
 31
0.0
 11
17.8589934941
 21
7.518175569
 31
0.0
 11
17.8200527992
 21
7.5239395337
 31
0.0
 11
17.8070095331
 21
7.5250045719
 31
0.0
  0
LINE
  5
291
100
AcDbEntity
  8
SUPERFICI
100
AcDbLine
 62
7
  6
CONTINUOUS
 10
18.1795914693
 20
5.724348708
 11
18.1795914693
 21
5.9322007332
  0
LINE
  5
292
100
AcDbEntity
  8
SUPERFICI
100
AcDbLine
 62
7
  6
CONTINUOUS
 10
18.1795914693
 20
5.9322007332
 11
18.1795914693
 21
5.9841638621
  0
LINE
  5
293
100
AcDbEntity
  8
SUPERFICI
100
AcDbLine
 62
7
  6
CONTINUOUS
 10
18.1795914693
 20
5.9841638621
 11
18.1795914693
 21
6.1920168535
  0
LINE
  5
294
100
AcDbEntity
  8
SUPERFICI
100
AcDbLine
 62
7
  6
CONTINUOUS
 10
18.1795914693
 20
6.1920168535
 11
18.1795914693
 21
6.3998707641
  0
LINE
  5
295
100
AcDbEntity
  8
SUPERFICI
100
AcDbLine
 62
7
  6
CONTINUOUS
 10
18.1795914693
 20
6.3998707641
 11
18.1795914693
 21
6.451834349
  0
LINE
  5
296
100
AcDbEntity
  8
SUPERFICI
100
AcDbLine
 62
7
  6
CONTINUOUS
 10
18.1795914693
 20
6.451834349
 11
18.1795914693
 21
6.6596891314
  0
LINE
  5
297
100
AcDbEntity
  8
SUPERFICI
100
AcDbLine
 62
7
  6
CONTINUOUS
 10
18.1795914693
 20
6.6596891314
 11
18.1795914693
 21
6.8675447507
  0
LINE
  5
298
100
AcDbEntity
  8
SUPERFICI
100
AcDbLine
 62
7
  6
CONTINUOUS
 10
18.1795914693
 20
6.8675447507
 11
18.1795914693
 21
6.9195087549
  0
LINE
  5
299
100
AcDbEntity
  8
SUPERFICI
100
AcDbLine
 62
7
  6
CONTINUOUS
 10
18.1795914693
 20
6.9195087549
 11
18.1795914693
 21
7.1273651546
  0
SPLINE
  5
29A
100
AcDbEntity
  8
SUPERFICI
100
AcDbSpline
 62
7
  6
CONTINUOUS
 70
0
 71
3
 72
23
 73
19
 74
17
 42
0.0000001
 43
0.0000001
 44
0.0000000001
 12
0.5724305079
 22
0.0373545532
 32
0.0
 13
0.0373392303
 23
0.5724312226
 33
0.0
 40
0.0
 40
0.0
 40
0.0
 40
0.0
 40
0.0227734797
 40
0.0913061118
 40
0.1596825666
 40
0.2276240875
 40
0.2955224771
 40
0.363719376
 40
0.4318847397
 40
0.4996959305
 40
0.5675057766
 40
0.635696583
 40
0.7039733749
 40
0.7719844587
 40
0.8400235209
 40
0.9084995609
 40
0.9771748682
 40
1.0
 40
1.0
 40
1.0
 40
1.0
 10
17.8075913556
 20
5.3267077358
 30
0.0
 10
17.8119367671
 20
5.3269913002
 30
0.0
 10
17.8293409862
 20
5.3284122388
 30
0.0
 10
17.8595761895
 20
5.3328873716
 30
0.0
 10
17.8976163433
 20
5.3424099307
 30
0.0
 10
17.9344244678
 20
5.355572743
 30
0.0
 10
17.9697379731
 20
5.3722579926
 30
0.0
 10
18.0032811524
 20
5.3923502934
 30
0.0
 10
18.0346708942
 20
5.4156360828
 30
0.0
 10
18.0635675339
 20
5.4418407862
 30
0.0
 10
18.0897628137
 20
5.4707524832
 30
0.0
 10
18.1130479326
 20
5.5021674213
 30
0.0
 10
18.1331495769
 20
5.5357536165
 30
0.0
 10
18.1498467054
 20
5.5711229021
 30
0.0
 10
18.1630191674
 20
5.6079904397
 30
0.0
 10
18.172550692
 20
5.6460952455
 30
0.0
 10
18.177031491
 20
5.676386412
 30
0.0
 10
18.1784548158
 20
5.6938277122
 30
0.0
 10
18.1787389068
 20
5.6981829849
 30
0.0
 11
17.8075913556
 21
5.3267077358
 31
0.0
 11
17.8206114492
 21
5.327770909
 31
0.0
 11
17.8594805935
 21
5.3335250333
 31
0.0
 11
17.8975099751
 21
5.3430464661
 31
0.0
 11
17.9341887087
 21
5.356164099
 31
0.0
 11
17.9693862918
 21
5.3727955739
 31
0.0
 11
18.0029290002
 21
5.3928882873
 31
0.0
 11
18.0343172729
 21
5.4161733293
 31
0.0
 11
18.0631177289
 21
5.4422907476
 31
0.0
 11
18.089222285
 21
5.4711018219
 31
0.0
 11
18.112503821
 21
5.5025108549
 31
0.0
 11
18.1326082687
 21
5.536099927
 31
0.0
 11
18.1492558044
 21
5.5713613813
 31
0.0
 11
18.1623822373
 21
5.6080963596
 31
0.0
 11
18.1719109018
 21
5.6461827889
 31
0.0
 11
18.1776737991
 21
5.6851333278
 31
0.0
 11
18.1787389068
 21
5.6981829849
 31
0.0
  0
SPLINE
  5
29B
100
AcDbEntity
  8
SUPERFICI
100
AcDbSpline
 62
7
  6
CONTINUOUS
 70
0
 71
3
 72
23
 73
19
 74
17
 42
0.0000001
 43
0.0000001
 44
0.0000000001
 12
0.0373286304
 22
-0.5724315295
 32
0.0
 13
0.5724297311
 23
-0.0373654784
 33
0.0
 40
0.0
 40
0.0
 40
0.0
 40
0.0
 40
0.0228206867
 40
0.0914901968
 40
0.1599901218
 40
0.228039051
 40
0.2960313262
 40
0.364298113
 40
0.432505487
 40
0.5003281624
 40
0.5681263596
 40
0.6362752733
 40
0.7044822265
 40
0.7723992521
 40
0.8403304486
 40
0.90868309
 40
0.977221832
 40
1.0
 40
1.0
 40
1.0
 40
1.0
 10
9.0804435485
 20
5.6981903918
 30
0.0
 10
9.0807275035
 20
5.6938359649
 30
0.0
 10
9.0821502903
 20
5.6763965989
 30
0.0
 10
9.0866305863
 20
5.6461027405
 30
0.0
 10
9.096162799
 20
5.6079925557
 30
0.0
 10
9.1093365212
 20
5.5711224265
 30
0.0
 10
9.1260321337
 20
5.5357564958
 30
0.0
 10
9.1461319065
 20
5.5021719545
 30
0.0
 10
9.1694187868
 20
5.4707536782
 30
0.0
 10
9.1956163734
 20
5.44183982
 30
0.0
 10
9.2245107957
 20
5.4156374679
 30
0.0
 10
9.2558971694
 20
5.3923534509
 30
0.0
 10
9.2894419697
 20
5.3722592866
 30
0.0
 10
9.3247586942
 20
5.3555725667
 30
0.0
 10
9.3615640844
 20
5.3424110283
 30
0.0
 10
9.3995988035
 20
5.3328891202
 30
0.0
 10
9.4298314051
 20
5.3284134373
 30
0.0
 10
9.4472376497
 20
5.32699194
 30
0.0
 10
9.4515839499
 20
5.3267082343
 30
0.0
 11
9.0804435485
 21
5.6981903918
 31
0.0
 11
9.0815081655
 21
5.6851432614
 31
0.0
 11
9.0872694415
 21
5.6461958583
 31
0.0
 11
9.0968008088
 21
5.6080960049
 31
0.0
 11
9.1099294346
 21
5.5713558189
 31
0.0
 11
9.1265724139
 21
5.5361041557
 31
0.0
 11
9.1466732594
 21
5.5025196309
 31
0.0
 11
9.1699599834
 21
5.4711026388
 31
0.0
 11
9.1960696582
 21
5.4422862973
 31
0.0
 11
9.2248647525
 21
5.4161740793
 31
0.0
 11
9.2562450911
 21
5.3928941982
 31
0.0
 11
9.2897923385
 21
5.3727978744
 31
0.0
 11
9.3249995874
 21
5.3561618816
 31
0.0
 11
9.361672826
 21
5.3430465078
 31
0.0
 11
9.3996887814
 21
5.333527729
 31
0.0
 11
9.4385612016
 21
5.3277719186
 31
0.0
 11
9.4515839499
 21
5.3267082343
 31
0.0
  0
LINE
  5
29C
100
AcDbEntity
  8
SUPERFICI
100
AcDbLine
 62
7
  6
CONTINUOUS
 10
9.0795914693
 20
7.1273651546
 11
9.0795914694
 21
6.9195087547
  0
LINE
  5
29D
100
AcDbEntity
  8
SUPERFICI
100
AcDbLine
 62
7
  6
CONTINUOUS
 10
9.0795914694
 20
6.9195087547
 11
9.0795914694
 21
6.8675447509
  0
LINE
  5
29E
100
AcDbEntity
  8
SUPERFICI
100
AcDbLine
 62
7
  6
CONTINUOUS
 10
9.0795914694
 20
6.8675447509
 11
9.0795914694
 21
6.6596891475
  0
LINE
  5
29F
100
AcDbEntity
  8
SUPERFICI
100
AcDbLine
 62
7
  6
CONTINUOUS
 10
9.0795914694
 20
6.6596891475
 11
9.0795914694
 21
6.4518343492
  0
LINE
  5
2A0
100
AcDbEntity
  8
SUPERFICI
100
AcDbLine
 62
7
  6
CONTINUOUS
 10
9.0795914694
 20
6.4518343492
 11
9.0795914694
 21
6.3998707642
  0
LINE
  5
2A1
100
AcDbEntity
  8
SUPERFICI
100
AcDbLine
 62
7
  6
CONTINUOUS
 10
9.0795914694
 20
6.3998707642
 11
9.0795914694
 21
6.1920168568
  0
LINE
  5
2A2
100
AcDbEntity
  8
SUPERFICI
100
AcDbLine
 62
7
  6
CONTINUOUS
 10
9.0795914694
 20
6.1920168568
 11
9.0795914694
 21
5.9841638622
  0
LINE
  5
2A3
100
AcDbEntity
  8
SUPERFICI
100
AcDbLine
 62
7
  6
CONTINUOUS
 10
9.0795914694
 20
5.9841638622
 11
9.0795914694
 21
5.9322007331
  0
LINE
  5
2A4
100
AcDbEntity
  8
SUPERFICI
100
AcDbLine
 62
7
  6
CONTINUOUS
 10
9.0795914694
 20
5.9322007331
 11
9.0795914693
 21
5.724348708
  0
SPLINE
  5
2A5
100
AcDbEntity
  8
SUPERFICI
100
AcDbSpline
 62
7
  6
CONTINUOUS
 70
0
 71
3
 72
23
 73
19
 74
17
 42
0.0000001
 43
0.0000001
 44
0.0000000001
 12
-0.5728942614
 22
-0.0373741694
 32
0.0
 13
-0.0374043475
 23
-0.5728927836
 33
0.0
 40
0.0
 40
0.0
 40
0.0
 40
0.0
 40
0.0227908498
 40
0.0913877727
 40
0.1598399068
 40
0.2278622464
 40
0.2958431797
 40
0.3641148304
 40
0.4323409186
 40
0.5001930816
 40
0.568025988
 40
0.6362126247
 40
0.7044557186
 40
0.7724027938
 40
0.8403536431
 40
0.90871048
 40
0.9772327384
 40
1.0
 40
1.0
 40
1.0
 40
1.0
 10
9.4521809466
 20
7.5250050642
 30
0.0
 10
9.4478286975
 20
7.5247211345
 30
0.0
 10
9.4303947883
 20
7.5232981847
 30
0.0
 10
9.4001051473
 20
7.5188163551
 30
0.0
 10
9.3619923647
 20
7.5092793365
 30
0.0
 10
9.3251094821
 20
7.4960958413
 30
0.0
 10
9.2897228832
 20
7.4793846817
 30
0.0
 10
9.2561117292
 20
7.4592631337
 30
0.0
 10
9.2246624862
 20
7.4359478315
 30
0.0
 10
9.1957158129
 20
7.4097158076
 30
0.0
 10
9.1694809216
 20
7.3807819565
 30
0.0
 10
9.1461666334
 20
7.3493527928
 30
0.0
 10
9.1260460327
 20
7.3157637585
 30
0.0
 10
9.1093380027
 20
7.2804039652
 30
0.0
 10
9.0961609549
 20
7.2435595603
 30
0.0
 10
9.0866293637
 20
7.2054930863
 30
0.0
 10
9.0821495668
 20
7.1752405627
 30
0.0
 10
9.080727009
 20
7.1578254703
 30
0.0
 10
9.0804431441
 20
7.153477737
 30
0.0
 11
9.4521809466
 21
7.5250050642
 31
0.0
 11
9.4391403552
 21
7.5239405359
 31
0.0
 11
9.4002029828
 21
7.5181782586
 31
0.0
 11
9.362099797
 21
7.5086421912
 31
0.0
 11
9.3253457927
 21
7.4955037086
 31
0.0
 11
9.2900736012
 21
7.4788455304
 31
0.0
 11
9.2564619619
 21
7.4587228509
 31
0.0
 11
9.2250134269
 21
7.4354074812
 31
0.0
 11
9.1961634761
 21
7.4092628136
 31
0.0
 11
9.1700184577
 21
7.3804280944
 31
0.0
 11
9.1467077879
 21
7.349004257
 31
0.0
 11
9.1265846422
 21
7.3154119967
 31
0.0
 11
9.1099271492
 21
7.2801609683
 31
0.0
 11
9.0967961588
 21
7.2434478503
 31
0.0
 11
9.0872676906
 21
7.2053991319
 31
0.0
 11
9.0815074201
 21
7.1665047724
 31
0.0
 11
9.0804431441
 21
7.153477737
 31
0.0
  0
LINE
  5
2A6
100
AcDbEntity
  8
RACCORDO
100
AcDbLine
 62
7
  6
CONTINUOUS
 10
18.1795914693
 20
7.1273651548
 11
18.1795914693
 21
5.7243487079
  0
LINE
  5
2A7
100
AcDbEntity
  8
RACCORDO
100
AcDbLine
 62
7
  6
CONTINUOUS
 10
9.0795914693
 20
5.7243487079
 11
9.0795914693
 21
7.1273651548
  0
SPLINE
  5
2A8
100
AcDbEntity
  8
RACCORDO
100
AcDbSpline
 62
7
  6
CONTINUOUS
 70
0
 71
3
 72
23
 73
19
 74
17
 42
0.0000001
 43
0.0000001
 44
0.0000000001
 12
-0.6256304749
 22
0.0
 32
0.0
 13
0.0
 23
0.6256304749
 33
0.0
 40
0.0
 40
0.0
 40
0.0
 40
0.0
 40
0.0625348873
 40
0.125302776
 40
0.1879610843
 40
0.2502495145
 40
0.3125069208
 40
0.3750288287
 40
0.4375113249
 40
0.4996701031
 40
0.5618372342
 40
0.6243553179
 40
0.6869429983
 40
0.7492898499
 40
0.811675364
 40
0.8744418063
 40
0.9373328547
 40
1.0
 40
1.0
 40
1.0
 40
1.0
 10
9.4776929258
 20
5.3258569194
 30
0.0
 10
9.464651682
 20
5.3258569194
 30
0.0
 10
9.4385026022
 20
5.3271333555
 30
0.0
 10
9.399666603
 20
5.3328759164
 30
0.0
 10
9.3616279897
 20
5.3423910989
 30
0.0
 10
9.3248069252
 20
5.3555520432
 30
0.0
 10
9.2894757982
 20
5.3722408491
 30
0.0
 10
9.2559183482
 20
5.3923387519
 30
0.0
 10
9.2245188234
 20
5.4156301335
 30
0.0
 10
9.1956136064
 20
5.4418420147
 30
0.0
 10
9.1694096565
 20
5.4707644239
 30
0.0
 10
9.1461179425
 20
5.5021921827
 30
0.0
 10
9.1260126596
 20
5.5357916114
 30
0.0
 10
9.1093136449
 20
5.5711761341
 30
0.0
 10
9.0961425721
 20
5.6080588377
 30
0.0
 10
9.0866185742
 20
5.6461658335
 30
0.0
 10
9.0808695227
 20
5.6850775271
 30
0.0
 10
9.0795914693
 20
5.7112798826
 30
0.0
 10
9.0795914693
 20
5.7243487079
 30
0.0
 11
9.4776929258
 21
5.3258569194
 31
0.0
 11
9.4386158274
 21
5.3277665608
 31
0.0
 11
9.3997688718
 21
5.3335118186
 31
0.0
 11
9.3617400379
 21
5.3430261261
 31
0.0
 11
9.3250444714
 21
5.356143308
 31
0.0
 11
9.289826049
 21
5.3727798764
 31
0.0
 11
9.256268874
 21
5.3928783097
 31
0.0
 11
9.2248727586
 21
5.4161675047
 31
0.0
 11
9.1960651098
 21
5.4422908475
 31
0.0
 11
9.1699508442
 21
5.4711137773
 31
0.0
 11
9.146661388
 21
5.5025374162
 31
0.0
 11
9.1265546004
 21
5.5361375496
 31
0.0
 11
9.1099061117
 21
5.5714122277
 31
0.0
 11
9.0967787917
 21
5.6081686711
 31
0.0
 11
9.0872557093
 21
5.6462650459
 31
0.0
 11
9.0815036939
 21
5.6851888924
 31
0.0
 11
9.0795914693
 21
5.7243487079
 31
0.0
  0
SPLINE
  5
2A9
100
AcDbEntity
  8
RACCORDO
100
AcDbSpline
 62
7
  6
CONTINUOUS
 70
0
 71
3
 72
23
 73
19
 74
17
 42
0.0000001
 43
0.0000001
 44
0.0000000001
 12
-0.0
 22
0.6260794102
 32
0.0
 13
0.6260794102
 23
0.0
 33
0.0
 40
0.0
 40
0.0
 40
0.0
 40
0.0
 40
0.0625064794
 40
0.125265243
 40
0.1879314833
 40
0.2502417825
 40
0.3125316189
 40
0.3750924245
 40
0.4376158557
 40
0.4998130445
 40
0.5620138933
 40
0.624555553
 40
0.6871533927
 40
0.7494944038
 40
0.8118588393
 40
0.874584964
 40
0.9374149203
 40
1.0
 40
1.0
 40
1.0
 40
1.0
 10
9.0795914693
 20
7.1273651548
 30
0.0
 10
9.0795914693
 20
7.140409828
 30
0.0
 10
9.0808690986
 20
7.1665698288
 30
0.0
 10
9.0866165786
 20
7.2054273359
 30
0.0
 10
9.0961414611
 20
7.2434969797
 30
0.0
 10
9.1093176894
 20
7.2803561751
 30
0.0
 10
9.1260275725
 20
7.3157298714
 30
0.0
 10
9.1461518775
 20
7.3493315404
 30
0.0
 10
9.1694737265
 20
7.3807741225
 30
0.0
 10
9.1957185364
 20
7.409719131
 30
0.0
 10
9.22467423
 20
7.4359578047
 30
0.0
 10
9.2561333234
 20
7.4592780213
 30
0.0
 10
9.2897593648
 20
7.4794048772
 30
0.0
 10
9.3251639303
 20
7.4961189929
 30
0.0
 10
9.3620582371
 20
7.5092993978
 30
0.0
 10
9.4001667644
 20
7.5188280525
 30
0.0
 10
9.4390680571
 20
7.5245785353
 30
0.0
 10
9.465259322
 20
7.5258569194
 30
0.0
 10
9.4783203986
 20
7.5258569194
 30
0.0
 11
9.0795914693
 21
7.1273651548
 31
0.0
 11
9.0815022915
 21
7.1664524962
 31
0.0
 11
9.0872522589
 21
7.2053214653
 31
0.0
 11
9.0967761896
 21
7.2433820073
 31
0.0
 11
9.1099086795
 21
7.2801163383
 31
0.0
 11
9.1265665303
 21
7.3153780734
 31
0.0
 11
9.1466917787
 21
7.3489802925
 31
0.0
 11
9.1700119992
 21
7.3804202289
 31
0.0
 11
9.1961685561
 21
7.4092678921
 31
0.0
 11
9.2250256212
 21
7.4354174886
 31
0.0
 11
9.2564812393
 21
7.4587357214
 31
0.0
 11
9.2901085589
 21
7.4788641837
 31
0.0
 11
9.3254031731
 21
7.4955274415
 31
0.0
 11
9.3621720144
 21
7.5086640807
 31
0.0
 11
9.4002703
 21
7.5181916252
 31
0.0
 11
9.4391838518
 21
7.5239448002
 31
0.0
 11
9.4783203986
 21
7.5258569194
 31
0.0
  0
SPLINE
  5
2AA
100
AcDbEntity
  8
RACCORDO
100
AcDbSpline
 62
7
  6
CONTINUOUS
 70
0
 71
3
 72
23
 73
19
 74
17
 42
0.0000001
 43
0.0000001
 44
0.0000000001
 12
0.0
 22
-0.6256304749
 32
0.0
 13
-0.6256304749
 23
-0.0
 33
0.0
 40
0.0
 40
0.0
 40
0.0
 40
0.0
 40
0.0626702289
 40
0.1255649537
 40
0.1883377991
 40
0.2507257318
 40
0.3130696196
 40
0.3756555984
 40
0.4381764296
 40
0.5003456957
 40
0.5625023603
 40
0.6249821737
 40
0.6875058217
 40
0.7497661681
 40
0.8120520785
 40
0.8747039402
 40
0.9374681374
 40
1.0
 40
1.0
 40
1.0
 40
1.0
 10
18.1795914693
 20
5.7243487079
 30
0.0
 10
18.1795914693
 20
5.7112792395
 30
0.0
 10
18.178313284
 20
5.6850754715
 30
0.0
 10
18.1725635306
 20
5.6461610958
 30
0.0
 10
18.1630383018
 20
5.6080517023
 30
0.0
 10
18.1498659831
 20
5.5711681389
 30
0.0
 10
18.1331663864
 20
5.5357844173
 30
0.0
 10
18.1130606883
 20
5.5021857083
 30
0.0
 10
18.0897679657
 20
5.4707578623
 30
0.0
 10
18.0635629514
 20
5.4418356307
 30
0.0
 10
18.0346575391
 20
5.4156247993
 30
0.0
 10
18.003258078
 20
5.3923344136
 30
0.0
 10
17.9696998902
 20
5.372236923
 30
0.0
 10
17.9343679752
 20
5.3555487133
 30
0.0
 10
17.8975478022
 20
5.3423890305
 30
0.0
 10
17.859511619
 20
5.3328750866
 30
0.0
 10
17.8206783023
 20
5.3271332251
 30
0.0
 10
17.7945306258
 20
5.3258569194
 30
0.0
 10
17.7814900129
 20
5.3258569194
 30
0.0
 11
18.1795914693
 21
5.7243487079
 31
0.0
 11
18.1776790565
 21
5.6851869701
 31
0.0
 11
18.1719264054
 21
5.6462608925
 31
0.0
 11
18.1624017567
 21
5.60816078
 31
0.0
 11
18.1492730983
 21
5.5714032078
 31
0.0
 11
18.1326246186
 21
5.5361305759
 31
0.0
 11
18.1125177546
 21
5.5025317289
 31
0.0
 11
18.0892266655
 21
5.4711071606
 31
0.0
 11
18.0631108326
 21
5.4422838484
 31
0.0
 11
18.0343035552
 21
5.4161620646
 31
0.0
 11
18.0029083339
 21
5.3928744816
 31
0.0
 11
17.9693498483
 21
5.3727761176
 31
0.0
 11
17.9341293901
 21
5.3561395526
 31
0.0
 11
17.8974350104
 21
5.3430237342
 31
0.0
 11
17.8594099404
 21
5.3335109994
 31
0.0
 11
17.8205652256
 21
5.327766376
 31
0.0
 11
17.7814900129
 21
5.3258569194
 31
0.0
  0
SPLINE
  5
2AB
100
AcDbEntity
  8
RACCORDO
100
AcDbSpline
 62
7
  6
CONTINUOUS
 70
0
 71
3
 72
23
 73
19
 74
17
 42
0.0000001
 43
0.0000001
 44
0.0000000001
 12
0.6260794102
 22
0.0
 32
0.0
 13
-0.0
 23
-0.6260794102
 33
0.0
 40
0.0
 40
0.0
 40
0.0
 40
0.0
 40
0.0625881422
 40
0.1254217627
 40
0.1881542833
 40
0.2505211627
 40
0.3128592232
 40
0.3754553554
 40
0.4379997474
 40
0.5002027209
 40
0.5623977915
 40
0.6249185204
 40
0.6874810527
 40
0.7497738282
 40
0.8120816345
 40
0.8747414598
 40
0.937496554
 40
1.0
 40
1.0
 40
1.0
 40
1.0
 10
17.78086254
 20
7.5258569194
 30
0.0
 10
17.7939242558
 20
7.5258569194
 30
0.0
 10
17.8201169272
 20
7.524578404
 30
0.0
 10
17.8590208958
 20
7.5188272213
 30
0.0
 10
17.8971318241
 20
7.5092973362
 30
0.0
 10
17.9340269978
 20
7.4961156838
 30
0.0
 10
17.9694307681
 20
7.4794009834
 30
0.0
 10
18.0030560879
 20
7.4592737132
 30
0.0
 10
18.0345152638
 20
7.4359524921
 30
0.0
 10
18.0634707762
 20
7.4097127589
 30
0.0
 10
18.0897145326
 20
7.3807675621
 30
0.0
 10
18.1130353828
 20
7.349325052
 30
0.0
 10
18.1331592752
 20
7.315722653
 30
0.0
 10
18.1498685671
 20
7.2803481676
 30
0.0
 10
18.1630435405
 20
7.2434898542
 30
0.0
 10
18.1725671891
 20
7.2054226263
 30
0.0
 10
18.1783139706
 20
7.1665677942
 30
0.0
 10
18.1795914693
 20
7.140409195
 30
0.0
 10
18.1795914693
 20
7.1273651548
 30
0.0
 11
17.78086254
 21
7.5258569194
 31
0.0
 11
17.8200009974
 21
7.523944613
 31
0.0
 11
17.8589167745
 21
7.5181908043
 31
0.0
 11
17.8970187965
 21
7.5086616953
 31
0.0
 11
17.9337887826
 21
7.4955237127
 31
0.0
 11
17.9690813569
 21
7.4788604611
 31
0.0
 11
18.0027073862
 21
7.4587319247
 31
0.0
 11
18.0341639272
 21
7.4354120643
 31
0.0
 11
18.0630213714
 21
7.4092609052
 31
0.0
 11
18.089176368
 21
7.3804136175
 31
0.0
 11
18.1124949707
 21
7.3489745875
 31
0.0
 11
18.132620149
 21
7.3153710663
 31
0.0
 11
18.1492780004
 21
7.2801072963
 31
0.0
 11
18.1624091348
 21
7.2433741383
 31
0.0
 11
18.1719314982
 21
7.2053173442
 31
0.0
 11
18.1776808327
 21
7.1664506039
 31
0.0
 11
18.1795914693
 21
7.1273651548
 31
0.0
  0
SPLINE
  5
2AC
100
AcDbEntity
  8
RACCORDO
100
AcDbSpline
 62
253
  6
CONTINUOUS
 70
0
 71
3
 72
10
 73
6
 74
4
 42
0.0000001
 43
0.0000001
 44
0.0000000001
 12
0.0002526151
 22
-9.1022322221
 32
0.0
 13
0.0060343306
 23
-9.1022302254
 33
0.0
 40
0.0
 40
0.0
 40
0.0
 40
0.0
 40
0.3333526791
 40
0.6666869147
 40
1.0
 40
1.0
 40
1.0
 40
1.0
 10
35.2977015323
 20
10.5280884659
 30
0.0
 10
35.2977296022
 20
9.5166706337
 30
0.0
 10
35.29800379
 20
7.4938909277
 30
0.0
 10
35.2990498982
 20
4.4598136794
 30
0.0
 10
35.3001769874
 20
2.4371543992
 30
0.0
 10
35.3008474279
 20
1.4258569194
 30
0.0
 11
35.2977015323
 21
10.5280884659
 31
0.0
 11
35.2981096132
 21
7.4938349955
 31
0.0
 11
35.2991573531
 21
4.4597495549
 31
0.0
 11
35.3008474279
 21
1.4258569194
 31
0.0
  0
SPLINE
  5
2AD
100
AcDbEntity
  8
RACCORDO
100
AcDbSpline
 62
253
  6
CONTINUOUS
 70
0
 71
3
 72
10
 73
6
 74
4
 42
0.0000001
 43
0.0000001
 44
0.0000000001
 12
0.0002514557
 22
-9.0950366933
 32
0.0
 13
0.0060355961
 23
-9.0950346942
 33
0.0
 40
0.0
 40
0.0
 40
0.0
 40
0.0
 40
0.3333523679
 40
0.6666867588
 40
1.0
 40
1.0
 40
1.0
 40
1.0
 10
35.7973996729
 20
10.5303929368
 30
0.0
 10
35.797427614
 20
9.5197755975
 30
0.0
 10
35.7976975565
 20
7.4985954184
 30
0.0
 10
35.7987453497
 20
4.4669166801
 30
0.0
 10
35.79987226
 20
2.4458554168
 30
0.0
 10
35.8005428414
 20
1.4353569194
 30
0.0
 11
35.7973996729
 21
10.5303929368
 31
0.0
 11
35.7978047214
 21
7.4985409448
 31
0.0
 11
35.798852479
 21
4.466852608
 31
0.0
 11
35.8005428414
 21
1.4353569194
 31
0.0
  0
SPLINE
  5
2AE
100
AcDbEntity
  8
RACCORDO
100
AcDbSpline
 62
253
  6
CONTINUOUS
 70
0
 71
3
 72
24
 73
20
 74
18
 42
0.0000001
 43
0.0000001
 44
0.0000000001
 12
-0.4951381098
 22
-0.0674744652
 32
0.0
 13
-0.4997144696
 23
-0.0000069948
 33
0.0
 40
0.0
 40
0.0
 40
0.0
 40
0.0
 40
0.0072410904
 40
0.0225728332
 40
0.0458757318
 40
0.0769602085
 40
0.1155730933
 40
0.1614001728
 40
0.2140673257
 40
0.2731450583
 40
0.3381511715
 40
0.4085561138
 40
0.4837853051
 40
0.5632252357
 40
0.64622704
 40
0.7321147597
 40
0.8201880871
 40
0.9097254715
 40
1.0
 40
1.0
 40
1.0
 40
1.0
 10
35.7973996729
 20
10.5303929258
 30
0.0
 10
35.7962045597
 20
10.5302300629
 30
0.0
 10
35.7924347173
 20
10.5301586918
 30
0.0
 10
35.7848052086
 20
10.5299023525
 30
0.0
 10
35.7731886577
 20
10.5297398923
 30
0.0
 10
35.7577007011
 20
10.5295308816
 30
0.0
 10
35.7384577906
 20
10.529346041
 30
0.0
 10
35.7156206332
 20
10.529161961
 30
0.0
 10
35.6893741105
 20
10.5289899727
 30
0.0
 10
35.6599328973
 20
10.5288286173
 30
0.0
 10
35.6275369372
 20
10.5286804068
 30
0.0
 10
35.5924505333
 20
10.5285463388
 30
0.0
 10
35.5549597957
 20
10.5284276784
 30
0.0
 10
35.5153707257
 20
10.5283254157
 30
0.0
 10
35.474006204
 20
10.5282404274
 30
0.0
 10
35.4312035698
 20
10.5281734315
 30
0.0
 10
35.3873122687
 20
10.5281249897
 30
0.0
 10
35.3426902335
 20
10.5280955108
 30
0.0
 10
35.312738695
 20
10.5280886756
 30
0.0
 10
35.2977015323
 20
10.5280884652
 30
0.0
 11
35.7973996729
 21
10.5303929258
 31
0.0
 11
35.793787546
 21
10.530178638
 31
0.0
 11
35.7861289839
 21
10.5299667121
 31
0.0
 11
35.7744860435
 21
10.5297588516
 31
0.0
 11
35.7589539952
 21
10.5295567764
 31
0.0
 11
35.7396595598
 21
10.5293621289
 31
0.0
 11
35.7167598574
 21
10.5291764987
 31
0.0
 11
35.6904419015
 21
10.529001403
 31
0.0
 11
35.6609203544
 21
10.5288382722
 31
0.0
 11
35.6284362046
 21
10.5286884398
 31
0.0
 11
35.5932540964
 21
10.5285531286
 31
0.0
 11
35.5556611714
 21
10.5284334453
 31
0.0
 11
35.5159640225
 21
10.5283303681
 31
0.0
 11
35.4744869082
 21
10.5282447403
 31
0.0
 11
35.431567625
 21
10.5281772614
 31
0.0
 11
35.3875561359
 21
10.5281284819
 31
0.0
 11
35.3428130192
 21
10.5280988034
 31
0.0
 11
35.2977015323
 21
10.5280884652
 31
0.0
  0
SPLINE
  5
2AF
100
AcDbEntity
  8
0
100
AcDbSpline
 62
253
  6
CONTINUOUS
 70
0
 71
3
 72
23
 73
19
 74
17
 42
0.0000001
 43
0.0000001
 44
0.0000000001
 12
-0.4390227157
 22
-0.2392018116
 32
0.0
 13
-0.4999583399
 23
-0.0003316598
 33
0.0
 40
0.0
 40
0.0
 40
0.0
 40
0.0
 40
0.008152361
 40
0.0253232964
 40
0.051431694
 40
0.0862550999
 40
0.1294799963
 40
0.180712013
 40
0.2394815731
 40
0.3052489593
 40
0.3774096104
 40
0.4552998516
 40
0.5382030955
 40
0.6253564931
 40
0.7159579915
 40
0.8091737417
 40
0.9041457919
 40
1.0
 40
1.0
 40
1.0
 40
1.0
 10
35.8005428414
 20
1.4353569194
 30
0.0
 10
35.7993498175
 20
1.4347068995
 30
0.0
 10
35.7949975363
 20
1.4343209344
 30
0.0
 10
35.7866006992
 20
1.4332908075
 30
0.0
 10
35.7735414067
 20
1.4325669077
 30
0.0
 10
35.7562313948
 20
1.4316893742
 30
0.0
 10
35.7346908064
 20
1.4308981856
 30
0.0
 10
35.7091704004
 20
1.4301187014
 30
0.0
 10
35.6798857763
 20
1.4293912511
 30
0.0
 10
35.6471128698
 20
1.428713312
 30
0.0
 10
35.6111512816
 20
1.4280952426
 30
0.0
 10
35.5723327452
 20
1.4275421363
 30
0.0
 10
35.5310144644
 20
1.4270597126
 30
0.0
 10
35.4875769277
 20
1.4266525223
 30
0.0
 10
35.4424200659
 20
1.4263244827
 30
0.0
 10
35.3959596653
 20
1.4260787009
 30
0.0
 10
35.3486235131
 20
1.4259175032
 30
0.0
 10
35.3168217981
 20
1.4258675164
 30
0.0
 10
35.3008474279
 20
1.4258569194
 30
0.0
 11
35.8005428414
 21
1.4353569194
 31
0.0
 11
35.7965701351
 21
1.4344458262
 31
0.0
 11
35.7880329733
 21
1.433543122
 31
0.0
 11
35.7750099636
 21
1.4326571188
 31
0.0
 11
35.7576210175
 21
1.4317959744
 31
0.0
 11
35.736026247
 21
1.4309676181
 31
0.0
 11
35.7104244896
 21
1.430179677
 31
0.0
 11
35.6810514783
 21
1.4294394063
 31
0.0
 11
35.6481776701
 21
1.4287536222
 31
0.0
 11
35.6121057567
 21
1.4281286391
 31
0.0
 11
35.5731678766
 21
1.4275702117
 31
0.0
 11
35.5317225572
 21
1.4270834818
 31
0.0
 11
35.4881514139
 21
1.4266729311
 31
0.0
 11
35.4428556355
 21
1.4263423397
 31
0.0
 11
35.3962522913
 21
1.4260947517
 31
0.0
 11
35.3487704896
 21
1.4259324468
 31
0.0
 11
35.3008474279
 21
1.4258569194
 31
0.0
  0
SPLINE
  5
2B0
100
AcDbEntity
  8
0
100
AcDbSpline
 62
253
  6
CONTINUOUS
 70
0
 71
3
 72
23
 73
19
 74
17
 42
0.0000001
 43
0.0000001
 44
0.0000000001
 12
-0.1156656166
 22
-0.4999835144
 32
0.0
 13
-0.5131813232
 23
-0.0026417985
 33
0.0
 40
0.0
 40
0.0
 40
0.0
 40
0.0
 40
0.0159236402
 40
0.037519705
 40
0.0662667634
 40
0.1026032067
 40
0.1465356752
 40
0.197849916
 40
0.2561916431
 40
0.3211034949
 40
0.3920454012
 40
0.4684080643
 40
0.5495234077
 40
0.6346736632
 40
0.7230998673
 40
0.8140101335
 40
0.9065878679
 40
1.0
 40
1.0
 40
1.0
 40
1.0
 10
35.8349056952
 20
-10.206998409
 30
0.0
 10
35.834291756
 20
-10.2096522616
 30
0.0
 10
35.8306804494
 20
-10.2153265678
 30
0.0
 10
35.8215901118
 20
-10.2222129158
 30
0.0
 10
35.808352422
 20
-10.2290103027
 30
0.0
 10
35.7908834851
 20
-10.235601143
 30
0.0
 10
35.7692834135
 20
-10.2419842393
 30
0.0
 10
35.7437155561
 20
-10.2480711539
 30
0.0
 10
35.7144027211
 20
-10.2538052611
 30
0.0
 10
35.6816071836
 20
-10.2591257595
 30
0.0
 10
35.6456272883
 20
-10.2639805457
 30
0.0
 10
35.606792137
 20
-10.2683219856
 30
0.0
 10
35.5654580836
 20
-10.2721082876
 30
0.0
 10
35.5220049743
 20
-10.275303232
 30
0.0
 10
35.476832484
 20
-10.2778764647
 30
0.0
 10
35.4303562584
 20
-10.2798036387
 30
0.0
 10
35.3830042197
 20
-10.2810665823
 30
0.0
 10
35.3511894023
 20
-10.2814572381
 30
0.0
 10
35.3352102817
 20
-10.2815394968
 30
0.0
 11
35.8349056952
 21
-10.206998409
 31
0.0
 11
35.8309498364
 21
-10.2141489245
 31
0.0
 11
35.8224270865
 21
-10.2212335675
 31
0.0
 11
35.8094159596
 21
-10.2281870722
 31
0.0
 11
35.7920363178
 21
-10.2349453809
 31
0.0
 11
35.7704482671
 21
-10.2414462344
 31
0.0
 11
35.7448506828
 21
-10.2476297448
 31
0.0
 11
35.7154793769
 21
-10.253438948
 31
0.0
 11
35.682604926
 21
-10.258820328
 31
0.0
 11
35.6465301788
 21
-10.26372431
 31
0.0
 11
35.6075874659
 21
-10.2681057172
 31
0.0
 11
35.5661355385
 21
-10.2719241868
 31
0.0
 11
35.5225562632
 21
-10.275144542
 31
0.0
 11
35.4772511045
 21
-10.2777371159
 31
0.0
 11
35.4306374261
 21
-10.2796780252
 31
0.0
 11
35.3831446463
 21
-10.2809493895
 31
0.0
 11
35.3352102817
 21
-10.2815394968
 31
0.0
  0
SPLINE
  5
2B1
100
AcDbEntity
  8
0
100
AcDbSpline
 62
253
  6
CONTINUOUS
 70
0
 71
3
 72
24
 73
20
 74
18
 42
0.0000001
 43
0.0000001
 44
0.0000000001
 12
0.0022370123
 22
-0.8499340702
 32
0.0
 13
0.2685899292
 23
-0.8063822777
 33
0.0
 40
0.0
 40
0.0
 40
0.0
 40
0.0
 40
0.0929977429
 40
0.184256553
 40
0.2731879617
 40
0.3592144101
 40
0.441779768
 40
0.52034911
 40
0.5944135008
 40
0.6634931372
 40
0.7271410503
 40
0.784944825
 40
0.836530752
 40
0.8815652918
 40
0.9197580269
 40
0.9508640559
 40
0.9746874526
 40
0.9910862544
 40
1.0
 40
1.0
 40
1.0
 40
1.0
 10
35.3352102817
 20
-10.2815395002
 30
0.0
 10
35.3352796274
 20
-10.3078868169
 30
0.0
 10
35.3354542621
 20
-10.3600887014
 30
0.0
 10
35.3358275202
 20
-10.4374853495
 30
0.0
 10
35.3363078472
 20
-10.5129063185
 30
0.0
 10
35.3368919679
 20
-10.5858635191
 30
0.0
 10
35.3375760468
 20
-10.6558840201
 30
0.0
 10
35.3383554864
 20
-10.7225143102
 30
0.0
 10
35.3392250345
 20
-10.7853224822
 30
0.0
 10
35.3401788124
 20
-10.8439014803
 30
0.0
 10
35.3412100779
 20
-10.8978716285
 30
0.0
 10
35.3423120201
 20
-10.9468829144
 30
0.0
 10
35.3434749725
 20
-10.9906183099
 30
0.0
 10
35.344694623
 20
-11.0287920773
 30
0.0
 10
35.3459458981
 20
-11.0611638084
 30
0.0
 10
35.347255776
 20
-11.0875051422
 30
0.0
 10
35.3484970489
 20
-11.107699189
 30
0.0
 10
35.3498792129
 20
-11.1215090194
 30
0.0
 10
35.35076369
 20
-11.1286908904
 30
0.0
 10
35.3515617374
 20
-11.1310868526
 30
0.0
 11
35.3352102817
 21
-10.2815395002
 31
0.0
 11
35.3354755548
 21
-10.360581279
 31
0.0
 11
35.3358509424
 21
-10.4381446112
 31
0.0
 11
35.3363340611
 21
-10.5137291632
 31
0.0
 11
35.3369217454
 21
-10.586843864
 31
0.0
 11
35.337610215
 21
-10.6570158405
 31
0.0
 11
35.3383950053
 21
-10.7237902208
 31
0.0
 11
35.3392710384
 21
-10.7867341922
 31
0.0
 11
35.340232639
 21
-10.8454396571
 31
0.0
 11
35.3412735856
 21
-10.8995263582
 31
0.0
 11
35.3423871302
 21
-10.9486433048
 31
0.0
 11
35.3435660658
 21
-10.9924722405
 31
0.0
 11
35.3448027505
 21
-11.0307287794
 31
0.0
 11
35.3460891742
 21
-11.0631646986
 31
0.0
 11
35.3474169797
 21
-11.0895694998
 31
0.0
 11
35.3487776184
 21
-11.109772119
 31
0.0
 11
35.3501621427
 21
-11.1236411313
 31
0.0
 11
35.3515617374
 21
-11.1310868526
 31
0.0
  0
SPLINE
  5
2B2
100
AcDbEntity
  8
0
100
AcDbSpline
 62
253
  6
CONTINUOUS
 70
0
 71
3
 72
24
 73
20
 74
18
 42
0.0000001
 43
0.0000001
 44
0.0000000001
 12
0.0022405343
 22
-0.425539131
 32
0.0
 13
0.2359406645
 23
-0.3541476737
 33
0.0
 40
0.0
 40
0.0
 40
0.0
 40
0.0
 40
0.092855355
 40
0.1839967866
 40
0.2728162512
 40
0.3587375314
 40
0.4412058963
 40
0.5196878524
 40
0.5936759745
 40
0.6626920345
 40
0.7262908445
 40
0.7840621562
 40
0.8356349505
 40
0.8806792824
 40
0.9189099719
 40
0.9500906576
 40
0.9740413608
 40
0.9906572345
 40
1.0
 40
1.0
 40
1.0
 40
1.0
 10
35.8349056952
 20
-10.206998409
 30
0.0
 10
35.8349750438
 20
-10.2201696047
 30
0.0
 10
35.8351496259
 20
-10.2462687035
 30
0.0
 10
35.8355228885
 20
-10.2849654927
 30
0.0
 10
35.8360031935
 20
-10.3226774444
 30
0.0
 10
35.8365873384
 20
-10.3591575235
 30
0.0
 10
35.8372714309
 20
-10.3941692478
 30
0.0
 10
35.8380509016
 20
-10.4274858496
 30
0.0
 10
35.8389204929
 20
-10.4588913677
 30
0.0
 10
35.8398743109
 20
-10.488182251
 30
0.0
 10
35.8409056919
 20
-10.5151687346
 30
0.0
 10
35.8420075851
 20
-10.5396756962
 30
0.0
 10
35.8431711354
 20
-10.5615453412
 30
0.0
 10
35.8443896179
 20
-10.5806333024
 30
0.0
 10
35.8456453622
 20
-10.5968252941
 30
0.0
 10
35.8469449991
 20
-10.6099935474
 30
0.0
 10
35.8482164195
 20
-10.6201236863
 30
0.0
 10
35.8495488294
 20
-10.6270203288
 30
0.0
 10
35.8505223715
 20
-10.630669179
 30
0.0
 10
35.8512571509
 20
-10.6317720852
 30
0.0
 11
35.8349056952
 21
-10.206998409
 31
0.0
 11
35.835170903
 21
-10.2465116538
 31
0.0
 11
35.8355462956
 21
-10.2852946202
 31
0.0
 11
35.8360294054
 21
-10.3230882142
 31
0.0
 11
35.8366170992
 21
-10.3596468646
 31
0.0
 11
35.8373055794
 21
-10.3947341133
 31
0.0
 11
35.8380903889
 21
-10.4281224972
 31
0.0
 11
35.8389664467
 21
-10.4595955846
 31
0.0
 11
35.8399280776
 21
-10.4889492785
 31
0.0
 11
35.8409690584
 21
-10.5159934087
 31
0.0
 11
35.8420826405
 21
-10.5405524696
 31
0.0
 11
35.8432616158
 21
-10.5624673255
 31
0.0
 11
35.8444983432
 21
-10.5815957792
 31
0.0
 11
35.8457848065
 21
-10.5978137157
 31
0.0
 11
35.8471126634
 21
-10.6110158925
 31
0.0
 11
35.8484733217
 21
-10.6211167621
 31
0.0
 11
35.8498579361
 21
-10.6280506709
 31
0.0
 11
35.8512571509
 21
-10.6317720852
 31
0.0
  0
SPLINE
  5
2B3
100
AcDbEntity
  8
RACCORDO
100
AcDbSpline
 62
253
  6
CONTINUOUS
 70
0
 71
3
 72
10
 73
6
 74
4
 42
0.0000001
 43
0.0000001
 44
0.0000000001
 12
0.0060355961
 22
9.0950346942
 32
0.0
 13
0.0002514557
 23
9.0950366933
 33
0.0
 40
0.0
 40
0.0
 40
0.0
 40
0.0
 40
0.3333132412
 40
0.6666476321
 40
1.0
 40
1.0
 40
1.0
 40
1.0
 10
-8.5413599027
 20
1.4353569194
 30
0.0
 10
-8.5406893214
 20
2.4458554168
 30
0.0
 10
-8.539562411
 20
4.4669166801
 30
0.0
 10
-8.5385146178
 20
7.4985954184
 30
0.0
 10
-8.5382446754
 20
9.5197755975
 30
0.0
 10
-8.5382167343
 20
10.5303929368
 30
0.0
 11
-8.5413599027
 21
1.4353569194
 31
0.0
 11
-8.5396695403
 21
4.466852608
 31
0.0
 11
-8.5386217827
 21
7.4985409448
 31
0.0
 11
-8.5382167343
 21
10.5303929368
 31
0.0
  0
SPLINE
  5
2B4
100
AcDbEntity
  8
0
100
AcDbSpline
 62
253
  6
CONTINUOUS
 70
0
 71
3
 72
23
 73
19
 74
17
 42
0.0000001
 43
0.0000001
 44
0.0000000001
 12
0.4390227135
 22
-0.2392018158
 32
0.0
 13
0.4999583399
 23
-0.0003316598
 33
0.0
 40
0.0
 40
0.0
 40
0.0
 40
0.0
 40
0.0081523609
 40
0.0253232963
 40
0.0514316938
 40
0.0862550996
 40
0.1294799961
 40
0.1807120127
 40
0.2394815728
 40
0.305248959
 40
0.3774096101
 40
0.4552998514
 40
0.5382030953
 40
0.6253564929
 40
0.7159579914
 40
0.8091737416
 40
0.9041457919
 40
1.0
 40
1.0
 40
1.0
 40
1.0
 10
-8.5413599027
 20
1.4353569194
 30
0.0
 10
-8.5401668789
 20
1.4347068995
 30
0.0
 10
-8.5358145977
 20
1.4343209344
 30
0.0
 10
-8.5274177606
 20
1.4332908075
 30
0.0
 10
-8.5143584681
 20
1.4325669077
 30
0.0
 10
-8.4970484563
 20
1.4316893742
 30
0.0
 10
-8.4755078679
 20
1.4308981856
 30
0.0
 10
-8.4499874619
 20
1.4301187014
 30
0.0
 10
-8.4207028378
 20
1.4293912511
 30
0.0
 10
-8.3879299313
 20
1.428713312
 30
0.0
 10
-8.3519683431
 20
1.4280952426
 30
0.0
 10
-8.3131498066
 20
1.4275421363
 30
0.0
 10
-8.2718315258
 20
1.4270597126
 30
0.0
 10
-8.2283939892
 20
1.4266525223
 30
0.0
 10
-8.1832371273
 20
1.4263244827
 30
0.0
 10
-8.1367767267
 20
1.4260787009
 30
0.0
 10
-8.0894405745
 20
1.4259175032
 30
0.0
 10
-8.0576388595
 20
1.4258675164
 30
0.0
 10
-8.0416644892
 20
1.4258569194
 30
0.0
 11
-8.5413599027
 21
1.4353569194
 31
0.0
 11
-8.5373871965
 21
1.4344458262
 31
0.0
 11
-8.5288500348
 21
1.433543122
 31
0.0
 11
-8.515827025
 21
1.4326571188
 31
0.0
 11
-8.498438079
 21
1.4317959744
 31
0.0
 11
-8.4768433084
 21
1.4309676181
 31
0.0
 11
-8.4512415511
 21
1.430179677
 31
0.0
 11
-8.4218685398
 21
1.4294394063
 31
0.0
 11
-8.3889947316
 21
1.4287536222
 31
0.0
 11
-8.3529228182
 21
1.4281286391
 31
0.0
 11
-8.3139849381
 21
1.4275702117
 31
0.0
 11
-8.2725396187
 21
1.4270834818
 31
0.0
 11
-8.2289684753
 21
1.4266729311
 31
0.0
 11
-8.1836726969
 21
1.4263423397
 31
0.0
 11
-8.1370693526
 21
1.4260947517
 31
0.0
 11
-8.089587551
 21
1.4259324468
 31
0.0
 11
-8.0416644892
 21
1.4258569194
 31
0.0
  0
SPLINE
  5
2B5
100
AcDbEntity
  8
RACCORDO
100
AcDbSpline
 62
253
  6
CONTINUOUS
 70
0
 71
3
 72
10
 73
6
 74
4
 42
0.0000001
 43
0.0000001
 44
0.0000000001
 12
0.0060343306
 22
9.1022302254
 32
0.0
 13
0.0002526151
 23
9.1022322221
 33
0.0
 40
0.0
 40
0.0
 40
0.0
 40
0.0
 40
0.3333130853
 40
0.6666473209
 40
1.0
 40
1.0
 40
1.0
 40
1.0
 10
-8.0416644892
 20
1.4258569194
 30
0.0
 10
-8.0409940488
 20
2.4371543992
 30
0.0
 10
-8.0398669596
 20
4.4598136794
 30
0.0
 10
-8.0388208514
 20
7.4938909277
 30
0.0
 10
-8.0385466636
 20
9.5166706337
 30
0.0
 10
-8.0385185936
 20
10.5280884659
 30
0.0
 11
-8.0416644892
 21
1.4258569194
 31
0.0
 11
-8.0399744145
 21
4.4597495549
 31
0.0
 11
-8.0389266745
 21
7.4938349955
 31
0.0
 11
-8.0385185936
 21
10.5280884659
 31
0.0
  0
SPLINE
  5
2B6
100
AcDbEntity
  8
RACCORDO
100
AcDbSpline
 62
253
  6
CONTINUOUS
 70
0
 71
3
 72
24
 73
20
 74
18
 42
0.0000001
 43
0.0000001
 44
0.0000000001
 12
-0.4997144696
 22
0.0000069948
 32
0.0
 13
-0.4951381098
 23
0.0674744651
 33
0.0
 40
0.0
 40
0.0
 40
0.0
 40
0.0
 40
0.0902745285
 40
0.1798119128
 40
0.2678852403
 40
0.3537729599
 40
0.4367747643
 40
0.5162146948
 40
0.5914438862
 40
0.6618488285
 40
0.7268549417
 40
0.7859326743
 40
0.8385998271
 40
0.8844269067
 40
0.9230397915
 40
0.9541242682
 40
0.9774271668
 40
0.9927589096
 40
1.0
 40
1.0
 40
1.0
 40
1.0
 10
-8.0385185936
 20
10.5280884652
 30
0.0
 10
-8.0535557563
 20
10.5280886756
 30
0.0
 10
-8.0835072948
 20
10.5280955108
 30
0.0
 10
-8.12812933
 20
10.5281249897
 30
0.0
 10
-8.1720206311
 20
10.5281734315
 30
0.0
 10
-8.2148232653
 20
10.5282404274
 30
0.0
 10
-8.2561877871
 20
10.5283254157
 30
0.0
 10
-8.2957768571
 20
10.5284276784
 30
0.0
 10
-8.3332675946
 20
10.5285463388
 30
0.0
 10
-8.3683539986
 20
10.5286804068
 30
0.0
 10
-8.4007499586
 20
10.5288286173
 30
0.0
 10
-8.4301911719
 20
10.5289899727
 30
0.0
 10
-8.4564376945
 20
10.529161961
 30
0.0
 10
-8.4792748519
 20
10.529346041
 30
0.0
 10
-8.4985177625
 20
10.5295308816
 30
0.0
 10
-8.514005719
 20
10.5297398923
 30
0.0
 10
-8.52562227
 20
10.5299023525
 30
0.0
 10
-8.5332517786
 20
10.5301586918
 30
0.0
 10
-8.537021621
 20
10.5302300629
 30
0.0
 10
-8.5382167343
 20
10.5303929258
 30
0.0
 11
-8.0385185936
 21
10.5280884652
 31
0.0
 11
-8.0836300805
 21
10.5280988034
 31
0.0
 11
-8.1283731972
 21
10.5281284819
 31
0.0
 11
-8.1723846863
 21
10.5281772614
 31
0.0
 11
-8.2153039695
 21
10.5282447403
 31
0.0
 11
-8.2567810838
 21
10.5283303681
 31
0.0
 11
-8.2964782328
 21
10.5284334453
 31
0.0
 11
-8.3340711577
 21
10.5285531286
 31
0.0
 11
-8.3692532659
 21
10.5286884398
 31
0.0
 11
-8.4017374157
 21
10.5288382722
 31
0.0
 11
-8.4312589628
 21
10.529001403
 31
0.0
 11
-8.4575769187
 21
10.5291764987
 31
0.0
 11
-8.4804766211
 21
10.5293621289
 31
0.0
 11
-8.4997710566
 21
10.5295567764
 31
0.0
 11
-8.5153031049
 21
10.5297588516
 31
0.0
 11
-8.5269460452
 21
10.5299667121
 31
0.0
 11
-8.5346046073
 21
10.530178638
 31
0.0
 11
-8.5382167343
 21
10.5303929258
 31
0.0
  0
SPLINE
  5
2B7
100
AcDbEntity
  8
0
100
AcDbSpline
 62
253
  6
CONTINUOUS
 70
0
 71
3
 72
23
 73
19
 74
17
 42
0.0000001
 43
0.0000001
 44
0.0000000001
 12
0.1156655032
 22
-0.499983543
 32
0.0
 13
0.5131813254
 23
-0.0026417988
 33
0.0
 40
0.0
 40
0.0
 40
0.0
 40
0.0
 40
0.015923639
 40
0.0375197021
 40
0.0662667587
 40
0.1026032005
 40
0.1465356677
 40
0.1978499076
 40
0.2561916344
 40
0.3211034861
 40
0.3920453925
 40
0.4684080562
 40
0.5495234005
 40
0.6346736571
 40
0.7230998625
 40
0.8140101302
 40
0.9065878662
 40
1.0
 40
1.0
 40
1.0
 40
1.0
 10
-8.5757227566
 20
-10.206998409
 30
0.0
 10
-8.575108818
 20
-10.2096522615
 30
0.0
 10
-8.5714975126
 20
-10.2153265681
 30
0.0
 10
-8.5624071761
 20
-10.2222129164
 30
0.0
 10
-8.5491694874
 20
-10.2290103035
 30
0.0
 10
-8.5317005513
 20
-10.2356011441
 30
0.0
 10
-8.5101004803
 20
-10.2419842406
 30
0.0
 10
-8.4845326232
 20
-10.2480711555
 30
0.0
 10
-8.4552197884
 20
-10.2538052629
 30
0.0
 10
-8.4224242509
 20
-10.2591257616
 30
0.0
 10
-8.3864443553
 20
-10.2639805481
 30
0.0
 10
-8.3476092036
 20
-10.2683219882
 30
0.0
 10
-8.3062751496
 20
-10.2721082904
 30
0.0
 10
-8.2628220396
 20
-10.275303235
 30
0.0
 10
-8.2176495484
 20
-10.2778764678
 30
0.0
 10
-8.1711733218
 20
-10.279803642
 30
0.0
 10
-8.1238212821
 20
-10.2810665857
 30
0.0
 10
-8.092006464
 20
-10.2814572415
 30
0.0
 10
-8.0760273431
 20
-10.2815395002
 30
0.0
 11
-8.5757227566
 21
-10.206998409
 31
0.0
 11
-8.5717668993
 21
-10.2141489248
 31
0.0
 11
-8.5632441508
 21
-10.221233568
 31
0.0
 11
-8.550233025
 21
-10.2281870729
 31
0.0
 11
-8.532853384
 21
-10.2349453819
 31
0.0
 11
-8.511265334
 21
-10.2414462357
 31
0.0
 11
-8.48566775
 21
-10.2476297464
 31
0.0
 11
-8.4562964443
 21
-10.2534389499
 31
0.0
 11
-8.4234219933
 21
-10.2588203302
 31
0.0
 11
-8.3873472459
 21
-10.2637243124
 31
0.0
 11
-8.3484045326
 21
-10.2681057198
 31
0.0
 11
-8.3069526045
 21
-10.2719241896
 31
0.0
 11
-8.2633733285
 21
-10.275144545
 31
0.0
 11
-8.2180681689
 21
-10.2777371191
 31
0.0
 11
-8.1714544896
 21
-10.2796780285
 31
0.0
 11
-8.1239617087
 21
-10.2809493929
 31
0.0
 11
-8.0760273431
 21
-10.2815395002
 31
0.0
  0
SPLINE
  5
2B8
100
AcDbEntity
  8
0
100
AcDbSpline
 62
253
  6
CONTINUOUS
 70
0
 71
3
 72
24
 73
20
 74
18
 42
0.0000001
 43
0.0000001
 44
0.0000000001
 12
0.2685899298
 22
0.8063822775
 32
0.0
 13
0.0022370123
 23
0.8499340702
 33
0.0
 40
0.0
 40
0.0
 40
0.0
 40
0.0
 40
0.0089137456
 40
0.0253125474
 40
0.0491359441
 40
0.0802419731
 40
0.1184347082
 40
0.163469248
 40
0.215055175
 40
0.2728589497
 40
0.3365068628
 40
0.4055864992
 40
0.47965089
 40
0.558220232
 40
0.6407855899
 40
0.7268120383
 40
0.815743447
 40
0.9070022571
 40
1.0
 40
1.0
 40
1.0
 40
1.0
 10
-8.0923787988
 20
-11.1310868526
 30
0.0
 10
-8.0915807513
 20
-11.1286908904
 30
0.0
 10
-8.0906962743
 20
-11.1215090194
 30
0.0
 10
-8.0893141103
 20
-11.107699189
 30
0.0
 10
-8.0880728374
 20
-11.0875051422
 30
0.0
 10
-8.0867629595
 20
-11.0611638084
 30
0.0
 10
-8.0855116843
 20
-11.0287920773
 30
0.0
 10
-8.0842920339
 20
-10.9906183099
 30
0.0
 10
-8.0831290815
 20
-10.9468829144
 30
0.0
 10
-8.0820271392
 20
-10.8978716285
 30
0.0
 10
-8.0809958737
 20
-10.8439014803
 30
0.0
 10
-8.0800420959
 20
-10.7853224822
 30
0.0
 10
-8.0791725478
 20
-10.7225143102
 30
0.0
 10
-8.0783931081
 20
-10.6558840201
 30
0.0
 10
-8.0777090292
 20
-10.5858635191
 30
0.0
 10
-8.0771249085
 20
-10.5129063185
 30
0.0
 10
-8.0766445816
 20
-10.4374853495
 30
0.0
 10
-8.0762713235
 20
-10.3600887014
 30
0.0
 10
-8.0760966888
 20
-10.3078868169
 30
0.0
 10
-8.0760273431
 20
-10.2815395002
 30
0.0
 11
-8.0923787988
 21
-11.1310868526
 31
0.0
 11
-8.0909792041
 21
-11.1236411313
 31
0.0
 11
-8.0895946798
 21
-11.109772119
 31
0.0
 11
-8.088234041
 21
-11.0895694998
 31
0.0
 11
-8.0869062355
 21
-11.0631646986
 31
0.0
 11
-8.0856198119
 21
-11.0307287794
 31
0.0
 11
-8.0843831271
 21
-10.9924722405
 31
0.0
 11
-8.0832041915
 21
-10.9486433048
 31
0.0
 11
-8.082090647
 21
-10.8995263582
 31
0.0
 11
-8.0810497004
 21
-10.8454396571
 31
0.0
 11
-8.0800880998
 21
-10.7867341922
 31
0.0
 11
-8.0792120666
 21
-10.7237902208
 31
0.0
 11
-8.0784272764
 21
-10.6570158405
 31
0.0
 11
-8.0777388068
 21
-10.586843864
 31
0.0
 11
-8.0771511225
 21
-10.5137291632
 31
0.0
 11
-8.0766680037
 21
-10.4381446112
 31
0.0
 11
-8.0762926162
 21
-10.360581279
 31
0.0
 11
-8.0760273431
 21
-10.2815395002
 31
0.0
  0
SPLINE
  5
2B9
100
AcDbEntity
  8
0
100
AcDbSpline
 62
253
  6
CONTINUOUS
 70
0
 71
3
 72
24
 73
20
 74
18
 42
0.0000001
 43
0.0000001
 44
0.0000000001
 12
0.2359406643
 22
0.3541476739
 32
0.0
 13
0.0022405343
 23
0.425539131
 33
0.0
 40
0.0
 40
0.0
 40
0.0
 40
0.0
 40
0.0093427655
 40
0.0259586392
 40
0.0499093424
 40
0.0810900281
 40
0.1193207176
 40
0.1643650495
 40
0.2159378438
 40
0.2737091555
 40
0.3373079655
 40
0.4063240255
 40
0.4803121476
 40
0.5587941037
 40
0.6412624686
 40
0.7271837488
 40
0.8160032134
 40
0.907144645
 40
1.0
 40
1.0
 40
1.0
 40
1.0
 10
-8.5920742123
 20
-10.6317720852
 30
0.0
 10
-8.5913394328
 20
-10.630669179
 30
0.0
 10
-8.5903658908
 20
-10.6270203288
 30
0.0
 10
-8.5890334809
 20
-10.6201236863
 30
0.0
 10
-8.5877620605
 20
-10.6099935474
 30
0.0
 10
-8.5864624235
 20
-10.5968252941
 30
0.0
 10
-8.5852066792
 20
-10.5806333024
 30
0.0
 10
-8.5839881967
 20
-10.5615453412
 30
0.0
 10
-8.5828246464
 20
-10.5396756962
 30
0.0
 10
-8.5817227532
 20
-10.5151687346
 30
0.0
 10
-8.5806913722
 20
-10.488182251
 30
0.0
 10
-8.5797375542
 20
-10.4588913677
 30
0.0
 10
-8.5788679629
 20
-10.4274858496
 30
0.0
 10
-8.5780884923
 20
-10.3941692478
 30
0.0
 10
-8.5774043998
 20
-10.3591575235
 30
0.0
 10
-8.5768202549
 20
-10.3226774444
 30
0.0
 10
-8.5763399499
 20
-10.2849654927
 30
0.0
 10
-8.5759666872
 20
-10.2462687035
 30
0.0
 10
-8.5757921051
 20
-10.2201696047
 30
0.0
 10
-8.5757227566
 20
-10.206998409
 30
0.0
 11
-8.5920742123
 21
-10.6317720852
 31
0.0
 11
-8.5906749974
 21
-10.6280506709
 31
0.0
 11
-8.5892903831
 21
-10.6211167621
 31
0.0
 11
-8.5879297247
 21
-10.6110158925
 31
0.0
 11
-8.5866018679
 21
-10.5978137157
 31
0.0
 11
-8.5853154046
 21
-10.5815957792
 31
0.0
 11
-8.5840786772
 21
-10.5624673255
 31
0.0
 11
-8.5828997019
 21
-10.5405524696
 31
0.0
 11
-8.5817861197
 21
-10.5159934087
 31
0.0
 11
-8.580745139
 21
-10.4889492785
 31
0.0
 11
-8.5797835081
 21
-10.4595955846
 31
0.0
 11
-8.5789074503
 21
-10.4281224972
 31
0.0
 11
-8.5781226407
 21
-10.3947341133
 31
0.0
 11
-8.5774341605
 21
-10.3596468646
 31
0.0
 11
-8.5768464667
 21
-10.3230882142
 31
0.0
 11
-8.5763633569
 21
-10.2852946202
 31
0.0
 11
-8.5759879643
 21
-10.2465116538
 31
0.0
 11
-8.5757227566
 21
-10.206998409
 31
0.0
  0
SPLINE
  5
2BA
100
AcDbEntity
  8
RACCORDO
100
AcDbSpline
 62
253
  6
CONTINUOUS
 70
0
 71
3
 72
24
 73
20
 74
18
 42
0.0000001
 43
0.0000001
 44
0.0000000001
 12
-0.2498750154
 22
0.0000000277
 32
0.0
 13
-0.2424250812
 23
0.0605607405
 33
0.0
 40
0.0
 40
0.0
 40
0.0
 40
0.0
 40
0.0902519062
 40
0.1797846795
 40
0.2678529052
 40
0.3537361738
 40
0.4367339978
 40
0.5161705145
 40
0.5913968937
 40
0.6617996696
 40
0.7268041989
 40
0.7858808583
 40
0.8385476229
 40
0.8843752391
 40
0.9229899153
 40
0.9540780319
 40
0.9773873145
 40
0.9927312008
 40
1.0
 40
1.0
 40
1.0
 40
1.0
 10
-8.0385212768
 20
10.7782778311
 30
0.0
 10
-8.046038509
 20
10.778277832
 30
0.0
 10
-8.0610130762
 20
10.7782837127
 30
0.0
 10
-8.083322979
 20
10.7783101482
 30
0.0
 10
-8.105268983
 20
10.7783539651
 30
0.0
 10
-8.1266706375
 20
10.7784147972
 30
0.0
 10
-8.1473532848
 20
10.7784921318
 30
0.0
 10
-8.1671482271
 20
10.7785853193
 30
0.0
 10
-8.1858940159
 20
10.7786935616
 30
0.0
 10
-8.2034376214
 20
10.7788159562
 30
0.0
 10
-8.2196359694
 20
10.7789513545
 30
0.0
 10
-8.2343568288
 20
10.7790988301
 30
0.0
 10
-8.2474803844
 20
10.7792561423
 30
0.0
 10
-8.2588988076
 20
10.7794244582
 30
0.0
 10
-8.2685211891
 20
10.7795939152
 30
0.0
 10
-8.2762630562
 20
10.7797845276
 30
0.0
 10
-8.2820771257
 20
10.7799351987
 30
0.0
 10
-8.2858825422
 20
10.7801664683
 30
0.0
 10
-8.287781551
 20
10.7802366588
 30
0.0
 10
-8.2883689307
 20
10.7803833934
 30
0.0
 11
-8.0385212768
 21
10.7782778311
 31
0.0
 11
-8.0610729715
 21
10.7782867257
 31
0.0
 11
-8.0834449588
 21
10.7783133441
 31
0.0
 11
-8.1054509638
 21
10.7783574696
 31
0.0
 11
-8.1269109594
 21
10.7784187423
 31
0.0
 11
-8.1476498955
 21
10.778496662
 31
0.0
 11
-8.1674988741
 21
10.7785905945
 31
0.0
 11
-8.1862957497
 21
10.7786997729
 31
0.0
 11
-8.2038872107
 21
10.7788233067
 31
0.0
 11
-8.2201296417
 21
10.7789601875
 31
0.0
 11
-8.2348906697
 21
10.7791092998
 31
0.0
 11
-8.2480498041
 21
10.7792694263
 31
0.0
 11
-8.2594997209
 21
10.7794392612
 31
0.0
 11
-8.2691469189
 21
10.7796174171
 31
0.0
 11
-8.2769128586
 21
10.7798024429
 31
0.0
 11
-8.2827341535
 21
10.7799928295
 31
0.0
 11
-8.2865632864
 21
10.7801870191
 31
0.0
 11
-8.2883689307
 21
10.7803833934
 31
0.0
  0
SPLINE
  5
2BB
100
AcDbEntity
  8
RACCORDO
100
AcDbSpline
 62
253
  6
CONTINUOUS
 70
0
 71
3
 72
24
 73
20
 74
18
 42
0.0000001
 43
0.0000001
 44
0.0000000001
 12
-0.2424250813
 22
-0.0605607403
 32
0.0
 13
-0.2498750154
 23
-0.0000000277
 33
0.0
 40
0.0
 40
0.0
 40
0.0
 40
0.0
 40
0.0072687992
 40
0.0226126855
 40
0.0459219681
 40
0.0770100847
 40
0.1156247608
 40
0.1614523771
 40
0.2141191417
 40
0.2731958011
 40
0.3382003304
 40
0.4086031063
 40
0.4838294855
 40
0.5632660021
 40
0.6462638261
 40
0.7321470947
 40
0.8202153205
 40
0.9097480937
 40
1.0
 40
1.0
 40
1.0
 40
1.0
 10
35.5475518694
 20
10.7803833934
 30
0.0
 10
35.5469644896
 20
10.7802366588
 30
0.0
 10
35.5450654808
 20
10.7801664683
 30
0.0
 10
35.5412600643
 20
10.7799351987
 30
0.0
 10
35.5354459949
 20
10.7797845276
 30
0.0
 10
35.5277041278
 20
10.7795939152
 30
0.0
 10
35.5180817463
 20
10.7794244582
 30
0.0
 10
35.5066633231
 20
10.7792561423
 30
0.0
 10
35.4935397675
 20
10.7790988301
 30
0.0
 10
35.478818908
 20
10.7789513545
 30
0.0
 10
35.4626205601
 20
10.7788159562
 30
0.0
 10
35.4450769545
 20
10.7786935616
 30
0.0
 10
35.4263311658
 20
10.7785853193
 30
0.0
 10
35.4065362234
 20
10.7784921318
 30
0.0
 10
35.3858535761
 20
10.7784147972
 30
0.0
 10
35.3644519216
 20
10.7783539651
 30
0.0
 10
35.3425059177
 20
10.7783101482
 30
0.0
 10
35.3201960148
 20
10.7782837127
 30
0.0
 10
35.3052214476
 20
10.778277832
 30
0.0
 10
35.2977042155
 20
10.7782778311
 30
0.0
 11
35.5475518694
 21
10.7803833934
 31
0.0
 11
35.5457462251
 21
10.7801870192
 31
0.0
 11
35.5419170922
 21
10.7799928295
 31
0.0
 11
35.5360957973
 21
10.7798024429
 31
0.0
 11
35.5283298575
 21
10.7796174171
 31
0.0
 11
35.5186826596
 21
10.7794392612
 31
0.0
 11
35.5072327428
 21
10.7792694263
 31
0.0
 11
35.4940736084
 21
10.7791092998
 31
0.0
 11
35.4793125803
 21
10.7789601875
 31
0.0
 11
35.4630701493
 21
10.7788233067
 31
0.0
 11
35.4454786884
 21
10.7786997729
 31
0.0
 11
35.4266818128
 21
10.7785905945
 31
0.0
 11
35.4068328342
 21
10.778496662
 31
0.0
 11
35.386093898
 21
10.7784187423
 31
0.0
 11
35.3646339025
 21
10.7783574696
 31
0.0
 11
35.3426278974
 21
10.7783133441
 31
0.0
 11
35.3202559102
 21
10.7782867257
 31
0.0
 11
35.2977042155
 21
10.7782778311
 31
0.0
  0
SPLINE
  5
2BC
100
AcDbEntity
  8
RACCORDO
100
AcDbSpline
 62
253
  6
CONTINUOUS
 70
0
 71
3
 72
21
 73
17
 74
15
 42
0.0000001
 43
0.0000001
 44
0.0000000001
 12
-0.0021831839
 22
0.2504731391
 32
0.0
 13
0.2504731158
 23
0.0021858458
 33
0.0
 40
0.0
 40
0.0
 40
0.0
 40
0.0
 40
0.1117254707
 40
0.2220443826
 40
0.3295717424
 40
0.4329577933
 40
0.5309050832
 40
0.6221849176
 40
0.7056530314
 40
0.7802643551
 40
0.8450868632
 40
0.8993147599
 40
0.9422821117
 40
0.9734815232
 40
0.9926137743
 40
1.0
 40
1.0
 40
1.0
 40
1.0
 10
-25.4978656308
 20
10.5303929126
 30
0.0
 10
-25.4979469366
 20
10.5397209891
 30
0.0
 10
-25.4980724264
 20
10.5582600412
 30
0.0
 10
-25.4981501792
 20
10.5857773418
 30
0.0
 10
-25.4981161523
 20
10.6125984226
 30
0.0
 10
-25.4979709252
 20
10.638386253
 30
0.0
 10
-25.4977165442
 20
10.6628163071
 30
0.0
 10
-25.4973566322
 20
10.6855828485
 30
0.0
 10
-25.4968961109
 20
10.7063954251
 30
0.0
 10
-25.4963423023
 20
10.7250064656
 30
0.0
 10
-25.4957019825
 20
10.7411395159
 30
0.0
 10
-25.4949915292
 20
10.7547180362
 30
0.0
 10
-25.4942115779
 20
10.7652291073
 30
0.0
 10
-25.4934229556
 20
10.7734012262
 30
0.0
 10
-25.4925999569
 20
10.7773910293
 30
0.0
 10
-25.4919390742
 20
10.7803780117
 30
0.0
 10
-25.4913223905
 20
10.7803833934
 30
0.0
 11
-25.4978656308
 21
10.5303929126
 31
0.0
 11
-25.4980547128
 21
10.5583775662
 31
0.0
 11
-25.4981317401
 21
10.5860104326
 31
0.0
 11
-25.4980957442
 21
10.612944147
 31
0.0
 11
-25.4979471778
 21
10.6388401332
 31
0.0
 11
-25.4976879084
 21
10.6633728602
 31
0.0
 11
-25.4973211953
 21
10.6862339344
 31
0.0
 11
-25.4968516482
 21
10.7071359757
 31
0.0
 11
-25.4962851697
 21
10.7258162307
 31
0.0
 11
-25.495628881
 21
10.7420398757
 31
0.0
 11
-25.4948910319
 21
10.755602968
 31
0.0
 11
-25.4940808978
 21
10.7663350103
 31
0.0
 11
-25.4932086627
 21
10.7741010933
 31
0.0
 11
-25.4922852911
 21
10.7788035922
 31
0.0
 11
-25.4913223905
 21
10.7803833934
 31
0.0
  0
LINE
  5
2BD
100
AcDbEntity
  8
RACCORDO
100
AcDbLine
 62
253
  6
CONTINUOUS
 10
-25.4978628589
 20
10.5303929258
 11
-25.9804142111
 21
10.5280884652
  0
SPLINE
  5
2BE
100
AcDbEntity
  8
0
100
AcDbSpline
 62
253
  6
CONTINUOUS
 70
0
 71
3
 72
23
 73
19
 74
17
 42
0.0000001
 43
0.0000001
 44
0.0000000001
 12
-0.4773642622
 22
-0.0720585592
 32
0.0
 13
0.0719729241
 23
-0.477377181
 33
0.0
 40
0.0
 40
0.0
 40
0.0
 40
0.0
 40
0.0990673877
 40
0.196892917
 40
0.292575418
 40
0.3852334648
 40
0.4740134963
 40
0.5580976811
 40
0.6367114536
 40
0.7091306523
 40
0.7746881962
 40
0.8327802388
 40
0.8828717468
 40
0.9245014633
 40
0.9572862377
 40
0.980924798
 40
0.9952015677
 40
1.0
 40
1.0
 40
1.0
 40
1.0
 10
-24.4238309043
 20
-10.206998409
 30
0.0
 10
-24.4395946478
 20
-10.2093779601
 30
0.0
 10
-24.4709233519
 20
-10.2141150301
 30
0.0
 10
-24.5174730502
 20
-10.2211777112
 30
0.0
 10
-24.5629993693
 20
-10.2281095373
 30
0.0
 10
-24.6070829384
 20
-10.2348466151
 30
0.0
 10
-24.6493175574
 20
-10.2413269063
 30
0.0
 10
-24.689314486
 20
-10.247490479
 30
0.0
 10
-24.7267041529
 20
-10.2532811344
 30
0.0
 10
-24.7611458578
 20
-10.2586432825
 30
0.0
 10
-24.7923102295
 20
-10.2635343627
 30
0.0
 10
-24.819948445
 20
-10.2678870316
 30
0.0
 10
-24.8436895883
 20
-10.2717279
 30
0.0
 10
-24.8636529914
 20
-10.2748259458
 30
0.0
 10
-24.878736923
 20
-10.2776805264
 30
0.0
 10
-24.8910587809
 20
-10.2789605883
 30
0.0
 10
-24.8958623574
 20
-10.2813220184
 30
0.0
 10
-24.9009086565
 20
-10.2807759427
 30
0.0
 10
-24.9007935375
 20
-10.2815394968
 30
0.0
 11
-24.4238309043
 21
-10.206998409
 31
0.0
 11
-24.4711203426
 21
-10.2141489245
 31
0.0
 11
-24.5178133852
 21
-10.2212335675
 31
0.0
 11
-24.563479883
 21
-10.2281870722
 31
0.0
 11
-24.6076991433
 21
-10.2349453809
 31
0.0
 11
-24.650063806
 21
-10.2414462344
 31
0.0
 11
-24.690183596
 21
-10.2476297448
 31
0.0
 11
-24.7276889186
 21
-10.253438948
 31
0.0
 11
-24.7622342644
 21
-10.258820328
 31
0.0
 11
-24.7935013919
 21
-10.26372431
 31
0.0
 11
-24.8212022597
 21
-10.2681057172
 31
0.0
 11
-24.8450816797
 21
-10.2719241868
 31
0.0
 11
-24.8649196679
 21
-10.275144542
 31
0.0
 11
-24.8805334714
 21
-10.2777371159
 31
0.0
 11
-24.8917792513
 21
-10.2796780252
 31
0.0
 11
-24.8985534085
 21
-10.2809493895
 31
0.0
 11
-24.9007935375
 21
-10.2815394968
 31
0.0
  0
SPLINE
  5
2BF
100
AcDbEntity
  8
0
100
AcDbSpline
 62
253
  6
CONTINUOUS
 70
0
 71
3
 72
23
 73
19
 74
17
 42
0.0000001
 43
0.0000001
 44
0.0000000001
 12
-0.0261481723
 22
-0.4995452843
 32
0.0
 13
0.4995436188
 23
-0.0261799717
 33
0.0
 40
0.0
 40
0.0
 40
0.0
 40
0.0
 40
0.0978499016
 40
0.1947432743
 40
0.2897503344
 40
0.3819594947
 40
0.4704861696
 40
0.5544813359
 40
0.6331397783
 40
0.7057079592
 40
0.7714914739
 40
0.8298620941
 40
0.8802645015
 40
0.9222230709
 40
0.9553499014
 40
0.9793587241
 40
0.9941101821
 40
1.0
 40
1.0
 40
1.0
 40
1.0
 10
-23.9555864779
 20
-10.6317720852
 30
0.0
 10
-23.9564393433
 20
-10.6480655708
 30
0.0
 10
-23.9580815518
 20
-10.6804961819
 30
0.0
 10
-23.9603590333
 20
-10.7287564222
 30
0.0
 10
-23.9624246949
 20
-10.7760847692
 30
0.0
 10
-23.9642588176
 20
-10.8220265056
 30
0.0
 10
-23.9658439815
 20
-10.8661401889
 30
0.0
 10
-23.9671652476
 20
-10.9080021573
 30
0.0
 10
-23.9682103836
 20
-10.9472096762
 30
0.0
 10
-23.9689699318
 20
-10.9833879629
 30
0.0
 10
-23.9694378532
 20
-11.0161834657
 30
0.0
 10
-23.9696105213
 20
-11.045300497
 30
0.0
 10
-23.9694914315
 20
-11.0704012744
 30
0.0
 10
-23.9690801263
 20
-11.0914161066
 30
0.0
 10
-23.9684099898
 20
-11.107682318
 30
0.0
 10
-23.9674672976
 20
-11.1202036284
 30
0.0
 10
-23.9664260825
 20
-11.1265429173
 30
0.0
 10
-23.965285448
 20
-11.1310354541
 30
0.0
 10
-23.9643047077
 20
-11.1310868526
 30
0.0
 11
-23.9555864779
 21
-10.6317720852
 31
0.0
 11
-23.9580614692
 21
-10.6806568466
 31
0.0
 11
-23.9603450199
 21
-10.7290719144
 31
0.0
 11
-23.9624151893
 21
-10.7765521078
 31
0.0
 11
-23.964252087
 21
-10.8226412285
 31
0.0
 11
-23.9658380635
 21
-10.866896444
 31
0.0
 11
-23.9671578806
 21
-10.908892542
 31
0.0
 11
-23.9681988572
 21
-10.9482260165
 31
0.0
 11
-23.9689509915
 21
-10.9845189443
 31
0.0
 11
-23.9694070567
 21
-11.0174226164
 31
0.0
 11
-23.969562671
 21
-11.0466208884
 31
0.0
 11
-23.9694163392
 21
-11.0718332179
 31
0.0
 11
-23.9689694672
 21
-11.0928173604
 31
0.0
 11
-23.9682263486
 21
-11.1093716964
 31
0.0
 11
-23.9671941236
 21
-11.1213371688
 31
0.0
 11
-23.9658827098
 21
-11.1285988113
 31
0.0
 11
-23.9643047077
 21
-11.1310868526
 31
0.0
  0
SPLINE
  5
2C0
100
AcDbEntity
  8
RACCORDO
100
AcDbSpline
 62
253
  6
CONTINUOUS
 70
0
 71
3
 72
9
 73
5
 74
3
 42
0.0000001
 43
0.0000001
 44
0.0000000001
 12
0.0047161027
 22
-0.0032023261
 32
0.0
 13
-0.0027580067
 23
-0.0059145644
 33
0.0
 40
0.0
 40
0.0
 40
0.0
 40
0.0
 40
0.7236255645
 40
1.0
 40
1.0
 40
1.0
 40
1.0
 10
-20.7142555614
 20
-7.1309424581
 30
0.0
 10
-20.7131179973
 20
-7.1317148865
 30
0.0
 10
-20.7116705012
 20
-7.1328134845
 30
0.0
 10
-20.7084260143
 20
-7.1338752822
 30
0.0
 10
-20.7086800952
 20
-7.1344201604
 30
0.0
 11
-20.7142555614
 21
-7.1309424581
 31
0.0
 11
-20.7100821416
 21
-7.1332855638
 31
0.0
 11
-20.7086800952
 21
-7.1344201604
 31
0.0
  0
ELLIPSE
  5
2C1
100
AcDbEntity
  8
RACCORDO
100
AcDbEllipse
 62
7
  6
CONTINUOUS
 10
9.6641214155
 20
-11.2560129676
 30
0.0
 11
0.2
 21
-0.0
 31
0.0
 40
0.0524077793
 41
0.5235987756
 42
1.5707963268
  0
ELLIPSE
  5
2C2
100
AcDbEntity
  8
RACCORDO
100
AcDbEllipse
 62
7
  6
CONTINUOUS
 10
-1.5358785845
 20
-11.2560129676
 30
0.0
 11
0.2
 21
0.0
 31
0.0
 40
0.0524077793
 41
0.5235987756
 42
1.5707963268
  0
ELLIPSE
  5
2C3
100
AcDbEntity
  8
RACCORDO
100
AcDbEllipse
 62
7
  6
CONTINUOUS
 10
-4.9049384768
 20
-11.2560129676
 30
0.0
 11
0.2
 21
-0.0
 31
0.0
 40
0.0524077793
 41
1.5707963268
 42
2.617993878
  0
ELLIPSE
  5
2C4
100
AcDbEntity
  8
RACCORDO
100
AcDbEllipse
 62
7
  6
CONTINUOUS
 10
6.2950615232
 20
-11.2560129676
 30
0.0
 11
0.2
 21
-0.0
 31
0.0
 40
0.0524077793
 41
1.5707963268
 42
2.617993878
  0
ELLIPSE
  5
2C5
100
AcDbEntity
  8
RACCORDO
100
AcDbEllipse
 62
7
  6
CONTINUOUS
 10
17.5950615232
 20
-11.2560129676
 30
0.0
 11
0.2
 21
0.0
 31
0.0
 40
0.0524077793
 41
1.5707963268
 42
2.617993878
  0
ELLIPSE
  5
2C6
100
AcDbEntity
  8
RACCORDO
100
AcDbEllipse
 62
7
  6
CONTINUOUS
 10
20.9641214155
 20
-11.2560129676
 30
0.0
 11
0.2
 21
0.0
 31
0.0
 40
0.0524077793
 41
0.5235987756
 42
1.5707963268
  0
ELLIPSE
  5
2C7
100
AcDbEntity
  8
RACCORDO
100
AcDbEllipse
 62
7
  6
CONTINUOUS
 10
32.1641214155
 20
-11.2560129676
 30
0.0
 11
0.2
 21
0.0
 31
0.0
 40
0.0524077793
 41
0.5235987756
 42
1.5707963268
  0
ELLIPSE
  5
2C8
100
AcDbEntity
  8
RACCORDO
100
AcDbEllipse
 62
7
  6
CONTINUOUS
 10
28.7950615232
 20
-11.2560129676
 30
0.0
 11
0.2
 21
0.0
 31
0.0
 40
0.0524077793
 41
1.5707963268
 42
2.617993878
  0
ELLIPSE
  5
2C9
100
AcDbEntity
  8
0
100
AcDbEllipse
 62
7
  6
CONTINUOUS
 10
35.452982169
 20
-10.7839800598
 30
0.0
 11
0.4943891341
 21
0.0770133648
 31
0.0
 40
0.9960067742
 41
-1.7259388368
 42
-0.1569690096
  0
ELLIPSE
  5
2CA
100
AcDbEntity
  8
0
100
AcDbEllipse
 62
7
  6
CONTINUOUS
 10
-8.1937992304
 20
-10.7839800598
 30
0.0
 11
0.4943891341
 21
-0.0770133648
 31
0.0
 40
0.9960067742
 41
-2.984623644
 42
-1.4156538168
  0
ELLIPSE
  5
2CB
100
AcDbEntity
  8
RACCORDO
100
AcDbEllipse
 62
7
  6
CONTINUOUS
 10
35.7294390833
 20
10.5758473998
 30
0.0
 11
0.2426981267
 21
0.0606514259
 31
0.0
 40
0.9993528196
 41
-0.2447368254
 42
1.3257549497
  0
ELLIPSE
  5
2CC
100
AcDbEntity
  8
RACCORDO
100
AcDbEllipse
 62
7
  6
CONTINUOUS
 10
-8.4702561446
 20
10.5758473998
 30
0.0
 11
0.2426981267
 21
-0.0606514259
 31
0.0
 40
0.9993528196
 41
1.8158377039
 42
3.386329479
  0
ENDSEC
  0
SECTION
  2
OBJECTS
  0
DICTIONARY
  5
C
100
AcDbDictionary
280
0
281
1
  3
ACAD_GROUP
350
D
  3
ACAD_MLINESTYLE
350
17
  3
ACAD_LAYOUT
350
1A
  3
ACAD_PLOTSETTINGS
350
19
  3
ACAD_PLOTSTYLENAME
350
E
  0
DICTIONARY
  5
D
102
{ACAD_REACTORS
330
C
102
}
100
AcDbDictionary
280
0
281
1
  0
ACDBDICTIONARYWDFLT
  5
E
102
{ACAD_REACTORS
330
C
102
}
100
AcDbDictionary
281
1
  3
Normal
350
F
100
AcDbDictionaryWithDefault
340
F
  0
DICTIONARY
  5
17
102
{ACAD_REACTORS
330
C
102
}
100
AcDbDictionary
280
0
281
1
  3
Standard
350
18
  0
DICTIONARY
  5
19
102
{ACAD_REACTORS
330
C
102
}
100
AcDbDictionary
281
1
  0
DICTIONARY
  5
1A
102
{ACAD_REACTORS
330
C
102
}
100
AcDbDictionary
281
1
  3
Model
350
2CD
  3
Layout1
350
2CE
  0
ACDBPLACEHOLDER
  5
F
102
{ACAD_REACTORS
330
E
102
}
  0
MLINESTYLE
  5
18
102
{ACAD_REACTORS
330
17
102
}
100
AcDbMlineStyle
  2
STANDARD
 70
0
  3

 62
256
 51
90.0
 52
90.0
 71
2
 49
0.5
 62
256
  6
BYLAYER
 49
-0.5
 62
256
  6
BYLAYER
  0
LAYOUT
  5
2CD
102
{ACAD_REACTORS
330
1A
102
}
100
AcDbPlotSettings
  1

  2
none_device
  4
ISO_A4_(297.00_x_210.00_MM)
  6

 40
0.0
 41
0.0
 42
0.0
 43
0.0
 44
297.0
 45
210.0
 46
0.0
 47
0.0
 48
0.0
 49
0.0
140
0.0
141
0.0
142
1.0
143
1.0
 70
1024
 72
1
 73
0
 74
0
  7

 75
0
147
1.0
148
0.0
149
0.0
100
AcDbLayout
  1
Model
 70
0
 71
0
 10
0.0
 20
0.0
 11
297.0
 21
210.0
 12
0.0
 22
0.0
 32
0.0
 14
0.0
 24
0.0
 34
0.0
 15
0.0
 25
0.0
 35
0.0
146
0.0
 13
0.0
 23
0.0
 33
0.0
 16
1.0
 26
0.0
 36
0.0
 17
0.0
 27
1.0
 37
0.0
 76
0
330
215
345
0
346
0
  0
LAYOUT
  5
2CE
102
{ACAD_REACTORS
330
1A
102
}
100
AcDbPlotSettings
  1

  2
none_device
  4
ISO_A4_(297.00_x_210.00_MM)
  6

 40
0.0
 41
0.0
 42
0.0
 43
0.0
 44
297.0
 45
210.0
 46
0.0
 47
0.0
 48
0.0
 49
0.0
140
0.0
141
0.0
142
1.0
143
1.0
 70
0
 72
1
 73
0
 74
0
  7

 75
0
147
1.0
148
0.0
149
0.0
100
AcDbLayout
  1
Layout1
 70
0
 71
1
 10
0.0
 20
0.0
 11
297.0
 21
210.0
 12
0.0
 22
0.0
 32
0.0
 14
0.0
 24
0.0
 34
0.0
 15
0.0
 25
0.0
 35
0.0
146
0.0
 13
0.0
 23
0.0
 33
0.0
 16
1.0
 26
0.0
 36
0.0
 17
0.0
 27
1.0
 37
0.0
 76
0
330
216
345
0
346
0
  0
ENDSEC
  0
EOF
