  0
SECTION
  2
HEADER
  9
$ACADVER
  1
AC1015
  9
$DWGCODEPAGE
  3
ANSI_1252
  9
$EXTMAX
 10
297.0
 20
210.0
 30
0.0
  9
$EXTMIN
 10
0.0
 20
0.0
 30
0.0
  9
$LIMMIN
 10
0.0
 20
0.0
  9
$LIMMAX
 10
297.0
 20
210.0
  9
$VIEWCTR
 10
148.5
 20
105.0
  9
$VIEWSIZE
 40
210.0
  9
$CLAYER
  8
0
  9
$LTSCALE
 40
16.335
  9
$CELTYPE
  6
BYLAYER
  9
$DIMSCALE
 40
1.0
  9
$DIMASZ
 40
3.0
  9
$DIMEXO
 40
1.85625
  9
$DIMDLI
 40
11.286
  9
$DIMEXE
 40
5.346
  9
$DIMCEN
 40
2.673
  9
$DIMLFAC
 40
1.0
  9
$DIMBLK
  1
_FILLED
  9
$DIMTXT
 40
3.0
  9
$DIMTOL
 70
1
  9
$DIMLIM
 70
0
  9
$DIMTFAC
 40
1.0
  9
$DIMTP
 40
0.01
  9
$DIMTM
 40
0.01
  9
$PDMODE
 70
3
  9
$PDSIZE
 40
3.0
  9
$HANDSEED
  5
386
  9
$TILEMODE
 70
1
  9
$MEASUREMENT
 70
1
  9
$INSUNITS
 70
4
  0
ENDSEC
  0
SECTION
  2
CLASSES
  0
CLASS
  1
ACDBDICTIONARYWDFLT
  2
AcDbDictionaryWithDefault
  3
AutoCAD 2000
 90
0
280
0
281
0
  0
CLASS
  1
ACDBPLACEHOLDER
  2
AcDbPlaceHolder
  3
AutoCAD 2000
 90
0
280
0
281
0
  0
CLASS
  1
LAYOUT
  2
AcDbLayout
  3
AutoCAD 2000
 90
0
280
0
281
0
  0
ENDSEC
  0
SECTION
  2
TABLES
  0
TABLE
  2
VPORT
  5
8
100
AcDbSymbolTable
 70
2
  0
VPORT
  5
1F4
100
AcDbSymbolTableRecord
100
AcDbViewportTableRecord
  2
*ACTIVE
 70
0
 10
0.0
 20
0.0
 11
1.0
 21
1.0
 12
148.5
 22
105.0
 13
0.0
 23
0.0
 14
1.0
 24
1.0
 15
0.0
 25
0.0
 16
0.0
 26
0.0
 36
1.0
 17
0.0
 27
0.0
 37
0.0
 40
210.0
 41
1.4142857143
 42
50.0
 43
0.0
 44
0.0
 50
0.0
 51
0.0
 71
0
 72
100
 73
1
 74
1
 75
0
 76
0
 77
0
 78
0
  0
ENDTAB
  0
TABLE
  2
LTYPE
  5
5
100
AcDbSymbolTable
 70
6
  0
LTYPE
  5
14
100
AcDbSymbolTableRecord
100
AcDbLinetypeTableRecord
  2
BYBLOCK
 70
0
  3

 72
65
 73
0
 40
0.0
  0
LTYPE
  5
15
100
AcDbSymbolTableRecord
100
AcDbLinetypeTableRecord
  2
BYLAYER
 70
0
  3

 72
65
 73
0
 40
0.0
  0
LTYPE
  5
16
100
AcDbSymbolTableRecord
100
AcDbLinetypeTableRecord
  2
CONTINUOUS
 70
64
  3
Solid line
 72
65
 73
0
 40
0.0
  0
LTYPE
  5
1F5
100
AcDbSymbolTableRecord
100
AcDbLinetypeTableRecord
  2
CENTER
 70
64
  3
____ _ ____ _ ____ _ ____ _ ____ _ ____ _ ____
 72
65
 73
4
 40
0.6
 49
0.375
 74
0
 49
-0.075
 74
0
 49
0.075
 74
0
 49
-0.075
 74
0
  0
LTYPE
  5
1F6
100
AcDbSymbolTableRecord
100
AcDbLinetypeTableRecord
  2
HIDDEN
 70
64
  3
- - - - - - - - - - - - - - - - - - - -
 72
65
 73
2
 40
0.2
 49
0.1
 74
0
 49
-0.1
 74
0
  0
LTYPE
  5
1F7
100
AcDbSymbolTableRecord
100
AcDbLinetypeTableRecord
  2
PHANTOM
 70
64
  3
_____ _ _ _____ _ _ _____ _ _ _____
 72
65
 73
6
 40
0.8
 49
0.45
 74
0
 49
-0.05
 74
0
 49
0.1
 74
0
 49
-0.05
 74
0
 49
0.1
 74
0
 49
-0.05
 74
0
  0
LTYPE
  5
1F8
100
AcDbSymbolTableRecord
100
AcDbLinetypeTableRecord
  2
DOT
 70
64
  3
. . . . . . . . . . . . . . . . . . . .
 72
65
 73
2
 40
0.2
 49
0.1
 74
0
 49
-0.1
 74
0
  0
LTYPE
  5
1F9
100
AcDbSymbolTableRecord
100
AcDbLinetypeTableRecord
  2
DASHED
 70
64
  3
- - - - - - - - - - - - - - - - - - - -
 72
65
 73
2
 40
0.2
 49
0.1
 74
0
 49
-0.1
 74
0
  0
ENDTAB
  0
TABLE
  2
LAYER
  5
2
100
AcDbSymbolTable
 70
36
  0
LAYER
  5
10
100
AcDbSymbolTableRecord
100
AcDbLayerTableRecord
  2
0
 70
0
 62
7
  6
CONTINUOUS
370
-3
390
F
  0
LAYER
  5
1FA
100
AcDbSymbolTableRecord
100
AcDbLayerTableRecord
  2
DEFAULT_1
 70
0
 62
7
  6
CENTER
370
-3
390
F
  0
LAYER
  5
1FB
100
AcDbSymbolTableRecord
100
AcDbLayerTableRecord
  2
DEFAULT_2
 70
0
 62
7
  6
HIDDEN
370
-3
390
F
  0
LAYER
  5
1FC
100
AcDbSymbolTableRecord
100
AcDbLayerTableRecord
  2
DEFAULT_3
 70
0
 62
7
  6
PHANTOM
370
-3
390
F
  0
LAYER
  5
1FD
100
AcDbSymbolTableRecord
100
AcDbLayerTableRecord
  2
ASSI
 70
0
 62
7
  6
CONTINUOUS
370
-3
390
F
  0
LAYER
  5
1FE
100
AcDbSymbolTableRecord
100
AcDbLayerTableRecord
  2
COLOR9
 70
0
 62
7
  6
CONTINUOUS
370
-3
390
F
  0
LAYER
  5
1FF
100
AcDbSymbolTableRecord
100
AcDbLayerTableRecord
  2
COORDINATE
 70
0
 62
7
  6
CONTINUOUS
370
-3
390
F
  0
LAYER
  5
200
100
AcDbSymbolTableRecord
100
AcDbLayerTableRecord
  2
COORD_ORIGINE
 70
0
 62
7
  6
CONTINUOUS
370
-3
390
F
  0
LAYER
  5
201
100
AcDbSymbolTableRecord
100
AcDbLayerTableRecord
  2
COPY_PUBLISH
 70
0
 62
7
  6
CONTINUOUS
370
-3
390
F
  0
LAYER
  5
202
100
AcDbSymbolTableRecord
100
AcDbLayerTableRecord
  2
COSMETIC
 70
0
 62
7
  6
CONTINUOUS
370
-3
390
F
  0
LAYER
  5
203
100
AcDbSymbolTableRecord
100
AcDbLayerTableRecord
  2
CURVE
 70
0
 62
7
  6
CONTINUOUS
370
-3
390
F
  0
LAYER
  5
204
100
AcDbSymbolTableRecord
100
AcDbLayerTableRecord
  2
DRAFT
 70
0
 62
7
  6
CONTINUOUS
370
-3
390
F
  0
LAYER
  5
205
100
AcDbSymbolTableRecord
100
AcDbLayerTableRecord
  2
IGES
 70
0
 62
7
  6
CONTINUOUS
370
-3
390
F
  0
LAYER
  5
206
100
AcDbSymbolTableRecord
100
AcDbLayerTableRecord
  2
IGS_SCRITTE
 70
0
 62
7
  6
CONTINUOUS
370
-3
390
F
  0
LAYER
  5
207
100
AcDbSymbolTableRecord
100
AcDbLayerTableRecord
  2
IMPORT_IGES
 70
0
 62
7
  6
CONTINUOUS
370
-3
390
F
  0
LAYER
  5
208
100
AcDbSymbolTableRecord
100
AcDbLayerTableRecord
  2
INTF_12
 70
0
 62
7
  6
CONTINUOUS
370
-3
390
F
  0
LAYER
  5
209
100
AcDbSymbolTableRecord
100
AcDbLayerTableRecord
  2
INTF_15
 70
0
 62
7
  6
CONTINUOUS
370
-3
390
F
  0
LAYER
  5
20A
100
AcDbSymbolTableRecord
100
AcDbLayerTableRecord
  2
INTF_3
 70
0
 62
7
  6
CONTINUOUS
370
-3
390
F
  0
LAYER
  5
20B
100
AcDbSymbolTableRecord
100
AcDbLayerTableRecord
  2
INTF_4
 70
0
 62
7
  6
CONTINUOUS
370
-3
390
F
  0
LAYER
  5
20C
100
AcDbSymbolTableRecord
100
AcDbLayerTableRecord
  2
INTF_YELLOW
 70
0
 62
7
  6
CONTINUOUS
370
-3
390
F
  0
LAYER
  5
20D
100
AcDbSymbolTableRecord
100
AcDbLayerTableRecord
  2
PIANI
 70
0
 62
7
  6
CONTINUOUS
370
-3
390
F
  0
LAYER
  5
20E
100
AcDbSymbolTableRecord
100
AcDbLayerTableRecord
  2
PIANI_ORIGINE
 70
0
 62
7
  6
CONTINUOUS
370
-3
390
F
  0
LAYER
  5
20F
100
AcDbSymbolTableRecord
100
AcDbLayerTableRecord
  2
PIANI_RIFERIMENTO
 70
0
 62
7
  6
CONTINUOUS
370
-3
390
F
  0
LAYER
  5
210
100
AcDbSymbolTableRecord
100
AcDbLayerTableRecord
  2
RACCORDO
 70
0
 62
7
  6
CONTINUOUS
370
-3
390
F
  0
LAYER
  5
211
100
AcDbSymbolTableRecord
100
AcDbLayerTableRecord
  2
SMUSSO
 70
0
 62
7
  6
CONTINUOUS
370
-3
390
F
  0
LAYER
  5
212
100
AcDbSymbolTableRecord
100
AcDbLayerTableRecord
  2
SNAPLINE
 70
0
 62
7
  6
CONTINUOUS
370
-3
390
F
  0
LAYER
  5
213
100
AcDbSymbolTableRecord
100
AcDbLayerTableRecord
  2
SOLIDO
 70
0
 62
7
  6
CONTINUOUS
370
-3
390
F
  0
LAYER
  5
214
100
AcDbSymbolTableRecord
100
AcDbLayerTableRecord
  2
SUPERFICI
 70
0
 62
7
  6
CONTINUOUS
370
-3
390
F
  0
LAYER
  5
215
100
AcDbSymbolTableRecord
100
AcDbLayerTableRecord
  2
TRASH
 70
0
 62
7
  6
CONTINUOUS
370
-3
390
F
  0
LAYER
  5
216
100
AcDbSymbolTableRecord
100
AcDbLayerTableRecord
  2
WHITE
 70
0
 62
7
  6
CONTINUOUS
370
-3
390
F
  0
LAYER
  5
217
100
AcDbSymbolTableRecord
100
AcDbLayerTableRecord
  2
XSEC_DATUMS
 70
0
 62
7
  6
CONTINUOUS
370
-3
390
F
  0
ENDTAB
  0
TABLE
  2
STYLE
  5
3
100
AcDbSymbolTable
 70
1
  0
STYLE
  5
11
100
AcDbSymbolTableRecord
100
AcDbTextStyleTableRecord
  2
STANDARD
 70
0
 40
0.0
 41
0.8
 50
0.0
 71
0
 42
0.2
  3
txt
  4

  0
STYLE
  5
218
100
AcDbSymbolTableRecord
100
AcDbTextStyleTableRecord
  2
TEXTSTYLE_1
 70
0
 40
0.0
 41
0.8
 50
0.0
 71
0
 42
0.2
  3
gdt
  4

  0
ENDTAB
  0
TABLE
  2
VIEW
  5
6
100
AcDbSymbolTable
 70
0
  0
ENDTAB
  0
TABLE
  2
UCS
  5
7
100
AcDbSymbolTable
 70
0
  0
ENDTAB
  0
TABLE
  2
APPID
  5
9
100
AcDbSymbolTable
 70
1
  0
APPID
  5
219
100
AcDbSymbolTableRecord
100
AcDbRegAppTableRecord
  2
ACAD
 70
0
  0
ENDTAB
  0
TABLE
  2
BLOCK_RECORD
  5
1
100
AcDbSymbolTable
 70
0
  0
BLOCK_RECORD
  5
21A
100
AcDbSymbolTableRecord
100
AcDbBlockTableRecord
  2
*Model_Space
  0
BLOCK_RECORD
  5
21B
100
AcDbSymbolTableRecord
100
AcDbBlockTableRecord
  2
*Paper_Space
  0
BLOCK_RECORD
  5
21C
100
AcDbSymbolTableRecord
100
AcDbBlockTableRecord
  2
_FILLED
  0
BLOCK_RECORD
  5
21D
100
AcDbSymbolTableRecord
100
AcDbBlockTableRecord
  2
*D0
  0
BLOCK_RECORD
  5
21E
100
AcDbSymbolTableRecord
100
AcDbBlockTableRecord
  2
*D1
  0
BLOCK_RECORD
  5
21F
100
AcDbSymbolTableRecord
100
AcDbBlockTableRecord
  2
*D2
  0
ENDTAB
  0
TABLE
  2
DIMSTYLE
  5
A
100
AcDbSymbolTable
 70
1
100
AcDbDimStyleTable
 71
0
  0
DIMSTYLE
105
220
100
AcDbSymbolTableRecord
100
AcDbDimStyleTableRecord
  2
STANDARD
 70
0
  3

  4

 40
1.0
 41
3.0
 42
0.0625
 43
0.38
 44
0.18
 45
0.0
 46
0.0
 47
0.01
 48
0.01
140
3.0
141
0.09
142
0.0
143
25.4
144
1.0
145
0.0
146
1.0
147
0.09
 71
1.0
 72
0.0
 73
0
 74
0
 75
0
 76
0
 77
1
 78
8
170
0
171
2
172
0
173
0
174
0
175
0
176
0
177
0
178
0
270
2
271
2
272
2
273
2
274
2
275
0
280
0
281
0
282
0
283
1
284
8
285
0
286
0
287
3
288
0
340
11
341
21C
342
21C
343
21C
344
21C
  0
DIMSTYLE
105
221
100
AcDbSymbolTableRecord
100
AcDbDimStyleTableRecord
  2
DIMSTYLE_1
 70
0
  3

  4

 40
1.0
 41
3.0
 42
0.0625
 43
0.38
 44
0.18
 45
0.0
 46
0.0
 47
0.0
 48
0.0
140
3.0
141
0.09
142
0.0
143
25.4
144
1.0
145
0.0
146
1.0
147
0.09
 71
0.0
 72
0.0
 73
0
 74
0
 75
0
 76
0
 77
1
 78
8
170
0
171
2
172
0
173
0
174
0
175
0
176
0
177
0
178
0
270
2
271
2
272
2
273
2
274
2
275
0
280
0
281
0
282
0
283
1
284
8
285
0
286
0
287
3
288
0
340
11
341
21C
342
21C
343
21C
344
21C
  0
DIMSTYLE
105
222
100
AcDbSymbolTableRecord
100
AcDbDimStyleTableRecord
  2
DIMSTYLE_2
 70
0
  3

  4

 40
1.0
 41
3.0
 42
0.0625
 43
0.38
 44
0.18
 45
0.0
 46
0.0
 47
0.0
 48
0.0
140
3.0
141
0.09
142
0.0
143
25.4
144
1.0
145
0.0
146
1.0
147
0.09
 71
0.0
 72
0.0
 73
0
 74
0
 75
0
 76
0
 77
1
 78
8
170
0
171
2
172
0
173
0
174
0
175
0
176
0
177
0
178
0
270
2
271
1
272
1
273
2
274
2
275
0
280
0
281
0
282
0
283
1
284
8
285
0
286
0
287
3
288
0
340
11
341
21C
342
21C
343
21C
344
21C
  0
ENDTAB
  0
ENDSEC
  0
SECTION
  2
BLOCKS
  0
BLOCK
  5
20
100
AcDbEntity
  8
0
100
AcDbBlockBegin
  2
*Model_Space
 70
0
 10
0.0
 20
0.0
 30
0.0
  3
*Model_Space
  1

  0
ENDBLK
  5
21
100
AcDbEntity
  8
0
100
AcDbBlockEnd
  0
BLOCK
  5
1C
100
AcDbEntity
  8
0
100
AcDbBlockBegin
  2
*Paper_Space
 70
0
 10
0.0
 20
0.0
 30
0.0
  3
*Paper_Space
  1

  0
ENDBLK
  5
1D
100
AcDbEntity
  8
0
100
AcDbBlockEnd
  0
BLOCK
  5
223
100
AcDbEntity
  8
0
100
AcDbBlockBegin
  2
_FILLED
 70
64
 10
0.0
 20
0.0
  3
_FILLED
  1

  0
SOLID
  5
224
100
AcDbEntity
  8
0
  6
BYBLOCK
 62
0
100
AcDbTrace
 10
0.0
 20
0.0
 11
-1.0
 21
0.3166666667
 12
-1.0
 22
-0.3166666667
 13
-1.0
 23
-0.3166666667
  0
ENDBLK
  5
225
100
AcDbEntity
  8
0
  6
BYBLOCK
 62
0
100
AcDbBlockEnd
  0
BLOCK
  5
226
100
AcDbEntity
  8
0
100
AcDbBlockBegin
 62
7
  6
CONTINUOUS
  2
*D0
 70
65
 10
0.0
 20
0.0
  3
*D0
  1

  0
MTEXT
  5
227
100
AcDbEntity
  8
0
100
AcDbMText
 62
7
  6
CONTINUOUS
  7
STANDARD
 71
2
 72
1
 10
9.4173361121
 20
22.6708140521
 30
0.0
 11
1.0
 21
0.0
 31
0.0
 44
0.9
  1
22,3
 40
3.0
 41
8.5714285714
  0
LINE
  5
228
100
AcDbEntity
  8
0
100
AcDbLine
 62
7
  6
CONTINUOUS
 10
20.5673361121
 20
11.1706406733
 11
20.5673361121
 21
20.4208140521
  0
LINE
  5
229
100
AcDbEntity
  8
0
100
AcDbLine
 62
7
  6
CONTINUOUS
 10
-1.7326638879
 20
11.1706406733
 11
-1.7326638879
 21
20.4208140521
  0
LINE
  5
22A
100
AcDbEntity
  8
0
100
AcDbLine
 62
7
  6
CONTINUOUS
 10
20.5673361121
 20
18.9208140521
 11
9.4173361121
 21
18.9208140521
  0
LINE
  5
22B
100
AcDbEntity
  8
0
100
AcDbLine
 62
7
  6
CONTINUOUS
 10
-1.7326638879
 20
18.9208140521
 11
9.4173361121
 21
18.9208140521
  0
INSERT
  5
22C
100
AcDbEntity
  8
0
100
AcDbBlockReference
 62
7
  6
CONTINUOUS
  2
_FILLED
 10
20.5673361121
 20
18.9208140521
 41
3.0
 42
3.0
 43
3.0
  0
INSERT
  5
22D
100
AcDbEntity
  8
0
100
AcDbBlockReference
 62
7
  6
CONTINUOUS
  2
_FILLED
 10
-1.7326638879
 20
18.9208140521
 41
3.0
 42
3.0
 43
3.0
 50
180.0
  0
ENDBLK
  5
22E
100
AcDbEntity
  8
0
  6
BYBLOCK
 62
0
100
AcDbBlockEnd
  0
BLOCK
  5
22F
100
AcDbEntity
  8
0
100
AcDbBlockBegin
 62
7
  6
CONTINUOUS
  2
*D1
 70
65
 10
0.0
 20
0.0
  3
*D1
  1

  0
MTEXT
  5
230
100
AcDbEntity
  8
0
100
AcDbMText
 62
7
  6
CONTINUOUS
  7
STANDARD
 71
2
 72
1
 10
24.8173361121
 20
-0.1335449182
 30
0.0
 11
0.0
 21
1.0
 31
0.0
 44
0.9
  1
22,1
 40
3.0
 41
8.1428571429
  0
LINE
  5
231
100
AcDbEntity
  8
0
100
AcDbLine
 62
7
  6
CONTINUOUS
 10
20.8172599104
 20
10.9205740521
 11
30.0673361121
 21
10.9205740521
  0
LINE
  5
232
100
AcDbEntity
  8
0
100
AcDbLine
 62
7
  6
CONTINUOUS
 10
20.5401179174
 20
-11.1876638885
 11
30.0673361121
 21
-11.1876638885
  0
LINE
  5
233
100
AcDbEntity
  8
0
100
AcDbLine
 62
7
  6
CONTINUOUS
 10
28.5673361121
 20
10.9205740521
 11
28.5673361121
 21
-0.1335449182
  0
LINE
  5
234
100
AcDbEntity
  8
0
100
AcDbLine
 62
7
  6
CONTINUOUS
 10
28.5673361121
 20
-11.1876638885
 11
28.5673361121
 21
-0.1335449182
  0
INSERT
  5
235
100
AcDbEntity
  8
0
100
AcDbBlockReference
 62
7
  6
CONTINUOUS
  2
_FILLED
 10
28.5673361121
 20
10.9205740521
 41
3.0
 42
3.0
 43
3.0
 50
90.0
  0
INSERT
  5
236
100
AcDbEntity
  8
0
100
AcDbBlockReference
 62
7
  6
CONTINUOUS
  2
_FILLED
 10
28.5673361121
 20
-11.1876638885
 41
3.0
 42
3.0
 43
3.0
 50
270.0
  0
ENDBLK
  5
237
100
AcDbEntity
  8
0
  6
BYBLOCK
 62
0
100
AcDbBlockEnd
  0
BLOCK
  5
238
100
AcDbEntity
  8
0
100
AcDbBlockBegin
 62
7
  6
CONTINUOUS
  2
*D2
 70
65
 10
0.0
 20
0.0
  3
*D2
  1

  0
MTEXT
  5
239
100
AcDbEntity
  8
0
100
AcDbMText
 62
7
  6
CONTINUOUS
  7
STANDARD
 71
2
 72
1
 10
-14.5781002463
 20
22.6708140521
 30
0.0
 11
1.0
 21
0.0
 31
0.0
 44
0.9
  1
5,7
 40
3.0
 41
6.2142857143
  0
LINE
  5
23A
100
AcDbEntity
  8
0
100
AcDbLine
 62
7
  6
CONTINUOUS
 10
-11.7281793561
 20
11.1706406733
 11
-11.7281793561
 21
20.4208140521
  0
LINE
  5
23B
100
AcDbEntity
  8
0
100
AcDbLine
 62
7
  6
CONTINUOUS
 10
-17.4280211364
 20
11.1228055989
 11
-17.4280211364
 21
20.4208140521
  0
LINE
  5
23C
100
AcDbEntity
  8
0
100
AcDbLine
 62
7
  6
CONTINUOUS
 10
-11.7281793561
 20
18.9208140521
 11
-7.7281793561
 21
18.9208140521
  0
LINE
  5
23D
100
AcDbEntity
  8
0
100
AcDbLine
 62
7
  6
CONTINUOUS
 10
-7.7281793561
 20
18.9208140521
 11
-14.5781002463
 21
18.9208140521
  0
LINE
  5
23E
100
AcDbEntity
  8
0
100
AcDbLine
 62
7
  6
CONTINUOUS
 10
-17.4280211364
 20
18.9208140521
 11
-21.4280211364
 21
18.9208140521
  0
LINE
  5
23F
100
AcDbEntity
  8
0
100
AcDbLine
 62
7
  6
CONTINUOUS
 10
-21.4280211364
 20
18.9208140521
 11
-14.5781002463
 21
18.9208140521
  0
INSERT
  5
240
100
AcDbEntity
  8
0
100
AcDbBlockReference
 62
7
  6
CONTINUOUS
  2
_FILLED
 10
-11.7281793561
 20
18.9208140521
 41
3.0
 42
3.0
 43
3.0
 50
180.0
  0
INSERT
  5
241
100
AcDbEntity
  8
0
100
AcDbBlockReference
 62
7
  6
CONTINUOUS
  2
_FILLED
 10
-17.4280211364
 20
18.9208140521
 41
3.0
 42
3.0
 43
3.0
  0
ENDBLK
  5
242
100
AcDbEntity
  8
0
  6
BYBLOCK
 62
0
100
AcDbBlockEnd
  0
ENDSEC
  0
SECTION
  2
ENTITIES
  0
DIMENSION
  5
243
100
AcDbEntity
  8
0
100
AcDbDimension
 62
7
  6
CONTINUOUS
  2
*D0
 10
-1.7326638879
 20
18.9208140521
 11
5.1316218264
 21
21.1708140521
 70
160
 71
2
 42
22.3
  3
DIMSTYLE_1
100
AcDbAlignedDimension
 13
20.5673361121
 23
11.1706406733
 14
-1.7326638879
 24
11.1706406733
 50
180.0
100
AcDbRotatedDimension
  0
DIMENSION
  5
244
100
AcDbEntity
  8
0
100
AcDbDimension
 62
7
  6
CONTINUOUS
  2
*D1
 10
28.5673361121
 20
-11.1876638885
 11
28.1416358349
 21
-3.7733884772
 70
160
 71
2
 42
22.1082379406
  3
DIMSTYLE_2
100
AcDbAlignedDimension
 13
20.8172599104
 23
10.9205740521
 14
20.5401179174
 24
-11.1876638885
 50
270.0
100
AcDbRotatedDimension
  0
DIMENSION
  5
245
100
AcDbEntity
  8
0
100
AcDbDimension
 62
7
  6
CONTINUOUS
  2
*D2
 10
-17.4280211364
 20
18.9208140521
 11
-17.6852431034
 21
21.1708140521
 70
160
 71
2
 42
5.6998417802
  3
DIMSTYLE_1
100
AcDbAlignedDimension
 13
-11.7281793561
 23
11.1706406733
 14
-17.4280211364
 24
11.1228055989
 50
180.0
100
AcDbRotatedDimension
  0
LINE
  5
246
100
AcDbEntity
  8
0
100
AcDbLine
 62
7
  6
CONTINUOUS
 10
-1.7063565785
 20
-10.6901732557
 11
-1.7326638879
 21
-2.0794259479
  0
LINE
  5
247
100
AcDbEntity
  8
ASSI
100
AcDbLine
 62
7
  6
CONTINUOUS
 10
-1.7063565785
 20
-10.6901732557
 11
-1.7326638879
 21
-2.0794259479
  0
LINE
  5
248
100
AcDbEntity
  8
RACCORDO
100
AcDbLine
 62
7
  6
CONTINUOUS
 10
-1.7326638879
 20
10.6706406733
 11
-1.7326638879
 21
-2.0794259479
  0
LINE
  5
249
100
AcDbEntity
  8
ASSI
100
AcDbLine
 62
7
  6
CONTINUOUS
 10
-1.7326638879
 20
10.6706406733
 11
-1.7326638879
 21
-2.0794259479
  0
LINE
  5
24A
100
AcDbEntity
  8
RACCORDO
100
AcDbLine
 62
253
  6
CONTINUOUS
 10
-1.050776634
 20
10.6228055986
 11
-1.050776634
 21
10.8729949639
  0
LINE
  5
24B
100
AcDbEntity
  8
ASSI
100
AcDbLine
 62
253
  6
CONTINUOUS
 10
-1.0539198464
 20
1.5205740521
 11
-1.050776634
 21
10.8729949639
  0
LINE
  5
24C
100
AcDbEntity
  8
RACCORDO
100
AcDbLine
 62
7
  6
CONTINUOUS
 10
12.8113824112
 20
-11.1876638885
 11
13.1596010852
 21
-11.1560550569
  0
LINE
  5
24D
100
AcDbEntity
  8
ASSI
100
AcDbLine
 62
7
  6
CONTINUOUS
 10
12.8113824112
 20
-11.1876638885
 11
13.1596010852
 21
-11.1560550569
  0
LINE
  5
24E
100
AcDbEntity
  8
0
100
AcDbLine
 62
7
  6
CONTINUOUS
 10
20.0401179174
 20
-11.1876638885
 11
17.223289813
 21
-11.1876638885
  0
LINE
  5
24F
100
AcDbEntity
  8
ASSI
100
AcDbLine
 62
7
  6
CONTINUOUS
 10
20.0401179174
 20
-11.1876638885
 11
17.223289813
 21
-11.1876638885
  0
LINE
  5
250
100
AcDbEntity
  8
DRAFT
100
AcDbLine
 62
7
  6
CONTINUOUS
 10
12.8113824112
 20
-11.1876638885
 11
6.023289813
 21
-11.1876638885
  0
LINE
  5
251
100
AcDbEntity
  8
ASSI
100
AcDbLine
 62
7
  6
CONTINUOUS
 10
12.8113824112
 20
-11.1876638885
 11
6.023289813
 21
-11.1876638885
  0
LINE
  5
252
100
AcDbEntity
  8
0
100
AcDbLine
 62
7
  6
CONTINUOUS
 10
1.6113824112
 20
-11.1876638885
 11
-1.2054456931
 21
-11.1876638885
  0
LINE
  5
253
100
AcDbEntity
  8
ASSI
100
AcDbLine
 62
7
  6
CONTINUOUS
 10
1.6113824112
 20
-11.1876638885
 11
-1.2054456931
 21
-11.1876638885
  0
LINE
  5
254
100
AcDbEntity
  8
RACCORDO
100
AcDbLine
 62
7
  6
CONTINUOUS
 10
2.132806166
 20
-11.150814279
 11
5.5018660583
 21
-11.150814279
  0
LINE
  5
255
100
AcDbEntity
  8
ASSI
100
AcDbLine
 62
7
  6
CONTINUOUS
 10
2.132806166
 20
-11.150814279
 11
5.5018660583
 21
-11.150814279
  0
LINE
  5
256
100
AcDbEntity
  8
RACCORDO
100
AcDbLine
 62
7
  6
CONTINUOUS
 10
13.332806166
 20
-11.150814279
 11
16.7018660583
 21
-11.150814279
  0
LINE
  5
257
100
AcDbEntity
  8
ASSI
100
AcDbLine
 62
7
  6
CONTINUOUS
 10
13.332806166
 20
-11.150814279
 11
16.7018660583
 21
-11.150814279
  0
LINE
  5
258
100
AcDbEntity
  8
0
100
AcDbLine
 62
253
  6
CONTINUOUS
 10
-1.104634156
 20
-11.0363697198
 11
19.9393063802
 21
-11.0363697198
  0
LINE
  5
259
100
AcDbEntity
  8
ASSI
100
AcDbLine
 62
253
  6
CONTINUOUS
 10
-1.104634156
 20
-11.0363697198
 11
19.9393063802
 21
-11.0363697198
  0
LINE
  5
25A
100
AcDbEntity
  8
RACCORDO
100
AcDbLine
 62
7
  6
CONTINUOUS
 10
6.023289813
 20
-11.1876638885
 11
5.675071139
 21
-11.1560550569
  0
LINE
  5
25B
100
AcDbEntity
  8
ASSI
100
AcDbLine
 62
7
  6
CONTINUOUS
 10
6.023289813
 20
-11.1876638885
 11
5.675071139
 21
-11.1560550569
  0
LINE
  5
25C
100
AcDbEntity
  8
RACCORDO
100
AcDbLine
 62
7
  6
CONTINUOUS
 10
1.6113824112
 20
-11.1876638885
 11
1.9596010852
 21
-11.1560550569
  0
LINE
  5
25D
100
AcDbEntity
  8
ASSI
100
AcDbLine
 62
7
  6
CONTINUOUS
 10
1.6113824112
 20
-11.1876638885
 11
1.9596010852
 21
-11.1560550569
  0
LINE
  5
25E
100
AcDbEntity
  8
0
100
AcDbLine
 62
253
  6
CONTINUOUS
 10
-1.0882827003
 20
-10.1868223675
 11
19.9229549245
 21
-10.1868223675
  0
LINE
  5
25F
100
AcDbEntity
  8
ASSI
100
AcDbLine
 62
253
  6
CONTINUOUS
 10
-1.0882827003
 20
-10.1868223675
 11
19.9229549245
 21
-10.1868223675
  0
LINE
  5
260
100
AcDbEntity
  8
RACCORDO
100
AcDbLine
 62
7
  6
CONTINUOUS
 10
17.223289813
 20
-11.1876638885
 11
16.875071139
 21
-11.1560550569
  0
LINE
  5
261
100
AcDbEntity
  8
ASSI
100
AcDbLine
 62
7
  6
CONTINUOUS
 10
17.223289813
 20
-11.1876638885
 11
16.875071139
 21
-11.1560550569
  0
LINE
  5
262
100
AcDbEntity
  8
0
100
AcDbLine
 62
253
  6
CONTINUOUS
 10
-1.7063565785
 20
-10.6901732557
 11
-1.6043295695
 21
-10.5370549525
  0
LINE
  5
263
100
AcDbEntity
  8
ASSI
100
AcDbLine
 62
253
  6
CONTINUOUS
 10
-1.7063565785
 20
-10.6901732557
 11
-1.6043295695
 21
-10.5370549525
  0
LINE
  5
264
100
AcDbEntity
  8
CURVE
100
AcDbLine
 62
253
  6
CONTINUOUS
 10
9.9957686606
 20
-4.0449024036
 11
10.0796567911
 21
-4.0331890712
  0
LINE
  5
265
100
AcDbEntity
  8
CURVE
100
AcDbLine
 62
253
  6
CONTINUOUS
 10
10.0225542957
 20
-3.6373473389
 11
9.9423696454
 21
-3.6483716517
  0
LINE
  5
266
100
AcDbEntity
  8
CURVE
100
AcDbLine
 62
253
  6
CONTINUOUS
 10
8.9370039922
 20
-3.6483716517
 11
8.856647087
 21
-3.6373473389
  0
LINE
  5
267
100
AcDbEntity
  8
CURVE
100
AcDbLine
 62
253
  6
CONTINUOUS
 10
8.7996307191
 20
-4.0331890712
 11
8.8836911044
 21
-4.0449024036
  0
LINE
  5
268
100
AcDbEntity
  8
0
100
AcDbLine
 62
253
  6
CONTINUOUS
 10
-1.2054456931
 20
-11.1876638885
 11
-1.104634156
 21
-11.0363697198
  0
LINE
  5
269
100
AcDbEntity
  8
ASSI
100
AcDbLine
 62
253
  6
CONTINUOUS
 10
-1.2054456931
 20
-11.1876638885
 11
-1.104634156
 21
-11.0363697198
  0
LINE
  5
26A
100
AcDbEntity
  8
CURVE
100
AcDbLine
 62
253
  6
CONTINUOUS
 10
7.4958334726
 20
-1.3246532139
 11
7.4941109237
 21
-1.4745149664
  0
LINE
  5
26B
100
AcDbEntity
  8
CURVE
100
AcDbLine
 62
253
  6
CONTINUOUS
 10
7.8941729008
 20
-1.4745149664
 11
7.8958093223
 21
-1.3334382132
  0
LINE
  5
26C
100
AcDbEntity
  8
CURVE
100
AcDbLine
 62
253
  6
CONTINUOUS
 10
8.8562164498
 20
0.6881451511
 11
8.9364011001
 21
0.6993417189
  0
LINE
  5
26D
100
AcDbEntity
  8
CURVE
100
AcDbLine
 62
253
  6
CONTINUOUS
 10
9.9417667533
 20
0.6993417189
 11
10.0222097859
 21
0.6881451511
  0
LINE
  5
26E
100
AcDbEntity
  8
CURVE
100
AcDbLine
 62
253
  6
CONTINUOUS
 10
10.9846839721
 20
-1.4745149664
 11
10.9830475506
 21
-1.6157639745
  0
LINE
  5
26F
100
AcDbEntity
  8
CURVE
100
AcDbLine
 62
253
  6
CONTINUOUS
 10
11.3829372729
 20
-1.6243767189
 11
11.3847459492
 21
-1.4745149664
  0
LINE
  5
270
100
AcDbEntity
  8
CURVE
100
AcDbLine
 62
253
  6
CONTINUOUS
 10
8.8830020848
 20
1.0957002159
 11
8.7991139544
 21
1.0841591384
  0
LINE
  5
271
100
AcDbEntity
  8
0
100
AcDbLine
 62
253
  6
CONTINUOUS
 10
19.8885920707
 20
1.5205740521
 11
-1.0539198464
 21
1.5205740521
  0
LINE
  5
272
100
AcDbEntity
  8
ASSI
100
AcDbLine
 62
253
  6
CONTINUOUS
 10
19.8885920707
 20
1.5205740521
 11
-1.0539198464
 21
1.5205740521
  0
LINE
  5
273
100
AcDbEntity
  8
CURVE
100
AcDbLine
 62
253
  6
CONTINUOUS
 10
10.0791400264
 20
1.0841591384
 11
9.9950796411
 21
1.0957002159
  0
LINE
  5
274
100
AcDbEntity
  8
0
100
AcDbLine
 62
253
  6
CONTINUOUS
 10
19.9393063802
 20
-11.0363697198
 11
20.0401179174
 21
-11.1876638885
  0
LINE
  5
275
100
AcDbEntity
  8
ASSI
100
AcDbLine
 62
253
  6
CONTINUOUS
 10
19.9393063802
 20
-11.0363697198
 11
20.0401179174
 21
-11.1876638885
  0
LINE
  5
276
100
AcDbEntity
  8
0
100
AcDbLine
 62
253
  6
CONTINUOUS
 10
20.4390017937
 20
-10.5370549525
 11
20.5410288028
 21
-10.6901732557
  0
LINE
  5
277
100
AcDbEntity
  8
ASSI
100
AcDbLine
 62
253
  6
CONTINUOUS
 10
20.4390017937
 20
-10.5370549525
 11
20.5410288028
 21
-10.6901732557
  0
LINE
  5
278
100
AcDbEntity
  8
0
100
AcDbLine
 62
7
  6
CONTINUOUS
 10
13.5692346557
 20
5.4205740521
 11
5.2654375686
 21
5.4205740521
  0
LINE
  5
279
100
AcDbEntity
  8
RACCORDO
100
AcDbLine
 62
7
  6
CONTINUOUS
 10
13.5692346557
 20
5.4205740521
 11
5.2654375686
 21
5.4205740521
  0
LINE
  5
27A
100
AcDbEntity
  8
ASSI
100
AcDbLine
 62
7
  6
CONTINUOUS
 10
13.5692346557
 20
5.4205740521
 11
5.2654375686
 21
5.4205740521
  0
LINE
  5
27B
100
AcDbEntity
  8
RACCORDO
100
AcDbLine
 62
253
  6
CONTINUOUS
 10
20.5673361121
 20
10.6706406733
 11
20.3851442859
 21
10.625110062
  0
LINE
  5
27C
100
AcDbEntity
  8
ASSI
100
AcDbLine
 62
253
  6
CONTINUOUS
 10
20.5673361121
 20
10.6706406733
 11
20.3851442859
 21
10.625110062
  0
LINE
  5
27D
100
AcDbEntity
  8
RACCORDO
100
AcDbLine
 62
253
  6
CONTINUOUS
 10
20.3172599104
 20
10.9205740521
 11
20.1352965122
 21
10.8751005261
  0
LINE
  5
27E
100
AcDbEntity
  8
ASSI
100
AcDbLine
 62
253
  6
CONTINUOUS
 10
20.3172599104
 20
10.9205740521
 11
20.1352965122
 21
10.8751005261
  0
LINE
  5
27F
100
AcDbEntity
  8
0
100
AcDbLine
 62
7
  6
CONTINUOUS
 10
13.5686071828
 20
7.6205740521
 11
5.2660650414
 21
7.6205740521
  0
LINE
  5
280
100
AcDbEntity
  8
RACCORDO
100
AcDbLine
 62
7
  6
CONTINUOUS
 10
13.5686071828
 20
7.6205740521
 11
5.2660650414
 21
7.6205740521
  0
LINE
  5
281
100
AcDbEntity
  8
ASSI
100
AcDbLine
 62
7
  6
CONTINUOUS
 10
13.5686071828
 20
7.6205740521
 11
5.2660650414
 21
7.6205740521
  0
LINE
  5
282
100
AcDbEntity
  8
RACCORDO
100
AcDbLine
 62
253
  6
CONTINUOUS
 10
-1.5504720616
 20
10.625110062
 11
-1.7326638879
 21
10.6706406733
  0
LINE
  5
283
100
AcDbEntity
  8
ASSI
100
AcDbLine
 62
253
  6
CONTINUOUS
 10
-1.5504720616
 20
10.625110062
 11
-1.7326638879
 21
10.6706406733
  0
LINE
  5
284
100
AcDbEntity
  8
RACCORDO
100
AcDbLine
 62
253
  6
CONTINUOUS
 10
-1.3006242879
 20
10.8751005261
 11
-1.4825876861
 21
10.9205740521
  0
LINE
  5
285
100
AcDbEntity
  8
ASSI
100
AcDbLine
 62
253
  6
CONTINUOUS
 10
-1.3006242879
 20
10.8751005261
 11
-1.4825876861
 21
10.9205740521
  0
LINE
  5
286
100
AcDbEntity
  8
RACCORDO
100
AcDbLine
 62
253
  6
CONTINUOUS
 10
19.8854488583
 20
10.6228055986
 11
19.8854488583
 21
10.8729949639
  0
LINE
  5
287
100
AcDbEntity
  8
ASSI
100
AcDbLine
 62
253
  6
CONTINUOUS
 10
19.8885920707
 20
1.5205740521
 11
19.8854488583
 21
10.8729949639
  0
LINE
  5
288
100
AcDbEntity
  8
DRAFT
100
AcDbLine
 62
7
  6
CONTINUOUS
 10
17.9298021027
 20
10.9205740521
 11
17.6673361121
 21
10.8943934487
  0
LINE
  5
289
100
AcDbEntity
  8
ASSI
100
AcDbLine
 62
7
  6
CONTINUOUS
 10
17.9298021027
 20
10.9205740521
 11
17.6673361121
 21
10.8943934487
  0
LINE
  5
28A
100
AcDbEntity
  8
DRAFT
100
AcDbLine
 62
7
  6
CONTINUOUS
 10
0.9048701215
 20
10.9205740521
 11
1.1673361121
 21
10.8943934487
  0
LINE
  5
28B
100
AcDbEntity
  8
ASSI
100
AcDbLine
 62
7
  6
CONTINUOUS
 10
0.9048701215
 20
10.9205740521
 11
1.1673361121
 21
10.8943934487
  0
LINE
  5
28C
100
AcDbEntity
  8
RACCORDO
100
AcDbLine
 62
7
  6
CONTINUOUS
 10
20.5673361121
 20
10.6706406733
 11
20.5673361121
 21
-2.0794259479
  0
LINE
  5
28D
100
AcDbEntity
  8
ASSI
100
AcDbLine
 62
7
  6
CONTINUOUS
 10
20.5673361121
 20
10.6706406733
 11
20.5673361121
 21
-2.0794259479
  0
LINE
  5
28E
100
AcDbEntity
  8
0
100
AcDbLine
 62
7
  6
CONTINUOUS
 10
20.5410288028
 20
-10.6901732557
 11
20.5673361121
 21
-2.0794259479
  0
LINE
  5
28F
100
AcDbEntity
  8
ASSI
100
AcDbLine
 62
7
  6
CONTINUOUS
 10
20.5410288028
 20
-10.6901732557
 11
20.5673361121
 21
-2.0794259479
  0
LINE
  5
290
100
AcDbEntity
  8
RACCORDO
100
AcDbLine
 62
253
  6
CONTINUOUS
 10
19.8854470279
 20
10.6228055986
 11
-1.0507748036
 21
10.6228055986
  0
LINE
  5
291
100
AcDbEntity
  8
ASSI
100
AcDbLine
 62
253
  6
CONTINUOUS
 10
19.8854470279
 20
10.6228055986
 11
-1.0507748036
 21
10.6228055986
  0
LINE
  5
292
100
AcDbEntity
  8
RACCORDO
100
AcDbLine
 62
253
  6
CONTINUOUS
 10
19.8854488583
 20
10.8729949639
 11
-1.050776634
 21
10.8729949639
  0
LINE
  5
293
100
AcDbEntity
  8
ASSI
100
AcDbLine
 62
7
  6
CONTINUOUS
 10
19.8854488583
 20
10.8729949639
 11
-1.050776634
 21
10.8729949639
  0
LINE
  5
294
100
AcDbEntity
  8
DRAFT
100
AcDbLine
 62
7
  6
CONTINUOUS
 10
17.6673361121
 20
10.8943934487
 11
1.1673361121
 21
10.8943934487
  0
LINE
  5
295
100
AcDbEntity
  8
ASSI
100
AcDbLine
 62
7
  6
CONTINUOUS
 10
17.6673361121
 20
10.8943934487
 11
1.1673361121
 21
10.8943934487
  0
LINE
  5
296
100
AcDbEntity
  8
RACCORDO
100
AcDbLine
 62
7
  6
CONTINUOUS
 10
20.3172599104
 20
10.9205740521
 11
17.9298021027
 21
10.9205740521
  0
LINE
  5
297
100
AcDbEntity
  8
ASSI
100
AcDbLine
 62
7
  6
CONTINUOUS
 10
20.3172599104
 20
10.9205740521
 11
17.9298021027
 21
10.9205740521
  0
LINE
  5
298
100
AcDbEntity
  8
RACCORDO
100
AcDbLine
 62
7
  6
CONTINUOUS
 10
0.9048701215
 20
10.9205740521
 11
-1.4825876861
 21
10.9205740521
  0
LINE
  5
299
100
AcDbEntity
  8
ASSI
100
AcDbLine
 62
7
  6
CONTINUOUS
 10
0.9048701215
 20
10.9205740521
 11
-1.4825876861
 21
10.9205740521
  0
LINE
  5
29A
100
AcDbEntity
  8
0
100
AcDbLine
 62
7
  6
CONTINUOUS
 10
-15.4119116326
 20
-11.0363697198
 11
-12.5250469206
 21
-11.1876638885
  0
LINE
  5
29B
100
AcDbEntity
  8
ASSI
100
AcDbLine
 62
7
  6
CONTINUOUS
 10
-15.4119116326
 20
-11.0363697198
 11
-12.5250469206
 21
-11.1876638885
  0
LINE
  5
29C
100
AcDbEntity
  8
0
100
AcDbLine
 62
253
  6
CONTINUOUS
 10
-15.4031934028
 20
-10.5370549525
 11
-12.4815221301
 21
-10.6901732557
  0
LINE
  5
29D
100
AcDbEntity
  8
ASSI
100
AcDbLine
 62
253
  6
CONTINUOUS
 10
-15.4031934028
 20
-10.5370549525
 11
-12.4815221301
 21
-10.6901732557
  0
LINE
  5
29E
100
AcDbEntity
  8
RACCORDO
100
AcDbLine
 62
253
  6
CONTINUOUS
 10
-12.1510550765
 20
-6.9129175491
 11
-12.1281793561
 21
-6.9129175491
  0
LINE
  5
29F
100
AcDbEntity
  8
ASSI
100
AcDbLine
 62
253
  6
CONTINUOUS
 10
-12.1510550765
 20
-6.9129175491
 11
-12.1281793561
 21
-6.9129175491
  0
LINE
  5
2A0
100
AcDbEntity
  8
CURVE
100
AcDbLine
 62
253
  6
CONTINUOUS
 10
-17.0596159071
 20
-4.0449024036
 11
-17.0566831222
 21
-4.0809741762
  0
LINE
  5
2A1
100
AcDbEntity
  8
CURVE
100
AcDbLine
 62
253
  6
CONTINUOUS
 10
-17.0605651362
 20
-4.0331890712
 11
-17.0870721525
 21
-3.69805192
  0
LINE
  5
2A2
100
AcDbEntity
  8
CURVE
100
AcDbLine
 62
253
  6
CONTINUOUS
 10
-17.0908943045
 20
-3.6483716517
 11
-17.0883688215
 21
-3.6812388906
  0
LINE
  5
2A3
100
AcDbEntity
  8
CURVE
100
AcDbLine
 62
253
  6
CONTINUOUS
 10
-17.1195514065
 20
-3.2637223268
 11
-17.0917387138
 21
-3.6373473389
  0
LINE
  5
2A4
100
AcDbEntity
  8
CURVE
100
AcDbLine
 62
253
  6
CONTINUOUS
 10
-17.1493194978
 20
-2.8382569139
 11
-17.150009968
 21
-2.8280319986
  0
LINE
  5
2A5
100
AcDbEntity
  8
CURVE
100
AcDbLine
 62
253
  6
CONTINUOUS
 10
-17.178408918
 20
-2.3913168386
 11
-17.1779414775
 21
-2.3987808635
  0
LINE
  5
2A6
100
AcDbEntity
  8
CURVE
100
AcDbLine
 62
253
  6
CONTINUOUS
 10
-17.2041520928
 20
-1.9636805375
 11
-17.2045234487
 21
-1.9572532287
  0
LINE
  5
2A7
100
AcDbEntity
  8
CURVE
100
AcDbLine
 62
253
  6
CONTINUOUS
 10
-17.2285995159
 20
-1.5219521744
 11
-17.2282371353
 21
-1.5288002815
  0
LINE
  5
2A8
100
AcDbEntity
  8
CURVE
100
AcDbLine
 62
253
  6
CONTINUOUS
 10
-17.2505086168
 20
-1.0877493895
 11
-17.2502022109
 21
-1.0941232056
  0
LINE
  5
2A9
100
AcDbEntity
  8
CURVE
100
AcDbLine
 62
253
  6
CONTINUOUS
 10
-17.2878475398
 20
-0.223881605
 11
-17.2880972719
 21
-0.2173708444
  0
LINE
  5
2AA
100
AcDbEntity
  8
CURVE
100
AcDbLine
 62
253
  6
CONTINUOUS
 10
-17.3182497048
 20
0.6881451511
 11
-17.3171644046
 21
0.6500274561
  0
LINE
  5
2AB
100
AcDbEntity
  8
RACCORDO
100
AcDbLine
 62
7
  6
CONTINUOUS
 10
-12.1281793561
 20
-6.9129157568
 11
-12.1281793561
 21
-6.651446869
  0
LINE
  5
2AC
100
AcDbEntity
  8
ASSI
100
AcDbLine
 62
7
  6
CONTINUOUS
 10
-12.1281793561
 20
-6.9129157568
 11
-12.1281793561
 21
-6.651446869
  0
LINE
  5
2AD
100
AcDbEntity
  8
RACCORDO
100
AcDbLine
 62
7
  6
CONTINUOUS
 10
-11.7281793561
 20
10.9205740521
 11
-11.7281793561
 21
-2.0794259479
  0
LINE
  5
2AE
100
AcDbEntity
  8
ASSI
100
AcDbLine
 62
7
  6
CONTINUOUS
 10
-11.7281793561
 20
10.9205740521
 11
-11.7281793561
 21
-2.0794259479
  0
LINE
  5
2AF
100
AcDbEntity
  8
0
100
AcDbLine
 62
253
  6
CONTINUOUS
 10
-16.8554612161
 20
1.5300740521
 11
-17.3379212095
 21
1.5205740521
  0
LINE
  5
2B0
100
AcDbEntity
  8
ASSI
100
AcDbLine
 62
253
  6
CONTINUOUS
 10
-16.8554612161
 20
1.5300740521
 11
-17.3379212095
 21
1.5205740521
  0
LINE
  5
2B1
100
AcDbEntity
  8
0
100
AcDbLine
 62
7
  6
CONTINUOUS
 10
-12.5250469206
 20
-11.1876638885
 11
-11.7281793561
 21
-2.0794259479
  0
LINE
  5
2B2
100
AcDbEntity
  8
ASSI
100
AcDbLine
 62
7
  6
CONTINUOUS
 10
-12.5250469206
 20
-11.1876638885
 11
-11.7281793561
 21
-2.0794259479
  0
LINE
  5
2B3
100
AcDbEntity
  8
RACCORDO
100
AcDbLine
 62
253
  6
CONTINUOUS
 10
-11.7281793561
 20
10.6706406733
 11
-16.9454706391
 21
10.625110062
  0
LINE
  5
2B4
100
AcDbEntity
  8
ASSI
100
AcDbLine
 62
253
  6
CONTINUOUS
 10
-11.7281793561
 20
10.6706406733
 11
-16.9454706391
 21
10.625110062
  0
LINE
  5
2B5
100
AcDbEntity
  8
RACCORDO
100
AcDbLine
 62
7
  6
CONTINUOUS
 10
-11.7281793561
 20
10.9205740521
 11
-17.1802028491
 21
10.8729949639
  0
LINE
  5
2B6
100
AcDbEntity
  8
ASSI
100
AcDbLine
 62
7
  6
CONTINUOUS
 10
-11.7281793561
 20
10.9205740521
 11
-17.1802028491
 21
10.8729949639
  0
ARC
  5
2B7
100
AcDbEntity
  8
0
100
AcDbCircle
 62
253
  6
CONTINUOUS
 10
-2564.0092118167
 20
3.1849928331
 40
2562.9558253754
100
AcDbArc
 50
359.7010670072
 51
359.9627913298
  0
ARC
  5
2B8
100
AcDbEntity
  8
ASSI
100
AcDbCircle
 62
253
  6
CONTINUOUS
 10
-2564.0092118167
 20
3.1849928331
 40
2562.9558253754
100
AcDbArc
 50
359.7010670072
 51
359.9627913298
  0
ARC
  5
2B9
100
AcDbEntity
  8
0
100
AcDbCircle
 62
253
  6
CONTINUOUS
 10
2579.7018819689
 20
3.1757738798
 40
2559.8138131231
100
AcDbArc
 50
180.0370479955
 51
180.2990935685
  0
ARC
  5
2BA
100
AcDbEntity
  8
ASSI
100
AcDbCircle
 62
253
  6
CONTINUOUS
 10
2579.7018819689
 20
3.1757738798
 40
2559.8138131231
100
AcDbArc
 50
180.0370479955
 51
180.2990935685
  0
ARC
  5
2BB
100
AcDbEntity
  8
0
100
AcDbCircle
 62
253
  6
CONTINUOUS
 10
-2536.1111079967
 20
3.1852466771
 40
2534.5580261424
100
AcDbArc
 50
359.6993970068
 51
359.9625834519
  0
ARC
  5
2BC
100
AcDbEntity
  8
ASSI
100
AcDbCircle
 62
253
  6
CONTINUOUS
 10
-2536.1111079967
 20
3.1852466771
 40
2534.5580261424
100
AcDbArc
 50
359.6993970068
 51
359.9625834519
  0
ARC
  5
2BD
100
AcDbEntity
  8
0
100
AcDbCircle
 62
253
  6
CONTINUOUS
 10
2551.8386341203
 20
3.1760790636
 40
2531.4508698614
100
AcDbArc
 50
180.037254978
 51
180.3007644637
  0
ARC
  5
2BE
100
AcDbEntity
  8
ASSI
100
AcDbCircle
 62
253
  6
CONTINUOUS
 10
2551.8386341203
 20
3.1760790636
 40
2531.4508698614
100
AcDbArc
 50
180.037254978
 51
180.3007644637
  0
ARC
  5
2BF
100
AcDbEntity
  8
CURVE
100
AcDbCircle
 62
253
  6
CONTINUOUS
 10
15.1940043424
 20
-1.4924881366
 40
7.7000010819
100
AcDbArc
 50
169.1841145114
 51
178.7510397325
  0
ARC
  5
2C0
100
AcDbEntity
  8
CURVE
100
AcDbCircle
 62
253
  6
CONTINUOUS
 10
3.7011314124
 20
-1.4584683216
 40
7.6835982773
100
AcDbArc
 50
349.1740637502
 51
358.7627423135
  0
ARC
  5
2C1
100
AcDbEntity
  8
CURVE
100
AcDbCircle
 62
253
  6
CONTINUOUS
 10
3.7249108125
 20
-1.4890135806
 40
7.6598363021
100
AcDbArc
 50
0.1084499073
 51
10.9425997162
  0
ARC
  5
2C2
100
AcDbEntity
  8
CURVE
100
AcDbCircle
 62
253
  6
CONTINUOUS
 10
15.1477481443
 20
-1.4612337514
 40
7.6536375911
100
AcDbArc
 50
180.0994242061
 51
190.9436030901
  0
ARC
  5
2C3
100
AcDbEntity
  8
CURVE
100
AcDbCircle
 62
253
  6
CONTINUOUS
 10
3.7004053947
 20
-1.4579310386
 40
7.2843480997
100
AcDbArc
 50
349.1720577954
 51
358.758452571
  0
ARC
  5
2C4
100
AcDbEntity
  8
CURVE
100
AcDbCircle
 62
253
  6
CONTINUOUS
 10
15.1763026405
 20
-1.4905119507
 40
7.282178223
100
AcDbArc
 50
169.1748759346
 51
178.7640581632
  0
ARC
  5
2C5
100
AcDbEntity
  8
CURVE
100
AcDbCircle
 62
253
  6
CONTINUOUS
 10
15.1581484611
 20
-1.4604375438
 40
7.2639914344
100
AcDbArc
 50
180.1110378036
 51
190.9340067916
  0
ARC
  5
2C6
100
AcDbEntity
  8
CURVE
100
AcDbCircle
 62
253
  6
CONTINUOUS
 10
3.7251278635
 20
-1.4886168413
 40
7.2595719227
100
AcDbArc
 50
0.1112983887
 51
10.9409412502
  0
ARC
  5
2C7
100
AcDbEntity
  8
CURVE
100
AcDbCircle
 62
253
  6
CONTINUOUS
 10
9.4397626135
 20
0.2174792943
 40
4.2984899916
100
AcDbArc
 50
262.5671555875
 51
277.4319791831
  0
ARC
  5
2C8
100
AcDbEntity
  8
CURVE
100
AcDbCircle
 62
253
  6
CONTINUOUS
 10
9.4390556531
 20
-3.1623679352
 40
4.2942229458
100
AcDbArc
 50
82.5603389365
 51
97.4400524169
  0
ARC
  5
2C9
100
AcDbEntity
  8
CURVE
100
AcDbCircle
 62
253
  6
CONTINUOUS
 10
8.9976595508
 20
-0.2637668521
 40
0.9623630358
100
AcDbArc
 50
98.4516514306
 51
106.1940622421
  0
ARC
  5
2CA
100
AcDbEntity
  8
0
100
AcDbCircle
 62
7
  6
CONTINUOUS
 10
13.5652756476
 20
5.8190678507
 40
0.4020604646
100
AcDbArc
 50
356.679291676
 51
359.9997135529
  0
ARC
  5
2CB
100
AcDbEntity
  8
0
100
AcDbCircle
 62
7
  6
CONTINUOUS
 10
5.2693965761
 20
5.8190678507
 40
0.4020604639
100
AcDbArc
 50
180.0002864503
 51
183.320685082
  0
ARC
  5
2CC
100
AcDbEntity
  8
0
100
AcDbCircle
 62
7
  6
CONTINUOUS
 10
13.5686046769
 20
7.218974251
 40
0.4015998011
100
AcDbArc
 50
86.677796853
 51
89.9996424861
  0
ARC
  5
2CD
100
AcDbEntity
  8
0
100
AcDbCircle
 62
7
  6
CONTINUOUS
 10
5.2660675473
 20
7.218974252
 40
0.4015998001
100
AcDbArc
 50
90.0003575169
 51
93.3221812303
  0
ARC
  5
2CE
100
AcDbEntity
  8
0
100
AcDbCircle
 62
7
  6
CONTINUOUS
 10
5.2654395976
 20
5.8214806744
 40
0.4009066223
100
AcDbArc
 50
266.6769864153
 51
269.9997100212
  0
ARC
  5
2CF
100
AcDbEntity
  8
0
100
AcDbCircle
 62
7
  6
CONTINUOUS
 10
13.5692326266
 20
5.8214806737
 40
0.4009066216
100
AcDbArc
 50
270.0002899832
 51
273.322992132
  0
ARC
  5
2D0
100
AcDbEntity
  8
0
100
AcDbCircle
 62
7
  6
CONTINUOUS
 10
5.2681987745
 20
7.2220796987
 40
0.4008626624
100
AcDbArc
 50
176.6760851759
 51
179.9996299877
  0
ARC
  5
2D1
100
AcDbEntity
  8
0
100
AcDbCircle
 62
7
  6
CONTINUOUS
 10
13.5664734508
 20
7.2220796987
 40
0.4008626613
100
AcDbArc
 50
0.0003700158
 51
3.3238937694
  0
ARC
  5
2D2
100
AcDbEntity
  8
RACCORDO
100
AcDbCircle
 62
253
  6
CONTINUOUS
 10
20.1351226615
 20
10.6250987954
 40
0.2500126444
100
AcDbArc
 50
0.0025780741
 51
89.9601566347
  0
ARC
  5
2D3
100
AcDbEntity
  8
ASSI
100
AcDbCircle
 62
253
  6
CONTINUOUS
 10
20.1351226615
 20
10.6250987954
 40
0.2500126444
100
AcDbArc
 50
0.0025780741
 51
89.9601566347
  0
ARC
  5
2D4
100
AcDbEntity
  8
RACCORDO
100
AcDbCircle
 62
253
  6
CONTINUOUS
 10
-1.3004504542
 20
10.6250987785
 40
0.2500126345
100
AcDbArc
 50
90.0398394721
 51
179.9974180627
  0
ARC
  5
2D5
100
AcDbEntity
  8
ASSI
100
AcDbCircle
 62
253
  6
CONTINUOUS
 10
-1.3004504542
 20
10.6250987785
 40
0.2500126345
100
AcDbArc
 50
90.0398394721
 51
179.9974180627
  0
ARC
  5
2D6
100
AcDbEntity
  8
0
100
AcDbCircle
 62
7
  6
CONTINUOUS
 10
-15.3595756763
 20
-10.0377401851
 40
1.0
100
AcDbArc
 50
188.5737414447
 51
267.0
  0
ARC
  5
2D7
100
AcDbEntity
  8
ASSI
100
AcDbCircle
 62
7
  6
CONTINUOUS
 10
-15.3595756763
 20
-10.0377401851
 40
1.0
100
AcDbArc
 50
188.5737414447
 51
267.0
  0
ARC
  5
2D8
100
AcDbEntity
  8
0
100
AcDbCircle
 62
253
  6
CONTINUOUS
 10
-15.3770254243
 20
-10.0377401847
 40
0.5000000005
100
AcDbArc
 50
188.5737414877
 51
266.999999957
  0
ARC
  5
2D9
100
AcDbEntity
  8
ASSI
100
AcDbCircle
 62
253
  6
CONTINUOUS
 10
-15.3770254243
 20
-10.0377401847
 40
0.5000000005
100
AcDbArc
 50
188.5737414877
 51
266.999999957
  0
ARC
  5
2DA
100
AcDbEntity
  8
RACCORDO
100
AcDbCircle
 62
7
  6
CONTINUOUS
 10
-12.4281793561
 20
-6.9129175491
 40
0.3
100
AcDbArc
 50
334.9997013218
 51
0.0003423163
  0
ARC
  5
2DB
100
AcDbEntity
  8
ASSI
100
AcDbCircle
 62
7
  6
CONTINUOUS
 10
-12.4281793561
 20
-6.9129175491
 40
0.3
100
AcDbArc
 50
334.9997013218
 51
0.0003423163
  0
ARC
  5
2DC
100
AcDbEntity
  8
RACCORDO
100
AcDbCircle
 62
7
  6
CONTINUOUS
 10
-17.1780212012
 20
10.6230044832
 40
0.25
100
AcDbArc
 50
90.5000032275
 51
180.045580992
  0
ARC
  5
2DD
100
AcDbEntity
  8
ASSI
100
AcDbCircle
 62
7
  6
CONTINUOUS
 10
-17.1780212012
 20
10.6230044832
 40
0.25
100
AcDbArc
 50
90.5000032275
 51
180.045580992
  0
ARC
  5
2DE
100
AcDbEntity
  8
CURVE
100
AcDbCircle
 62
253
  6
CONTINUOUS
 10
72.5316258241
 20
3.2259983433
 40
89.8857021307
100
AcDbArc
 50
182.1995131996
 51
182.4736285064
  0
ARC
  5
2DF
100
AcDbEntity
  8
CURVE
100
AcDbCircle
 62
253
  6
CONTINUOUS
 10
72.5268158338
 20
3.2240113346
 40
89.8808030221
100
AcDbArc
 50
183.0308424579
 51
183.3047018346
  0
ARC
  5
2E0
100
AcDbEntity
  8
CURVE
100
AcDbCircle
 62
253
  6
CONTINUOUS
 10
72.5236079418
 20
3.2225799399
 40
89.8775147938
100
AcDbArc
 50
183.5858869485
 51
183.8604260495
  0
ARC
  5
2E1
100
AcDbEntity
  8
CURVE
100
AcDbCircle
 62
253
  6
CONTINUOUS
 10
72.3180111327
 20
3.2190067073
 40
89.6719750141
100
AcDbArc
 50
181.9194941113
 51
182.0876270946
  0
ARC
  5
2E2
100
AcDbEntity
  8
CURVE
100
AcDbCircle
 62
253
  6
CONTINUOUS
 10
72.2658483532
 20
3.2172155649
 40
89.6197815431
100
AcDbArc
 50
181.9195407836
 51
182.0796530414
  0
ARC
  5
2E3
100
AcDbEntity
  8
CURVE
100
AcDbCircle
 62
253
  6
CONTINUOUS
 10
72.6130877759
 20
3.2280943619
 40
89.9671617304
100
AcDbArc
 50
184.1376715739
 51
184.4152998126
  0
ARC
  5
2E4
100
AcDbEntity
  8
CURVE
100
AcDbCircle
 62
253
  6
CONTINUOUS
 10
72.6128900138
 20
3.2286925866
 40
89.9670041614
100
AcDbArc
 50
183.0921938484
 51
183.3057427285
  0
ARC
  5
2E5
100
AcDbEntity
  8
CURVE
100
AcDbCircle
 62
253
  6
CONTINUOUS
 10
72.605583711
 20
3.2275230746
 40
89.9596359583
100
AcDbArc
 50
184.1376898114
 51
184.4152673338
  0
ARC
  5
2E6
100
AcDbEntity
  8
CURVE
100
AcDbCircle
 62
253
  6
CONTINUOUS
 10
72.6040931025
 20
3.2282149863
 40
89.9581943051
100
AcDbArc
 50
183.0866987595
 51
183.3048438901
  0
ARC
  5
2E7
100
AcDbEntity
  8
CURVE
100
AcDbCircle
 62
253
  6
CONTINUOUS
 10
72.6015818926
 20
3.2284055395
 40
89.9556967127
100
AcDbArc
 50
182.7505837975
 51
182.9968129442
  0
ARC
  5
2E8
100
AcDbEntity
  8
CURVE
100
AcDbCircle
 62
253
  6
CONTINUOUS
 10
72.5939233245
 20
3.2280087815
 40
89.9480278755
100
AcDbArc
 50
182.7515732612
 51
182.9968156053
  0
ARC
  5
2E9
100
AcDbEntity
  8
CURVE
100
AcDbCircle
 62
253
  6
CONTINUOUS
 10
72.590752995
 20
3.2284320864
 40
89.9448791805
100
AcDbArc
 50
182.197216848
 51
182.4735873242
  0
ARC
  5
2EA
100
AcDbEntity
  8
CURVE
100
AcDbCircle
 62
253
  6
CONTINUOUS
 10
72.5889221396
 20
3.2288382917
 40
89.9430633724
100
AcDbArc
 50
181.642782558
 51
181.920046906
  0
ARC
  5
2EB
100
AcDbEntity
  8
CURVE
100
AcDbCircle
 62
253
  6
CONTINUOUS
 10
72.5804893582
 20
3.2260351225
 40
89.934499624
100
AcDbArc
 50
183.9068714055
 51
184.1378615582
  0
ARC
  5
2EC
100
AcDbEntity
  8
CURVE
100
AcDbCircle
 62
253
  6
CONTINUOUS
 10
72.5705562905
 20
3.2275761705
 40
89.9246644345
100
AcDbArc
 50
182.1992875723
 51
182.4725439273
  0
ARC
  5
2ED
100
AcDbEntity
  8
CURVE
100
AcDbCircle
 62
253
  6
CONTINUOUS
 10
72.5696090873
 20
3.2256209986
 40
89.923616242
100
AcDbArc
 50
183.5827935156
 51
183.8600681625
  0
ARC
  5
2EE
100
AcDbEntity
  8
CURVE
100
AcDbCircle
 62
253
  6
CONTINUOUS
 10
72.5628126761
 20
3.2280335268
 40
89.9169415504
100
AcDbArc
 50
181.6428795981
 51
181.9200179416
  0
ARC
  5
2EF
100
AcDbEntity
  8
CURVE
100
AcDbCircle
 62
253
  6
CONTINUOUS
 10
72.5592808051
 20
3.2249305202
 40
89.9132649024
100
AcDbArc
 50
183.5856852367
 51
183.859011591
  0
ARC
  5
2F0
100
AcDbEntity
  8
CURVE
100
AcDbCircle
 62
253
  6
CONTINUOUS
 10
72.5579561966
 20
3.2248073974
 40
89.911935052
100
AcDbArc
 50
183.583226108
 51
183.8598709912
  0
ARC
  5
2F1
100
AcDbEntity
  8
CURVE
100
AcDbCircle
 62
253
  6
CONTINUOUS
 10
72.5534548436
 20
3.224145174
 40
89.9073991471
100
AcDbArc
 50
183.914875838
 51
184.1379397426
  0
ARC
  5
2F2
100
AcDbEntity
  8
CURVE
100
AcDbCircle
 62
253
  6
CONTINUOUS
 10
72.5502613488
 20
3.225291842
 40
89.9042834462
100
AcDbArc
 50
183.0311850337
 51
183.3061952362
  0
ARC
  5
2F3
100
AcDbEntity
  8
CURVE
100
AcDbCircle
 62
253
  6
CONTINUOUS
 10
72.5480663962
 20
3.2267271561
 40
89.9021586701
100
AcDbArc
 50
182.1996567821
 51
182.4731844158
  0
ARC
  5
2F4
100
AcDbEntity
  8
CURVE
100
AcDbCircle
 62
253
  6
CONTINUOUS
 10
72.8234544397
 20
3.2412927325
 40
90.1779446341
100
AcDbArc
 50
183.3063341733
 51
183.5810859534
  0
ARC
  5
2F5
100
AcDbEntity
  8
CURVE
100
AcDbCircle
 62
253
  6
CONTINUOUS
 10
72.7478885116
 20
3.236691333
 40
90.1022390204
100
AcDbArc
 50
183.3087416878
 51
183.582734933
  0
ARC
  5
2F6
100
AcDbEntity
  8
CURVE
100
AcDbCircle
 62
253
  6
CONTINUOUS
 10
72.7049588436
 20
3.2341707552
 40
90.0592356458
100
AcDbArc
 50
183.3085831955
 51
183.5812894829
  0
ARC
  5
2F7
100
AcDbEntity
  8
CURVE
100
AcDbCircle
 62
253
  6
CONTINUOUS
 10
72.7007596454
 20
3.232524801
 40
90.0549619338
100
AcDbArc
 50
182.0793455721
 51
182.1955690496
  0
ARC
  5
2F8
100
AcDbEntity
  8
CURVE
100
AcDbCircle
 62
253
  6
CONTINUOUS
 10
72.6838771229
 20
3.2329375787
 40
90.0381179346
100
AcDbArc
 50
183.3058346948
 51
183.583381657
  0
ARC
  5
2F9
100
AcDbEntity
  8
CURVE
100
AcDbCircle
 62
253
  6
CONTINUOUS
 10
72.6551309936
 20
3.2311016228
 40
90.0093134539
100
AcDbArc
 50
182.7542994186
 51
182.9012231361
  0
ARC
  5
2FA
100
AcDbEntity
  8
CURVE
100
AcDbCircle
 62
253
  6
CONTINUOUS
 10
72.6525577362
 20
3.2310367097
 40
90.0067413013
100
AcDbArc
 50
183.8664768702
 51
184.1380812385
  0
ARC
  5
2FB
100
AcDbEntity
  8
CURVE
100
AcDbCircle
 62
253
  6
CONTINUOUS
 10
72.6491197077
 20
3.2308023003
 40
90.0032952942
100
AcDbArc
 50
183.8588920189
 51
184.1379877273
  0
ARC
  5
2FC
100
AcDbEntity
  8
0
100
AcDbCircle
 62
7
  6
CONTINUOUS
 10
72.645832324
 20
3.2305740521
 40
90.0
100
AcDbArc
 50
181.08868532
 51
188.5737414447
  0
ARC
  5
2FD
100
AcDbEntity
  8
ASSI
100
AcDbCircle
 62
7
  6
CONTINUOUS
 10
72.645832324
 20
3.2305740521
 40
90.0
100
AcDbArc
 50
181.08868532
 51
188.5737414447
  0
ARC
  5
2FE
100
AcDbEntity
  8
CURVE
100
AcDbCircle
 62
253
  6
CONTINUOUS
 10
72.643645871
 20
3.230527106
 40
89.9978139795
100
AcDbArc
 50
182.7520511609
 51
182.9068279618
  0
ARC
  5
2FF
100
AcDbEntity
  8
CURVE
100
AcDbCircle
 62
253
  6
CONTINUOUS
 10
72.6333146364
 20
3.2302534752
 40
89.9874782192
100
AcDbArc
 50
181.3665657651
 51
181.6430055159
  0
ARC
  5
300
100
AcDbEntity
  8
0
100
AcDbCircle
 62
253
  6
CONTINUOUS
 10
72.6283825753
 20
3.230574052
 40
89.4999999996
100
AcDbArc
 50
181.08868532
 51
188.5737414447
  0
ARC
  5
301
100
AcDbEntity
  8
ASSI
100
AcDbCircle
 62
253
  6
CONTINUOUS
 10
72.6283825753
 20
3.230574052
 40
89.4999999996
100
AcDbArc
 50
181.08868532
 51
188.5737414447
  0
ARC
  5
302
100
AcDbEntity
  8
RACCORDO
100
AcDbCircle
 62
7
  6
CONTINUOUS
 10
482.5718206438
 20
11.0205740521
 40
500.0
100
AcDbArc
 50
180.045580912
 51
181.08868532
  0
ARC
  5
303
100
AcDbEntity
  8
ASSI
100
AcDbCircle
 62
7
  6
CONTINUOUS
 10
482.5718206438
 20
11.0205740521
 40
500.0
100
AcDbArc
 50
180.045580912
 51
181.08868532
  0
ARC
  5
304
100
AcDbEntity
  8
RACCORDO
100
AcDbCircle
 62
253
  6
CONTINUOUS
 10
482.5370357874
 20
11.0203079776
 40
499.482663021
100
AcDbArc
 50
180.0453332552
 51
181.0886925858
  0
ARC
  5
305
100
AcDbEntity
  8
ASSI
100
AcDbCircle
 62
253
  6
CONTINUOUS
 10
482.5370357874
 20
11.0203079776
 40
499.482663021
100
AcDbArc
 50
180.0453332552
 51
181.0886925858
  0
LINE
  5
306
100
AcDbEntity
  8
0
100
AcDbLine
 62
7
  6
CONTINUOUS
 10
13.9673361121
 20
7.2220822875
 11
13.9673361121
 21
7.0142258645
  0
LINE
  5
307
100
AcDbEntity
  8
0
100
AcDbLine
 62
7
  6
CONTINUOUS
 10
13.9673361121
 20
7.0142258645
 11
13.9673361121
 21
6.962261864
  0
LINE
  5
308
100
AcDbEntity
  8
0
100
AcDbLine
 62
7
  6
CONTINUOUS
 10
13.9673361121
 20
6.962261864
 11
13.9673361121
 21
6.7544062579
  0
LINE
  5
309
100
AcDbEntity
  8
0
100
AcDbLine
 62
7
  6
CONTINUOUS
 10
13.9673361121
 20
6.7544062579
 11
13.9673361121
 21
6.5465514427
  0
LINE
  5
30A
100
AcDbEntity
  8
0
100
AcDbLine
 62
7
  6
CONTINUOUS
 10
13.9673361121
 20
6.5465514427
 11
13.9673361121
 21
6.4945878382
  0
LINE
  5
30B
100
AcDbEntity
  8
0
100
AcDbLine
 62
7
  6
CONTINUOUS
 10
13.9673361121
 20
6.4945878382
 11
13.9673361121
 21
6.2867339308
  0
LINE
  5
30C
100
AcDbEntity
  8
0
100
AcDbLine
 62
7
  6
CONTINUOUS
 10
13.9673361121
 20
6.2867339308
 11
13.9673361121
 21
6.0788809557
  0
LINE
  5
30D
100
AcDbEntity
  8
0
100
AcDbLine
 62
7
  6
CONTINUOUS
 10
13.9673361121
 20
6.0788809557
 11
13.9673361121
 21
6.026917838
  0
LINE
  5
30E
100
AcDbEntity
  8
0
100
AcDbLine
 62
7
  6
CONTINUOUS
 10
13.9673361121
 20
6.026917838
 11
13.9673361121
 21
5.8190658406
  0
SPLINE
  5
30F
100
AcDbEntity
  8
0
100
AcDbSpline
 62
7
  6
CONTINUOUS
 70
0
 71
3
 72
25
 73
21
 74
19
 42
0.0000001
 43
0.0000001
 44
0.0000000001
 12
-0.578414833
 22
0.0335854521
 32
0.0
 13
-0.0335619525
 23
0.5784158551
 33
0.0
 40
0.0
 40
0.0
 40
0.0
 40
0.0
 40
0.0200514387
 40
0.0803270942
 40
0.1404453416
 40
0.2002856332
 40
0.2602499788
 40
0.3202499278
 40
0.3800671828
 40
0.4397602389
 40
0.4996674647
 40
0.5595882874
 40
0.6193181535
 40
0.6791887486
 40
0.7392639398
 40
0.7993237723
 40
0.8592712226
 40
0.9195041017
 40
0.9799050173
 40
1.0
 40
1.0
 40
1.0
 40
1.0
 10
5.2422010376
 20
5.4212481305
 30
0.0
 10
5.2383350211
 20
5.4214726094
 30
0.0
 10
5.2228601635
 20
5.4225964092
 30
0.0
 10
5.1959459156
 20
5.4261330929
 30
0.0
 10
5.1619314731
 20
5.433666739
 30
0.0
 10
5.1287604738
 20
5.4441148431
 30
0.0
 10
5.0966460652
 20
5.4574036341
 30
0.0
 10
5.0658187313
 20
5.4734442462
 30
0.0
 10
5.0365541343
 20
5.492087037
 30
0.0
 10
5.0090400385
 20
5.5131983862
 30
0.0
 10
4.9834577194
 20
5.5366435401
 30
0.0
 10
4.9600177875
 20
5.5622402884
 30
0.0
 10
4.9389047769
 20
5.5897783654
 30
0.0
 10
4.9202553305
 20
5.6190765841
 30
0.0
 10
4.9042046488
 20
5.6499474535
 30
0.0
 10
4.8909042399
 20
5.6821151346
 30
0.0
 10
4.8804452065
 20
5.7153469287
 30
0.0
 10
4.872902609
 20
5.7494280263
 30
0.0
 10
4.8693613665
 20
5.7763968791
 30
0.0
 10
4.8682359928
 20
5.7919043017
 30
0.0
 10
4.8680111839
 20
5.7957787205
 30
0.0
 11
5.2422010376
 21
5.4212481305
 31
0.0
 11
5.2306143506
 21
5.4220896778
 31
0.0
 11
5.1960036103
 21
5.4266385203
 31
0.0
 11
5.1620104159
 21
5.4341685734
 31
0.0
 11
5.1289553577
 21
5.4445809925
 31
0.0
 11
5.0968663201
 21
5.4578600717
 31
0.0
 11
5.0660411832
 21
5.4739001404
 31
0.0
 11
5.0368234735
 21
5.4925134749
 31
0.0
 11
5.0093961128
 21
5.5135584784
 31
0.0
 11
4.9838178816
 21
5.5369998479
 31
0.0
 11
4.9603810213
 21
5.5625928895
 31
0.0
 11
4.9393333432
 21
5.5900450657
 31
0.0
 11
4.9207136951
 21
5.6192953786
 31
0.0
 11
4.9046632242
 21
5.6501642234
 31
0.0
 11
4.8913717284
 21
5.6823079703
 31
0.0
 11
4.880947981
 21
5.7154245258
 31
0.0
 11
4.8734090099
 21
5.749483742
 31
0.0
 11
4.8688539691
 21
5.7841668352
 31
0.0
 11
4.8680111839
 21
5.7957787205
 31
0.0
  0
SPLINE
  5
310
100
AcDbEntity
  8
0
100
AcDbSpline
 62
7
  6
CONTINUOUS
 70
0
 71
3
 72
25
 73
21
 74
19
 42
0.0000001
 43
0.0000001
 44
0.0000000001
 12
0.0336205787
 22
0.5788763995
 32
0.0
 13
0.5788771578
 23
0.0336031692
 33
0.0
 40
0.0
 40
0.0
 40
0.0
 40
0.0
 40
0.0200416777
 40
0.0803005781
 40
0.1404186932
 40
0.2002719698
 40
0.2602592616
 40
0.3202893722
 40
0.380140933
 40
0.4398699628
 40
0.4998109175
 40
0.5597596722
 40
0.6195089209
 40
0.6793889892
 40
0.7394602604
 40
0.7995013133
 40
0.8594154143
 40
0.9195988866
 40
0.9799318234
 40
1.0
 40
1.0
 40
1.0
 40
1.0
 10
4.8680104822
 20
7.2453220054
 30
0.0
 10
4.8682350865
 20
7.2491892235
 30
0.0
 10
4.869359697
 20
7.2646713117
 30
0.0
 10
4.8728994854
 20
7.2916018251
 30
0.0
 10
4.8804404379
 20
7.3256423756
 30
0.0
 10
4.8909003353
 20
7.3588460327
 30
0.0
 10
4.9042056368
 20
7.3909974687
 30
0.0
 10
4.9202673145
 20
7.4218641652
 30
0.0
 10
4.93893523
 20
7.4511686213
 30
0.0
 10
4.9600748519
 20
7.478721263
 30
0.0
 10
4.9835501122
 20
7.5043391669
 30
0.0
 10
5.0091770734
 20
7.5278103286
 30
0.0
 10
5.0367438317
 20
7.5489494991
 30
0.0
 10
5.0660674599
 20
7.5676196395
 30
0.0
 10
5.0969588197
 20
7.5836855873
 30
0.0
 10
5.1291405993
 20
7.59699628
 30
0.0
 10
5.1623790633
 20
7.6074614133
 30
0.0
 10
5.1964582507
 20
7.6150068134
 30
0.0
 10
5.2234207906
 20
7.6185489206
 30
0.0
 10
5.2389222953
 20
7.6196743615
 30
0.0
 10
5.2427946316
 20
7.6198991462
 30
0.0
 11
4.8680104822
 21
7.2453220054
 31
0.0
 11
4.8688524965
 21
7.2569122882
 31
0.0
 11
4.8734047286
 21
7.2915409045
 31
0.0
 11
4.880942058
 21
7.3255608865
 31
0.0
 11
4.891366281
 21
7.3586491331
 31
0.0
 11
4.9046619599
 21
7.3907757086
 31
0.0
 11
4.9207232996
 21
7.4216407653
 31
0.0
 11
4.9393619609
 21
7.4508987181
 31
0.0
 11
4.9604356469
 21
7.4783651496
 31
0.0
 11
4.9839076125
 21
7.50397944
 31
0.0
 11
5.0095313088
 21
7.5274478312
 31
0.0
 11
5.0370123809
 21
7.5485216854
 31
0.0
 11
5.066288713
 21
7.567162247
 31
0.0
 11
5.0971783792
 21
7.5832279748
 31
0.0
 11
5.1293362326
 21
7.5965295614
 31
0.0
 11
5.1624597111
 21
7.6069592764
 31
0.0
 11
5.1965175284
 21
7.614500959
 31
0.0
 11
5.2311889976
 21
7.61905645
 31
0.0
 11
5.2427946316
 21
7.6198991462
 31
0.0
  0
SPLINE
  5
311
100
AcDbEntity
  8
0
100
AcDbSpline
 62
7
  6
CONTINUOUS
 70
0
 71
3
 72
25
 73
21
 74
19
 42
0.0000001
 43
0.0000001
 44
0.0000000001
 12
-0.0335621863
 22
-0.578415825
 32
0.0
 13
-0.5784148365
 23
-0.0335852348
 33
0.0
 40
0.0
 40
0.0
 40
0.0
 40
0.0
 40
0.0200941342
 40
0.080494816
 40
0.1407296603
 40
0.2006766753
 40
0.2607351258
 40
0.320810864
 40
0.3806828279
 40
0.4404119795
 40
0.5003317803
 40
0.5602400374
 40
0.6199337955
 40
0.6797496649
 40
0.7397490773
 40
0.7997148019
 40
0.8595555079
 40
0.9196717812
 40
0.9799476896
 40
1.0
 40
1.0
 40
1.0
 40
1.0
 10
13.9666610309
 20
5.7957785576
 30
0.0
 10
13.9664362299
 20
5.7919043026
 30
0.0
 10
13.9653108746
 20
5.776397089
 30
0.0
 10
13.9617696367
 20
5.7494280645
 30
0.0
 10
13.9542269758
 20
5.7153467216
 30
0.0
 10
13.9437678886
 20
5.6821149162
 30
0.0
 10
13.9304675732
 20
5.6499474654
 30
0.0
 10
13.9144168613
 20
5.6190764953
 30
0.0
 10
13.8957672649
 20
5.589778095
 30
0.0
 10
13.8746542627
 20
5.5622401037
 30
0.0
 10
13.8512144235
 20
5.5366434587
 30
0.0
 10
13.8256320013
 20
5.5131982123
 30
0.0
 10
13.7981178241
 20
5.492086858
 30
0.0
 10
13.7688534137
 20
5.4734442193
 30
0.0
 10
13.738026184
 20
5.4574036379
 30
0.0
 10
13.7059115494
 20
5.4441147539
 30
0.0
 10
13.6727405695
 20
5.4336667041
 30
0.0
 10
13.6387263764
 20
5.4261331196
 30
0.0
 10
13.6118122953
 20
5.4225964285
 30
0.0
 10
13.5963372213
 20
5.421472609
 30
0.0
 10
13.5924710367
 20
5.4212481218
 30
0.0
 11
13.9666610309
 21
5.7957785576
 31
0.0
 11
13.9658182837
 21
5.7841671628
 31
0.0
 11
13.961263295
 21
5.7494842001
 31
0.0
 11
13.9537240692
 21
5.7154238754
 31
0.0
 11
13.9433003524
 21
5.6823075753
 31
0.0
 11
13.9300091612
 21
5.6501645694
 31
0.0
 11
13.9139585618
 21
5.6192954352
 31
0.0
 11
13.895338464
 21
5.5900444698
 31
0.0
 11
13.8742910023
 21
5.5625926502
 31
0.0
 11
13.8508545412
 21
5.5370000466
 31
0.0
 11
13.8252758692
 21
5.5135582751
 31
0.0
 11
13.797848159
 21
5.4925130606
 31
0.0
 11
13.7686311117
 21
5.4739001812
 31
0.0
 11
13.7378062609
 21
5.4578602379
 31
0.0
 11
13.7057164857
 21
5.4445808541
 31
0.0
 11
13.6726611856
 21
5.4341684067
 31
0.0
 11
13.6386691069
 21
5.4266386071
 31
0.0
 11
13.6040582271
 21
5.4220897087
 31
0.0
 11
13.5924710367
 21
5.4212481218
 31
0.0
  0
SPLINE
  5
312
100
AcDbEntity
  8
0
100
AcDbSpline
 62
7
  6
CONTINUOUS
 70
0
 71
3
 72
25
 73
21
 74
19
 42
0.0000001
 43
0.0000001
 44
0.0000000001
 12
0.5788771349
 22
-0.0336033902
 32
0.0
 13
0.0336203657
 23
-0.5788764096
 33
0.0
 40
0.0
 40
0.0
 40
0.0
 40
0.0
 40
0.0200673121
 40
0.0803999929
 40
0.1405854283
 40
0.2004991081
 40
0.2605387869
 40
0.3206106022
 40
0.3804920415
 40
0.4402405814
 40
0.5001883132
 40
0.5601302958
 40
0.6198600277
 40
0.6797102083
 40
0.7397397796
 40
0.7997284436
 40
0.8595821308
 40
0.9196982792
 40
0.9799574461
 40
1.0
 40
1.0
 40
1.0
 40
1.0
 10
13.5918777461
 20
7.6198991373
 30
0.0
 10
13.5957499155
 20
7.6196743608
 30
0.0
 10
13.6112512038
 20
7.6185489394
 30
0.0
 10
13.6382139083
 20
7.6150068395
 30
0.0
 10
13.6722933403
 20
7.6074613789
 30
0.0
 10
13.7055318205
 20
7.5969961928
 30
0.0
 10
13.737713374
 20
7.5836855938
 30
0.0
 10
13.7686048369
 20
7.5676196163
 30
0.0
 10
13.7979286489
 20
7.5489493265
 30
0.0
 10
13.8254953238
 20
7.5278101645
 30
0.0
 10
13.851122183
 20
7.5043390961
 30
0.0
 10
13.8745975364
 20
7.4787210903
 30
0.0
 10
13.895737165
 20
7.4511683674
 30
0.0
 10
13.9144049298
 20
7.4218640977
 30
0.0
 10
13.9304665777
 20
7.3909975064
 30
0.0
 10
13.9437719726
 20
7.3588458467
 30
0.0
 10
13.9542318171
 20
7.3256422098
 30
0.0
 10
13.9617727101
 20
7.2916019055
 30
0.0
 10
13.9653125073
 20
7.2646715538
 30
0.0
 10
13.9664371379
 20
7.2491892455
 30
0.0
 10
13.9666617505
 20
7.2453218583
 30
0.0
 11
13.5918777461
 21
7.6198991373
 31
0.0
 11
13.6034828802
 21
7.6190564802
 31
0.0
 11
13.6381542066
 21
7.6145010452
 31
0.0
 11
13.6722131332
 21
7.6069591104
 31
0.0
 11
13.7053363649
 21
7.5965294258
 31
0.0
 11
13.737493482
 21
7.5832281439
 31
0.0
 11
13.7683834374
 21
7.5671622896
 31
0.0
 11
13.7976604249
 21
7.5485212784
 31
0.0
 11
13.825141144
 21
7.5274476396
 31
0.0
 11
13.8507644027
 21
7.503979649
 31
0.0
 11
13.8742367704
 21
7.4783649195
 31
0.0
 11
13.895310669
 21
7.4508981387
 31
0.0
 11
13.9139488777
 21
7.4216408465
 31
0.0
 11
13.9300100924
 21
7.3907760776
 31
0.0
 11
13.9433060761
 21
7.3586487679
 31
0.0
 11
13.9537303283
 21
7.3255602813
 31
0.0
 11
13.9612674063
 21
7.2915414116
 31
0.0
 11
13.9658196964
 21
7.2569126475
 31
0.0
 11
13.9666617505
 21
7.2453218583
 31
0.0
  0
LINE
  5
313
100
AcDbEntity
  8
0
100
AcDbLine
 62
7
  6
CONTINUOUS
 10
4.8673361121
 20
5.8190658406
 11
4.8673361121
 21
6.0269178425
  0
LINE
  5
314
100
AcDbEntity
  8
0
100
AcDbLine
 62
7
  6
CONTINUOUS
 10
4.8673361121
 20
6.0269178425
 11
4.8673361122
 21
6.0788809596
  0
LINE
  5
315
100
AcDbEntity
  8
0
100
AcDbLine
 62
7
  6
CONTINUOUS
 10
4.8673361122
 20
6.0788809596
 11
4.8673361122
 21
6.2867339169
  0
LINE
  5
316
100
AcDbEntity
  8
0
100
AcDbLine
 62
7
  6
CONTINUOUS
 10
4.8673361122
 20
6.2867339169
 11
4.8673361122
 21
6.4945878455
  0
LINE
  5
317
100
AcDbEntity
  8
0
100
AcDbLine
 62
7
  6
CONTINUOUS
 10
4.8673361122
 20
6.4945878455
 11
4.8673361122
 21
6.5465514502
  0
LINE
  5
318
100
AcDbEntity
  8
0
100
AcDbLine
 62
7
  6
CONTINUOUS
 10
4.8673361122
 20
6.5465514502
 11
4.8673361122
 21
6.7544061855
  0
LINE
  5
319
100
AcDbEntity
  8
0
100
AcDbLine
 62
7
  6
CONTINUOUS
 10
4.8673361122
 20
6.7544061855
 11
4.8673361122
 21
6.962261868
  0
LINE
  5
31A
100
AcDbEntity
  8
0
100
AcDbLine
 62
7
  6
CONTINUOUS
 10
4.8673361122
 20
6.962261868
 11
4.8673361121
 21
7.014225869
  0
LINE
  5
31B
100
AcDbEntity
  8
0
100
AcDbLine
 62
7
  6
CONTINUOUS
 10
4.8673361121
 20
7.014225869
 11
4.8673361121
 21
7.2220822875
  0
LINE
  5
31C
100
AcDbEntity
  8
RACCORDO
100
AcDbLine
 62
7
  6
CONTINUOUS
 10
13.9673361121
 20
7.2220822875
 11
13.9673361121
 21
6.9882438099
  0
LINE
  5
31D
100
AcDbEntity
  8
RACCORDO
100
AcDbLine
 62
7
  6
CONTINUOUS
 10
13.9673361121
 20
6.9882438099
 11
13.9673361121
 21
6.7544062254
  0
LINE
  5
31E
100
AcDbEntity
  8
RACCORDO
100
AcDbLine
 62
7
  6
CONTINUOUS
 10
13.9673361121
 20
6.7544062254
 11
13.9673361121
 21
6.520569585
  0
LINE
  5
31F
100
AcDbEntity
  8
RACCORDO
100
AcDbLine
 62
7
  6
CONTINUOUS
 10
13.9673361121
 20
6.520569585
 11
13.9673361121
 21
6.28673394
  0
LINE
  5
320
100
AcDbEntity
  8
RACCORDO
100
AcDbLine
 62
7
  6
CONTINUOUS
 10
13.9673361121
 20
6.28673394
 11
13.9673361121
 21
6.0528993415
  0
LINE
  5
321
100
AcDbEntity
  8
RACCORDO
100
AcDbLine
 62
7
  6
CONTINUOUS
 10
13.9673361121
 20
6.0528993415
 11
13.9673361121
 21
5.8190658406
  0
LINE
  5
322
100
AcDbEntity
  8
RACCORDO
100
AcDbLine
 62
7
  6
CONTINUOUS
 10
4.8673361121
 20
5.8190658406
 11
4.8673361121
 21
7.2220822875
  0
SPLINE
  5
323
100
AcDbEntity
  8
RACCORDO
100
AcDbSpline
 62
7
  6
CONTINUOUS
 70
0
 71
3
 72
25
 73
21
 74
19
 42
0.0000001
 43
0.0000001
 44
0.0000000001
 12
-0.6256832202
 22
0.0
 32
0.0
 13
0.0
 23
0.6256832202
 33
0.0
 40
0.0
 40
0.0
 40
0.0
 40
0.0
 40
0.0556733582
 40
0.1114505503
 40
0.1670993388
 40
0.2225000448
 40
0.278013467
 40
0.3335579392
 40
0.3889329739
 40
0.4441938583
 40
0.4996537624
 40
0.5551262503
 40
0.6104212299
 40
0.6658457278
 40
0.721459882
 40
0.7770616371
 40
0.8325613724
 40
0.8883154579
 40
0.9442070521
 40
1.0
 40
1.0
 40
1.0
 40
1.0
 10
5.2654375686
 20
5.4205740521
 30
0.0
 10
5.2538262732
 20
5.4205740521
 30
0.0
 10
5.2305693278
 20
5.4215846453
 30
0.0
 10
5.1959738012
 20
5.4261283068
 30
0.0
 10
5.1619591555
 20
5.433659206
 30
0.0
 10
5.1287829516
 20
5.4441064731
 30
0.0
 10
5.0966625024
 20
5.4573958102
 30
0.0
 10
5.0658302129
 20
5.4734374702
 30
0.0
 10
5.0365612314
 20
5.4920819051
 30
0.0
 10
5.0090429455
 20
5.5131957533
 30
0.0
 10
4.983456725
 20
5.5366443149
 30
0.0
 10
4.9600135449
 20
5.5622451172
 30
0.0
 10
4.9388981967
 20
5.589787537
 30
0.0
 10
4.920247278
 20
5.6190902864
 30
0.0
 10
4.9041957425
 20
5.6499662294
 30
0.0
 10
4.8908950102
 20
5.6821400031
 30
0.0
 10
4.8804370865
 20
5.7153768636
 30
0.0
 10
4.8728975354
 20
5.7494576922
 30
0.0
 10
4.8683480835
 20
5.7841238481
 30
0.0
 10
4.8673361121
 20
5.8074296035
 30
0.0
 10
4.8673361121
 20
5.8190658406
 30
0.0
 11
5.2654375686
 21
5.4205740521
 31
0.0
 11
5.2306365863
 21
5.4220877385
 31
0.0
 11
5.196034988
 21
5.4266329943
 31
0.0
 11
5.1620399442
 21
5.4341606671
 31
0.0
 11
5.1289774579
 21
5.4445729588
 31
0.0
 11
5.0968824397
 21
5.457852561
 31
0.0
 11
5.0660526542
 21
5.4738935184
 31
0.0
 11
5.036830776
 21
5.4925083615
 31
0.0
 11
5.0093992359
 21
5.5135558581
 31
0.0
 11
4.9838169981
 21
5.5370007318
 31
0.0
 11
4.9603767971
 21
5.5625979282
 31
0.0
 11
4.9393267919
 21
5.5900544291
 31
0.0
 11
4.9207057931
 21
5.6193090775
 31
0.0
 11
4.9046546242
 21
5.6501826951
 31
0.0
 11
4.8913628262
 21
5.6823324783
 31
0.0
 11
4.8809394446
 21
5.7154564321
 31
0.0
 11
4.8734031492
 21
5.7495170445
 31
0.0
 11
4.8688519453
 21
5.7841900557
 31
0.0
 11
4.8673361121
 21
5.8190658406
 31
0.0
  0
SPLINE
  5
324
100
AcDbEntity
  8
RACCORDO
100
AcDbSpline
 62
7
  6
CONTINUOUS
 70
0
 71
3
 72
25
 73
21
 74
19
 42
0.0000001
 43
0.0000001
 44
0.0000000001
 12
-0.0
 22
0.6261321933
 32
0.0
 13
0.6261321933
 23
0.0
 33
0.0
 40
0.0
 40
0.0
 40
0.0
 40
0.0
 40
0.0556462765
 40
0.1114123659
 40
0.1670645122
 40
0.2224808987
 40
0.2780198863
 40
0.3335969858
 40
0.3890085547
 40
0.4443073417
 40
0.499802936
 40
0.5553057357
 40
0.6106232273
 40
0.6660612395
 40
0.7216764573
 40
0.7772651809
 40
0.8327377847
 40
0.8884496229
 40
0.9442824486
 40
1.0
 40
1.0
 40
1.0
 40
1.0
 10
4.8673361121
 20
7.2220822875
 30
0.0
 10
4.8673361121
 20
7.2336962625
 30
0.0
 10
4.8683475743
 20
7.2569619204
 30
0.0
 10
4.8728948763
 20
7.2915748924
 30
0.0
 10
4.8804330644
 20
7.3256152298
 30
0.0
 10
4.890892021
 20
7.3588236851
 30
0.0
 10
4.9041978046
 20
7.3909810163
 30
0.0
 10
4.9202605631
 20
7.4218527356
 30
0.0
 10
4.9389302064
 20
7.4511616855
 30
0.0
 10
4.9600723997
 20
7.4787185729
 30
0.0
 10
4.9835511005
 20
7.5043403744
 30
0.0
 10
5.0091821418
 20
7.5278147737
 30
0.0
 10
5.0367533156
 20
7.5489563033
 30
0.0
 10
5.066081594
 20
7.567627948
 30
0.0
 10
5.0969781104
 20
7.5836947368
 30
0.0
 10
5.1291658696
 20
7.5970056506
 30
0.0
 10
5.1624090273
 20
7.607469528
 30
0.0
 10
5.1964875026
 20
7.6150118037
 30
0.0
 10
5.2311417252
 20
7.6195619239
 30
0.0
 10
5.2544361905
 20
7.6205740521
 30
0.0
 10
5.2660650414
 20
7.6205740521
 30
0.0
 11
4.8673361121
 21
7.2220822875
 31
0.0
 11
4.8688506637
 21
7.2568912789
 31
0.0
 11
4.8733994021
 21
7.2915106658
 31
0.0
 11
4.880934284
 21
7.3255318565
 31
0.0
 11
4.8913582482
 21
7.3586270381
 31
0.0
 11
4.9046544082
 21
7.390759502
 31
0.0
 11
4.9207166975
 21
7.4216293287
 31
0.0
 11
4.9393569786
 21
7.4508916025
 31
0.0
 11
4.9604332281
 21
7.4783622664
 31
0.0
 11
4.9839087114
 21
7.5039805386
 31
0.0
 11
5.0095365668
 21
7.52745224
 31
0.0
 11
5.03702203
 21
7.5485284381
 31
0.0
 11
5.0663028576
 21
7.5671704082
 31
0.0
 11
5.0971974291
 21
7.5832368466
 31
0.0
 11
5.1293612574
 21
7.5965386544
 31
0.0
 11
5.1624916987
 21
7.6069678377
 31
0.0
 11
5.1965502827
 21
7.6145067256
 31
0.0
 11
5.2312114279
 21
7.6190584057
 31
0.0
 11
5.2660650414
 21
7.6205740521
 31
0.0
  0
SPLINE
  5
325
100
AcDbEntity
  8
RACCORDO
100
AcDbSpline
 62
7
  6
CONTINUOUS
 70
0
 71
3
 72
25
 73
21
 74
19
 42
0.0000001
 43
0.0000001
 44
0.0000000001
 12
0.0
 22
-0.6256832202
 32
0.0
 13
-0.6256832202
 23
0.0
 33
0.0
 40
0.0
 40
0.0
 40
0.0
 40
0.0
 40
0.0557950913
 40
0.1116884983
 40
0.1674453284
 40
0.2229447961
 40
0.2785453267
 40
0.3341599831
 40
0.3895856968
 40
0.4448800349
 40
0.5003515979
 40
0.5558124452
 40
0.6110739736
 40
0.6664477952
 40
0.7219917909
 40
0.7775064418
 40
0.8329073853
 40
0.8885533946
 40
0.9443287616
 40
1.0
 40
1.0
 40
1.0
 40
1.0
 10
13.9673361121
 20
5.8190658406
 30
0.0
 10
13.9673361121
 20
5.8074291565
 30
0.0
 10
13.9663240659
 20
5.7841225745
 30
0.0
 10
13.9617742665
 20
5.7494550505
 30
0.0
 10
13.9542342366
 20
5.7153734052
 30
0.0
 10
13.9437758921
 20
5.6821364036
 30
0.0
 10
13.9304749453
 20
5.6499629446
 30
0.0
 10
13.9144230965
 20
5.6190870473
 30
0.0
 10
13.895771764
 20
5.5897842922
 30
0.0
 10
13.8746561739
 20
5.5622421516
 30
0.0
 10
13.8512128476
 20
5.536641662
 30
0.0
 10
13.8256263079
 20
5.5131932413
 30
0.0
 10
13.7981077382
 20
5.4920796329
 30
0.0
 10
13.7688387561
 20
5.4734356094
 30
0.0
 10
13.7380064138
 20
5.4573942613
 30
0.0
 10
13.7058856487
 20
5.4441051414
 30
0.0
 10
13.6727095971
 20
5.4336583013
 30
0.0
 10
13.6386957837
 20
5.426127885
 30
0.0
 10
13.6041016301
 20
5.421584571
 30
0.0
 10
13.5808455089
 20
5.4205740521
 30
0.0
 10
13.5692346557
 20
5.4205740521
 30
0.0
 11
13.9673361121
 21
5.8190658406
 31
0.0
 11
13.9658201624
 21
5.7841887184
 31
0.0
 11
13.9612686457
 21
5.7495146043
 31
0.0
 11
13.9537316952
 21
5.7154523781
 31
0.0
 11
13.9433080226
 21
5.6823286913
 31
0.0
 11
13.9300162233
 21
5.6501797378
 31
0.0
 11
13.9139646441
 21
5.6193059793
 31
0.0
 11
13.8953429454
 21
5.5900508747
 31
0.0
 11
13.8742928983
 21
5.5625949117
 31
0.0
 11
13.8508528528
 21
5.5369983576
 31
0.0
 11
13.825269964
 21
5.5135533207
 31
0.0
 11
13.797837884
 21
5.4925058658
 31
0.0
 11
13.7686164597
 21
5.473891723
 31
0.0
 11
13.7377867997
 21
5.4578511703
 31
0.0
 11
13.7056909484
 21
5.444571571
 31
0.0
 11
13.6726282121
 21
5.4341595781
 31
0.0
 11
13.6386348031
 21
5.4266325659
 31
0.0
 11
13.6040343154
 21
5.4220876232
 31
0.0
 11
13.5692346557
 21
5.4205740521
 31
0.0
  0
SPLINE
  5
326
100
AcDbEntity
  8
RACCORDO
100
AcDbSpline
 62
7
  6
CONTINUOUS
 70
0
 71
3
 72
25
 73
21
 74
19
 42
0.0000001
 43
0.0000001
 44
0.0000000001
 12
0.6261321933
 22
0.0
 32
0.0
 13
-0.0
 23
-0.6261321933
 33
0.0
 40
0.0
 40
0.0
 40
0.0
 40
0.0
 40
0.0557196865
 40
0.1115543222
 40
0.16726891
 40
0.2227412555
 40
0.2783287553
 40
0.3339444681
 40
0.3893836966
 40
0.4447005512
 40
0.5002024237
 40
0.5556989543
 40
0.6109983787
 40
0.6664087318
 40
0.7219853485
 40
0.7775255617
 40
0.8329421921
 40
0.8885915724
 40
0.9443558468
 40
1.0
 40
1.0
 40
1.0
 40
1.0
 10
13.5686071828
 20
7.6205740521
 30
0.0
 10
13.5802364793
 20
7.6205740521
 30
0.0
 10
13.6035317695
 20
7.6195618492
 30
0.0
 10
13.63818736
 20
7.6150113818
 30
0.0
 10
13.6722666549
 20
7.6074686267
 30
0.0
 10
13.7055099568
 20
7.5970043272
 30
0.0
 10
13.7376974015
 20
7.5836931985
 30
0.0
 10
13.768593871
 20
7.5676260968
 30
0.0
 10
13.7979221548
 20
7.5489540385
 30
0.0
 10
13.8254930497
 20
7.5278122666
 30
0.0
 10
13.8511237773
 20
7.5043377216
 30
0.0
 10
13.874602335
 20
7.4787156033
 30
0.0
 10
13.895744287
 20
7.451158435
 30
0.0
 10
13.9144135176
 20
7.4218494878
 30
0.0
 10
13.9304759638
 20
7.3909777184
 30
0.0
 10
13.9437815311
 20
7.3588200722
 30
0.0
 10
13.9542400627
 20
7.3256117665
 30
0.0
 10
13.9617777695
 20
7.291572256
 30
0.0
 10
13.9663247244
 20
7.2569606537
 30
0.0
 10
13.9673361121
 20
7.2336958194
 30
0.0
 10
13.9673361121
 20
7.2220822875
 30
0.0
 11
13.5686071828
 21
7.6205740521
 31
0.0
 11
13.6034621294
 21
7.6190582895
 31
0.0
 11
13.6381243765
 21
7.614506297
 31
0.0
 11
13.6721845787
 21
7.6069667531
 31
0.0
 11
13.7053147582
 21
7.5965372769
 31
0.0
 11
13.7374777567
 21
7.5832354675
 31
0.0
 11
13.768372465
 21
7.5671686205
 31
0.0
 11
13.7976537495
 21
7.5485259501
 31
0.0
 11
13.8251386767
 21
7.5274497084
 31
0.0
 11
13.8507658884
 21
7.5039781637
 31
0.0
 11
13.8742415322
 21
7.4783592434
 31
0.0
 11
13.895317738
 21
7.4508880429
 31
0.0
 11
13.9139573182
 21
7.4216262253
 31
0.0
 11
13.9300192016
 21
7.3907565281
 31
0.0
 11
13.9433153593
 21
7.3586232328
 31
0.0
 11
13.953739027
 21
7.3255277978
 31
0.0
 11
13.9612732502
 21
7.2915082349
 31
0.0
 11
13.9658216762
 21
7.2568899532
 31
0.0
 11
13.9673361121
 21
7.2220822875
 31
0.0
  0
SPLINE
  5
327
100
AcDbEntity
  8
RACCORDO
100
AcDbSpline
 62
253
  6
CONTINUOUS
 70
0
 71
3
 72
10
 73
6
 74
4
 42
0.0000001
 43
0.0000001
 44
0.0000000001
 12
0.0060355961
 22
9.0950346867
 32
0.0
 13
0.0002514557
 23
9.0950366859
 33
0.0
 40
0.0
 40
0.0
 40
0.0
 40
0.0
 40
0.33331324
 40
0.66664763
 40
1.0
 40
1.0
 40
1.0
 40
1.0
 10
-1.5536152599
 20
1.5300740521
 30
0.0
 10
-1.5529446786
 20
2.5405725451
 30
0.0
 10
-1.5518177643
 20
4.5616338003
 30
0.0
 10
-1.550769989
 20
7.5933125362
 30
0.0
 10
-1.5505000027
 20
9.6144927172
 30
0.0
 10
-1.5504720616
 20
10.625110062
 30
0.0
 11
-1.5536152599
 21
1.5300740521
 31
0.0
 11
-1.5519248976
 21
4.5615697275
 31
0.0
 11
-1.5508771399
 21
7.5932580533
 31
0.0
 11
-1.5504720616
 21
10.625110062
 31
0.0
  0
SPLINE
  5
328
100
AcDbEntity
  8
0
100
AcDbSpline
 62
253
  6
CONTINUOUS
 70
0
 71
3
 72
25
 73
21
 74
19
 42
0.0000001
 43
0.0000001
 44
0.0000000001
 12
0.4390248502
 22
-0.23920298
 32
0.0
 13
0.4999607732
 23
-0.0003316614
 33
0.0
 40
0.0
 40
0.0
 40
0.0
 40
0.0
 40
0.0068059321
 40
0.0207337758
 40
0.0417520194
 40
0.0697246347
 40
0.10445486
 40
0.1456934389
 40
0.1931423402
 40
0.246457634
 40
0.3052523085
 40
0.3690992429
 40
0.4375344016
 40
0.5100602612
 40
0.5861494626
 40
0.6652486693
 40
0.7467826077
 40
0.8301582634
 40
0.9147692045
 40
1.0
 40
1.0
 40
1.0
 40
1.0
 10
-1.5536152599
 20
1.5300740521
 30
0.0
 10
-1.5526192688
 20
1.5295313857
 30
0.0
 10
-1.549076972
 20
1.5291293333
 30
0.0
 10
-1.5422554626
 20
1.5282542023
 30
0.0
 10
-1.5317458631
 20
1.5275801842
 30
0.0
 10
-1.5178336562
 20
1.5267997439
 30
0.0
 10
-1.5005191804
 20
1.5260766723
 30
0.0
 10
-1.4799659438
 20
1.525361853
 30
0.0
 10
-1.4563094619
 20
1.5246832362
 30
0.0
 10
-1.4297263801
 20
1.5240397444
 30
0.0
 10
-1.4004085395
 20
1.5234389894
 30
0.0
 10
-1.3685697042
 20
1.5228850168
 30
0.0
 10
-1.3344413746
 20
1.5223823448
 30
0.0
 10
-1.2982719098
 20
1.5219347454
 30
0.0
 10
-1.2603244695
 20
1.5215456226
 30
0.0
 10
-1.22087517
 20
1.5212178924
 30
0.0
 10
-1.1802110532
 20
1.5209540056
 30
0.0
 10
-1.1386280025
 20
1.5207559265
 30
0.0
 10
-1.0964285901
 20
1.5206251261
 30
0.0
 10
-1.0681238646
 20
1.5205834747
 30
0.0
 10
-1.0539198464
 20
1.5205740521
 30
0.0
 11
-1.5536152599
 21
1.5300740521
 31
0.0
 11
-1.5503104046
 21
1.5292639302
 31
0.0
 11
-1.5433936251
 21
1.5284597031
 31
0.0
 11
-1.5329152504
 21
1.5276672227
 31
0.0
 11
-1.5189515252
 21
1.5268922552
 31
0.0
 11
-1.5016040548
 21
1.5261404397
 31
0.0
 11
-1.4809990659
 21
1.5254172466
 31
0.0
 11
-1.4572864881
 21
1.5247279381
 31
0.0
 11
-1.430638863
 21
1.5240775301
 31
0.0
 11
-1.4012500888
 21
1.5234707549
 31
0.0
 11
-1.3693340093
 21
1.5229120278
 31
0.0
 11
-1.3351228578
 21
1.5224054144
 31
0.0
 11
-1.2988655675
 21
1.5219546008
 31
0.0
 11
-1.2608259602
 21
1.5215628673
 31
0.0
 11
-1.2212808262
 21
1.5212330645
 31
0.0
 11
-1.1805179108
 21
1.520967592
 31
0.0
 11
-1.1388338203
 21
1.5207683815
 31
0.0
 11
-1.0965318639
 21
1.5206368826
 31
0.0
 11
-1.0539198464
 21
1.5205740521
 31
0.0
  0
SPLINE
  5
329
100
AcDbEntity
  8
RACCORDO
100
AcDbSpline
 62
253
  6
CONTINUOUS
 70
0
 71
3
 72
10
 73
6
 74
4
 42
0.0000001
 43
0.0000001
 44
0.0000000001
 12
0.0060343306
 22
9.1022302253
 32
0.0
 13
0.0002526151
 23
9.102232222
 33
0.0
 40
0.0
 40
0.0
 40
0.0
 40
0.0
 40
0.3333130829
 40
0.6666473215
 40
1.0
 40
1.0
 40
1.0
 40
1.0
 10
-1.0539198464
 20
1.5205740521
 30
0.0
 10
-1.053249406
 20
2.5318715247
 30
0.0
 10
-1.0521224305
 20
4.5545308065
 30
0.0
 10
-1.0510758106
 20
7.5886080546
 30
0.0
 10
-1.0508028736
 20
9.611387768
 30
0.0
 10
-1.0507748036
 20
10.6228055986
 30
0.0
 11
-1.0539198464
 21
1.5205740521
 31
0.0
 11
-1.0522297717
 21
4.554466666
 31
0.0
 11
-1.0511820317
 21
7.5885521328
 31
0.0
 11
-1.0507748036
 21
10.6228055986
 31
0.0
  0
SPLINE
  5
32A
100
AcDbEntity
  8
RACCORDO
100
AcDbSpline
 62
253
  6
CONTINUOUS
 70
0
 71
3
 72
25
 73
21
 74
19
 42
0.0000001
 43
0.0000001
 44
0.0000000001
 12
-0.4997136625
 22
0.0000069763
 32
0.0
 13
-0.4951377735
 23
0.0674709552
 33
0.0
 40
0.0
 40
0.0
 40
0.0
 40
0.0
 40
0.085271627
 40
0.1699228858
 40
0.2533392761
 40
0.334911862
 40
0.4140477186
 40
0.4901712172
 40
0.5627281194
 40
0.6311904874
 40
0.6950603256
 40
0.7538728639
 40
0.8072001514
 40
0.8546543022
 40
0.8958900524
 40
0.9306072984
 40
0.958553747
 40
0.9795266151
 40
0.9933739673
 40
1.0
 40
1.0
 40
1.0
 40
1.0
 10
-1.0507748036
 20
10.6228055981
 30
0.0
 10
-1.0649786026
 20
10.6228057963
 30
0.0
 10
-1.0932828654
 20
10.6228119216
 30
0.0
 10
-1.1354818909
 20
10.622838278
 30
0.0
 10
-1.1770647483
 20
10.6228815954
 30
0.0
 10
-1.2177288769
 20
10.6229415471
 30
0.0
 10
-1.2571781904
 20
10.6230176879
 30
0.0
 10
-1.2951257133
 20
10.6231094438
 30
0.0
 10
-1.3312952937
 20
10.623216126
 30
0.0
 10
-1.3654237118
 20
10.6233369168
 30
0.0
 10
-1.3972626438
 20
10.6234709152
 30
0.0
 10
-1.4265804351
 20
10.6236169943
 30
0.0
 10
-1.4531637152
 20
10.6237742601
 30
0.0
 10
-1.4768191845
 20
10.6239405473
 30
0.0
 10
-1.4973743038
 20
10.624117022
 30
0.0
 10
-1.5146806729
 20
10.6242941181
 30
0.0
 10
-1.5286091634
 20
10.6244913214
 30
0.0
 10
-1.5390669225
 20
10.6246491507
 30
0.0
 10
-1.54595995
 20
10.6248850942
 30
0.0
 10
-1.5493784619
 20
10.6249610328
 30
0.0
 10
-1.5504720616
 20
10.6251100544
 30
0.0
 11
-1.0507748036
 21
10.6228055981
 31
0.0
 11
-1.0933861997
 21
10.6228148533
 31
0.0
 11
-1.135687582
 21
10.622841369
 31
0.0
 11
-1.1773718691
 21
10.6228849543
 31
0.0
 11
-1.2181347601
 21
10.6229452889
 31
0.0
 11
-1.2576799545
 21
10.6230219343
 31
0.0
 11
-1.2957197946
 21
10.623114331
 31
0.0
 11
-1.3319773107
 21
10.6232218052
 31
0.0
 11
-1.3661886747
 21
10.6233435731
 31
0.0
 11
-1.3981050192
 21
10.6234787472
 31
0.0
 11
-1.4274940775
 21
10.623626342
 31
0.0
 11
-1.4541419776
 21
10.6237852814
 31
0.0
 11
-1.477854862
 21
10.6239544078
 31
0.0
 11
-1.4984601603
 21
10.6241324884
 31
0.0
 11
-1.5158078481
 21
10.6243182259
 31
0.0
 11
-1.5297717499
 21
10.6245102656
 31
0.0
 11
-1.5402503279
 21
10.6247072164
 31
0.0
 11
-1.5471671362
 21
10.6249076253
 31
0.0
 11
-1.5504720616
 21
10.6251100544
 31
0.0
  0
SPLINE
  5
32B
100
AcDbEntity
  8
0
100
AcDbSpline
 62
253
  6
CONTINUOUS
 70
0
 71
3
 72
25
 73
21
 74
19
 42
0.0000001
 43
0.0000001
 44
0.0000000001
 12
0.1156726251
 22
-0.5000143338
 32
0.0
 13
0.5132129288
 23
-0.0026419615
 33
0.0
 40
0.0
 40
0.0
 40
0.0
 40
0.0
 40
0.0139486785
 40
0.0321748852
 40
0.0558987827
 40
0.0855593295
 40
0.1212490579
 40
0.1628831388
 40
0.2102678154
 40
0.263131883
 40
0.3211434014
 40
0.3839199748
 40
0.4510360341
 40
0.5220286665
 40
0.5964027304
 40
0.6736356257
 40
0.7531819132
 40
0.8344778801
 40
0.9169460991
 40
1.0
 40
1.0
 40
1.0
 40
1.0
 10
-1.5879781138
 20
-10.1122812763
 30
0.0
 10
-1.587440287
 20
-10.1146061227
 30
0.0
 10
-1.5845609399
 20
-10.119555666
 30
0.0
 10
-1.5771977904
 20
-10.125767013
 30
0.0
 10
-1.566524241
 20
-10.1318703704
 30
0.0
 10
-1.5524744998
 20
-10.137825359
 30
0.0
 10
-1.5351032905
 20
-10.1436299377
 30
0.0
 10
-1.5145073147
 20
-10.1492265573
 30
0.0
 10
-1.4908251674
 20
-10.1545732961
 30
0.0
 10
-1.4642223295
 20
-10.1596258814
 30
0.0
 10
-1.4348889944
 20
-10.1643449922
 30
0.0
 10
-1.4030365465
 20
-10.1686940253
 30
0.0
 10
-1.3688955708
 20
-10.1726398348
 30
0.0
 10
-1.3327137579
 20
-10.1761525759
 30
0.0
 10
-1.2947539367
 20
-10.1792058695
 30
0.0
 10
-1.2552920465
 20
-10.1817768932
 30
0.0
 10
-1.2146150776
 20
-10.1838464993
 30
0.0
 10
-1.1730189051
 20
-10.185399316
 30
0.0
 10
-1.1308062525
 20
-10.1864238356
 30
0.0
 10
-1.1024908122
 20
-10.1867492258
 30
0.0
 10
-1.0882827003
 20
-10.1868223675
 30
0.0
 11
-1.5879781138
 21
-10.1122812763
 31
0.0
 11
-1.5846883535
 21
-10.1186393415
 31
0.0
 11
-1.5777847542
 21
-10.1249511199
 31
0.0
 11
-1.5673175741
 21
-10.1311706617
 31
0.0
 11
-1.5533630145
 21
-10.1372526885
 31
0.0
 11
-1.5360226646
 21
-10.1431529232
 31
0.0
 11
-1.5154227626
 21
-10.1488284119
 31
0.0
 11
-1.4917132757
 21
-10.154237837
 31
0.0
 11
-1.4650668096
 21
-10.1593418179
 31
0.0
 11
-1.4356773506
 21
-10.1641031975
 31
0.0
 11
-1.4037588545
 21
-10.1684873128
 31
0.0
 11
-1.3695436882
 21
-10.1724622476
 31
0.0
 11
-1.3332809386
 21
-10.1759990642
 31
0.0
 11
-1.2952345989
 21
-10.1790720145
 31
0.0
 11
-1.255681647
 21
-10.1816587274
 31
0.0
 11
-1.2149100287
 21
-10.1837403717
 31
0.0
 11
-1.173216562
 21
-10.1853017929
 31
0.0
 11
-1.1309047757
 21
-10.1863316239
 31
0.0
 11
-1.0882827003
 21
-10.1868223675
 31
0.0
  0
SPLINE
  5
32C
100
AcDbEntity
  8
0
100
AcDbSpline
 62
253
  6
CONTINUOUS
 70
0
 71
3
 72
25
 73
21
 74
19
 42
0.0000001
 43
0.0000001
 44
0.0000000001
 12
0.0014329144
 22
-0.7839168072
 32
0.0
 13
0.7839168112
 23
-0.0014307322
 33
0.0
 40
0.0
 40
0.0
 40
0.0
 40
0.0
 40
0.0555066409
 40
0.1110226213
 40
0.1665481587
 40
0.2220831809
 40
0.2776273283
 40
0.3331799649
 40
0.3887401978
 40
0.444306904
 40
0.4998787649
 40
0.555454306
 40
0.6110319415
 40
0.6666100223
 40
0.7221868858
 40
0.7777609063
 40
0.833330544
 40
0.8888943916
 40
0.9444512168
 40
1.0
 40
1.0
 40
1.0
 40
1.0
 10
-1.6043295695
 20
-10.5370549525
 30
0.0
 10
-1.6043030574
 20
-10.5515591487
 30
0.0
 10
-1.6029833675
 20
-10.5805835684
 30
0.0
 10
-1.5972200728
 20
-10.6237732648
 30
0.0
 10
-1.5877166186
 20
-10.6663078276
 30
0.0
 10
-1.5745452005
 20
-10.7078599598
 30
0.0
 10
-1.5578058515
 20
-10.7481153381
 30
0.0
 10
-1.5376256938
 20
-10.7867680155
 30
0.0
 10
-1.5141579684
 20
-10.8235246144
 30
0.0
 10
-1.4875808715
 20
-10.8581060507
 30
0.0
 10
-1.4580962012
 20
-10.8902497859
 30
0.0
 10
-1.4259278243
 20
-10.9197117818
 30
0.0
 10
-1.3913199797
 20
-10.9462683617
 30
0.0
 10
-1.3545354154
 20
-10.9697179043
 30
0.0
 10
-1.3158534307
 20
-10.9898823738
 30
0.0
 10
-1.2755676231
 20
-11.0066086707
 30
0.0
 10
-1.2339841614
 20
-11.0197697932
 30
0.0
 10
-1.1914175959
 20
-11.0292658043
 30
0.0
 10
-1.1481954386
 20
-11.0350245793
 30
0.0
 10
-1.1191493643
 20
-11.036343228
 30
0.0
 10
-1.104634156
 20
-11.0363697198
 30
0.0
 11
-1.6043295695
 21
-10.5370549525
 31
0.0
 11
-1.60235304
 21
-10.5805226995
 31
0.0
 11
-1.5965973679
 21
-10.6236603993
 31
0.0
 11
-1.5871062555
 21
-10.6661405104
 31
0.0
 11
-1.573951768
 21
-10.7076404845
 31
0.0
 11
-1.5572337866
 21
-10.7478452154
 31
0.0
 11
-1.5370792495
 21
-10.7864494315
 31
0.0
 11
-1.5136411887
 21
-10.8231600138
 31
0.0
 11
-1.4870975676
 21
-10.8576982216
 31
0.0
 11
-1.4576499299
 21
-10.8898018087
 31
0.0
 11
-1.4255218694
 21
-10.9192270151
 31
0.0
 11
-1.390957332
 21
-10.9457504172
 31
0.0
 11
-1.3542187637
 21
-10.9691706247
 31
0.0
 11
-1.3155851178
 21
-10.9893098098
 31
0.0
 11
-1.2753497367
 21
-11.0060150571
 31
0.0
 11
-1.2338181247
 21
-11.0191595247
 31
0.0
 11
-1.1913056282
 21
-11.0286434078
 31
0.0
 11
-1.1481350416
 21
-11.0343946959
 31
0.0
 11
-1.104634156
 21
-11.0363697198
 31
0.0
  0
SPLINE
  5
32D
100
AcDbEntity
  8
0
100
AcDbSpline
 62
253
  6
CONTINUOUS
 70
0
 71
3
 72
26
 73
22
 74
20
 42
0.0000001
 43
0.0000001
 44
0.0000000001
 12
0.2685929374
 22
0.8063832935
 32
0.0
 13
0.0022369592
 23
0.8499359847
 33
0.0
 40
0.0
 40
0.0
 40
0.0
 40
0.0
 40
0.0076246917
 40
0.0212415454
 40
0.0408201379
 40
0.0662705183
 40
0.097465855
 40
0.134246857
 40
0.176424113
 40
0.2237795972
 40
0.2760683609
 40
0.3330193498
 40
0.3943374779
 40
0.4597046572
 40
0.5287822035
 40
0.6012118306
 40
0.6766179093
 40
0.7546093822
 40
0.8347824281
 40
0.9167204116
 40
1.0
 40
1.0
 40
1.0
 40
1.0
 10
-1.104634156
 20
-11.0363697198
 30
0.0
 10
-1.1039515099
 20
-11.0343202452
 30
0.0
 10
-1.1031223972
 20
-11.0283111591
 30
0.0
 10
-1.1019026666
 20
-11.0168402173
 30
0.0
 10
-1.1007698677
 20
-11.0002466684
 30
0.0
 10
-1.099589786
 20
-10.978689552
 30
0.0
 10
-1.0984487871
 20
-10.95224238
 30
0.0
 10
-1.0973307975
 20
-10.9210551039
 30
0.0
 10
-1.0962533946
 20
-10.8852845758
 30
0.0
 10
-1.0952203697
 20
-10.8451179721
 30
0.0
 10
-1.0942389313
 20
-10.8007632598
 30
0.0
 10
-1.0933143799
 20
-10.7524507926
 30
0.0
 10
-1.0924519686
 20
-10.7004313436
 30
0.0
 10
-1.0916563884
 20
-10.6449748534
 30
0.0
 10
-1.0909319507
 20
-10.5863691074
 30
0.0
 10
-1.0902825421
 20
-10.5249181697
 30
0.0
 10
-1.0897116181
 20
-10.4609409203
 30
0.0
 10
-1.0892222287
 20
-10.3947691248
 30
0.0
 10
-1.0888169249
 20
-10.3267461552
 30
0.0
 10
-1.088497917
 20
-10.257224521
 30
0.0
 10
-1.088344798
 20
-10.2104164739
 30
0.0
 10
-1.0882827003
 20
-10.1868223675
 30
0.0
 11
-1.104634156
 21
-11.0363697198
 31
0.0
 11
-1.1033813349
 21
-11.030011449
 31
0.0
 11
-1.1021398177
 21
-11.0185047379
 31
0.0
 11
-1.1009159267
 21
-11.0019091987
 31
0.0
 11
-1.0997161066
 21
-10.9803112304
 31
0.0
 11
-1.0985465431
 21
-10.9538229072
 31
0.0
 11
-1.097413319
 21
-10.9225818481
 31
0.0
 11
-1.0963223114
 21
-10.8867503621
 31
0.0
 11
-1.0952791832
 21
-10.8465146121
 31
0.0
 11
-1.0942893406
 21
-10.8020833808
 31
0.0
 11
-1.0933579203
 21
-10.7536874805
 31
0.0
 11
-1.0924897503
 21
-10.701578048
 31
0.0
 11
-1.0916893342
 21
-10.6460257037
 31
0.0
 11
-1.0909608179
 21
-10.587318528
 31
0.0
 11
-1.0903079795
 21
-10.52576123
 31
0.0
 11
-1.0897342007
 21
-10.4616732368
 31
0.0
 11
-1.08924246
 21
-10.3953870719
 31
0.0
 11
-1.0888352902
 21
-10.3272460956
 31
0.0
 11
-1.0885148277
 21
-10.257604551
 31
0.0
 11
-1.0882827003
 21
-10.1868223675
 31
0.0
  0
SPLINE
  5
32E
100
AcDbEntity
  8
0
100
AcDbSpline
 62
253
  6
CONTINUOUS
 70
0
 71
3
 72
26
 73
22
 74
20
 42
0.0000001
 43
0.0000001
 44
0.0000000001
 12
0.2359522709
 22
0.3541440557
 32
0.0
 13
0.0022405098
 23
0.4255425554
 33
0.0
 40
0.0
 40
0.0
 40
0.0
 40
0.0
 40
0.0080280304
 40
0.0218584245
 40
0.0415678431
 40
0.0671002974
 40
0.0983438593
 40
0.135147229
 40
0.1773258644
 40
0.2246650247
 40
0.2769221631
 40
0.333828105
 40
0.3950893218
 40
0.4603890646
 40
0.5293898417
 40
0.6017344933
 40
0.6770484607
 40
0.7549417191
 40
0.8350114612
 40
0.9168420376
 40
1.0
 40
1.0
 40
1.0
 40
1.0
 10
-1.6043295695
 20
-10.5370549525
 30
0.0
 10
-1.6036981588
 20
-10.5361072594
 30
0.0
 10
-1.6028025494
 20
-10.5330660048
 30
0.0
 10
-1.6016163855
 20
-10.5273282577
 30
0.0
 10
-1.6004614784
 20
-10.5190059438
 30
0.0
 10
-1.5992883352
 20
-10.5082273178
 30
0.0
 10
-1.5981440721
 20
-10.4949987881
 30
0.0
 10
-1.5970268429
 20
-10.479403955
 30
0.0
 10
-1.5959489889
 20
-10.4615171666
 30
0.0
 10
-1.5949159828
 20
-10.4414329193
 30
0.0
 10
-1.5939344542
 20
-10.4192546746
 30
0.0
 10
-1.5930098697
 20
-10.3950976525
 30
0.0
 10
-1.5921474233
 20
-10.3690871603
 30
0.0
 10
-1.5913518192
 20
-10.3413581599
 30
0.0
 10
-1.5906273633
 20
-10.3120545333
 30
0.0
 10
-1.5899779394
 20
-10.2813283119
 30
0.0
 10
-1.5894070108
 20
-10.2493389354
 30
0.0
 10
-1.5889176067
 20
-10.2162522889
 30
0.0
 10
-1.5885123198
 20
-10.1822400633
 30
0.0
 10
-1.5881932987
 20
-10.1474800966
 30
0.0
 10
-1.5880402192
 20
-10.1240770269
 30
0.0
 10
-1.5879781138
 20
-10.1122812763
 30
0.0
 11
-1.6043295695
 21
-10.5370549525
 31
0.0
 11
-1.6030769628
 21
-10.5338765581
 31
0.0
 11
-1.6018353883
 21
-10.5281235036
 31
0.0
 11
-1.600611494
 21
-10.519825968
 31
0.0
 11
-1.5994116467
 21
-10.509027124
 31
0.0
 11
-1.5982420648
 21
-10.4957830169
 31
0.0
 11
-1.5971088195
 21
-10.4801624534
 31
0.0
 11
-1.5960177924
 21
-10.4622465898
 31
0.0
 11
-1.5949746452
 21
-10.4421285095
 31
0.0
 11
-1.593984785
 21
-10.4199126064
 31
0.0
 11
-1.5930533486
 21
-10.3957142905
 31
0.0
 11
-1.5921851642
 21
-10.3696591348
 31
0.0
 11
-1.5913847357
 21
-10.3418824607
 31
0.0
 11
-1.5906562097
 21
-10.3125283257
 31
0.0
 11
-1.5900033638
 21
-10.281749094
 31
0.0
 11
-1.5894295816
 21
-10.2497044882
 31
0.0
 11
-1.5889378366
 21
-10.2165607803
 31
0.0
 11
-1.5885306736
 21
-10.1824896581
 31
0.0
 11
-1.5882102059
 21
-10.1476682575
 31
0.0
 11
-1.5879781138
 21
-10.1122812763
 31
0.0
  0
SPLINE
  5
32F
100
AcDbEntity
  8
RACCORDO
100
AcDbSpline
 62
253
  6
CONTINUOUS
 70
0
 71
3
 72
10
 73
6
 74
4
 42
0.0000001
 43
0.0000001
 44
0.0000000001
 12
0.0002526151
 22
-9.102232222
 32
0.0
 13
0.0060343306
 23
-9.1022302253
 33
0.0
 40
0.0
 40
0.0
 40
0.0
 40
0.0
 40
0.3333526785
 40
0.6666869171
 40
1.0
 40
1.0
 40
1.0
 40
1.0
 10
19.8854470279
 20
10.6228055986
 30
0.0
 10
19.8854750978
 20
9.611387768
 30
0.0
 10
19.8857480349
 20
7.5886080546
 30
0.0
 10
19.8867946547
 20
4.5545308065
 30
0.0
 10
19.8879216302
 20
2.5318715247
 30
0.0
 10
19.8885920707
 20
1.5205740521
 30
0.0
 11
19.8854470279
 21
10.6228055986
 31
0.0
 11
19.885854256
 21
7.5885521328
 31
0.0
 11
19.886901996
 21
4.554466666
 31
0.0
 11
19.8885920707
 21
1.5205740521
 31
0.0
  0
SPLINE
  5
330
100
AcDbEntity
  8
RACCORDO
100
AcDbSpline
 62
253
  6
CONTINUOUS
 70
0
 71
3
 72
25
 73
21
 74
19
 42
0.0000001
 43
0.0000001
 44
0.0000000001
 12
-0.2498751414
 22
0.0000000203
 32
0.0
 13
-0.2424238368
 23
0.0605662416
 33
0.0
 40
0.0
 40
0.0
 40
0.0
 40
0.0
 40
0.0852547325
 40
0.169900986
 40
0.2533120723
 40
0.3348797757
 40
0.4140110861
 40
0.4901304632
 40
0.5626837212
 40
0.6311429841
 40
0.6950103138
 40
0.7538209474
 40
0.8071470326
 40
0.8546008355
 40
0.8958373009
 40
0.9305566248
 40
0.958507049
 40
0.9794866968
 40
0.9933463674
 40
1.0
 40
1.0
 40
1.0
 40
1.0
 10
-1.050776634
 20
10.8729949639
 30
0.0
 10
-1.0578776468
 20
10.8729949644
 30
0.0
 10
-1.0720289917
 20
10.8730002156
 30
0.0
 10
-1.093127777
 20
10.8730238227
 30
0.0
 10
-1.1139194399
 20
10.8730629748
 30
0.0
 10
-1.1342517179
 20
10.8731173807
 30
0.0
 10
-1.1539766084
 20
10.8731866336
 30
0.0
 10
-1.1729506082
 20
10.8732702147
 30
0.0
 10
-1.1910356373
 20
10.8733674968
 30
0.0
 10
-1.2081000799
 20
10.8734777364
 30
0.0
 10
-1.2240197578
 20
10.8736001111
 30
0.0
 10
-1.238678846
 20
10.8737335978
 30
0.0
 10
-1.2519706079
 20
10.873877366
 30
0.0
 10
-1.2637985391
 20
10.8740294848
 30
0.0
 10
-1.274075946
 20
10.8741908756
 30
0.0
 10
-1.2827299384
 20
10.874353222
 30
0.0
 10
-1.2896924272
 20
10.8745331406
 30
0.0
 10
-1.2949263765
 20
10.8746793273
 30
0.0
 10
-1.2983650727
 20
10.8748924057
 30
0.0
 10
-1.3000866216
 20
10.8749661976
 30
0.0
 10
-1.3006242879
 20
10.8751005261
 30
0.0
 11
-1.050776634
 21
10.8729949639
 31
0.0
 11
-1.0720796709
 21
10.873002899
 31
0.0
 11
-1.0932306521
 21
10.8730266515
 31
0.0
 11
-1.1140729718
 21
10.8730660486
 31
0.0
 11
-1.1344546397
 21
10.8731208035
 31
0.0
 11
-1.1542274642
 21
10.8731905179
 31
0.0
 11
-1.1732476181
 21
10.8732746851
 31
0.0
 11
-1.1913766088
 21
10.8733726922
 31
0.0
 11
-1.2084825158
 21
10.873483826
 31
0.0
 11
-1.2244408963
 21
10.8736072783
 31
0.0
 11
-1.2391355927
 21
10.8737421504
 31
0.0
 11
-1.2524596635
 21
10.8738874608
 31
0.0
 11
-1.2643161801
 21
10.8740421525
 31
0.0
 11
-1.2746188592
 21
10.8742050998
 31
0.0
 11
-1.2832926891
 21
10.8743751163
 31
0.0
 11
-1.2902745911
 21
10.8745509651
 31
0.0
 11
-1.2955137786
 21
10.8747313677
 31
0.0
 11
-1.2989720934
 21
10.8749150085
 31
0.0
 11
-1.3006242879
 21
10.8751005261
 31
0.0
  0
SPLINE
  5
331
100
AcDbEntity
  8
RACCORDO
100
AcDbSpline
 62
253
  6
CONTINUOUS
 70
0
 71
3
 72
25
 73
21
 74
19
 42
0.0000001
 43
0.0000001
 44
0.0000000001
 12
-0.2424238368
 22
-0.0605662415
 32
0.0
 13
-0.2498751414
 23
-0.0000000203
 33
0.0
 40
0.0
 40
0.0
 40
0.0
 40
0.0
 40
0.0066536326
 40
0.0205133032
 40
0.041492951
 40
0.0694433752
 40
0.1041626991
 40
0.1453991645
 40
0.1928529674
 40
0.2461790526
 40
0.3049896861
 40
0.3688570158
 40
0.4373162788
 40
0.5098695368
 40
0.5859889138
 40
0.6651202243
 40
0.7466879277
 40
0.830099014
 40
0.9147452674
 40
1.0
 40
1.0
 40
1.0
 40
1.0
 10
20.1352965122
 20
10.8751005261
 30
0.0
 10
20.1347588458
 20
10.8749661976
 30
0.0
 10
20.1330372969
 20
10.8748924057
 30
0.0
 10
20.1295986007
 20
10.8746793273
 30
0.0
 10
20.1243646514
 20
10.8745331406
 30
0.0
 10
20.1174021626
 20
10.874353222
 30
0.0
 10
20.1087481703
 20
10.8741908756
 30
0.0
 10
20.0984707634
 20
10.8740294848
 30
0.0
 10
20.0866428321
 20
10.873877366
 30
0.0
 10
20.0733510703
 20
10.8737335978
 30
0.0
 10
20.058691982
 20
10.8736001111
 30
0.0
 10
20.0427723041
 20
10.8734777364
 30
0.0
 10
20.0257078615
 20
10.8733674968
 30
0.0
 10
20.0076228324
 20
10.8732702147
 30
0.0
 10
19.9886488327
 20
10.8731866336
 30
0.0
 10
19.9689239422
 20
10.8731173807
 30
0.0
 10
19.9485916641
 20
10.8730629748
 30
0.0
 10
19.9278000012
 20
10.8730238227
 30
0.0
 10
19.9067012159
 20
10.8730002156
 30
0.0
 10
19.892549871
 20
10.8729949644
 30
0.0
 10
19.8854488583
 20
10.8729949639
 30
0.0
 11
20.1352965122
 21
10.8751005261
 31
0.0
 11
20.1336443176
 21
10.8749150085
 31
0.0
 11
20.1301860028
 21
10.8747313677
 31
0.0
 11
20.1249468154
 21
10.8745509651
 31
0.0
 11
20.1179649133
 21
10.8743751163
 31
0.0
 11
20.1092910835
 21
10.8742050998
 31
0.0
 11
20.0989884043
 21
10.8740421525
 31
0.0
 11
20.0871318877
 21
10.8738874608
 31
0.0
 11
20.073807817
 21
10.8737421504
 31
0.0
 11
20.0591131206
 21
10.8736072783
 31
0.0
 11
20.04315474
 21
10.873483826
 31
0.0
 11
20.026048833
 21
10.8733726922
 31
0.0
 11
20.0079198423
 21
10.8732746851
 31
0.0
 11
19.9888996885
 21
10.8731905179
 31
0.0
 11
19.969126864
 21
10.8731208035
 31
0.0
 11
19.9487451961
 21
10.8730660486
 31
0.0
 11
19.9279028763
 21
10.8730266515
 31
0.0
 11
19.9067518951
 21
10.873002899
 31
0.0
 11
19.8854488583
 21
10.8729949639
 31
0.0
  0
SPLINE
  5
332
100
AcDbEntity
  8
RACCORDO
100
AcDbSpline
 62
253
  6
CONTINUOUS
 70
0
 71
3
 72
10
 73
6
 74
4
 42
0.0000001
 43
0.0000001
 44
0.0000000001
 12
0.0002514557
 22
-9.0950366859
 32
0.0
 13
0.0060355961
 23
-9.0950346867
 33
0.0
 40
0.0
 40
0.0
 40
0.0
 40
0.0
 40
0.33335237
 40
0.66668676
 40
1.0
 40
1.0
 40
1.0
 40
1.0
 10
20.3851442859
 20
10.625110062
 30
0.0
 10
20.385172227
 20
9.6144927172
 30
0.0
 10
20.3854422132
 20
7.5933125362
 30
0.0
 10
20.3864899885
 20
4.5616338003
 30
0.0
 10
20.3876169028
 20
2.5405725451
 30
0.0
 10
20.3882874842
 20
1.5300740521
 30
0.0
 11
20.3851442859
 21
10.625110062
 31
0.0
 11
20.3855493642
 21
7.5932580533
 31
0.0
 11
20.3865971218
 21
4.5615697275
 31
0.0
 11
20.3882874842
 21
1.5300740521
 31
0.0
  0
SPLINE
  5
333
100
AcDbEntity
  8
RACCORDO
100
AcDbSpline
 62
253
  6
CONTINUOUS
 70
0
 71
3
 72
25
 73
21
 74
19
 42
0.0000001
 43
0.0000001
 44
0.0000000001
 12
-0.4951377735
 22
-0.0674709553
 32
0.0
 13
-0.4997136625
 23
-0.0000069763
 33
0.0
 40
0.0
 40
0.0
 40
0.0
 40
0.0
 40
0.0066260327
 40
0.0204733849
 40
0.041446253
 40
0.0693927016
 40
0.1041099476
 40
0.1453456978
 40
0.1927998486
 40
0.2461271361
 40
0.3049396744
 40
0.3688095125
 40
0.4372718806
 40
0.5098287828
 40
0.5859522814
 40
0.665088138
 40
0.7466607239
 40
0.8300771141
 40
0.914728373
 40
1.0
 40
1.0
 40
1.0
 40
1.0
 10
20.3851442859
 20
10.6251100544
 30
0.0
 10
20.3840506862
 20
10.6249610328
 30
0.0
 10
20.3806321742
 20
10.6248850942
 30
0.0
 10
20.3737391467
 20
10.6246491507
 30
0.0
 10
20.3632813876
 20
10.6244913214
 30
0.0
 10
20.3493528971
 20
10.6242941181
 30
0.0
 10
20.332046528
 20
10.624117022
 30
0.0
 10
20.3114914087
 20
10.6239405473
 30
0.0
 10
20.2878359394
 20
10.6237742601
 30
0.0
 10
20.2612526593
 20
10.6236169943
 30
0.0
 10
20.2319348681
 20
10.6234709152
 30
0.0
 10
20.200095936
 20
10.6233369168
 30
0.0
 10
20.165967518
 20
10.623216126
 30
0.0
 10
20.1297979375
 20
10.6231094438
 30
0.0
 10
20.0918504146
 20
10.6230176879
 30
0.0
 10
20.0524011011
 20
10.6229415471
 30
0.0
 10
20.0117369725
 20
10.6228815954
 30
0.0
 10
19.9701541151
 20
10.622838278
 30
0.0
 10
19.9279550897
 20
10.6228119216
 30
0.0
 10
19.8996508269
 20
10.6228057963
 30
0.0
 10
19.8854470279
 20
10.6228055981
 30
0.0
 11
20.3851442859
 21
10.6251100544
 31
0.0
 11
20.3818393605
 21
10.6249076253
 31
0.0
 11
20.3749225521
 21
10.6247072164
 31
0.0
 11
20.3644439741
 21
10.6245102656
 31
0.0
 11
20.3504800724
 21
10.6243182259
 31
0.0
 11
20.3331323845
 21
10.6241324884
 31
0.0
 11
20.3125270863
 21
10.6239544078
 31
0.0
 11
20.2888142019
 21
10.6237852814
 31
0.0
 11
20.2621663017
 21
10.623626342
 31
0.0
 11
20.2327772434
 21
10.6234787472
 31
0.0
 11
20.2008608989
 21
10.6233435731
 31
0.0
 11
20.1666495349
 21
10.6232218052
 31
0.0
 11
20.1303920189
 21
10.623114331
 31
0.0
 11
20.0923521788
 21
10.6230219343
 31
0.0
 11
20.0528069843
 21
10.6229452889
 31
0.0
 11
20.0120440933
 21
10.6228849543
 31
0.0
 11
19.9703598062
 21
10.622841369
 31
0.0
 11
19.9280584239
 21
10.6228148533
 31
0.0
 11
19.8854470279
 21
10.6228055981
 31
0.0
  0
SPLINE
  5
334
100
AcDbEntity
  8
0
100
AcDbSpline
 62
253
  6
CONTINUOUS
 70
0
 71
3
 72
25
 73
21
 74
19
 42
0.0000001
 43
0.0000001
 44
0.0000000001
 12
-0.4390248508
 22
-0.2392029787
 32
0.0
 13
-0.4999607732
 23
-0.0003316614
 33
0.0
 40
0.0
 40
0.0
 40
0.0
 40
0.0
 40
0.0068059321
 40
0.0207337759
 40
0.0417520194
 40
0.0697246348
 40
0.1044548601
 40
0.145693439
 40
0.1931423402
 40
0.246457634
 40
0.3052523086
 40
0.369099243
 40
0.4375344017
 40
0.5100602612
 40
0.5861494627
 40
0.6652486694
 40
0.7467826077
 40
0.8301582634
 40
0.9147692045
 40
1.0
 40
1.0
 40
1.0
 40
1.0
 10
20.3882874842
 20
1.5300740521
 30
0.0
 10
20.3872914931
 20
1.5295313857
 30
0.0
 10
20.3837491962
 20
1.5291293333
 30
0.0
 10
20.3769276868
 20
1.5282542023
 30
0.0
 10
20.3664180873
 20
1.5275801842
 30
0.0
 10
20.3525058805
 20
1.5267997439
 30
0.0
 10
20.3351914046
 20
1.5260766723
 30
0.0
 10
20.314638168
 20
1.525361853
 30
0.0
 10
20.2909816861
 20
1.5246832362
 30
0.0
 10
20.2643986043
 20
1.5240397444
 30
0.0
 10
20.2350807637
 20
1.5234389894
 30
0.0
 10
20.2032419284
 20
1.5228850168
 30
0.0
 10
20.1691135988
 20
1.5223823448
 30
0.0
 10
20.1329441341
 20
1.5219347454
 30
0.0
 10
20.0949966937
 20
1.5215456226
 30
0.0
 10
20.0555473942
 20
1.5212178924
 30
0.0
 10
20.0148832774
 20
1.5209540056
 30
0.0
 10
19.9733002268
 20
1.5207559265
 30
0.0
 10
19.9311008144
 20
1.5206251261
 30
0.0
 10
19.9027960888
 20
1.5205834747
 30
0.0
 10
19.8885920707
 20
1.5205740521
 30
0.0
 11
20.3882874842
 21
1.5300740521
 31
0.0
 11
20.3849826289
 21
1.5292639302
 31
0.0
 11
20.3780658493
 21
1.5284597031
 31
0.0
 11
20.3675874747
 21
1.5276672227
 31
0.0
 11
20.3536237495
 21
1.5268922552
 31
0.0
 11
20.336276279
 21
1.5261404397
 31
0.0
 11
20.3156712901
 21
1.5254172466
 31
0.0
 11
20.2919587123
 21
1.5247279381
 31
0.0
 11
20.2653110872
 21
1.5240775301
 31
0.0
 11
20.235922313
 21
1.5234707549
 31
0.0
 11
20.2040062335
 21
1.5229120278
 31
0.0
 11
20.169795082
 21
1.5224054144
 31
0.0
 11
20.1335377918
 21
1.5219546008
 31
0.0
 11
20.0954981844
 21
1.5215628673
 31
0.0
 11
20.0559530504
 21
1.5212330645
 31
0.0
 11
20.015190135
 21
1.520967592
 31
0.0
 11
19.9735060446
 21
1.5207683815
 31
0.0
 11
19.9312040881
 21
1.5206368826
 31
0.0
 11
19.8885920707
 21
1.5205740521
 31
0.0
  0
SPLINE
  5
335
100
AcDbEntity
  8
0
100
AcDbSpline
 62
253
  6
CONTINUOUS
 70
0
 71
3
 72
25
 73
21
 74
19
 42
0.0000001
 43
0.0000001
 44
0.0000000001
 12
-0.1156726714
 22
-0.5000143222
 32
0.0
 13
-0.5132129279
 23
-0.0026419614
 33
0.0
 40
0.0
 40
0.0
 40
0.0
 40
0.0
 40
0.013948679
 40
0.0321748863
 40
0.0558987844
 40
0.0855593318
 40
0.1212490608
 40
0.1628831421
 40
0.210267819
 40
0.2631318866
 40
0.3211434051
 40
0.3839199784
 40
0.4510360375
 40
0.5220286697
 40
0.5964027332
 40
0.673635628
 40
0.753181915
 40
0.8344778813
 40
0.9169460997
 40
1.0
 40
1.0
 40
1.0
 40
1.0
 10
20.422650338
 20
-10.1122812763
 30
0.0
 10
20.4221125111
 20
-10.1146061227
 30
0.0
 10
20.4192331634
 20
-10.1195556659
 30
0.0
 10
20.4118700135
 20
-10.1257670128
 30
0.0
 10
20.4011964638
 20
-10.1318703701
 30
0.0
 10
20.3871467222
 20
-10.1378253586
 30
0.0
 10
20.3697755127
 20
-10.1436299373
 30
0.0
 10
20.3491795367
 20
-10.1492265568
 30
0.0
 10
20.3254973892
 20
-10.1545732955
 30
0.0
 10
20.2988945513
 20
-10.1596258807
 30
0.0
 10
20.2695612162
 20
-10.1643449914
 30
0.0
 10
20.2377087684
 20
-10.1686940244
 30
0.0
 10
20.2035677928
 20
-10.1726398338
 30
0.0
 10
20.1673859802
 20
-10.1761525749
 30
0.0
 10
20.1294261592
 20
-10.1792058684
 30
0.0
 10
20.0899642693
 20
-10.1817768921
 30
0.0
 10
20.0492873007
 20
-10.1838464981
 30
0.0
 10
20.0076911286
 20
-10.1853993147
 30
0.0
 10
19.9654784764
 20
-10.1864238343
 30
0.0
 10
19.9371630363
 20
-10.1867492245
 30
0.0
 10
19.9229549245
 20
-10.1868223662
 30
0.0
 11
20.422650338
 21
-10.1122812763
 31
0.0
 11
20.4193605772
 21
-10.1186393414
 31
0.0
 11
20.4124569774
 21
-10.1249511198
 31
0.0
 11
20.4019897969
 21
-10.1311706615
 31
0.0
 11
20.3880352369
 21
-10.1372526882
 31
0.0
 11
20.3706948868
 21
-10.1431529228
 31
0.0
 11
20.3500949845
 21
-10.1488284114
 31
0.0
 11
20.3263854976
 21
-10.1542378364
 31
0.0
 11
20.2997390313
 21
-10.1593418172
 31
0.0
 11
20.2703495724
 21
-10.1641031967
 31
0.0
 11
20.2384310764
 21
-10.168487312
 31
0.0
 11
20.2042159102
 21
-10.1724622466
 31
0.0
 11
20.1679531608
 21
-10.1759990631
 31
0.0
 11
20.1299068214
 21
-10.1790720134
 31
0.0
 11
20.0903538698
 21
-10.1816587263
 31
0.0
 11
20.0495822518
 21
-10.1837403705
 31
0.0
 11
20.0078887855
 21
-10.1853017917
 31
0.0
 11
19.9655769996
 21
-10.1863316227
 31
0.0
 11
19.9229549245
 21
-10.1868223662
 31
0.0
  0
SPLINE
  5
336
100
AcDbEntity
  8
0
100
AcDbSpline
 62
253
  6
CONTINUOUS
 70
0
 71
3
 72
26
 73
22
 74
20
 42
0.0000001
 43
0.0000001
 44
0.0000000001
 12
0.0022369592
 22
-0.8499359847
 32
0.0
 13
0.2685929371
 23
-0.8063832936
 33
0.0
 40
0.0
 40
0.0
 40
0.0
 40
0.0
 40
0.0832795884
 40
0.1652175719
 40
0.2453906178
 40
0.3233820907
 40
0.3987881694
 40
0.4712177965
 40
0.5402953428
 40
0.6056625221
 40
0.6669806502
 40
0.7239316391
 40
0.7762204028
 40
0.823575887
 40
0.865753143
 40
0.902534145
 40
0.9337294817
 40
0.9591798621
 40
0.9787584546
 40
0.9923753083
 40
1.0
 40
1.0
 40
1.0
 40
1.0
 10
19.9229549245
 20
-10.1868223675
 30
0.0
 10
19.9230170222
 20
-10.2104164739
 30
0.0
 10
19.9231701413
 20
-10.257224521
 30
0.0
 10
19.9234891491
 20
-10.3267461552
 30
0.0
 10
19.9238944529
 20
-10.3947691248
 30
0.0
 10
19.9243838424
 20
-10.4609409203
 30
0.0
 10
19.9249547663
 20
-10.5249181697
 30
0.0
 10
19.9256041749
 20
-10.5863691074
 30
0.0
 10
19.9263286127
 20
-10.6449748534
 30
0.0
 10
19.9271241928
 20
-10.7004313436
 30
0.0
 10
19.9279866041
 20
-10.7524507926
 30
0.0
 10
19.9289111556
 20
-10.8007632598
 30
0.0
 10
19.9298925939
 20
-10.8451179721
 30
0.0
 10
19.9309256189
 20
-10.8852845758
 30
0.0
 10
19.9320030217
 20
-10.9210551039
 30
0.0
 10
19.9331210113
 20
-10.95224238
 30
0.0
 10
19.9342620102
 20
-10.978689552
 30
0.0
 10
19.9354420919
 20
-11.0002466684
 30
0.0
 10
19.9365748908
 20
-11.0168402173
 30
0.0
 10
19.9377946215
 20
-11.0283111591
 30
0.0
 10
19.9386237341
 20
-11.0343202452
 30
0.0
 10
19.9393063802
 20
-11.0363697198
 30
0.0
 11
19.9229549245
 21
-10.1868223675
 31
0.0
 11
19.923187052
 21
-10.257604551
 31
0.0
 11
19.9235075144
 21
-10.3272460956
 31
0.0
 11
19.9239146842
 21
-10.3953870719
 31
0.0
 11
19.9244064249
 21
-10.4616732368
 31
0.0
 11
19.9249802037
 21
-10.52576123
 31
0.0
 11
19.9256330421
 21
-10.587318528
 31
0.0
 11
19.9263615584
 21
-10.6460257037
 31
0.0
 11
19.9271619745
 21
-10.701578048
 31
0.0
 11
19.9280301445
 21
-10.7536874805
 31
0.0
 11
19.9289615648
 21
-10.8020833808
 31
0.0
 11
19.9299514074
 21
-10.8465146121
 31
0.0
 11
19.9309945357
 21
-10.8867503621
 31
0.0
 11
19.9320855432
 21
-10.9225818481
 31
0.0
 11
19.9332187674
 21
-10.9538229072
 31
0.0
 11
19.9343883308
 21
-10.9803112304
 31
0.0
 11
19.9355881509
 21
-11.0019091987
 31
0.0
 11
19.936812042
 21
-11.0185047379
 31
0.0
 11
19.9380535591
 21
-11.030011449
 31
0.0
 11
19.9393063802
 21
-11.0363697198
 31
0.0
  0
SPLINE
  5
337
100
AcDbEntity
  8
0
100
AcDbSpline
 62
253
  6
CONTINUOUS
 70
0
 71
3
 72
26
 73
22
 74
20
 42
0.0000001
 43
0.0000001
 44
0.0000000001
 12
0.0022405098
 22
-0.4255425554
 32
0.0
 13
0.2359522711
 23
-0.3541440557
 33
0.0
 40
0.0
 40
0.0
 40
0.0
 40
0.0
 40
0.0831579624
 40
0.1649885388
 40
0.2450582809
 40
0.3229515393
 40
0.3982655067
 40
0.4706101583
 40
0.5396109354
 40
0.6049106782
 40
0.666171895
 40
0.7230778369
 40
0.7753349753
 40
0.8226741356
 40
0.864852771
 40
0.9016561407
 40
0.9328997026
 40
0.9584321569
 40
0.9781415755
 40
0.9919719696
 40
1.0
 40
1.0
 40
1.0
 40
1.0
 10
20.422650338
 20
-10.1122812763
 30
0.0
 10
20.4227124435
 20
-10.1240770269
 30
0.0
 10
20.422865523
 20
-10.1474800966
 30
0.0
 10
20.423184544
 20
-10.1822400633
 30
0.0
 10
20.4235898309
 20
-10.2162522889
 30
0.0
 10
20.424079235
 20
-10.2493389354
 30
0.0
 10
20.4246501636
 20
-10.2813283119
 30
0.0
 10
20.4252995875
 20
-10.3120545333
 30
0.0
 10
20.4260240434
 20
-10.3413581599
 30
0.0
 10
20.4268196476
 20
-10.3690871603
 30
0.0
 10
20.4276820939
 20
-10.3950976525
 30
0.0
 10
20.4286066785
 20
-10.4192546746
 30
0.0
 10
20.429588207
 20
-10.4414329193
 30
0.0
 10
20.4306212132
 20
-10.4615171666
 30
0.0
 10
20.4316990672
 20
-10.479403955
 30
0.0
 10
20.4328162963
 20
-10.4949987881
 30
0.0
 10
20.4339605594
 20
-10.5082273178
 30
0.0
 10
20.4351337026
 20
-10.5190059438
 30
0.0
 10
20.4362886097
 20
-10.5273282577
 30
0.0
 10
20.4374747737
 20
-10.5330660048
 30
0.0
 10
20.4383703831
 20
-10.5361072594
 30
0.0
 10
20.4390017937
 20
-10.5370549525
 30
0.0
 11
20.422650338
 21
-10.1122812763
 31
0.0
 11
20.4228824301
 21
-10.1476682575
 31
0.0
 11
20.4232028978
 21
-10.1824896581
 31
0.0
 11
20.4236100608
 21
-10.2165607803
 31
0.0
 11
20.4241018059
 21
-10.2497044882
 31
0.0
 11
20.424675588
 21
-10.281749094
 31
0.0
 11
20.425328434
 21
-10.3125283257
 31
0.0
 11
20.4260569599
 21
-10.3418824607
 31
0.0
 11
20.4268573884
 21
-10.3696591348
 31
0.0
 11
20.4277255728
 21
-10.3957142905
 31
0.0
 11
20.4286570092
 21
-10.4199126064
 31
0.0
 11
20.4296468695
 21
-10.4421285095
 31
0.0
 11
20.4306900167
 21
-10.4622465898
 31
0.0
 11
20.4317810438
 21
-10.4801624534
 31
0.0
 11
20.432914289
 21
-10.4957830169
 31
0.0
 11
20.4340838709
 21
-10.509027124
 31
0.0
 11
20.4352837183
 21
-10.519825968
 31
0.0
 11
20.4365076126
 21
-10.5281235036
 31
0.0
 11
20.437749187
 21
-10.5338765581
 31
0.0
 11
20.4390017937
 21
-10.5370549525
 31
0.0
  0
SPLINE
  5
338
100
AcDbEntity
  8
0
100
AcDbSpline
 62
253
  6
CONTINUOUS
 70
0
 71
3
 72
25
 73
21
 74
19
 42
0.0000001
 43
0.0000001
 44
0.0000000001
 12
-0.0014329144
 22
-0.7839168072
 32
0.0
 13
-0.7839168112
 23
-0.0014307322
 33
0.0
 40
0.0
 40
0.0
 40
0.0
 40
0.0
 40
0.055506642
 40
0.1110226234
 40
0.1665481617
 40
0.2220831846
 40
0.2776273326
 40
0.3331799697
 40
0.3887402028
 40
0.4443069091
 40
0.49987877
 40
0.555454311
 40
0.6110319462
 40
0.6666100265
 40
0.7221868895
 40
0.7777609094
 40
0.8333305464
 40
0.8888943932
 40
0.9444512176
 40
1.0
 40
1.0
 40
1.0
 40
1.0
 10
20.4390017937
 20
-10.5370549525
 30
0.0
 10
20.4389752816
 20
-10.551559149
 30
0.0
 10
20.4376555917
 20
-10.5805835692
 30
0.0
 10
20.4318922968
 20
-10.6237732664
 30
0.0
 10
20.4223888423
 20
-10.6663078298
 30
0.0
 10
20.4092174238
 20
-10.7078599625
 30
0.0
 10
20.3924780744
 20
-10.7481153412
 30
0.0
 10
20.3722979162
 20
-10.7867680187
 30
0.0
 10
20.3488301904
 20
-10.8235246176
 30
0.0
 10
20.3222530932
 20
-10.8581060538
 30
0.0
 10
20.2927684226
 20
-10.8902497887
 30
0.0
 10
20.2606000455
 20
-10.9197117843
 30
0.0
 10
20.225992201
 20
-10.9462683638
 30
0.0
 10
20.1892076368
 20
-10.9697179059
 30
0.0
 10
20.1505256523
 20
-10.989882375
 30
0.0
 10
20.1102398451
 20
-11.0066086716
 30
0.0
 10
20.0686563838
 20
-11.0197697937
 30
0.0
 10
20.0260898189
 20
-11.0292658045
 30
0.0
 10
19.9828676622
 20
-11.0350245793
 30
0.0
 10
19.9538215883
 20
-11.036343228
 30
0.0
 10
19.9393063802
 20
-11.0363697198
 30
0.0
 11
20.4390017937
 21
-10.5370549525
 31
0.0
 11
20.4370252642
 21
-10.5805227004
 31
0.0
 11
20.4312695919
 21
-10.6236604009
 31
0.0
 11
20.4217784791
 21
-10.6661405127
 31
0.0
 11
20.4086239913
 21
-10.7076404873
 31
0.0
 11
20.3919060094
 21
-10.7478452185
 31
0.0
 11
20.3717514719
 21
-10.7864494347
 31
0.0
 11
20.3483134107
 21
-10.823160017
 31
0.0
 11
20.3217697892
 21
-10.8576982247
 31
0.0
 11
20.2923221513
 21
-10.8898018116
 31
0.0
 11
20.2601940906
 21
-10.9192270176
 31
0.0
 11
20.2256295532
 21
-10.9457504193
 31
0.0
 11
20.1888909851
 21
-10.9691706264
 31
0.0
 11
20.1502573394
 21
-10.989309811
 31
0.0
 11
20.1100219587
 21
-11.0060150579
 31
0.0
 11
20.0684903471
 21
-11.0191595252
 31
0.0
 11
20.0259778512
 21
-11.028643408
 31
0.0
 11
19.9828072652
 21
-11.034394696
 31
0.0
 11
19.9393063802
 21
-11.0363697198
 31
0.0
  0
LINE
  5
339
100
AcDbEntity
  8
ASSI
100
AcDbLine
 62
7
  6
CONTINUOUS
 10
13.9673361121
 20
7.2220822875
 11
13.9673361121
 21
6.9882438099
  0
LINE
  5
33A
100
AcDbEntity
  8
ASSI
100
AcDbLine
 62
7
  6
CONTINUOUS
 10
13.9673361121
 20
6.9882438099
 11
13.9673361121
 21
6.7544062254
  0
LINE
  5
33B
100
AcDbEntity
  8
ASSI
100
AcDbLine
 62
7
  6
CONTINUOUS
 10
13.9673361121
 20
6.7544062254
 11
13.9673361121
 21
6.520569585
  0
LINE
  5
33C
100
AcDbEntity
  8
ASSI
100
AcDbLine
 62
7
  6
CONTINUOUS
 10
13.9673361121
 20
6.520569585
 11
13.9673361121
 21
6.28673394
  0
LINE
  5
33D
100
AcDbEntity
  8
ASSI
100
AcDbLine
 62
7
  6
CONTINUOUS
 10
13.9673361121
 20
6.28673394
 11
13.9673361121
 21
6.0528993415
  0
LINE
  5
33E
100
AcDbEntity
  8
ASSI
100
AcDbLine
 62
7
  6
CONTINUOUS
 10
13.9673361121
 20
6.0528993415
 11
13.9673361121
 21
5.8190658406
  0
LINE
  5
33F
100
AcDbEntity
  8
ASSI
100
AcDbLine
 62
7
  6
CONTINUOUS
 10
4.8673361121
 20
5.8190658406
 11
4.8673361121
 21
7.2220822875
  0
SPLINE
  5
340
100
AcDbEntity
  8
ASSI
100
AcDbSpline
 62
7
  6
CONTINUOUS
 70
0
 71
3
 72
25
 73
21
 74
19
 42
0.0000001
 43
0.0000001
 44
0.0000000001
 12
-0.6256832202
 22
0.0
 32
0.0
 13
0.0
 23
0.6256832202
 33
0.0
 40
0.0
 40
0.0
 40
0.0
 40
0.0
 40
0.0556733582
 40
0.1114505503
 40
0.1670993388
 40
0.2225000448
 40
0.278013467
 40
0.3335579392
 40
0.3889329739
 40
0.4441938583
 40
0.4996537624
 40
0.5551262503
 40
0.6104212299
 40
0.6658457278
 40
0.721459882
 40
0.7770616371
 40
0.8325613724
 40
0.8883154579
 40
0.9442070521
 40
1.0
 40
1.0
 40
1.0
 40
1.0
 10
5.2654375686
 20
5.4205740521
 30
0.0
 10
5.2538262732
 20
5.4205740521
 30
0.0
 10
5.2305693278
 20
5.4215846453
 30
0.0
 10
5.1959738012
 20
5.4261283068
 30
0.0
 10
5.1619591555
 20
5.433659206
 30
0.0
 10
5.1287829516
 20
5.4441064731
 30
0.0
 10
5.0966625024
 20
5.4573958102
 30
0.0
 10
5.0658302129
 20
5.4734374702
 30
0.0
 10
5.0365612314
 20
5.4920819051
 30
0.0
 10
5.0090429455
 20
5.5131957533
 30
0.0
 10
4.983456725
 20
5.5366443149
 30
0.0
 10
4.9600135449
 20
5.5622451172
 30
0.0
 10
4.9388981967
 20
5.589787537
 30
0.0
 10
4.920247278
 20
5.6190902864
 30
0.0
 10
4.9041957425
 20
5.6499662294
 30
0.0
 10
4.8908950102
 20
5.6821400031
 30
0.0
 10
4.8804370865
 20
5.7153768636
 30
0.0
 10
4.8728975354
 20
5.7494576922
 30
0.0
 10
4.8683480835
 20
5.7841238481
 30
0.0
 10
4.8673361121
 20
5.8074296035
 30
0.0
 10
4.8673361121
 20
5.8190658406
 30
0.0
 11
5.2654375686
 21
5.4205740521
 31
0.0
 11
5.2306365863
 21
5.4220877385
 31
0.0
 11
5.196034988
 21
5.4266329943
 31
0.0
 11
5.1620399442
 21
5.4341606671
 31
0.0
 11
5.1289774579
 21
5.4445729588
 31
0.0
 11
5.0968824397
 21
5.457852561
 31
0.0
 11
5.0660526542
 21
5.4738935184
 31
0.0
 11
5.036830776
 21
5.4925083615
 31
0.0
 11
5.0093992359
 21
5.5135558581
 31
0.0
 11
4.9838169981
 21
5.5370007318
 31
0.0
 11
4.9603767971
 21
5.5625979282
 31
0.0
 11
4.9393267919
 21
5.5900544291
 31
0.0
 11
4.9207057931
 21
5.6193090775
 31
0.0
 11
4.9046546242
 21
5.6501826951
 31
0.0
 11
4.8913628262
 21
5.6823324783
 31
0.0
 11
4.8809394446
 21
5.7154564321
 31
0.0
 11
4.8734031492
 21
5.7495170445
 31
0.0
 11
4.8688519453
 21
5.7841900557
 31
0.0
 11
4.8673361121
 21
5.8190658406
 31
0.0
  0
SPLINE
  5
341
100
AcDbEntity
  8
ASSI
100
AcDbSpline
 62
7
  6
CONTINUOUS
 70
0
 71
3
 72
25
 73
21
 74
19
 42
0.0000001
 43
0.0000001
 44
0.0000000001
 12
-0.0
 22
0.6261321933
 32
0.0
 13
0.6261321933
 23
0.0
 33
0.0
 40
0.0
 40
0.0
 40
0.0
 40
0.0
 40
0.0556462765
 40
0.1114123659
 40
0.1670645122
 40
0.2224808987
 40
0.2780198863
 40
0.3335969858
 40
0.3890085547
 40
0.4443073417
 40
0.499802936
 40
0.5553057357
 40
0.6106232273
 40
0.6660612395
 40
0.7216764573
 40
0.7772651809
 40
0.8327377847
 40
0.8884496229
 40
0.9442824486
 40
1.0
 40
1.0
 40
1.0
 40
1.0
 10
4.8673361121
 20
7.2220822875
 30
0.0
 10
4.8673361121
 20
7.2336962625
 30
0.0
 10
4.8683475743
 20
7.2569619204
 30
0.0
 10
4.8728948763
 20
7.2915748924
 30
0.0
 10
4.8804330644
 20
7.3256152298
 30
0.0
 10
4.890892021
 20
7.3588236851
 30
0.0
 10
4.9041978046
 20
7.3909810163
 30
0.0
 10
4.9202605631
 20
7.4218527356
 30
0.0
 10
4.9389302064
 20
7.4511616855
 30
0.0
 10
4.9600723997
 20
7.4787185729
 30
0.0
 10
4.9835511005
 20
7.5043403744
 30
0.0
 10
5.0091821418
 20
7.5278147737
 30
0.0
 10
5.0367533156
 20
7.5489563033
 30
0.0
 10
5.066081594
 20
7.567627948
 30
0.0
 10
5.0969781104
 20
7.5836947368
 30
0.0
 10
5.1291658696
 20
7.5970056506
 30
0.0
 10
5.1624090273
 20
7.607469528
 30
0.0
 10
5.1964875026
 20
7.6150118037
 30
0.0
 10
5.2311417252
 20
7.6195619239
 30
0.0
 10
5.2544361905
 20
7.6205740521
 30
0.0
 10
5.2660650414
 20
7.6205740521
 30
0.0
 11
4.8673361121
 21
7.2220822875
 31
0.0
 11
4.8688506637
 21
7.2568912789
 31
0.0
 11
4.8733994021
 21
7.2915106658
 31
0.0
 11
4.880934284
 21
7.3255318565
 31
0.0
 11
4.8913582482
 21
7.3586270381
 31
0.0
 11
4.9046544082
 21
7.390759502
 31
0.0
 11
4.9207166975
 21
7.4216293287
 31
0.0
 11
4.9393569786
 21
7.4508916025
 31
0.0
 11
4.9604332281
 21
7.4783622664
 31
0.0
 11
4.9839087114
 21
7.5039805386
 31
0.0
 11
5.0095365668
 21
7.52745224
 31
0.0
 11
5.03702203
 21
7.5485284381
 31
0.0
 11
5.0663028576
 21
7.5671704082
 31
0.0
 11
5.0971974291
 21
7.5832368466
 31
0.0
 11
5.1293612574
 21
7.5965386544
 31
0.0
 11
5.1624916987
 21
7.6069678377
 31
0.0
 11
5.1965502827
 21
7.6145067256
 31
0.0
 11
5.2312114279
 21
7.6190584057
 31
0.0
 11
5.2660650414
 21
7.6205740521
 31
0.0
  0
SPLINE
  5
342
100
AcDbEntity
  8
ASSI
100
AcDbSpline
 62
7
  6
CONTINUOUS
 70
0
 71
3
 72
25
 73
21
 74
19
 42
0.0000001
 43
0.0000001
 44
0.0000000001
 12
0.0
 22
-0.6256832202
 32
0.0
 13
-0.6256832202
 23
0.0
 33
0.0
 40
0.0
 40
0.0
 40
0.0
 40
0.0
 40
0.0557950913
 40
0.1116884983
 40
0.1674453284
 40
0.2229447961
 40
0.2785453267
 40
0.3341599831
 40
0.3895856968
 40
0.4448800349
 40
0.5003515979
 40
0.5558124452
 40
0.6110739736
 40
0.6664477952
 40
0.7219917909
 40
0.7775064418
 40
0.8329073853
 40
0.8885533946
 40
0.9443287616
 40
1.0
 40
1.0
 40
1.0
 40
1.0
 10
13.9673361121
 20
5.8190658406
 30
0.0
 10
13.9673361121
 20
5.8074291565
 30
0.0
 10
13.9663240659
 20
5.7841225745
 30
0.0
 10
13.9617742665
 20
5.7494550505
 30
0.0
 10
13.9542342366
 20
5.7153734052
 30
0.0
 10
13.9437758921
 20
5.6821364036
 30
0.0
 10
13.9304749453
 20
5.6499629446
 30
0.0
 10
13.9144230965
 20
5.6190870473
 30
0.0
 10
13.895771764
 20
5.5897842922
 30
0.0
 10
13.8746561739
 20
5.5622421516
 30
0.0
 10
13.8512128476
 20
5.536641662
 30
0.0
 10
13.8256263079
 20
5.5131932413
 30
0.0
 10
13.7981077382
 20
5.4920796329
 30
0.0
 10
13.7688387561
 20
5.4734356094
 30
0.0
 10
13.7380064138
 20
5.4573942613
 30
0.0
 10
13.7058856487
 20
5.4441051414
 30
0.0
 10
13.6727095971
 20
5.4336583013
 30
0.0
 10
13.6386957837
 20
5.426127885
 30
0.0
 10
13.6041016301
 20
5.421584571
 30
0.0
 10
13.5808455089
 20
5.4205740521
 30
0.0
 10
13.5692346557
 20
5.4205740521
 30
0.0
 11
13.9673361121
 21
5.8190658406
 31
0.0
 11
13.9658201624
 21
5.7841887184
 31
0.0
 11
13.9612686457
 21
5.7495146043
 31
0.0
 11
13.9537316952
 21
5.7154523781
 31
0.0
 11
13.9433080226
 21
5.6823286913
 31
0.0
 11
13.9300162233
 21
5.6501797378
 31
0.0
 11
13.9139646441
 21
5.6193059793
 31
0.0
 11
13.8953429454
 21
5.5900508747
 31
0.0
 11
13.8742928983
 21
5.5625949117
 31
0.0
 11
13.8508528528
 21
5.5369983576
 31
0.0
 11
13.825269964
 21
5.5135533207
 31
0.0
 11
13.797837884
 21
5.4925058658
 31
0.0
 11
13.7686164597
 21
5.473891723
 31
0.0
 11
13.7377867997
 21
5.4578511703
 31
0.0
 11
13.7056909484
 21
5.444571571
 31
0.0
 11
13.6726282121
 21
5.4341595781
 31
0.0
 11
13.6386348031
 21
5.4266325659
 31
0.0
 11
13.6040343154
 21
5.4220876232
 31
0.0
 11
13.5692346557
 21
5.4205740521
 31
0.0
  0
SPLINE
  5
343
100
AcDbEntity
  8
ASSI
100
AcDbSpline
 62
7
  6
CONTINUOUS
 70
0
 71
3
 72
25
 73
21
 74
19
 42
0.0000001
 43
0.0000001
 44
0.0000000001
 12
0.6261321933
 22
0.0
 32
0.0
 13
-0.0
 23
-0.6261321933
 33
0.0
 40
0.0
 40
0.0
 40
0.0
 40
0.0
 40
0.0557196865
 40
0.1115543222
 40
0.16726891
 40
0.2227412555
 40
0.2783287553
 40
0.3339444681
 40
0.3893836966
 40
0.4447005512
 40
0.5002024237
 40
0.5556989543
 40
0.6109983787
 40
0.6664087318
 40
0.7219853485
 40
0.7775255617
 40
0.8329421921
 40
0.8885915724
 40
0.9443558468
 40
1.0
 40
1.0
 40
1.0
 40
1.0
 10
13.5686071828
 20
7.6205740521
 30
0.0
 10
13.5802364793
 20
7.6205740521
 30
0.0
 10
13.6035317695
 20
7.6195618492
 30
0.0
 10
13.63818736
 20
7.6150113818
 30
0.0
 10
13.6722666549
 20
7.6074686267
 30
0.0
 10
13.7055099568
 20
7.5970043272
 30
0.0
 10
13.7376974015
 20
7.5836931985
 30
0.0
 10
13.768593871
 20
7.5676260968
 30
0.0
 10
13.7979221548
 20
7.5489540385
 30
0.0
 10
13.8254930497
 20
7.5278122666
 30
0.0
 10
13.8511237773
 20
7.5043377216
 30
0.0
 10
13.874602335
 20
7.4787156033
 30
0.0
 10
13.895744287
 20
7.451158435
 30
0.0
 10
13.9144135176
 20
7.4218494878
 30
0.0
 10
13.9304759638
 20
7.3909777184
 30
0.0
 10
13.9437815311
 20
7.3588200722
 30
0.0
 10
13.9542400627
 20
7.3256117665
 30
0.0
 10
13.9617777695
 20
7.291572256
 30
0.0
 10
13.9663247244
 20
7.2569606537
 30
0.0
 10
13.9673361121
 20
7.2336958194
 30
0.0
 10
13.9673361121
 20
7.2220822875
 30
0.0
 11
13.5686071828
 21
7.6205740521
 31
0.0
 11
13.6034621294
 21
7.6190582895
 31
0.0
 11
13.6381243765
 21
7.614506297
 31
0.0
 11
13.6721845787
 21
7.6069667531
 31
0.0
 11
13.7053147582
 21
7.5965372769
 31
0.0
 11
13.7374777567
 21
7.5832354675
 31
0.0
 11
13.768372465
 21
7.5671686205
 31
0.0
 11
13.7976537495
 21
7.5485259501
 31
0.0
 11
13.8251386767
 21
7.5274497084
 31
0.0
 11
13.8507658884
 21
7.5039781637
 31
0.0
 11
13.8742415322
 21
7.4783592434
 31
0.0
 11
13.895317738
 21
7.4508880429
 31
0.0
 11
13.9139573182
 21
7.4216262253
 31
0.0
 11
13.9300192016
 21
7.3907565281
 31
0.0
 11
13.9433153593
 21
7.3586232328
 31
0.0
 11
13.953739027
 21
7.3255277978
 31
0.0
 11
13.9612732502
 21
7.2915082349
 31
0.0
 11
13.9658216762
 21
7.2568899532
 31
0.0
 11
13.9673361121
 21
7.2220822875
 31
0.0
  0
SPLINE
  5
344
100
AcDbEntity
  8
ASSI
100
AcDbSpline
 62
253
  6
CONTINUOUS
 70
0
 71
3
 72
25
 73
21
 74
19
 42
0.0000001
 43
0.0000001
 44
0.0000000001
 12
0.4390248502
 22
-0.23920298
 32
0.0
 13
0.4999607732
 23
-0.0003316614
 33
0.0
 40
0.0
 40
0.0
 40
0.0
 40
0.0
 40
0.0068059321
 40
0.0207337758
 40
0.0417520194
 40
0.0697246347
 40
0.10445486
 40
0.1456934389
 40
0.1931423402
 40
0.246457634
 40
0.3052523085
 40
0.3690992429
 40
0.4375344016
 40
0.5100602612
 40
0.5861494626
 40
0.6652486693
 40
0.7467826077
 40
0.8301582634
 40
0.9147692045
 40
1.0
 40
1.0
 40
1.0
 40
1.0
 10
-1.5536152599
 20
1.5300740521
 30
0.0
 10
-1.5526192688
 20
1.5295313857
 30
0.0
 10
-1.549076972
 20
1.5291293333
 30
0.0
 10
-1.5422554626
 20
1.5282542023
 30
0.0
 10
-1.5317458631
 20
1.5275801842
 30
0.0
 10
-1.5178336562
 20
1.5267997439
 30
0.0
 10
-1.5005191804
 20
1.5260766723
 30
0.0
 10
-1.4799659438
 20
1.525361853
 30
0.0
 10
-1.4563094619
 20
1.5246832362
 30
0.0
 10
-1.4297263801
 20
1.5240397444
 30
0.0
 10
-1.4004085395
 20
1.5234389894
 30
0.0
 10
-1.3685697042
 20
1.5228850168
 30
0.0
 10
-1.3344413746
 20
1.5223823448
 30
0.0
 10
-1.2982719098
 20
1.5219347454
 30
0.0
 10
-1.2603244695
 20
1.5215456226
 30
0.0
 10
-1.22087517
 20
1.5212178924
 30
0.0
 10
-1.1802110532
 20
1.5209540056
 30
0.0
 10
-1.1386280025
 20
1.5207559265
 30
0.0
 10
-1.0964285901
 20
1.5206251261
 30
0.0
 10
-1.0681238646
 20
1.5205834747
 30
0.0
 10
-1.0539198464
 20
1.5205740521
 30
0.0
 11
-1.5536152599
 21
1.5300740521
 31
0.0
 11
-1.5503104046
 21
1.5292639302
 31
0.0
 11
-1.5433936251
 21
1.5284597031
 31
0.0
 11
-1.5329152504
 21
1.5276672227
 31
0.0
 11
-1.5189515252
 21
1.5268922552
 31
0.0
 11
-1.5016040548
 21
1.5261404397
 31
0.0
 11
-1.4809990659
 21
1.5254172466
 31
0.0
 11
-1.4572864881
 21
1.5247279381
 31
0.0
 11
-1.430638863
 21
1.5240775301
 31
0.0
 11
-1.4012500888
 21
1.5234707549
 31
0.0
 11
-1.3693340093
 21
1.5229120278
 31
0.0
 11
-1.3351228578
 21
1.5224054144
 31
0.0
 11
-1.2988655675
 21
1.5219546008
 31
0.0
 11
-1.2608259602
 21
1.5215628673
 31
0.0
 11
-1.2212808262
 21
1.5212330645
 31
0.0
 11
-1.1805179108
 21
1.520967592
 31
0.0
 11
-1.1388338203
 21
1.5207683815
 31
0.0
 11
-1.0965318639
 21
1.5206368826
 31
0.0
 11
-1.0539198464
 21
1.5205740521
 31
0.0
  0
SPLINE
  5
345
100
AcDbEntity
  8
ASSI
100
AcDbSpline
 62
253
  6
CONTINUOUS
 70
0
 71
3
 72
25
 73
21
 74
19
 42
0.0000001
 43
0.0000001
 44
0.0000000001
 12
-0.4997136625
 22
0.0000069763
 32
0.0
 13
-0.4951377735
 23
0.0674709552
 33
0.0
 40
0.0
 40
0.0
 40
0.0
 40
0.0
 40
0.085271627
 40
0.1699228858
 40
0.2533392761
 40
0.334911862
 40
0.4140477186
 40
0.4901712172
 40
0.5627281194
 40
0.6311904874
 40
0.6950603256
 40
0.7538728639
 40
0.8072001514
 40
0.8546543022
 40
0.8958900524
 40
0.9306072984
 40
0.958553747
 40
0.9795266151
 40
0.9933739673
 40
1.0
 40
1.0
 40
1.0
 40
1.0
 10
-1.0507748036
 20
10.6228055981
 30
0.0
 10
-1.0649786026
 20
10.6228057963
 30
0.0
 10
-1.0932828654
 20
10.6228119216
 30
0.0
 10
-1.1354818909
 20
10.622838278
 30
0.0
 10
-1.1770647483
 20
10.6228815954
 30
0.0
 10
-1.2177288769
 20
10.6229415471
 30
0.0
 10
-1.2571781904
 20
10.6230176879
 30
0.0
 10
-1.2951257133
 20
10.6231094438
 30
0.0
 10
-1.3312952937
 20
10.623216126
 30
0.0
 10
-1.3654237118
 20
10.6233369168
 30
0.0
 10
-1.3972626438
 20
10.6234709152
 30
0.0
 10
-1.4265804351
 20
10.6236169943
 30
0.0
 10
-1.4531637152
 20
10.6237742601
 30
0.0
 10
-1.4768191845
 20
10.6239405473
 30
0.0
 10
-1.4973743038
 20
10.624117022
 30
0.0
 10
-1.5146806729
 20
10.6242941181
 30
0.0
 10
-1.5286091634
 20
10.6244913214
 30
0.0
 10
-1.5390669225
 20
10.6246491507
 30
0.0
 10
-1.54595995
 20
10.6248850942
 30
0.0
 10
-1.5493784619
 20
10.6249610328
 30
0.0
 10
-1.5504720616
 20
10.6251100544
 30
0.0
 11
-1.0507748036
 21
10.6228055981
 31
0.0
 11
-1.0933861997
 21
10.6228148533
 31
0.0
 11
-1.135687582
 21
10.622841369
 31
0.0
 11
-1.1773718691
 21
10.6228849543
 31
0.0
 11
-1.2181347601
 21
10.6229452889
 31
0.0
 11
-1.2576799545
 21
10.6230219343
 31
0.0
 11
-1.2957197946
 21
10.623114331
 31
0.0
 11
-1.3319773107
 21
10.6232218052
 31
0.0
 11
-1.3661886747
 21
10.6233435731
 31
0.0
 11
-1.3981050192
 21
10.6234787472
 31
0.0
 11
-1.4274940775
 21
10.623626342
 31
0.0
 11
-1.4541419776
 21
10.6237852814
 31
0.0
 11
-1.477854862
 21
10.6239544078
 31
0.0
 11
-1.4984601603
 21
10.6241324884
 31
0.0
 11
-1.5158078481
 21
10.6243182259
 31
0.0
 11
-1.5297717499
 21
10.6245102656
 31
0.0
 11
-1.5402503279
 21
10.6247072164
 31
0.0
 11
-1.5471671362
 21
10.6249076253
 31
0.0
 11
-1.5504720616
 21
10.6251100544
 31
0.0
  0
SPLINE
  5
346
100
AcDbEntity
  8
ASSI
100
AcDbSpline
 62
253
  6
CONTINUOUS
 70
0
 71
3
 72
25
 73
21
 74
19
 42
0.0000001
 43
0.0000001
 44
0.0000000001
 12
0.1156726251
 22
-0.5000143338
 32
0.0
 13
0.5132129288
 23
-0.0026419615
 33
0.0
 40
0.0
 40
0.0
 40
0.0
 40
0.0
 40
0.0139486785
 40
0.0321748852
 40
0.0558987827
 40
0.0855593295
 40
0.1212490579
 40
0.1628831388
 40
0.2102678154
 40
0.263131883
 40
0.3211434014
 40
0.3839199748
 40
0.4510360341
 40
0.5220286665
 40
0.5964027304
 40
0.6736356257
 40
0.7531819132
 40
0.8344778801
 40
0.9169460991
 40
1.0
 40
1.0
 40
1.0
 40
1.0
 10
-1.5879781138
 20
-10.1122812763
 30
0.0
 10
-1.587440287
 20
-10.1146061227
 30
0.0
 10
-1.5845609399
 20
-10.119555666
 30
0.0
 10
-1.5771977904
 20
-10.125767013
 30
0.0
 10
-1.566524241
 20
-10.1318703704
 30
0.0
 10
-1.5524744998
 20
-10.137825359
 30
0.0
 10
-1.5351032905
 20
-10.1436299377
 30
0.0
 10
-1.5145073147
 20
-10.1492265573
 30
0.0
 10
-1.4908251674
 20
-10.1545732961
 30
0.0
 10
-1.4642223295
 20
-10.1596258814
 30
0.0
 10
-1.4348889944
 20
-10.1643449922
 30
0.0
 10
-1.4030365465
 20
-10.1686940253
 30
0.0
 10
-1.3688955708
 20
-10.1726398348
 30
0.0
 10
-1.3327137579
 20
-10.1761525759
 30
0.0
 10
-1.2947539367
 20
-10.1792058695
 30
0.0
 10
-1.2552920465
 20
-10.1817768932
 30
0.0
 10
-1.2146150776
 20
-10.1838464993
 30
0.0
 10
-1.1730189051
 20
-10.185399316
 30
0.0
 10
-1.1308062525
 20
-10.1864238356
 30
0.0
 10
-1.1024908122
 20
-10.1867492258
 30
0.0
 10
-1.0882827003
 20
-10.1868223675
 30
0.0
 11
-1.5879781138
 21
-10.1122812763
 31
0.0
 11
-1.5846883535
 21
-10.1186393415
 31
0.0
 11
-1.5777847542
 21
-10.1249511199
 31
0.0
 11
-1.5673175741
 21
-10.1311706617
 31
0.0
 11
-1.5533630145
 21
-10.1372526885
 31
0.0
 11
-1.5360226646
 21
-10.1431529232
 31
0.0
 11
-1.5154227626
 21
-10.1488284119
 31
0.0
 11
-1.4917132757
 21
-10.154237837
 31
0.0
 11
-1.4650668096
 21
-10.1593418179
 31
0.0
 11
-1.4356773506
 21
-10.1641031975
 31
0.0
 11
-1.4037588545
 21
-10.1684873128
 31
0.0
 11
-1.3695436882
 21
-10.1724622476
 31
0.0
 11
-1.3332809386
 21
-10.1759990642
 31
0.0
 11
-1.2952345989
 21
-10.1790720145
 31
0.0
 11
-1.255681647
 21
-10.1816587274
 31
0.0
 11
-1.2149100287
 21
-10.1837403717
 31
0.0
 11
-1.173216562
 21
-10.1853017929
 31
0.0
 11
-1.1309047757
 21
-10.1863316239
 31
0.0
 11
-1.0882827003
 21
-10.1868223675
 31
0.0
  0
SPLINE
  5
347
100
AcDbEntity
  8
ASSI
100
AcDbSpline
 62
253
  6
CONTINUOUS
 70
0
 71
3
 72
25
 73
21
 74
19
 42
0.0000001
 43
0.0000001
 44
0.0000000001
 12
0.0014329144
 22
-0.7839168072
 32
0.0
 13
0.7839168112
 23
-0.0014307322
 33
0.0
 40
0.0
 40
0.0
 40
0.0
 40
0.0
 40
0.0555066409
 40
0.1110226213
 40
0.1665481587
 40
0.2220831809
 40
0.2776273283
 40
0.3331799649
 40
0.3887401978
 40
0.444306904
 40
0.4998787649
 40
0.555454306
 40
0.6110319415
 40
0.6666100223
 40
0.7221868858
 40
0.7777609063
 40
0.833330544
 40
0.8888943916
 40
0.9444512168
 40
1.0
 40
1.0
 40
1.0
 40
1.0
 10
-1.6043295695
 20
-10.5370549525
 30
0.0
 10
-1.6043030574
 20
-10.5515591487
 30
0.0
 10
-1.6029833675
 20
-10.5805835684
 30
0.0
 10
-1.5972200728
 20
-10.6237732648
 30
0.0
 10
-1.5877166186
 20
-10.6663078276
 30
0.0
 10
-1.5745452005
 20
-10.7078599598
 30
0.0
 10
-1.5578058515
 20
-10.7481153381
 30
0.0
 10
-1.5376256938
 20
-10.7867680155
 30
0.0
 10
-1.5141579684
 20
-10.8235246144
 30
0.0
 10
-1.4875808715
 20
-10.8581060507
 30
0.0
 10
-1.4580962012
 20
-10.8902497859
 30
0.0
 10
-1.4259278243
 20
-10.9197117818
 30
0.0
 10
-1.3913199797
 20
-10.9462683617
 30
0.0
 10
-1.3545354154
 20
-10.9697179043
 30
0.0
 10
-1.3158534307
 20
-10.9898823738
 30
0.0
 10
-1.2755676231
 20
-11.0066086707
 30
0.0
 10
-1.2339841614
 20
-11.0197697932
 30
0.0
 10
-1.1914175959
 20
-11.0292658043
 30
0.0
 10
-1.1481954386
 20
-11.0350245793
 30
0.0
 10
-1.1191493643
 20
-11.036343228
 30
0.0
 10
-1.104634156
 20
-11.0363697198
 30
0.0
 11
-1.6043295695
 21
-10.5370549525
 31
0.0
 11
-1.60235304
 21
-10.5805226995
 31
0.0
 11
-1.5965973679
 21
-10.6236603993
 31
0.0
 11
-1.5871062555
 21
-10.6661405104
 31
0.0
 11
-1.573951768
 21
-10.7076404845
 31
0.0
 11
-1.5572337866
 21
-10.7478452154
 31
0.0
 11
-1.5370792495
 21
-10.7864494315
 31
0.0
 11
-1.5136411887
 21
-10.8231600138
 31
0.0
 11
-1.4870975676
 21
-10.8576982216
 31
0.0
 11
-1.4576499299
 21
-10.8898018087
 31
0.0
 11
-1.4255218694
 21
-10.9192270151
 31
0.0
 11
-1.390957332
 21
-10.9457504172
 31
0.0
 11
-1.3542187637
 21
-10.9691706247
 31
0.0
 11
-1.3155851178
 21
-10.9893098098
 31
0.0
 11
-1.2753497367
 21
-11.0060150571
 31
0.0
 11
-1.2338181247
 21
-11.0191595247
 31
0.0
 11
-1.1913056282
 21
-11.0286434078
 31
0.0
 11
-1.1481350416
 21
-11.0343946959
 31
0.0
 11
-1.104634156
 21
-11.0363697198
 31
0.0
  0
SPLINE
  5
348
100
AcDbEntity
  8
ASSI
100
AcDbSpline
 62
253
  6
CONTINUOUS
 70
0
 71
3
 72
26
 73
22
 74
20
 42
0.0000001
 43
0.0000001
 44
0.0000000001
 12
0.2685929374
 22
0.8063832935
 32
0.0
 13
0.0022369592
 23
0.8499359847
 33
0.0
 40
0.0
 40
0.0
 40
0.0
 40
0.0
 40
0.0076246917
 40
0.0212415454
 40
0.0408201379
 40
0.0662705183
 40
0.097465855
 40
0.134246857
 40
0.176424113
 40
0.2237795972
 40
0.2760683609
 40
0.3330193498
 40
0.3943374779
 40
0.4597046572
 40
0.5287822035
 40
0.6012118306
 40
0.6766179093
 40
0.7546093822
 40
0.8347824281
 40
0.9167204116
 40
1.0
 40
1.0
 40
1.0
 40
1.0
 10
-1.104634156
 20
-11.0363697198
 30
0.0
 10
-1.1039515099
 20
-11.0343202452
 30
0.0
 10
-1.1031223972
 20
-11.0283111591
 30
0.0
 10
-1.1019026666
 20
-11.0168402173
 30
0.0
 10
-1.1007698677
 20
-11.0002466684
 30
0.0
 10
-1.099589786
 20
-10.978689552
 30
0.0
 10
-1.0984487871
 20
-10.95224238
 30
0.0
 10
-1.0973307975
 20
-10.9210551039
 30
0.0
 10
-1.0962533946
 20
-10.8852845758
 30
0.0
 10
-1.0952203697
 20
-10.8451179721
 30
0.0
 10
-1.0942389313
 20
-10.8007632598
 30
0.0
 10
-1.0933143799
 20
-10.7524507926
 30
0.0
 10
-1.0924519686
 20
-10.7004313436
 30
0.0
 10
-1.0916563884
 20
-10.6449748534
 30
0.0
 10
-1.0909319507
 20
-10.5863691074
 30
0.0
 10
-1.0902825421
 20
-10.5249181697
 30
0.0
 10
-1.0897116181
 20
-10.4609409203
 30
0.0
 10
-1.0892222287
 20
-10.3947691248
 30
0.0
 10
-1.0888169249
 20
-10.3267461552
 30
0.0
 10
-1.088497917
 20
-10.257224521
 30
0.0
 10
-1.088344798
 20
-10.2104164739
 30
0.0
 10
-1.0882827003
 20
-10.1868223675
 30
0.0
 11
-1.104634156
 21
-11.0363697198
 31
0.0
 11
-1.1033813349
 21
-11.030011449
 31
0.0
 11
-1.1021398177
 21
-11.0185047379
 31
0.0
 11
-1.1009159267
 21
-11.0019091987
 31
0.0
 11
-1.0997161066
 21
-10.9803112304
 31
0.0
 11
-1.0985465431
 21
-10.9538229072
 31
0.0
 11
-1.097413319
 21
-10.9225818481
 31
0.0
 11
-1.0963223114
 21
-10.8867503621
 31
0.0
 11
-1.0952791832
 21
-10.8465146121
 31
0.0
 11
-1.0942893406
 21
-10.8020833808
 31
0.0
 11
-1.0933579203
 21
-10.7536874805
 31
0.0
 11
-1.0924897503
 21
-10.701578048
 31
0.0
 11
-1.0916893342
 21
-10.6460257037
 31
0.0
 11
-1.0909608179
 21
-10.587318528
 31
0.0
 11
-1.0903079795
 21
-10.52576123
 31
0.0
 11
-1.0897342007
 21
-10.4616732368
 31
0.0
 11
-1.08924246
 21
-10.3953870719
 31
0.0
 11
-1.0888352902
 21
-10.3272460956
 31
0.0
 11
-1.0885148277
 21
-10.257604551
 31
0.0
 11
-1.0882827003
 21
-10.1868223675
 31
0.0
  0
SPLINE
  5
349
100
AcDbEntity
  8
ASSI
100
AcDbSpline
 62
253
  6
CONTINUOUS
 70
0
 71
3
 72
26
 73
22
 74
20
 42
0.0000001
 43
0.0000001
 44
0.0000000001
 12
0.2359522709
 22
0.3541440557
 32
0.0
 13
0.0022405098
 23
0.4255425554
 33
0.0
 40
0.0
 40
0.0
 40
0.0
 40
0.0
 40
0.0080280304
 40
0.0218584245
 40
0.0415678431
 40
0.0671002974
 40
0.0983438593
 40
0.135147229
 40
0.1773258644
 40
0.2246650247
 40
0.2769221631
 40
0.333828105
 40
0.3950893218
 40
0.4603890646
 40
0.5293898417
 40
0.6017344933
 40
0.6770484607
 40
0.7549417191
 40
0.8350114612
 40
0.9168420376
 40
1.0
 40
1.0
 40
1.0
 40
1.0
 10
-1.6043295695
 20
-10.5370549525
 30
0.0
 10
-1.6036981588
 20
-10.5361072594
 30
0.0
 10
-1.6028025494
 20
-10.5330660048
 30
0.0
 10
-1.6016163855
 20
-10.5273282577
 30
0.0
 10
-1.6004614784
 20
-10.5190059438
 30
0.0
 10
-1.5992883352
 20
-10.5082273178
 30
0.0
 10
-1.5981440721
 20
-10.4949987881
 30
0.0
 10
-1.5970268429
 20
-10.479403955
 30
0.0
 10
-1.5959489889
 20
-10.4615171666
 30
0.0
 10
-1.5949159828
 20
-10.4414329193
 30
0.0
 10
-1.5939344542
 20
-10.4192546746
 30
0.0
 10
-1.5930098697
 20
-10.3950976525
 30
0.0
 10
-1.5921474233
 20
-10.3690871603
 30
0.0
 10
-1.5913518192
 20
-10.3413581599
 30
0.0
 10
-1.5906273633
 20
-10.3120545333
 30
0.0
 10
-1.5899779394
 20
-10.2813283119
 30
0.0
 10
-1.5894070108
 20
-10.2493389354
 30
0.0
 10
-1.5889176067
 20
-10.2162522889
 30
0.0
 10
-1.5885123198
 20
-10.1822400633
 30
0.0
 10
-1.5881932987
 20
-10.1474800966
 30
0.0
 10
-1.5880402192
 20
-10.1240770269
 30
0.0
 10
-1.5879781138
 20
-10.1122812763
 30
0.0
 11
-1.6043295695
 21
-10.5370549525
 31
0.0
 11
-1.6030769628
 21
-10.5338765581
 31
0.0
 11
-1.6018353883
 21
-10.5281235036
 31
0.0
 11
-1.600611494
 21
-10.519825968
 31
0.0
 11
-1.5994116467
 21
-10.509027124
 31
0.0
 11
-1.5982420648
 21
-10.4957830169
 31
0.0
 11
-1.5971088195
 21
-10.4801624534
 31
0.0
 11
-1.5960177924
 21
-10.4622465898
 31
0.0
 11
-1.5949746452
 21
-10.4421285095
 31
0.0
 11
-1.593984785
 21
-10.4199126064
 31
0.0
 11
-1.5930533486
 21
-10.3957142905
 31
0.0
 11
-1.5921851642
 21
-10.3696591348
 31
0.0
 11
-1.5913847357
 21
-10.3418824607
 31
0.0
 11
-1.5906562097
 21
-10.3125283257
 31
0.0
 11
-1.5900033638
 21
-10.281749094
 31
0.0
 11
-1.5894295816
 21
-10.2497044882
 31
0.0
 11
-1.5889378366
 21
-10.2165607803
 31
0.0
 11
-1.5885306736
 21
-10.1824896581
 31
0.0
 11
-1.5882102059
 21
-10.1476682575
 31
0.0
 11
-1.5879781138
 21
-10.1122812763
 31
0.0
  0
SPLINE
  5
34A
100
AcDbEntity
  8
ASSI
100
AcDbSpline
 62
253
  6
CONTINUOUS
 70
0
 71
3
 72
25
 73
21
 74
19
 42
0.0000001
 43
0.0000001
 44
0.0000000001
 12
-0.2498751414
 22
0.0000000203
 32
0.0
 13
-0.2424238368
 23
0.0605662416
 33
0.0
 40
0.0
 40
0.0
 40
0.0
 40
0.0
 40
0.0852547325
 40
0.169900986
 40
0.2533120723
 40
0.3348797757
 40
0.4140110861
 40
0.4901304632
 40
0.5626837212
 40
0.6311429841
 40
0.6950103138
 40
0.7538209474
 40
0.8071470326
 40
0.8546008355
 40
0.8958373009
 40
0.9305566248
 40
0.958507049
 40
0.9794866968
 40
0.9933463674
 40
1.0
 40
1.0
 40
1.0
 40
1.0
 10
-1.050776634
 20
10.8729949639
 30
0.0
 10
-1.0578776468
 20
10.8729949644
 30
0.0
 10
-1.0720289917
 20
10.8730002156
 30
0.0
 10
-1.093127777
 20
10.8730238227
 30
0.0
 10
-1.1139194399
 20
10.8730629748
 30
0.0
 10
-1.1342517179
 20
10.8731173807
 30
0.0
 10
-1.1539766084
 20
10.8731866336
 30
0.0
 10
-1.1729506082
 20
10.8732702147
 30
0.0
 10
-1.1910356373
 20
10.8733674968
 30
0.0
 10
-1.2081000799
 20
10.8734777364
 30
0.0
 10
-1.2240197578
 20
10.8736001111
 30
0.0
 10
-1.238678846
 20
10.8737335978
 30
0.0
 10
-1.2519706079
 20
10.873877366
 30
0.0
 10
-1.2637985391
 20
10.8740294848
 30
0.0
 10
-1.274075946
 20
10.8741908756
 30
0.0
 10
-1.2827299384
 20
10.874353222
 30
0.0
 10
-1.2896924272
 20
10.8745331406
 30
0.0
 10
-1.2949263765
 20
10.8746793273
 30
0.0
 10
-1.2983650727
 20
10.8748924057
 30
0.0
 10
-1.3000866216
 20
10.8749661976
 30
0.0
 10
-1.3006242879
 20
10.8751005261
 30
0.0
 11
-1.050776634
 21
10.8729949639
 31
0.0
 11
-1.0720796709
 21
10.873002899
 31
0.0
 11
-1.0932306521
 21
10.8730266515
 31
0.0
 11
-1.1140729718
 21
10.8730660486
 31
0.0
 11
-1.1344546397
 21
10.8731208035
 31
0.0
 11
-1.1542274642
 21
10.8731905179
 31
0.0
 11
-1.1732476181
 21
10.8732746851
 31
0.0
 11
-1.1913766088
 21
10.8733726922
 31
0.0
 11
-1.2084825158
 21
10.873483826
 31
0.0
 11
-1.2244408963
 21
10.8736072783
 31
0.0
 11
-1.2391355927
 21
10.8737421504
 31
0.0
 11
-1.2524596635
 21
10.8738874608
 31
0.0
 11
-1.2643161801
 21
10.8740421525
 31
0.0
 11
-1.2746188592
 21
10.8742050998
 31
0.0
 11
-1.2832926891
 21
10.8743751163
 31
0.0
 11
-1.2902745911
 21
10.8745509651
 31
0.0
 11
-1.2955137786
 21
10.8747313677
 31
0.0
 11
-1.2989720934
 21
10.8749150085
 31
0.0
 11
-1.3006242879
 21
10.8751005261
 31
0.0
  0
SPLINE
  5
34B
100
AcDbEntity
  8
ASSI
100
AcDbSpline
 62
253
  6
CONTINUOUS
 70
0
 71
3
 72
25
 73
21
 74
19
 42
0.0000001
 43
0.0000001
 44
0.0000000001
 12
-0.2424238368
 22
-0.0605662415
 32
0.0
 13
-0.2498751414
 23
-0.0000000203
 33
0.0
 40
0.0
 40
0.0
 40
0.0
 40
0.0
 40
0.0066536326
 40
0.0205133032
 40
0.041492951
 40
0.0694433752
 40
0.1041626991
 40
0.1453991645
 40
0.1928529674
 40
0.2461790526
 40
0.3049896861
 40
0.3688570158
 40
0.4373162788
 40
0.5098695368
 40
0.5859889138
 40
0.6651202243
 40
0.7466879277
 40
0.830099014
 40
0.9147452674
 40
1.0
 40
1.0
 40
1.0
 40
1.0
 10
20.1352965122
 20
10.8751005261
 30
0.0
 10
20.1347588458
 20
10.8749661976
 30
0.0
 10
20.1330372969
 20
10.8748924057
 30
0.0
 10
20.1295986007
 20
10.8746793273
 30
0.0
 10
20.1243646514
 20
10.8745331406
 30
0.0
 10
20.1174021626
 20
10.874353222
 30
0.0
 10
20.1087481703
 20
10.8741908756
 30
0.0
 10
20.0984707634
 20
10.8740294848
 30
0.0
 10
20.0866428321
 20
10.873877366
 30
0.0
 10
20.0733510703
 20
10.8737335978
 30
0.0
 10
20.058691982
 20
10.8736001111
 30
0.0
 10
20.0427723041
 20
10.8734777364
 30
0.0
 10
20.0257078615
 20
10.8733674968
 30
0.0
 10
20.0076228324
 20
10.8732702147
 30
0.0
 10
19.9886488327
 20
10.8731866336
 30
0.0
 10
19.9689239422
 20
10.8731173807
 30
0.0
 10
19.9485916641
 20
10.8730629748
 30
0.0
 10
19.9278000012
 20
10.8730238227
 30
0.0
 10
19.9067012159
 20
10.8730002156
 30
0.0
 10
19.892549871
 20
10.8729949644
 30
0.0
 10
19.8854488583
 20
10.8729949639
 30
0.0
 11
20.1352965122
 21
10.8751005261
 31
0.0
 11
20.1336443176
 21
10.8749150085
 31
0.0
 11
20.1301860028
 21
10.8747313677
 31
0.0
 11
20.1249468154
 21
10.8745509651
 31
0.0
 11
20.1179649133
 21
10.8743751163
 31
0.0
 11
20.1092910835
 21
10.8742050998
 31
0.0
 11
20.0989884043
 21
10.8740421525
 31
0.0
 11
20.0871318877
 21
10.8738874608
 31
0.0
 11
20.073807817
 21
10.8737421504
 31
0.0
 11
20.0591131206
 21
10.8736072783
 31
0.0
 11
20.04315474
 21
10.873483826
 31
0.0
 11
20.026048833
 21
10.8733726922
 31
0.0
 11
20.0079198423
 21
10.8732746851
 31
0.0
 11
19.9888996885
 21
10.8731905179
 31
0.0
 11
19.969126864
 21
10.8731208035
 31
0.0
 11
19.9487451961
 21
10.8730660486
 31
0.0
 11
19.9279028763
 21
10.8730266515
 31
0.0
 11
19.9067518951
 21
10.873002899
 31
0.0
 11
19.8854488583
 21
10.8729949639
 31
0.0
  0
SPLINE
  5
34C
100
AcDbEntity
  8
ASSI
100
AcDbSpline
 62
253
  6
CONTINUOUS
 70
0
 71
3
 72
10
 73
6
 74
4
 42
0.0000001
 43
0.0000001
 44
0.0000000001
 12
0.0002514557
 22
-9.0950366859
 32
0.0
 13
0.0060355961
 23
-9.0950346867
 33
0.0
 40
0.0
 40
0.0
 40
0.0
 40
0.0
 40
0.33335237
 40
0.66668676
 40
1.0
 40
1.0
 40
1.0
 40
1.0
 10
20.3851442859
 20
10.625110062
 30
0.0
 10
20.385172227
 20
9.6144927172
 30
0.0
 10
20.3854422132
 20
7.5933125362
 30
0.0
 10
20.3864899885
 20
4.5616338003
 30
0.0
 10
20.3876169028
 20
2.5405725451
 30
0.0
 10
20.3882874842
 20
1.5300740521
 30
0.0
 11
20.3851442859
 21
10.625110062
 31
0.0
 11
20.3855493642
 21
7.5932580533
 31
0.0
 11
20.3865971218
 21
4.5615697275
 31
0.0
 11
20.3882874842
 21
1.5300740521
 31
0.0
  0
SPLINE
  5
34D
100
AcDbEntity
  8
ASSI
100
AcDbSpline
 62
253
  6
CONTINUOUS
 70
0
 71
3
 72
25
 73
21
 74
19
 42
0.0000001
 43
0.0000001
 44
0.0000000001
 12
-0.4951377735
 22
-0.0674709553
 32
0.0
 13
-0.4997136625
 23
-0.0000069763
 33
0.0
 40
0.0
 40
0.0
 40
0.0
 40
0.0
 40
0.0066260327
 40
0.0204733849
 40
0.041446253
 40
0.0693927016
 40
0.1041099476
 40
0.1453456978
 40
0.1927998486
 40
0.2461271361
 40
0.3049396744
 40
0.3688095125
 40
0.4372718806
 40
0.5098287828
 40
0.5859522814
 40
0.665088138
 40
0.7466607239
 40
0.8300771141
 40
0.914728373
 40
1.0
 40
1.0
 40
1.0
 40
1.0
 10
20.3851442859
 20
10.6251100544
 30
0.0
 10
20.3840506862
 20
10.6249610328
 30
0.0
 10
20.3806321742
 20
10.6248850942
 30
0.0
 10
20.3737391467
 20
10.6246491507
 30
0.0
 10
20.3632813876
 20
10.6244913214
 30
0.0
 10
20.3493528971
 20
10.6242941181
 30
0.0
 10
20.332046528
 20
10.624117022
 30
0.0
 10
20.3114914087
 20
10.6239405473
 30
0.0
 10
20.2878359394
 20
10.6237742601
 30
0.0
 10
20.2612526593
 20
10.6236169943
 30
0.0
 10
20.2319348681
 20
10.6234709152
 30
0.0
 10
20.200095936
 20
10.6233369168
 30
0.0
 10
20.165967518
 20
10.623216126
 30
0.0
 10
20.1297979375
 20
10.6231094438
 30
0.0
 10
20.0918504146
 20
10.6230176879
 30
0.0
 10
20.0524011011
 20
10.6229415471
 30
0.0
 10
20.0117369725
 20
10.6228815954
 30
0.0
 10
19.9701541151
 20
10.622838278
 30
0.0
 10
19.9279550897
 20
10.6228119216
 30
0.0
 10
19.8996508269
 20
10.6228057963
 30
0.0
 10
19.8854470279
 20
10.6228055981
 30
0.0
 11
20.3851442859
 21
10.6251100544
 31
0.0
 11
20.3818393605
 21
10.6249076253
 31
0.0
 11
20.3749225521
 21
10.6247072164
 31
0.0
 11
20.3644439741
 21
10.6245102656
 31
0.0
 11
20.3504800724
 21
10.6243182259
 31
0.0
 11
20.3331323845
 21
10.6241324884
 31
0.0
 11
20.3125270863
 21
10.6239544078
 31
0.0
 11
20.2888142019
 21
10.6237852814
 31
0.0
 11
20.2621663017
 21
10.623626342
 31
0.0
 11
20.2327772434
 21
10.6234787472
 31
0.0
 11
20.2008608989
 21
10.6233435731
 31
0.0
 11
20.1666495349
 21
10.6232218052
 31
0.0
 11
20.1303920189
 21
10.623114331
 31
0.0
 11
20.0923521788
 21
10.6230219343
 31
0.0
 11
20.0528069843
 21
10.6229452889
 31
0.0
 11
20.0120440933
 21
10.6228849543
 31
0.0
 11
19.9703598062
 21
10.622841369
 31
0.0
 11
19.9280584239
 21
10.6228148533
 31
0.0
 11
19.8854470279
 21
10.6228055981
 31
0.0
  0
SPLINE
  5
34E
100
AcDbEntity
  8
ASSI
100
AcDbSpline
 62
253
  6
CONTINUOUS
 70
0
 71
3
 72
25
 73
21
 74
19
 42
0.0000001
 43
0.0000001
 44
0.0000000001
 12
-0.4390248508
 22
-0.2392029787
 32
0.0
 13
-0.4999607732
 23
-0.0003316614
 33
0.0
 40
0.0
 40
0.0
 40
0.0
 40
0.0
 40
0.0068059321
 40
0.0207337759
 40
0.0417520194
 40
0.0697246348
 40
0.1044548601
 40
0.145693439
 40
0.1931423402
 40
0.246457634
 40
0.3052523086
 40
0.369099243
 40
0.4375344017
 40
0.5100602612
 40
0.5861494627
 40
0.6652486694
 40
0.7467826077
 40
0.8301582634
 40
0.9147692045
 40
1.0
 40
1.0
 40
1.0
 40
1.0
 10
20.3882874842
 20
1.5300740521
 30
0.0
 10
20.3872914931
 20
1.5295313857
 30
0.0
 10
20.3837491962
 20
1.5291293333
 30
0.0
 10
20.3769276868
 20
1.5282542023
 30
0.0
 10
20.3664180873
 20
1.5275801842
 30
0.0
 10
20.3525058805
 20
1.5267997439
 30
0.0
 10
20.3351914046
 20
1.5260766723
 30
0.0
 10
20.314638168
 20
1.525361853
 30
0.0
 10
20.2909816861
 20
1.5246832362
 30
0.0
 10
20.2643986043
 20
1.5240397444
 30
0.0
 10
20.2350807637
 20
1.5234389894
 30
0.0
 10
20.2032419284
 20
1.5228850168
 30
0.0
 10
20.1691135988
 20
1.5223823448
 30
0.0
 10
20.1329441341
 20
1.5219347454
 30
0.0
 10
20.0949966937
 20
1.5215456226
 30
0.0
 10
20.0555473942
 20
1.5212178924
 30
0.0
 10
20.0148832774
 20
1.5209540056
 30
0.0
 10
19.9733002268
 20
1.5207559265
 30
0.0
 10
19.9311008144
 20
1.5206251261
 30
0.0
 10
19.9027960888
 20
1.5205834747
 30
0.0
 10
19.8885920707
 20
1.5205740521
 30
0.0
 11
20.3882874842
 21
1.5300740521
 31
0.0
 11
20.3849826289
 21
1.5292639302
 31
0.0
 11
20.3780658493
 21
1.5284597031
 31
0.0
 11
20.3675874747
 21
1.5276672227
 31
0.0
 11
20.3536237495
 21
1.5268922552
 31
0.0
 11
20.336276279
 21
1.5261404397
 31
0.0
 11
20.3156712901
 21
1.5254172466
 31
0.0
 11
20.2919587123
 21
1.5247279381
 31
0.0
 11
20.2653110872
 21
1.5240775301
 31
0.0
 11
20.235922313
 21
1.5234707549
 31
0.0
 11
20.2040062335
 21
1.5229120278
 31
0.0
 11
20.169795082
 21
1.5224054144
 31
0.0
 11
20.1335377918
 21
1.5219546008
 31
0.0
 11
20.0954981844
 21
1.5215628673
 31
0.0
 11
20.0559530504
 21
1.5212330645
 31
0.0
 11
20.015190135
 21
1.520967592
 31
0.0
 11
19.9735060446
 21
1.5207683815
 31
0.0
 11
19.9312040881
 21
1.5206368826
 31
0.0
 11
19.8885920707
 21
1.5205740521
 31
0.0
  0
SPLINE
  5
34F
100
AcDbEntity
  8
ASSI
100
AcDbSpline
 62
253
  6
CONTINUOUS
 70
0
 71
3
 72
25
 73
21
 74
19
 42
0.0000001
 43
0.0000001
 44
0.0000000001
 12
-0.1156726714
 22
-0.5000143222
 32
0.0
 13
-0.5132129279
 23
-0.0026419614
 33
0.0
 40
0.0
 40
0.0
 40
0.0
 40
0.0
 40
0.013948679
 40
0.0321748863
 40
0.0558987844
 40
0.0855593318
 40
0.1212490608
 40
0.1628831421
 40
0.210267819
 40
0.2631318866
 40
0.3211434051
 40
0.3839199784
 40
0.4510360375
 40
0.5220286697
 40
0.5964027332
 40
0.673635628
 40
0.753181915
 40
0.8344778813
 40
0.9169460997
 40
1.0
 40
1.0
 40
1.0
 40
1.0
 10
20.422650338
 20
-10.1122812763
 30
0.0
 10
20.4221125111
 20
-10.1146061227
 30
0.0
 10
20.4192331634
 20
-10.1195556659
 30
0.0
 10
20.4118700135
 20
-10.1257670128
 30
0.0
 10
20.4011964638
 20
-10.1318703701
 30
0.0
 10
20.3871467222
 20
-10.1378253586
 30
0.0
 10
20.3697755127
 20
-10.1436299373
 30
0.0
 10
20.3491795367
 20
-10.1492265568
 30
0.0
 10
20.3254973892
 20
-10.1545732955
 30
0.0
 10
20.2988945513
 20
-10.1596258807
 30
0.0
 10
20.2695612162
 20
-10.1643449914
 30
0.0
 10
20.2377087684
 20
-10.1686940244
 30
0.0
 10
20.2035677928
 20
-10.1726398338
 30
0.0
 10
20.1673859802
 20
-10.1761525749
 30
0.0
 10
20.1294261592
 20
-10.1792058684
 30
0.0
 10
20.0899642693
 20
-10.1817768921
 30
0.0
 10
20.0492873007
 20
-10.1838464981
 30
0.0
 10
20.0076911286
 20
-10.1853993147
 30
0.0
 10
19.9654784764
 20
-10.1864238343
 30
0.0
 10
19.9371630363
 20
-10.1867492245
 30
0.0
 10
19.9229549245
 20
-10.1868223662
 30
0.0
 11
20.422650338
 21
-10.1122812763
 31
0.0
 11
20.4193605772
 21
-10.1186393414
 31
0.0
 11
20.4124569774
 21
-10.1249511198
 31
0.0
 11
20.4019897969
 21
-10.1311706615
 31
0.0
 11
20.3880352369
 21
-10.1372526882
 31
0.0
 11
20.3706948868
 21
-10.1431529228
 31
0.0
 11
20.3500949845
 21
-10.1488284114
 31
0.0
 11
20.3263854976
 21
-10.1542378364
 31
0.0
 11
20.2997390313
 21
-10.1593418172
 31
0.0
 11
20.2703495724
 21
-10.1641031967
 31
0.0
 11
20.2384310764
 21
-10.168487312
 31
0.0
 11
20.2042159102
 21
-10.1724622466
 31
0.0
 11
20.1679531608
 21
-10.1759990631
 31
0.0
 11
20.1299068214
 21
-10.1790720134
 31
0.0
 11
20.0903538698
 21
-10.1816587263
 31
0.0
 11
20.0495822518
 21
-10.1837403705
 31
0.0
 11
20.0078887855
 21
-10.1853017917
 31
0.0
 11
19.9655769996
 21
-10.1863316227
 31
0.0
 11
19.9229549245
 21
-10.1868223662
 31
0.0
  0
SPLINE
  5
350
100
AcDbEntity
  8
ASSI
100
AcDbSpline
 62
253
  6
CONTINUOUS
 70
0
 71
3
 72
26
 73
22
 74
20
 42
0.0000001
 43
0.0000001
 44
0.0000000001
 12
0.0022369592
 22
-0.8499359847
 32
0.0
 13
0.2685929371
 23
-0.8063832936
 33
0.0
 40
0.0
 40
0.0
 40
0.0
 40
0.0
 40
0.0832795884
 40
0.1652175719
 40
0.2453906178
 40
0.3233820907
 40
0.3987881694
 40
0.4712177965
 40
0.5402953428
 40
0.6056625221
 40
0.6669806502
 40
0.7239316391
 40
0.7762204028
 40
0.823575887
 40
0.865753143
 40
0.902534145
 40
0.9337294817
 40
0.9591798621
 40
0.9787584546
 40
0.9923753083
 40
1.0
 40
1.0
 40
1.0
 40
1.0
 10
19.9229549245
 20
-10.1868223675
 30
0.0
 10
19.9230170222
 20
-10.2104164739
 30
0.0
 10
19.9231701413
 20
-10.257224521
 30
0.0
 10
19.9234891491
 20
-10.3267461552
 30
0.0
 10
19.9238944529
 20
-10.3947691248
 30
0.0
 10
19.9243838424
 20
-10.4609409203
 30
0.0
 10
19.9249547663
 20
-10.5249181697
 30
0.0
 10
19.9256041749
 20
-10.5863691074
 30
0.0
 10
19.9263286127
 20
-10.6449748534
 30
0.0
 10
19.9271241928
 20
-10.7004313436
 30
0.0
 10
19.9279866041
 20
-10.7524507926
 30
0.0
 10
19.9289111556
 20
-10.8007632598
 30
0.0
 10
19.9298925939
 20
-10.8451179721
 30
0.0
 10
19.9309256189
 20
-10.8852845758
 30
0.0
 10
19.9320030217
 20
-10.9210551039
 30
0.0
 10
19.9331210113
 20
-10.95224238
 30
0.0
 10
19.9342620102
 20
-10.978689552
 30
0.0
 10
19.9354420919
 20
-11.0002466684
 30
0.0
 10
19.9365748908
 20
-11.0168402173
 30
0.0
 10
19.9377946215
 20
-11.0283111591
 30
0.0
 10
19.9386237341
 20
-11.0343202452
 30
0.0
 10
19.9393063802
 20
-11.0363697198
 30
0.0
 11
19.9229549245
 21
-10.1868223675
 31
0.0
 11
19.923187052
 21
-10.257604551
 31
0.0
 11
19.9235075144
 21
-10.3272460956
 31
0.0
 11
19.9239146842
 21
-10.3953870719
 31
0.0
 11
19.9244064249
 21
-10.4616732368
 31
0.0
 11
19.9249802037
 21
-10.52576123
 31
0.0
 11
19.9256330421
 21
-10.587318528
 31
0.0
 11
19.9263615584
 21
-10.6460257037
 31
0.0
 11
19.9271619745
 21
-10.701578048
 31
0.0
 11
19.9280301445
 21
-10.7536874805
 31
0.0
 11
19.9289615648
 21
-10.8020833808
 31
0.0
 11
19.9299514074
 21
-10.8465146121
 31
0.0
 11
19.9309945357
 21
-10.8867503621
 31
0.0
 11
19.9320855432
 21
-10.9225818481
 31
0.0
 11
19.9332187674
 21
-10.9538229072
 31
0.0
 11
19.9343883308
 21
-10.9803112304
 31
0.0
 11
19.9355881509
 21
-11.0019091987
 31
0.0
 11
19.936812042
 21
-11.0185047379
 31
0.0
 11
19.9380535591
 21
-11.030011449
 31
0.0
 11
19.9393063802
 21
-11.0363697198
 31
0.0
  0
SPLINE
  5
351
100
AcDbEntity
  8
ASSI
100
AcDbSpline
 62
253
  6
CONTINUOUS
 70
0
 71
3
 72
26
 73
22
 74
20
 42
0.0000001
 43
0.0000001
 44
0.0000000001
 12
0.0022405098
 22
-0.4255425554
 32
0.0
 13
0.2359522711
 23
-0.3541440557
 33
0.0
 40
0.0
 40
0.0
 40
0.0
 40
0.0
 40
0.0831579624
 40
0.1649885388
 40
0.2450582809
 40
0.3229515393
 40
0.3982655067
 40
0.4706101583
 40
0.5396109354
 40
0.6049106782
 40
0.666171895
 40
0.7230778369
 40
0.7753349753
 40
0.8226741356
 40
0.864852771
 40
0.9016561407
 40
0.9328997026
 40
0.9584321569
 40
0.9781415755
 40
0.9919719696
 40
1.0
 40
1.0
 40
1.0
 40
1.0
 10
20.422650338
 20
-10.1122812763
 30
0.0
 10
20.4227124435
 20
-10.1240770269
 30
0.0
 10
20.422865523
 20
-10.1474800966
 30
0.0
 10
20.423184544
 20
-10.1822400633
 30
0.0
 10
20.4235898309
 20
-10.2162522889
 30
0.0
 10
20.424079235
 20
-10.2493389354
 30
0.0
 10
20.4246501636
 20
-10.2813283119
 30
0.0
 10
20.4252995875
 20
-10.3120545333
 30
0.0
 10
20.4260240434
 20
-10.3413581599
 30
0.0
 10
20.4268196476
 20
-10.3690871603
 30
0.0
 10
20.4276820939
 20
-10.3950976525
 30
0.0
 10
20.4286066785
 20
-10.4192546746
 30
0.0
 10
20.429588207
 20
-10.4414329193
 30
0.0
 10
20.4306212132
 20
-10.4615171666
 30
0.0
 10
20.4316990672
 20
-10.479403955
 30
0.0
 10
20.4328162963
 20
-10.4949987881
 30
0.0
 10
20.4339605594
 20
-10.5082273178
 30
0.0
 10
20.4351337026
 20
-10.5190059438
 30
0.0
 10
20.4362886097
 20
-10.5273282577
 30
0.0
 10
20.4374747737
 20
-10.5330660048
 30
0.0
 10
20.4383703831
 20
-10.5361072594
 30
0.0
 10
20.4390017937
 20
-10.5370549525
 30
0.0
 11
20.422650338
 21
-10.1122812763
 31
0.0
 11
20.4228824301
 21
-10.1476682575
 31
0.0
 11
20.4232028978
 21
-10.1824896581
 31
0.0
 11
20.4236100608
 21
-10.2165607803
 31
0.0
 11
20.4241018059
 21
-10.2497044882
 31
0.0
 11
20.424675588
 21
-10.281749094
 31
0.0
 11
20.425328434
 21
-10.3125283257
 31
0.0
 11
20.4260569599
 21
-10.3418824607
 31
0.0
 11
20.4268573884
 21
-10.3696591348
 31
0.0
 11
20.4277255728
 21
-10.3957142905
 31
0.0
 11
20.4286570092
 21
-10.4199126064
 31
0.0
 11
20.4296468695
 21
-10.4421285095
 31
0.0
 11
20.4306900167
 21
-10.4622465898
 31
0.0
 11
20.4317810438
 21
-10.4801624534
 31
0.0
 11
20.432914289
 21
-10.4957830169
 31
0.0
 11
20.4340838709
 21
-10.509027124
 31
0.0
 11
20.4352837183
 21
-10.519825968
 31
0.0
 11
20.4365076126
 21
-10.5281235036
 31
0.0
 11
20.437749187
 21
-10.5338765581
 31
0.0
 11
20.4390017937
 21
-10.5370549525
 31
0.0
  0
SPLINE
  5
352
100
AcDbEntity
  8
ASSI
100
AcDbSpline
 62
253
  6
CONTINUOUS
 70
0
 71
3
 72
25
 73
21
 74
19
 42
0.0000001
 43
0.0000001
 44
0.0000000001
 12
-0.0014329144
 22
-0.7839168072
 32
0.0
 13
-0.7839168112
 23
-0.0014307322
 33
0.0
 40
0.0
 40
0.0
 40
0.0
 40
0.0
 40
0.055506642
 40
0.1110226234
 40
0.1665481617
 40
0.2220831846
 40
0.2776273326
 40
0.3331799697
 40
0.3887402028
 40
0.4443069091
 40
0.49987877
 40
0.555454311
 40
0.6110319462
 40
0.6666100265
 40
0.7221868895
 40
0.7777609094
 40
0.8333305464
 40
0.8888943932
 40
0.9444512176
 40
1.0
 40
1.0
 40
1.0
 40
1.0
 10
20.4390017937
 20
-10.5370549525
 30
0.0
 10
20.4389752816
 20
-10.551559149
 30
0.0
 10
20.4376555917
 20
-10.5805835692
 30
0.0
 10
20.4318922968
 20
-10.6237732664
 30
0.0
 10
20.4223888423
 20
-10.6663078298
 30
0.0
 10
20.4092174238
 20
-10.7078599625
 30
0.0
 10
20.3924780744
 20
-10.7481153412
 30
0.0
 10
20.3722979162
 20
-10.7867680187
 30
0.0
 10
20.3488301904
 20
-10.8235246176
 30
0.0
 10
20.3222530932
 20
-10.8581060538
 30
0.0
 10
20.2927684226
 20
-10.8902497887
 30
0.0
 10
20.2606000455
 20
-10.9197117843
 30
0.0
 10
20.225992201
 20
-10.9462683638
 30
0.0
 10
20.1892076368
 20
-10.9697179059
 30
0.0
 10
20.1505256523
 20
-10.989882375
 30
0.0
 10
20.1102398451
 20
-11.0066086716
 30
0.0
 10
20.0686563838
 20
-11.0197697937
 30
0.0
 10
20.0260898189
 20
-11.0292658045
 30
0.0
 10
19.9828676622
 20
-11.0350245793
 30
0.0
 10
19.9538215883
 20
-11.036343228
 30
0.0
 10
19.9393063802
 20
-11.0363697198
 30
0.0
 11
20.4390017937
 21
-10.5370549525
 31
0.0
 11
20.4370252642
 21
-10.5805227004
 31
0.0
 11
20.4312695919
 21
-10.6236604009
 31
0.0
 11
20.4217784791
 21
-10.6661405127
 31
0.0
 11
20.4086239913
 21
-10.7076404873
 31
0.0
 11
20.3919060094
 21
-10.7478452185
 31
0.0
 11
20.3717514719
 21
-10.7864494347
 31
0.0
 11
20.3483134107
 21
-10.823160017
 31
0.0
 11
20.3217697892
 21
-10.8576982247
 31
0.0
 11
20.2923221513
 21
-10.8898018116
 31
0.0
 11
20.2601940906
 21
-10.9192270176
 31
0.0
 11
20.2256295532
 21
-10.9457504193
 31
0.0
 11
20.1888909851
 21
-10.9691706264
 31
0.0
 11
20.1502573394
 21
-10.989309811
 31
0.0
 11
20.1100219587
 21
-11.0060150579
 31
0.0
 11
20.0684903471
 21
-11.0191595252
 31
0.0
 11
20.0259778512
 21
-11.028643408
 31
0.0
 11
19.9828072652
 21
-11.034394696
 31
0.0
 11
19.9393063802
 21
-11.0363697198
 31
0.0
  0
SPLINE
  5
353
100
AcDbEntity
  8
ASSI
100
AcDbSpline
 62
253
  6
CONTINUOUS
 70
0
 71
3
 72
10
 73
6
 74
4
 42
0.0000001
 43
0.0000001
 44
0.0000000001
 12
0.0060355961
 22
9.0950346867
 32
0.0
 13
0.0002514557
 23
9.0950366859
 33
0.0
 40
0.0
 40
0.0
 40
0.0
 40
0.0
 40
0.33331324
 40
0.66664763
 40
1.0
 40
1.0
 40
1.0
 40
1.0
 10
-1.5536152599
 20
1.5300740521
 30
0.0
 10
-1.5529446786
 20
2.5405725451
 30
0.0
 10
-1.5518177643
 20
4.5616338003
 30
0.0
 10
-1.550769989
 20
7.5933125362
 30
0.0
 10
-1.5505000027
 20
9.6144927172
 30
0.0
 10
-1.5504720616
 20
10.625110062
 30
0.0
 11
-1.5536152599
 21
1.5300740521
 31
0.0
 11
-1.5519248976
 21
4.5615697275
 31
0.0
 11
-1.5508771399
 21
7.5932580533
 31
0.0
 11
-1.5504720616
 21
10.625110062
 31
0.0
  0
SPLINE
  5
354
100
AcDbEntity
  8
CURVE
100
AcDbSpline
 62
253
  6
CONTINUOUS
 70
0
 71
3
 72
15
 73
11
 74
9
 42
0.0000001
 43
0.0000001
 44
0.0000000001
 12
-1.7239393347
 22
-0.2582322443
 32
0.0
 13
-0.3308400356
 23
-1.7122908199
 33
0.0
 40
0.0
 40
0.0
 40
0.0
 40
0.0
 40
0.125
 40
0.25
 40
0.375
 40
0.5
 40
0.625
 40
0.75
 40
0.875
 40
1.0
 40
1.0
 40
1.0
 40
1.0
 10
8.7991139544
 20
1.0841591384
 30
0.0
 10
8.7272831488
 20
1.0733994616
 30
0.0
 10
8.5871287198
 20
1.0411743427
 30
0.0
 10
8.3848652538
 20
0.9598363043
 30
0.0
 10
8.1981991777
 20
0.848359216
 30
0.0
 10
8.0309192121
 20
0.7091746449
 30
0.0
 10
7.8871028908
 20
0.5457792263
 30
0.0
 10
7.7700156468
 20
0.3623481474
 30
0.0
 10
7.6823419632
 20
0.1627263867
 30
0.0
 10
7.6445801787
 20
0.0237899758
 30
0.0
 10
7.6307951773
 20
-0.0475554751
 30
0.0
 11
8.7991139544
 21
1.0841591384
 31
0.0
 11
8.5884567494
 21
1.0356742827
 31
0.0
 11
8.3874648188
 21
0.9548131294
 31
0.0
 11
8.2014301962
 21
0.8437413022
 31
0.0
 11
8.0348298195
 21
0.7051395036
 31
0.0
 11
7.891557737
 21
0.5424399496
 31
0.0
 11
7.7749179068
 21
0.3596497004
 31
0.0
 11
7.6875137977
 21
0.1612625774
 31
0.0
 11
7.6307951773
 21
-0.0475554751
 31
0.0
  0
SPLINE
  5
355
100
AcDbEntity
  8
CURVE
100
AcDbSpline
 62
253
  6
CONTINUOUS
 70
0
 71
3
 72
15
 73
11
 74
9
 42
0.0000001
 43
0.0000001
 44
0.0000000001
 12
-0.3282820642
 22
1.699224161
 32
0.0
 13
-1.7123994864
 23
0.2569101989
 33
0.0
 40
0.0
 40
0.0
 40
0.0
 40
0.0
 40
0.125
 40
0.25
 40
0.375
 40
0.5
 40
0.625
 40
0.75
 40
0.875
 40
1.0
 40
1.0
 40
1.0
 40
1.0
 10
11.2454778724
 20
-0.0349808682
 30
0.0
 10
11.231799453
 20
0.0358201385
 30
0.0
 10
11.1939064969
 20
0.1735499592
 30
0.0
 10
11.1057133031
 20
0.3712561793
 30
0.0
 10
10.9881484213
 20
0.552406747
 30
0.0
 10
10.8442113583
 20
0.7136916134
 30
0.0
 10
10.6771292751
 20
0.8510814027
 30
0.0
 10
10.491162062
 20
0.9612718806
 30
0.0
 10
10.2897620735
 20
1.0413214618
 30
0.0
 10
10.150490005
 20
1.0734545468
 30
0.0
 10
10.0791400264
 20
1.0841591384
 30
0.0
 11
11.2454778724
 21
-0.0349808682
 31
0.0
 11
11.1886808703
 21
0.1720685407
 31
0.0
 11
11.1008180218
 21
0.3684969039
 31
0.0
 11
10.9837530577
 21
0.5490957968
 31
0.0
 11
10.8403538549
 21
0.7097091006
 31
0.0
 11
10.6739817535
 21
0.8465481841
 31
0.0
 11
10.4885899327
 21
0.9562483978
 31
0.0
 11
10.2885107211
 21
1.0360131362
 31
0.0
 11
10.0791400264
 21
1.0841591384
 31
0.0
  0
SPLINE
  5
356
100
AcDbEntity
  8
CURVE
100
AcDbSpline
 62
253
  6
CONTINUOUS
 70
0
 71
3
 72
15
 73
11
 74
9
 42
0.0000001
 43
0.0000001
 44
0.0000000001
 12
1.7251588484
 22
0.2584149176
 32
0.0
 13
0.3310641973
 23
1.7128973684
 33
0.0
 40
0.0
 40
0.0
 40
0.0
 40
0.0
 40
0.125
 40
0.25
 40
0.375
 40
0.5
 40
0.625
 40
0.75
 40
0.875
 40
1.0
 40
1.0
 40
1.0
 40
1.0
 10
10.0796567911
 20
-4.0331890712
 30
0.0
 10
10.1515384097
 20
-4.022421783
 30
0.0
 10
10.2917637109
 20
-3.9901853163
 30
0.0
 10
10.4940112231
 20
-3.9087241877
 30
0.0
 10
10.6806122452
 20
-3.7972324522
 30
0.0
 10
10.847886313
 20
-3.6581857516
 30
0.0
 10
10.9917318844
 20
-3.4949254944
 30
0.0
 10
11.1088422682
 20
-3.3115830084
 30
0.0
 10
11.1964488943
 20
-3.1119873536
 30
0.0
 10
11.2341812267
 20
-2.9730174363
 30
0.0
 10
11.2479755682
 20
-2.9016467126
 30
0.0
 11
10.0796567911
 21
-4.0331890712
 31
0.0
 11
10.2904153043
 21
-3.9846675782
 31
0.0
 11
10.4914034747
 21
-3.9037190865
 31
0.0
 11
10.6773910861
 21
-3.792639958
 31
0.0
 11
10.8439815636
 21
-3.6541501588
 31
0.0
 11
10.9872760198
 21
-3.4915784563
 31
0.0
 11
11.1039249752
 21
-3.3088741469
 31
0.0
 11
11.191280873
 21
-3.1105108167
 31
0.0
 11
11.2479755682
 21
-2.9016467126
 31
0.0
  0
SPLINE
  5
357
100
AcDbEntity
  8
CURVE
100
AcDbSpline
 62
253
  6
CONTINUOUS
 70
0
 71
3
 72
10
 73
6
 74
4
 42
0.0000001
 43
0.0000001
 44
0.0000000001
 12
-1.0149516845
 22
-0.1331683455
 32
0.0
 13
-0.9880623975
 23
0.1297404281
 33
0.0
 40
0.0
 40
0.0
 40
0.0
 40
0.0
 40
0.3333333333
 40
0.6666666667
 40
1.0
 40
1.0
 40
1.0
 40
1.0
 10
9.9423696454
 20
-3.6483716517
 30
0.0
 10
9.829597236
 20
-3.6631681345
 30
0.0
 10
9.6047186732
 20
-3.682713937
 30
0.0
 10
9.2676410868
 20
-3.6821938343
 30
0.0
 10
9.046788703
 20
-3.6627872548
 30
0.0
 10
8.9370039922
 20
-3.6483716517
 30
0.0
 11
9.9423696454
 21
-3.6483716517
 31
0.0
 11
9.6047587162
 21
-3.6777408026
 31
0.0
 11
9.2686075886
 21
-3.6774288732
 31
0.0
 11
8.9370039922
 21
-3.6483716517
 31
0.0
  0
SPLINE
  5
358
100
AcDbEntity
  8
CURVE
100
AcDbSpline
 62
253
  6
CONTINUOUS
 70
0
 71
3
 72
14
 73
10
 74
8
 42
0.0000001
 43
0.0000001
 44
0.0000000001
 12
-0.2376920028
 22
-1.2309763506
 32
0.0
 13
-1.2350889339
 23
-0.1874259472
 33
0.0
 40
0.0
 40
0.0
 40
0.0
 40
0.0
 40
0.1428571429
 40
0.2857142857
 40
0.4285714286
 40
0.5714285714
 40
0.7142857143
 40
0.8571428571
 40
1.0
 40
1.0
 40
1.0
 40
1.0
 10
10.8550621689
 20
-2.8263713266
 30
0.0
 10
10.8437435021
 20
-2.8849892481
 30
0.0
 10
10.8106984312
 20
-2.9980342957
 30
0.0
 10
10.7328856425
 20
-3.157793466
 30
0.0
 10
10.6303110105
 20
-3.3018918416
 30
0.0
 10
10.5041078831
 20
-3.4264314189
 30
0.0
 10
10.357900277
 20
-3.5272573114
 30
0.0
 10
10.1953423334
 20
-3.6006685462
 30
0.0
 10
10.0813680545
 20
-3.6284222938
 30
0.0
 10
10.0225542957
 20
-3.6373473389
 30
0.0
 11
10.8550621689
 21
-2.8263713266
 31
0.0
 11
10.8059909008
 21
-2.9963995622
 31
0.0
 11
10.7287586686
 21
-3.1551833336
 31
0.0
 11
10.6263729279
 21
-3.2986320419
 31
0.0
 11
10.5007738033
 21
-3.4224791381
 31
0.0
 11
10.3551752207
 21
-3.5226882018
 31
0.0
 11
10.1939417543
 21
-3.5953717773
 31
0.0
 11
10.0225542957
 21
-3.6373473389
 31
0.0
  0
SPLINE
  5
359
100
AcDbEntity
  8
CURVE
100
AcDbSpline
 62
253
  6
CONTINUOUS
 70
0
 71
3
 72
14
 73
10
 74
8
 42
0.0000001
 43
0.0000001
 44
0.0000000001
 12
1.2255868168
 22
-0.1835480771
 32
0.0
 13
0.2347004894
 23
-1.2158089729
 33
0.0
 40
0.0
 40
0.0
 40
0.0
 40
0.0
 40
0.1428571429
 40
0.2857142857
 40
0.4285714286
 40
0.5714285714
 40
0.7142857143
 40
0.8571428571
 40
1.0
 40
1.0
 40
1.0
 40
1.0
 10
10.0222097859
 20
0.6881451511
 30
0.0
 10
10.0805710629
 20
0.6794047665
 30
0.0
 10
10.1937558296
 20
0.6519678681
 30
0.0
 10
10.3556689507
 20
0.5812382323
 30
0.0
 10
10.5019188862
 20
0.4830376766
 30
0.0
 10
10.6288840875
 20
0.3606850329
 30
0.0
 10
10.732515542
 20
0.2181797091
 30
0.0
 10
10.8095406429
 20
0.0590633336
 30
0.0
 10
10.8415605142
 20
-0.0528773535
 30
0.0
 10
10.8527367279
 20
-0.1107730189
 30
0.0
 11
10.0222097859
 21
0.6881451511
 31
0.0
 11
10.1924451581
 21
0.6470388201
 31
0.0
 11
10.3530584198
 21
0.5766597457
 31
0.0
 11
10.4987047639
 21
0.4790123286
 31
0.0
 11
10.6249951297
 21
0.3573262528
 31
0.0
 11
10.7280811497
 21
0.2154112004
 31
0.0
 11
10.8047080939
 21
0.0575975577
 31
0.0
 11
10.8527367279
 21
-0.1107730189
 31
0.0
  0
SPLINE
  5
35A
100
AcDbEntity
  8
CURVE
100
AcDbSpline
 62
253
  6
CONTINUOUS
 70
0
 71
3
 72
10
 73
6
 74
4
 42
0.0000001
 43
0.0000001
 44
0.0000000001
 12
1.0104650594
 22
0.1325796708
 32
0.0
 13
0.9926218627
 23
-0.1298279882
 33
0.0
 40
0.0
 40
0.0
 40
0.0
 40
0.0
 40
0.3333333333
 40
0.6666666667
 40
1.0
 40
1.0
 40
1.0
 40
1.0
 10
8.9364011001
 20
0.6993417189
 30
0.0
 10
9.0486749956
 20
0.7140727934
 30
0.0
 10
9.2728829564
 20
0.7335804317
 30
0.0
 10
9.6099417126
 20
0.7331370633
 30
0.0
 10
9.8314754352
 20
0.7137670509
 30
0.0
 10
9.9417667533
 20
0.6993417189
 30
0.0
 11
8.9364011001
 21
0.6993417189
 31
0.0
 11
9.2730074256
 21
0.7286296274
 31
0.0
 11
9.6091486839
 21
0.7283684549
 31
0.0
 11
9.9417667533
 21
0.6993417189
 31
0.0
  0
SPLINE
  5
35B
100
AcDbEntity
  8
CURVE
100
AcDbSpline
 62
253
  6
CONTINUOUS
 70
0
 71
3
 72
14
 73
10
 74
8
 42
0.0000001
 43
0.0000001
 44
0.0000000001
 12
0.2114622975
 22
1.0943300672
 32
0.0
 13
1.0715741593
 23
0.310751327
 33
0.0
 40
0.0
 40
0.0
 40
0.0
 40
0.0
 40
0.1428571429
 40
0.2857142857
 40
0.4285714286
 40
0.5714285714
 40
0.7142857143
 40
0.8571428571
 40
1.0
 40
1.0
 40
1.0
 40
1.0
 10
8.0237085765
 20
-0.1228308611
 30
0.0
 10
8.0337782098
 20
-0.0707199055
 30
0.0
 10
8.0620023763
 20
0.0305093975
 30
0.0
 10
8.127465686
 20
0.1753389155
 30
0.0
 10
8.2137642682
 20
0.3083601991
 30
0.0
 10
8.3196940881
 20
0.4266907515
 30
0.0
 10
8.4426271982
 20
0.5271111822
 30
0.0
 10
8.5801850123
 20
0.6076652197
 30
0.0
 10
8.6782372565
 20
0.645614432
 30
0.0
 10
8.7292645974
 20
0.6604121142
 30
0.0
 11
8.0237085765
 21
-0.1228308611
 31
0.0
 11
8.0658568863
 21
0.0293403247
 31
0.0
 11
8.1309382314
 21
0.1733708764
 31
0.0
 11
8.2170361411
 21
0.3059117439
 31
0.0
 11
8.3225279698
 21
0.4237057312
 31
0.0
 11
8.4450646488
 21
0.5238001167
 31
0.0
 11
8.581771771
 21
0.6037268499
 31
0.0
 11
8.7292645974
 21
0.6604121142
 31
0.0
  0
SPLINE
  5
35C
100
AcDbEntity
  8
CURVE
100
AcDbSpline
 62
253
  6
CONTINUOUS
 70
0
 71
3
 72
14
 73
10
 74
8
 42
0.0000001
 43
0.0000001
 44
0.0000000001
 12
-1.2264173091
 22
0.1841391682
 32
0.0
 13
-0.2349456163
 23
1.2162779495
 33
0.0
 40
0.0
 40
0.0
 40
0.0
 40
0.0
 40
0.1428571429
 40
0.2857142857
 40
0.4285714286
 40
0.5714285714
 40
0.7142857143
 40
0.8571428571
 40
1.0
 40
1.0
 40
1.0
 40
1.0
 10
8.856647087
 20
-3.6373473389
 30
0.0
 10
8.7982462627
 20
-3.628578807
 30
0.0
 10
8.6850014792
 20
-3.601091391
 30
0.0
 10
8.5230587676
 20
-3.5303100737
 30
0.0
 10
8.3768191763
 20
-3.4320908734
 30
0.0
 10
8.2498826374
 20
-3.3097444736
 30
0.0
 10
8.1462750953
 20
-3.1672518996
 30
0.0
 10
8.069258311
 20
-3.0081449708
 30
0.0
 10
8.037221904
 20
-2.8961749115
 30
0.0
 10
8.0260340175
 20
-2.8382569139
 30
0.0
 11
8.856647087
 21
-3.6373473389
 31
0.0
 11
8.6863222232
 21
-3.5961663588
 31
0.0
 11
8.5256759543
 21
-3.5257370932
 31
0.0
 11
8.3800363517
 21
-3.4280696735
 31
0.0
 11
8.2537708036
 21
-3.3063867779
 31
0.0
 11
8.1507068883
 21
-3.1644828405
 31
0.0
 11
8.07408534
 21
-3.0066702774
 31
0.0
 11
8.0260340175
 21
-2.8382569139
 31
0.0
  0
SPLINE
  5
35D
100
AcDbEntity
  8
CURVE
100
AcDbSpline
 62
253
  6
CONTINUOUS
 70
0
 71
3
 72
15
 73
11
 74
9
 42
0.0000001
 43
0.0000001
 44
0.0000000001
 12
0.3284063175
 22
-1.6993643902
 32
0.0
 13
1.7138197237
 23
-0.2571610274
 33
0.0
 40
0.0
 40
0.0
 40
0.0
 40
0.0
 40
0.125
 40
0.25
 40
0.375
 40
0.5
 40
0.625
 40
0.75
 40
0.875
 40
1.0
 40
1.0
 40
1.0
 40
1.0
 10
7.6332928731
 20
-2.9142213195
 30
0.0
 10
7.6469764697
 20
-2.9850281691
 30
0.0
 10
7.6848849056
 20
-3.1227376869
 30
0.0
 10
7.7730480038
 20
-3.3203040546
 30
0.0
 10
7.8905291388
 20
-3.5013144692
 30
0.0
 10
8.0343632886
 20
-3.6625151884
 30
0.0
 10
8.2013815302
 20
-3.7999098014
 30
0.0
 10
8.3873550209
 20
-3.9101657759
 30
0.0
 10
8.5888538563
 20
-3.9903034885
 30
0.0
 10
8.7282215639
 20
-4.0224740284
 30
0.0
 10
8.7996307191
 20
-4.0331890712
 30
0.0
 11
7.6332928731
 21
-2.9142213195
 31
0.0
 11
7.6901016463
 21
-3.1212380354
 31
0.0
 11
7.7779343433
 21
-3.3175447291
 31
0.0
 11
7.8949213079
 21
-3.4980128533
 31
0.0
 11
8.0382273039
 21
-3.658547504
 31
0.0
 11
8.2045407384
 21
-3.795386695
 31
0.0
 11
8.3899425783
 21
-3.9051460656
 31
0.0
 11
8.590112644
 21
-3.9849898381
 31
0.0
 11
8.7996307191
 21
-4.0331890712
 31
0.0
  0
SPLINE
  5
35E
100
AcDbEntity
  8
RACCORDO
100
AcDbSpline
 62
253
  6
CONTINUOUS
 70
0
 71
3
 72
22
 73
18
 74
16
 42
0.0000001
 43
0.0000001
 44
0.0000000001
 12
-0.0021832472
 22
0.2504804114
 32
0.0
 13
0.2504803882
 23
0.0021859092
 33
0.0
 40
0.0
 40
0.0
 40
0.0
 40
0.0
 40
0.104302378
 40
0.2074605176
 40
0.3083460848
 40
0.4058557355
 40
0.4989232668
 40
0.5865313867
 40
0.6677229924
 40
0.7416118719
 40
0.8073927865
 40
0.8643509935
 40
0.9118715322
 40
0.9494494424
 40
0.9767055422
 40
0.9934335021
 40
1.0
 40
1.0
 40
1.0
 40
1.0
 10
-16.9454725557
 20
10.6251100453
 30
0.0
 10
-16.9455484617
 20
10.6338186128
 30
0.0
 10
-16.9456679402
 20
10.6511405033
 30
0.0
 10
-16.9457508524
 20
10.6768862879
 30
0.0
 10
-16.9457362727
 20
10.7020650456
 30
0.0
 10
-16.945624457
 20
10.7264010029
 30
0.0
 10
-16.9454167794
 20
10.7496277517
 30
0.0
 10
-16.945115751
 20
10.7714906144
 30
0.0
 10
-16.9447249952
 20
10.7917513063
 30
0.0
 10
-16.9442494077
 20
10.8101843893
 30
0.0
 10
-16.9436948379
 20
10.8265996706
 30
0.0
 10
-16.943069583
 20
10.8407823551
 30
0.0
 10
-16.9423811743
 20
10.8526809869
 30
0.0
 10
-16.9416486782
 20
10.8618852949
 30
0.0
 10
-16.9408795846
 20
10.8689992596
 30
0.0
 10
-16.9401481277
 20
10.8725295757
 30
0.0
 10
-16.939477575
 20
10.8750957415
 30
0.0
 10
-16.9389293154
 20
10.8751005261
 30
0.0
 11
-16.9454725557
 21
10.6251100453
 31
0.0
 11
-16.9456524996
 21
10.6512361206
 31
0.0
 11
-16.9457349182
 21
10.6770760639
 31
0.0
 11
-16.9457189088
 21
10.7023468771
 31
0.0
 11
-16.9456046469
 21
10.7267717951
 31
0.0
 11
-16.9453933839
 21
10.7500833168
 31
0.0
 11
-16.9450874334
 21
10.7720261355
 31
0.0
 11
-16.9446901462
 21
10.792359934
 31
0.0
 11
-16.9442058734
 21
10.8108620174
 31
0.0
 11
-16.9436399188
 21
10.8273297515
 31
0.0
 11
-16.9429984806
 21
10.8415827823
 31
0.0
 11
-16.9422885839
 21
10.8534650113
 31
0.0
 11
-16.9415180034
 21
10.8628463046
 31
0.0
 11
-16.9406951786
 21
10.8696239189
 31
0.0
 11
-16.9398291209
 21
10.873723626
 31
0.0
 11
-16.9389293154
 21
10.8751005261
 31
0.0
  0
LINE
  5
35F
100
AcDbEntity
  8
RACCORDO
100
AcDbLine
 62
253
  6
CONTINUOUS
 10
-16.945470639
 20
10.6251100544
 11
-17.4280211359
 21
10.6228055981
  0
SPLINE
  5
360
100
AcDbEntity
  8
0
100
AcDbSpline
 62
253
  6
CONTINUOUS
 70
0
 71
3
 72
25
 73
21
 74
19
 42
0.0000001
 43
0.0000001
 44
0.0000000001
 12
-0.4773650572
 22
-0.072058679
 32
0.0
 13
0.0719729274
 23
-0.4773779936
 33
0.0
 40
0.0
 40
0.0
 40
0.0
 40
0.0
 40
0.0881044587
 40
0.1753073463
 40
0.2609738429
 40
0.3444803147
 40
0.4252188542
 40
0.5026017069
 40
0.5760655508
 40
0.6450755988
 40
0.7091294936
 40
0.7677609685
 40
0.8205432458
 40
0.8670921532
 40
0.9070689357
 40
0.9401827563
 40
0.9661928933
 40
0.9849107349
 40
0.9962021919
 40
1.0
 40
1.0
 40
1.0
 40
1.0
 10
-15.8714378292
 20
-10.1122812763
 30
0.0
 10
-15.8854571591
 20
-10.1143975066
 30
0.0
 10
-15.9133514276
 20
-10.1186144886
 30
0.0
 10
-15.9548738128
 20
-10.124910819
 30
0.0
 10
-15.9956617707
 20
-10.1311150616
 30
0.0
 10
-16.0354183678
 20
-10.137182039
 30
0.0
 10
-16.0738541715
 20
-10.1430675729
 30
0.0
 10
-16.1106893954
 20
-10.1487287837
 30
0.0
 10
-16.1456558032
 20
-10.1541244743
 30
0.0
 10
-16.1784991203
 20
-10.1592151712
 30
0.0
 10
-16.2089793347
 20
-10.1639642711
 30
0.0
 10
-16.2368776053
 20
-10.1683354214
 30
0.0
 10
-16.2619810607
 20
-10.1723021296
 30
0.0
 10
-16.2841376795
 20
-10.1758182015
 30
0.0
 10
-16.303093367
 20
-10.1789094368
 30
0.0
 10
-16.318978497
 20
-10.18140315
 30
0.0
 10
-16.3309518031
 20
-10.1836843571
 30
0.0
 10
-16.3407048436
 20
-10.1847420043
 30
0.0
 10
-16.3445146504
 20
-10.186595249
 30
0.0
 10
-16.3484915899
 20
-10.1862180362
 30
0.0
 10
-16.3484004768
 20
-10.1868223662
 30
0.0
 11
-15.8714378292
 21
-10.1122812763
 31
0.0
 11
-15.913494403
 21
-10.1186393414
 31
0.0
 11
-15.9551177701
 21
-10.1249511198
 31
0.0
 11
-15.9960049117
 21
-10.1311706615
 31
0.0
 11
-16.0358581692
 21
-10.1372526882
 31
0.0
 11
-16.0743874102
 21
-10.1431529228
 31
0.0
 11
-16.1113121414
 21
-10.1488284114
 31
0.0
 11
-16.1463635505
 21
-10.1542378364
 31
0.0
 11
-16.1792864626
 21
-10.1593418172
 31
0.0
 11
-16.2098411986
 21
-10.1641031967
 31
0.0
 11
-16.2378053197
 21
-10.168487312
 31
0.0
 11
-16.2629752468
 21
-10.1724622466
 31
0.0
 11
-16.2851677425
 21
-10.1759990631
 31
0.0
 11
-16.3042212451
 21
-10.1790720134
 31
0.0
 11
-16.3199970449
 21
-10.1816587263
 31
0.0
 11
-16.332380294
 21
-10.1837403705
 31
0.0
 11
-16.3412808421
 21
-10.1853017917
 31
0.0
 11
-16.3466338931
 21
-10.1863316227
 31
0.0
 11
-16.3484004768
 21
-10.1868223662
 31
0.0
  0
SPLINE
  5
361
100
AcDbEntity
  8
0
100
AcDbSpline
 62
253
  6
CONTINUOUS
 70
0
 71
3
 72
25
 73
21
 74
19
 42
0.0000001
 43
0.0000001
 44
0.0000000001
 12
-0.026149326
 22
-0.4995673242
 32
0.0
 13
0.4995656586
 23
-0.0261811268
 33
0.0
 40
0.0
 40
0.0
 40
0.0
 40
0.0
 40
0.087003969
 40
0.1733342858
 40
0.2583362773
 40
0.3413653954
 40
0.4217921358
 40
0.4990068475
 40
0.572424402
 40
0.641488693
 40
0.7056769416
 40
0.7645037943
 40
0.8175252187
 40
0.8643422405
 40
0.9046046611
 40
0.9380151502
 40
0.9643349325
 40
0.9833956743
 40
0.9951425725
 40
1.0
 40
1.0
 40
1.0
 40
1.0
 10
-15.4031934028
 20
-10.5370549525
 30
0.0
 10
-15.4039517678
 20
-10.5515430658
 30
0.0
 10
-15.4054189263
 20
-10.5804094212
 30
0.0
 10
-15.4074742495
 20
-10.6234381071
 30
0.0
 10
-15.4093656212
 20
-10.6658108607
 30
0.0
 10
-15.4110787425
 20
-10.707205953
 30
0.0
 10
-15.4126007012
 20
-10.7473090825
 30
0.0
 10
-15.4139200761
 20
-10.7858157711
 30
0.0
 10
-15.4150270485
 20
-10.8224336232
 30
0.0
 10
-15.4159134671
 20
-10.8568847465
 30
0.0
 10
-15.4165730641
 20
-10.8889071982
 30
0.0
 10
-15.4170011877
 20
-10.9182592214
 30
0.0
 10
-15.4171962093
 20
-10.9447138181
 30
0.0
 10
-15.4171557922
 20
-10.968083717
 30
0.0
 10
-15.4168896434
 20
-10.9881514938
 30
0.0
 10
-15.4163842406
 20
-11.0048832156
 30
0.0
 10
-15.4157074459
 20
-11.0178369
 30
0.0
 10
-15.4147519135
 20
-11.0277124793
 30
0.0
 10
-15.4138643367
 20
-11.0328695493
 30
0.0
 10
-15.4127205005
 20
-11.0363273289
 30
0.0
 10
-15.4119116326
 20
-11.0363697198
 30
0.0
 11
-15.4031934028
 21
-10.5370549525
 31
0.0
 11
-15.405402429
 21
-10.5805227004
 31
0.0
 11
-15.4074621876
 21
-10.6236604009
 31
0.0
 11
-15.4093570389
 21
-10.6661405127
 31
0.0
 11
-15.4110725956
 21
-10.7076404873
 31
0.0
 11
-15.4125958315
 21
-10.7478452185
 31
0.0
 11
-15.4139151808
 21
-10.7864494347
 31
0.0
 11
-15.4150206257
 21
-10.823160017
 31
0.0
 11
-15.4159037728
 21
-10.8576982247
 31
0.0
 11
-15.4165579163
 21
-10.8898018116
 31
0.0
 11
-15.4169780894
 21
-10.9192270176
 31
0.0
 11
-15.4171611018
 21
-10.9457504193
 31
0.0
 11
-15.4171055638
 21
-10.9691706264
 31
0.0
 11
-15.4168118971
 21
-10.989309811
 31
0.0
 11
-15.4162823315
 21
-11.0060150579
 31
0.0
 11
-15.415520888
 21
-11.0191595252
 31
0.0
 11
-15.4145333482
 21
-11.028643408
 31
0.0
 11
-15.4133272103
 21
-11.034394696
 31
0.0
 11
-15.4119116326
 21
-11.0363697198
 31
0.0
  0
SPLINE
  5
362
100
AcDbEntity
  8
ASSI
100
AcDbSpline
 62
253
  6
CONTINUOUS
 70
0
 71
3
 72
22
 73
18
 74
16
 42
0.0000001
 43
0.0000001
 44
0.0000000001
 12
-0.0021832472
 22
0.2504804114
 32
0.0
 13
0.2504803882
 23
0.0021859092
 33
0.0
 40
0.0
 40
0.0
 40
0.0
 40
0.0
 40
0.104302378
 40
0.2074605176
 40
0.3083460848
 40
0.4058557355
 40
0.4989232668
 40
0.5865313867
 40
0.6677229924
 40
0.7416118719
 40
0.8073927865
 40
0.8643509935
 40
0.9118715322
 40
0.9494494424
 40
0.9767055422
 40
0.9934335021
 40
1.0
 40
1.0
 40
1.0
 40
1.0
 10
-16.9454725557
 20
10.6251100453
 30
0.0
 10
-16.9455484617
 20
10.6338186128
 30
0.0
 10
-16.9456679402
 20
10.6511405033
 30
0.0
 10
-16.9457508524
 20
10.6768862879
 30
0.0
 10
-16.9457362727
 20
10.7020650456
 30
0.0
 10
-16.945624457
 20
10.7264010029
 30
0.0
 10
-16.9454167794
 20
10.7496277517
 30
0.0
 10
-16.945115751
 20
10.7714906144
 30
0.0
 10
-16.9447249952
 20
10.7917513063
 30
0.0
 10
-16.9442494077
 20
10.8101843893
 30
0.0
 10
-16.9436948379
 20
10.8265996706
 30
0.0
 10
-16.943069583
 20
10.8407823551
 30
0.0
 10
-16.9423811743
 20
10.8526809869
 30
0.0
 10
-16.9416486782
 20
10.8618852949
 30
0.0
 10
-16.9408795846
 20
10.8689992596
 30
0.0
 10
-16.9401481277
 20
10.8725295757
 30
0.0
 10
-16.939477575
 20
10.8750957415
 30
0.0
 10
-16.9389293154
 20
10.8751005261
 30
0.0
 11
-16.9454725557
 21
10.6251100453
 31
0.0
 11
-16.9456524996
 21
10.6512361206
 31
0.0
 11
-16.9457349182
 21
10.6770760639
 31
0.0
 11
-16.9457189088
 21
10.7023468771
 31
0.0
 11
-16.9456046469
 21
10.7267717951
 31
0.0
 11
-16.9453933839
 21
10.7500833168
 31
0.0
 11
-16.9450874334
 21
10.7720261355
 31
0.0
 11
-16.9446901462
 21
10.792359934
 31
0.0
 11
-16.9442058734
 21
10.8108620174
 31
0.0
 11
-16.9436399188
 21
10.8273297515
 31
0.0
 11
-16.9429984806
 21
10.8415827823
 31
0.0
 11
-16.9422885839
 21
10.8534650113
 31
0.0
 11
-16.9415180034
 21
10.8628463046
 31
0.0
 11
-16.9406951786
 21
10.8696239189
 31
0.0
 11
-16.9398291209
 21
10.873723626
 31
0.0
 11
-16.9389293154
 21
10.8751005261
 31
0.0
  0
LINE
  5
363
100
AcDbEntity
  8
ASSI
100
AcDbLine
 62
253
  6
CONTINUOUS
 10
-16.945470639
 20
10.6251100544
 11
-17.4280211359
 21
10.6228055981
  0
SPLINE
  5
364
100
AcDbEntity
  8
ASSI
100
AcDbSpline
 62
253
  6
CONTINUOUS
 70
0
 71
3
 72
25
 73
21
 74
19
 42
0.0000001
 43
0.0000001
 44
0.0000000001
 12
-0.4773650572
 22
-0.072058679
 32
0.0
 13
0.0719729274
 23
-0.4773779936
 33
0.0
 40
0.0
 40
0.0
 40
0.0
 40
0.0
 40
0.0881044587
 40
0.1753073463
 40
0.2609738429
 40
0.3444803147
 40
0.4252188542
 40
0.5026017069
 40
0.5760655508
 40
0.6450755988
 40
0.7091294936
 40
0.7677609685
 40
0.8205432458
 40
0.8670921532
 40
0.9070689357
 40
0.9401827563
 40
0.9661928933
 40
0.9849107349
 40
0.9962021919
 40
1.0
 40
1.0
 40
1.0
 40
1.0
 10
-15.8714378292
 20
-10.1122812763
 30
0.0
 10
-15.8854571591
 20
-10.1143975066
 30
0.0
 10
-15.9133514276
 20
-10.1186144886
 30
0.0
 10
-15.9548738128
 20
-10.124910819
 30
0.0
 10
-15.9956617707
 20
-10.1311150616
 30
0.0
 10
-16.0354183678
 20
-10.137182039
 30
0.0
 10
-16.0738541715
 20
-10.1430675729
 30
0.0
 10
-16.1106893954
 20
-10.1487287837
 30
0.0
 10
-16.1456558032
 20
-10.1541244743
 30
0.0
 10
-16.1784991203
 20
-10.1592151712
 30
0.0
 10
-16.2089793347
 20
-10.1639642711
 30
0.0
 10
-16.2368776053
 20
-10.1683354214
 30
0.0
 10
-16.2619810607
 20
-10.1723021296
 30
0.0
 10
-16.2841376795
 20
-10.1758182015
 30
0.0
 10
-16.303093367
 20
-10.1789094368
 30
0.0
 10
-16.318978497
 20
-10.18140315
 30
0.0
 10
-16.3309518031
 20
-10.1836843571
 30
0.0
 10
-16.3407048436
 20
-10.1847420043
 30
0.0
 10
-16.3445146504
 20
-10.186595249
 30
0.0
 10
-16.3484915899
 20
-10.1862180362
 30
0.0
 10
-16.3484004768
 20
-10.1868223662
 30
0.0
 11
-15.8714378292
 21
-10.1122812763
 31
0.0
 11
-15.913494403
 21
-10.1186393414
 31
0.0
 11
-15.9551177701
 21
-10.1249511198
 31
0.0
 11
-15.9960049117
 21
-10.1311706615
 31
0.0
 11
-16.0358581692
 21
-10.1372526882
 31
0.0
 11
-16.0743874102
 21
-10.1431529228
 31
0.0
 11
-16.1113121414
 21
-10.1488284114
 31
0.0
 11
-16.1463635505
 21
-10.1542378364
 31
0.0
 11
-16.1792864626
 21
-10.1593418172
 31
0.0
 11
-16.2098411986
 21
-10.1641031967
 31
0.0
 11
-16.2378053197
 21
-10.168487312
 31
0.0
 11
-16.2629752468
 21
-10.1724622466
 31
0.0
 11
-16.2851677425
 21
-10.1759990631
 31
0.0
 11
-16.3042212451
 21
-10.1790720134
 31
0.0
 11
-16.3199970449
 21
-10.1816587263
 31
0.0
 11
-16.332380294
 21
-10.1837403705
 31
0.0
 11
-16.3412808421
 21
-10.1853017917
 31
0.0
 11
-16.3466338931
 21
-10.1863316227
 31
0.0
 11
-16.3484004768
 21
-10.1868223662
 31
0.0
  0
SPLINE
  5
365
100
AcDbEntity
  8
ASSI
100
AcDbSpline
 62
253
  6
CONTINUOUS
 70
0
 71
3
 72
25
 73
21
 74
19
 42
0.0000001
 43
0.0000001
 44
0.0000000001
 12
-0.026149326
 22
-0.4995673242
 32
0.0
 13
0.4995656586
 23
-0.0261811268
 33
0.0
 40
0.0
 40
0.0
 40
0.0
 40
0.0
 40
0.087003969
 40
0.1733342858
 40
0.2583362773
 40
0.3413653954
 40
0.4217921358
 40
0.4990068475
 40
0.572424402
 40
0.641488693
 40
0.7056769416
 40
0.7645037943
 40
0.8175252187
 40
0.8643422405
 40
0.9046046611
 40
0.9380151502
 40
0.9643349325
 40
0.9833956743
 40
0.9951425725
 40
1.0
 40
1.0
 40
1.0
 40
1.0
 10
-15.4031934028
 20
-10.5370549525
 30
0.0
 10
-15.4039517678
 20
-10.5515430658
 30
0.0
 10
-15.4054189263
 20
-10.5804094212
 30
0.0
 10
-15.4074742495
 20
-10.6234381071
 30
0.0
 10
-15.4093656212
 20
-10.6658108607
 30
0.0
 10
-15.4110787425
 20
-10.707205953
 30
0.0
 10
-15.4126007012
 20
-10.7473090825
 30
0.0
 10
-15.4139200761
 20
-10.7858157711
 30
0.0
 10
-15.4150270485
 20
-10.8224336232
 30
0.0
 10
-15.4159134671
 20
-10.8568847465
 30
0.0
 10
-15.4165730641
 20
-10.8889071982
 30
0.0
 10
-15.4170011877
 20
-10.9182592214
 30
0.0
 10
-15.4171962093
 20
-10.9447138181
 30
0.0
 10
-15.4171557922
 20
-10.968083717
 30
0.0
 10
-15.4168896434
 20
-10.9881514938
 30
0.0
 10
-15.4163842406
 20
-11.0048832156
 30
0.0
 10
-15.4157074459
 20
-11.0178369
 30
0.0
 10
-15.4147519135
 20
-11.0277124793
 30
0.0
 10
-15.4138643367
 20
-11.0328695493
 30
0.0
 10
-15.4127205005
 20
-11.0363273289
 30
0.0
 10
-15.4119116326
 20
-11.0363697198
 30
0.0
 11
-15.4031934028
 21
-10.5370549525
 31
0.0
 11
-15.405402429
 21
-10.5805227004
 31
0.0
 11
-15.4074621876
 21
-10.6236604009
 31
0.0
 11
-15.4093570389
 21
-10.6661405127
 31
0.0
 11
-15.4110725956
 21
-10.7076404873
 31
0.0
 11
-15.4125958315
 21
-10.7478452185
 31
0.0
 11
-15.4139151808
 21
-10.7864494347
 31
0.0
 11
-15.4150206257
 21
-10.823160017
 31
0.0
 11
-15.4159037728
 21
-10.8576982247
 31
0.0
 11
-15.4165579163
 21
-10.8898018116
 31
0.0
 11
-15.4169780894
 21
-10.9192270176
 31
0.0
 11
-15.4171611018
 21
-10.9457504193
 31
0.0
 11
-15.4171055638
 21
-10.9691706264
 31
0.0
 11
-15.4168118971
 21
-10.989309811
 31
0.0
 11
-15.4162823315
 21
-11.0060150579
 31
0.0
 11
-15.415520888
 21
-11.0191595252
 31
0.0
 11
-15.4145333482
 21
-11.028643408
 31
0.0
 11
-15.4133272103
 21
-11.034394696
 31
0.0
 11
-15.4119116326
 21
-11.0363697198
 31
0.0
  0
LINE
  5
366
100
AcDbEntity
  8
CURVE
100
AcDbLine
 62
253
  6
CONTINUOUS
 10
-17.2921207311
 20
-0.1107730189
 11
-17.2880972719
 21
-0.2173708444
  0
LINE
  5
367
100
AcDbEntity
  8
CURVE
100
AcDbLine
 62
253
  6
CONTINUOUS
 10
-17.2880972382
 20
-0.2173708431
 11
-17.2916719525
 21
-0.1228308611
  0
LINE
  5
368
100
AcDbEntity
  8
CURVE
100
AcDbLine
 62
253
  6
CONTINUOUS
 10
-17.2285735916
 20
-1.522442408
 11
-17.2310954012
 21
-1.4745149664
  0
LINE
  5
369
100
AcDbEntity
  8
CURVE
100
AcDbLine
 62
253
  6
CONTINUOUS
 10
-17.1499764539
 20
-2.8285296392
 11
-17.1441531412
 21
-2.9142213195
  0
LINE
  5
36A
100
AcDbEntity
  8
CURVE
100
AcDbLine
 62
253
  6
CONTINUOUS
 10
-17.2944471219
 20
-0.0475554751
 11
-17.2879969047
 21
-0.2199888928
  0
LINE
  5
36B
100
AcDbEntity
  8
CURVE
100
AcDbLine
 62
253
  6
CONTINUOUS
 10
-17.1450128023
 20
-2.9016467126
 11
-17.1499764273
 21
-2.8285296374
  0
ELLIPSE
  5
36C
100
AcDbEntity
  8
RACCORDO
100
AcDbEllipse
 62
7
  6
CONTINUOUS
 10
2.132806166
 20
-11.1612958349
 30
0.0
 11
0.2
 21
0.0
 31
0.0
 40
0.0524077793
 41
1.5707963268
 42
2.617993878
  0
ELLIPSE
  5
36D
100
AcDbEntity
  8
RACCORDO
100
AcDbEllipse
 62
7
  6
CONTINUOUS
 10
13.332806166
 20
-11.1612958349
 30
0.0
 11
0.2
 21
0.0
 31
0.0
 40
0.0524077793
 41
1.5707963268
 42
2.617993878
  0
ELLIPSE
  5
36E
100
AcDbEntity
  8
RACCORDO
100
AcDbEllipse
 62
7
  6
CONTINUOUS
 10
5.5018660583
 20
-11.1612958349
 30
0.0
 11
0.2
 21
-0.0
 31
0.0
 40
0.0524077793
 41
0.5235987756
 42
1.5707963268
  0
ELLIPSE
  5
36F
100
AcDbEntity
  8
RACCORDO
100
AcDbEllipse
 62
7
  6
CONTINUOUS
 10
16.7018660583
 20
-11.1612958349
 30
0.0
 11
0.2
 21
-0.0
 31
0.0
 40
0.0524077793
 41
0.5235987756
 42
1.5707963268
  0
ELLIPSE
  5
370
100
AcDbEntity
  8
0
100
AcDbEllipse
 62
7
  6
CONTINUOUS
 10
20.0407268118
 20
-10.689262927
 30
0.0
 11
0.4943891341
 21
0.0770133648
 31
0.0
 40
0.9960067742
 41
-1.7259388368
 42
-0.1569690096
  0
ELLIPSE
  5
371
100
AcDbEntity
  8
0
100
AcDbEllipse
 62
7
  6
CONTINUOUS
 10
-1.2060545876
 20
-10.689262927
 30
0.0
 11
0.4943891341
 21
-0.0770133648
 31
0.0
 40
0.9960067742
 41
-2.984623644
 42
-1.4156538168
  0
ELLIPSE
  5
372
100
AcDbEntity
  8
RACCORDO
100
AcDbEllipse
 62
7
  6
CONTINUOUS
 10
20.317183726
 20
10.6705645325
 30
0.0
 11
0.2426981267
 21
0.0606514259
 31
0.0
 40
0.9993528196
 41
-0.2447368254
 42
1.3257549497
  0
ELLIPSE
  5
373
100
AcDbEntity
  8
RACCORDO
100
AcDbEllipse
 62
7
  6
CONTINUOUS
 10
-1.4825115018
 20
10.6705645325
 30
0.0
 11
0.2426981267
 21
-0.0606514259
 31
0.0
 40
0.9993528196
 41
1.8158377039
 42
3.386329479
  0
ELLIPSE
  5
374
100
AcDbEntity
  8
ASSI
100
AcDbEllipse
 62
7
  6
CONTINUOUS
 10
2.132806166
 20
-11.1612958349
 30
0.0
 11
0.2
 21
0.0
 31
0.0
 40
0.0524077793
 41
1.5707963268
 42
2.617993878
  0
ELLIPSE
  5
375
100
AcDbEntity
  8
ASSI
100
AcDbEllipse
 62
7
  6
CONTINUOUS
 10
13.332806166
 20
-11.1612958349
 30
0.0
 11
0.2
 21
0.0
 31
0.0
 40
0.0524077793
 41
1.5707963268
 42
2.617993878
  0
ELLIPSE
  5
376
100
AcDbEntity
  8
ASSI
100
AcDbEllipse
 62
7
  6
CONTINUOUS
 10
5.5018660583
 20
-11.1612958349
 30
0.0
 11
0.2
 21
0.0
 31
0.0
 40
0.0524077793
 41
0.5235987756
 42
1.5707963268
  0
ELLIPSE
  5
377
100
AcDbEntity
  8
ASSI
100
AcDbEllipse
 62
7
  6
CONTINUOUS
 10
16.7018660583
 20
-11.1612958349
 30
0.0
 11
0.2
 21
-0.0
 31
0.0
 40
0.0524077793
 41
0.5235987756
 42
1.5707963268
  0
ELLIPSE
  5
378
100
AcDbEntity
  8
ASSI
100
AcDbEllipse
 62
7
  6
CONTINUOUS
 10
20.0407268118
 20
-10.689262927
 30
0.0
 11
0.4943891341
 21
0.0770133648
 31
0.0
 40
0.9960067742
 41
-1.7259388368
 42
-0.1569690096
  0
ELLIPSE
  5
379
100
AcDbEntity
  8
ASSI
100
AcDbEllipse
 62
7
  6
CONTINUOUS
 10
-1.2060545876
 20
-10.689262927
 30
0.0
 11
0.4943891341
 21
-0.0770133648
 31
0.0
 40
0.9960067742
 41
-2.984623644
 42
-1.4156538168
  0
ELLIPSE
  5
37A
100
AcDbEntity
  8
ASSI
100
AcDbEllipse
 62
7
  6
CONTINUOUS
 10
20.317183726
 20
10.6705645325
 30
0.0
 11
0.2426981267
 21
0.0606514259
 31
0.0
 40
0.9993528196
 41
-0.2447368254
 42
1.3257549497
  0
ELLIPSE
  5
37B
100
AcDbEntity
  8
ASSI
100
AcDbEllipse
 62
7
  6
CONTINUOUS
 10
-1.4825115018
 20
10.6705645325
 30
0.0
 11
0.2426981267
 21
-0.0606514259
 31
0.0
 40
0.9993528196
 41
1.8158377039
 42
3.386329479
  0
ELLIPSE
  5
37C
100
AcDbEntity
  8
CURVE
100
AcDbEllipse
 62
253
  6
CONTINUOUS
 10
72.645832324
 20
3.2305740521
 30
0.0
 11
47.3158000907
 21
76.5585727517
 31
0.0
 40
1.0
 41
-4.1081793504
 42
-4.1065120117
  0
ELLIPSE
  5
37D
100
AcDbEntity
  8
CURVE
100
AcDbEllipse
 62
253
  6
CONTINUOUS
 10
72.645832324
 20
3.2305740521
 30
0.0
 11
89.6933408427
 21
-7.423247839
 31
0.0
 40
1.0
 41
-2.9782219573
 42
-2.9780913825
  0
ELLIPSE
  5
37E
100
AcDbEntity
  8
CURVE
100
AcDbEllipse
 62
253
  6
CONTINUOUS
 10
72.645832324
 20
3.2305740521
 30
0.0
 11
89.1627965008
 21
-12.2472739888
 31
0.0
 40
1.0
 41
-2.9287038073
 42
-2.9285809562
  0
ELLIPSE
  5
37F
100
AcDbEntity
  8
CURVE
100
AcDbEllipse
 62
253
  6
CONTINUOUS
 10
72.645832324
 20
3.2305740521
 30
0.0
 11
11.9459835923
 21
89.2036629069
 31
0.0
 40
1.0
 41
-4.5028784611
 42
-4.5027556099
  0
ELLIPSE
  5
380
100
AcDbEntity
  8
CURVE
100
AcDbEllipse
 62
253
  6
CONTINUOUS
 10
72.645832324
 20
3.2305740521
 30
0.0
 11
1.7636891839
 21
89.9827172321
 31
0.0
 40
1.0
 41
-4.6119948218
 42
-4.611864247
  0
ELLIPSE
  5
381
100
AcDbEntity
  8
CURVE
100
AcDbEllipse
 62
253
  6
CONTINUOUS
 10
72.645832324
 20
3.2305740521
 30
0.0
 11
88.8378711874
 21
14.4164018706
 31
0.0
 40
1.0
 41
3.0330199862
 42
3.0335844631
  0
ELLIPSE
  5
382
100
AcDbEntity
  8
CURVE
100
AcDbEllipse
 62
253
  6
CONTINUOUS
 10
72.645832324
 20
3.2305740521
 30
0.0
 11
-0.0
 21
90.0
 31
0.0
 40
1.0
 41
-4.6600863706
 42
-4.6584188863
  0
ELLIPSE
  5
383
100
AcDbEntity
  8
CURVE
100
AcDbEllipse
 62
253
  6
CONTINUOUS
 10
72.645832324
 20
3.2305740521
 30
0.0
 11
63.6396103068
 21
63.6396103068
 31
0.0
 40
1.0
 41
2.4069274979
 42
2.4084971
  0
ENDSEC
  0
SECTION
  2
OBJECTS
  0
DICTIONARY
  5
C
100
AcDbDictionary
280
0
281
1
  3
ACAD_GROUP
350
D
  3
ACAD_MLINESTYLE
350
17
  3
ACAD_LAYOUT
350
1A
  3
ACAD_PLOTSETTINGS
350
19
  3
ACAD_PLOTSTYLENAME
350
E
  0
DICTIONARY
  5
D
102
{ACAD_REACTORS
330
C
102
}
100
AcDbDictionary
280
0
281
1
  0
ACDBDICTIONARYWDFLT
  5
E
102
{ACAD_REACTORS
330
C
102
}
100
AcDbDictionary
281
1
  3
Normal
350
F
100
AcDbDictionaryWithDefault
340
F
  0
DICTIONARY
  5
17
102
{ACAD_REACTORS
330
C
102
}
100
AcDbDictionary
280
0
281
1
  3
Standard
350
18
  0
DICTIONARY
  5
19
102
{ACAD_REACTORS
330
C
102
}
100
AcDbDictionary
281
1
  0
DICTIONARY
  5
1A
102
{ACAD_REACTORS
330
C
102
}
100
AcDbDictionary
281
1
  3
Model
350
384
  3
Layout1
350
385
  0
ACDBPLACEHOLDER
  5
F
102
{ACAD_REACTORS
330
E
102
}
  0
MLINESTYLE
  5
18
102
{ACAD_REACTORS
330
17
102
}
100
AcDbMlineStyle
  2
STANDARD
 70
0
  3

 62
256
 51
90.0
 52
90.0
 71
2
 49
0.5
 62
256
  6
BYLAYER
 49
-0.5
 62
256
  6
BYLAYER
  0
LAYOUT
  5
384
102
{ACAD_REACTORS
330
1A
102
}
100
AcDbPlotSettings
  1

  2
none_device
  4
ISO_A4_(297.00_x_210.00_MM)
  6

 40
0.0
 41
0.0
 42
0.0
 43
0.0
 44
297.0
 45
210.0
 46
0.0
 47
0.0
 48
0.0
 49
0.0
140
0.0
141
0.0
142
1.0
143
1.0
 70
1024
 72
1
 73
0
 74
0
  7

 75
0
147
1.0
148
0.0
149
0.0
100
AcDbLayout
  1
Model
 70
0
 71
0
 10
0.0
 20
0.0
 11
297.0
 21
210.0
 12
0.0
 22
0.0
 32
0.0
 14
0.0
 24
0.0
 34
0.0
 15
0.0
 25
0.0
 35
0.0
146
0.0
 13
0.0
 23
0.0
 33
0.0
 16
1.0
 26
0.0
 36
0.0
 17
0.0
 27
1.0
 37
0.0
 76
0
330
21A
345
0
346
0
  0
LAYOUT
  5
385
102
{ACAD_REACTORS
330
1A
102
}
100
AcDbPlotSettings
  1

  2
none_device
  4
ISO_A4_(297.00_x_210.00_MM)
  6

 40
0.0
 41
0.0
 42
0.0
 43
0.0
 44
297.0
 45
210.0
 46
0.0
 47
0.0
 48
0.0
 49
0.0
140
0.0
141
0.0
142
1.0
143
1.0
 70
0
 72
1
 73
0
 74
0
  7

 75
0
147
1.0
148
0.0
149
0.0
100
AcDbLayout
  1
Layout1
 70
0
 71
1
 10
0.0
 20
0.0
 11
297.0
 21
210.0
 12
0.0
 22
0.0
 32
0.0
 14
0.0
 24
0.0
 34
0.0
 15
0.0
 25
0.0
 35
0.0
146
0.0
 13
0.0
 23
0.0
 33
0.0
 16
1.0
 26
0.0
 36
0.0
 17
0.0
 27
1.0
 37
0.0
 76
0
330
21B
345
0
346
0
  0
ENDSEC
  0
EOF
