  0
SECTION
  2
HEADER
  9
$ACADVER
  1
AC1015
  9
$DWGCODEPAGE
  3
ANSI_1252
  9
$EXTMAX
 10
297.0
 20
210.0
 30
0.0
  9
$EXTMIN
 10
0.0
 20
0.0
 30
0.0
  9
$LIMMIN
 10
0.0
 20
0.0
  9
$LIMMAX
 10
297.0
 20
210.0
  9
$VIEWCTR
 10
148.5
 20
105.0
  9
$VIEWSIZE
 40
210.0
  9
$CLAYER
  8
0
  9
$LTSCALE
 40
16.335
  9
$CELTYPE
  6
BYLAYER
  9
$DIMSCALE
 40
1.0
  9
$DIMASZ
 40
3.0
  9
$DIMEXO
 40
1.85625
  9
$DIMDLI
 40
11.286
  9
$DIMEXE
 40
5.346
  9
$DIMCEN
 40
2.673
  9
$DIMLFAC
 40
1.0
  9
$DIMBLK
  1
_FILLED
  9
$DIMTXT
 40
3.0
  9
$DIMTOL
 70
1
  9
$DIMLIM
 70
0
  9
$DIMTFAC
 40
1.0
  9
$DIMTP
 40
0.01
  9
$DIMTM
 40
0.01
  9
$PDMODE
 70
3
  9
$PDSIZE
 40
3.0
  9
$HANDSEED
  5
2C4
  9
$TILEMODE
 70
1
  9
$MEASUREMENT
 70
1
  9
$INSUNITS
 70
4
  0
ENDSEC
  0
SECTION
  2
CLASSES
  0
CLASS
  1
ACDBDICTIONARYWDFLT
  2
AcDbDictionaryWithDefault
  3
AutoCAD 2000
 90
0
280
0
281
0
  0
CLASS
  1
ACDBPLACEHOLDER
  2
AcDbPlaceHolder
  3
AutoCAD 2000
 90
0
280
0
281
0
  0
CLASS
  1
LAYOUT
  2
AcDbLayout
  3
AutoCAD 2000
 90
0
280
0
281
0
  0
ENDSEC
  0
SECTION
  2
TABLES
  0
TABLE
  2
VPORT
  5
8
100
AcDbSymbolTable
 70
2
  0
VPORT
  5
1F4
100
AcDbSymbolTableRecord
100
AcDbViewportTableRecord
  2
*ACTIVE
 70
0
 10
0.0
 20
0.0
 11
1.0
 21
1.0
 12
148.5
 22
105.0
 13
0.0
 23
0.0
 14
1.0
 24
1.0
 15
0.0
 25
0.0
 16
0.0
 26
0.0
 36
1.0
 17
0.0
 27
0.0
 37
0.0
 40
210.0
 41
1.4142857143
 42
50.0
 43
0.0
 44
0.0
 50
0.0
 51
0.0
 71
0
 72
100
 73
1
 74
1
 75
0
 76
0
 77
0
 78
0
  0
ENDTAB
  0
TABLE
  2
LTYPE
  5
5
100
AcDbSymbolTable
 70
6
  0
LTYPE
  5
14
100
AcDbSymbolTableRecord
100
AcDbLinetypeTableRecord
  2
BYBLOCK
 70
0
  3

 72
65
 73
0
 40
0.0
  0
LTYPE
  5
15
100
AcDbSymbolTableRecord
100
AcDbLinetypeTableRecord
  2
BYLAYER
 70
0
  3

 72
65
 73
0
 40
0.0
  0
LTYPE
  5
16
100
AcDbSymbolTableRecord
100
AcDbLinetypeTableRecord
  2
CONTINUOUS
 70
64
  3
Solid line
 72
65
 73
0
 40
0.0
  0
LTYPE
  5
1F5
100
AcDbSymbolTableRecord
100
AcDbLinetypeTableRecord
  2
CENTER
 70
64
  3
____ _ ____ _ ____ _ ____ _ ____ _ ____ _ ____
 72
65
 73
4
 40
0.6
 49
0.375
 74
0
 49
-0.075
 74
0
 49
0.075
 74
0
 49
-0.075
 74
0
  0
LTYPE
  5
1F6
100
AcDbSymbolTableRecord
100
AcDbLinetypeTableRecord
  2
HIDDEN
 70
64
  3
- - - - - - - - - - - - - - - - - - - -
 72
65
 73
2
 40
0.2
 49
0.1
 74
0
 49
-0.1
 74
0
  0
LTYPE
  5
1F7
100
AcDbSymbolTableRecord
100
AcDbLinetypeTableRecord
  2
PHANTOM
 70
64
  3
_____ _ _ _____ _ _ _____ _ _ _____
 72
65
 73
6
 40
0.8
 49
0.45
 74
0
 49
-0.05
 74
0
 49
0.1
 74
0
 49
-0.05
 74
0
 49
0.1
 74
0
 49
-0.05
 74
0
  0
LTYPE
  5
1F8
100
AcDbSymbolTableRecord
100
AcDbLinetypeTableRecord
  2
DOT
 70
64
  3
. . . . . . . . . . . . . . . . . . . .
 72
65
 73
2
 40
0.2
 49
0.1
 74
0
 49
-0.1
 74
0
  0
LTYPE
  5
1F9
100
AcDbSymbolTableRecord
100
AcDbLinetypeTableRecord
  2
DASHED
 70
64
  3
- - - - - - - - - - - - - - - - - - - -
 72
65
 73
2
 40
0.2
 49
0.1
 74
0
 49
-0.1
 74
0
  0
ENDTAB
  0
TABLE
  2
LAYER
  5
2
100
AcDbSymbolTable
 70
36
  0
LAYER
  5
10
100
AcDbSymbolTableRecord
100
AcDbLayerTableRecord
  2
0
 70
0
 62
7
  6
CONTINUOUS
370
-3
390
F
  0
LAYER
  5
1FA
100
AcDbSymbolTableRecord
100
AcDbLayerTableRecord
  2
DEFAULT_1
 70
0
 62
7
  6
CENTER
370
-3
390
F
  0
LAYER
  5
1FB
100
AcDbSymbolTableRecord
100
AcDbLayerTableRecord
  2
DEFAULT_2
 70
0
 62
7
  6
HIDDEN
370
-3
390
F
  0
LAYER
  5
1FC
100
AcDbSymbolTableRecord
100
AcDbLayerTableRecord
  2
DEFAULT_3
 70
0
 62
7
  6
PHANTOM
370
-3
390
F
  0
LAYER
  5
1FD
100
AcDbSymbolTableRecord
100
AcDbLayerTableRecord
  2
ASSI
 70
0
 62
7
  6
CONTINUOUS
370
-3
390
F
  0
LAYER
  5
1FE
100
AcDbSymbolTableRecord
100
AcDbLayerTableRecord
  2
COLOR9
 70
0
 62
7
  6
CONTINUOUS
370
-3
390
F
  0
LAYER
  5
1FF
100
AcDbSymbolTableRecord
100
AcDbLayerTableRecord
  2
COORDINATE
 70
0
 62
7
  6
CONTINUOUS
370
-3
390
F
  0
LAYER
  5
200
100
AcDbSymbolTableRecord
100
AcDbLayerTableRecord
  2
COORD_ORIGINE
 70
0
 62
7
  6
CONTINUOUS
370
-3
390
F
  0
LAYER
  5
201
100
AcDbSymbolTableRecord
100
AcDbLayerTableRecord
  2
COPY_PUBLISH
 70
0
 62
7
  6
CONTINUOUS
370
-3
390
F
  0
LAYER
  5
202
100
AcDbSymbolTableRecord
100
AcDbLayerTableRecord
  2
COSMETIC
 70
0
 62
7
  6
CONTINUOUS
370
-3
390
F
  0
LAYER
  5
203
100
AcDbSymbolTableRecord
100
AcDbLayerTableRecord
  2
CURVE
 70
0
 62
7
  6
CONTINUOUS
370
-3
390
F
  0
LAYER
  5
204
100
AcDbSymbolTableRecord
100
AcDbLayerTableRecord
  2
DRAFT
 70
0
 62
7
  6
CONTINUOUS
370
-3
390
F
  0
LAYER
  5
205
100
AcDbSymbolTableRecord
100
AcDbLayerTableRecord
  2
IGES
 70
0
 62
7
  6
CONTINUOUS
370
-3
390
F
  0
LAYER
  5
206
100
AcDbSymbolTableRecord
100
AcDbLayerTableRecord
  2
IGS_SCRITTE
 70
0
 62
7
  6
CONTINUOUS
370
-3
390
F
  0
LAYER
  5
207
100
AcDbSymbolTableRecord
100
AcDbLayerTableRecord
  2
IMPORT_IGES
 70
0
 62
7
  6
CONTINUOUS
370
-3
390
F
  0
LAYER
  5
208
100
AcDbSymbolTableRecord
100
AcDbLayerTableRecord
  2
INTF_YELLOW
 70
0
 62
7
  6
CONTINUOUS
370
-3
390
F
  0
LAYER
  5
209
100
AcDbSymbolTableRecord
100
AcDbLayerTableRecord
  2
PIANI
 70
0
 62
7
  6
CONTINUOUS
370
-3
390
F
  0
LAYER
  5
20A
100
AcDbSymbolTableRecord
100
AcDbLayerTableRecord
  2
PIANI_ORIGINE
 70
0
 62
7
  6
CONTINUOUS
370
-3
390
F
  0
LAYER
  5
20B
100
AcDbSymbolTableRecord
100
AcDbLayerTableRecord
  2
PIANI_RIFERIMENTO
 70
0
 62
7
  6
CONTINUOUS
370
-3
390
F
  0
LAYER
  5
20C
100
AcDbSymbolTableRecord
100
AcDbLayerTableRecord
  2
RACCORDO
 70
0
 62
7
  6
CONTINUOUS
370
-3
390
F
  0
LAYER
  5
20D
100
AcDbSymbolTableRecord
100
AcDbLayerTableRecord
  2
SMUSSO
 70
0
 62
7
  6
CONTINUOUS
370
-3
390
F
  0
LAYER
  5
20E
100
AcDbSymbolTableRecord
100
AcDbLayerTableRecord
  2
SNAPLINE
 70
0
 62
7
  6
CONTINUOUS
370
-3
390
F
  0
LAYER
  5
20F
100
AcDbSymbolTableRecord
100
AcDbLayerTableRecord
  2
SOLIDO
 70
0
 62
7
  6
CONTINUOUS
370
-3
390
F
  0
LAYER
  5
210
100
AcDbSymbolTableRecord
100
AcDbLayerTableRecord
  2
SUPERFICI
 70
0
 62
7
  6
CONTINUOUS
370
-3
390
F
  0
LAYER
  5
211
100
AcDbSymbolTableRecord
100
AcDbLayerTableRecord
  2
TRASH
 70
0
 62
7
  6
CONTINUOUS
370
-3
390
F
  0
LAYER
  5
212
100
AcDbSymbolTableRecord
100
AcDbLayerTableRecord
  2
WHITE
 70
0
 62
7
  6
CONTINUOUS
370
-3
390
F
  0
LAYER
  5
213
100
AcDbSymbolTableRecord
100
AcDbLayerTableRecord
  2
XSEC_DATUMS
 70
0
 62
7
  6
CONTINUOUS
370
-3
390
F
  0
ENDTAB
  0
TABLE
  2
STYLE
  5
3
100
AcDbSymbolTable
 70
1
  0
STYLE
  5
11
100
AcDbSymbolTableRecord
100
AcDbTextStyleTableRecord
  2
STANDARD
 70
0
 40
0.0
 41
0.8
 50
0.0
 71
0
 42
0.2
  3
txt
  4

  0
STYLE
  5
214
100
AcDbSymbolTableRecord
100
AcDbTextStyleTableRecord
  2
TEXTSTYLE_1
 70
0
 40
0.0
 41
0.8
 50
0.0
 71
0
 42
0.2
  3
gdt
  4

  0
ENDTAB
  0
TABLE
  2
VIEW
  5
6
100
AcDbSymbolTable
 70
0
  0
ENDTAB
  0
TABLE
  2
UCS
  5
7
100
AcDbSymbolTable
 70
0
  0
ENDTAB
  0
TABLE
  2
APPID
  5
9
100
AcDbSymbolTable
 70
1
  0
APPID
  5
215
100
AcDbSymbolTableRecord
100
AcDbRegAppTableRecord
  2
ACAD
 70
0
  0
ENDTAB
  0
TABLE
  2
BLOCK_RECORD
  5
1
100
AcDbSymbolTable
 70
0
  0
BLOCK_RECORD
  5
216
100
AcDbSymbolTableRecord
100
AcDbBlockTableRecord
  2
*Model_Space
  0
BLOCK_RECORD
  5
217
100
AcDbSymbolTableRecord
100
AcDbBlockTableRecord
  2
*Paper_Space
  0
BLOCK_RECORD
  5
218
100
AcDbSymbolTableRecord
100
AcDbBlockTableRecord
  2
_FILLED
  0
BLOCK_RECORD
  5
219
100
AcDbSymbolTableRecord
100
AcDbBlockTableRecord
  2
*D0
  0
BLOCK_RECORD
  5
21A
100
AcDbSymbolTableRecord
100
AcDbBlockTableRecord
  2
*D1
  0
BLOCK_RECORD
  5
21B
100
AcDbSymbolTableRecord
100
AcDbBlockTableRecord
  2
*D2
  0
ENDTAB
  0
TABLE
  2
DIMSTYLE
  5
A
100
AcDbSymbolTable
 70
1
100
AcDbDimStyleTable
 71
0
  0
DIMSTYLE
105
21C
100
AcDbSymbolTableRecord
100
AcDbDimStyleTableRecord
  2
STANDARD
 70
0
  3

  4

 40
1.0
 41
3.0
 42
0.0625
 43
0.38
 44
0.18
 45
0.0
 46
0.0
 47
0.01
 48
0.01
140
3.0
141
0.09
142
0.0
143
25.4
144
1.0
145
0.0
146
1.0
147
0.09
 71
1.0
 72
0.0
 73
0
 74
0
 75
0
 76
0
 77
1
 78
8
170
0
171
2
172
0
173
0
174
0
175
0
176
0
177
0
178
0
270
2
271
2
272
2
273
2
274
2
275
0
280
0
281
0
282
0
283
1
284
8
285
0
286
0
287
3
288
0
340
11
341
218
342
218
343
218
344
218
  0
DIMSTYLE
105
21D
100
AcDbSymbolTableRecord
100
AcDbDimStyleTableRecord
  2
DIMSTYLE_1
 70
0
  3

  4

 40
1.0
 41
3.0
 42
0.0625
 43
0.38
 44
0.18
 45
0.0
 46
0.0
 47
0.0
 48
0.0
140
3.0
141
0.09
142
0.0
143
25.4
144
1.0
145
0.0
146
1.0
147
0.09
 71
0.0
 72
0.0
 73
0
 74
0
 75
0
 76
0
 77
1
 78
8
170
0
171
2
172
0
173
0
174
0
175
0
176
0
177
0
178
0
270
2
271
2
272
2
273
2
274
2
275
0
280
0
281
0
282
0
283
1
284
8
285
0
286
0
287
3
288
0
340
11
341
218
342
218
343
218
344
218
  0
DIMSTYLE
105
21E
100
AcDbSymbolTableRecord
100
AcDbDimStyleTableRecord
  2
DIMSTYLE_2
 70
0
  3

  4

 40
1.0
 41
3.0
 42
0.0625
 43
0.38
 44
0.18
 45
0.0
 46
0.0
 47
0.0
 48
0.0
140
3.0
141
0.09
142
0.0
143
25.4
144
1.0
145
0.0
146
1.0
147
0.09
 71
0.0
 72
0.0
 73
0
 74
0
 75
0
 76
0
 77
1
 78
8
170
0
171
2
172
0
173
0
174
0
175
0
176
0
177
0
178
0
270
2
271
1
272
1
273
2
274
2
275
0
280
0
281
0
282
0
283
1
284
8
285
0
286
0
287
3
288
0
340
11
341
218
342
218
343
218
344
218
  0
ENDTAB
  0
ENDSEC
  0
SECTION
  2
BLOCKS
  0
BLOCK
  5
20
100
AcDbEntity
  8
0
100
AcDbBlockBegin
  2
*Model_Space
 70
0
 10
0.0
 20
0.0
 30
0.0
  3
*Model_Space
  1

  0
ENDBLK
  5
21
100
AcDbEntity
  8
0
100
AcDbBlockEnd
  0
BLOCK
  5
1C
100
AcDbEntity
  8
0
100
AcDbBlockBegin
  2
*Paper_Space
 70
0
 10
0.0
 20
0.0
 30
0.0
  3
*Paper_Space
  1

  0
ENDBLK
  5
1D
100
AcDbEntity
  8
0
100
AcDbBlockEnd
  0
BLOCK
  5
21F
100
AcDbEntity
  8
0
100
AcDbBlockBegin
  2
_FILLED
 70
64
 10
0.0
 20
0.0
  3
_FILLED
  1

  0
SOLID
  5
220
100
AcDbEntity
  8
0
  6
BYBLOCK
 62
0
100
AcDbTrace
 10
0.0
 20
0.0
 11
-1.0
 21
0.3166666667
 12
-1.0
 22
-0.3166666667
 13
-1.0
 23
-0.3166666667
  0
ENDBLK
  5
221
100
AcDbEntity
  8
0
  6
BYBLOCK
 62
0
100
AcDbBlockEnd
  0
BLOCK
  5
222
100
AcDbEntity
  8
0
100
AcDbBlockBegin
 62
7
  6
CONTINUOUS
  2
*D0
 70
65
 10
0.0
 20
0.0
  3
*D0
  1

  0
MTEXT
  5
223
100
AcDbEntity
  8
0
100
AcDbMText
 62
7
  6
CONTINUOUS
  7
STANDARD
 71
2
 72
1
 10
-11.0398541045
 20
22.7275936655
 30
0.0
 11
1.0
 21
0.0
 31
0.0
 44
0.9
  1
5,7
 40
3.0
 41
6.2142857143
  0
LINE
  5
224
100
AcDbEntity
  8
0
100
AcDbLine
 62
7
  6
CONTINUOUS
 10
-8.1899332144
 20
11.2536297647
 11
-8.1899332144
 21
20.4775936655
  0
LINE
  5
225
100
AcDbEntity
  8
0
100
AcDbLine
 62
7
  6
CONTINUOUS
 10
-13.8897749947
 20
11.2057946903
 11
-13.8897749947
 21
20.4775936655
  0
LINE
  5
226
100
AcDbEntity
  8
0
100
AcDbLine
 62
7
  6
CONTINUOUS
 10
-8.1899332144
 20
18.9775936655
 11
-4.1899332144
 21
18.9775936655
  0
LINE
  5
227
100
AcDbEntity
  8
0
100
AcDbLine
 62
7
  6
CONTINUOUS
 10
-4.1899332144
 20
18.9775936655
 11
-11.0398541045
 21
18.9775936655
  0
LINE
  5
228
100
AcDbEntity
  8
0
100
AcDbLine
 62
7
  6
CONTINUOUS
 10
-13.8897749947
 20
18.9775936655
 11
-17.8897749947
 21
18.9775936655
  0
LINE
  5
229
100
AcDbEntity
  8
0
100
AcDbLine
 62
7
  6
CONTINUOUS
 10
-17.8897749947
 20
18.9775936655
 11
-11.0398541045
 21
18.9775936655
  0
INSERT
  5
22A
100
AcDbEntity
  8
0
100
AcDbBlockReference
 62
7
  6
CONTINUOUS
  2
_FILLED
 10
-8.1899332144
 20
18.9775936655
 41
3.0
 42
3.0
 43
3.0
 50
180.0
  0
INSERT
  5
22B
100
AcDbEntity
  8
0
100
AcDbBlockReference
 62
7
  6
CONTINUOUS
  2
_FILLED
 10
-13.8897749947
 20
18.9775936655
 41
3.0
 42
3.0
 43
3.0
  0
ENDBLK
  5
22C
100
AcDbEntity
  8
0
  6
BYBLOCK
 62
0
100
AcDbBlockEnd
  0
BLOCK
  5
22D
100
AcDbEntity
  8
0
100
AcDbBlockBegin
 62
7
  6
CONTINUOUS
  2
*D1
 70
65
 10
0.0
 20
0.0
  3
*D1
  1

  0
MTEXT
  5
22E
100
AcDbEntity
  8
0
100
AcDbMText
 62
7
  6
CONTINUOUS
  7
STANDARD
 71
2
 72
1
 10
12.8225028619
 20
22.7538031435
 30
0.0
 11
1.0
 21
0.0
 31
0.0
 44
0.9
  1
22,3
 40
3.0
 41
8.5714285714
  0
LINE
  5
22F
100
AcDbEntity
  8
0
100
AcDbLine
 62
7
  6
CONTINUOUS
 10
1.6725028619
 20
11.2536297647
 11
1.6725028619
 21
20.5038031435
  0
LINE
  5
230
100
AcDbEntity
  8
0
100
AcDbLine
 62
7
  6
CONTINUOUS
 10
23.9725028619
 20
11.2536297647
 11
23.9725028619
 21
20.5038031435
  0
LINE
  5
231
100
AcDbEntity
  8
0
100
AcDbLine
 62
7
  6
CONTINUOUS
 10
1.6725028619
 20
19.0038031435
 11
12.8225028619
 21
19.0038031435
  0
LINE
  5
232
100
AcDbEntity
  8
0
100
AcDbLine
 62
7
  6
CONTINUOUS
 10
23.9725028619
 20
19.0038031435
 11
12.8225028619
 21
19.0038031435
  0
INSERT
  5
233
100
AcDbEntity
  8
0
100
AcDbBlockReference
 62
7
  6
CONTINUOUS
  2
_FILLED
 10
1.6725028619
 20
19.0038031435
 41
3.0
 42
3.0
 43
3.0
 50
180.0
  0
INSERT
  5
234
100
AcDbEntity
  8
0
100
AcDbBlockReference
 62
7
  6
CONTINUOUS
  2
_FILLED
 10
23.9725028619
 20
19.0038031435
 41
3.0
 42
3.0
 43
3.0
  0
ENDBLK
  5
235
100
AcDbEntity
  8
0
  6
BYBLOCK
 62
0
100
AcDbBlockEnd
  0
BLOCK
  5
236
100
AcDbEntity
  8
0
100
AcDbBlockBegin
 62
7
  6
CONTINUOUS
  2
*D2
 70
65
 10
0.0
 20
0.0
  3
*D2
  1

  0
MTEXT
  5
237
100
AcDbEntity
  8
0
100
AcDbMText
 62
7
  6
CONTINUOUS
  7
STANDARD
 71
2
 72
1
 10
28.2225028619
 20
-0.0505558268
 30
0.0
 11
0.0
 21
1.0
 31
0.0
 44
0.9
  1
22,1
 40
3.0
 41
8.1428571429
  0
LINE
  5
238
100
AcDbEntity
  8
0
100
AcDbLine
 62
7
  6
CONTINUOUS
 10
24.2224266601
 20
11.0035631435
 11
33.4725028619
 21
11.0035631435
  0
LINE
  5
239
100
AcDbEntity
  8
0
100
AcDbLine
 62
7
  6
CONTINUOUS
 10
23.9452846671
 20
-11.1046747971
 11
33.4725028619
 21
-11.1046747971
  0
LINE
  5
23A
100
AcDbEntity
  8
0
100
AcDbLine
 62
7
  6
CONTINUOUS
 10
31.9725028619
 20
11.0035631435
 11
31.9725028619
 21
-0.0505558268
  0
LINE
  5
23B
100
AcDbEntity
  8
0
100
AcDbLine
 62
7
  6
CONTINUOUS
 10
31.9725028619
 20
-11.1046747971
 11
31.9725028619
 21
-0.0505558268
  0
INSERT
  5
23C
100
AcDbEntity
  8
0
100
AcDbBlockReference
 62
7
  6
CONTINUOUS
  2
_FILLED
 10
31.9725028619
 20
11.0035631435
 41
3.0
 42
3.0
 43
3.0
 50
90.0
  0
INSERT
  5
23D
100
AcDbEntity
  8
0
100
AcDbBlockReference
 62
7
  6
CONTINUOUS
  2
_FILLED
 10
31.9725028619
 20
-11.1046747971
 41
3.0
 42
3.0
 43
3.0
 50
270.0
  0
ENDBLK
  5
23E
100
AcDbEntity
  8
0
  6
BYBLOCK
 62
0
100
AcDbBlockEnd
  0
ENDSEC
  0
SECTION
  2
ENTITIES
  0
DIMENSION
  5
23F
100
AcDbEntity
  8
0
100
AcDbDimension
 62
7
  6
CONTINUOUS
  2
*D0
 10
-13.8897749947
 20
18.9775936655
 11
-14.1469969617
 21
21.2275936655
 70
160
 71
2
 42
5.6998417802
  3
DIMSTYLE_1
100
AcDbAlignedDimension
 13
-8.1899332144
 23
11.2536297647
 14
-13.8897749947
 24
11.2057946903
 50
180.0
100
AcDbRotatedDimension
  0
DIMENSION
  5
240
100
AcDbEntity
  8
0
100
AcDbDimension
 62
7
  6
CONTINUOUS
  2
*D1
 10
23.9725028619
 20
19.0038031435
 11
8.5367885761
 21
21.2538031435
 70
160
 71
2
 42
22.3
  3
DIMSTYLE_1
100
AcDbAlignedDimension
 13
1.6725028619
 23
11.2536297647
 14
23.9725028619
 24
11.2536297647
100
AcDbRotatedDimension
  0
DIMENSION
  5
241
100
AcDbEntity
  8
0
100
AcDbDimension
 62
7
  6
CONTINUOUS
  2
*D2
 10
31.9725028619
 20
-11.1046747971
 11
31.5468025847
 21
-3.6903993857
 70
160
 71
2
 42
22.1082379406
  3
DIMSTYLE_2
100
AcDbAlignedDimension
 13
24.2224266601
 23
11.0035631435
 14
23.9452846671
 24
-11.1046747971
 50
270.0
100
AcDbRotatedDimension
  0
LINE
  5
242
100
AcDbEntity
  8
0
100
AcDbLine
 62
7
  6
CONTINUOUS
 10
1.6988101712
 20
-10.6071841643
 11
1.6725028619
 21
-1.9964368565
  0
LINE
  5
243
100
AcDbEntity
  8
RACCORDO
100
AcDbLine
 62
7
  6
CONTINUOUS
 10
1.6725028619
 20
10.7536297647
 11
1.6725028619
 21
-1.9964368565
  0
LINE
  5
244
100
AcDbEntity
  8
RACCORDO
100
AcDbLine
 62
253
  6
CONTINUOUS
 10
2.3543901157
 20
10.70579469
 11
2.3543901157
 21
10.9559840553
  0
LINE
  5
245
100
AcDbEntity
  8
RACCORDO
100
AcDbLine
 62
7
  6
CONTINUOUS
 10
16.2165491609
 20
-11.1046747971
 11
16.5647678349
 21
-11.0730659655
  0
LINE
  5
246
100
AcDbEntity
  8
0
100
AcDbLine
 62
7
  6
CONTINUOUS
 10
23.4452846671
 20
-11.1046747971
 11
20.6284565628
 21
-11.1046747971
  0
LINE
  5
247
100
AcDbEntity
  8
DRAFT
100
AcDbLine
 62
7
  6
CONTINUOUS
 10
16.2165491609
 20
-11.1046747971
 11
9.4284565628
 21
-11.1046747971
  0
LINE
  5
248
100
AcDbEntity
  8
0
100
AcDbLine
 62
7
  6
CONTINUOUS
 10
5.0165491609
 20
-11.1046747971
 11
2.1997210566
 21
-11.1046747971
  0
LINE
  5
249
100
AcDbEntity
  8
RACCORDO
100
AcDbLine
 62
7
  6
CONTINUOUS
 10
5.5379729157
 20
-11.0678251876
 11
8.907032808
 21
-11.0678251876
  0
LINE
  5
24A
100
AcDbEntity
  8
RACCORDO
100
AcDbLine
 62
7
  6
CONTINUOUS
 10
16.7379729157
 20
-11.0678251876
 11
20.107032808
 21
-11.0678251876
  0
LINE
  5
24B
100
AcDbEntity
  8
0
100
AcDbLine
 62
253
  6
CONTINUOUS
 10
2.3005325938
 20
-10.9533806284
 11
23.3444731299
 21
-10.9533806284
  0
LINE
  5
24C
100
AcDbEntity
  8
RACCORDO
100
AcDbLine
 62
7
  6
CONTINUOUS
 10
9.4284565628
 20
-11.1046747971
 11
9.0802378888
 21
-11.0730659655
  0
LINE
  5
24D
100
AcDbEntity
  8
RACCORDO
100
AcDbLine
 62
7
  6
CONTINUOUS
 10
5.0165491609
 20
-11.1046747971
 11
5.3647678349
 21
-11.0730659655
  0
LINE
  5
24E
100
AcDbEntity
  8
0
100
AcDbLine
 62
253
  6
CONTINUOUS
 10
2.3168840494
 20
-10.1038332761
 11
23.3281216743
 21
-10.1038332761
  0
LINE
  5
24F
100
AcDbEntity
  8
RACCORDO
100
AcDbLine
 62
7
  6
CONTINUOUS
 10
20.6284565628
 20
-11.1046747971
 11
20.2802378888
 21
-11.0730659655
  0
LINE
  5
250
100
AcDbEntity
  8
0
100
AcDbLine
 62
253
  6
CONTINUOUS
 10
1.6988101712
 20
-10.6071841643
 11
1.8008371803
 21
-10.4540658611
  0
LINE
  5
251
100
AcDbEntity
  8
0
100
AcDbLine
 62
253
  6
CONTINUOUS
 10
2.1997210566
 20
-11.1046747971
 11
2.3005325938
 21
-10.9533806284
  0
LINE
  5
252
100
AcDbEntity
  8
0
100
AcDbLine
 62
253
  6
CONTINUOUS
 10
23.2937588204
 20
1.6035631435
 11
2.3512469033
 21
1.6035631435
  0
LINE
  5
253
100
AcDbEntity
  8
0
100
AcDbLine
 62
253
  6
CONTINUOUS
 10
23.3444731299
 20
-10.9533806284
 11
23.4452846671
 21
-11.1046747971
  0
LINE
  5
254
100
AcDbEntity
  8
0
100
AcDbLine
 62
253
  6
CONTINUOUS
 10
23.8441685435
 20
-10.4540658611
 11
23.9461955525
 21
-10.6071841643
  0
LINE
  5
255
100
AcDbEntity
  8
0
100
AcDbLine
 62
7
  6
CONTINUOUS
 10
16.9744014054
 20
5.5035631435
 11
8.6706043183
 21
5.5035631435
  0
LINE
  5
256
100
AcDbEntity
  8
RACCORDO
100
AcDbLine
 62
7
  6
CONTINUOUS
 10
16.9744014054
 20
5.5035631435
 11
8.6706043183
 21
5.5035631435
  0
LINE
  5
257
100
AcDbEntity
  8
RACCORDO
100
AcDbLine
 62
253
  6
CONTINUOUS
 10
23.9725028619
 20
10.7536297647
 11
23.7903110356
 21
10.7080991535
  0
LINE
  5
258
100
AcDbEntity
  8
RACCORDO
100
AcDbLine
 62
253
  6
CONTINUOUS
 10
23.7224266601
 20
11.0035631435
 11
23.5404632619
 21
10.9580896175
  0
LINE
  5
259
100
AcDbEntity
  8
0
100
AcDbLine
 62
7
  6
CONTINUOUS
 10
16.9737739326
 20
7.7035631435
 11
8.6712317911
 21
7.7035631435
  0
LINE
  5
25A
100
AcDbEntity
  8
RACCORDO
100
AcDbLine
 62
7
  6
CONTINUOUS
 10
16.9737739326
 20
7.7035631435
 11
8.6712317911
 21
7.7035631435
  0
LINE
  5
25B
100
AcDbEntity
  8
RACCORDO
100
AcDbLine
 62
253
  6
CONTINUOUS
 10
1.8546946881
 20
10.7080991535
 11
1.6725028619
 21
10.7536297647
  0
LINE
  5
25C
100
AcDbEntity
  8
RACCORDO
100
AcDbLine
 62
253
  6
CONTINUOUS
 10
2.1045424618
 20
10.9580896175
 11
1.9225790636
 21
11.0035631435
  0
LINE
  5
25D
100
AcDbEntity
  8
RACCORDO
100
AcDbLine
 62
253
  6
CONTINUOUS
 10
23.290615608
 20
10.70579469
 11
23.290615608
 21
10.9559840553
  0
LINE
  5
25E
100
AcDbEntity
  8
DRAFT
100
AcDbLine
 62
7
  6
CONTINUOUS
 10
21.3349688524
 20
11.0035631435
 11
21.0725028619
 21
10.9773825401
  0
LINE
  5
25F
100
AcDbEntity
  8
DRAFT
100
AcDbLine
 62
7
  6
CONTINUOUS
 10
4.3100368713
 20
11.0035631435
 11
4.5725028619
 21
10.9773825401
  0
LINE
  5
260
100
AcDbEntity
  8
RACCORDO
100
AcDbLine
 62
7
  6
CONTINUOUS
 10
23.9725028619
 20
10.7536297647
 11
23.9725028619
 21
-1.9964368565
  0
LINE
  5
261
100
AcDbEntity
  8
0
100
AcDbLine
 62
7
  6
CONTINUOUS
 10
23.9461955525
 20
-10.6071841643
 11
23.9725028619
 21
-1.9964368565
  0
LINE
  5
262
100
AcDbEntity
  8
RACCORDO
100
AcDbLine
 62
253
  6
CONTINUOUS
 10
23.2906137776
 20
10.70579469
 11
2.3543919461
 21
10.70579469
  0
LINE
  5
263
100
AcDbEntity
  8
RACCORDO
100
AcDbLine
 62
253
  6
CONTINUOUS
 10
23.290615608
 20
10.9559840553
 11
2.3543901157
 21
10.9559840553
  0
LINE
  5
264
100
AcDbEntity
  8
DRAFT
100
AcDbLine
 62
7
  6
CONTINUOUS
 10
21.0725028619
 20
10.9773825401
 11
4.5725028619
 21
10.9773825401
  0
LINE
  5
265
100
AcDbEntity
  8
RACCORDO
100
AcDbLine
 62
7
  6
CONTINUOUS
 10
23.7224266601
 20
11.0035631435
 11
21.3349688524
 21
11.0035631435
  0
LINE
  5
266
100
AcDbEntity
  8
RACCORDO
100
AcDbLine
 62
7
  6
CONTINUOUS
 10
4.3100368713
 20
11.0035631435
 11
1.9225790636
 21
11.0035631435
  0
LINE
  5
267
100
AcDbEntity
  8
0
100
AcDbLine
 62
7
  6
CONTINUOUS
 10
-11.8736654908
 20
-10.9533806284
 11
-8.9868007789
 21
-11.1046747971
  0
LINE
  5
268
100
AcDbEntity
  8
0
100
AcDbLine
 62
253
  6
CONTINUOUS
 10
-11.8649472611
 20
-10.4540658611
 11
-8.9432759883
 21
-10.6071841643
  0
LINE
  5
269
100
AcDbEntity
  8
RACCORDO
100
AcDbLine
 62
253
  6
CONTINUOUS
 10
-8.6128089348
 20
-6.8299284577
 11
-8.5899332144
 21
-6.8299284577
  0
LINE
  5
26A
100
AcDbEntity
  8
RACCORDO
100
AcDbLine
 62
7
  6
CONTINUOUS
 10
-8.5899332144
 20
-6.8299266654
 11
-8.5899332144
 21
-6.5684577776
  0
LINE
  5
26B
100
AcDbEntity
  8
RACCORDO
100
AcDbLine
 62
7
  6
CONTINUOUS
 10
-8.1899332144
 20
11.0035631435
 11
-8.1899332144
 21
-1.9964368565
  0
LINE
  5
26C
100
AcDbEntity
  8
0
100
AcDbLine
 62
7
  6
CONTINUOUS
 10
-8.9868007789
 20
-11.1046747971
 11
-8.1899332144
 21
-1.9964368565
  0
LINE
  5
26D
100
AcDbEntity
  8
0
100
AcDbLine
 62
253
  6
CONTINUOUS
 10
-13.3172150744
 20
1.6130631435
 11
-13.7996750678
 21
1.6035631435
  0
LINE
  5
26E
100
AcDbEntity
  8
RACCORDO
100
AcDbLine
 62
7
  6
CONTINUOUS
 10
-8.6252546808
 20
-6.9721839856
 11
-8.6180408783
 21
-6.9567139363
  0
LINE
  5
26F
100
AcDbEntity
  8
RACCORDO
100
AcDbLine
 62
253
  6
CONTINUOUS
 10
-8.1899332144
 20
10.7536297647
 11
-13.4072244973
 21
10.7080991535
  0
LINE
  5
270
100
AcDbEntity
  8
RACCORDO
100
AcDbLine
 62
7
  6
CONTINUOUS
 10
-8.1899332144
 20
11.0035631435
 11
-13.6419567074
 21
10.9559840553
  0
ARC
  5
271
100
AcDbEntity
  8
0
100
AcDbCircle
 62
253
  6
CONTINUOUS
 10
-2560.6040450669
 20
3.2679819245
 40
2562.9558253754
100
AcDbArc
 50
359.7010670072
 51
359.9627913298
  0
ARC
  5
272
100
AcDbEntity
  8
0
100
AcDbCircle
 62
253
  6
CONTINUOUS
 10
2583.1070487187
 20
3.2587629712
 40
2559.8138131231
100
AcDbArc
 50
180.0370479955
 51
180.2990935685
  0
ARC
  5
273
100
AcDbEntity
  8
0
100
AcDbCircle
 62
253
  6
CONTINUOUS
 10
-2532.705941247
 20
3.2682357686
 40
2534.5580261424
100
AcDbArc
 50
359.6993970068
 51
359.9625834519
  0
ARC
  5
274
100
AcDbEntity
  8
0
100
AcDbCircle
 62
253
  6
CONTINUOUS
 10
2555.2438008707
 20
3.259068155
 40
2531.4508698621
100
AcDbArc
 50
180.037254978
 51
180.3007644637
  0
ARC
  5
275
100
AcDbEntity
  8
0
100
AcDbCircle
 62
7
  6
CONTINUOUS
 10
16.9704423973
 20
5.9020569421
 40
0.4020604646
100
AcDbArc
 50
356.679291676
 51
359.9997135529
  0
ARC
  5
276
100
AcDbEntity
  8
0
100
AcDbCircle
 62
7
  6
CONTINUOUS
 10
8.6745633258
 20
5.9020569421
 40
0.4020604639
100
AcDbArc
 50
180.0002864503
 51
183.320685082
  0
ARC
  5
277
100
AcDbEntity
  8
0
100
AcDbCircle
 62
7
  6
CONTINUOUS
 10
16.9737714267
 20
7.3019633424
 40
0.4015998011
100
AcDbArc
 50
86.677796853
 51
89.9996424861
  0
ARC
  5
278
100
AcDbEntity
  8
0
100
AcDbCircle
 62
7
  6
CONTINUOUS
 10
8.6712342971
 20
7.3019633434
 40
0.4015998001
100
AcDbArc
 50
90.0003575169
 51
93.3221812304
  0
ARC
  5
279
100
AcDbEntity
  8
0
100
AcDbCircle
 62
7
  6
CONTINUOUS
 10
8.6706063473
 20
5.9044697658
 40
0.4009066223
100
AcDbArc
 50
266.6769864153
 51
269.9997100212
  0
ARC
  5
27A
100
AcDbEntity
  8
0
100
AcDbCircle
 62
7
  6
CONTINUOUS
 10
16.9743993763
 20
5.9044697651
 40
0.4009066216
100
AcDbArc
 50
270.0002899832
 51
273.3229921321
  0
ARC
  5
27B
100
AcDbEntity
  8
0
100
AcDbCircle
 62
7
  6
CONTINUOUS
 10
8.6733655242
 20
7.3050687901
 40
0.4008626624
100
AcDbArc
 50
176.6760851759
 51
179.9996299877
  0
ARC
  5
27C
100
AcDbEntity
  8
0
100
AcDbCircle
 62
7
  6
CONTINUOUS
 10
16.9716402006
 20
7.3050687901
 40
0.4008626613
100
AcDbArc
 50
0.0003700158
 51
3.3238937694
  0
ARC
  5
27D
100
AcDbEntity
  8
RACCORDO
100
AcDbCircle
 62
253
  6
CONTINUOUS
 10
23.5402894112
 20
10.7080878868
 40
0.2500126443
100
AcDbArc
 50
0.0025780675
 51
89.9601566398
  0
ARC
  5
27E
100
AcDbEntity
  8
RACCORDO
100
AcDbCircle
 62
253
  6
CONTINUOUS
 10
2.1047162955
 20
10.7080878699
 40
0.2500126345
100
AcDbArc
 50
90.0398394747
 51
179.9974180581
  0
ARC
  5
27F
100
AcDbEntity
  8
RACCORDO
100
AcDbCircle
 62
7
  6
CONTINUOUS
 10
486.1100667856
 20
11.1035631435
 40
500.0
100
AcDbArc
 50
180.045580912
 51
181.08868532
  0
ARC
  5
280
100
AcDbEntity
  8
RACCORDO
100
AcDbCircle
 62
253
  6
CONTINUOUS
 10
486.0752819291
 20
11.103297069
 40
499.4826630211
100
AcDbArc
 50
180.0453332552
 51
181.0886925858
  0
ARC
  5
281
100
AcDbEntity
  8
0
100
AcDbCircle
 62
7
  6
CONTINUOUS
 10
76.1840784657
 20
3.3135631435
 40
90.0
100
AcDbArc
 50
181.08868532
 51
188.5737414447
  0
ARC
  5
282
100
AcDbEntity
  8
0
100
AcDbCircle
 62
253
  6
CONTINUOUS
 10
76.166628717
 20
3.3135631434
 40
89.4999999996
100
AcDbArc
 50
181.08868532
 51
188.5737414447
  0
ARC
  5
283
100
AcDbEntity
  8
0
100
AcDbCircle
 62
7
  6
CONTINUOUS
 10
-11.8213295346
 20
-9.9547510937
 40
1.0
100
AcDbArc
 50
188.5737414447
 51
267.0
  0
ARC
  5
284
100
AcDbEntity
  8
0
100
AcDbCircle
 62
253
  6
CONTINUOUS
 10
-11.8387792826
 20
-9.9547510932
 40
0.5000000005
100
AcDbArc
 50
188.5737414877
 51
266.999999957
  0
ARC
  5
285
100
AcDbEntity
  8
RACCORDO
100
AcDbCircle
 62
7
  6
CONTINUOUS
 10
-8.8899332144
 20
-6.8299284577
 40
0.3
100
AcDbArc
 50
334.9997013218
 51
0.0003423163
  0
ARC
  5
286
100
AcDbEntity
  8
RACCORDO
100
AcDbCircle
 62
7
  6
CONTINUOUS
 10
-13.6397750595
 20
10.7059935746
 40
0.25
100
AcDbArc
 50
90.5000032275
 51
180.045580992
  0
LINE
  5
287
100
AcDbEntity
  8
0
100
AcDbLine
 62
7
  6
CONTINUOUS
 10
17.3725028618
 20
7.3050713789
 11
17.3725028618
 21
7.0972149559
  0
LINE
  5
288
100
AcDbEntity
  8
0
100
AcDbLine
 62
7
  6
CONTINUOUS
 10
17.3725028618
 20
7.0972149559
 11
17.3725028618
 21
7.0452509554
  0
LINE
  5
289
100
AcDbEntity
  8
0
100
AcDbLine
 62
7
  6
CONTINUOUS
 10
17.3725028618
 20
7.0452509554
 11
17.3725028618
 21
6.8373953493
  0
LINE
  5
28A
100
AcDbEntity
  8
0
100
AcDbLine
 62
7
  6
CONTINUOUS
 10
17.3725028618
 20
6.8373953493
 11
17.3725028618
 21
6.6295405341
  0
LINE
  5
28B
100
AcDbEntity
  8
0
100
AcDbLine
 62
7
  6
CONTINUOUS
 10
17.3725028618
 20
6.6295405341
 11
17.3725028618
 21
6.5775769296
  0
LINE
  5
28C
100
AcDbEntity
  8
0
100
AcDbLine
 62
7
  6
CONTINUOUS
 10
17.3725028618
 20
6.5775769296
 11
17.3725028618
 21
6.3697230222
  0
LINE
  5
28D
100
AcDbEntity
  8
0
100
AcDbLine
 62
7
  6
CONTINUOUS
 10
17.3725028618
 20
6.3697230222
 11
17.3725028618
 21
6.1618700471
  0
LINE
  5
28E
100
AcDbEntity
  8
0
100
AcDbLine
 62
7
  6
CONTINUOUS
 10
17.3725028618
 20
6.1618700471
 11
17.3725028618
 21
6.1099069294
  0
LINE
  5
28F
100
AcDbEntity
  8
0
100
AcDbLine
 62
7
  6
CONTINUOUS
 10
17.3725028618
 20
6.1099069294
 11
17.3725028618
 21
5.902054932
  0
SPLINE
  5
290
100
AcDbEntity
  8
0
100
AcDbSpline
 62
7
  6
CONTINUOUS
 70
0
 71
3
 72
25
 73
21
 74
19
 42
0.0000001
 43
0.0000001
 44
0.0000000001
 12
-0.578414833
 22
0.033585452
 32
0.0
 13
-0.0335619525
 23
0.5784158551
 33
0.0
 40
0.0
 40
0.0
 40
0.0
 40
0.0
 40
0.0200514387
 40
0.0803270942
 40
0.1404453416
 40
0.2002856332
 40
0.2602499788
 40
0.3202499278
 40
0.3800671828
 40
0.4397602389
 40
0.4996674647
 40
0.5595882874
 40
0.6193181535
 40
0.6791887486
 40
0.7392639398
 40
0.7993237723
 40
0.8592712226
 40
0.9195041017
 40
0.9799050173
 40
1.0
 40
1.0
 40
1.0
 40
1.0
 10
8.6473677873
 20
5.504237222
 30
0.0
 10
8.6435017708
 20
5.5044617008
 30
0.0
 10
8.6280269132
 20
5.5055855006
 30
0.0
 10
8.6011126654
 20
5.5091221843
 30
0.0
 10
8.5670982228
 20
5.5166558304
 30
0.0
 10
8.5339272235
 20
5.5271039345
 30
0.0
 10
8.501812815
 20
5.5403927255
 30
0.0
 10
8.470985481
 20
5.5564333376
 30
0.0
 10
8.4417208841
 20
5.5750761284
 30
0.0
 10
8.4142067883
 20
5.5961874776
 30
0.0
 10
8.3886244691
 20
5.6196326316
 30
0.0
 10
8.3651845372
 20
5.6452293798
 30
0.0
 10
8.3440715267
 20
5.6727674568
 30
0.0
 10
8.3254220802
 20
5.7020656755
 30
0.0
 10
8.3093713985
 20
5.7329365449
 30
0.0
 10
8.2960709896
 20
5.765104226
 30
0.0
 10
8.2856119562
 20
5.7983360201
 30
0.0
 10
8.2780693588
 20
5.8324171177
 30
0.0
 10
8.2745281162
 20
5.8593859706
 30
0.0
 10
8.2734027425
 20
5.8748933931
 30
0.0
 10
8.2731779336
 20
5.8787678119
 30
0.0
 11
8.6473677873
 21
5.504237222
 31
0.0
 11
8.6357811003
 21
5.5050787693
 31
0.0
 11
8.60117036
 21
5.5096276117
 31
0.0
 11
8.5671771657
 21
5.5171576648
 31
0.0
 11
8.5341221075
 21
5.527570084
 31
0.0
 11
8.5020330698
 21
5.5408491631
 31
0.0
 11
8.471207933
 21
5.5568892318
 31
0.0
 11
8.4419902232
 21
5.5755025664
 31
0.0
 11
8.4145628626
 21
5.5965475698
 31
0.0
 11
8.3889846313
 21
5.6199889393
 31
0.0
 11
8.365547771
 21
5.6455819809
 31
0.0
 11
8.344500093
 21
5.6730341571
 31
0.0
 11
8.3258804449
 21
5.70228447
 31
0.0
 11
8.3098299739
 21
5.7331533148
 31
0.0
 11
8.2965384781
 21
5.7652970617
 31
0.0
 11
8.2861147307
 21
5.7984136172
 31
0.0
 11
8.2785757596
 21
5.8324728334
 31
0.0
 11
8.2740207188
 21
5.8671559266
 31
0.0
 11
8.2731779336
 21
5.8787678119
 31
0.0
  0
SPLINE
  5
291
100
AcDbEntity
  8
0
100
AcDbSpline
 62
7
  6
CONTINUOUS
 70
0
 71
3
 72
25
 73
21
 74
19
 42
0.0000001
 43
0.0000001
 44
0.0000000001
 12
0.0336205787
 22
0.5788763995
 32
0.0
 13
0.5788771578
 23
0.0336031692
 33
0.0
 40
0.0
 40
0.0
 40
0.0
 40
0.0
 40
0.0200416777
 40
0.0803005781
 40
0.1404186932
 40
0.2002719698
 40
0.2602592616
 40
0.3202893722
 40
0.380140933
 40
0.4398699628
 40
0.4998109175
 40
0.5597596722
 40
0.6195089209
 40
0.6793889892
 40
0.7394602604
 40
0.7995013133
 40
0.8594154143
 40
0.9195988866
 40
0.9799318234
 40
1.0
 40
1.0
 40
1.0
 40
1.0
 10
8.273177232
 20
7.3283110968
 30
0.0
 10
8.2734018362
 20
7.3321783149
 30
0.0
 10
8.2745264467
 20
7.3476604031
 30
0.0
 10
8.2780662351
 20
7.3745909165
 30
0.0
 10
8.2856071876
 20
7.4086314671
 30
0.0
 10
8.296067085
 20
7.4418351241
 30
0.0
 10
8.3093723865
 20
7.4739865601
 30
0.0
 10
8.3254340643
 20
7.5048532566
 30
0.0
 10
8.3441019797
 20
7.5341577127
 30
0.0
 10
8.3652416016
 20
7.5617103545
 30
0.0
 10
8.3887168619
 20
7.5873282583
 30
0.0
 10
8.4143438231
 20
7.61079942
 30
0.0
 10
8.4419105815
 20
7.6319385905
 30
0.0
 10
8.4712342097
 20
7.6506087309
 30
0.0
 10
8.5021255694
 20
7.6666746787
 30
0.0
 10
8.534307349
 20
7.6799853714
 30
0.0
 10
8.567545813
 20
7.6904505047
 30
0.0
 10
8.6016250004
 20
7.6979959048
 30
0.0
 10
8.6285875404
 20
7.701538012
 30
0.0
 10
8.644089045
 20
7.7026634529
 30
0.0
 10
8.6479613813
 20
7.7028882376
 30
0.0
 11
8.273177232
 21
7.3283110968
 31
0.0
 11
8.2740192462
 21
7.3399013796
 31
0.0
 11
8.2785714784
 21
7.3745299959
 31
0.0
 11
8.2861088078
 21
7.4085499779
 31
0.0
 11
8.2965330307
 21
7.4416382246
 31
0.0
 11
8.3098287097
 21
7.4737648
 31
0.0
 11
8.3258900494
 21
7.5046298567
 31
0.0
 11
8.3445287106
 21
7.5338878095
 31
0.0
 11
8.3656023966
 21
7.561354241
 31
0.0
 11
8.3890743622
 21
7.5869685314
 31
0.0
 11
8.4146980585
 21
7.6104369226
 31
0.0
 11
8.4421791307
 21
7.6315107768
 31
0.0
 11
8.4714554628
 21
7.6501513384
 31
0.0
 11
8.5023451289
 21
7.6662170662
 31
0.0
 11
8.5345029823
 21
7.6795186528
 31
0.0
 11
8.5676264608
 21
7.6899483678
 31
0.0
 11
8.6016842782
 21
7.6974900504
 31
0.0
 11
8.6363557473
 21
7.7020455414
 31
0.0
 11
8.6479613813
 21
7.7028882376
 31
0.0
  0
SPLINE
  5
292
100
AcDbEntity
  8
0
100
AcDbSpline
 62
7
  6
CONTINUOUS
 70
0
 71
3
 72
25
 73
21
 74
19
 42
0.0000001
 43
0.0000001
 44
0.0000000001
 12
-0.0335621863
 22
-0.578415825
 32
0.0
 13
-0.5784148365
 23
-0.0335852348
 33
0.0
 40
0.0
 40
0.0
 40
0.0
 40
0.0
 40
0.0200941342
 40
0.080494816
 40
0.1407296603
 40
0.2006766753
 40
0.2607351258
 40
0.320810864
 40
0.3806828279
 40
0.4404119795
 40
0.5003317803
 40
0.5602400374
 40
0.6199337955
 40
0.6797496649
 40
0.7397490773
 40
0.7997148019
 40
0.8595555079
 40
0.9196717812
 40
0.9799476896
 40
1.0
 40
1.0
 40
1.0
 40
1.0
 10
17.3718277807
 20
5.878767649
 30
0.0
 10
17.3716029796
 20
5.874893394
 30
0.0
 10
17.3704776243
 20
5.8593861804
 30
0.0
 10
17.3669363865
 20
5.8324171559
 30
0.0
 10
17.3593937255
 20
5.7983358131
 30
0.0
 10
17.3489346384
 20
5.7651040076
 30
0.0
 10
17.3356343229
 20
5.7329365568
 30
0.0
 10
17.319583611
 20
5.7020655867
 30
0.0
 10
17.3009340146
 20
5.6727671864
 30
0.0
 10
17.2798210124
 20
5.6452291951
 30
0.0
 10
17.2563811732
 20
5.6196325501
 30
0.0
 10
17.230798751
 20
5.5961873037
 30
0.0
 10
17.2032845739
 20
5.5750759494
 30
0.0
 10
17.1740201634
 20
5.5564333107
 30
0.0
 10
17.1431929337
 20
5.5403927293
 30
0.0
 10
17.1110782991
 20
5.5271038453
 30
0.0
 10
17.0779073192
 20
5.5166557955
 30
0.0
 10
17.0438931262
 20
5.509122211
 30
0.0
 10
17.016979045
 20
5.5055855199
 30
0.0
 10
17.0015039711
 20
5.5044617004
 30
0.0
 10
16.9976377865
 20
5.5042372133
 30
0.0
 11
17.3718277807
 21
5.878767649
 31
0.0
 11
17.3709850335
 21
5.8671562542
 31
0.0
 11
17.3664300448
 21
5.8324732916
 31
0.0
 11
17.358890819
 21
5.7984129668
 31
0.0
 11
17.3484671021
 21
5.7652966667
 31
0.0
 11
17.3351759109
 21
5.7331536608
 31
0.0
 11
17.3191253115
 21
5.7022845266
 31
0.0
 11
17.3005052138
 21
5.6730335612
 31
0.0
 11
17.2794577521
 21
5.6455817416
 31
0.0
 11
17.2560212909
 21
5.619989138
 31
0.0
 11
17.2304426189
 21
5.5965473665
 31
0.0
 11
17.2030149088
 21
5.575502152
 31
0.0
 11
17.1737978614
 21
5.5568892726
 31
0.0
 11
17.1429730106
 21
5.5408493293
 31
0.0
 11
17.1108832354
 21
5.5275699455
 31
0.0
 11
17.0778279354
 21
5.5171574981
 31
0.0
 11
17.0438358566
 21
5.5096276986
 31
0.0
 11
17.0092249768
 21
5.5050788001
 31
0.0
 11
16.9976377865
 21
5.5042372133
 31
0.0
  0
SPLINE
  5
293
100
AcDbEntity
  8
0
100
AcDbSpline
 62
7
  6
CONTINUOUS
 70
0
 71
3
 72
25
 73
21
 74
19
 42
0.0000001
 43
0.0000001
 44
0.0000000001
 12
0.5788771349
 22
-0.0336033902
 32
0.0
 13
0.0336203657
 23
-0.5788764096
 33
0.0
 40
0.0
 40
0.0
 40
0.0
 40
0.0
 40
0.0200673121
 40
0.0803999929
 40
0.1405854283
 40
0.2004991081
 40
0.2605387869
 40
0.3206106022
 40
0.3804920415
 40
0.4402405814
 40
0.5001883132
 40
0.5601302958
 40
0.6198600277
 40
0.6797102083
 40
0.7397397796
 40
0.7997284436
 40
0.8595821308
 40
0.9196982792
 40
0.9799574461
 40
1.0
 40
1.0
 40
1.0
 40
1.0
 10
16.9970444958
 20
7.7028882287
 30
0.0
 10
17.0009166652
 20
7.7026634522
 30
0.0
 10
17.0164179536
 20
7.7015380308
 30
0.0
 10
17.043380658
 20
7.6979959309
 30
0.0
 10
17.07746009
 20
7.6904504703
 30
0.0
 10
17.1106985702
 20
7.6799852842
 30
0.0
 10
17.1428801237
 20
7.6666746852
 30
0.0
 10
17.1737715866
 20
7.6506087077
 30
0.0
 10
17.2030953986
 20
7.6319384179
 30
0.0
 10
17.2306620735
 20
7.6107992559
 30
0.0
 10
17.2562889327
 20
7.5873281875
 30
0.0
 10
17.2797642862
 20
7.5617101817
 30
0.0
 10
17.3009039147
 20
7.5341574588
 30
0.0
 10
17.3195716796
 20
7.5048531891
 30
0.0
 10
17.3356333274
 20
7.4739865978
 30
0.0
 10
17.3489387223
 20
7.4418349381
 30
0.0
 10
17.3593985668
 20
7.4086313012
 30
0.0
 10
17.3669394598
 20
7.3745909969
 30
0.0
 10
17.370479257
 20
7.3476606453
 30
0.0
 10
17.3716038876
 20
7.3321783369
 30
0.0
 10
17.3718285003
 20
7.3283109497
 30
0.0
 11
16.9970444958
 21
7.7028882287
 31
0.0
 11
17.0086496299
 21
7.7020455716
 31
0.0
 11
17.0433209563
 21
7.6974901366
 31
0.0
 11
17.0773798829
 21
7.6899482018
 31
0.0
 11
17.1105031146
 21
7.6795185172
 31
0.0
 11
17.1426602317
 21
7.6662172353
 31
0.0
 11
17.1735501872
 21
7.650151381
 31
0.0
 11
17.2028271746
 21
7.6315103698
 31
0.0
 11
17.2303078937
 21
7.610436731
 31
0.0
 11
17.2559311524
 21
7.5869687404
 31
0.0
 11
17.2794035201
 21
7.5613540109
 31
0.0
 11
17.3004774188
 21
7.5338872301
 31
0.0
 11
17.3191156274
 21
7.5046299379
 31
0.0
 11
17.3351768421
 21
7.473765169
 31
0.0
 11
17.3484728258
 21
7.4416378593
 31
0.0
 11
17.358897078
 21
7.4085493727
 31
0.0
 11
17.366434156
 21
7.374530503
 31
0.0
 11
17.3709864461
 21
7.3399017389
 31
0.0
 11
17.3718285003
 21
7.3283109497
 31
0.0
  0
LINE
  5
294
100
AcDbEntity
  8
0
100
AcDbLine
 62
7
  6
CONTINUOUS
 10
8.2725028619
 20
5.902054932
 11
8.2725028619
 21
6.1099069339
  0
LINE
  5
295
100
AcDbEntity
  8
0
100
AcDbLine
 62
7
  6
CONTINUOUS
 10
8.2725028619
 20
6.1099069339
 11
8.2725028619
 21
6.161870051
  0
LINE
  5
296
100
AcDbEntity
  8
0
100
AcDbLine
 62
7
  6
CONTINUOUS
 10
8.2725028619
 20
6.161870051
 11
8.2725028619
 21
6.3697230083
  0
LINE
  5
297
100
AcDbEntity
  8
0
100
AcDbLine
 62
7
  6
CONTINUOUS
 10
8.2725028619
 20
6.3697230083
 11
8.2725028619
 21
6.5775769369
  0
LINE
  5
298
100
AcDbEntity
  8
0
100
AcDbLine
 62
7
  6
CONTINUOUS
 10
8.2725028619
 20
6.5775769369
 11
8.2725028619
 21
6.6295405416
  0
LINE
  5
299
100
AcDbEntity
  8
0
100
AcDbLine
 62
7
  6
CONTINUOUS
 10
8.2725028619
 20
6.6295405416
 11
8.2725028619
 21
6.8373952769
  0
LINE
  5
29A
100
AcDbEntity
  8
0
100
AcDbLine
 62
7
  6
CONTINUOUS
 10
8.2725028619
 20
6.8373952769
 11
8.2725028619
 21
7.0452509594
  0
LINE
  5
29B
100
AcDbEntity
  8
0
100
AcDbLine
 62
7
  6
CONTINUOUS
 10
8.2725028619
 20
7.0452509594
 11
8.2725028619
 21
7.0972149604
  0
LINE
  5
29C
100
AcDbEntity
  8
0
100
AcDbLine
 62
7
  6
CONTINUOUS
 10
8.2725028619
 20
7.0972149604
 11
8.2725028619
 21
7.3050713789
  0
LINE
  5
29D
100
AcDbEntity
  8
RACCORDO
100
AcDbLine
 62
7
  6
CONTINUOUS
 10
17.3725028618
 20
7.3050713789
 11
17.3725028618
 21
5.902054932
  0
LINE
  5
29E
100
AcDbEntity
  8
RACCORDO
100
AcDbLine
 62
7
  6
CONTINUOUS
 10
8.2725028619
 20
5.902054932
 11
8.2725028619
 21
7.3050713789
  0
SPLINE
  5
29F
100
AcDbEntity
  8
RACCORDO
100
AcDbSpline
 62
7
  6
CONTINUOUS
 70
0
 71
3
 72
25
 73
21
 74
19
 42
0.0000001
 43
0.0000001
 44
0.0000000001
 12
-0.6256832202
 22
0.0
 32
0.0
 13
0.0
 23
0.6256832202
 33
0.0
 40
0.0
 40
0.0
 40
0.0
 40
0.0
 40
0.0556733582
 40
0.1114505503
 40
0.1670993388
 40
0.2225000448
 40
0.278013467
 40
0.3335579392
 40
0.3889329739
 40
0.4441938583
 40
0.4996537624
 40
0.5551262503
 40
0.6104212299
 40
0.6658457278
 40
0.721459882
 40
0.7770616371
 40
0.8325613724
 40
0.8883154579
 40
0.9442070521
 40
1.0
 40
1.0
 40
1.0
 40
1.0
 10
8.6706043183
 20
5.5035631435
 30
0.0
 10
8.658993023
 20
5.5035631435
 30
0.0
 10
8.6357360775
 20
5.5045737367
 30
0.0
 10
8.601140551
 20
5.5091173982
 30
0.0
 10
8.5671259053
 20
5.5166482974
 30
0.0
 10
8.5339497013
 20
5.5270955645
 30
0.0
 10
8.5018292521
 20
5.5403849016
 30
0.0
 10
8.4709969626
 20
5.5564265616
 30
0.0
 10
8.4417279811
 20
5.5750709965
 30
0.0
 10
8.4142096953
 20
5.5961848447
 30
0.0
 10
8.3886234747
 20
5.6196334063
 30
0.0
 10
8.3651802947
 20
5.6452342086
 30
0.0
 10
8.3440649465
 20
5.6727766284
 30
0.0
 10
8.3254140277
 20
5.7020793778
 30
0.0
 10
8.3093624922
 20
5.7329553208
 30
0.0
 10
8.2960617599
 20
5.7651290945
 30
0.0
 10
8.2856038362
 20
5.798365955
 30
0.0
 10
8.2780642851
 20
5.8324467837
 30
0.0
 10
8.2735148332
 20
5.8671129395
 30
0.0
 10
8.2725028619
 20
5.8904186949
 30
0.0
 10
8.2725028619
 20
5.902054932
 30
0.0
 11
8.6706043183
 21
5.5035631435
 31
0.0
 11
8.635803336
 21
5.5050768299
 31
0.0
 11
8.6012017377
 21
5.5096220857
 31
0.0
 11
8.5672066939
 21
5.5171497585
 31
0.0
 11
8.5341442076
 21
5.5275620502
 31
0.0
 11
8.5020491894
 21
5.5408416524
 31
0.0
 11
8.471219404
 21
5.5568826098
 31
0.0
 11
8.4419975258
 21
5.5754974529
 31
0.0
 11
8.4145659857
 21
5.5965449495
 31
0.0
 11
8.3889837478
 21
5.6199898232
 31
0.0
 11
8.3655435468
 21
5.6455870196
 31
0.0
 11
8.3444935416
 21
5.6730435205
 31
0.0
 11
8.3258725428
 21
5.7022981689
 31
0.0
 11
8.3098213739
 21
5.7331717865
 31
0.0
 11
8.296529576
 21
5.7653215697
 31
0.0
 11
8.2861061943
 21
5.7984455235
 31
0.0
 11
8.2785698989
 21
5.8325061359
 31
0.0
 11
8.2740186951
 21
5.8671791471
 31
0.0
 11
8.2725028619
 21
5.902054932
 31
0.0
  0
SPLINE
  5
2A0
100
AcDbEntity
  8
RACCORDO
100
AcDbSpline
 62
7
  6
CONTINUOUS
 70
0
 71
3
 72
25
 73
21
 74
19
 42
0.0000001
 43
0.0000001
 44
0.0000000001
 12
-0.0
 22
0.6261321933
 32
0.0
 13
0.6261321933
 23
0.0
 33
0.0
 40
0.0
 40
0.0
 40
0.0
 40
0.0
 40
0.0556462765
 40
0.1114123659
 40
0.1670645122
 40
0.2224808987
 40
0.2780198863
 40
0.3335969858
 40
0.3890085547
 40
0.4443073417
 40
0.499802936
 40
0.5553057357
 40
0.6106232273
 40
0.6660612395
 40
0.7216764573
 40
0.7772651809
 40
0.8327377847
 40
0.8884496229
 40
0.9442824486
 40
1.0
 40
1.0
 40
1.0
 40
1.0
 10
8.2725028619
 20
7.3050713789
 30
0.0
 10
8.2725028619
 20
7.3166853539
 30
0.0
 10
8.273514324
 20
7.3399510118
 30
0.0
 10
8.2780616261
 20
7.3745639838
 30
0.0
 10
8.2855998142
 20
7.4086043212
 30
0.0
 10
8.2960587707
 20
7.4418127765
 30
0.0
 10
8.3093645543
 20
7.4739701077
 30
0.0
 10
8.3254273128
 20
7.504841827
 30
0.0
 10
8.3440969561
 20
7.5341507769
 30
0.0
 10
8.3652391495
 20
7.5617076643
 30
0.0
 10
8.3887178503
 20
7.5873294658
 30
0.0
 10
8.4143488916
 20
7.6108038651
 30
0.0
 10
8.4419200654
 20
7.6319453947
 30
0.0
 10
8.4712483438
 20
7.6506170394
 30
0.0
 10
8.5021448601
 20
7.6666838282
 30
0.0
 10
8.5343326193
 20
7.679994742
 30
0.0
 10
8.5675757771
 20
7.6904586194
 30
0.0
 10
8.6016542523
 20
7.6980008951
 30
0.0
 10
8.636308475
 20
7.7025510153
 30
0.0
 10
8.6596029402
 20
7.7035631435
 30
0.0
 10
8.6712317911
 20
7.7035631435
 30
0.0
 11
8.2725028619
 21
7.3050713789
 31
0.0
 11
8.2740174134
 21
7.3398803703
 31
0.0
 11
8.2785661518
 21
7.3744997572
 31
0.0
 11
8.2861010337
 21
7.4085209479
 31
0.0
 11
8.2965249979
 21
7.4416161295
 31
0.0
 11
8.309821158
 21
7.4737485934
 31
0.0
 11
8.3258834472
 21
7.5046184202
 31
0.0
 11
8.3445237283
 21
7.5338806939
 31
0.0
 11
8.3655999778
 21
7.5613513578
 31
0.0
 11
8.3890754611
 21
7.58696963
 31
0.0
 11
8.4147033166
 21
7.6104413314
 31
0.0
 11
8.4421887798
 21
7.6315175295
 31
0.0
 11
8.4714696074
 21
7.6501594996
 31
0.0
 11
8.5023641789
 21
7.666225938
 31
0.0
 11
8.5345280072
 21
7.6795277458
 31
0.0
 11
8.5676584485
 21
7.6899569291
 31
0.0
 11
8.6017170325
 21
7.697495817
 31
0.0
 11
8.6363781776
 21
7.7020474971
 31
0.0
 11
8.6712317911
 21
7.7035631435
 31
0.0
  0
SPLINE
  5
2A1
100
AcDbEntity
  8
RACCORDO
100
AcDbSpline
 62
7
  6
CONTINUOUS
 70
0
 71
3
 72
25
 73
21
 74
19
 42
0.0000001
 43
0.0000001
 44
0.0000000001
 12
0.0
 22
-0.6256832202
 32
0.0
 13
-0.6256832202
 23
0.0
 33
0.0
 40
0.0
 40
0.0
 40
0.0
 40
0.0
 40
0.0557950913
 40
0.1116884983
 40
0.1674453284
 40
0.2229447961
 40
0.2785453267
 40
0.3341599831
 40
0.3895856968
 40
0.4448800349
 40
0.5003515979
 40
0.5558124452
 40
0.6110739736
 40
0.6664477952
 40
0.7219917909
 40
0.7775064418
 40
0.8329073853
 40
0.8885533946
 40
0.9443287616
 40
1.0
 40
1.0
 40
1.0
 40
1.0
 10
17.3725028618
 20
5.902054932
 30
0.0
 10
17.3725028618
 20
5.8904182479
 30
0.0
 10
17.3714908156
 20
5.8671116659
 30
0.0
 10
17.3669410162
 20
5.8324441419
 30
0.0
 10
17.3594009864
 20
5.7983624966
 30
0.0
 10
17.3489426419
 20
5.765125495
 30
0.0
 10
17.3356416951
 20
5.732952036
 30
0.0
 10
17.3195898463
 20
5.7020761387
 30
0.0
 10
17.3009385138
 20
5.6727733836
 30
0.0
 10
17.2798229237
 20
5.645231243
 30
0.0
 10
17.2563795974
 20
5.6196307534
 30
0.0
 10
17.2307930576
 20
5.5961823328
 30
0.0
 10
17.2032744879
 20
5.5750687243
 30
0.0
 10
17.1740055059
 20
5.5564247008
 30
0.0
 10
17.1431731635
 20
5.5403833527
 30
0.0
 10
17.1110523984
 20
5.5270942328
 30
0.0
 10
17.0778763468
 20
5.5166473927
 30
0.0
 10
17.0438625334
 20
5.5091169764
 30
0.0
 10
17.0092683798
 20
5.5045736624
 30
0.0
 10
16.9860122587
 20
5.5035631435
 30
0.0
 10
16.9744014054
 20
5.5035631435
 30
0.0
 11
17.3725028618
 21
5.902054932
 31
0.0
 11
17.3709869121
 21
5.8671778098
 31
0.0
 11
17.3664353954
 21
5.8325036957
 31
0.0
 11
17.3588984449
 21
5.7984414695
 31
0.0
 11
17.3484747723
 21
5.7653177827
 31
0.0
 11
17.335182973
 21
5.7331688292
 31
0.0
 11
17.3191313938
 21
5.7022950707
 31
0.0
 11
17.3005096952
 21
5.6730399661
 31
0.0
 11
17.279459648
 21
5.6455840031
 31
0.0
 11
17.2560196026
 21
5.619987449
 31
0.0
 11
17.2304367137
 21
5.5965424121
 31
0.0
 11
17.2030046337
 21
5.5754949572
 31
0.0
 11
17.1737832094
 21
5.5568808144
 31
0.0
 11
17.1429535494
 21
5.5408402617
 31
0.0
 11
17.1108576981
 21
5.5275606624
 31
0.0
 11
17.0777949618
 21
5.5171486695
 31
0.0
 11
17.0438015528
 21
5.5096216573
 31
0.0
 11
17.0092010652
 21
5.5050767146
 31
0.0
 11
16.9744014054
 21
5.5035631435
 31
0.0
  0
SPLINE
  5
2A2
100
AcDbEntity
  8
RACCORDO
100
AcDbSpline
 62
7
  6
CONTINUOUS
 70
0
 71
3
 72
25
 73
21
 74
19
 42
0.0000001
 43
0.0000001
 44
0.0000000001
 12
0.6261321933
 22
0.0
 32
0.0
 13
-0.0
 23
-0.6261321933
 33
0.0
 40
0.0
 40
0.0
 40
0.0
 40
0.0
 40
0.0557196865
 40
0.1115543222
 40
0.16726891
 40
0.2227412555
 40
0.2783287553
 40
0.3339444681
 40
0.3893836966
 40
0.4447005512
 40
0.5002024237
 40
0.5556989543
 40
0.6109983787
 40
0.6664087318
 40
0.7219853485
 40
0.7775255617
 40
0.8329421921
 40
0.8885915724
 40
0.9443558468
 40
1.0
 40
1.0
 40
1.0
 40
1.0
 10
16.9737739326
 20
7.7035631435
 30
0.0
 10
16.9854032291
 20
7.7035631435
 30
0.0
 10
17.0086985192
 20
7.7025509406
 30
0.0
 10
17.0433541097
 20
7.6980004732
 30
0.0
 10
17.0774334046
 20
7.6904577181
 30
0.0
 10
17.1106767066
 20
7.6799934187
 30
0.0
 10
17.1428641512
 20
7.6666822899
 30
0.0
 10
17.1737606207
 20
7.6506151882
 30
0.0
 10
17.2030889045
 20
7.6319431299
 30
0.0
 10
17.2306597994
 20
7.610801358
 30
0.0
 10
17.2562905271
 20
7.587326813
 30
0.0
 10
17.2797690847
 20
7.5617046947
 30
0.0
 10
17.3009110367
 20
7.5341475264
 30
0.0
 10
17.3195802673
 20
7.5048385792
 30
0.0
 10
17.3356427135
 20
7.4739668098
 30
0.0
 10
17.3489482808
 20
7.4418091636
 30
0.0
 10
17.3594068125
 20
7.4086008579
 30
0.0
 10
17.3669445193
 20
7.3745613474
 30
0.0
 10
17.3714914742
 20
7.3399497451
 30
0.0
 10
17.3725028618
 20
7.3166849108
 30
0.0
 10
17.3725028618
 20
7.3050713789
 30
0.0
 11
16.9737739326
 21
7.7035631435
 31
0.0
 11
17.0086288791
 21
7.7020473809
 31
0.0
 11
17.0432911263
 21
7.6974953884
 31
0.0
 11
17.0773513284
 21
7.6899558445
 31
0.0
 11
17.1104815079
 21
7.6795263683
 31
0.0
 11
17.1426445064
 21
7.6662245589
 31
0.0
 11
17.1735392148
 21
7.6501577119
 31
0.0
 11
17.2028204992
 21
7.6315150415
 31
0.0
 11
17.2303054264
 21
7.6104387998
 31
0.0
 11
17.2559326381
 21
7.5869672551
 31
0.0
 11
17.2794082819
 21
7.5613483348
 31
0.0
 11
17.3004844877
 21
7.5338771343
 31
0.0
 11
17.319124068
 21
7.5046153167
 31
0.0
 11
17.3351859514
 21
7.4737456195
 31
0.0
 11
17.3484821091
 21
7.4416123242
 31
0.0
 11
17.3589057767
 21
7.4085168892
 31
0.0
 11
17.36644
 21
7.3744973263
 31
0.0
 11
17.3709884259
 21
7.3398790446
 31
0.0
 11
17.3725028618
 21
7.3050713789
 31
0.0
  0
SPLINE
  5
2A3
100
AcDbEntity
  8
RACCORDO
100
AcDbSpline
 62
253
  6
CONTINUOUS
 70
0
 71
3
 72
10
 73
6
 74
4
 42
0.0000001
 43
0.0000001
 44
0.0000000001
 12
0.0060355961
 22
9.0950346867
 32
0.0
 13
0.0002514557
 23
9.0950366859
 33
0.0
 40
0.0
 40
0.0
 40
0.0
 40
0.0
 40
0.33331324
 40
0.66664763
 40
1.0
 40
1.0
 40
1.0
 40
1.0
 10
1.8515514898
 20
1.6130631435
 30
0.0
 10
1.8522220712
 20
2.6235616366
 30
0.0
 10
1.8533489855
 20
4.6446228917
 30
0.0
 10
1.8543967608
 20
7.6763016276
 30
0.0
 10
1.854666747
 20
9.6974818086
 30
0.0
 10
1.8546946881
 20
10.7080991535
 30
0.0
 11
1.8515514898
 21
1.6130631435
 31
0.0
 11
1.8532418522
 21
4.6445588189
 31
0.0
 11
1.8542896098
 21
7.6762471447
 31
0.0
 11
1.8546946881
 21
10.7080991535
 31
0.0
  0
SPLINE
  5
2A4
100
AcDbEntity
  8
0
100
AcDbSpline
 62
253
  6
CONTINUOUS
 70
0
 71
3
 72
25
 73
21
 74
19
 42
0.0000001
 43
0.0000001
 44
0.0000000001
 12
0.4390248502
 22
-0.23920298
 32
0.0
 13
0.4999607732
 23
-0.0003316614
 33
0.0
 40
0.0
 40
0.0
 40
0.0
 40
0.0
 40
0.0068059321
 40
0.0207337758
 40
0.0417520194
 40
0.0697246347
 40
0.10445486
 40
0.1456934389
 40
0.1931423402
 40
0.246457634
 40
0.3052523085
 40
0.3690992429
 40
0.4375344016
 40
0.5100602612
 40
0.5861494626
 40
0.6652486693
 40
0.7467826077
 40
0.8301582634
 40
0.9147692045
 40
1.0
 40
1.0
 40
1.0
 40
1.0
 10
1.8515514898
 20
1.6130631435
 30
0.0
 10
1.8525474809
 20
1.6125204771
 30
0.0
 10
1.8560897778
 20
1.6121184247
 30
0.0
 10
1.8629112872
 20
1.6112432937
 30
0.0
 10
1.8734208866
 20
1.6105692756
 30
0.0
 10
1.8873330935
 20
1.6097888353
 30
0.0
 10
1.9046475693
 20
1.6090657637
 30
0.0
 10
1.9252008059
 20
1.6083509444
 30
0.0
 10
1.9488572878
 20
1.6076723276
 30
0.0
 10
1.9754403696
 20
1.6070288358
 30
0.0
 10
2.0047582102
 20
1.6064280808
 30
0.0
 10
2.0365970455
 20
1.6058741082
 30
0.0
 10
2.0707253752
 20
1.6053714362
 30
0.0
 10
2.1068948399
 20
1.6049238368
 30
0.0
 10
2.1448422803
 20
1.604534714
 30
0.0
 10
2.1842915797
 20
1.6042069838
 30
0.0
 10
2.2249556965
 20
1.603943097
 30
0.0
 10
2.2665387472
 20
1.6037450179
 30
0.0
 10
2.3087381596
 20
1.6036142175
 30
0.0
 10
2.3370428852
 20
1.6035725661
 30
0.0
 10
2.3512469033
 20
1.6035631435
 30
0.0
 11
1.8515514898
 21
1.6130631435
 31
0.0
 11
1.8548563451
 21
1.6122530216
 31
0.0
 11
1.8617731246
 21
1.6114487946
 31
0.0
 11
1.8722514993
 21
1.6106563141
 31
0.0
 11
1.8862152245
 21
1.6098813466
 31
0.0
 11
1.9035626949
 21
1.6091295311
 31
0.0
 11
1.9241676838
 21
1.608406338
 31
0.0
 11
1.9478802617
 21
1.6077170296
 31
0.0
 11
1.9745278867
 21
1.6070666215
 31
0.0
 11
2.0039166609
 21
1.6064598463
 31
0.0
 11
2.0358327404
 21
1.6059011193
 31
0.0
 11
2.0700438919
 21
1.6053945058
 31
0.0
 11
2.1063011822
 21
1.6049436922
 31
0.0
 11
2.1443407896
 21
1.6045519587
 31
0.0
 11
2.1838859236
 21
1.6042221559
 31
0.0
 11
2.2246488389
 21
1.6039566834
 31
0.0
 11
2.2663329294
 21
1.6037574729
 31
0.0
 11
2.3086348858
 21
1.603625974
 31
0.0
 11
2.3512469033
 21
1.6035631435
 31
0.0
  0
SPLINE
  5
2A5
100
AcDbEntity
  8
RACCORDO
100
AcDbSpline
 62
253
  6
CONTINUOUS
 70
0
 71
3
 72
10
 73
6
 74
4
 42
0.0000001
 43
0.0000001
 44
0.0000000001
 12
0.0060343306
 22
9.1022302253
 32
0.0
 13
0.0002526151
 23
9.102232222
 33
0.0
 40
0.0
 40
0.0
 40
0.0
 40
0.0
 40
0.3333130829
 40
0.6666473215
 40
1.0
 40
1.0
 40
1.0
 40
1.0
 10
2.3512469033
 20
1.6035631435
 30
0.0
 10
2.3519173438
 20
2.6148606161
 30
0.0
 10
2.3530443193
 20
4.6375198979
 30
0.0
 10
2.3540909391
 20
7.671597146
 30
0.0
 10
2.3543638761
 20
9.6943768594
 30
0.0
 10
2.3543919461
 20
10.70579469
 30
0.0
 11
2.3512469033
 21
1.6035631435
 31
0.0
 11
2.352936978
 21
4.6374557574
 31
0.0
 11
2.353984718
 21
7.6715412242
 31
0.0
 11
2.3543919461
 21
10.70579469
 31
0.0
  0
SPLINE
  5
2A6
100
AcDbEntity
  8
RACCORDO
100
AcDbSpline
 62
253
  6
CONTINUOUS
 70
0
 71
3
 72
25
 73
21
 74
19
 42
0.0000001
 43
0.0000001
 44
0.0000000001
 12
-0.4997136625
 22
0.0000069763
 32
0.0
 13
-0.4951377735
 23
0.0674709552
 33
0.0
 40
0.0
 40
0.0
 40
0.0
 40
0.0
 40
0.085271627
 40
0.1699228858
 40
0.2533392761
 40
0.334911862
 40
0.4140477186
 40
0.4901712172
 40
0.5627281194
 40
0.6311904874
 40
0.6950603256
 40
0.7538728639
 40
0.8072001514
 40
0.8546543022
 40
0.8958900524
 40
0.9306072984
 40
0.958553747
 40
0.9795266151
 40
0.9933739673
 40
1.0
 40
1.0
 40
1.0
 40
1.0
 10
2.3543919461
 20
10.7057946895
 30
0.0
 10
2.3401881471
 20
10.7057948878
 30
0.0
 10
2.3118838843
 20
10.705801013
 30
0.0
 10
2.2696848589
 20
10.7058273694
 30
0.0
 10
2.2281020015
 20
10.7058706868
 30
0.0
 10
2.1874378729
 20
10.7059306385
 30
0.0
 10
2.1479885594
 20
10.7060067793
 30
0.0
 10
2.1100410365
 20
10.7060985352
 30
0.0
 10
2.073871456
 20
10.7062052174
 30
0.0
 10
2.039743038
 20
10.7063260082
 30
0.0
 10
2.0079041059
 20
10.7064600066
 30
0.0
 10
1.9785863147
 20
10.7066060857
 30
0.0
 10
1.9520030345
 20
10.7067633515
 30
0.0
 10
1.9283475653
 20
10.7069296387
 30
0.0
 10
1.907792446
 20
10.7071061134
 30
0.0
 10
1.8904860769
 20
10.7072832095
 30
0.0
 10
1.8765575863
 20
10.7074804128
 30
0.0
 10
1.8660998273
 20
10.7076382421
 30
0.0
 10
1.8592067998
 20
10.7078741856
 30
0.0
 10
1.8557882878
 20
10.7079501242
 30
0.0
 10
1.8546946881
 20
10.7080991458
 30
0.0
 11
2.3543919461
 21
10.7057946895
 31
0.0
 11
2.3117805501
 21
10.7058039447
 31
0.0
 11
2.2694791678
 21
10.7058304604
 31
0.0
 11
2.2277948807
 21
10.7058740457
 31
0.0
 11
2.1870319897
 21
10.7059343803
 31
0.0
 11
2.1474867952
 21
10.7060110257
 31
0.0
 11
2.1094469551
 21
10.7061034224
 31
0.0
 11
2.0731894391
 21
10.7062108966
 31
0.0
 11
2.0389780751
 21
10.7063326646
 31
0.0
 11
2.0070617306
 21
10.7064678386
 31
0.0
 11
1.9776726723
 21
10.7066154334
 31
0.0
 11
1.9510247721
 21
10.7067743729
 31
0.0
 11
1.9273118877
 21
10.7069434992
 31
0.0
 11
1.9067065895
 21
10.7071215798
 31
0.0
 11
1.8893589016
 21
10.7073073173
 31
0.0
 11
1.8753949999
 21
10.707499357
 31
0.0
 11
1.8649164219
 21
10.7076963078
 31
0.0
 11
1.8579996135
 21
10.7078967167
 31
0.0
 11
1.8546946881
 21
10.7080991458
 31
0.0
  0
SPLINE
  5
2A7
100
AcDbEntity
  8
0
100
AcDbSpline
 62
253
  6
CONTINUOUS
 70
0
 71
3
 72
25
 73
21
 74
19
 42
0.0000001
 43
0.0000001
 44
0.0000000001
 12
0.1156726251
 22
-0.5000143338
 32
0.0
 13
0.5132129288
 23
-0.0026419615
 33
0.0
 40
0.0
 40
0.0
 40
0.0
 40
0.0
 40
0.0139486785
 40
0.0321748852
 40
0.0558987827
 40
0.0855593295
 40
0.1212490579
 40
0.1628831388
 40
0.2102678154
 40
0.263131883
 40
0.3211434014
 40
0.3839199748
 40
0.4510360341
 40
0.5220286665
 40
0.5964027304
 40
0.6736356257
 40
0.7531819132
 40
0.8344778801
 40
0.9169460991
 40
1.0
 40
1.0
 40
1.0
 40
1.0
 10
1.8171886359
 20
-10.0292921849
 30
0.0
 10
1.8177264627
 20
-10.0316170313
 30
0.0
 10
1.8206058099
 20
-10.0365665746
 30
0.0
 10
1.8279689594
 20
-10.0427779216
 30
0.0
 10
1.8386425087
 20
-10.048881279
 30
0.0
 10
1.8526922499
 20
-10.0548362676
 30
0.0
 10
1.8700634592
 20
-10.0606408463
 30
0.0
 10
1.890659435
 20
-10.0662374659
 30
0.0
 10
1.9143415824
 20
-10.0715842047
 30
0.0
 10
1.9409444202
 20
-10.07663679
 30
0.0
 10
1.9702777554
 20
-10.0813559008
 30
0.0
 10
2.0021302032
 20
-10.0857049339
 30
0.0
 10
2.0362711789
 20
-10.0896507433
 30
0.0
 10
2.0724529918
 20
-10.0931634845
 30
0.0
 10
2.1104128131
 20
-10.0962167781
 30
0.0
 10
2.1498747033
 20
-10.0987878018
 30
0.0
 10
2.1905516721
 20
-10.1008574079
 30
0.0
 10
2.2321478446
 20
-10.1024102246
 30
0.0
 10
2.2743604972
 20
-10.1034347442
 30
0.0
 10
2.3026759375
 20
-10.1037601344
 30
0.0
 10
2.3168840494
 20
-10.1038332761
 30
0.0
 11
1.8171886359
 21
-10.0292921849
 31
0.0
 11
1.8204783962
 21
-10.0356502501
 31
0.0
 11
1.8273819955
 21
-10.0419620285
 31
0.0
 11
1.8378491756
 21
-10.0481815703
 31
0.0
 11
1.8518037353
 21
-10.0542635971
 31
0.0
 11
1.8691440851
 21
-10.0601638318
 31
0.0
 11
1.8897439872
 21
-10.0658393205
 31
0.0
 11
1.913453474
 21
-10.0712487456
 31
0.0
 11
1.9400999402
 21
-10.0763527265
 31
0.0
 11
1.9694893991
 21
-10.0811141061
 31
0.0
 11
2.0014078953
 21
-10.0854982214
 31
0.0
 11
2.0356230615
 21
-10.0894731562
 31
0.0
 11
2.0718858111
 21
-10.0930099727
 31
0.0
 11
2.1099321508
 21
-10.0960829231
 31
0.0
 11
2.1494851028
 21
-10.098669636
 31
0.0
 11
2.190256721
 21
-10.1007512803
 31
0.0
 11
2.2319501877
 21
-10.1023127015
 31
0.0
 11
2.274261974
 21
-10.1033425325
 31
0.0
 11
2.3168840494
 21
-10.1038332761
 31
0.0
  0
SPLINE
  5
2A8
100
AcDbEntity
  8
0
100
AcDbSpline
 62
253
  6
CONTINUOUS
 70
0
 71
3
 72
25
 73
21
 74
19
 42
0.0000001
 43
0.0000001
 44
0.0000000001
 12
0.0014329144
 22
-0.7839168072
 32
0.0
 13
0.7839168112
 23
-0.0014307322
 33
0.0
 40
0.0
 40
0.0
 40
0.0
 40
0.0
 40
0.0555066409
 40
0.1110226213
 40
0.1665481587
 40
0.2220831809
 40
0.2776273283
 40
0.3331799649
 40
0.3887401978
 40
0.444306904
 40
0.4998787649
 40
0.555454306
 40
0.6110319415
 40
0.6666100223
 40
0.7221868858
 40
0.7777609063
 40
0.833330544
 40
0.8888943916
 40
0.9444512168
 40
1.0
 40
1.0
 40
1.0
 40
1.0
 10
1.8008371803
 20
-10.4540658611
 30
0.0
 10
1.8008636923
 20
-10.4685700573
 30
0.0
 10
1.8021833822
 20
-10.497594477
 30
0.0
 10
1.807946677
 20
-10.5407841734
 30
0.0
 10
1.8174501311
 20
-10.5833187362
 30
0.0
 10
1.8306215492
 20
-10.6248708684
 30
0.0
 10
1.8473608982
 20
-10.6651262467
 30
0.0
 10
1.8675410559
 20
-10.7037789241
 30
0.0
 10
1.8910087814
 20
-10.740535523
 30
0.0
 10
1.9175858783
 20
-10.7751169593
 30
0.0
 10
1.9470705486
 20
-10.8072606945
 30
0.0
 10
1.9792389255
 20
-10.8367226904
 30
0.0
 10
2.01384677
 20
-10.8632792703
 30
0.0
 10
2.0506313343
 20
-10.8867288129
 30
0.0
 10
2.089313319
 20
-10.9068932824
 30
0.0
 10
2.1295991266
 20
-10.9236195793
 30
0.0
 10
2.1711825883
 20
-10.9367807018
 30
0.0
 10
2.2137491538
 20
-10.9462767129
 30
0.0
 10
2.2569713112
 20
-10.9520354879
 30
0.0
 10
2.2860173854
 20
-10.9533541366
 30
0.0
 10
2.3005325938
 20
-10.9533806284
 30
0.0
 11
1.8008371803
 21
-10.4540658611
 31
0.0
 11
1.8028137097
 21
-10.4975336081
 31
0.0
 11
1.8085693818
 21
-10.5406713079
 31
0.0
 11
1.8180604943
 21
-10.583151419
 31
0.0
 11
1.8312149817
 21
-10.6246513931
 31
0.0
 11
1.8479329631
 21
-10.664856124
 31
0.0
 11
1.8680875002
 21
-10.7034603401
 31
0.0
 11
1.891525561
 21
-10.7401709224
 31
0.0
 11
1.9180691821
 21
-10.7747091302
 31
0.0
 11
1.9475168198
 21
-10.8068127173
 31
0.0
 11
1.9796448804
 21
-10.8362379237
 31
0.0
 11
2.0142094177
 21
-10.8627613258
 31
0.0
 11
2.050947986
 21
-10.8861815333
 31
0.0
 11
2.0895816319
 21
-10.9063207184
 31
0.0
 11
2.129817013
 21
-10.9230259657
 31
0.0
 11
2.1713486251
 21
-10.9361704333
 31
0.0
 11
2.2138611215
 21
-10.9456543164
 31
0.0
 11
2.2570317081
 21
-10.9514056045
 31
0.0
 11
2.3005325938
 21
-10.9533806284
 31
0.0
  0
SPLINE
  5
2A9
100
AcDbEntity
  8
0
100
AcDbSpline
 62
253
  6
CONTINUOUS
 70
0
 71
3
 72
26
 73
22
 74
20
 42
0.0000001
 43
0.0000001
 44
0.0000000001
 12
0.2685929374
 22
0.8063832935
 32
0.0
 13
0.0022369592
 23
0.8499359847
 33
0.0
 40
0.0
 40
0.0
 40
0.0
 40
0.0
 40
0.0076246917
 40
0.0212415454
 40
0.0408201379
 40
0.0662705183
 40
0.097465855
 40
0.134246857
 40
0.176424113
 40
0.2237795972
 40
0.2760683609
 40
0.3330193498
 40
0.3943374779
 40
0.4597046572
 40
0.5287822035
 40
0.6012118306
 40
0.6766179093
 40
0.7546093822
 40
0.8347824281
 40
0.9167204116
 40
1.0
 40
1.0
 40
1.0
 40
1.0
 10
2.3005325938
 20
-10.9533806284
 30
0.0
 10
2.3012152399
 20
-10.9513311538
 30
0.0
 10
2.3020443525
 20
-10.9453220676
 30
0.0
 10
2.3032640832
 20
-10.9338511259
 30
0.0
 10
2.3043968821
 20
-10.917257577
 30
0.0
 10
2.3055769638
 20
-10.8957004606
 30
0.0
 10
2.3067179627
 20
-10.8692532886
 30
0.0
 10
2.3078359523
 20
-10.8380660125
 30
0.0
 10
2.3089133551
 20
-10.8022954844
 30
0.0
 10
2.30994638
 20
-10.7621288807
 30
0.0
 10
2.3109278184
 20
-10.7177741684
 30
0.0
 10
2.3118523699
 20
-10.6694617012
 30
0.0
 10
2.3127147812
 20
-10.6174422522
 30
0.0
 10
2.3135103613
 20
-10.561985762
 30
0.0
 10
2.314234799
 20
-10.503380016
 30
0.0
 10
2.3148842076
 20
-10.4419290783
 30
0.0
 10
2.3154551316
 20
-10.3779518289
 30
0.0
 10
2.3159445211
 20
-10.3117800334
 30
0.0
 10
2.3163498248
 20
-10.2437570638
 30
0.0
 10
2.3166688327
 20
-10.1742354296
 30
0.0
 10
2.3168219518
 20
-10.1274273824
 30
0.0
 10
2.3168840494
 20
-10.1038332761
 30
0.0
 11
2.3005325938
 21
-10.9533806284
 31
0.0
 11
2.3017854148
 21
-10.9470223576
 31
0.0
 11
2.303026932
 21
-10.9355156465
 31
0.0
 11
2.304250823
 21
-10.9189201073
 31
0.0
 11
2.3054506432
 21
-10.897322139
 31
0.0
 11
2.3066202066
 21
-10.8708338158
 31
0.0
 11
2.3077534308
 21
-10.8395927567
 31
0.0
 11
2.3088444383
 21
-10.8037612706
 31
0.0
 11
2.3098875666
 21
-10.7635255207
 31
0.0
 11
2.3108774092
 21
-10.7190942894
 31
0.0
 11
2.3118088294
 21
-10.6706983891
 31
0.0
 11
2.3126769994
 21
-10.6185889566
 31
0.0
 11
2.3134774156
 21
-10.5630366123
 31
0.0
 11
2.3142059319
 21
-10.5043294366
 31
0.0
 11
2.3148587702
 21
-10.4427721386
 31
0.0
 11
2.3154325491
 21
-10.3786841454
 31
0.0
 11
2.3159242898
 21
-10.3123979805
 31
0.0
 11
2.3163314596
 21
-10.2442570042
 31
0.0
 11
2.316651922
 21
-10.1746154596
 31
0.0
 11
2.3168840494
 21
-10.1038332761
 31
0.0
  0
SPLINE
  5
2AA
100
AcDbEntity
  8
0
100
AcDbSpline
 62
253
  6
CONTINUOUS
 70
0
 71
3
 72
26
 73
22
 74
20
 42
0.0000001
 43
0.0000001
 44
0.0000000001
 12
0.2359522709
 22
0.3541440557
 32
0.0
 13
0.0022405098
 23
0.4255425554
 33
0.0
 40
0.0
 40
0.0
 40
0.0
 40
0.0
 40
0.0080280304
 40
0.0218584245
 40
0.0415678431
 40
0.0671002974
 40
0.0983438593
 40
0.135147229
 40
0.1773258644
 40
0.2246650247
 40
0.2769221631
 40
0.333828105
 40
0.3950893218
 40
0.4603890646
 40
0.5293898417
 40
0.6017344933
 40
0.6770484607
 40
0.7549417191
 40
0.8350114612
 40
0.9168420376
 40
1.0
 40
1.0
 40
1.0
 40
1.0
 10
1.8008371803
 20
-10.4540658611
 30
0.0
 10
1.8014685909
 20
-10.453118168
 30
0.0
 10
1.8023642003
 20
-10.4500769134
 30
0.0
 10
1.8035503643
 20
-10.4443391663
 30
0.0
 10
1.8047052713
 20
-10.4360168524
 30
0.0
 10
1.8058784146
 20
-10.4252382264
 30
0.0
 10
1.8070226777
 20
-10.4120096967
 30
0.0
 10
1.8081399068
 20
-10.3964148636
 30
0.0
 10
1.8092177608
 20
-10.3785280752
 30
0.0
 10
1.810250767
 20
-10.3584438279
 30
0.0
 10
1.8112322955
 20
-10.3362655832
 30
0.0
 10
1.81215688
 20
-10.3121085611
 30
0.0
 10
1.8130193264
 20
-10.2860980689
 30
0.0
 10
1.8138149306
 20
-10.2583690685
 30
0.0
 10
1.8145393864
 20
-10.2290654419
 30
0.0
 10
1.8151888104
 20
-10.1983392205
 30
0.0
 10
1.815759739
 20
-10.166349844
 30
0.0
 10
1.816249143
 20
-10.1332631975
 30
0.0
 10
1.81665443
 20
-10.0992509719
 30
0.0
 10
1.816973451
 20
-10.0644910052
 30
0.0
 10
1.8171265305
 20
-10.0410879355
 30
0.0
 10
1.8171886359
 20
-10.0292921849
 30
0.0
 11
1.8008371803
 21
-10.4540658611
 31
0.0
 11
1.8020897869
 21
-10.4508874667
 31
0.0
 11
1.8033313614
 21
-10.4451344122
 31
0.0
 11
1.8045552557
 21
-10.4368368766
 31
0.0
 11
1.805755103
 21
-10.4260380326
 31
0.0
 11
1.806924685
 21
-10.4127939255
 31
0.0
 11
1.8080579302
 21
-10.397173362
 31
0.0
 11
1.8091489573
 21
-10.3792574984
 31
0.0
 11
1.8101921045
 21
-10.3591394181
 31
0.0
 11
1.8111819647
 21
-10.336923515
 31
0.0
 11
1.8121134012
 21
-10.3127251991
 31
0.0
 11
1.8129815856
 21
-10.2866700434
 31
0.0
 11
1.813782014
 21
-10.2588933693
 31
0.0
 11
1.81451054
 21
-10.2295392343
 31
0.0
 11
1.815163386
 21
-10.1987600026
 31
0.0
 11
1.8157371681
 21
-10.1667153968
 31
0.0
 11
1.8162289131
 21
-10.1335716889
 31
0.0
 11
1.8166360762
 21
-10.0995005667
 31
0.0
 11
1.8169565439
 21
-10.0646791661
 31
0.0
 11
1.8171886359
 21
-10.0292921849
 31
0.0
  0
SPLINE
  5
2AB
100
AcDbEntity
  8
RACCORDO
100
AcDbSpline
 62
253
  6
CONTINUOUS
 70
0
 71
3
 72
10
 73
6
 74
4
 42
0.0000001
 43
0.0000001
 44
0.0000000001
 12
0.0002526151
 22
-9.102232222
 32
0.0
 13
0.0060343306
 23
-9.1022302253
 33
0.0
 40
0.0
 40
0.0
 40
0.0
 40
0.0
 40
0.3333526785
 40
0.6666869171
 40
1.0
 40
1.0
 40
1.0
 40
1.0
 10
23.2906137776
 20
10.70579469
 30
0.0
 10
23.2906418476
 20
9.6943768594
 30
0.0
 10
23.2909147846
 20
7.671597146
 30
0.0
 10
23.2919614044
 20
4.6375198979
 30
0.0
 10
23.2930883799
 20
2.6148606161
 30
0.0
 10
23.2937588204
 20
1.6035631435
 30
0.0
 11
23.2906137776
 21
10.70579469
 31
0.0
 11
23.2910210057
 21
7.6715412242
 31
0.0
 11
23.2920687457
 21
4.6374557574
 31
0.0
 11
23.2937588204
 21
1.6035631435
 31
0.0
  0
SPLINE
  5
2AC
100
AcDbEntity
  8
RACCORDO
100
AcDbSpline
 62
253
  6
CONTINUOUS
 70
0
 71
3
 72
25
 73
21
 74
19
 42
0.0000001
 43
0.0000001
 44
0.0000000001
 12
-0.2498751414
 22
0.0000000203
 32
0.0
 13
-0.2424238368
 23
0.0605662416
 33
0.0
 40
0.0
 40
0.0
 40
0.0
 40
0.0
 40
0.0852547325
 40
0.169900986
 40
0.2533120723
 40
0.3348797757
 40
0.4140110861
 40
0.4901304632
 40
0.5626837212
 40
0.6311429841
 40
0.6950103138
 40
0.7538209474
 40
0.8071470326
 40
0.8546008355
 40
0.8958373009
 40
0.9305566248
 40
0.958507049
 40
0.9794866968
 40
0.9933463674
 40
1.0
 40
1.0
 40
1.0
 40
1.0
 10
2.3543901157
 20
10.9559840553
 30
0.0
 10
2.3472891029
 20
10.9559840558
 30
0.0
 10
2.3331377581
 20
10.955989307
 30
0.0
 10
2.3120389727
 20
10.9560129141
 30
0.0
 10
2.2912473098
 20
10.9560520662
 30
0.0
 10
2.2709150318
 20
10.9561064721
 30
0.0
 10
2.2511901413
 20
10.956175725
 30
0.0
 10
2.2322161416
 20
10.9562593061
 30
0.0
 10
2.2141311124
 20
10.9563565882
 30
0.0
 10
2.1970666699
 20
10.9564668278
 30
0.0
 10
2.181146992
 20
10.9565892025
 30
0.0
 10
2.1664879037
 20
10.9567226892
 30
0.0
 10
2.1531961419
 20
10.9568664575
 30
0.0
 10
2.1413682106
 20
10.9570185762
 30
0.0
 10
2.1310908037
 20
10.9571799671
 30
0.0
 10
2.1224368113
 20
10.9573423134
 30
0.0
 10
2.1154743225
 20
10.9575222321
 30
0.0
 10
2.1102403732
 20
10.9576684187
 30
0.0
 10
2.1068016771
 20
10.9578814971
 30
0.0
 10
2.1050801282
 20
10.957955289
 30
0.0
 10
2.1045424618
 20
10.9580896175
 30
0.0
 11
2.3543901157
 21
10.9559840553
 31
0.0
 11
2.3330870788
 21
10.9559919904
 31
0.0
 11
2.3119360976
 21
10.9560157429
 31
0.0
 11
2.2910937779
 21
10.95605514
 31
0.0
 11
2.27071211
 21
10.9561098949
 31
0.0
 11
2.2509392855
 21
10.9561796093
 31
0.0
 11
2.2319191317
 21
10.9562637765
 31
0.0
 11
2.213790141
 21
10.9563617836
 31
0.0
 11
2.196684234
 21
10.9564729174
 31
0.0
 11
2.1807258534
 21
10.9565963697
 31
0.0
 11
2.166031157
 21
10.9567312418
 31
0.0
 11
2.1527070863
 21
10.9568765522
 31
0.0
 11
2.1408505696
 21
10.9570312439
 31
0.0
 11
2.1305478905
 21
10.9571941912
 31
0.0
 11
2.1218740607
 21
10.9573642077
 31
0.0
 11
2.1148921586
 21
10.9575400565
 31
0.0
 11
2.1096529711
 21
10.9577204591
 31
0.0
 11
2.1061946563
 21
10.9579040999
 31
0.0
 11
2.1045424618
 21
10.9580896175
 31
0.0
  0
SPLINE
  5
2AD
100
AcDbEntity
  8
RACCORDO
100
AcDbSpline
 62
253
  6
CONTINUOUS
 70
0
 71
3
 72
25
 73
21
 74
19
 42
0.0000001
 43
0.0000001
 44
0.0000000001
 12
-0.2424238368
 22
-0.0605662415
 32
0.0
 13
-0.2498751414
 23
-0.0000000203
 33
0.0
 40
0.0
 40
0.0
 40
0.0
 40
0.0
 40
0.0066536326
 40
0.0205133032
 40
0.041492951
 40
0.0694433752
 40
0.1041626991
 40
0.1453991645
 40
0.1928529674
 40
0.2461790526
 40
0.3049896861
 40
0.3688570158
 40
0.4373162788
 40
0.5098695368
 40
0.5859889138
 40
0.6651202243
 40
0.7466879277
 40
0.830099014
 40
0.9147452674
 40
1.0
 40
1.0
 40
1.0
 40
1.0
 10
23.5404632619
 20
10.9580896175
 30
0.0
 10
23.5399255955
 20
10.957955289
 30
0.0
 10
23.5382040466
 20
10.9578814971
 30
0.0
 10
23.5347653505
 20
10.9576684187
 30
0.0
 10
23.5295314012
 20
10.9575222321
 30
0.0
 10
23.5225689124
 20
10.9573423134
 30
0.0
 10
23.51391492
 20
10.9571799671
 30
0.0
 10
23.5036375131
 20
10.9570185762
 30
0.0
 10
23.4918095818
 20
10.9568664575
 30
0.0
 10
23.47851782
 20
10.9567226892
 30
0.0
 10
23.4638587318
 20
10.9565892025
 30
0.0
 10
23.4479390539
 20
10.9564668278
 30
0.0
 10
23.4308746113
 20
10.9563565882
 30
0.0
 10
23.4127895822
 20
10.9562593061
 30
0.0
 10
23.3938155824
 20
10.956175725
 30
0.0
 10
23.3740906919
 20
10.9561064721
 30
0.0
 10
23.3537584139
 20
10.9560520662
 30
0.0
 10
23.332966751
 20
10.9560129141
 30
0.0
 10
23.3118679657
 20
10.955989307
 30
0.0
 10
23.2977166208
 20
10.9559840558
 30
0.0
 10
23.290615608
 20
10.9559840553
 30
0.0
 11
23.5404632619
 21
10.9580896175
 31
0.0
 11
23.5388110674
 21
10.9579040999
 31
0.0
 11
23.5353527526
 21
10.9577204591
 31
0.0
 11
23.5301135651
 21
10.9575400565
 31
0.0
 11
23.5231316631
 21
10.9573642077
 31
0.0
 11
23.5144578332
 21
10.9571941912
 31
0.0
 11
23.5041551541
 21
10.9570312439
 31
0.0
 11
23.4922986375
 21
10.9568765522
 31
0.0
 11
23.4789745667
 21
10.9567312418
 31
0.0
 11
23.4642798703
 21
10.9565963697
 31
0.0
 11
23.4483214897
 21
10.9564729174
 31
0.0
 11
23.4312155827
 21
10.9563617836
 31
0.0
 11
23.4130865921
 21
10.9562637765
 31
0.0
 11
23.3940664382
 21
10.9561796093
 31
0.0
 11
23.3742936137
 21
10.9561098949
 31
0.0
 11
23.3539119458
 21
10.95605514
 31
0.0
 11
23.3330696261
 21
10.9560157429
 31
0.0
 11
23.3119186449
 21
10.9559919904
 31
0.0
 11
23.290615608
 21
10.9559840553
 31
0.0
  0
SPLINE
  5
2AE
100
AcDbEntity
  8
RACCORDO
100
AcDbSpline
 62
253
  6
CONTINUOUS
 70
0
 71
3
 72
10
 73
6
 74
4
 42
0.0000001
 43
0.0000001
 44
0.0000000001
 12
0.0002514557
 22
-9.0950366859
 32
0.0
 13
0.0060355961
 23
-9.0950346867
 33
0.0
 40
0.0
 40
0.0
 40
0.0
 40
0.0
 40
0.33335237
 40
0.66668676
 40
1.0
 40
1.0
 40
1.0
 40
1.0
 10
23.7903110356
 20
10.7080991535
 30
0.0
 10
23.7903389767
 20
9.6974818086
 30
0.0
 10
23.7906089629
 20
7.6763016276
 30
0.0
 10
23.7916567382
 20
4.6446228917
 30
0.0
 10
23.7927836525
 20
2.6235616366
 30
0.0
 10
23.7934542339
 20
1.6130631435
 30
0.0
 11
23.7903110356
 21
10.7080991535
 31
0.0
 11
23.7907161139
 21
7.6762471447
 31
0.0
 11
23.7917638715
 21
4.6445588189
 31
0.0
 11
23.7934542339
 21
1.6130631435
 31
0.0
  0
SPLINE
  5
2AF
100
AcDbEntity
  8
RACCORDO
100
AcDbSpline
 62
253
  6
CONTINUOUS
 70
0
 71
3
 72
25
 73
21
 74
19
 42
0.0000001
 43
0.0000001
 44
0.0000000001
 12
-0.4951377735
 22
-0.0674709553
 32
0.0
 13
-0.4997136625
 23
-0.0000069763
 33
0.0
 40
0.0
 40
0.0
 40
0.0
 40
0.0
 40
0.0066260327
 40
0.0204733849
 40
0.041446253
 40
0.0693927016
 40
0.1041099476
 40
0.1453456978
 40
0.1927998486
 40
0.2461271361
 40
0.3049396744
 40
0.3688095125
 40
0.4372718806
 40
0.5098287828
 40
0.5859522814
 40
0.665088138
 40
0.7466607239
 40
0.8300771141
 40
0.914728373
 40
1.0
 40
1.0
 40
1.0
 40
1.0
 10
23.7903110356
 20
10.7080991458
 30
0.0
 10
23.7892174359
 20
10.7079501242
 30
0.0
 10
23.7857989239
 20
10.7078741856
 30
0.0
 10
23.7789058964
 20
10.7076382421
 30
0.0
 10
23.7684481374
 20
10.7074804128
 30
0.0
 10
23.7545196469
 20
10.7072832095
 30
0.0
 10
23.7372132777
 20
10.7071061134
 30
0.0
 10
23.7166581584
 20
10.7069296387
 30
0.0
 10
23.6930026892
 20
10.7067633515
 30
0.0
 10
23.6664194091
 20
10.7066060857
 30
0.0
 10
23.6371016178
 20
10.7064600066
 30
0.0
 10
23.6052626858
 20
10.7063260082
 30
0.0
 10
23.5711342677
 20
10.7062052174
 30
0.0
 10
23.5349646873
 20
10.7060985352
 30
0.0
 10
23.4970171644
 20
10.7060067793
 30
0.0
 10
23.4575678508
 20
10.7059306385
 30
0.0
 10
23.4169037223
 20
10.7058706868
 30
0.0
 10
23.3753208649
 20
10.7058273694
 30
0.0
 10
23.3331218394
 20
10.705801013
 30
0.0
 10
23.3048175766
 20
10.7057948878
 30
0.0
 10
23.2906137776
 20
10.7057946895
 30
0.0
 11
23.7903110356
 21
10.7080991458
 31
0.0
 11
23.7870061102
 21
10.7078967167
 31
0.0
 11
23.7800893019
 21
10.7076963078
 31
0.0
 11
23.7696107238
 21
10.707499357
 31
0.0
 11
23.7556468221
 21
10.7073073173
 31
0.0
 11
23.7382991343
 21
10.7071215798
 31
0.0
 11
23.717693836
 21
10.7069434992
 31
0.0
 11
23.6939809516
 21
10.7067743729
 31
0.0
 11
23.6673330515
 21
10.7066154334
 31
0.0
 11
23.6379439932
 21
10.7064678386
 31
0.0
 11
23.6060276487
 21
10.7063326646
 31
0.0
 11
23.5718162847
 21
10.7062108966
 31
0.0
 11
23.5355587686
 21
10.7061034224
 31
0.0
 11
23.4975189285
 21
10.7060110257
 31
0.0
 11
23.4579737341
 21
10.7059343803
 31
0.0
 11
23.4172108431
 21
10.7058740457
 31
0.0
 11
23.375526556
 21
10.7058304604
 31
0.0
 11
23.3332251737
 21
10.7058039447
 31
0.0
 11
23.2906137776
 21
10.7057946895
 31
0.0
  0
SPLINE
  5
2B0
100
AcDbEntity
  8
0
100
AcDbSpline
 62
253
  6
CONTINUOUS
 70
0
 71
3
 72
25
 73
21
 74
19
 42
0.0000001
 43
0.0000001
 44
0.0000000001
 12
-0.4390248508
 22
-0.2392029787
 32
0.0
 13
-0.4999607732
 23
-0.0003316614
 33
0.0
 40
0.0
 40
0.0
 40
0.0
 40
0.0
 40
0.0068059321
 40
0.0207337759
 40
0.0417520194
 40
0.0697246348
 40
0.1044548601
 40
0.145693439
 40
0.1931423402
 40
0.246457634
 40
0.3052523086
 40
0.369099243
 40
0.4375344017
 40
0.5100602612
 40
0.5861494627
 40
0.6652486694
 40
0.7467826077
 40
0.8301582634
 40
0.9147692045
 40
1.0
 40
1.0
 40
1.0
 40
1.0
 10
23.7934542339
 20
1.6130631435
 30
0.0
 10
23.7924582428
 20
1.6125204771
 30
0.0
 10
23.788915946
 20
1.6121184247
 30
0.0
 10
23.7820944365
 20
1.6112432937
 30
0.0
 10
23.7715848371
 20
1.6105692756
 30
0.0
 10
23.7576726302
 20
1.6097888353
 30
0.0
 10
23.7403581544
 20
1.6090657637
 30
0.0
 10
23.7198049178
 20
1.6083509444
 30
0.0
 10
23.6961484359
 20
1.6076723276
 30
0.0
 10
23.6695653541
 20
1.6070288358
 30
0.0
 10
23.6402475134
 20
1.6064280808
 30
0.0
 10
23.6084086781
 20
1.6058741082
 30
0.0
 10
23.5742803485
 20
1.6053714362
 30
0.0
 10
23.5381108838
 20
1.6049238368
 30
0.0
 10
23.5001634434
 20
1.604534714
 30
0.0
 10
23.4607141439
 20
1.6042069838
 30
0.0
 10
23.4200500272
 20
1.603943097
 30
0.0
 10
23.3784669765
 20
1.6037450179
 30
0.0
 10
23.3362675641
 20
1.6036142175
 30
0.0
 10
23.3079628385
 20
1.6035725661
 30
0.0
 10
23.2937588204
 20
1.6035631435
 30
0.0
 11
23.7934542339
 21
1.6130631435
 31
0.0
 11
23.7901493786
 21
1.6122530216
 31
0.0
 11
23.7832325991
 21
1.6114487946
 31
0.0
 11
23.7727542244
 21
1.6106563141
 31
0.0
 11
23.7587904992
 21
1.6098813466
 31
0.0
 11
23.7414430288
 21
1.6091295311
 31
0.0
 11
23.7208380398
 21
1.608406338
 31
0.0
 11
23.697125462
 21
1.6077170296
 31
0.0
 11
23.6704778369
 21
1.6070666215
 31
0.0
 11
23.6410890628
 21
1.6064598463
 31
0.0
 11
23.6091729832
 21
1.6059011193
 31
0.0
 11
23.5749618317
 21
1.6053945058
 31
0.0
 11
23.5387045415
 21
1.6049436922
 31
0.0
 11
23.5006649341
 21
1.6045519587
 31
0.0
 11
23.4611198001
 21
1.6042221559
 31
0.0
 11
23.4203568848
 21
1.6039566834
 31
0.0
 11
23.3786727943
 21
1.6037574729
 31
0.0
 11
23.3363708379
 21
1.603625974
 31
0.0
 11
23.2937588204
 21
1.6035631435
 31
0.0
  0
SPLINE
  5
2B1
100
AcDbEntity
  8
0
100
AcDbSpline
 62
253
  6
CONTINUOUS
 70
0
 71
3
 72
25
 73
21
 74
19
 42
0.0000001
 43
0.0000001
 44
0.0000000001
 12
-0.1156726714
 22
-0.5000143222
 32
0.0
 13
-0.5132129279
 23
-0.0026419614
 33
0.0
 40
0.0
 40
0.0
 40
0.0
 40
0.0
 40
0.013948679
 40
0.0321748863
 40
0.0558987844
 40
0.0855593318
 40
0.1212490608
 40
0.1628831421
 40
0.210267819
 40
0.2631318866
 40
0.3211434051
 40
0.3839199784
 40
0.4510360375
 40
0.5220286697
 40
0.5964027332
 40
0.673635628
 40
0.753181915
 40
0.8344778813
 40
0.9169460997
 40
1.0
 40
1.0
 40
1.0
 40
1.0
 10
23.8278170878
 20
-10.0292921849
 30
0.0
 10
23.8272792608
 20
-10.0316170313
 30
0.0
 10
23.8243999132
 20
-10.0365665745
 30
0.0
 10
23.8170367632
 20
-10.0427779214
 30
0.0
 10
23.8063632135
 20
-10.0488812787
 30
0.0
 10
23.792313472
 20
-10.0548362672
 30
0.0
 10
23.7749422624
 20
-10.0606408459
 30
0.0
 10
23.7543462864
 20
-10.0662374654
 30
0.0
 10
23.7306641389
 20
-10.0715842041
 30
0.0
 10
23.704061301
 20
-10.0766367893
 30
0.0
 10
23.6747279659
 20
-10.0813559
 30
0.0
 10
23.6428755181
 20
-10.085704933
 30
0.0
 10
23.6087345426
 20
-10.0896507424
 30
0.0
 10
23.5725527299
 20
-10.0931634834
 30
0.0
 10
23.5345929089
 20
-10.096216777
 30
0.0
 10
23.495131019
 20
-10.0987878007
 30
0.0
 10
23.4544540504
 20
-10.1008574067
 30
0.0
 10
23.4128578783
 20
-10.1024102233
 30
0.0
 10
23.3706452261
 20
-10.1034347429
 30
0.0
 10
23.3423297861
 20
-10.1037601331
 30
0.0
 10
23.3281216743
 20
-10.1038332748
 30
0.0
 11
23.8278170878
 21
-10.0292921849
 31
0.0
 11
23.8245273269
 21
-10.03565025
 31
0.0
 11
23.8176237271
 21
-10.0419620284
 31
0.0
 11
23.8071565466
 21
-10.0481815701
 31
0.0
 11
23.7932019866
 21
-10.0542635968
 31
0.0
 11
23.7758616365
 21
-10.0601638314
 31
0.0
 11
23.7552617342
 21
-10.06583932
 31
0.0
 11
23.7315522473
 21
-10.071248745
 31
0.0
 11
23.7049057811
 21
-10.0763527258
 31
0.0
 11
23.6755163221
 21
-10.0811141053
 31
0.0
 11
23.6435978261
 21
-10.0854982206
 31
0.0
 11
23.60938266
 21
-10.0894731552
 31
0.0
 11
23.5731199106
 21
-10.0930099717
 31
0.0
 11
23.5350735712
 21
-10.096082922
 31
0.0
 11
23.4955206195
 21
-10.0986696349
 31
0.0
 11
23.4547490016
 21
-10.1007512791
 31
0.0
 11
23.4130555352
 21
-10.1023127003
 31
0.0
 11
23.3707437493
 21
-10.1033425313
 31
0.0
 11
23.3281216743
 21
-10.1038332748
 31
0.0
  0
SPLINE
  5
2B2
100
AcDbEntity
  8
0
100
AcDbSpline
 62
253
  6
CONTINUOUS
 70
0
 71
3
 72
26
 73
22
 74
20
 42
0.0000001
 43
0.0000001
 44
0.0000000001
 12
0.0022369592
 22
-0.8499359847
 32
0.0
 13
0.2685929371
 23
-0.8063832936
 33
0.0
 40
0.0
 40
0.0
 40
0.0
 40
0.0
 40
0.0832795884
 40
0.1652175719
 40
0.2453906178
 40
0.3233820907
 40
0.3987881694
 40
0.4712177965
 40
0.5402953428
 40
0.6056625221
 40
0.6669806502
 40
0.7239316391
 40
0.7762204028
 40
0.823575887
 40
0.865753143
 40
0.902534145
 40
0.9337294817
 40
0.9591798621
 40
0.9787584546
 40
0.9923753083
 40
1.0
 40
1.0
 40
1.0
 40
1.0
 10
23.3281216743
 20
-10.1038332761
 30
0.0
 10
23.3281837719
 20
-10.1274273824
 30
0.0
 10
23.328336891
 20
-10.1742354296
 30
0.0
 10
23.3286558989
 20
-10.2437570638
 30
0.0
 10
23.3290612026
 20
-10.3117800334
 30
0.0
 10
23.3295505921
 20
-10.3779518289
 30
0.0
 10
23.3301215161
 20
-10.4419290783
 30
0.0
 10
23.3307709247
 20
-10.503380016
 30
0.0
 10
23.3314953624
 20
-10.561985762
 30
0.0
 10
23.3322909425
 20
-10.6174422522
 30
0.0
 10
23.3331533538
 20
-10.6694617012
 30
0.0
 10
23.3340779053
 20
-10.7177741684
 30
0.0
 10
23.3350593437
 20
-10.7621288807
 30
0.0
 10
23.3360923686
 20
-10.8022954844
 30
0.0
 10
23.3371697714
 20
-10.8380660125
 30
0.0
 10
23.338287761
 20
-10.8692532886
 30
0.0
 10
23.33942876
 20
-10.8957004606
 30
0.0
 10
23.3406088416
 20
-10.917257577
 30
0.0
 10
23.3417416405
 20
-10.9338511259
 30
0.0
 10
23.3429613712
 20
-10.9453220676
 30
0.0
 10
23.3437904838
 20
-10.9513311538
 30
0.0
 10
23.3444731299
 20
-10.9533806284
 30
0.0
 11
23.3281216743
 21
-10.1038332761
 31
0.0
 11
23.3283538017
 21
-10.1746154596
 31
0.0
 11
23.3286742642
 21
-10.2442570042
 31
0.0
 11
23.3290814339
 21
-10.3123979805
 31
0.0
 11
23.3295731746
 21
-10.3786841454
 31
0.0
 11
23.3301469535
 21
-10.4427721386
 31
0.0
 11
23.3307997918
 21
-10.5043294366
 31
0.0
 11
23.3315283082
 21
-10.5630366123
 31
0.0
 11
23.3323287243
 21
-10.6185889566
 31
0.0
 11
23.3331968943
 21
-10.6706983891
 31
0.0
 11
23.3341283145
 21
-10.7190942894
 31
0.0
 11
23.3351181571
 21
-10.7635255207
 31
0.0
 11
23.3361612854
 21
-10.8037612706
 31
0.0
 11
23.337252293
 21
-10.8395927567
 31
0.0
 11
23.3383855171
 21
-10.8708338158
 31
0.0
 11
23.3395550806
 21
-10.897322139
 31
0.0
 11
23.3407549007
 21
-10.9189201073
 31
0.0
 11
23.3419787917
 21
-10.9355156465
 31
0.0
 11
23.3432203089
 21
-10.9470223576
 31
0.0
 11
23.3444731299
 21
-10.9533806284
 31
0.0
  0
SPLINE
  5
2B3
100
AcDbEntity
  8
0
100
AcDbSpline
 62
253
  6
CONTINUOUS
 70
0
 71
3
 72
26
 73
22
 74
20
 42
0.0000001
 43
0.0000001
 44
0.0000000001
 12
0.0022405098
 22
-0.4255425554
 32
0.0
 13
0.2359522711
 23
-0.3541440557
 33
0.0
 40
0.0
 40
0.0
 40
0.0
 40
0.0
 40
0.0831579624
 40
0.1649885388
 40
0.2450582809
 40
0.3229515393
 40
0.3982655067
 40
0.4706101583
 40
0.5396109354
 40
0.6049106782
 40
0.666171895
 40
0.7230778369
 40
0.7753349753
 40
0.8226741356
 40
0.864852771
 40
0.9016561407
 40
0.9328997026
 40
0.9584321569
 40
0.9781415755
 40
0.9919719696
 40
1.0
 40
1.0
 40
1.0
 40
1.0
 10
23.8278170878
 20
-10.0292921849
 30
0.0
 10
23.8278791932
 20
-10.0410879355
 30
0.0
 10
23.8280322727
 20
-10.0644910052
 30
0.0
 10
23.8283512937
 20
-10.0992509719
 30
0.0
 10
23.8287565807
 20
-10.1332631975
 30
0.0
 10
23.8292459847
 20
-10.166349844
 30
0.0
 10
23.8298169133
 20
-10.1983392205
 30
0.0
 10
23.8304663373
 20
-10.2290654419
 30
0.0
 10
23.8311907931
 20
-10.2583690685
 30
0.0
 10
23.8319863973
 20
-10.2860980689
 30
0.0
 10
23.8328488437
 20
-10.3121085611
 30
0.0
 10
23.8337734282
 20
-10.3362655832
 30
0.0
 10
23.8347549568
 20
-10.3584438279
 30
0.0
 10
23.8357879629
 20
-10.3785280752
 30
0.0
 10
23.8368658169
 20
-10.3964148636
 30
0.0
 10
23.8379830461
 20
-10.4120096967
 30
0.0
 10
23.8391273092
 20
-10.4252382264
 30
0.0
 10
23.8403004524
 20
-10.4360168524
 30
0.0
 10
23.8414553594
 20
-10.4443391663
 30
0.0
 10
23.8426415234
 20
-10.4500769134
 30
0.0
 10
23.8435371328
 20
-10.453118168
 30
0.0
 10
23.8441685435
 20
-10.4540658611
 30
0.0
 11
23.8278170878
 21
-10.0292921849
 31
0.0
 11
23.8280491798
 21
-10.0646791661
 31
0.0
 11
23.8283696476
 21
-10.0995005667
 31
0.0
 11
23.8287768106
 21
-10.1335716889
 31
0.0
 11
23.8292685556
 21
-10.1667153968
 31
0.0
 11
23.8298423378
 21
-10.1987600026
 31
0.0
 11
23.8304951837
 21
-10.2295392343
 31
0.0
 11
23.8312237097
 21
-10.2588933693
 31
0.0
 11
23.8320241381
 21
-10.2866700434
 31
0.0
 11
23.8328923225
 21
-10.3127251991
 31
0.0
 11
23.833823759
 21
-10.336923515
 31
0.0
 11
23.8348136192
 21
-10.3591394181
 31
0.0
 11
23.8358567664
 21
-10.3792574984
 31
0.0
 11
23.8369477935
 21
-10.397173362
 31
0.0
 11
23.8380810387
 21
-10.4127939255
 31
0.0
 11
23.8392506207
 21
-10.4260380326
 31
0.0
 11
23.840450468
 21
-10.4368368766
 31
0.0
 11
23.8416743623
 21
-10.4451344122
 31
0.0
 11
23.8429159368
 21
-10.4508874667
 31
0.0
 11
23.8441685435
 21
-10.4540658611
 31
0.0
  0
SPLINE
  5
2B4
100
AcDbEntity
  8
0
100
AcDbSpline
 62
253
  6
CONTINUOUS
 70
0
 71
3
 72
25
 73
21
 74
19
 42
0.0000001
 43
0.0000001
 44
0.0000000001
 12
-0.0014329144
 22
-0.7839168072
 32
0.0
 13
-0.7839168112
 23
-0.0014307322
 33
0.0
 40
0.0
 40
0.0
 40
0.0
 40
0.0
 40
0.055506642
 40
0.1110226234
 40
0.1665481617
 40
0.2220831846
 40
0.2776273326
 40
0.3331799697
 40
0.3887402028
 40
0.4443069091
 40
0.49987877
 40
0.555454311
 40
0.6110319462
 40
0.6666100265
 40
0.7221868895
 40
0.7777609094
 40
0.8333305464
 40
0.8888943932
 40
0.9444512176
 40
1.0
 40
1.0
 40
1.0
 40
1.0
 10
23.8441685435
 20
-10.4540658611
 30
0.0
 10
23.8441420314
 20
-10.4685700576
 30
0.0
 10
23.8428223415
 20
-10.4975944778
 30
0.0
 10
23.8370590465
 20
-10.540784175
 30
0.0
 10
23.827555592
 20
-10.5833187384
 30
0.0
 10
23.8143841735
 20
-10.6248708711
 30
0.0
 10
23.7976448241
 20
-10.6651262497
 30
0.0
 10
23.777464666
 20
-10.7037789273
 30
0.0
 10
23.7539969401
 20
-10.7405355262
 30
0.0
 10
23.7274198429
 20
-10.7751169624
 30
0.0
 10
23.6979351723
 20
-10.8072606973
 30
0.0
 10
23.6657667953
 20
-10.8367226929
 30
0.0
 10
23.6311589507
 20
-10.8632792724
 30
0.0
 10
23.5943743865
 20
-10.8867288145
 30
0.0
 10
23.5556924021
 20
-10.9068932836
 30
0.0
 10
23.5154065948
 20
-10.9236195802
 30
0.0
 10
23.4738231336
 20
-10.9367807023
 30
0.0
 10
23.4312565686
 20
-10.9462767131
 30
0.0
 10
23.3880344119
 20
-10.9520354879
 30
0.0
 10
23.3589883381
 20
-10.9533541366
 30
0.0
 10
23.3444731299
 20
-10.9533806284
 30
0.0
 11
23.8441685435
 21
-10.4540658611
 31
0.0
 11
23.8421920139
 21
-10.497533609
 31
0.0
 11
23.8364363416
 21
-10.5406713095
 31
0.0
 11
23.8269452288
 21
-10.5831514213
 31
0.0
 11
23.813790741
 21
-10.6246513959
 31
0.0
 11
23.7970727591
 21
-10.6648561271
 31
0.0
 11
23.7769182216
 21
-10.7034603433
 31
0.0
 11
23.7534801604
 21
-10.7401709256
 31
0.0
 11
23.726936539
 21
-10.7747091333
 31
0.0
 11
23.697488901
 21
-10.8068127202
 31
0.0
 11
23.6653608404
 21
-10.8362379262
 31
0.0
 11
23.630796303
 21
-10.8627613279
 31
0.0
 11
23.5940577348
 21
-10.886181535
 31
0.0
 11
23.5554240892
 21
-10.9063207196
 31
0.0
 11
23.5151887084
 21
-10.9230259665
 31
0.0
 11
23.4736570968
 21
-10.9361704338
 31
0.0
 11
23.4311446009
 21
-10.9456543166
 31
0.0
 11
23.387974015
 21
-10.9514056045
 31
0.0
 11
23.3444731299
 21
-10.9533806284
 31
0.0
  0
SPLINE
  5
2B5
100
AcDbEntity
  8
RACCORDO
100
AcDbSpline
 62
253
  6
CONTINUOUS
 70
0
 71
3
 72
22
 73
18
 74
16
 42
0.0000001
 43
0.0000001
 44
0.0000000001
 12
-0.0021832472
 22
0.2504804114
 32
0.0
 13
0.2504803882
 23
0.0021859092
 33
0.0
 40
0.0
 40
0.0
 40
0.0
 40
0.0
 40
0.104302378
 40
0.2074605176
 40
0.3083460848
 40
0.4058557355
 40
0.4989232668
 40
0.5865313867
 40
0.6677229924
 40
0.7416118719
 40
0.8073927865
 40
0.8643509935
 40
0.9118715322
 40
0.9494494424
 40
0.9767055422
 40
0.9934335021
 40
1.0
 40
1.0
 40
1.0
 40
1.0
 10
-13.407226414
 20
10.7080991367
 30
0.0
 10
-13.4073023199
 20
10.7168077042
 30
0.0
 10
-13.4074217984
 20
10.7341295947
 30
0.0
 10
-13.4075047107
 20
10.7598753793
 30
0.0
 10
-13.407490131
 20
10.785054137
 30
0.0
 10
-13.4073783153
 20
10.8093900944
 30
0.0
 10
-13.4071706377
 20
10.8326168431
 30
0.0
 10
-13.4068696093
 20
10.8544797058
 30
0.0
 10
-13.4064788535
 20
10.8747403977
 30
0.0
 10
-13.406003266
 20
10.8931734807
 30
0.0
 10
-13.4054486962
 20
10.909588762
 30
0.0
 10
-13.4048234413
 20
10.9237714465
 30
0.0
 10
-13.4041350326
 20
10.9356700783
 30
0.0
 10
-13.4034025365
 20
10.9448743863
 30
0.0
 10
-13.4026334428
 20
10.951988351
 30
0.0
 10
-13.401901986
 20
10.9555186671
 30
0.0
 10
-13.4012314333
 20
10.9580848329
 30
0.0
 10
-13.4006831737
 20
10.9580896175
 30
0.0
 11
-13.407226414
 21
10.7080991367
 31
0.0
 11
-13.4074063578
 21
10.734225212
 31
0.0
 11
-13.4074887764
 21
10.7600651553
 31
0.0
 11
-13.4074727671
 21
10.7853359685
 31
0.0
 11
-13.4073585052
 21
10.8097608865
 31
0.0
 11
-13.4071472422
 21
10.8330724082
 31
0.0
 11
-13.4068412916
 21
10.8550152269
 31
0.0
 11
-13.4064440045
 21
10.8753490254
 31
0.0
 11
-13.4059597317
 21
10.8938511088
 31
0.0
 11
-13.405393777
 21
10.9103188429
 31
0.0
 11
-13.4047523389
 21
10.9245718737
 31
0.0
 11
-13.4040424422
 21
10.9364541027
 31
0.0
 11
-13.4032718617
 21
10.945835396
 31
0.0
 11
-13.4024490369
 21
10.9526130103
 31
0.0
 11
-13.4015829792
 21
10.9567127174
 31
0.0
 11
-13.4006831737
 21
10.9580896175
 31
0.0
  0
LINE
  5
2B6
100
AcDbEntity
  8
RACCORDO
100
AcDbLine
 62
253
  6
CONTINUOUS
 10
-13.4072244973
 20
10.7080991458
 11
-13.8897749942
 21
10.7057946895
  0
SPLINE
  5
2B7
100
AcDbEntity
  8
0
100
AcDbSpline
 62
253
  6
CONTINUOUS
 70
0
 71
3
 72
25
 73
21
 74
19
 42
0.0000001
 43
0.0000001
 44
0.0000000001
 12
-0.4773650572
 22
-0.072058679
 32
0.0
 13
0.0719729274
 23
-0.4773779936
 33
0.0
 40
0.0
 40
0.0
 40
0.0
 40
0.0
 40
0.0881044587
 40
0.1753073463
 40
0.2609738429
 40
0.3444803147
 40
0.4252188542
 40
0.5026017069
 40
0.5760655508
 40
0.6450755988
 40
0.7091294936
 40
0.7677609685
 40
0.8205432458
 40
0.8670921532
 40
0.9070689357
 40
0.9401827563
 40
0.9661928933
 40
0.9849107349
 40
0.9962021919
 40
1.0
 40
1.0
 40
1.0
 40
1.0
 10
-12.3331916874
 20
-10.0292921849
 30
0.0
 10
-12.3472110174
 20
-10.0314084152
 30
0.0
 10
-12.3751052859
 20
-10.0356253972
 30
0.0
 10
-12.4166276711
 20
-10.0419217276
 30
0.0
 10
-12.457415629
 20
-10.0481259702
 30
0.0
 10
-12.497172226
 20
-10.0541929476
 30
0.0
 10
-12.5356080298
 20
-10.0600784815
 30
0.0
 10
-12.5724432537
 20
-10.0657396923
 30
0.0
 10
-12.6074096615
 20
-10.0711353829
 30
0.0
 10
-12.6402529785
 20
-10.0762260798
 30
0.0
 10
-12.670733193
 20
-10.0809751797
 30
0.0
 10
-12.6986314636
 20
-10.0853463299
 30
0.0
 10
-12.7237349189
 20
-10.0893130382
 30
0.0
 10
-12.7458915378
 20
-10.0928291101
 30
0.0
 10
-12.7648472253
 20
-10.0959203454
 30
0.0
 10
-12.7807323552
 20
-10.0984140586
 30
0.0
 10
-12.7927056614
 20
-10.1006952657
 30
0.0
 10
-12.8024587019
 20
-10.1017529129
 30
0.0
 10
-12.8062685086
 20
-10.1036061576
 30
0.0
 10
-12.8102454482
 20
-10.1032289448
 30
0.0
 10
-12.8101543351
 20
-10.1038332748
 30
0.0
 11
-12.3331916874
 21
-10.0292921849
 31
0.0
 11
-12.3752482613
 21
-10.03565025
 31
0.0
 11
-12.4168716283
 21
-10.0419620284
 31
0.0
 11
-12.45775877
 21
-10.0481815701
 31
0.0
 11
-12.4976120275
 21
-10.0542635968
 31
0.0
 11
-12.5361412685
 21
-10.0601638314
 31
0.0
 11
-12.5730659997
 21
-10.06583932
 31
0.0
 11
-12.6081174088
 21
-10.071248745
 31
0.0
 11
-12.6410403209
 21
-10.0763527258
 31
0.0
 11
-12.6715950569
 21
-10.0811141053
 31
0.0
 11
-12.699559178
 21
-10.0854982206
 31
0.0
 11
-12.7247291051
 21
-10.0894731552
 31
0.0
 11
-12.7469216007
 21
-10.0930099717
 31
0.0
 11
-12.7659751034
 21
-10.096082922
 31
0.0
 11
-12.7817509032
 21
-10.0986696349
 31
0.0
 11
-12.7941341523
 21
-10.1007512791
 31
0.0
 11
-12.8030347003
 21
-10.1023127003
 31
0.0
 11
-12.8083877514
 21
-10.1033425313
 31
0.0
 11
-12.8101543351
 21
-10.1038332748
 31
0.0
  0
SPLINE
  5
2B8
100
AcDbEntity
  8
0
100
AcDbSpline
 62
253
  6
CONTINUOUS
 70
0
 71
3
 72
25
 73
21
 74
19
 42
0.0000001
 43
0.0000001
 44
0.0000000001
 12
-0.026149326
 22
-0.4995673242
 32
0.0
 13
0.4995656586
 23
-0.0261811268
 33
0.0
 40
0.0
 40
0.0
 40
0.0
 40
0.0
 40
0.087003969
 40
0.1733342858
 40
0.2583362773
 40
0.3413653954
 40
0.4217921358
 40
0.4990068475
 40
0.572424402
 40
0.641488693
 40
0.7056769416
 40
0.7645037943
 40
0.8175252187
 40
0.8643422405
 40
0.9046046611
 40
0.9380151502
 40
0.9643349325
 40
0.9833956743
 40
0.9951425725
 40
1.0
 40
1.0
 40
1.0
 40
1.0
 10
-11.8649472611
 20
-10.4540658611
 30
0.0
 10
-11.8657056261
 20
-10.4685539744
 30
0.0
 10
-11.8671727846
 20
-10.4974203298
 30
0.0
 10
-11.8692281078
 20
-10.5404490157
 30
0.0
 10
-11.8711194795
 20
-10.5828217693
 30
0.0
 10
-11.8728326008
 20
-10.6242168616
 30
0.0
 10
-11.8743545594
 20
-10.664319991
 30
0.0
 10
-11.8756739343
 20
-10.7028266796
 30
0.0
 10
-11.8767809068
 20
-10.7394445318
 30
0.0
 10
-11.8776673254
 20
-10.7738956551
 30
0.0
 10
-11.8783269224
 20
-10.8059181068
 30
0.0
 10
-11.878755046
 20
-10.83527013
 30
0.0
 10
-11.8789500676
 20
-10.8617247267
 30
0.0
 10
-11.8789096504
 20
-10.8850946255
 30
0.0
 10
-11.8786435017
 20
-10.9051624024
 30
0.0
 10
-11.8781380989
 20
-10.9218941242
 30
0.0
 10
-11.8774613041
 20
-10.9348478086
 30
0.0
 10
-11.8765057718
 20
-10.9447233878
 30
0.0
 10
-11.8756181949
 20
-10.9498804579
 30
0.0
 10
-11.8744743588
 20
-10.9533382375
 30
0.0
 10
-11.8736654908
 20
-10.9533806284
 30
0.0
 11
-11.8649472611
 21
-10.4540658611
 31
0.0
 11
-11.8671562873
 21
-10.497533609
 31
0.0
 11
-11.8692160459
 21
-10.5406713095
 31
0.0
 11
-11.8711108972
 21
-10.5831514213
 31
0.0
 11
-11.8728264539
 21
-10.6246513959
 31
0.0
 11
-11.8743496898
 21
-10.6648561271
 31
0.0
 11
-11.8756690391
 21
-10.7034603433
 31
0.0
 11
-11.876774484
 21
-10.7401709256
 31
0.0
 11
-11.8776576311
 21
-10.7747091333
 31
0.0
 11
-11.8783117746
 21
-10.8068127202
 31
0.0
 11
-11.8787319477
 21
-10.8362379262
 31
0.0
 11
-11.8789149601
 21
-10.8627613279
 31
0.0
 11
-11.878859422
 21
-10.886181535
 31
0.0
 11
-11.8785657554
 21
-10.9063207196
 31
0.0
 11
-11.8780361898
 21
-10.9230259665
 31
0.0
 11
-11.8772747463
 21
-10.9361704338
 31
0.0
 11
-11.8762872065
 21
-10.9456543166
 31
0.0
 11
-11.8750810686
 21
-10.9514056045
 31
0.0
 11
-11.8736654908
 21
-10.9533806284
 31
0.0
  0
SPLINE
  5
2B9
100
AcDbEntity
  8
RACCORDO
100
AcDbSpline
 62
253
  6
CONTINUOUS
 70
0
 71
3
 72
10
 73
6
 74
4
 42
0.0000001
 43
0.0000001
 44
0.0000000001
 12
0.0055465485
 22
-0.0032156196
 32
0.0
 13
-0.0028281566
 23
-0.0060650014
 33
0.0
 40
0.0
 40
0.0
 40
0.0
 40
0.0
 40
0.2054686249
 40
0.7955487242
 40
1.0
 40
1.0
 40
1.0
 40
1.0
 10
-8.6235625469
 20
-6.9531489962
 30
0.0
 10
-8.6231826663
 20
-6.9533692325
 30
0.0
 10
-8.6217753
 20
-6.9542289624
 30
0.0
 10
-8.6204205058
 20
-6.9553509721
 30
0.0
 10
-8.6178481382
 20
-6.9563006038
 30
0.0
 10
-8.6180408783
 20
-6.9567139363
 30
0.0
 11
-8.6235625469
 21
-6.9531489962
 31
0.0
 11
-8.6224776807
 21
-6.9538155158
 31
0.0
 11
-8.6190729434
 21
-6.9558157305
 31
0.0
 11
-8.6180408783
 21
-6.9567139363
 31
0.0
  0
ELLIPSE
  5
2BA
100
AcDbEntity
  8
RACCORDO
100
AcDbEllipse
 62
7
  6
CONTINUOUS
 10
5.5379729157
 20
-11.0783067435
 30
0.0
 11
0.2
 21
-0.0
 31
0.0
 40
0.0524077793
 41
1.5707963268
 42
2.617993878
  0
ELLIPSE
  5
2BB
100
AcDbEntity
  8
RACCORDO
100
AcDbEllipse
 62
7
  6
CONTINUOUS
 10
16.7379729157
 20
-11.0783067435
 30
0.0
 11
0.2
 21
0.0
 31
0.0
 40
0.0524077793
 41
1.5707963268
 42
2.617993878
  0
ELLIPSE
  5
2BC
100
AcDbEntity
  8
RACCORDO
100
AcDbEllipse
 62
7
  6
CONTINUOUS
 10
8.907032808
 20
-11.0783067435
 30
0.0
 11
0.2
 21
-0.0
 31
0.0
 40
0.0524077793
 41
0.5235987756
 42
1.5707963268
  0
ELLIPSE
  5
2BD
100
AcDbEntity
  8
RACCORDO
100
AcDbEllipse
 62
7
  6
CONTINUOUS
 10
20.107032808
 20
-11.0783067435
 30
0.0
 11
0.2
 21
0.0
 31
0.0
 40
0.0524077793
 41
0.5235987756
 42
1.5707963268
  0
ELLIPSE
  5
2BE
100
AcDbEntity
  8
0
100
AcDbEllipse
 62
7
  6
CONTINUOUS
 10
23.4458935616
 20
-10.6062738356
 30
0.0
 11
0.4943891341
 21
0.0770133648
 31
0.0
 40
0.9960067742
 41
-1.7259388368
 42
-0.1569690096
  0
ELLIPSE
  5
2BF
100
AcDbEntity
  8
0
100
AcDbEllipse
 62
7
  6
CONTINUOUS
 10
2.1991121622
 20
-10.6062738356
 30
0.0
 11
0.4943891341
 21
-0.0770133648
 31
0.0
 40
0.9960067742
 41
-2.984623644
 42
-1.4156538168
  0
ELLIPSE
  5
2C0
100
AcDbEntity
  8
RACCORDO
100
AcDbEllipse
 62
7
  6
CONTINUOUS
 10
23.7223504758
 20
10.7535536239
 30
0.0
 11
0.2426981267
 21
0.0606514259
 31
0.0
 40
0.9993528196
 41
-0.2447368254
 42
1.3257549497
  0
ELLIPSE
  5
2C1
100
AcDbEntity
  8
RACCORDO
100
AcDbEllipse
 62
7
  6
CONTINUOUS
 10
1.9226552479
 20
10.7535536239
 30
0.0
 11
0.2426981267
 21
-0.0606514259
 31
0.0
 40
0.9993528196
 41
1.8158377039
 42
3.386329479
  0
ENDSEC
  0
SECTION
  2
OBJECTS
  0
DICTIONARY
  5
C
100
AcDbDictionary
280
0
281
1
  3
ACAD_GROUP
350
D
  3
ACAD_MLINESTYLE
350
17
  3
ACAD_LAYOUT
350
1A
  3
ACAD_PLOTSETTINGS
350
19
  3
ACAD_PLOTSTYLENAME
350
E
  0
DICTIONARY
  5
D
102
{ACAD_REACTORS
330
C
102
}
100
AcDbDictionary
280
0
281
1
  0
ACDBDICTIONARYWDFLT
  5
E
102
{ACAD_REACTORS
330
C
102
}
100
AcDbDictionary
281
1
  3
Normal
350
F
100
AcDbDictionaryWithDefault
340
F
  0
DICTIONARY
  5
17
102
{ACAD_REACTORS
330
C
102
}
100
AcDbDictionary
280
0
281
1
  3
Standard
350
18
  0
DICTIONARY
  5
19
102
{ACAD_REACTORS
330
C
102
}
100
AcDbDictionary
281
1
  0
DICTIONARY
  5
1A
102
{ACAD_REACTORS
330
C
102
}
100
AcDbDictionary
281
1
  3
Model
350
2C2
  3
Layout1
350
2C3
  0
ACDBPLACEHOLDER
  5
F
102
{ACAD_REACTORS
330
E
102
}
  0
MLINESTYLE
  5
18
102
{ACAD_REACTORS
330
17
102
}
100
AcDbMlineStyle
  2
STANDARD
 70
0
  3

 62
256
 51
90.0
 52
90.0
 71
2
 49
0.5
 62
256
  6
BYLAYER
 49
-0.5
 62
256
  6
BYLAYER
  0
LAYOUT
  5
2C2
102
{ACAD_REACTORS
330
1A
102
}
100
AcDbPlotSettings
  1

  2
none_device
  4
ISO_A4_(297.00_x_210.00_MM)
  6

 40
0.0
 41
0.0
 42
0.0
 43
0.0
 44
297.0
 45
210.0
 46
0.0
 47
0.0
 48
0.0
 49
0.0
140
0.0
141
0.0
142
1.0
143
1.0
 70
1024
 72
1
 73
0
 74
0
  7

 75
0
147
1.0
148
0.0
149
0.0
100
AcDbLayout
  1
Model
 70
0
 71
0
 10
0.0
 20
0.0
 11
297.0
 21
210.0
 12
0.0
 22
0.0
 32
0.0
 14
0.0
 24
0.0
 34
0.0
 15
0.0
 25
0.0
 35
0.0
146
0.0
 13
0.0
 23
0.0
 33
0.0
 16
1.0
 26
0.0
 36
0.0
 17
0.0
 27
1.0
 37
0.0
 76
0
330
216
345
0
346
0
  0
LAYOUT
  5
2C3
102
{ACAD_REACTORS
330
1A
102
}
100
AcDbPlotSettings
  1

  2
none_device
  4
ISO_A4_(297.00_x_210.00_MM)
  6

 40
0.0
 41
0.0
 42
0.0
 43
0.0
 44
297.0
 45
210.0
 46
0.0
 47
0.0
 48
0.0
 49
0.0
140
0.0
141
0.0
142
1.0
143
1.0
 70
0
 72
1
 73
0
 74
0
  7

 75
0
147
1.0
148
0.0
149
0.0
100
AcDbLayout
  1
Layout1
 70
0
 71
1
 10
0.0
 20
0.0
 11
297.0
 21
210.0
 12
0.0
 22
0.0
 32
0.0
 14
0.0
 24
0.0
 34
0.0
 15
0.0
 25
0.0
 35
0.0
146
0.0
 13
0.0
 23
0.0
 33
0.0
 16
1.0
 26
0.0
 36
0.0
 17
0.0
 27
1.0
 37
0.0
 76
0
330
217
345
0
346
0
  0
ENDSEC
  0
EOF
