  0
SECTION
  2
HEADER
  9
$ACADVER
  1
AC1021
  9
$DWGCODEPAGE
  3
ANSI_1252
  9
$EXTMAX
 10
297.0
 20
210.0
 30
0.0
  9
$EXTMIN
 10
0.0
 20
0.0
 30
0.0
  9
$LIMMIN
 10
0.0
 20
0.0
  9
$LIMMAX
 10
297.0
 20
210.0
  9
$VIEWCTR
 10
148.5
 20
105.0
  9
$VIEWSIZE
 40
210.0
  9
$CLAYER
  8
0
  9
$LTSCALE
 40
16.335
  9
$CELTYPE
  6
BYLAYER
  9
$DIMSCALE
 40
1.0
  9
$DIMASZ
 40
3.0
  9
$DIMEXO
 40
0.5
  9
$DIMDLI
 40
11.286
  9
$DIMEXE
 40
1.5
  9
$DIMCEN
 40
2.673
  9
$DIMLFAC
 40
1.0
  9
$DIMBLK
  1
_FILLED
  9
$DIMALT
 70
0
  9
$DIMALTF
 40
25.4
  9
$DIMTXT
 40
3.0
  9
$DIMTOL
 70
1
  9
$DIMLIM
 70
0
  9
$DIMTFAC
 40
1.0
  9
$DIMTP
 40
0.01
  9
$DIMTM
 40
0.01
  9
$DIMGAP
 40
0.625
  9
$DIMDSEP
 70
44
  9
$AUNITS
 70
0
  9
$PDMODE
 70
3
  9
$PDSIZE
 40
3.0
  9
$HANDSEED
  5
3EC
  9
$TILEMODE
 70
1
  9
$MEASUREMENT
 70
1
  9
$INSUNITS
 70
4
  0
ENDSEC
  0
SECTION
  2
CLASSES
  0
CLASS
  1
ACDBDICTIONARYWDFLT
  2
AcDbDictionaryWithDefault
  3
AutoCAD 2000
 90
0
 91
1
280
0
281
0
  0
CLASS
  1
ACDBPLACEHOLDER
  2
AcDbPlaceHolder
  3
AutoCAD 2000
 90
0
 91
1
280
0
281
0
  0
CLASS
  1
LAYOUT
  2
AcDbLayout
  3
AutoCAD 2000
 90
0
 91
0
280
0
281
0
  0
ENDSEC
  0
SECTION
  2
TABLES
  0
TABLE
  2
VPORT
  5
8
100
AcDbSymbolTable
 70
2
  0
VPORT
  5
1F4
100
AcDbSymbolTableRecord
100
AcDbViewportTableRecord
  2
*ACTIVE
 70
0
 10
0.0
 20
0.0
 11
1.0
 21
1.0
 12
148.5
 22
105.0
 13
0.0
 23
0.0
 14
1.0
 24
1.0
 15
0.0
 25
0.0
 16
0.0
 26
0.0
 36
1.0
 17
0.0
 27
0.0
 37
0.0
 40
210.0
 41
1.4142857143
 42
50.0
 43
0.0
 44
0.0
 50
0.0
 51
0.0
 71
0
 72
100
 73
1
 74
1
 75
0
 76
0
 77
0
 78
0
  0
ENDTAB
  0
TABLE
  2
LTYPE
  5
5
100
AcDbSymbolTable
 70
6
  0
LTYPE
  5
14
100
AcDbSymbolTableRecord
100
AcDbLinetypeTableRecord
  2
BYBLOCK
 70
0
  3

 72
65
 73
0
 40
0.0
  0
LTYPE
  5
15
100
AcDbSymbolTableRecord
100
AcDbLinetypeTableRecord
  2
BYLAYER
 70
0
  3

 72
65
 73
0
 40
0.0
  0
LTYPE
  5
16
100
AcDbSymbolTableRecord
100
AcDbLinetypeTableRecord
  2
CONTINUOUS
 70
64
  3
Solid line
 72
65
 73
0
 40
0.0
  0
LTYPE
  5
1F5
100
AcDbSymbolTableRecord
100
AcDbLinetypeTableRecord
  2
CENTER
 70
64
  3
____ _ ____ _ ____ _ ____ _ ____ _ ____ _ ____
 72
65
 73
4
 40
0.6
 49
0.375
 74
0
 49
-0.075
 74
0
 49
0.075
 74
0
 49
-0.075
 74
0
  0
LTYPE
  5
1F6
100
AcDbSymbolTableRecord
100
AcDbLinetypeTableRecord
  2
HIDDEN
 70
64
  3
- - - - - - - - - - - - - - - - - - - -
 72
65
 73
2
 40
0.2
 49
0.1
 74
0
 49
-0.1
 74
0
  0
LTYPE
  5
1F7
100
AcDbSymbolTableRecord
100
AcDbLinetypeTableRecord
  2
PHANTOM
 70
64
  3
_____ _ _ _____ _ _ _____ _ _ _____
 72
65
 73
6
 40
0.8
 49
0.45
 74
0
 49
-0.05
 74
0
 49
0.1
 74
0
 49
-0.05
 74
0
 49
0.1
 74
0
 49
-0.05
 74
0
  0
LTYPE
  5
1F8
100
AcDbSymbolTableRecord
100
AcDbLinetypeTableRecord
  2
DOT
 70
64
  3
. . . . . . . . . . . . . . . . . . . .
 72
65
 73
2
 40
0.2
 49
0.1
 74
0
 49
-0.1
 74
0
  0
LTYPE
  5
1F9
100
AcDbSymbolTableRecord
100
AcDbLinetypeTableRecord
  2
DASHED
 70
64
  3
- - - - - - - - - - - - - - - - - - - -
 72
65
 73
2
 40
0.2
 49
0.1
 74
0
 49
-0.1
 74
0
  0
ENDTAB
  0
TABLE
  2
LAYER
  5
2
100
AcDbSymbolTable
 70
36
  0
LAYER
  5
10
100
AcDbSymbolTableRecord
100
AcDbLayerTableRecord
  2
0
 70
0
 62
7
  6
CONTINUOUS
370
-3
390
F
  0
LAYER
  5
1FA
100
AcDbSymbolTableRecord
100
AcDbLayerTableRecord
  2
DEFAULT_1
 70
0
 62
7
  6
CENTER
370
-3
390
F
  0
LAYER
  5
1FB
100
AcDbSymbolTableRecord
100
AcDbLayerTableRecord
  2
DEFAULT_2
 70
0
 62
7
  6
HIDDEN
370
-3
390
F
  0
LAYER
  5
1FC
100
AcDbSymbolTableRecord
100
AcDbLayerTableRecord
  2
DEFAULT_3
 70
0
 62
7
  6
PHANTOM
370
-3
390
F
  0
LAYER
  5
1FD
100
AcDbSymbolTableRecord
100
AcDbLayerTableRecord
  2
ASSI
 70
0
 62
7
  6
CONTINUOUS
370
-3
390
F
  0
LAYER
  5
1FE
100
AcDbSymbolTableRecord
100
AcDbLayerTableRecord
  2
COLOR9
 70
0
 62
7
  6
CONTINUOUS
370
-3
390
F
  0
LAYER
  5
1FF
100
AcDbSymbolTableRecord
100
AcDbLayerTableRecord
  2
COORDINATE
 70
0
 62
7
  6
CONTINUOUS
370
-3
390
F
  0
LAYER
  5
200
100
AcDbSymbolTableRecord
100
AcDbLayerTableRecord
  2
COORD_ORIGINE
 70
0
 62
7
  6
CONTINUOUS
370
-3
390
F
  0
LAYER
  5
201
100
AcDbSymbolTableRecord
100
AcDbLayerTableRecord
  2
COPY_PUBLISH
 70
0
 62
7
  6
CONTINUOUS
370
-3
390
F
  0
LAYER
  5
202
100
AcDbSymbolTableRecord
100
AcDbLayerTableRecord
  2
COSMETICI
 70
0
 62
7
  6
CONTINUOUS
370
-3
390
F
  0
LAYER
  5
203
100
AcDbSymbolTableRecord
100
AcDbLayerTableRecord
  2
CURVE
 70
0
 62
7
  6
CONTINUOUS
370
-3
390
F
  0
LAYER
  5
204
100
AcDbSymbolTableRecord
100
AcDbLayerTableRecord
  2
DRAFT
 70
0
 62
7
  6
CONTINUOUS
370
-3
390
F
  0
LAYER
  5
205
100
AcDbSymbolTableRecord
100
AcDbLayerTableRecord
  2
IGES
 70
0
 62
7
  6
CONTINUOUS
370
-3
390
F
  0
LAYER
  5
206
100
AcDbSymbolTableRecord
100
AcDbLayerTableRecord
  2
IGS_SCRITTE
 70
0
 62
7
  6
CONTINUOUS
370
-3
390
F
  0
LAYER
  5
207
100
AcDbSymbolTableRecord
100
AcDbLayerTableRecord
  2
IMPORT_IGES
 70
0
 62
7
  6
CONTINUOUS
370
-3
390
F
  0
LAYER
  5
208
100
AcDbSymbolTableRecord
100
AcDbLayerTableRecord
  2
INTF_YELLOW
 70
0
 62
7
  6
CONTINUOUS
370
-3
390
F
  0
LAYER
  5
209
100
AcDbSymbolTableRecord
100
AcDbLayerTableRecord
  2
NOTE
 70
0
 62
7
  6
CONTINUOUS
370
-3
390
F
  0
LAYER
  5
20A
100
AcDbSymbolTableRecord
100
AcDbLayerTableRecord
  2
PIANI
 70
0
 62
7
  6
CONTINUOUS
370
-3
390
F
  0
LAYER
  5
20B
100
AcDbSymbolTableRecord
100
AcDbLayerTableRecord
  2
PIANI_ORIGINE
 70
0
 62
7
  6
CONTINUOUS
370
-3
390
F
  0
LAYER
  5
20C
100
AcDbSymbolTableRecord
100
AcDbLayerTableRecord
  2
PIANI_RIFERIMENTO
 70
0
 62
7
  6
CONTINUOUS
370
-3
390
F
  0
LAYER
  5
20D
100
AcDbSymbolTableRecord
100
AcDbLayerTableRecord
  2
PUNTI
 70
0
 62
7
  6
CONTINUOUS
370
-3
390
F
  0
LAYER
  5
20E
100
AcDbSymbolTableRecord
100
AcDbLayerTableRecord
  2
RACCORDO
 70
0
 62
7
  6
CONTINUOUS
370
-3
390
F
  0
LAYER
  5
20F
100
AcDbSymbolTableRecord
100
AcDbLayerTableRecord
  2
SIMBOLI
 70
0
 62
7
  6
CONTINUOUS
370
-3
390
F
  0
LAYER
  5
210
100
AcDbSymbolTableRecord
100
AcDbLayerTableRecord
  2
SMUSSO
 70
0
 62
7
  6
CONTINUOUS
370
-3
390
F
  0
LAYER
  5
211
100
AcDbSymbolTableRecord
100
AcDbLayerTableRecord
  2
SNAPLINE
 70
0
 62
7
  6
CONTINUOUS
370
-3
390
F
  0
LAYER
  5
212
100
AcDbSymbolTableRecord
100
AcDbLayerTableRecord
  2
SOLIDO
 70
0
 62
7
  6
CONTINUOUS
370
-3
390
F
  0
LAYER
  5
213
100
AcDbSymbolTableRecord
100
AcDbLayerTableRecord
  2
SUPERFICI
 70
0
 62
7
  6
CONTINUOUS
370
-3
390
F
  0
LAYER
  5
214
100
AcDbSymbolTableRecord
100
AcDbLayerTableRecord
  2
TRASH
 70
0
 62
7
  6
CONTINUOUS
370
-3
390
F
  0
LAYER
  5
215
100
AcDbSymbolTableRecord
100
AcDbLayerTableRecord
  2
WHITE
 70
0
 62
7
  6
CONTINUOUS
370
-3
390
F
  0
ENDTAB
  0
TABLE
  2
STYLE
  5
3
100
AcDbSymbolTable
 70
1
  0
STYLE
  5
11
100
AcDbSymbolTableRecord
100
AcDbTextStyleTableRecord
  2
STANDARD
 70
0
 40
0.0
 41
0.8
 50
0.0
 71
0
 42
0.2
  3
txt
  4

  0
STYLE
  5
216
100
AcDbSymbolTableRecord
100
AcDbTextStyleTableRecord
  2
TEXTSTYLE_1
 70
0
 40
0.0
 41
0.8
 50
0.0
 71
0
 42
0.2
  3
gdt
  4

  0
ENDTAB
  0
TABLE
  2
VIEW
  5
6
100
AcDbSymbolTable
 70
0
  0
ENDTAB
  0
TABLE
  2
UCS
  5
7
100
AcDbSymbolTable
 70
0
  0
ENDTAB
  0
TABLE
  2
APPID
  5
9
100
AcDbSymbolTable
 70
1
  0
APPID
  5
217
100
AcDbSymbolTableRecord
100
AcDbRegAppTableRecord
  2
ACAD
 70
0
  0
ENDTAB
  0
TABLE
  2
BLOCK_RECORD
  5
1
100
AcDbSymbolTable
 70
0
  0
BLOCK_RECORD
  5
218
100
AcDbSymbolTableRecord
100
AcDbBlockTableRecord
  2
*Model_Space
  0
BLOCK_RECORD
  5
219
100
AcDbSymbolTableRecord
100
AcDbBlockTableRecord
  2
*Paper_Space
  0
BLOCK_RECORD
  5
21A
100
AcDbSymbolTableRecord
100
AcDbBlockTableRecord
  2
_FILLED
  0
BLOCK_RECORD
  5
21B
100
AcDbSymbolTableRecord
100
AcDbBlockTableRecord
  2
*D0
  0
BLOCK_RECORD
  5
21C
100
AcDbSymbolTableRecord
100
AcDbBlockTableRecord
  2
*D1
  0
BLOCK_RECORD
  5
21D
100
AcDbSymbolTableRecord
100
AcDbBlockTableRecord
  2
*D2
  0
ENDTAB
  0
TABLE
  2
DIMSTYLE
  5
A
100
AcDbSymbolTable
 70
1
100
AcDbDimStyleTable
 71
0
  0
DIMSTYLE
105
21E
100
AcDbSymbolTableRecord
100
AcDbDimStyleTableRecord
  2
STANDARD
 70
0
  3

  4

 40
1.0
 41
3.0
 42
0.5
 43
0.38
 44
1.5
 45
0.0
 46
0.0
 47
0.01
 48
0.01
140
3.0
141
0.09
142
0.0
143
25.4
144
1.0
145
0.0
146
1.0
147
0.625
 71
1.0
 72
0.0
 73
0
 74
0
 75
0
 76
0
 77
1
 78
8
170
0
171
1
172
0
173
0
174
0
175
0
176
0
177
0
178
0
270
2
271
2
272
2
273
2
274
2
275
0
280
0
281
0
282
0
283
1
284
8
285
0
286
0
287
3
288
0
340
11
278
44
341
21A
342
21A
343
21A
344
21A
  0
DIMSTYLE
105
21F
100
AcDbSymbolTableRecord
100
AcDbDimStyleTableRecord
  2
DIMSTYLE_1
 70
0
  3

  4

 40
1.0
 41
3.0
 42
0.5
 43
0.38
 44
1.5
 45
0.0
 46
0.0
 47
0.0
 48
0.0
140
3.0
141
0.09
142
0.0
143
25.4
144
1.0
145
0.0
146
1.0
147
0.75
 71
0.0
 72
0.0
 73
0
 74
0
 75
0
 76
0
 77
1
 78
8
170
0
171
1
172
0
173
0
174
0
175
0
176
0
177
0
178
0
270
2
271
2
272
2
273
2
274
2
275
0
280
0
281
0
282
0
283
1
284
8
285
0
286
0
287
3
288
0
340
11
278
44
341
21A
342
21A
343
21A
344
21A
  0
DIMSTYLE
105
220
100
AcDbSymbolTableRecord
100
AcDbDimStyleTableRecord
  2
DIMSTYLE_2
 70
0
  3

  4

 40
1.0
 41
3.0
 42
0.5
 43
0.38
 44
1.5
 45
0.0
 46
0.0
 47
0.0
 48
0.0
140
3.0
141
0.09
142
0.0
143
25.4
144
1.0
145
0.0
146
1.0
147
0.75
 71
0.0
 72
0.0
 73
0
 74
0
 75
0
 76
0
 77
1
 78
8
170
0
171
1
172
0
173
0
174
0
175
0
176
0
177
0
178
0
270
2
271
1
272
1
273
2
274
2
275
0
280
0
281
0
282
0
283
1
284
8
285
0
286
0
287
3
288
0
340
11
278
44
341
21A
342
21A
343
21A
344
21A
  0
ENDTAB
  0
ENDSEC
  0
SECTION
  2
BLOCKS
  0
BLOCK
  5
20
100
AcDbEntity
  8
0
100
AcDbBlockBegin
  2
*Model_Space
 70
0
 10
0.0
 20
0.0
 30
0.0
  3
*Model_Space
  1

  0
ENDBLK
  5
21
100
AcDbEntity
  8
0
100
AcDbBlockEnd
  0
BLOCK
  5
1C
100
AcDbEntity
  8
0
100
AcDbBlockBegin
  2
*Paper_Space
 70
0
 10
0.0
 20
0.0
 30
0.0
  3
*Paper_Space
  1

  0
ENDBLK
  5
1D
100
AcDbEntity
  8
0
100
AcDbBlockEnd
  0
BLOCK
  5
221
100
AcDbEntity
  8
0
100
AcDbBlockBegin
  2
_FILLED
 70
64
 10
0.0
 20
0.0
  3
_FILLED
  1

  0
SOLID
  5
222
100
AcDbEntity
  8
0
  6
BYBLOCK
 62
0
100
AcDbTrace
 10
0.0
 20
0.0
 11
-1.0
 21
0.3166666667
 12
-1.0
 22
-0.3166666667
 13
-1.0
 23
-0.3166666667
  0
ENDBLK
  5
223
100
AcDbEntity
  8
0
  6
BYBLOCK
 62
0
100
AcDbBlockEnd
  0
BLOCK
  5
224
100
AcDbEntity
  8
0
100
AcDbBlockBegin
 62
7
  6
CONTINUOUS
  2
*D0
 70
65
 10
0.0
 20
0.0
  3
*D0
  1

  0
MTEXT
  5
225
100
AcDbEntity
  8
0
100
AcDbMText
 62
7
  6
CONTINUOUS
  7
STANDARD
 71
2
 72
1
 10
-0.3876831359
 20
33.658869175
 30
0.0
 11
1.0
 21
0.0
 31
0.0
 44
0.9
  1
44,7
 40
3.0
 41
13.1785714286
  0
LINE
  5
226
100
AcDbEntity
  8
0
100
AcDbLine
 62
7
  6
CONTINUOUS
 10
-22.7376831359
 20
13.3006312344
 11
-22.7376831359
 21
31.408869175
  0
LINE
  5
227
100
AcDbEntity
  8
0
100
AcDbLine
 62
7
  6
CONTINUOUS
 10
21.9623168641
 20
13.3006312344
 11
21.9623168641
 21
31.408869175
  0
LINE
  5
228
100
AcDbEntity
  8
0
100
AcDbLine
 62
7
  6
CONTINUOUS
 10
-22.7376831359
 20
29.908869175
 11
-0.3876831359
 21
29.908869175
  0
LINE
  5
229
100
AcDbEntity
  8
0
100
AcDbLine
 62
7
  6
CONTINUOUS
 10
21.9623168641
 20
29.908869175
 11
-0.3876831359
 21
29.908869175
  0
INSERT
  5
22A
100
AcDbEntity
  8
0
100
AcDbBlockReference
 62
7
  6
CONTINUOUS
  2
_FILLED
 10
-22.7376831359
 20
29.908869175
 41
3.0
 42
3.0
 43
3.0
 50
180.0
  0
INSERT
  5
22B
100
AcDbEntity
  8
0
100
AcDbBlockReference
 62
7
  6
CONTINUOUS
  2
_FILLED
 10
21.9623168641
 20
29.908869175
 41
3.0
 42
3.0
 43
3.0
  0
ENDBLK
  5
22C
100
AcDbEntity
  8
0
  6
BYBLOCK
 62
0
100
AcDbBlockEnd
  0
BLOCK
  5
22D
100
AcDbEntity
  8
0
100
AcDbBlockBegin
 62
7
  6
CONTINUOUS
  2
*D1
 70
65
 10
0.0
 20
0.0
  3
*D1
  1

  0
MTEXT
  5
22E
100
AcDbEntity
  8
0
100
AcDbMText
 62
7
  6
CONTINUOUS
  7
STANDARD
 71
2
 72
1
 10
26.2123168641
 20
-0.2993687656
 30
0.0
 11
0.0
 21
1.0
 31
0.0
 44
0.9
  1
44,4
 40
3.0
 41
13.1785714286
  0
LINE
  5
22F
100
AcDbEntity
  8
0
100
AcDbLine
 62
7
  6
CONTINUOUS
 10
21.9350986693
 20
21.908869175
 11
31.4623168641
 21
21.908869175
  0
LINE
  5
230
100
AcDbEntity
  8
0
100
AcDbLine
 62
7
  6
CONTINUOUS
 10
21.9350986693
 20
-22.5076067061
 11
31.4623168641
 21
-22.5076067061
  0
LINE
  5
231
100
AcDbEntity
  8
0
100
AcDbLine
 62
7
  6
CONTINUOUS
 10
29.9623168641
 20
21.908869175
 11
29.9623168641
 21
-0.2993687656
  0
LINE
  5
232
100
AcDbEntity
  8
0
100
AcDbLine
 62
7
  6
CONTINUOUS
 10
29.9623168641
 20
-22.5076067061
 11
29.9623168641
 21
-0.2993687656
  0
INSERT
  5
233
100
AcDbEntity
  8
0
100
AcDbBlockReference
 62
7
  6
CONTINUOUS
  2
_FILLED
 10
29.9623168641
 20
21.908869175
 41
3.0
 42
3.0
 43
3.0
 50
90.0
  0
INSERT
  5
234
100
AcDbEntity
  8
0
100
AcDbBlockReference
 62
7
  6
CONTINUOUS
  2
_FILLED
 10
29.9623168641
 20
-22.5076067061
 41
3.0
 42
3.0
 43
3.0
 50
270.0
  0
ENDBLK
  5
235
100
AcDbEntity
  8
0
  6
BYBLOCK
 62
0
100
AcDbBlockEnd
  0
BLOCK
  5
236
100
AcDbEntity
  8
0
100
AcDbBlockBegin
 62
7
  6
CONTINUOUS
  2
*D2
 70
65
 10
0.0
 20
0.0
  3
*D2
  1

  0
MTEXT
  5
237
100
AcDbEntity
  8
0
100
AcDbMText
 62
7
  6
CONTINUOUS
  7
STANDARD
 71
1
 72
1
 10
-34.4620205488
 20
33.658869175
 30
0.0
 11
1.0
 21
0.0
 31
0.0
 44
0.9
  1
5,7
 40
3.0
 41
9.3214285714
  0
LINE
  5
238
100
AcDbEntity
  8
0
100
AcDbLine
 62
7
  6
CONTINUOUS
 10
-39.9951304676
 20
13.3006312344
 11
-39.9951304676
 21
31.408869175
  0
LINE
  5
239
100
AcDbEntity
  8
0
100
AcDbLine
 62
7
  6
CONTINUOUS
 10
-45.6949722473
 20
0.5983996886
 11
-45.6949722473
 21
31.408869175
  0
LINE
  5
23A
100
AcDbEntity
  8
0
100
AcDbLine
 62
7
  6
CONTINUOUS
 10
-39.9951304676
 20
29.908869175
 11
-28.2477348345
 21
29.908869175
  0
LINE
  5
23B
100
AcDbEntity
  8
0
100
AcDbLine
 62
7
  6
CONTINUOUS
 10
-28.2477348345
 20
29.908869175
 11
-42.8450513575
 21
29.908869175
  0
LINE
  5
23C
100
AcDbEntity
  8
0
100
AcDbLine
 62
7
  6
CONTINUOUS
 10
-45.6949722473
 20
29.908869175
 11
-49.6949722473
 21
29.908869175
  0
LINE
  5
23D
100
AcDbEntity
  8
0
100
AcDbLine
 62
7
  6
CONTINUOUS
 10
-49.6949722473
 20
29.908869175
 11
-42.8450513575
 21
29.908869175
  0
INSERT
  5
23E
100
AcDbEntity
  8
0
100
AcDbBlockReference
 62
7
  6
CONTINUOUS
  2
_FILLED
 10
-39.9951304676
 20
29.908869175
 41
3.0
 42
3.0
 43
3.0
 50
180.0
  0
INSERT
  5
23F
100
AcDbEntity
  8
0
100
AcDbBlockReference
 62
7
  6
CONTINUOUS
  2
_FILLED
 10
-45.6949722473
 20
29.908869175
 41
3.0
 42
3.0
 43
3.0
  0
ENDBLK
  5
240
100
AcDbEntity
  8
0
  6
BYBLOCK
 62
0
100
AcDbBlockEnd
  0
ENDSEC
  0
SECTION
  2
ENTITIES
  0
DIMENSION
  5
241
100
AcDbEntity
  8
0
100
AcDbDimension
 62
7
  6
CONTINUOUS
  2
*D0
 10
21.9623168641
 20
29.908869175
 11
-0.8162547526
 21
29.908869175
 70
160
 71
2
 42
44.7
  3
DIMSTYLE_1
100
AcDbAlignedDimension
 13
-22.7376831359
 23
12.8006312344
 14
21.9623168641
 24
12.8006312344
100
AcDbRotatedDimension
  0
DIMENSION
  5
242
100
AcDbEntity
  8
0
100
AcDbDimension
 62
7
  6
CONTINUOUS
  2
*D1
 10
29.9623168641
 20
-22.5076067061
 11
29.9623168641
 21
-0.7279396994
 70
160
 71
2
 42
44.4164758811
  3
DIMSTYLE_2
100
AcDbAlignedDimension
 13
21.4350986693
 23
21.908869175
 14
21.4350986693
 24
-22.5076067061
 50
270.0
100
AcDbRotatedDimension
  0
DIMENSION
  5
243
100
AcDbEntity
  8
0
100
AcDbDimension
 62
7
  6
CONTINUOUS
  2
*D2
 10
-45.6949722473
 20
29.908869175
 11
-31.7834491539
 21
29.908869175
 70
160
 71
1
 42
5.6998417798
  3
DIMSTYLE_1
100
AcDbAlignedDimension
 13
-39.9951304676
 23
12.8006312344
 14
-45.6949722473
 24
0.0983996886
 50
180.0
100
AcDbRotatedDimension
  0
LWPOLYLINE
  5
244
100
AcDbEntity
  8
ASSI
100
AcDbPolyline
 62
253
  6
CONTINUOUS
 90
49
 70
0
 10
-22.5929973618
 20
20.8334865628
 10
-22.5921892951
 20
20.8358733268
 10
-22.5908702251
 20
20.838257646
 10
-22.589041503
 20
20.8406370783
 10
-22.5867050018
 20
20.8430091864
 10
-22.5838631149
 20
20.8453715407
 10
-22.5805187531
 20
20.8477217213
 10
-22.576675342
 20
20.850057321
 10
-22.5723368184
 20
20.8523759475
 10
-22.5675076262
 20
20.8546752259
 10
-22.5621927118
 20
20.8569528011
 10
-22.5563975192
 20
20.8592063401
 10
-22.5501279844
 20
20.8614335347
 10
-22.5433905291
 20
20.8636321036
 10
-22.5361920544
 20
20.8657997949
 10
-22.5285399337
 20
20.8679343881
 10
-22.5204420049
 20
20.870033697
 10
-22.5119065625
 20
20.8720955711
 10
-22.5029423494
 20
20.8741178986
 10
-22.4935585474
 20
20.8760986079
 10
-22.4837647682
 20
20.8780356704
 10
-22.4735710434
 20
20.8799271018
 10
-22.4629878145
 20
20.8817709648
 10
-22.4520259215
 20
20.8835653708
 10
-22.4406965926
 20
20.8853084818
 10
-22.4290114323
 20
20.8869985123
 10
-22.4169824095
 20
20.8886337313
 10
-22.4046218454
 20
20.8902124638
 10
-22.3919424007
 20
20.8917330928
 10
-22.3789570629
 20
20.8931940607
 10
-22.3656791325
 20
20.894593871
 10
-22.3521222101
 20
20.8959310899
 10
-22.3383001817
 20
20.8972043479
 10
-22.3242272051
 20
20.8984123406
 10
-22.309917695
 20
20.8995538307
 10
-22.2953863085
 20
20.900627649
 10
-22.2806479298
 20
20.9016326957
 10
-22.2657176553
 20
20.9025679413
 10
-22.2506107778
 20
20.9034324278
 10
-22.2353427711
 20
20.9042252697
 10
-22.219929274
 20
20.904945655
 10
-22.2043860743
 20
20.9055928457
 10
-22.1887290927
 20
20.906166179
 10
-22.1729743664
 20
20.9066650675
 10
-22.1571380329
 20
20.9070890004
 10
-22.1412363129
 20
20.9074375433
 10
-22.1252854944
 20
20.9077103393
 10
-22.1093019156
 20
20.9079071089
 10
-22.0933019483
 20
20.9080276506
  0
LWPOLYLINE
  5
245
100
AcDbEntity
  8
ASSI
100
AcDbPolyline
 62
253
  6
CONTINUOUS
 90
49
 70
0
 10
-22.5929973618
 20
-21.432224094
 10
-22.5921892956
 20
-21.434610858
 10
-22.5908702262
 20
-21.4369951773
 10
-22.5890415045
 20
-21.4393746097
 10
-22.5867050039
 20
-21.4417467179
 10
-22.5838631174
 20
-21.4441090722
 10
-22.580518756
 20
-21.4464592529
 10
-22.5766753453
 20
-21.4487948527
 10
-22.5723368221
 20
-21.4511134793
 10
-22.5675076302
 20
-21.4534127578
 10
-22.5621927161
 20
-21.4556903331
 10
-22.5563975238
 20
-21.4579438722
 10
-22.5501279892
 20
-21.4601710669
 10
-22.5433905342
 20
-21.4623696359
 10
-22.5361920597
 20
-21.4645373272
 10
-22.5285399392
 20
-21.4666719206
 10
-22.5204420105
 20
-21.4687712295
 10
-22.5119065683
 20
-21.4708331038
 10
-22.5029423553
 20
-21.4728554313
 10
-22.4935585533
 20
-21.4748361408
 10
-22.4837647742
 20
-21.4767732033
 10
-22.4735710495
 20
-21.4786646348
 10
-22.4629878205
 20
-21.480508498
 10
-22.4520259275
 20
-21.482302904
 10
-22.4406965986
 20
-21.4840460151
 10
-22.4290114382
 20
-21.4857360457
 10
-22.4169824153
 20
-21.4873712648
 10
-22.4046218511
 20
-21.4889499974
 10
-22.3919424063
 20
-21.4904706264
 10
-22.3789570683
 20
-21.4919315944
 10
-22.3656791378
 20
-21.4933314048
 10
-22.3521222152
 20
-21.4946686238
 10
-22.3383001866
 20
-21.4959418818
 10
-22.3242272098
 20
-21.4971498745
 10
-22.3099176994
 20
-21.4982913647
 10
-22.2953863127
 20
-21.4993651832
 10
-22.2806479337
 20
-21.5003702299
 10
-22.2657176589
 20
-21.5013054755
 10
-22.2506107811
 20
-21.5021699621
 10
-22.2353427741
 20
-21.502962804
 10
-22.2199292767
 20
-21.5036831893
 10
-22.2043860767
 20
-21.5043303801
 10
-22.1887290948
 20
-21.5049037134
 10
-22.1729743682
 20
-21.505402602
 10
-22.1571380343
 20
-21.5058265349
 10
-22.1412363139
 20
-21.5061750778
 10
-22.1252854951
 20
-21.5064478738
 10
-22.109301916
 20
-21.5066446435
 10
-22.0933019483
 20
-21.5067651852
  0
LINE
  5
246
100
AcDbEntity
  8
ASSI
100
AcDbLine
 62
7
  6
CONTINUOUS
 10
14.2563631632
 20
-22.5076067061
 11
14.6045818372
 21
-22.4759978746
  0
LINE
  5
247
100
AcDbEntity
  8
ASSI
100
AcDbLine
 62
7
  6
CONTINUOUS
 10
-15.031729435
 20
-22.5076067061
 11
-15.379948109
 21
-22.4759978746
  0
LINE
  5
248
100
AcDbEntity
  8
ASSI
100
AcDbLine
 62
253
  6
CONTINUOUS
 10
-22.6013532824
 20
21.1889554793
 11
-22.6021719443
 21
21.2020265757
  0
LINE
  5
249
100
AcDbEntity
  8
ASSI
100
AcDbLine
 62
253
  6
CONTINUOUS
 10
-22.600560316
 20
21.1746446425
 11
-22.6013532824
 21
21.1889554793
  0
LINE
  5
24A
100
AcDbEntity
  8
ASSI
100
AcDbLine
 62
253
  6
CONTINUOUS
 10
-22.5997955802
 20
21.1591421764
 11
-22.600560316
 21
21.1746446425
  0
LINE
  5
24B
100
AcDbEntity
  8
ASSI
100
AcDbLine
 62
253
  6
CONTINUOUS
 10
-22.599060725
 20
21.1424815625
 11
-22.5997955802
 21
21.1591421764
  0
LINE
  5
24C
100
AcDbEntity
  8
ASSI
100
AcDbLine
 62
253
  6
CONTINUOUS
 10
-22.103318008
 20
21.6686868272
 11
-22.1041808408
 21
21.6896528523
  0
LINE
  5
24D
100
AcDbEntity
  8
ASSI
100
AcDbLine
 62
253
  6
CONTINUOUS
 10
-22.5980197442
 20
21.1154374323
 11
-22.599060725
 21
21.1424815625
  0
LINE
  5
24E
100
AcDbEntity
  8
ASSI
100
AcDbLine
 62
253
  6
CONTINUOUS
 10
-22.1024763657
 20
21.6450999951
 11
-22.103318008
 21
21.6686868272
  0
LINE
  5
24F
100
AcDbEntity
  8
ASSI
100
AcDbLine
 62
253
  6
CONTINUOUS
 10
-22.5970581133
 20
21.0860837384
 11
-22.5980197442
 21
21.1154374323
  0
LINE
  5
250
100
AcDbEntity
  8
ASSI
100
AcDbLine
 62
253
  6
CONTINUOUS
 10
-22.1012580542
 20
21.6049565893
 11
-22.1024763657
 21
21.6450999951
  0
LINE
  5
251
100
AcDbEntity
  8
ASSI
100
AcDbLine
 62
253
  6
CONTINUOUS
 10
-22.5961820555
 20
21.054610651
 11
-22.5970581133
 21
21.0860837384
  0
LINE
  5
252
100
AcDbEntity
  8
ASSI
100
AcDbLine
 62
253
  6
CONTINUOUS
 10
-22.0997286342
 20
21.5429554226
 11
-22.1012580542
 21
21.6049565893
  0
LINE
  5
253
100
AcDbEntity
  8
ASSI
100
AcDbLine
 62
253
  6
CONTINUOUS
 10
-22.5951568842
 20
21.0097068557
 11
-22.5961820555
 21
21.054610651
  0
LWPOLYLINE
  5
254
100
AcDbEntity
  8
ASSI
100
AcDbPolyline
 62
253
  6
CONTINUOUS
 90
43
 70
0
 10
-22.5554912427
 20
0.0960952412
 10
-22.5553137485
 20
0.0867496085
 10
-22.5547872032
 20
0.0774170415
 10
-22.553912343
 20
0.0681105876
 10
-22.5526903909
 20
0.0588432576
 10
-22.5511230554
 20
0.0496280076
 10
-22.5492125276
 20
0.0404777212
 10
-22.5469614785
 20
0.0314051907
 10
-22.5443730553
 20
0.0224231001
 10
-22.5414508766
 20
0.0135440068
 10
-22.5381990279
 20
0.0047803242
 10
-22.5346220553
 20
-0.0038556958
 10
-22.5307249597
 20
-0.0123519794
 10
-22.5265131893
 20
-0.0206966485
 10
-22.5219926326
 20
-0.0288780369
 10
-22.5171696094
 20
-0.0368847065
 10
-22.5120508625
 20
-0.0447054636
 10
-22.5066435482
 20
-0.0523293745
 10
-22.5009552262
 20
-0.0597457806
 10
-22.4949938492
 20
-0.0669443133
 10
-22.4887677512
 20
-0.0739149088
 10
-22.4822856369
 20
-0.0806478219
 10
-22.4755565684
 20
-0.0871336396
 10
-22.4685899534
 20
-0.0933632944
 10
-22.4613955314
 20
-0.099328077
 10
-22.4539833608
 20
-0.1050196483
 10
-22.446363804
 20
-0.1104300513
 10
-22.4385475136
 20
-0.1155517219
 10
-22.430545417
 20
-0.1203774999
 10
-22.4223687017
 20
-0.1249006385
 10
-22.4140287991
 20
-0.1291148143
 10
-22.4055373688
 20
-0.1330141355
 10
-22.3969062821
 20
-0.1365931508
 10
-22.3881476058
 20
-0.1398468565
 10
-22.379273585
 20
-0.1427707039
 10
-22.3702966258
 20
-0.1453606051
 10
-22.3612292787
 20
-0.1476129396
 10
-22.35208422
 20
-0.1495245582
 10
-22.3428742351
 20
-0.1510927887
 10
-22.3336122
 20
-0.1523154384
 10
-22.3243110634
 20
-0.1531907981
 10
-22.3149838287
 20
-0.1537176441
 10
-22.305643536
 20
-0.1538952396
  0
LWPOLYLINE
  5
255
100
AcDbEntity
  8
ASSI
100
AcDbPolyline
 62
253
  6
CONTINUOUS
 90
49
 70
0
 10
-22.6093488175
 20
-21.8569977701
 10
-22.6090520683
 20
-21.8733159278
 10
-22.6082217934
 20
-21.8896166523
 10
-22.6068588798
 20
-21.9058825288
 10
-22.6049647834
 20
-21.92209618
 10
-22.602541528
 20
-21.9382402843
 10
-22.5995917022
 20
-21.9542975943
 10
-22.5961184576
 20
-21.9702509553
 10
-22.5921255046
 20
-21.9860833239
 10
-22.5876171092
 20
-22.0017777858
 10
-22.5825980877
 20
-22.017317574
 10
-22.5770738022
 20
-22.0326860867
 10
-22.5710501545
 20
-22.0478669052
 10
-22.5645335799
 20
-22.0628438114
 10
-22.5575310402
 20
-22.0776008047
 10
-22.5500500164
 20
-22.0921221199
 10
-22.542098501
 20
-22.1063922432
 10
-22.5336849887
 20
-22.1203959294
 10
-22.524818468
 20
-22.1341182177
 10
-22.5155084113
 20
-22.1475444483
 10
-22.5057647648
 20
-22.1606602772
 10
-22.4955979382
 20
-22.1734516925
 10
-22.4850187929
 20
-22.1859050286
 10
-22.4740386311
 20
-22.1980069811
 10
-22.4626691833
 20
-22.2097446211
 10
-22.4509225957
 20
-22.2211054088
 10
-22.4388114179
 20
-22.232077207
 10
-22.4263485885
 20
-22.2426482943
 10
-22.413547422
 20
-22.252807377
 10
-22.4004215945
 20
-22.262543602
 10
-22.3869851286
 20
-22.2718465676
 10
-22.3732523791
 20
-22.280706335
 10
-22.3592380172
 20
-22.2891134392
 10
-22.3449570149
 20
-22.2970588985
 10
-22.3304246292
 20
-22.3045342244
 10
-22.3156563854
 20
-22.3115314308
 10
-22.3006680611
 20
-22.3180430423
 10
-22.2854756689
 20
-22.3240621024
 10
-22.2700954393
 20
-22.3295821806
 10
-22.2545438036
 20
-22.3345973796
 10
-22.2388373762
 20
-22.3391023414
 10
-22.2229929367
 20
-22.3430922534
 10
-22.2070274126
 20
-22.3465628529
 10
-22.1909578601
 20
-22.3495104322
 10
-22.1748014472
 20
-22.3519318422
 10
-22.1585754342
 20
-22.353824496
 10
-22.142297156
 20
-22.3551863717
 10
-22.1259840033
 20
-22.3560160143
 10
-22.109653404
 20
-22.3563125375
  0
LINE
  5
256
100
AcDbEntity
  8
ASSI
100
AcDbLine
 62
253
  6
CONTINUOUS
 10
-22.0979947254
 20
21.4528543268
 11
-22.0997286342
 21
21.5429554226
  0
LINE
  5
257
100
AcDbEntity
  8
ASSI
100
AcDbLine
 62
253
  6
CONTINUOUS
 10
-22.5943054901
 20
20.9619085585
 11
-22.5951568842
 21
21.0097068557
  0
LINE
  5
258
100
AcDbEntity
  8
ASSI
100
AcDbLine
 62
253
  6
CONTINUOUS
 10
-22.0962147489
 20
21.3284249595
 11
-22.0979947254
 21
21.4528543268
  0
LINE
  5
259
100
AcDbEntity
  8
ASSI
100
AcDbLine
 62
253
  6
CONTINUOUS
 10
-22.5935007713
 20
20.8989554527
 11
-22.5943054901
 21
20.9619085585
  0
LINE
  5
25A
100
AcDbEntity
  8
ASSI
100
AcDbLine
 62
253
  6
CONTINUOUS
 10
-22.0944257277
 20
21.140217317
 11
-22.0962147489
 21
21.3284249595
  0
LINE
  5
25B
100
AcDbEntity
  8
ASSI
100
AcDbLine
 62
253
  6
CONTINUOUS
 10
-22.5929973618
 20
20.8334865628
 11
-22.5935007713
 21
20.8989554527
  0
LINE
  5
25C
100
AcDbEntity
  8
ASSI
100
AcDbLine
 62
7
  6
CONTINUOUS
 10
-22.7113758266
 20
-22.0101160733
 11
-22.7376831359
 21
-13.3993687656
  0
LINE
  5
25D
100
AcDbEntity
  8
ASSI
100
AcDbLine
 62
253
  6
CONTINUOUS
 10
-22.0933019483
 20
20.908027654
 11
-22.0944257277
 21
21.140217317
  0
LINE
  5
25E
100
AcDbEntity
  8
ASSI
100
AcDbLine
 62
253
  6
CONTINUOUS
 10
-22.5641818838
 20
13.0849614364
 11
-22.5929973618
 21
20.8334865628
  0
LINE
  5
25F
100
AcDbEntity
  8
ASSI
100
AcDbLine
 62
253
  6
CONTINUOUS
 10
-22.0644864718
 20
13.1162225809
 11
-22.0933019483
 21
20.908027654
  0
LINE
  5
260
100
AcDbEntity
  8
ASSI
100
AcDbLine
 62
253
  6
CONTINUOUS
 10
-22.5579996533
 20
8.1806540769
 11
-22.5641818838
 21
13.0849614364
  0
LINE
  5
261
100
AcDbEntity
  8
ASSI
100
AcDbLine
 62
253
  6
CONTINUOUS
 10
-22.0583043657
 20
8.1893620098
 11
-22.0644864718
 21
13.1162225809
  0
LINE
  5
262
100
AcDbEntity
  8
ASSI
100
AcDbLine
 62
7
  6
CONTINUOUS
 10
-22.7376831359
 20
-0.6493021444
 11
-22.7376831359
 21
-13.3993687656
  0
LINE
  5
263
100
AcDbEntity
  8
ASSI
100
AcDbLine
 62
7
  6
CONTINUOUS
 10
-22.7376831359
 20
0.0505646132
 11
-22.7376831359
 21
12.8006312344
  0
LINE
  5
264
100
AcDbEntity
  8
ASSI
100
AcDbLine
 62
253
  6
CONTINUOUS
 10
-22.5554913395
 20
0.096095217
 11
-22.5579996533
 21
8.1806540769
  0
LINE
  5
265
100
AcDbEntity
  8
ASSI
100
AcDbLine
 62
253
  6
CONTINUOUS
 10
-22.0557958821
 20
-0.1517896774
 11
-22.0583043657
 21
8.1893620098
  0
LINE
  5
266
100
AcDbEntity
  8
ASSI
100
AcDbLine
 62
253
  6
CONTINUOUS
 10
-22.5700083136
 20
-15.9044776366
 11
-22.5554913395
 21
-0.6948327481
  0
LINE
  5
267
100
AcDbEntity
  8
ASSI
100
AcDbLine
 62
253
  6
CONTINUOUS
 10
-22.0703129006
 20
-15.9481304539
 11
-22.0557958821
 21
-0.4469478538
  0
LINE
  5
268
100
AcDbEntity
  8
ASSI
100
AcDbLine
 62
7
  6
CONTINUOUS
 10
-22.7113758266
 20
21.4113785422
 11
-22.7376831359
 21
12.8006312344
  0
LINE
  5
269
100
AcDbEntity
  8
ASSI
100
AcDbLine
 62
253
  6
CONTINUOUS
 10
-22.5931619242
 20
-21.4586473992
 11
-22.5700083136
 21
-15.9044776366
  0
LINE
  5
26A
100
AcDbEntity
  8
ASSI
100
AcDbLine
 62
253
  6
CONTINUOUS
 10
-22.0946101441
 20
-21.7636245619
 11
-22.0703129006
 21
-15.9481304539
  0
LINE
  5
26B
100
AcDbEntity
  8
ASSI
100
AcDbLine
 62
253
  6
CONTINUOUS
 10
-22.5937871462
 20
-21.5232371954
 11
-22.5931619242
 21
-21.4586473992
  0
LINE
  5
26C
100
AcDbEntity
  8
ASSI
100
AcDbLine
 62
253
  6
CONTINUOUS
 10
-22.0962147489
 20
-21.9271624907
 11
-22.0946101441
 21
-21.7636245619
  0
LINE
  5
26D
100
AcDbEntity
  8
ASSI
100
AcDbLine
 62
253
  6
CONTINUOUS
 10
-22.5945015287
 20
-21.5728410641
 11
-22.5937871462
 21
-21.5232371954
  0
LINE
  5
26E
100
AcDbEntity
  8
ASSI
100
AcDbLine
 62
253
  6
CONTINUOUS
 10
-22.0979947254
 20
-22.051591858
 11
-22.0962147489
 21
-21.9271624907
  0
LWPOLYLINE
  5
26F
100
AcDbEntity
  8
ASSI
100
AcDbPolyline
 62
253
  6
CONTINUOUS
 90
49
 70
0
 10
-22.6093488175
 20
21.258260239
 10
-22.6090520683
 20
21.2745783976
 10
-22.6082217933
 20
21.290879123
 10
-22.6068588795
 20
21.3071450004
 10
-22.604964783
 20
21.3233586524
 10
-22.6025415273
 20
21.3395027575
 10
-22.5995917012
 20
21.3555600682
 10
-22.5961184562
 20
21.3715134299
 10
-22.5921255029
 20
21.3873457992
 10
-22.5876171071
 20
21.4030402616
 10
-22.5825980852
 20
21.4185800502
 10
-22.5770737992
 20
21.4339485634
 10
-22.5710501511
 20
21.4491293823
 10
-22.564533576
 20
21.4641062888
 10
-22.5575310358
 20
21.4788632824
 10
-22.5500500116
 20
21.4933845978
 10
-22.5420984957
 20
21.5076547212
 10
-22.5336849829
 20
21.5216584074
 10
-22.5248184618
 20
21.5353806958
 10
-22.5155084047
 20
21.5488069263
 10
-22.5057647579
 20
21.5619227551
 10
-22.4955979309
 20
21.5747141703
 10
-22.4850187853
 20
21.5871675061
 10
-22.4740386232
 20
21.5992694584
 10
-22.4626691751
 20
21.6110070981
 10
-22.4509225874
 20
21.6223678854
 10
-22.4388114094
 20
21.6333396833
 10
-22.4263485799
 20
21.6439107702
 10
-22.4135474133
 20
21.6540698525
 10
-22.4004215858
 20
21.663806077
 10
-22.38698512
 20
21.6731090421
 10
-22.3732523706
 20
21.6819688092
 10
-22.3592380089
 20
21.6903759129
 10
-22.3449570068
 20
21.6983213717
 10
-22.3304246213
 20
21.7057966971
 10
-22.3156563779
 20
21.7127939031
 10
-22.300668054
 20
21.7193055142
 10
-22.2854756622
 20
21.7253245738
 10
-22.270095433
 20
21.7308446515
 10
-22.2545437978
 20
21.7358598501
 10
-22.2388373709
 20
21.7403648117
 10
-22.2229929321
 20
21.7443547234
 10
-22.2070274085
 20
21.7478253226
 10
-22.1909578567
 20
21.7507729016
 10
-22.1748014444
 20
21.7531943114
 10
-22.1585754321
 20
21.755086965
 10
-22.1422971546
 20
21.7564488406
 10
-22.1259840026
 20
21.7572784832
 10
-22.109653404
 20
21.7575750063
  0
LWPOLYLINE
  5
270
100
AcDbEntity
  8
ASSI
100
AcDbPolyline
 62
253
  6
CONTINUOUS
 90
43
 70
0
 10
-22.5554912427
 20
-0.6948327723
 10
-22.5553137485
 20
-0.6854871407
 10
-22.5547872034
 20
-0.6761545748
 10
-22.5539123434
 20
-0.6668481219
 10
-22.5526903916
 20
-0.6575807928
 10
-22.5511230564
 20
-0.6483655438
 10
-22.549212529
 20
-0.6392152583
 10
-22.5469614804
 20
-0.6301427287
 10
-22.5443730576
 20
-0.6211606389
 10
-22.5414508795
 20
-0.6122815463
 10
-22.5381990314
 20
-0.6035178643
 10
-22.5346220595
 20
-0.594881845
 10
-22.5307249645
 20
-0.5863855618
 10
-22.5265131949
 20
-0.5780408931
 10
-22.5219926388
 20
-0.5698595051
 10
-22.5171696163
 20
-0.5618528357
 10
-22.5120508701
 20
-0.5540320787
 10
-22.5066435565
 20
-0.5464081678
 10
-22.5009552351
 20
-0.5389917617
 10
-22.4949938586
 20
-0.5317932289
 10
-22.4887677613
 20
-0.5248226332
 10
-22.4822856474
 20
-0.5180897198
 10
-22.4755565793
 20
-0.5116039018
 10
-22.4685899646
 20
-0.5053742465
 10
-22.461395543
 20
-0.4994094634
 10
-22.4539833725
 20
-0.4937178915
 10
-22.4463638158
 20
-0.488307488
 10
-22.4385475254
 20
-0.4831858167
 10
-22.4305454288
 20
-0.4783600381
 10
-22.4223687133
 20
-0.4738368987
 10
-22.4140288103
 20
-0.4696227223
 10
-22.4055373796
 20
-0.4657234004
 10
-22.3969062924
 20
-0.4621443844
 10
-22.3881476155
 20
-0.458890678
 10
-22.3792735939
 20
-0.4559668301
 10
-22.370296634
 20
-0.4533769282
 10
-22.3612292859
 20
-0.4511245933
 10
-22.3520842262
 20
-0.4492129741
 10
-22.3428742402
 20
-0.4476447433
 10
-22.3336122039
 20
-0.4464220932
 10
-22.3243110661
 20
-0.4455467332
 10
-22.3149838301
 20
-0.4450198872
 10
-22.305643536
 20
-0.4448422916
  0
LINE
  5
271
100
AcDbEntity
  8
ASSI
100
AcDbLine
 62
253
  6
CONTINUOUS
 10
-22.5953972459
 20
-21.6199597983
 11
-22.5945015287
 21
-21.5728410641
  0
LINE
  5
272
100
AcDbEntity
  8
ASSI
100
AcDbLine
 62
253
  6
CONTINUOUS
 10
-22.0997286342
 20
-22.1416929538
 11
-22.0979947254
 21
-22.051591858
  0
LINE
  5
273
100
AcDbEntity
  8
ASSI
100
AcDbLine
 62
253
  6
CONTINUOUS
 10
-22.5964641463
 20
-21.6640595812
 11
-22.5953972459
 21
-21.6199597983
  0
LINE
  5
274
100
AcDbEntity
  8
ASSI
100
AcDbLine
 62
253
  6
CONTINUOUS
 10
-22.1012580542
 20
-22.2036941204
 11
-22.0997286342
 21
-22.1416929538
  0
LINE
  5
275
100
AcDbEntity
  8
ASSI
100
AcDbLine
 62
253
  6
CONTINUOUS
 10
-22.5973693793
 20
-21.6948483657
 11
-22.5964641463
 21
-21.6640595812
  0
LINE
  5
276
100
AcDbEntity
  8
ASSI
100
AcDbLine
 62
253
  6
CONTINUOUS
 10
-22.1024763657
 20
-22.2438375263
 11
-22.1012580542
 21
-22.2036941204
  0
LINE
  5
277
100
AcDbEntity
  8
ASSI
100
AcDbLine
 62
253
  6
CONTINUOUS
 10
-22.5983581711
 20
-21.7234527919
 11
-22.5973693793
 21
-21.6948483657
  0
LINE
  5
278
100
AcDbEntity
  8
ASSI
100
AcDbLine
 62
253
  6
CONTINUOUS
 10
-22.103318008
 20
-22.2674243584
 11
-22.1024763657
 21
-22.2438375263
  0
LINE
  5
279
100
AcDbEntity
  8
ASSI
100
AcDbLine
 62
253
  6
CONTINUOUS
 10
-22.599060725
 20
-21.7412190937
 11
-22.5983581711
 21
-21.7234527919
  0
LINE
  5
27A
100
AcDbEntity
  8
ASSI
100
AcDbLine
 62
253
  6
CONTINUOUS
 10
-22.1041808408
 20
-22.2883903835
 11
-22.103318008
 21
-22.2674243584
  0
LINE
  5
27B
100
AcDbEntity
  8
ASSI
100
AcDbLine
 62
253
  6
CONTINUOUS
 10
-22.5997955802
 20
-21.7578797076
 11
-22.599060725
 21
-21.7412190937
  0
LINE
  5
27C
100
AcDbEntity
  8
ASSI
100
AcDbLine
 62
253
  6
CONTINUOUS
 10
-22.600560316
 20
-21.7733821737
 11
-22.5997955802
 21
-21.7578797076
  0
LINE
  5
27D
100
AcDbEntity
  8
ASSI
100
AcDbLine
 62
253
  6
CONTINUOUS
 10
-22.6013532824
 20
-21.7876930105
 11
-22.600560316
 21
-21.7733821737
  0
LINE
  5
27E
100
AcDbEntity
  8
ASSI
100
AcDbLine
 62
7
  6
CONTINUOUS
 10
3.0563631632
 20
-22.5076067061
 11
3.4045818372
 21
-22.4759978746
  0
LINE
  5
27F
100
AcDbEntity
  8
ASSI
100
AcDbLine
 62
7
  6
CONTINUOUS
 10
-8.2436368368
 20
-22.5076067061
 11
-7.8954181628
 21
-22.4759978746
  0
LINE
  5
280
100
AcDbEntity
  8
ASSI
100
AcDbLine
 62
7
  6
CONTINUOUS
 10
21.4350986693
 20
-22.5076067061
 11
18.668270565
 21
-22.5076067061
  0
LINE
  5
281
100
AcDbEntity
  8
ASSI
100
AcDbLine
 62
7
  6
CONTINUOUS
 10
14.2563631632
 20
-22.5076067061
 11
7.468270565
 21
-22.5076067061
  0
LINE
  5
282
100
AcDbEntity
  8
ASSI
100
AcDbLine
 62
7
  6
CONTINUOUS
 10
3.0563631632
 20
-22.5076067061
 11
-3.831729435
 21
-22.5076067061
  0
LINE
  5
283
100
AcDbEntity
  8
ASSI
100
AcDbLine
 62
7
  6
CONTINUOUS
 10
-8.2436368368
 20
-22.5076067061
 11
-15.031729435
 21
-22.5076067061
  0
LINE
  5
284
100
AcDbEntity
  8
ASSI
100
AcDbLine
 62
7
  6
CONTINUOUS
 10
-19.4436368368
 20
-22.5076067061
 11
-22.2104649412
 21
-22.5076067061
  0
LINE
  5
285
100
AcDbEntity
  8
ASSI
100
AcDbLine
 62
7
  6
CONTINUOUS
 10
18.1468468103
 20
-22.4707570967
 11
14.7777869179
 21
-22.4707570967
  0
LINE
  5
286
100
AcDbEntity
  8
ASSI
100
AcDbLine
 62
7
  6
CONTINUOUS
 10
6.9468468103
 20
-22.4707570967
 11
3.5777869179
 21
-22.4707570967
  0
LINE
  5
287
100
AcDbEntity
  8
ASSI
100
AcDbLine
 62
7
  6
CONTINUOUS
 10
-4.3531531897
 20
-22.4707570967
 11
-7.7222130821
 21
-22.4707570967
  0
LINE
  5
288
100
AcDbEntity
  8
ASSI
100
AcDbLine
 62
7
  6
CONTINUOUS
 10
-15.5531531897
 20
-22.4707570967
 11
-18.9222130821
 21
-22.4707570967
  0
LINE
  5
289
100
AcDbEntity
  8
ASSI
100
AcDbLine
 62
253
  6
CONTINUOUS
 10
-22.109653404
 20
-22.3563125375
 11
21.3342871322
 21
-22.3563125375
  0
LINE
  5
28A
100
AcDbEntity
  8
ASSI
100
AcDbLine
 62
253
  6
CONTINUOUS
 10
-22.0933019483
 20
-21.5067651852
 11
21.3179356765
 21
-21.5067651852
  0
LINE
  5
28B
100
AcDbEntity
  8
ASSI
100
AcDbLine
 62
7
  6
CONTINUOUS
 10
-3.831729435
 20
-22.5076067061
 11
-4.179948109
 21
-22.4759978746
  0
LINE
  5
28C
100
AcDbEntity
  8
ASSI
100
AcDbLine
 62
7
  6
CONTINUOUS
 10
7.468270565
 20
-22.5076067061
 11
7.120051891
 21
-22.4759978746
  0
LWPOLYLINE
  5
28D
100
AcDbEntity
  8
ASSI
100
AcDbPolyline
 62
253
  6
CONTINUOUS
 90
17
 70
0
 10
-22.6021719443
 20
21.2020265757
 10
-22.6025900098
 20
21.208083933
 10
-22.6030136137
 20
21.2138172005
 10
-22.6034427438
 20
21.2192270772
 10
-22.6038764731
 20
21.2243018695
 10
-22.604314811
 20
21.229040848
 10
-22.6047577482
 20
21.233444742
 10
-22.60520433
 20
21.2375040463
 10
-22.6056545657
 20
21.2412180242
 10
-22.6061084461
 20
21.2445874123
 10
-22.6065649883
 20
21.2476049159
 10
-22.6070242112
 20
21.2502697898
 10
-22.6074860958
 20
21.2525827792
 10
-22.6079496027
 20
21.2545388247
 10
-22.6084143853
 20
21.2561362399
 10
-22.6088807903
 20
21.2573767114
 10
-22.6093488175
 20
21.258260239
  0
LWPOLYLINE
  5
28E
100
AcDbEntity
  8
ASSI
100
AcDbPolyline
 62
253
  6
CONTINUOUS
 90
11
 70
0
 10
-22.1050620797
 20
21.7079375466
 10
-22.1055086463
 20
21.7160576535
 10
-22.1059588758
 20
21.7234883228
 10
-22.1064127534
 20
21.730224163
 10
-22.106869285
 20
21.7362602728
 10
-22.1073284657
 20
21.741592283
 10
-22.1077903002
 20
21.7462163871
 10
-22.1082538093
 20
21.7501292851
 10
-22.1087186664
 20
21.7533281524
 10
-22.109185198
 20
21.7558106601
 10
-22.109653404
 20
21.7575750063
  0
LINE
  5
28F
100
AcDbEntity
  8
ASSI
100
AcDbLine
 62
253
  6
CONTINUOUS
 10
-22.1041808408
 20
21.6896528523
 11
-22.1050620797
 21
21.7079375466
  0
LINE
  5
290
100
AcDbEntity
  8
ASSI
100
AcDbLine
 62
7
  6
CONTINUOUS
 10
-19.4436368368
 20
-22.5076067061
 11
-19.0954181628
 21
-22.4759978746
  0
LINE
  5
291
100
AcDbEntity
  8
ASSI
100
AcDbLine
 62
7
  6
CONTINUOUS
 10
18.668270565
 20
-22.5076067061
 11
18.320051891
 21
-22.4759978746
  0
LWPOLYLINE
  5
292
100
AcDbEntity
  8
ASSI
100
AcDbPolyline
 62
253
  6
CONTINUOUS
 90
11
 70
0
 10
-22.558634508
 20
9.1911312344
 10
-22.5578205624
 20
9.1914353472
 10
-22.5564958749
 20
9.1917391486
 10
-22.5546618017
 20
9.1920423276
 10
-22.5523202204
 20
9.1923445739
 10
-22.5494735284
 20
9.192645578
 10
-22.5461246399
 20
9.1929450317
 10
-22.5422769836
 20
9.1932426286
 10
-22.5379344984
 20
9.1935380638
 10
-22.5331016302
 20
9.193831035
 10
-22.5277833267
 20
9.1941212422
  0
LWPOLYLINE
  5
293
100
AcDbEntity
  8
ASSI
100
AcDbPolyline
 62
253
  6
CONTINUOUS
 90
13
 70
0
 10
-22.558634508
 20
-9.7898687656
 10
-22.5578205624
 20
-9.7901728783
 10
-22.5564958749
 20
-9.7904766797
 10
-22.5546618017
 20
-9.7907798588
 10
-22.5523202205
 20
-9.7910821051
 10
-22.5494735284
 20
-9.7913831092
 10
-22.54612464
 20
-9.7916825629
 10
-22.5422769836
 20
-9.7919801597
 10
-22.5379344985
 20
-9.792275595
 10
-22.5331016303
 20
-9.7925685662
 10
-22.5277833268
 20
-9.7928587734
 10
-22.5219850327
 20
-9.7931459195
 10
-22.5089727028
 20
-9.793709856
  0
LWPOLYLINE
  5
294
100
AcDbEntity
  8
ASSI
100
AcDbPolyline
 62
253
  6
CONTINUOUS
 90
12
 70
0
 10
-22.109653404
 20
-22.3563125375
 10
-22.109185198
 20
-22.3545481913
 10
-22.1087186664
 20
-22.3520656836
 10
-22.1082538093
 20
-22.3488668163
 10
-22.1077903002
 20
-22.3449539182
 10
-22.1073284657
 20
-22.3403298142
 10
-22.106869285
 20
-22.3349978039
 10
-22.1064127534
 20
-22.3289616941
 10
-22.1059588758
 20
-22.3222258539
 10
-22.1055086463
 20
-22.3147951847
 10
-22.1050620797
 20
-22.3066750777
 10
-22.1041808408
 20
-22.2883903835
  0
LWPOLYLINE
  5
295
100
AcDbEntity
  8
0
100
AcDbPolyline
 62
253
  6
CONTINUOUS
 90
37
 70
0
 10
-12.3876831359
 20
12.7006312344
 10
-12.3995603324
 20
12.6741167002
 10
-12.4107397134
 20
12.6474605278
 10
-12.4212264423
 20
12.6206575094
 10
-12.4310256822
 20
12.5937024371
 10
-12.4401425964
 20
12.5665901031
 10
-12.448582348
 20
12.5393152994
 10
-12.4563501003
 20
12.5118728182
 10
-12.4634510166
 20
12.4842574515
 10
-12.4698902599
 20
12.4564639915
 10
-12.4756712969
 20
12.4284915005
 10
-12.4807908066
 20
12.4003561216
 10
-12.4852437714
 20
12.3720782679
 10
-12.4890251739
 20
12.3436783528
 10
-12.4921299963
 20
12.3151767895
 10
-12.4945532211
 20
12.2865939913
 10
-12.4962898307
 20
12.2579503713
 10
-12.4973348075
 20
12.2292663428
 10
-12.4976831339
 20
12.2005623191
 10
-12.497331475
 20
12.1718587144
 10
-12.4962832264
 20
12.1431759471
 10
-12.4945434666
 20
12.1145344364
 10
-12.4921172738
 20
12.0859546018
 10
-12.4890097264
 20
12.0574568625
 10
-12.4852259027
 20
12.0290616379
 10
-12.4807708811
 20
12.0007893472
 10
-12.47564974
 20
11.9726604099
 10
-12.4698675577
 20
11.9446952453
 10
-12.4634277172
 20
11.9169099976
 10
-12.4563268205
 20
11.8893037112
 10
-12.4485597745
 20
11.8618711551
 10
-12.4401214857
 20
11.8346070988
 10
-12.4310068609
 20
11.8075063113
 10
-12.4212108068
 20
11.7805635619
 10
-12.4107282301
 20
11.7537736198
 10
-12.3995540376
 20
11.7271312542
 10
-12.3876831359
 20
11.7006312344
  0
LWPOLYLINE
  5
296
100
AcDbEntity
  8
0
100
AcDbPolyline
 62
253
  6
CONTINUOUS
 90
37
 70
0
 10
-10.8876831359
 20
11.7006312344
 10
-10.8758122462
 20
11.7271312261
 10
-10.8646380634
 20
11.7537735646
 10
-10.8541554943
 20
11.7805634809
 10
-10.8443594459
 20
11.8075062061
 10
-10.8352448251
 20
11.8346069715
 10
-10.8268065388
 20
11.8618710082
 10
-10.8190394938
 20
11.8893035472
 10
-10.8119385971
 20
11.9169098198
 10
-10.8054987556
 20
11.9446950571
 10
-10.7997165713
 20
11.9726602149
 10
-10.7945954276
 20
12.0007891485
 10
-10.7901404026
 20
12.0290614376
 10
-10.7863565749
 20
12.057456662
 10
-10.7832490228
 20
12.0859544017
 10
-10.7808228246
 20
12.1145342366
 10
-10.7790830589
 20
12.1431757464
 10
-10.7780348038
 20
12.1718585111
 10
-10.7776831379
 20
12.2005621105
 10
-10.7780314569
 20
12.2292661257
 10
-10.779076426
 20
12.2579501435
 10
-10.7808130278
 20
12.2865937515
 10
-10.783236245
 20
12.3151765378
 10
-10.7863410601
 20
12.3436780901
 10
-10.7901224557
 20
12.3720779965
 10
-10.7945754144
 20
12.4003558447
 10
-10.7996949189
 20
12.4284912226
 10
-10.8054759518
 20
12.4564637181
 10
-10.8119151924
 20
12.484257189
 10
-10.8190161075
 20
12.5118725728
 10
-10.8267838606
 20
12.5393150767
 10
-10.8352236153
 20
12.5665899082
 10
-10.8443405351
 20
12.5937022744
 10
-10.8541397835
 20
12.6206573828
 10
-10.8646265241
 20
12.6474604408
 10
-10.8758059204
 20
12.6741166555
 10
-10.8876831359
 20
12.7006312344
  0
LWPOLYLINE
  5
297
100
AcDbEntity
  8
0
100
AcDbPolyline
 62
253
  6
CONTINUOUS
 90
37
 70
0
 10
-9.2876831359
 20
12.7006312344
 10
-9.2995603324
 20
12.6741167002
 10
-9.3107397134
 20
12.6474605278
 10
-9.3212264423
 20
12.6206575094
 10
-9.3310256822
 20
12.5937024371
 10
-9.3401425964
 20
12.5665901031
 10
-9.348582348
 20
12.5393152994
 10
-9.3563501003
 20
12.5118728182
 10
-9.3634510166
 20
12.4842574515
 10
-9.3698902599
 20
12.4564639915
 10
-9.3756712969
 20
12.4284915005
 10
-9.3807908066
 20
12.4003561216
 10
-9.3852437714
 20
12.3720782679
 10
-9.3890251739
 20
12.3436783528
 10
-9.3921299963
 20
12.3151767895
 10
-9.3945532211
 20
12.2865939913
 10
-9.3962898307
 20
12.2579503713
 10
-9.3973348075
 20
12.2292663428
 10
-9.3976831339
 20
12.2005623191
 10
-9.397331475
 20
12.1718587144
 10
-9.3962832264
 20
12.1431759471
 10
-9.3945434666
 20
12.1145344364
 10
-9.3921172738
 20
12.0859546018
 10
-9.3890097264
 20
12.0574568625
 10
-9.3852259027
 20
12.0290616379
 10
-9.3807708811
 20
12.0007893472
 10
-9.37564974
 20
11.9726604099
 10
-9.3698675577
 20
11.9446952453
 10
-9.3634277172
 20
11.9169099976
 10
-9.3563268205
 20
11.8893037112
 10
-9.3485597745
 20
11.8618711551
 10
-9.3401214857
 20
11.8346070988
 10
-9.3310068609
 20
11.8075063113
 10
-9.3212108068
 20
11.7805635619
 10
-9.3107282301
 20
11.7537736198
 10
-9.2995540376
 20
11.7271312542
 10
-9.2876831359
 20
11.7006312344
  0
LINE
  5
298
100
AcDbEntity
  8
0
100
AcDbLine
 62
253
  6
CONTINUOUS
 10
-15.2376831359
 20
-13.2993687656
 11
-13.9876831359
 21
-13.2993687656
  0
LINE
  5
299
100
AcDbEntity
  8
0
100
AcDbLine
 62
253
  6
CONTINUOUS
 10
-12.3876831359
 20
-13.2993687656
 11
-10.8876831359
 21
-13.2993687656
  0
LINE
  5
29A
100
AcDbEntity
  8
0
100
AcDbLine
 62
253
  6
CONTINUOUS
 10
-8.0376831359
 20
-13.2993687656
 11
-9.2876831359
 21
-13.2993687656
  0
LWPOLYLINE
  5
29B
100
AcDbEntity
  8
0
100
AcDbPolyline
 62
253
  6
CONTINUOUS
 90
37
 70
0
 10
-9.2876831359
 20
-13.2993687656
 10
-9.2995603526
 20
-13.272854184
 10
-9.3107397498
 20
-13.2461979666
 10
-9.3212264912
 20
-13.2193949061
 10
-9.3310257402
 20
-13.1924397951
 10
-9.3401426604
 20
-13.1653274263
 10
-9.3485824155
 20
-13.1380525925
 10
-9.3563501688
 20
-13.1106100864
 10
-9.3634510841
 20
-13.0829947006
 10
-9.3698903247
 20
-13.0552012279
 10
-9.3756713576
 20
-13.0272287309
 10
-9.3807908619
 20
-12.9990933516
 10
-9.3852438205
 20
-12.9708155022
 10
-9.3890252158
 20
-12.9424155946
 10
-9.3921300304
 20
-12.9139140409
 10
-9.3945532469
 20
-12.885331253
 10
-9.3962898479
 20
-12.856687643
 10
-9.3973348161
 20
-12.828003623
 10
-9.3976831339
 20
-12.7992996049
 10
-9.3973314666
 20
-12.7705960022
 10
-9.3962832101
 20
-12.7419132338
 10
-9.3945434427
 20
-12.7132717202
 10
-9.3921172429
 20
-12.6846918816
 10
-9.3890096891
 20
-12.6561941385
 10
-9.3852258598
 20
-12.6277989113
 10
-9.3807708334
 20
-12.5995266203
 10
-9.3756496884
 20
-12.571397686
 10
-9.3698675031
 20
-12.5434325286
 10
-9.3634276609
 20
-12.5156472934
 10
-9.3563267638
 20
-12.4880410242
 10
-9.348559719
 20
-12.4606084899
 10
-9.3401214333
 20
-12.4333444592
 10
-9.3310068137
 20
-12.4062437009
 10
-9.3212107671
 20
-12.3793009836
 10
-9.3107282007
 20
-12.3525110761
 10
-9.2995540213
 20
-12.3258687472
 10
-9.2876831359
 20
-12.2993687656
  0
LWPOLYLINE
  5
29C
100
AcDbEntity
  8
0
100
AcDbPolyline
 62
253
  6
CONTINUOUS
 90
37
 70
0
 10
-8.0376831359
 20
11.7006312344
 10
-8.0258122462
 20
11.7271312261
 10
-8.0146380634
 20
11.7537735646
 10
-8.0041554943
 20
11.7805634809
 10
-7.9943594459
 20
11.8075062061
 10
-7.9852448251
 20
11.8346069715
 10
-7.9768065388
 20
11.8618710082
 10
-7.9690394938
 20
11.8893035472
 10
-7.9619385971
 20
11.9169098198
 10
-7.9554987556
 20
11.9446950571
 10
-7.9497165713
 20
11.9726602149
 10
-7.9445954276
 20
12.0007891485
 10
-7.9401404026
 20
12.0290614376
 10
-7.9363565749
 20
12.057456662
 10
-7.9332490228
 20
12.0859544017
 10
-7.9308228246
 20
12.1145342366
 10
-7.9290830589
 20
12.1431757464
 10
-7.9280348038
 20
12.1718585111
 10
-7.9276831379
 20
12.2005621105
 10
-7.9280314569
 20
12.2292661257
 10
-7.929076426
 20
12.2579501435
 10
-7.9308130278
 20
12.2865937515
 10
-7.933236245
 20
12.3151765378
 10
-7.9363410601
 20
12.3436780901
 10
-7.9401224557
 20
12.3720779965
 10
-7.9445754144
 20
12.4003558447
 10
-7.9496949189
 20
12.4284912226
 10
-7.9554759518
 20
12.4564637181
 10
-7.9619151924
 20
12.484257189
 10
-7.9690161075
 20
12.5118725728
 10
-7.9767838606
 20
12.5393150767
 10
-7.9852236153
 20
12.5665899082
 10
-7.9943405351
 20
12.5937022744
 10
-8.0041397835
 20
12.6206573828
 10
-8.0146265241
 20
12.6474604408
 10
-8.0258059204
 20
12.6741166555
 10
-8.0376831359
 20
12.7006312344
  0
LINE
  5
29D
100
AcDbEntity
  8
ASSI
100
AcDbLine
 62
253
  6
CONTINUOUS
 10
21.7524170548
 20
-9.7928587734
 11
21.7403464123
 21
-9.7934297106
  0
LWPOLYLINE
  5
29E
100
AcDbEntity
  8
ASSI
100
AcDbPolyline
 62
253
  6
CONTINUOUS
 90
3
 70
0
 10
21.7403464123
 20
-9.7934297106
 10
21.7264057167
 20
-9.793986069
 10
21.7187516417
 20
-9.7942580669
  0
LINE
  5
29F
100
AcDbEntity
  8
0
100
AcDbLine
 62
253
  6
CONTINUOUS
 10
-9.2876831359
 20
-12.2993687656
 11
-8.0376831359
 21
-12.2993687656
  0
LINE
  5
2A0
100
AcDbEntity
  8
0
100
AcDbLine
 62
253
  6
CONTINUOUS
 10
-10.8876831359
 20
-12.2993687656
 11
-12.3876831359
 21
-12.2993687656
  0
LINE
  5
2A1
100
AcDbEntity
  8
0
100
AcDbLine
 62
253
  6
CONTINUOUS
 10
-13.9876831359
 20
-12.2993687656
 11
-15.2376831359
 21
-12.2993687656
  0
LINE
  5
2A2
100
AcDbEntity
  8
ASSI
100
AcDbLine
 62
253
  6
CONTINUOUS
 10
-22.5089727028
 20
-9.793709856
 11
-22.4941179137
 21
-9.7942580669
  0
LWPOLYLINE
  5
2A3
100
AcDbEntity
  8
0
100
AcDbPolyline
 62
253
  6
CONTINUOUS
 90
37
 70
0
 10
-8.0376831359
 20
-12.2993687656
 10
-8.0258122396
 20
-12.3258687728
 10
-8.0146380514
 20
-12.3525111264
 10
-8.0041554781
 20
-12.3793010573
 10
-7.9943594264
 20
-12.4062437964
 10
-7.9852448032
 20
-12.4333445747
 10
-7.9768065153
 20
-12.4606086231
 10
-7.9690394695
 20
-12.4880411725
 10
-7.9619385726
 20
-12.515647454
 10
-7.9554987314
 20
-12.5434326983
 10
-7.9497165479
 20
-12.5713978614
 10
-7.9445954053
 20
-12.5995267987
 10
-7.9401403821
 20
-12.6277990905
 10
-7.9363565565
 20
-12.6561943173
 10
-7.933249007
 20
-12.6846920592
 10
-7.930822812
 20
-12.7132718968
 10
-7.9290830499
 20
-12.7419134102
 10
-7.9280347991
 20
-12.77059618
 10
-7.9276831379
 20
-12.7992997863
 10
-7.9280314622
 20
-12.8280038107
 10
-7.9290764369
 20
-12.8566878392
 10
-7.9308130446
 20
-12.8853314586
 10
-7.9332362676
 20
-12.9139142561
 10
-7.9363410884
 20
-12.9424158186
 10
-7.9401224894
 20
-12.9708157331
 10
-7.9445754531
 20
-12.9990935868
 10
-7.9496949618
 20
-13.0272289666
 10
-7.955475998
 20
-13.0552014595
 10
-7.9619152409
 20
-13.0829949228
 10
-7.9690161571
 20
-13.1106102939
 10
-7.9767839097
 20
-13.1380527807
 10
-7.9852236622
 20
-13.165327591
 10
-7.9943405776
 20
-13.1924399324
 10
-8.0041398195
 20
-13.2193950129
 10
-8.0146265509
 20
-13.24619804
 10
-8.0258059353
 20
-13.2728542217
 10
-8.0376831359
 20
-13.2993687656
  0
LWPOLYLINE
  5
2A4
100
AcDbEntity
  8
0
100
AcDbPolyline
 62
253
  6
CONTINUOUS
 90
37
 70
0
 10
-15.2376831359
 20
-12.2993687656
 10
-15.2495540256
 20
-12.3258687573
 10
-15.2607282085
 20
-12.3525110957
 10
-15.2712107775
 20
-12.379301012
 10
-15.2810068259
 20
-12.4062437373
 10
-15.2901214467
 20
-12.4333445027
 10
-15.2985597331
 20
-12.4606085394
 10
-15.306326778
 20
-12.4880410784
 10
-15.3134276747
 20
-12.515647351
 10
-15.3198675163
 20
-12.5434325883
 10
-15.3256497005
 20
-12.5713977461
 10
-15.3307708442
 20
-12.5995266797
 10
-15.3352258692
 20
-12.6277989687
 10
-15.3390096969
 20
-12.6561941932
 10
-15.342117249
 20
-12.6846919329
 10
-15.3445434472
 20
-12.7132717678
 10
-15.346283213
 20
-12.7419132776
 10
-15.347331468
 20
-12.7705960423
 10
-15.3476831339
 20
-12.7992996416
 10
-15.3473348149
 20
-12.8280036569
 10
-15.3462898458
 20
-12.8566876746
 10
-15.344553244
 20
-12.8853312827
 10
-15.3421300268
 20
-12.913914069
 10
-15.3390252118
 20
-12.9424156213
 10
-15.3352438161
 20
-12.9708155276
 10
-15.3307908574
 20
-12.9990933758
 10
-15.3256713529
 20
-13.0272287537
 10
-15.3198903201
 20
-13.0552012493
 10
-15.3134510794
 20
-13.0829947202
 10
-15.3063501643
 20
-13.110610104
 10
-15.2985824112
 20
-13.1380526079
 10
-15.2901426565
 20
-13.1653274393
 10
-15.2810257367
 20
-13.1924398056
 10
-15.2712264883
 20
-13.219394914
 10
-15.2607397477
 20
-13.2461979719
 10
-15.2495603514
 20
-13.2728541867
 10
-15.2376831359
 20
-13.2993687656
  0
LWPOLYLINE
  5
2A5
100
AcDbEntity
  8
ASSI
100
AcDbPolyline
 62
253
  6
CONTINUOUS
 90
18
 70
0
 10
-22.6093488175
 20
-21.8569977701
 10
-22.6088807903
 20
-21.8561142425
 10
-22.6084143853
 20
-21.8548737711
 10
-22.6079496027
 20
-21.8532763558
 10
-22.6074860958
 20
-21.8513203103
 10
-22.6070242112
 20
-21.849007321
 10
-22.6065649883
 20
-21.8463424471
 10
-22.6061084461
 20
-21.8433249435
 10
-22.6056545657
 20
-21.8399555553
 10
-22.60520433
 20
-21.8362415775
 10
-22.6047577482
 20
-21.8321822732
 10
-22.604314811
 20
-21.8277783791
 10
-22.6038764731
 20
-21.8230394007
 10
-22.6034427438
 20
-21.8179646084
 10
-22.6030136137
 20
-21.8125547317
 10
-22.6025900098
 20
-21.8068214642
 10
-22.6021719443
 20
-21.8007641069
 10
-22.6013532824
 20
-21.7876930105
  0
LINE
  5
2A6
100
AcDbEntity
  8
ASSI
100
AcDbLine
 62
253
  6
CONTINUOUS
 10
21.7187516417
 20
-9.7942580669
 11
21.6931498844
 21
-9.7950460079
  0
LINE
  5
2A7
100
AcDbEntity
  8
ASSI
100
AcDbLine
 62
253
  6
CONTINUOUS
 10
21.6931498844
 20
-9.7950460079
 11
21.663776873
 21
-9.7957862786
  0
LINE
  5
2A8
100
AcDbEntity
  8
ASSI
100
AcDbLine
 62
253
  6
CONTINUOUS
 10
21.663776873
 20
-9.7957862786
 11
21.6192186145
 21
-9.7966874423
  0
LINE
  5
2A9
100
AcDbEntity
  8
ASSI
100
AcDbLine
 62
253
  6
CONTINUOUS
 10
21.6192186145
 20
-9.7966874423
 11
21.5558932713
 21
-9.7976554732
  0
LINE
  5
2AA
100
AcDbEntity
  8
ASSI
100
AcDbLine
 62
253
  6
CONTINUOUS
 10
21.5558932713
 20
-9.7976554732
 11
21.4708768086
 21
-9.7985527538
  0
LINE
  5
2AB
100
AcDbEntity
  8
ASSI
100
AcDbLine
 62
253
  6
CONTINUOUS
 10
21.4708768086
 20
-9.7985527538
 11
21.3632265632
 21
-9.7991946009
  0
LINE
  5
2AC
100
AcDbEntity
  8
ASSI
100
AcDbLine
 62
253
  6
CONTINUOUS
 10
21.3632265632
 20
-9.7991946009
 11
-22.0589390944
 21
-9.7993687656
  0
LINE
  5
2AD
100
AcDbEntity
  8
ASSI
100
AcDbLine
 62
253
  6
CONTINUOUS
 10
-22.1855371588
 20
-9.7989752257
 11
-22.0589390944
 21
-9.7993687656
  0
LINE
  5
2AE
100
AcDbEntity
  8
ASSI
100
AcDbLine
 62
253
  6
CONTINUOUS
 10
-22.2898142239
 20
-9.7981422031
 11
-22.1855371588
 21
-9.7989752257
  0
LINE
  5
2AF
100
AcDbEntity
  8
ASSI
100
AcDbLine
 62
253
  6
CONTINUOUS
 10
-22.3701974234
 20
-9.7970970458
 11
-22.2898142239
 21
-9.7981422031
  0
LINE
  5
2B0
100
AcDbEntity
  8
ASSI
100
AcDbLine
 62
253
  6
CONTINUOUS
 10
-22.4175981995
 20
-9.7962499229
 11
-22.3701974234
 21
-9.7970970458
  0
LINE
  5
2B1
100
AcDbEntity
  8
ASSI
100
AcDbLine
 62
253
  6
CONTINUOUS
 10
-22.4591315168
 20
-9.7952984078
 11
-22.4175981995
 21
-9.7962499229
  0
LWPOLYLINE
  5
2B2
100
AcDbEntity
  8
ASSI
100
AcDbPolyline
 62
253
  6
CONTINUOUS
 90
3
 70
0
 10
-22.4941179137
 20
-9.7942580669
 10
-22.4860183139
 20
-9.7945255711
 10
-22.4591315168
 20
-9.7952984078
  0
LWPOLYLINE
  5
2B3
100
AcDbEntity
  8
0
100
AcDbPolyline
 62
253
  6
CONTINUOUS
 90
37
 70
0
 10
-15.2376831359
 20
11.7006312344
 10
-15.2495540322
 20
11.7271312416
 10
-15.2607282204
 20
11.7537735952
 10
-15.2712107938
 20
11.7805635261
 10
-15.2810068454
 20
11.8075062652
 10
-15.2901214686
 20
11.8346070435
 10
-15.2985597565
 20
11.8618710919
 10
-15.3063268023
 20
11.8893036414
 10
-15.3134276992
 20
11.9169099228
 10
-15.3198675405
 20
11.9446951671
 10
-15.3256497239
 20
11.9726603302
 10
-15.3307708665
 20
12.0007892675
 10
-15.3352258897
 20
12.0290615594
 10
-15.3390097153
 20
12.0574567861
 10
-15.3421172648
 20
12.085954528
 10
-15.3445434598
 20
12.1145343656
 10
-15.3462832219
 20
12.143175879
 10
-15.3473314727
 20
12.1718586488
 10
-15.3476831339
 20
12.2005622551
 10
-15.3473348097
 20
12.2292662796
 10
-15.3462898349
 20
12.257950308
 10
-15.3445532273
 20
12.2865939274
 10
-15.3421300042
 20
12.3151767249
 10
-15.3390251834
 20
12.3436782874
 10
-15.3352437824
 20
12.372078202
 10
-15.3307908188
 20
12.4003560557
 10
-15.32567131
 20
12.4284914354
 10
-15.3198902738
 20
12.4564639284
 10
-15.3134510309
 20
12.4842573916
 10
-15.3063501147
 20
12.5118727627
 10
-15.2985823621
 20
12.5393152495
 10
-15.2901426097
 20
12.5665900598
 10
-15.2810256942
 20
12.5937024013
 10
-15.2712264523
 20
12.6206574817
 10
-15.2607397209
 20
12.6474605088
 10
-15.2495603365
 20
12.6741166905
 10
-15.2376831359
 20
12.7006312344
  0
LWPOLYLINE
  5
2B4
100
AcDbEntity
  8
0
100
AcDbPolyline
 62
253
  6
CONTINUOUS
 90
37
 70
0
 10
-13.9876831359
 20
-13.2993687656
 10
-13.9758059394
 20
-13.2728542313
 10
-13.9646265584
 20
-13.246198059
 10
-13.9541398295
 20
-13.2193950406
 10
-13.9443405896
 20
-13.1924399683
 10
-13.9352236755
 20
-13.1653276343
 10
-13.9267839238
 20
-13.1380528306
 10
-13.9190161715
 20
-13.1106103493
 10
-13.9119152553
 20
-13.0829949827
 10
-13.9054760119
 20
-13.0552015227
 10
-13.8996949749
 20
-13.0272290317
 10
-13.8945754653
 20
-12.9990936527
 10
-13.8901225004
 20
-12.9708157991
 10
-13.8863410979
 20
-12.942415884
 10
-13.8832362755
 20
-12.9139143207
 10
-13.8808130507
 20
-12.8853315224
 10
-13.8790764411
 20
-12.8566879024
 10
-13.8780314643
 20
-12.828003874
 10
-13.8776831379
 20
-12.7992998503
 10
-13.8780347968
 20
-12.7705962456
 10
-13.8790830454
 20
-12.7419134783
 10
-13.8808228052
 20
-12.7132719676
 10
-13.8832489981
 20
-12.684692133
 10
-13.8863565455
 20
-12.6561943937
 10
-13.8901403691
 20
-12.627799169
 10
-13.8945953907
 20
-12.5995268784
 10
-13.8997165318
 20
-12.5713979411
 10
-13.9054987142
 20
-12.5434327765
 10
-13.9119385547
 20
-12.5156475288
 10
-13.9190394513
 20
-12.4880412423
 10
-13.9268064974
 20
-12.4606086863
 10
-13.9352447862
 20
-12.4333446299
 10
-13.944359411
 20
-12.4062438424
 10
-13.9541554651
 20
-12.379301093
 10
-13.9646380417
 20
-12.3525111509
 10
-13.9758122342
 20
-12.3258687854
 10
-13.9876831359
 20
-12.2993687656
  0
LWPOLYLINE
  5
2B5
100
AcDbEntity
  8
0
100
AcDbPolyline
 62
253
  6
CONTINUOUS
 90
37
 70
0
 10
-12.3876831359
 20
-12.2993687656
 10
-12.3995540256
 20
-12.3258687573
 10
-12.4107282085
 20
-12.3525110957
 10
-12.4212107775
 20
-12.379301012
 10
-12.4310068259
 20
-12.4062437373
 10
-12.4401214467
 20
-12.4333445027
 10
-12.4485597331
 20
-12.4606085394
 10
-12.456326778
 20
-12.4880410784
 10
-12.4634276747
 20
-12.515647351
 10
-12.4698675163
 20
-12.5434325883
 10
-12.4756497005
 20
-12.5713977461
 10
-12.4807708442
 20
-12.5995266797
 10
-12.4852258692
 20
-12.6277989687
 10
-12.4890096969
 20
-12.6561941932
 10
-12.492117249
 20
-12.6846919329
 10
-12.4945434472
 20
-12.7132717678
 10
-12.496283213
 20
-12.7419132776
 10
-12.497331468
 20
-12.7705960423
 10
-12.4976831339
 20
-12.7992996416
 10
-12.4973348149
 20
-12.8280036569
 10
-12.4962898458
 20
-12.8566876746
 10
-12.494553244
 20
-12.8853312827
 10
-12.4921300268
 20
-12.913914069
 10
-12.4890252118
 20
-12.9424156213
 10
-12.4852438161
 20
-12.9708155276
 10
-12.4807908574
 20
-12.9990933758
 10
-12.4756713529
 20
-13.0272287537
 10
-12.4698903201
 20
-13.0552012493
 10
-12.4634510794
 20
-13.0829947202
 10
-12.4563501643
 20
-13.110610104
 10
-12.4485824112
 20
-13.1380526079
 10
-12.4401426565
 20
-13.1653274393
 10
-12.4310257367
 20
-13.1924398056
 10
-12.4212264883
 20
-13.219394914
 10
-12.4107397477
 20
-13.2461979719
 10
-12.3995603514
 20
-13.2728541867
 10
-12.3876831359
 20
-13.2993687656
  0
LINE
  5
2B6
100
AcDbEntity
  8
ASSI
100
AcDbLine
 62
253
  6
CONTINUOUS
 10
-22.7113758266
 20
-22.0101160733
 11
-22.6093488175
 21
-21.8569977701
  0
LINE
  5
2B7
100
AcDbEntity
  8
ASSI
100
AcDbLine
 62
253
  6
CONTINUOUS
 10
-22.6093488175
 20
21.258260239
 11
-22.7113758266
 21
21.4113785422
  0
LWPOLYLINE
  5
2B8
100
AcDbEntity
  8
0
100
AcDbPolyline
 62
253
  6
CONTINUOUS
 90
37
 70
0
 10
-13.9876831359
 20
12.7006312344
 10
-13.9758059193
 20
12.6741166529
 10
-13.964626522
 20
12.6474604355
 10
-13.9541397807
 20
12.6206573749
 10
-13.9443405316
 20
12.5937022639
 10
-13.9352236114
 20
12.5665898951
 10
-13.9267838563
 20
12.5393150614
 10
-13.919016103
 20
12.5118725552
 10
-13.9119151877
 20
12.4842571695
 10
-13.9054759471
 20
12.4564636968
 10
-13.8996949143
 20
12.4284911997
 10
-13.8945754099
 20
12.4003558205
 10
-13.8901224513
 20
12.372077971
 10
-13.8863410561
 20
12.3436780634
 10
-13.8832362414
 20
12.3151765097
 10
-13.8808130249
 20
12.2865937218
 10
-13.8790764239
 20
12.2579501119
 10
-13.8780314557
 20
12.2292660918
 10
-13.8776831379
 20
12.2005620737
 10
-13.8780348052
 20
12.171858471
 10
-13.8790830617
 20
12.1431757026
 10
-13.8808228291
 20
12.114534189
 10
-13.8832490289
 20
12.0859543504
 10
-13.8863565827
 20
12.0574566074
 10
-13.890140412
 20
12.0290613801
 10
-13.8945954384
 20
12.0007890892
 10
-13.8997165834
 20
11.9726601548
 10
-13.9054987687
 20
11.9446949975
 10
-13.9119386109
 20
11.9169097622
 10
-13.919039508
 20
11.8893034931
 10
-13.9268065528
 20
11.8618709588
 10
-13.9352448386
 20
11.8346069281
 10
-13.9443594582
 20
11.8075061697
 10
-13.9541555047
 20
11.7805634524
 10
-13.9646380711
 20
11.753773545
 10
-13.9758122505
 20
11.727131216
 10
-13.9876831359
 20
11.7006312344
  0
LWPOLYLINE
  5
2B9
100
AcDbEntity
  8
0
100
AcDbPolyline
 62
253
  6
CONTINUOUS
 90
37
 70
0
 10
-10.8876831359
 20
-13.2993687656
 10
-10.8758059394
 20
-13.2728542313
 10
-10.8646265584
 20
-13.246198059
 10
-10.8541398295
 20
-13.2193950406
 10
-10.8443405896
 20
-13.1924399683
 10
-10.8352236755
 20
-13.1653276343
 10
-10.8267839238
 20
-13.1380528306
 10
-10.8190161715
 20
-13.1106103493
 10
-10.8119152553
 20
-13.0829949827
 10
-10.8054760119
 20
-13.0552015227
 10
-10.7996949749
 20
-13.0272290317
 10
-10.7945754653
 20
-12.9990936527
 10
-10.7901225004
 20
-12.9708157991
 10
-10.7863410979
 20
-12.942415884
 10
-10.7832362755
 20
-12.9139143207
 10
-10.7808130507
 20
-12.8853315224
 10
-10.7790764411
 20
-12.8566879024
 10
-10.7780314643
 20
-12.828003874
 10
-10.7776831379
 20
-12.7992998503
 10
-10.7780347968
 20
-12.7705962456
 10
-10.7790830454
 20
-12.7419134783
 10
-10.7808228052
 20
-12.7132719676
 10
-10.7832489981
 20
-12.684692133
 10
-10.7863565455
 20
-12.6561943937
 10
-10.7901403691
 20
-12.627799169
 10
-10.7945953907
 20
-12.5995268784
 10
-10.7997165318
 20
-12.5713979411
 10
-10.8054987142
 20
-12.5434327765
 10
-10.8119385547
 20
-12.5156475288
 10
-10.8190394513
 20
-12.4880412423
 10
-10.8268064974
 20
-12.4606086863
 10
-10.8352447862
 20
-12.4333446299
 10
-10.844359411
 20
-12.4062438424
 10
-10.8541554651
 20
-12.379301093
 10
-10.8646380417
 20
-12.3525111509
 10
-10.8758122342
 20
-12.3258687854
 10
-10.8876831359
 20
-12.2993687656
  0
LINE
  5
2BA
100
AcDbEntity
  8
ASSI
100
AcDbLine
 62
253
  6
CONTINUOUS
 10
-22.2104649412
 20
-22.5076067061
 11
-22.109653404
 21
-22.3563125375
  0
LINE
  5
2BB
100
AcDbEntity
  8
ASSI
100
AcDbLine
 62
253
  6
CONTINUOUS
 10
21.9623168641
 20
-0.6493021444
 11
21.7801250677
 21
-0.6948327481
  0
LINE
  5
2BC
100
AcDbEntity
  8
ASSI
100
AcDbLine
 62
253
  6
CONTINUOUS
 10
21.7122406623
 20
-0.3993687656
 11
21.5302772641
 21
-0.4448422916
  0
LINE
  5
2BD
100
AcDbEntity
  8
ASSI
100
AcDbLine
 62
253
  6
CONTINUOUS
 10
-22.5554913395
 20
-0.6948327481
 11
-22.7376831359
 21
-0.6493021444
  0
LINE
  5
2BE
100
AcDbEntity
  8
ASSI
100
AcDbLine
 62
253
  6
CONTINUOUS
 10
-22.305643536
 20
-0.4448422916
 11
-22.4876069342
 21
-0.3993687656
  0
LINE
  5
2BF
100
AcDbEntity
  8
ASSI
100
AcDbLine
 62
253
  6
CONTINUOUS
 10
-22.109653404
 20
21.7575750063
 11
-22.2104649412
 21
21.908869175
  0
LWPOLYLINE
  5
2C0
100
AcDbEntity
  8
ASSI
100
AcDbPolyline
 62
253
  6
CONTINUOUS
 90
8
 70
0
 10
21.5302772641
 20
-0.4448422916
 10
21.5299002148
 20
-0.4449079924
 10
21.5292983334
 20
-0.4449734504
 10
21.5284716199
 20
-0.4450386658
 10
21.527418914
 20
-0.4451036984
 10
21.5261413761
 20
-0.4451684882
 10
21.5246424869
 20
-0.4452328555
 10
21.5229216467
 20
-0.4452967979
  0
LINE
  5
2C1
100
AcDbEntity
  8
ASSI
100
AcDbLine
 62
7
  6
CONTINUOUS
 10
19.3747828547
 20
-0.3993687656
 11
19.1123168641
 21
-0.425549369
  0
LWPOLYLINE
  5
2C2
100
AcDbEntity
  8
ASSI
100
AcDbPolyline
 62
253
  6
CONTINUOUS
 90
5
 70
0
 10
21.7801250677
 20
-0.6948327592
 10
21.7793731388
 20
-0.6949044328
 10
21.7781687308
 20
-0.6949758657
 10
21.7765129407
 20
-0.695047047
 10
21.774407285
 20
-0.6951180181
  0
LINE
  5
2C3
100
AcDbEntity
  8
ASSI
100
AcDbLine
 62
7
  6
CONTINUOUS
 10
-20.1501491265
 20
-0.3993687656
 11
-19.8876831359
 21
-0.425549369
  0
LINE
  5
2C4
100
AcDbEntity
  8
ASSI
100
AcDbLine
 62
253
  6
CONTINUOUS
 10
21.5229216467
 20
-0.4452967979
 11
21.518821192
 21
-0.4454232421
  0
LINE
  5
2C5
100
AcDbEntity
  8
ASSI
100
AcDbLine
 62
253
  6
CONTINUOUS
 10
21.518821192
 20
-0.4454232421
 11
21.5138552752
 21
-0.4455473001
  0
LINE
  5
2C6
100
AcDbEntity
  8
ASSI
100
AcDbLine
 62
253
  6
CONTINUOUS
 10
21.774407285
 20
-0.6951180181
 11
21.7688543786
 21
-0.6952589728
  0
LINE
  5
2C7
100
AcDbEntity
  8
ASSI
100
AcDbLine
 62
253
  6
CONTINUOUS
 10
21.5138552752
 20
-0.4455473001
 11
21.504826998
 21
-0.4457279093
  0
LINE
  5
2C8
100
AcDbEntity
  8
ASSI
100
AcDbLine
 62
253
  6
CONTINUOUS
 10
21.7688543786
 20
-0.6952589728
 11
21.761529914
 21
-0.6953981222
  0
LINE
  5
2C9
100
AcDbEntity
  8
ASSI
100
AcDbLine
 62
253
  6
CONTINUOUS
 10
21.504826998
 20
-0.4457279093
 11
21.4857576975
 21
-0.4460107612
  0
LINE
  5
2CA
100
AcDbEntity
  8
ASSI
100
AcDbLine
 62
253
  6
CONTINUOUS
 10
21.761529914
 20
-0.6953981222
 11
21.74167939
 21
-0.6956689086
  0
LINE
  5
2CB
100
AcDbEntity
  8
ASSI
100
AcDbLine
 62
253
  6
CONTINUOUS
 10
21.4857576975
 20
-0.4460107612
 11
21.4457955441
 21
-0.4464023782
  0
LINE
  5
2CC
100
AcDbEntity
  8
ASSI
100
AcDbLine
 62
253
  6
CONTINUOUS
 10
21.74167939
 20
-0.6956689086
 11
21.6823070589
 21
-0.6961671904
  0
LINE
  5
2CD
100
AcDbEntity
  8
ASSI
100
AcDbLine
 62
253
  6
CONTINUOUS
 10
21.4457955441
 20
-0.4464023782
 11
21.3617395953
 21
-0.4468292351
  0
LINE
  5
2CE
100
AcDbEntity
  8
ASSI
100
AcDbLine
 62
253
  6
CONTINUOUS
 10
21.6823070589
 20
-0.6961671904
 11
21.457212303
 21
-0.6969809446
  0
LINE
  5
2CF
100
AcDbEntity
  8
ASSI
100
AcDbLine
 62
253
  6
CONTINUOUS
 10
-22.1974329865
 20
-0.1521735983
 11
-22.0932960006
 21
-0.1518143643
  0
LINE
  5
2D0
100
AcDbEntity
  8
ASSI
100
AcDbLine
 62
253
  6
CONTINUOUS
 10
21.3617395953
 20
-0.4468292351
 11
21.2804296102
 21
-0.4469478538
  0
LINE
  5
2D1
100
AcDbEntity
  8
ASSI
100
AcDbLine
 62
253
  6
CONTINUOUS
 10
-22.0932960006
 20
-0.1518143643
 11
-22.0557958821
 21
-0.1517896774
  0
LINE
  5
2D2
100
AcDbEntity
  8
ASSI
100
AcDbLine
 62
253
  6
CONTINUOUS
 10
21.457212303
 20
-0.6969809446
 11
-22.0557931988
 21
-0.697137219
  0
LINE
  5
2D3
100
AcDbEntity
  8
ASSI
100
AcDbLine
 62
7
  6
CONTINUOUS
 10
21.2804296102
 20
-0.4469478538
 11
-22.0557958821
 21
-0.4469478538
  0
LINE
  5
2D4
100
AcDbEntity
  8
ASSI
100
AcDbLine
 62
7
  6
CONTINUOUS
 10
19.1123168641
 20
-0.425549369
 11
-19.8876831359
 21
-0.425549369
  0
LINE
  5
2D5
100
AcDbEntity
  8
ASSI
100
AcDbLine
 62
7
  6
CONTINUOUS
 10
21.7122406623
 20
-0.3993687656
 11
19.3747828547
 21
-0.3993687656
  0
LINE
  5
2D6
100
AcDbEntity
  8
ASSI
100
AcDbLine
 62
7
  6
CONTINUOUS
 10
-20.1501491265
 20
-0.3993687656
 11
-22.4876069342
 21
-0.3993687656
  0
LINE
  5
2D7
100
AcDbEntity
  8
ASSI
100
AcDbLine
 62
7
  6
CONTINUOUS
 10
-22.4876069342
 20
-0.1993687656
 11
-20.1501491265
 21
-0.1993687656
  0
LINE
  5
2D8
100
AcDbEntity
  8
ASSI
100
AcDbLine
 62
7
  6
CONTINUOUS
 10
19.3747828547
 20
-0.1993687656
 11
21.7122406623
 21
-0.1993687656
  0
LINE
  5
2D9
100
AcDbEntity
  8
ASSI
100
AcDbLine
 62
7
  6
CONTINUOUS
 10
-19.8876831359
 20
-0.1731881622
 11
19.1123168641
 21
-0.1731881622
  0
LINE
  5
2DA
100
AcDbEntity
  8
ASSI
100
AcDbLine
 62
7
  6
CONTINUOUS
 10
-22.0557958821
 20
-0.1517896774
 11
21.2804296102
 21
-0.1517896774
  0
LINE
  5
2DB
100
AcDbEntity
  8
ASSI
100
AcDbLine
 62
253
  6
CONTINUOUS
 10
-22.0557958821
 20
-0.4469478538
 11
-22.1716457165
 21
-0.4466994629
  0
LINE
  5
2DC
100
AcDbEntity
  8
ASSI
100
AcDbLine
 62
253
  6
CONTINUOUS
 10
21.2804296102
 20
-0.1517896774
 11
21.3962794447
 21
-0.1520380682
  0
LINE
  5
2DD
100
AcDbEntity
  8
ASSI
100
AcDbLine
 62
253
  6
CONTINUOUS
 10
-22.0557931988
 20
-0.6971372198
 11
-22.4390376289
 21
-0.6962800409
  0
LINE
  5
2DE
100
AcDbEntity
  8
ASSI
100
AcDbLine
 62
253
  6
CONTINUOUS
 10
21.3962794447
 20
-0.1520380682
 11
21.4220667147
 21
-0.1521735983
  0
LINE
  5
2DF
100
AcDbEntity
  8
ASSI
100
AcDbLine
 62
253
  6
CONTINUOUS
 10
-22.1716457165
 20
-0.4466994629
 11
-22.2374042469
 21
-0.4462654974
  0
LINE
  5
2E0
100
AcDbEntity
  8
ASSI
100
AcDbLine
 62
253
  6
CONTINUOUS
 10
-22.4390376289
 20
-0.6962800409
 11
-22.5110250807
 21
-0.6957346788
  0
LINE
  5
2E1
100
AcDbEntity
  8
ASSI
100
AcDbLine
 62
253
  6
CONTINUOUS
 10
-22.2374042469
 20
-0.4462654974
 11
-22.2693344244
 21
-0.4459006743
  0
LINE
  5
2E2
100
AcDbEntity
  8
ASSI
100
AcDbLine
 62
253
  6
CONTINUOUS
 10
-22.5110250807
 20
-0.6957346788
 11
-22.5325777101
 21
-0.6954668334
  0
LINE
  5
2E3
100
AcDbEntity
  8
ASSI
100
AcDbLine
 62
253
  6
CONTINUOUS
 10
-22.5325777101
 20
-0.6954668334
 11
-22.5407783537
 21
-0.6953287787
  0
LINE
  5
2E4
100
AcDbEntity
  8
ASSI
100
AcDbLine
 62
253
  6
CONTINUOUS
 10
-22.2693344244
 20
-0.4459006743
 11
-22.2834119113
 21
-0.4456684702
  0
LWPOLYLINE
  5
2E5
100
AcDbEntity
  8
ASSI
100
AcDbPolyline
 62
253
  6
CONTINUOUS
 90
7
 70
0
 10
-22.5407783537
 20
-0.6953287787
 10
-22.5472199435
 20
-0.695188716
 10
-22.5497735568
 20
-0.6951180181
 10
-22.5518792125
 20
-0.695047047
 10
-22.5535350026
 20
-0.6949758657
 10
-22.5547394106
 20
-0.6949044328
 10
-22.5554913395
 20
-0.6948327592
  0
LINE
  5
2E6
100
AcDbEntity
  8
ASSI
100
AcDbLine
 62
253
  6
CONTINUOUS
 10
-22.2834119113
 20
-0.4456684702
 11
-22.2918125413
 21
-0.4454855689
  0
LWPOLYLINE
  5
2E7
100
AcDbEntity
  8
ASSI
100
AcDbPolyline
 62
253
  6
CONTINUOUS
 90
10
 70
0
 10
-22.2918125413
 20
-0.4454855689
 10
-22.296345727
 20
-0.4453603178
 10
-22.2982879185
 20
-0.4452967979
 10
-22.3000087587
 20
-0.4452328555
 10
-22.301507648
 20
-0.4451684882
 10
-22.3027851859
 20
-0.4451036984
 10
-22.3038378917
 20
-0.4450386658
 10
-22.3046646052
 20
-0.4449734504
 10
-22.3052664866
 20
-0.4449079924
 10
-22.305643536
 20
-0.4448422916
  0
LINE
  5
2E8
100
AcDbEntity
  8
ASSI
100
AcDbLine
 62
7
  6
CONTINUOUS
 10
-20.1501491265
 20
-0.1993687656
 11
-19.8876831359
 21
-0.1731881622
  0
LINE
  5
2E9
100
AcDbEntity
  8
ASSI
100
AcDbLine
 62
253
  6
CONTINUOUS
 10
-22.2982879185
 20
-0.1534407332
 11
-22.2941874639
 21
-0.1533142891
  0
LINE
  5
2EA
100
AcDbEntity
  8
ASSI
100
AcDbLine
 62
253
  6
CONTINUOUS
 10
-22.2941874639
 20
-0.1533142891
 11
-22.289221547
 21
-0.1531902311
  0
LINE
  5
2EB
100
AcDbEntity
  8
ASSI
100
AcDbLine
 62
253
  6
CONTINUOUS
 10
-22.5497735568
 20
0.0963804869
 11
-22.5442206504
 21
0.0965214417
  0
LINE
  5
2EC
100
AcDbEntity
  8
ASSI
100
AcDbLine
 62
253
  6
CONTINUOUS
 10
-22.289221547
 20
-0.1531902311
 11
-22.2801932698
 21
-0.1530096219
  0
LINE
  5
2ED
100
AcDbEntity
  8
ASSI
100
AcDbLine
 62
253
  6
CONTINUOUS
 10
-22.5442206504
 20
0.0965214417
 11
-22.5368961858
 21
0.096660591
  0
LINE
  5
2EE
100
AcDbEntity
  8
ASSI
100
AcDbLine
 62
253
  6
CONTINUOUS
 10
-22.2801932698
 20
-0.1530096219
 11
-22.2611239693
 21
-0.1527267699
  0
LINE
  5
2EF
100
AcDbEntity
  8
ASSI
100
AcDbLine
 62
253
  6
CONTINUOUS
 10
-22.5368961858
 20
0.096660591
 11
-22.5170456618
 21
0.0969313774
  0
LINE
  5
2F0
100
AcDbEntity
  8
ASSI
100
AcDbLine
 62
253
  6
CONTINUOUS
 10
-22.2611239693
 20
-0.1527267699
 11
-22.2211618159
 21
-0.152335153
  0
LINE
  5
2F1
100
AcDbEntity
  8
ASSI
100
AcDbLine
 62
253
  6
CONTINUOUS
 10
-22.5170456618
 20
0.0969313774
 11
-22.4576733307
 21
0.0974296592
  0
LINE
  5
2F2
100
AcDbEntity
  8
ASSI
100
AcDbLine
 62
253
  6
CONTINUOUS
 10
-22.2211618159
 20
-0.152335153
 11
-22.1974329865
 21
-0.1521735983
  0
LINE
  5
2F3
100
AcDbEntity
  8
ASSI
100
AcDbLine
 62
253
  6
CONTINUOUS
 10
-22.4576733307
 20
0.0974296592
 11
-22.2325785748
 21
0.0982434134
  0
LINE
  5
2F4
100
AcDbEntity
  8
ASSI
100
AcDbLine
 62
253
  6
CONTINUOUS
 10
-22.2325785748
 20
0.0982434134
 11
21.6223029674
 21
0.0977513357
  0
LINE
  5
2F5
100
AcDbEntity
  8
ASSI
100
AcDbLine
 62
253
  6
CONTINUOUS
 10
21.6223029674
 20
0.0977513357
 11
21.7223849545
 21
0.0971260248
  0
LINE
  5
2F6
100
AcDbEntity
  8
ASSI
100
AcDbLine
 62
253
  6
CONTINUOUS
 10
21.4220667147
 20
-0.1521735983
 11
21.472052186
 21
-0.152570173
  0
LINE
  5
2F7
100
AcDbEntity
  8
ASSI
100
AcDbLine
 62
253
  6
CONTINUOUS
 10
21.7223849545
 20
0.0971260248
 11
21.7524605965
 21
0.0967973678
  0
LINE
  5
2F8
100
AcDbEntity
  8
ASSI
100
AcDbLine
 62
253
  6
CONTINUOUS
 10
21.472052186
 20
-0.152570173
 11
21.4977882545
 21
-0.1528935199
  0
LINE
  5
2F9
100
AcDbEntity
  8
ASSI
100
AcDbLine
 62
253
  6
CONTINUOUS
 10
21.7524605965
 20
0.0967973678
 11
21.7654120819
 21
0.0965912475
  0
LINE
  5
2FA
100
AcDbEntity
  8
ASSI
100
AcDbLine
 62
253
  6
CONTINUOUS
 10
21.4977882545
 20
-0.1528935199
 11
21.5110552523
 21
-0.1531292633
  0
LWPOLYLINE
  5
2FB
100
AcDbEntity
  8
ASSI
100
AcDbPolyline
 62
253
  6
CONTINUOUS
 90
7
 70
0
 10
21.7654120819
 20
0.0965912475
 10
21.7718536717
 20
0.0964511848
 10
21.774407285
 20
0.0963804869
 10
21.7765129407
 20
0.0963095158
 10
21.7781687308
 20
0.0962383345
 10
21.7793731388
 20
0.0961669017
 10
21.7801250677
 20
0.096095228
  0
LINE
  5
2FC
100
AcDbEntity
  8
ASSI
100
AcDbLine
 62
253
  6
CONTINUOUS
 10
21.5110552523
 20
-0.1531292633
 11
21.5164462694
 21
-0.1532519623
  0
LWPOLYLINE
  5
2FD
100
AcDbEntity
  8
ASSI
100
AcDbPolyline
 62
253
  6
CONTINUOUS
 90
10
 70
0
 10
21.5164462694
 20
-0.1532519623
 10
21.5209794552
 20
-0.1533772133
 10
21.5229216467
 20
-0.1534407332
 10
21.5246424869
 20
-0.1535046757
 10
21.5261413761
 20
-0.153569043
 10
21.527418914
 20
-0.1536338328
 10
21.5284716199
 20
-0.1536988654
 10
21.5292983334
 20
-0.1537640807
 10
21.5299002148
 20
-0.1538295388
 10
21.5302772641
 20
-0.1538952396
  0
LINE
  5
2FE
100
AcDbEntity
  8
ASSI
100
AcDbLine
 62
7
  6
CONTINUOUS
 10
19.3747828547
 20
-0.1993687656
 11
19.1123168641
 21
-0.1731881622
  0
LWPOLYLINE
  5
2FF
100
AcDbEntity
  8
ASSI
100
AcDbPolyline
 62
253
  6
CONTINUOUS
 90
8
 70
0
 10
-22.305643536
 20
-0.1538952396
 10
-22.3052664866
 20
-0.1538295388
 10
-22.3046646052
 20
-0.1537640807
 10
-22.3038378917
 20
-0.1536988654
 10
-22.3027851859
 20
-0.1536338328
 10
-22.301507648
 20
-0.153569043
 10
-22.3000087587
 20
-0.1535046757
 10
-22.2982879185
 20
-0.1534407332
  0
LWPOLYLINE
  5
300
100
AcDbEntity
  8
ASSI
100
AcDbPolyline
 62
253
  6
CONTINUOUS
 90
5
 70
0
 10
-22.5554913395
 20
0.096095228
 10
-22.5547394106
 20
0.0961669017
 10
-22.5535350026
 20
0.0962383345
 10
-22.5518792125
 20
0.0963095158
 10
-22.5497735568
 20
0.0963804869
  0
LINE
  5
301
100
AcDbEntity
  8
ASSI
100
AcDbLine
 62
253
  6
CONTINUOUS
 10
21.4350986693
 20
21.908869175
 11
21.3342871322
 21
21.7575750063
  0
LINE
  5
302
100
AcDbEntity
  8
ASSI
100
AcDbLine
 62
253
  6
CONTINUOUS
 10
21.9360095547
 20
21.4113785422
 11
21.8339825457
 21
21.258260239
  0
LINE
  5
303
100
AcDbEntity
  8
ASSI
100
AcDbLine
 62
253
  6
CONTINUOUS
 10
-22.4876069342
 20
-0.1993687656
 11
-22.305643536
 21
-0.1538952396
  0
LINE
  5
304
100
AcDbEntity
  8
ASSI
100
AcDbLine
 62
253
  6
CONTINUOUS
 10
-22.7376831359
 20
0.0505646132
 11
-22.5554913395
 21
0.096095217
  0
LINE
  5
305
100
AcDbEntity
  8
ASSI
100
AcDbLine
 62
253
  6
CONTINUOUS
 10
21.5302772641
 20
-0.1538952396
 11
21.7122406623
 21
-0.1993687656
  0
LINE
  5
306
100
AcDbEntity
  8
ASSI
100
AcDbLine
 62
253
  6
CONTINUOUS
 10
21.7801250677
 20
0.096095217
 11
21.9623168641
 21
0.0505646132
  0
LINE
  5
307
100
AcDbEntity
  8
ASSI
100
AcDbLine
 62
253
  6
CONTINUOUS
 10
21.3342871322
 20
-22.3563125375
 11
21.4350986693
 21
-22.5076067061
  0
LINE
  5
308
100
AcDbEntity
  8
ASSI
100
AcDbLine
 62
253
  6
CONTINUOUS
 10
21.8339825457
 20
-21.8569977701
 11
21.9360095547
 21
-22.0101160733
  0
LWPOLYLINE
  5
309
100
AcDbEntity
  8
ASSI
100
AcDbPolyline
 62
253
  6
CONTINUOUS
 90
18
 70
0
 10
21.8339825457
 20
21.258260239
 10
21.8335145185
 20
21.2573767114
 10
21.8330481135
 20
21.2561362399
 10
21.8325833309
 20
21.2545388247
 10
21.832119824
 20
21.2525827792
 10
21.8316579394
 20
21.2502697898
 10
21.8311987165
 20
21.2476049159
 10
21.8307421743
 20
21.2445874123
 10
21.8302882939
 20
21.2412180242
 10
21.8298380581
 20
21.2375040463
 10
21.8293914764
 20
21.233444742
 10
21.8289485392
 20
21.229040848
 10
21.8285102013
 20
21.2243018695
 10
21.828076472
 20
21.2192270772
 10
21.8276473419
 20
21.2138172005
 10
21.827223738
 20
21.208083933
 10
21.8268056724
 20
21.2020265757
 10
21.8259870106
 20
21.1889554793
  0
LINE
  5
30A
100
AcDbEntity
  8
ASSI
100
AcDbLine
 62
253
  6
CONTINUOUS
 10
-22.5277833267
 20
9.1941212422
 11
-22.5157126841
 21
9.1946921794
  0
LINE
  5
30B
100
AcDbEntity
  8
ASSI
100
AcDbLine
 62
253
  6
CONTINUOUS
 10
-22.5157126841
 20
9.1946921794
 11
-22.5017719885
 21
9.1952485379
  0
LINE
  5
30C
100
AcDbEntity
  8
ASSI
100
AcDbLine
 62
253
  6
CONTINUOUS
 10
-22.5017719885
 20
9.1952485379
 11
-22.4860183138
 21
9.1957880399
  0
LINE
  5
30D
100
AcDbEntity
  8
ASSI
100
AcDbLine
 62
253
  6
CONTINUOUS
 10
-22.4860183138
 20
9.1957880399
 11
-22.4591315166
 21
9.1965608766
  0
LINE
  5
30E
100
AcDbEntity
  8
ASSI
100
AcDbLine
 62
253
  6
CONTINUOUS
 10
-22.4591315166
 20
9.1965608766
 11
-22.4175981994
 21
9.1975123917
  0
LINE
  5
30F
100
AcDbEntity
  8
ASSI
100
AcDbLine
 62
253
  6
CONTINUOUS
 10
-22.4175981994
 20
9.1975123917
 11
-22.3575193779
 21
9.1985533192
  0
LINE
  5
310
100
AcDbEntity
  8
ASSI
100
AcDbLine
 62
253
  6
CONTINUOUS
 10
-22.3575193779
 20
9.1985533192
 11
-22.2755072682
 21
9.199550188
  0
LINE
  5
311
100
AcDbEntity
  8
ASSI
100
AcDbLine
 62
253
  6
CONTINUOUS
 10
-22.2755072682
 20
9.199550188
 11
-22.1699974076
 21
9.200320252
  0
LINE
  5
312
100
AcDbEntity
  8
ASSI
100
AcDbLine
 62
253
  6
CONTINUOUS
 10
-22.1699974076
 20
9.200320252
 11
-22.0589390944
 21
9.2006312344
  0
LINE
  5
313
100
AcDbEntity
  8
ASSI
100
AcDbLine
 62
253
  6
CONTINUOUS
 10
21.3789776861
 20
9.200393402
 11
-22.0589390944
 21
9.2006312344
  0
LINE
  5
314
100
AcDbEntity
  8
ASSI
100
AcDbLine
 62
253
  6
CONTINUOUS
 10
21.485612324
 20
9.199687085
 11
21.3789776861
 21
9.200393402
  0
LINE
  5
315
100
AcDbEntity
  8
ASSI
100
AcDbLine
 62
253
  6
CONTINUOUS
 10
21.569169382
 20
9.1987395252
 11
21.485612324
 21
9.199687085
  0
LINE
  5
316
100
AcDbEntity
  8
ASSI
100
AcDbLine
 62
253
  6
CONTINUOUS
 10
21.630903065
 20
9.1977345316
 11
21.569169382
 21
9.1987395252
  0
LINE
  5
317
100
AcDbEntity
  8
ASSI
100
AcDbLine
 62
253
  6
CONTINUOUS
 10
21.6739708988
 20
9.1968077178
 11
21.630903065
 21
9.1977345316
  0
LINE
  5
318
100
AcDbEntity
  8
ASSI
100
AcDbLine
 62
253
  6
CONTINUOUS
 10
21.7021152097
 20
9.1960507766
 11
21.6739708988
 21
9.1968077178
  0
LINE
  5
319
100
AcDbEntity
  8
ASSI
100
AcDbLine
 62
253
  6
CONTINUOUS
 10
21.7187516418
 20
9.1955205357
 11
21.7021152097
 21
9.1960507766
  0
LINE
  5
31A
100
AcDbEntity
  8
ASSI
100
AcDbLine
 62
253
  6
CONTINUOUS
 10
21.733606431
 20
9.1949723248
 11
21.7187516418
 21
9.1955205357
  0
LINE
  5
31B
100
AcDbEntity
  8
0
100
AcDbLine
 62
253
  6
CONTINUOUS
 10
-12.3876831359
 20
11.7006312344
 11
-10.8876831359
 21
11.7006312344
  0
LINE
  5
31C
100
AcDbEntity
  8
0
100
AcDbLine
 62
253
  6
CONTINUOUS
 10
-9.2876831359
 20
11.7006312344
 11
-8.0376831359
 21
11.7006312344
  0
LINE
  5
31D
100
AcDbEntity
  8
0
100
AcDbLine
 62
253
  6
CONTINUOUS
 10
-13.9876831359
 20
11.7006312344
 11
-15.2376831359
 21
11.7006312344
  0
LINE
  5
31E
100
AcDbEntity
  8
0
100
AcDbLine
 62
253
  6
CONTINUOUS
 10
-15.2376831359
 20
12.7006312344
 11
-13.9876831359
 21
12.7006312344
  0
LINE
  5
31F
100
AcDbEntity
  8
0
100
AcDbLine
 62
253
  6
CONTINUOUS
 10
-8.0376831359
 20
12.7006312344
 11
-9.2876831359
 21
12.7006312344
  0
LINE
  5
320
100
AcDbEntity
  8
0
100
AcDbLine
 62
253
  6
CONTINUOUS
 10
-10.8876831359
 20
12.7006312344
 11
-12.3876831359
 21
12.7006312344
  0
LWPOLYLINE
  5
321
100
AcDbEntity
  8
ASSI
100
AcDbPolyline
 62
253
  6
CONTINUOUS
 90
13
 70
0
 10
21.3342871322
 20
21.7575750063
 10
21.3338189261
 20
21.7558106601
 10
21.3333523946
 20
21.7533281524
 10
21.3328875375
 20
21.7501292851
 10
21.3324240284
 20
21.7462163871
 10
21.3319621938
 20
21.741592283
 10
21.3315030132
 20
21.7362602728
 10
21.3310464816
 20
21.730224163
 10
21.330592604
 20
21.7234883228
 10
21.3301423744
 20
21.7160576535
 10
21.3296958079
 20
21.7079375466
 10
21.3292528894
 20
21.6991338388
 10
21.3283808536
 20
21.6795014047
  0
LWPOLYLINE
  5
322
100
AcDbEntity
  8
ASSI
100
AcDbPolyline
 62
253
  6
CONTINUOUS
 90
11
 70
0
 10
21.7832682361
 20
-9.7898687656
 10
21.7824542905
 20
-9.7901728783
 10
21.7811296031
 20
-9.7904766797
 10
21.7792955298
 20
-9.7907798588
 10
21.7769539486
 20
-9.7910821051
 10
21.7741072566
 20
-9.7913831092
 10
21.7707583681
 20
-9.7916825629
 10
21.7669107117
 20
-9.7919801597
 10
21.7625682266
 20
-9.792275595
 10
21.7577353584
 20
-9.7925685662
 10
21.7524170548
 20
-9.7928587734
  0
LWPOLYLINE
  5
323
100
AcDbEntity
  8
ASSI
100
AcDbPolyline
 62
253
  6
CONTINUOUS
 90
13
 70
0
 10
21.7832682361
 20
9.1911312344
 10
21.7824542906
 20
9.1914353472
 10
21.7811296031
 20
9.1917391486
 10
21.7792955299
 20
9.1920423276
 10
21.7769539486
 20
9.1923445739
 10
21.7741072566
 20
9.192645578
 10
21.7707583682
 20
9.1929450317
 10
21.7669107118
 20
9.1932426286
 10
21.7625682267
 20
9.1935380638
 10
21.7577353584
 20
9.193831035
 10
21.7524170549
 20
9.1941212422
 10
21.7466187609
 20
9.1944083883
 10
21.733606431
 20
9.1949723248
  0
LWPOLYLINE
  5
324
100
AcDbEntity
  8
ASSI
100
AcDbPolyline
 62
253
  6
CONTINUOUS
 90
16
 70
0
 10
21.827223738
 20
-21.8068214642
 10
21.8276473419
 20
-21.8125547317
 10
21.828076472
 20
-21.8179646084
 10
21.8285102013
 20
-21.8230394007
 10
21.8289485392
 20
-21.8277783791
 10
21.8293914764
 20
-21.8321822732
 10
21.8298380581
 20
-21.8362415775
 10
21.8302882939
 20
-21.8399555553
 10
21.8307421743
 20
-21.8433249435
 10
21.8311987165
 20
-21.8463424471
 10
21.8316579394
 20
-21.849007321
 10
21.832119824
 20
-21.8513203103
 10
21.8325833309
 20
-21.8532763558
 10
21.8330481135
 20
-21.8548737711
 10
21.8335145185
 20
-21.8561142425
 10
21.8339825457
 20
-21.8569977701
  0
LINE
  5
325
100
AcDbEntity
  8
ASSI
100
AcDbLine
 62
253
  6
CONTINUOUS
 10
21.8263931331
 20
-21.7943833588
 11
21.827223738
 21
-21.8068214642
  0
LINE
  5
326
100
AcDbEntity
  8
ASSI
100
AcDbLine
 62
253
  6
CONTINUOUS
 10
21.8255873189
 20
-21.7806923922
 11
21.8263931331
 21
-21.7943833588
  0
LWPOLYLINE
  5
327
100
AcDbEntity
  8
ASSI
100
AcDbPolyline
 62
253
  6
CONTINUOUS
 90
11
 70
0
 10
21.3296958079
 20
-22.3066750777
 10
21.3301423744
 20
-22.3147951847
 10
21.330592604
 20
-22.3222258539
 10
21.3310464816
 20
-22.3289616941
 10
21.3315030132
 20
-22.3349978039
 10
21.3319621938
 20
-22.3403298142
 10
21.3324240284
 20
-22.3449539182
 10
21.3328875375
 20
-22.3488668163
 10
21.3333523946
 20
-22.3520656836
 10
21.3338189261
 20
-22.3545481913
 10
21.3342871322
 20
-22.3563125375
  0
LINE
  5
328
100
AcDbEntity
  8
ASSI
100
AcDbLine
 62
253
  6
CONTINUOUS
 10
21.8248080353
 20
-21.7657781546
 11
21.8255873189
 21
-21.7806923922
  0
LINE
  5
329
100
AcDbEntity
  8
ASSI
100
AcDbLine
 62
253
  6
CONTINUOUS
 10
21.3288145689
 20
-22.2883903835
 11
21.3296958079
 21
-22.3066750777
  0
LWPOLYLINE
  5
32A
100
AcDbEntity
  8
ASSI
100
AcDbPolyline
 62
253
  6
CONTINUOUS
 90
3
 70
0
 10
21.8236944531
 20
-21.7412190937
 10
21.8240578473
 20
-21.74968746
 10
21.8248080353
 20
-21.7657781546
  0
LINE
  5
32B
100
AcDbEntity
  8
ASSI
100
AcDbLine
 62
253
  6
CONTINUOUS
 10
21.3279517362
 20
-22.2674243584
 11
21.3288145689
 21
-22.2883903835
  0
LINE
  5
32C
100
AcDbEntity
  8
ASSI
100
AcDbLine
 62
253
  6
CONTINUOUS
 10
21.3271100938
 20
-22.2438375263
 11
21.3279517362
 21
-22.2674243584
  0
LINE
  5
32D
100
AcDbEntity
  8
ASSI
100
AcDbLine
 62
253
  6
CONTINUOUS
 10
21.3258917824
 20
-22.2036941204
 11
21.3271100938
 21
-22.2438375263
  0
LINE
  5
32E
100
AcDbEntity
  8
ASSI
100
AcDbLine
 62
253
  6
CONTINUOUS
 10
21.3243623624
 20
-22.1416929538
 11
21.3258917824
 21
-22.2036941204
  0
LINE
  5
32F
100
AcDbEntity
  8
ASSI
100
AcDbLine
 62
253
  6
CONTINUOUS
 10
21.3236436818
 20
-22.1072586521
 11
21.3243623624
 21
-22.1416929538
  0
LINE
  5
330
100
AcDbEntity
  8
ASSI
100
AcDbLine
 62
253
  6
CONTINUOUS
 10
21.3251125249
 20
21.5751314585
 11
21.3236436818
 21
21.508521121
  0
LINE
  5
331
100
AcDbEntity
  8
ASSI
100
AcDbLine
 62
253
  6
CONTINUOUS
 10
21.3262914606
 20
21.6189603943
 11
21.3251125249
 21
21.5751314585
  0
LINE
  5
332
100
AcDbEntity
  8
ASSI
100
AcDbLine
 62
253
  6
CONTINUOUS
 10
21.3275281453
 20
21.6572169332
 11
21.3262914606
 21
21.6189603943
  0
LINE
  5
333
100
AcDbEntity
  8
ASSI
100
AcDbLine
 62
253
  6
CONTINUOUS
 10
21.3283808536
 20
21.6795014047
 11
21.3275281453
 21
21.6572169332
  0
LINE
  5
334
100
AcDbEntity
  8
ASSI
100
AcDbLine
 62
253
  6
CONTINUOUS
 10
21.8244293084
 20
21.1591421764
 11
21.8236944531
 21
21.1424815625
  0
LINE
  5
335
100
AcDbEntity
  8
ASSI
100
AcDbLine
 62
253
  6
CONTINUOUS
 10
21.8251940441
 20
21.1746446425
 11
21.8244293084
 21
21.1591421764
  0
LINE
  5
336
100
AcDbEntity
  8
ASSI
100
AcDbLine
 62
253
  6
CONTINUOUS
 10
21.8259870106
 20
21.1889554793
 11
21.8251940441
 21
21.1746446425
  0
LINE
  5
337
100
AcDbEntity
  8
ASSI
100
AcDbLine
 62
7
  6
CONTINUOUS
 10
18.668270565
 20
21.908869175
 11
18.320051891
 21
21.8772603434
  0
LINE
  5
338
100
AcDbEntity
  8
ASSI
100
AcDbLine
 62
253
  6
CONTINUOUS
 10
21.3179356765
 20
20.908027654
 11
-22.0933019483
 21
20.908027654
  0
LINE
  5
339
100
AcDbEntity
  8
ASSI
100
AcDbLine
 62
7
  6
CONTINUOUS
 10
-19.4436368368
 20
21.908869175
 11
-19.0954181628
 21
21.8772603434
  0
LINE
  5
33A
100
AcDbEntity
  8
ASSI
100
AcDbLine
 62
253
  6
CONTINUOUS
 10
21.8226534724
 20
-21.7141749635
 11
21.8236944531
 21
-21.7412190937
  0
LINE
  5
33B
100
AcDbEntity
  8
ASSI
100
AcDbLine
 62
253
  6
CONTINUOUS
 10
21.8216918415
 20
-21.6848212695
 11
21.8226534724
 21
-21.7141749635
  0
LINE
  5
33C
100
AcDbEntity
  8
ASSI
100
AcDbLine
 62
253
  6
CONTINUOUS
 10
21.8208157837
 20
-21.6533481822
 11
21.8216918415
 21
-21.6848212695
  0
LINE
  5
33D
100
AcDbEntity
  8
ASSI
100
AcDbLine
 62
253
  6
CONTINUOUS
 10
21.8197906124
 20
-21.6084443869
 11
21.8208157837
 21
-21.6533481822
  0
LWPOLYLINE
  5
33E
100
AcDbEntity
  8
ASSI
100
AcDbPolyline
 62
253
  6
CONTINUOUS
 90
43
 70
0
 10
21.7801249709
 20
-0.6948327723
 10
21.7799474767
 20
-0.6854871397
 10
21.7794209314
 20
-0.6761545727
 10
21.7785460712
 20
-0.6668481188
 10
21.7773241191
 20
-0.6575807887
 10
21.7757567836
 20
-0.6483655388
 10
21.7738462558
 20
-0.6392152523
 10
21.7715952067
 20
-0.6301427219
 10
21.7690067835
 20
-0.6211606313
 10
21.7660846048
 20
-0.612281538
 10
21.762832756
 20
-0.6035178553
 10
21.7592557835
 20
-0.5948818354
 10
21.7553586879
 20
-0.5863855518
 10
21.7511469175
 20
-0.5780408827
 10
21.7466263608
 20
-0.5698594943
 10
21.7418033375
 20
-0.5618528247
 10
21.7366845906
 20
-0.5540320675
 10
21.7312772764
 20
-0.5464081566
 10
21.7255889544
 20
-0.5389917506
 10
21.7196275773
 20
-0.5317932178
 10
21.7134014794
 20
-0.5248226223
 10
21.7069193651
 20
-0.5180897093
 10
21.7001902966
 20
-0.5116038916
 10
21.6932236815
 20
-0.5053742368
 10
21.6860292596
 20
-0.4994094542
 10
21.678617089
 20
-0.4937178829
 10
21.6709975322
 20
-0.4883074799
 10
21.6631812417
 20
-0.4831858092
 10
21.6551791452
 20
-0.4783600313
 10
21.6470024299
 20
-0.4738368926
 10
21.6386625273
 20
-0.4696227169
 10
21.630171097
 20
-0.4657233957
 10
21.6215400103
 20
-0.4621443804
 10
21.612781334
 20
-0.4588906747
 10
21.6039073132
 20
-0.4559668273
 10
21.594930354
 20
-0.453376926
 10
21.5858630068
 20
-0.4511245916
 10
21.5767179482
 20
-0.4492129729
 10
21.5675079633
 20
-0.4476447425
 10
21.5582459282
 20
-0.4464220927
 10
21.5489447916
 20
-0.445546733
 10
21.5396175569
 20
-0.4450198871
 10
21.5302772641
 20
-0.4448422916
  0
LWPOLYLINE
  5
33F
100
AcDbEntity
  8
ASSI
100
AcDbPolyline
 62
253
  6
CONTINUOUS
 90
49
 70
0
 10
21.8339825457
 20
21.258260239
 10
21.8336857965
 20
21.2745783967
 10
21.8328555216
 20
21.2908791211
 10
21.8314926079
 20
21.3071449977
 10
21.8295985116
 20
21.3233586489
 10
21.8271752562
 20
21.3395027531
 10
21.8242254304
 20
21.3555600631
 10
21.8207521858
 20
21.3715134242
 10
21.8167592328
 20
21.3873457928
 10
21.8122508373
 20
21.4030402546
 10
21.8072318159
 20
21.4185800428
 10
21.8017075304
 20
21.4339485555
 10
21.7956838827
 20
21.449129374
 10
21.789167308
 20
21.4641062802
 10
21.7821647683
 20
21.4788632736
 10
21.7746837446
 20
21.4933845887
 10
21.7667322292
 20
21.507654712
 10
21.7583187169
 20
21.5216583982
 10
21.7494521961
 20
21.5353806865
 10
21.7401421394
 20
21.5488069171
 10
21.730398493
 20
21.5619227461
 10
21.7202316664
 20
21.5747141613
 10
21.7096525211
 20
21.5871674974
 10
21.6986723593
 20
21.5992694499
 10
21.6873029114
 20
21.6110070899
 10
21.6755563239
 20
21.6223678776
 10
21.6634451461
 20
21.6333396759
 10
21.6509823166
 20
21.6439107631
 10
21.6381811502
 20
21.6540698459
 10
21.6250553226
 20
21.6638060708
 10
21.6116188568
 20
21.6731090364
 10
21.5978861073
 20
21.6819688039
 10
21.5838717454
 20
21.6903759081
 10
21.5695907431
 20
21.6983213673
 10
21.5550583573
 20
21.7057966932
 10
21.5402901136
 20
21.7127938997
 10
21.5253017893
 20
21.7193055112
 10
21.5101093971
 20
21.7253245712
 10
21.4947291675
 20
21.7308446494
 10
21.4791775318
 20
21.7358598484
 10
21.4634711043
 20
21.7403648103
 10
21.4476266649
 20
21.7443547223
 10
21.4316611407
 20
21.7478253218
 10
21.4155915883
 20
21.750772901
 10
21.3994351754
 20
21.753194311
 10
21.3832091624
 20
21.7550869648
 10
21.3669308842
 20
21.7564488405
 10
21.3506177315
 20
21.7572784831
 10
21.3342871322
 20
21.7575750063
  0
LINE
  5
340
100
AcDbEntity
  8
ASSI
100
AcDbLine
 62
253
  6
CONTINUOUS
 10
21.8189392183
 20
-21.5606460896
 11
21.8197906124
 21
-21.6084443869
  0
LINE
  5
341
100
AcDbEntity
  8
ASSI
100
AcDbLine
 62
253
  6
CONTINUOUS
 10
21.3219964332
 20
-22.0119598771
 11
21.3236436818
 21
-22.1072586521
  0
LINE
  5
342
100
AcDbEntity
  8
ASSI
100
AcDbLine
 62
253
  6
CONTINUOUS
 10
21.8181344995
 20
-21.4976929839
 11
21.8189392183
 21
-21.5606460896
  0
LINE
  5
343
100
AcDbEntity
  8
ASSI
100
AcDbLine
 62
253
  6
CONTINUOUS
 10
21.3200952523
 20
-21.8592063406
 11
21.3219964332
 21
-22.0119598771
  0
LINE
  5
344
100
AcDbEntity
  8
ASSI
100
AcDbLine
 62
253
  6
CONTINUOUS
 10
21.3185763372
 20
-21.6633702961
 11
21.3200952523
 21
-21.8592063406
  0
LINE
  5
345
100
AcDbEntity
  8
ASSI
100
AcDbLine
 62
253
  6
CONTINUOUS
 10
21.81763109
 20
-21.432224094
 11
21.8181344995
 21
-21.4976929839
  0
LINE
  5
346
100
AcDbEntity
  8
ASSI
100
AcDbLine
 62
7
  6
CONTINUOUS
 10
21.9360095547
 20
21.4113785422
 11
21.9623168641
 21
12.8006312344
  0
LINE
  5
347
100
AcDbEntity
  8
ASSI
100
AcDbLine
 62
253
  6
CONTINUOUS
 10
21.3179356765
 20
-21.5067651852
 11
21.3185763372
 21
-21.6633702961
  0
LINE
  5
348
100
AcDbEntity
  8
ASSI
100
AcDbLine
 62
253
  6
CONTINUOUS
 10
21.2891201999
 20
-13.714960112
 11
21.3179356765
 21
-21.5067651852
  0
LINE
  5
349
100
AcDbEntity
  8
ASSI
100
AcDbLine
 62
253
  6
CONTINUOUS
 10
21.788815612
 20
-13.6836989676
 11
21.81763109
 21
-21.432224094
  0
LINE
  5
34A
100
AcDbEntity
  8
ASSI
100
AcDbLine
 62
253
  6
CONTINUOUS
 10
21.2818827479
 20
-6.76547613
 11
21.2891201999
 21
-13.714960112
  0
LINE
  5
34B
100
AcDbEntity
  8
ASSI
100
AcDbLine
 62
253
  6
CONTINUOUS
 10
21.7815778738
 20
-6.758373077
 11
21.788815612
 21
-13.6836989676
  0
LINE
  5
34C
100
AcDbEntity
  8
ASSI
100
AcDbLine
 62
253
  6
CONTINUOUS
 10
21.2818827479
 20
-6.76547613
 11
21.2804296102
 21
-0.4469478538
  0
LINE
  5
34D
100
AcDbEntity
  8
ASSI
100
AcDbLine
 62
253
  6
CONTINUOUS
 10
21.7801250677
 20
-0.6948327481
 11
21.7815778738
 21
-6.758373077
  0
LINE
  5
34E
100
AcDbEntity
  8
ASSI
100
AcDbLine
 62
7
  6
CONTINUOUS
 10
21.9623168641
 20
-0.6493021444
 11
21.9623168641
 21
-13.3993687656
  0
LINE
  5
34F
100
AcDbEntity
  8
ASSI
100
AcDbLine
 62
7
  6
CONTINUOUS
 10
21.9623168641
 20
0.0505646132
 11
21.9623168641
 21
12.8006312344
  0
LINE
  5
350
100
AcDbEntity
  8
ASSI
100
AcDbLine
 62
7
  6
CONTINUOUS
 10
21.9360095547
 20
-22.0101160733
 11
21.9623168641
 21
-13.3993687656
  0
LINE
  5
351
100
AcDbEntity
  8
ASSI
100
AcDbLine
 62
253
  6
CONTINUOUS
 10
21.2985829551
 20
16.4642407663
 11
21.2804296102
 21
-0.1517896774
  0
LINE
  5
352
100
AcDbEntity
  8
ASSI
100
AcDbLine
 62
253
  6
CONTINUOUS
 10
21.7982783689
 20
16.4143803003
 11
21.7801250677
 21
0.096095217
  0
LINE
  5
353
100
AcDbEntity
  8
ASSI
100
AcDbLine
 62
253
  6
CONTINUOUS
 10
21.3190594559
 20
21.140217317
 11
21.2985829551
 21
16.4642407663
  0
LINE
  5
354
100
AcDbEntity
  8
ASSI
100
AcDbLine
 62
253
  6
CONTINUOUS
 10
21.8178962977
 20
20.8729998075
 11
21.7982783689
 21
16.4143803003
  0
LINE
  5
355
100
AcDbEntity
  8
ASSI
100
AcDbLine
 62
253
  6
CONTINUOUS
 10
21.3208484771
 20
21.3284249595
 11
21.3190594559
 21
21.140217317
  0
LINE
  5
356
100
AcDbEntity
  8
ASSI
100
AcDbLine
 62
253
  6
CONTINUOUS
 10
21.818582027
 20
20.9371066241
 11
21.8178962977
 21
20.8729998075
  0
LINE
  5
357
100
AcDbEntity
  8
ASSI
100
AcDbLine
 62
253
  6
CONTINUOUS
 10
21.3226284536
 20
21.4528543268
 11
21.3208484771
 21
21.3284249595
  0
LINE
  5
358
100
AcDbEntity
  8
ASSI
100
AcDbLine
 62
253
  6
CONTINUOUS
 10
21.8193424939
 20
20.9861350184
 11
21.818582027
 21
20.9371066241
  0
LWPOLYLINE
  5
359
100
AcDbEntity
  8
ASSI
100
AcDbPolyline
 62
253
  6
CONTINUOUS
 90
49
 70
0
 10
21.8339825457
 20
-21.8569977701
 10
21.8336857965
 20
-21.8733159288
 10
21.8328555215
 20
-21.8896166541
 10
21.8314926077
 20
-21.9058825316
 10
21.8295985111
 20
-21.9220961836
 10
21.8271752554
 20
-21.9382402886
 10
21.8242254294
 20
-21.9542975993
 10
21.8207521844
 20
-21.9702509611
 10
21.8167592311
 20
-21.9860833303
 10
21.8122508352
 20
-22.0017777928
 10
21.8072318133
 20
-22.0173175814
 10
21.8017075274
 20
-22.0326860946
 10
21.7956838793
 20
-22.0478669135
 10
21.7891673041
 20
-22.0628438199
 10
21.782164764
 20
-22.0776008136
 10
21.7746837398
 20
-22.0921221289
 10
21.7667322239
 20
-22.1063922524
 10
21.7583187111
 20
-22.1203959386
 10
21.74945219
 20
-22.1341182269
 10
21.7401421329
 20
-22.1475444574
 10
21.7303984861
 20
-22.1606602863
 10
21.7202316591
 20
-22.1734517014
 10
21.7096525135
 20
-22.1859050373
 10
21.6986723514
 20
-22.1980069896
 10
21.6873029033
 20
-22.2097446292
 10
21.6755563156
 20
-22.2211054166
 10
21.6634451375
 20
-22.2320772145
 10
21.650982308
 20
-22.2426483013
 10
21.6381811415
 20
-22.2528073837
 10
21.625055314
 20
-22.2625436082
 10
21.6116188482
 20
-22.2718465733
 10
21.5978860988
 20
-22.2807063403
 10
21.5838717371
 20
-22.2891134441
 10
21.569590735
 20
-22.2970589029
 10
21.5550583495
 20
-22.3045342283
 10
21.5402901061
 20
-22.3115314343
 10
21.5253017822
 20
-22.3180430453
 10
21.5101093903
 20
-22.3240621049
 10
21.4947291612
 20
-22.3295821827
 10
21.479177526
 20
-22.3345973813
 10
21.4634710991
 20
-22.3391023429
 10
21.4476266602
 20
-22.3430922545
 10
21.4316611367
 20
-22.3465628538
 10
21.4155915849
 20
-22.3495104328
 10
21.3994351726
 20
-22.3519318425
 10
21.3832091603
 20
-22.3538244962
 10
21.3669308828
 20
-22.3551863718
 10
21.3506177308
 20
-22.3560160143
 10
21.3342871322
 20
-22.3563125375
  0
LWPOLYLINE
  5
35A
100
AcDbEntity
  8
ASSI
100
AcDbPolyline
 62
253
  6
CONTINUOUS
 90
43
 70
0
 10
21.7801249709
 20
0.0960952412
 10
21.7799474767
 20
0.0867496096
 10
21.7794209316
 20
0.0774170436
 10
21.7785460715
 20
0.0681105907
 10
21.7773241197
 20
0.0588432616
 10
21.7757567845
 20
0.0496280127
 10
21.7738462571
 20
0.0404777271
 10
21.7715952085
 20
0.0314051975
 10
21.7690067858
 20
0.0224231077
 10
21.7660846077
 20
0.0135440152
 10
21.7628327596
 20
0.0047803332
 10
21.7592557876
 20
-0.0038556862
 10
21.7553586927
 20
-0.0123519693
 10
21.7511469231
 20
-0.020696638
 10
21.746626367
 20
-0.0288780261
 10
21.7418033445
 20
-0.0368846955
 10
21.7366845983
 20
-0.0447054525
 10
21.7312772846
 20
-0.0523293633
 10
21.7255889633
 20
-0.0597457694
 10
21.7196275868
 20
-0.0669443023
 10
21.7134014894
 20
-0.073914898
 10
21.7069193756
 20
-0.0806478114
 10
21.7001903075
 20
-0.0871336294
 10
21.6932236928
 20
-0.0933632846
 10
21.6860292712
 20
-0.0993280677
 10
21.6786171007
 20
-0.1050196396
 10
21.670997544
 20
-0.1104300432
 10
21.6631812536
 20
-0.1155517145
 10
21.6551791569
 20
-0.1203774931
 10
21.6470024414
 20
-0.1249006324
 10
21.6386625385
 20
-0.1291148089
 10
21.6301711078
 20
-0.1330141308
 10
21.6215400206
 20
-0.1365931467
 10
21.6127813437
 20
-0.1398468531
 10
21.6039073221
 20
-0.1427707011
 10
21.5949303621
 20
-0.145360603
 10
21.585863014
 20
-0.1476129379
 10
21.5767179544
 20
-0.1495245571
 10
21.5675079684
 20
-0.1510927879
 10
21.5582459321
 20
-0.152315438
 10
21.5489447942
 20
-0.1531907979
 10
21.5396175583
 20
-0.153717644
 10
21.5302772641
 20
-0.1538952396
  0
LINE
  5
35B
100
AcDbEntity
  8
ASSI
100
AcDbLine
 62
253
  6
CONTINUOUS
 10
21.3236436818
 20
21.508521121
 11
21.3226284536
 21
21.4528543268
  0
LINE
  5
35C
100
AcDbEntity
  8
ASSI
100
AcDbLine
 62
253
  6
CONTINUOUS
 10
21.8202820622
 20
21.0325485072
 11
21.8193424939
 21
20.9861350184
  0
LINE
  5
35D
100
AcDbEntity
  8
ASSI
100
AcDbLine
 62
253
  6
CONTINUOUS
 10
21.8213901039
 20
21.0758206383
 11
21.8202820622
 21
21.0325485072
  0
LINE
  5
35E
100
AcDbEntity
  8
ASSI
100
AcDbLine
 62
253
  6
CONTINUOUS
 10
21.8223238816
 20
21.1059024425
 11
21.8213901039
 21
21.0758206383
  0
LWPOLYLINE
  5
35F
100
AcDbEntity
  8
ASSI
100
AcDbPolyline
 62
253
  6
CONTINUOUS
 90
3
 70
0
 10
21.8236944531
 20
21.1424815625
 10
21.8233391428
 20
21.133736471
 10
21.8223238816
 20
21.1059024425
  0
LINE
  5
360
100
AcDbEntity
  8
ASSI
100
AcDbLine
 62
7
  6
CONTINUOUS
 10
7.468270565
 20
21.908869175
 11
7.120051891
 21
21.8772603434
  0
LINE
  5
361
100
AcDbEntity
  8
ASSI
100
AcDbLine
 62
7
  6
CONTINUOUS
 10
-3.831729435
 20
21.908869175
 11
-4.179948109
 21
21.8772603434
  0
LINE
  5
362
100
AcDbEntity
  8
ASSI
100
AcDbLine
 62
253
  6
CONTINUOUS
 10
21.3342871322
 20
21.7575750063
 11
-22.109653404
 21
21.7575750063
  0
LINE
  5
363
100
AcDbEntity
  8
ASSI
100
AcDbLine
 62
7
  6
CONTINUOUS
 10
-18.9222130821
 20
21.8720195655
 11
-15.5531531897
 21
21.8720195655
  0
LINE
  5
364
100
AcDbEntity
  8
ASSI
100
AcDbLine
 62
7
  6
CONTINUOUS
 10
-7.7222130821
 20
21.8720195655
 11
-4.3531531897
 21
21.8720195655
  0
LINE
  5
365
100
AcDbEntity
  8
ASSI
100
AcDbLine
 62
7
  6
CONTINUOUS
 10
3.5777869179
 20
21.8720195655
 11
6.9468468103
 21
21.8720195655
  0
LINE
  5
366
100
AcDbEntity
  8
ASSI
100
AcDbLine
 62
7
  6
CONTINUOUS
 10
14.7777869179
 20
21.8720195655
 11
18.1468468103
 21
21.8720195655
  0
LINE
  5
367
100
AcDbEntity
  8
ASSI
100
AcDbLine
 62
7
  6
CONTINUOUS
 10
-22.2104649412
 20
21.908869175
 11
-19.4436368368
 21
21.908869175
  0
LINE
  5
368
100
AcDbEntity
  8
ASSI
100
AcDbLine
 62
7
  6
CONTINUOUS
 10
-15.031729435
 20
21.908869175
 11
-8.2436368368
 21
21.908869175
  0
LINE
  5
369
100
AcDbEntity
  8
ASSI
100
AcDbLine
 62
7
  6
CONTINUOUS
 10
-3.831729435
 20
21.908869175
 11
3.0563631632
 21
21.908869175
  0
LINE
  5
36A
100
AcDbEntity
  8
ASSI
100
AcDbLine
 62
7
  6
CONTINUOUS
 10
7.468270565
 20
21.908869175
 11
14.2563631632
 21
21.908869175
  0
LINE
  5
36B
100
AcDbEntity
  8
ASSI
100
AcDbLine
 62
7
  6
CONTINUOUS
 10
18.668270565
 20
21.908869175
 11
21.4350986693
 21
21.908869175
  0
LINE
  5
36C
100
AcDbEntity
  8
ASSI
100
AcDbLine
 62
7
  6
CONTINUOUS
 10
-8.2436368368
 20
21.908869175
 11
-7.8954181628
 21
21.8772603434
  0
LINE
  5
36D
100
AcDbEntity
  8
ASSI
100
AcDbLine
 62
7
  6
CONTINUOUS
 10
3.0563631632
 20
21.908869175
 11
3.4045818372
 21
21.8772603434
  0
LINE
  5
36E
100
AcDbEntity
  8
ASSI
100
AcDbLine
 62
7
  6
CONTINUOUS
 10
-15.031729435
 20
21.908869175
 11
-15.379948109
 21
21.8772603434
  0
LINE
  5
36F
100
AcDbEntity
  8
ASSI
100
AcDbLine
 62
7
  6
CONTINUOUS
 10
14.2563631632
 20
21.908869175
 11
14.6045818372
 21
21.8772603434
  0
LWPOLYLINE
  5
370
100
AcDbEntity
  8
ASSI
100
AcDbPolyline
 62
253
  6
CONTINUOUS
 90
49
 70
0
 10
21.81763109
 20
-21.432224094
 10
21.8168230233
 20
-21.4346108579
 10
21.8155039533
 20
-21.4369951772
 10
21.8136752312
 20
-21.4393746095
 10
21.81133873
 20
-21.4417467176
 10
21.8084968431
 20
-21.4441090718
 10
21.8051524813
 20
-21.4464592524
 10
21.8013090702
 20
-21.4487948522
 10
21.7969705466
 20
-21.4511134787
 10
21.7921413544
 20
-21.4534127571
 10
21.78682644
 20
-21.4556903323
 10
21.7810312474
 20
-21.4579438713
 10
21.7747617125
 20
-21.4601710659
 10
21.7680242573
 20
-21.4623696348
 10
21.7608257826
 20
-21.464537326
 10
21.7531736619
 20
-21.4666719193
 10
21.745075733
 20
-21.4687712282
 10
21.7365402907
 20
-21.4708331023
 10
21.7275760776
 20
-21.4728554298
 10
21.7181922755
 20
-21.4748361391
 10
21.7083984964
 20
-21.4767732016
 10
21.6982047716
 20
-21.478664633
 10
21.6876215426
 20
-21.480508496
 10
21.6766596496
 20
-21.482302902
 10
21.6653303208
 20
-21.484046013
 10
21.6536451605
 20
-21.4857360435
 10
21.6416161377
 20
-21.4873712625
 10
21.6292555736
 20
-21.488949995
 10
21.6165761289
 20
-21.490470624
 10
21.603590791
 20
-21.4919315918
 10
21.5903128607
 20
-21.4933314022
 10
21.5767559382
 20
-21.4946686211
 10
21.5629339099
 20
-21.495941879
 10
21.5488609333
 20
-21.4971498717
 10
21.5345514232
 20
-21.4982913619
 10
21.5200200366
 20
-21.4993651802
 10
21.505281658
 20
-21.5003702269
 10
21.4903513834
 20
-21.5013054725
 10
21.4752445059
 20
-21.502169959
 10
21.4599764992
 20
-21.5029628009
 10
21.4445630021
 20
-21.5036831861
 10
21.4290198025
 20
-21.5043303769
 10
21.4133628209
 20
-21.5049037101
 10
21.3976080946
 20
-21.5054025987
 10
21.381771761
 20
-21.5058265316
 10
21.3658700411
 20
-21.5061750745
 10
21.3499192226
 20
-21.5064478704
 10
21.3339356438
 20
-21.50664464
 10
21.3179356765
 20
-21.5067651817
  0
LWPOLYLINE
  5
371
100
AcDbEntity
  8
ASSI
100
AcDbPolyline
 62
253
  6
CONTINUOUS
 90
49
 70
0
 10
21.81763109
 20
20.8334865628
 10
21.8168230238
 20
20.8358733269
 10
21.8155039544
 20
20.8382576462
 10
21.8136752327
 20
20.8406370785
 10
21.811338732
 20
20.8430091867
 10
21.8084968456
 20
20.845371541
 10
21.8051524842
 20
20.8477217217
 10
21.8013090735
 20
20.8500573216
 10
21.7969705503
 20
20.8523759482
 10
21.7921413584
 20
20.8546752267
 10
21.7868264443
 20
20.8569528019
 10
21.781031252
 20
20.859206341
 10
21.7747617174
 20
20.8614335357
 10
21.7680242624
 20
20.8636321047
 10
21.7608257879
 20
20.8657997961
 10
21.7531736674
 20
20.8679343894
 10
21.7450757387
 20
20.8700336984
 10
21.7365402965
 20
20.8720955726
 10
21.7275760834
 20
20.8741179002
 10
21.7181922815
 20
20.8760986096
 10
21.7083985024
 20
20.8780356722
 10
21.6982047777
 20
20.8799271037
 10
21.6876215487
 20
20.8817709668
 10
21.6766596557
 20
20.8835653729
 10
21.6653303268
 20
20.8853084839
 10
21.6536451664
 20
20.8869985145
 10
21.6416161435
 20
20.8886337336
 10
21.6292555793
 20
20.8902124662
 10
21.6165761345
 20
20.8917330952
 10
21.6035907965
 20
20.8931940632
 10
21.590312866
 20
20.8945938736
 10
21.5767559434
 20
20.8959310926
 10
21.5629339148
 20
20.8972043506
 10
21.5488609379
 20
20.8984123434
 10
21.5345514276
 20
20.8995538336
 10
21.5200200408
 20
20.900627652
 10
21.5052816619
 20
20.9016326987
 10
21.4903513871
 20
20.9025679444
 10
21.4752445093
 20
20.9034324309
 10
21.4599765023
 20
20.9042252729
 10
21.4445630049
 20
20.9049456582
 10
21.4290198049
 20
20.9055928489
 10
21.413362823
 20
20.9061661822
 10
21.3976080964
 20
20.9066650708
 10
21.3817717625
 20
20.9070890037
 10
21.3658700421
 20
20.9074375467
 10
21.3499192233
 20
20.9077103427
 10
21.3339356442
 20
20.9079071123
 10
21.3179356765
 20
20.908027654
  0
LINE
  5
372
100
AcDbEntity
  8
ASSI
100
AcDbLine
 62
7
  6
CONTINUOUS
 10
-43.678862744
 20
-22.3563125375
 11
-40.7919980321
 21
-22.5076067061
  0
LINE
  5
373
100
AcDbEntity
  8
ASSI
100
AcDbLine
 62
253
  6
CONTINUOUS
 10
-43.6701445142
 20
-21.8569977701
 11
-40.7484732415
 21
-22.0101160733
  0
LWPOLYLINE
  5
374
100
AcDbEntity
  8
ASSI
100
AcDbPolyline
 62
253
  6
CONTINUOUS
 90
7
 70
0
 10
-44.6063372876
 20
-21.5049037101
 10
-44.6090961235
 20
-21.5054025987
 10
-44.6113549471
 20
-21.5058265316
 10
-44.6131114448
 20
-21.5061750745
 10
-44.6143638174
 20
-21.5064478704
 10
-44.6151107821
 20
-21.50664464
 10
-44.6153515738
 20
-21.5067651817
  0
LINE
  5
375
100
AcDbEntity
  8
ASSI
100
AcDbLine
 62
253
  6
CONTINUOUS
 10
-44.5993313917
 20
-21.5036831861
 11
-44.6063372876
 21
-21.5049037101
  0
LINE
  5
376
100
AcDbEntity
  8
ASSI
100
AcDbLine
 62
253
  6
CONTINUOUS
 10
-44.5851595774
 20
-21.5013054725
 11
-44.5993313917
 21
-21.5036831861
  0
LINE
  5
377
100
AcDbEntity
  8
ASSI
100
AcDbLine
 62
253
  6
CONTINUOUS
 10
-44.5521188419
 20
-21.495941879
 11
-44.5851595774
 21
-21.5013054725
  0
LINE
  5
378
100
AcDbEntity
  8
ASSI
100
AcDbLine
 62
253
  6
CONTINUOUS
 10
-44.4422469549
 20
-21.478664633
 11
-44.5521188419
 21
-21.495941879
  0
LINE
  5
379
100
AcDbEntity
  8
ASSI
100
AcDbLine
 62
253
  6
CONTINUOUS
 10
-44.1383889406
 20
-21.432224094
 11
-44.4422469549
 21
-21.478664633
  0
LINE
  5
37A
100
AcDbEntity
  8
ASSI
100
AcDbLine
 62
253
  6
CONTINUOUS
 10
-40.4180061879
 20
-18.2328603668
 11
-40.3951304676
 21
-18.2328603668
  0
LWPOLYLINE
  5
37B
100
AcDbEntity
  8
ASSI
100
AcDbPolyline
 62
253
  6
CONTINUOUS
 90
3
 70
0
 10
-45.6038493965
 20
-9.7993281068
 10
-45.604616625
 20
-9.7993532912
 10
-45.6048723207
 20
-9.7993687656
  0
LINE
  5
37C
100
AcDbEntity
  8
ASSI
100
AcDbLine
 62
253
  6
CONTINUOUS
 10
-45.1224123275
 20
-9.7898687656
 11
-45.6025714206
 21
-9.7992932382
  0
LWPOLYLINE
  5
37D
100
AcDbEntity
  8
ASSI
100
AcDbPolyline
 62
253
  6
CONTINUOUS
 90
22
 70
0
 10
-44.1383889406
 20
20.8334865628
 10
-44.2196855468
 20
20.2826462602
 10
-44.2975482737
 20
19.7313537346
 10
-44.3719771211
 20
19.179608986
 10
-44.4429747041
 20
18.6273905977
 10
-44.5105384076
 20
18.0747199863
 10
-44.5746603869
 20
17.5216614025
 10
-44.6353402374
 20
16.9682148377
 10
-44.6925783637
 20
16.4143803003
 10
-44.7463681344
 20
15.8602220666
 10
-44.7967091492
 20
15.3057401054
 10
-44.8436018084
 20
14.7509344478
 10
-44.8870406813
 20
14.1958694626
 10
-44.9270253681
 20
13.6405451133
 10
-44.9635562686
 20
13.0849614364
 10
-44.9966291514
 20
12.5291829102
 10
-45.0262436167
 20
11.9732094587
 10
-45.0524000643
 20
11.4170411579
 10
-45.0750954624
 20
10.8607427144
 10
-45.0943288003
 20
10.3043356971
 10
-45.1101010887
 20
9.7477985371
 10
-45.1224123275
 20
9.1911312344
  0
LWPOLYLINE
  5
37E
100
AcDbEntity
  8
ASSI
100
AcDbPolyline
 62
253
  6
CONTINUOUS
 90
52
 70
0
 10
-44.1383889406
 20
-21.432224094
 10
-44.1362080093
 20
-21.4454763176
 10
-44.133676491
 20
-21.4586473992
 10
-44.1307943855
 20
-21.4717373387
 10
-44.1275590757
 20
-21.4847557323
 10
-44.1239731788
 20
-21.4976929839
 10
-44.1200445468
 20
-21.5105203052
 10
-44.1157724744
 20
-21.5232371954
 10
-44.1111576669
 20
-21.5358441553
 10
-44.1062100932
 20
-21.5483138992
 10
-44.1009290485
 20
-21.5606460896
 10
-44.0953152375
 20
-21.5728410641
 10
-44.089380744
 20
-21.5848725495
 10
-44.0831248686
 20
-21.5967402127
 10
-44.0765483107
 20
-21.6084443869
 10
-44.0696652512
 20
-21.6199597983
 10
-44.0624750282
 20
-21.6312860383
 10
-44.0549783037
 20
-21.6424235156
 10
-44.0471912451
 20
-21.6533481822
 10
-44.0391132224
 20
-21.6640595812
 10
-44.0307448657
 20
-21.6745581694
 10
-44.022104232
 20
-21.6848212695
 10
-44.0131907402
 20
-21.6948483657
 10
-44.0040049715
 20
-21.7046399737
 10
-43.9945667268
 20
-21.7141749635
 10
-43.9848754492
 20
-21.7234527919
 10
-43.9749316956
 20
-21.7324740022
 10
-43.9647569384
 20
-21.7412190937
 10
-43.9543506901
 20
-21.74968746
 10
-43.9437134383
 20
-21.7578797076
 10
-43.932868118
 20
-21.7657781546
 10
-43.9218142704
 20
-21.7733821737
 10
-43.9105523544
 20
-21.7806923922
 10
-43.8991066823
 20
-21.7876930105
 10
-43.8874768564
 20
-21.7943833588
 10
-43.8756632745
 20
-21.8007641069
 10
-43.8636914427
 20
-21.8068214642
 10
-43.8515610151
 20
-21.8125547317
 10
-43.8392723376
 20
-21.8179646084
 10
-43.826851954
 20
-21.8230394007
 10
-43.8142995993
 20
-21.8277783791
 10
-43.8016155385
 20
-21.8321822732
 10
-43.7888271095
 20
-21.8362415775
 10
-43.7759340434
 20
-21.8399555553
 10
-43.7629366092
 20
-21.8433249435
 10
-43.7498629517
 20
-21.8463424471
 10
-43.73671253
 20
-21.849007321
 10
-43.7234858852
 20
-21.8513203103
 10
-43.7102127844
 20
-21.8532763558
 10
-43.6969031502
 20
-21.8548737711
 10
-43.6835470602
 20
-21.8561142425
 10
-43.6701445142
 20
-21.8569977701
  0
LINE
  5
37F
100
AcDbEntity
  8
0
100
AcDbLine
 62
253
  6
CONTINUOUS
 10
-45.4783950523
 20
-13.1559238282
 11
-45.4701916819
 21
-13.2993687656
  0
LINE
  5
380
100
AcDbEntity
  8
0
100
AcDbLine
 62
253
  6
CONTINUOUS
 10
-45.5225976407
 20
-12.2993687656
 11
-45.5081809268
 21
-12.596693083
  0
LWPOLYLINE
  5
381
100
AcDbEntity
  8
ASSI
100
AcDbPolyline
 62
253
  6
CONTINUOUS
 90
22
 70
0
 10
-45.1224123275
 20
-9.7898687656
 10
-45.1101010887
 20
-10.3465360682
 10
-45.0943288003
 20
-10.9030732282
 10
-45.0750954624
 20
-11.4594802455
 10
-45.0524000643
 20
-12.015778689
 10
-45.0262436167
 20
-12.5719469899
 10
-44.9966291514
 20
-13.1279204414
 10
-44.9635562686
 20
-13.6836989676
 10
-44.9270253681
 20
-14.2392826445
 10
-44.8870406813
 20
-14.7946069938
 10
-44.8436018084
 20
-15.349671979
 10
-44.7967091492
 20
-15.9044776366
 10
-44.7463681344
 20
-16.4589595977
 10
-44.6925783637
 20
-17.0131178315
 10
-44.6353402374
 20
-17.5669523688
 10
-44.5746603869
 20
-18.1203989337
 10
-44.5105384076
 20
-18.6734575175
 10
-44.4429747041
 20
-19.2261281288
 10
-44.3719771211
 20
-19.7783465172
 10
-44.2975482737
 20
-20.3300912658
 10
-44.2196855468
 20
-20.8813837914
 10
-44.1383889406
 20
-21.432224094
  0
LWPOLYLINE
  5
382
100
AcDbEntity
  8
ASSI
100
AcDbPolyline
 62
253
  6
CONTINUOUS
 90
10
 70
0
 10
-45.1224123275
 20
9.1911312344
 10
-45.1405921862
 20
8.1806540769
 10
-45.1567274012
 20
7.170155514
 10
-45.1708179726
 20
6.1596355458
 10
-45.1828640111
 20
5.1490930984
 10
-45.1928654059
 20
4.1385292456
 10
-45.200821825
 20
3.127947209
 10
-45.2067331575
 20
2.1173480622
 10
-45.2105995142
 20
1.1067307315
 10
-45.2124208952
 20
0.096095217
  0
LINE
  5
383
100
AcDbEntity
  8
0
100
AcDbLine
 62
253
  6
CONTINUOUS
 10
-45.5081535122
 20
11.9985021475
 11
-45.5225976407
 21
11.7006312344
  0
LINE
  5
384
100
AcDbEntity
  8
0
100
AcDbLine
 62
253
  6
CONTINUOUS
 10
-45.4701916819
 20
12.7006312344
 11
-45.4783768207
 21
12.5575096289
  0
LWPOLYLINE
  5
385
100
AcDbEntity
  8
ASSI
100
AcDbPolyline
 62
253
  6
CONTINUOUS
 90
16
 70
0
 10
-45.2101869175
 20
-0.1155517145
 10
-45.2099495921
 20
-0.1203774931
 10
-45.2097035277
 20
-0.1249006324
 10
-45.2094490685
 20
-0.1291148089
 10
-45.20918657
 20
-0.1330141308
 10
-45.2089163994
 20
-0.1365931467
 10
-45.2086389344
 20
-0.1398468531
 10
-45.2083545627
 20
-0.1427707011
 10
-45.2080636821
 20
-0.145360603
 10
-45.2077666992
 20
-0.1476129379
 10
-45.2074640291
 20
-0.1495245571
 10
-45.207156095
 20
-0.1510927879
 10
-45.2068433275
 20
-0.152315438
 10
-45.2065261638
 20
-0.1531907979
 10
-45.2062050472
 20
-0.153717644
 10
-45.2058804268
 20
-0.1538952396
  0
LINE
  5
386
100
AcDbEntity
  8
ASSI
100
AcDbLine
 62
253
  6
CONTINUOUS
 10
-45.2106340372
 20
-0.1050196396
 11
-45.2101869175
 21
-0.1155517145
  0
LINE
  5
387
100
AcDbEntity
  8
ASSI
100
AcDbLine
 62
253
  6
CONTINUOUS
 10
-45.2110423871
 20
-0.0933632846
 11
-45.2106340372
 21
-0.1050196396
  0
LINE
  5
388
100
AcDbEntity
  8
ASSI
100
AcDbLine
 62
253
  6
CONTINUOUS
 10
-45.2114096847
 20
-0.0806478114
 11
-45.2110423871
 21
-0.0933632846
  0
LINE
  5
389
100
AcDbEntity
  8
ASSI
100
AcDbLine
 62
253
  6
CONTINUOUS
 10
-45.2117338765
 20
-0.0669443023
 11
-45.2114096847
 21
-0.0806478114
  0
LINE
  5
38A
100
AcDbEntity
  8
ASSI
100
AcDbLine
 62
253
  6
CONTINUOUS
 10
-45.2121354449
 20
-0.0447054525
 11
-45.2117338765
 21
-0.0669443023
  0
LINE
  5
38B
100
AcDbEntity
  8
ASSI
100
AcDbLine
 62
253
  6
CONTINUOUS
 10
-45.2124309587
 20
-0.020696638
 11
-45.2121354449
 21
-0.0447054525
  0
LINE
  5
38C
100
AcDbEntity
  8
ASSI
100
AcDbLine
 62
253
  6
CONTINUOUS
 10
-45.2126167029
 20
0.0047803332
 11
-45.2124309587
 21
-0.020696638
  0
LWPOLYLINE
  5
38D
100
AcDbEntity
  8
ASSI
100
AcDbPolyline
 62
253
  6
CONTINUOUS
 90
18
 70
0
 10
-43.6841054699
 20
-22.2807063403
 10
-43.6840566752
 20
-22.2891134441
 10
-43.6839743755
 20
-22.2970589029
 10
-43.6838586586
 20
-22.3045342283
 10
-43.6837096482
 20
-22.3115314343
 10
-43.6835275035
 20
-22.3180430453
 10
-43.683312419
 20
-22.3240621049
 10
-43.6830646246
 20
-22.3295821827
 10
-43.6827843849
 20
-22.3345973813
 10
-43.6824719994
 20
-22.3391023429
 10
-43.6821278019
 20
-22.3430922545
 10
-43.6817521599
 20
-22.3465628538
 10
-43.6813454748
 20
-22.3495104328
 10
-43.6809081812
 20
-22.3519318425
 10
-43.6804407461
 20
-22.3538244962
 10
-43.679943669
 20
-22.3551863718
 10
-43.6794174809
 20
-22.3560160143
 10
-43.678862744
 20
-22.3563125375
  0
LINE
  5
38E
100
AcDbEntity
  8
ASSI
100
AcDbLine
 62
253
  6
CONTINUOUS
 10
-45.2124236671
 20
-0.6948327723
 11
-45.2126509524
 21
-0.6575807887
  0
LWPOLYLINE
  5
38F
100
AcDbEntity
  8
ASSI
100
AcDbPolyline
 62
253
  6
CONTINUOUS
 90
10
 70
0
 10
-45.2124208952
 20
-0.6948327481
 10
-45.2105995142
 20
-1.7054682627
 10
-45.2067331575
 20
-2.7160855934
 10
-45.200821825
 20
-3.7266847401
 10
-45.1928654059
 20
-4.7372667768
 10
-45.1828640111
 20
-5.7478306295
 10
-45.1708179726
 20
-6.758373077
 10
-45.1567274012
 20
-7.7688930452
 10
-45.1405921862
 20
-8.7793916081
 10
-45.1224123275
 20
-9.7898687656
  0
LINE
  5
390
100
AcDbEntity
  8
ASSI
100
AcDbLine
 62
253
  6
CONTINUOUS
 10
-45.2126897763
 20
0.0404777271
 11
-45.2126167029
 21
0.0047803332
  0
LINE
  5
391
100
AcDbEntity
  8
ASSI
100
AcDbLine
 62
253
  6
CONTINUOUS
 10
-45.2126509524
 20
-0.6575807887
 11
-45.2126783386
 21
-0.6211606313
  0
LINE
  5
392
100
AcDbEntity
  8
ASSI
100
AcDbLine
 62
253
  6
CONTINUOUS
 10
-45.2125620837
 20
0.0774170436
 11
-45.2126897763
 21
0.0404777271
  0
LINE
  5
393
100
AcDbEntity
  8
ASSI
100
AcDbLine
 62
253
  6
CONTINUOUS
 10
-45.2126783386
 20
-0.6211606313
 11
-45.2125671577
 21
-0.5948818354
  0
LINE
  5
394
100
AcDbEntity
  8
ASSI
100
AcDbLine
 62
253
  6
CONTINUOUS
 10
-45.2124236671
 20
0.0960952412
 11
-45.2125620837
 21
0.0774170436
  0
LINE
  5
395
100
AcDbEntity
  8
ASSI
100
AcDbLine
 62
253
  6
CONTINUOUS
 10
-45.2125671577
 20
-0.5948818354
 11
-45.2123444952
 21
-0.5698594943
  0
LINE
  5
396
100
AcDbEntity
  8
ASSI
100
AcDbLine
 62
253
  6
CONTINUOUS
 10
-45.2123444952
 20
-0.5698594943
 11
-45.2120131501
 21
-0.5464081566
  0
LINE
  5
397
100
AcDbEntity
  8
ASSI
100
AcDbLine
 62
253
  6
CONTINUOUS
 10
-45.2120131501
 20
-0.5464081566
 11
-45.2117338763
 21
-0.5317932178
  0
LINE
  5
398
100
AcDbEntity
  8
ASSI
100
AcDbLine
 62
253
  6
CONTINUOUS
 10
-45.2117338763
 20
-0.5317932178
 11
-45.2114096845
 21
-0.5180897093
  0
LINE
  5
399
100
AcDbEntity
  8
ASSI
100
AcDbLine
 62
253
  6
CONTINUOUS
 10
-45.2114096845
 20
-0.5180897093
 11
-45.2110423869
 21
-0.5053742368
  0
LINE
  5
39A
100
AcDbEntity
  8
ASSI
100
AcDbLine
 62
253
  6
CONTINUOUS
 10
-45.2110423869
 20
-0.5053742368
 11
-45.2106340369
 21
-0.4937178829
  0
LWPOLYLINE
  5
39B
100
AcDbEntity
  8
ASSI
100
AcDbPolyline
 62
253
  6
CONTINUOUS
 90
17
 70
0
 10
-45.2106340369
 20
-0.4937178829
 10
-45.2101869173
 20
-0.4831858092
 10
-45.2099495918
 20
-0.4783600313
 10
-45.2097035275
 20
-0.4738368926
 10
-45.2094490682
 20
-0.4696227169
 10
-45.2091865698
 20
-0.4657233957
 10
-45.2089163992
 20
-0.4621443804
 10
-45.2086389341
 20
-0.4588906747
 10
-45.2083545625
 20
-0.4559668273
 10
-45.2080636819
 20
-0.453376926
 10
-45.207766699
 20
-0.4511245916
 10
-45.2074640289
 20
-0.4492129729
 10
-45.2071560949
 20
-0.4476447425
 10
-45.2068433274
 20
-0.4464220927
 10
-45.2065261637
 20
-0.445546733
 10
-45.2062050472
 20
-0.4450198871
 10
-45.2058804268
 20
-0.4448422916
  0
LINE
  5
39C
100
AcDbEntity
  8
ASSI
100
AcDbLine
 62
253
  6
CONTINUOUS
 10
-43.6701445142
 20
21.258260239
 11
-43.6734030835
 21
21.3233586489
  0
LINE
  5
39D
100
AcDbEntity
  8
ASSI
100
AcDbLine
 62
253
  6
CONTINUOUS
 10
-43.6734030835
 20
21.3233586489
 11
-43.6763081502
 21
21.3873457928
  0
LINE
  5
39E
100
AcDbEntity
  8
ASSI
100
AcDbLine
 62
253
  6
CONTINUOUS
 10
-43.6763081502
 20
21.3873457928
 11
-43.678810123
 21
21.449129374
  0
LINE
  5
39F
100
AcDbEntity
  8
ASSI
100
AcDbLine
 62
253
  6
CONTINUOUS
 10
-43.678810123
 20
21.449129374
 11
-43.680866292
 21
21.507654712
  0
LINE
  5
3A0
100
AcDbEntity
  8
ASSI
100
AcDbLine
 62
253
  6
CONTINUOUS
 10
-43.680866292
 20
21.507654712
 11
-43.6820944413
 21
21.5488069171
  0
LINE
  5
3A1
100
AcDbEntity
  8
ASSI
100
AcDbLine
 62
253
  6
CONTINUOUS
 10
-43.6820944413
 20
21.5488069171
 11
-43.6830401132
 21
21.5871674974
  0
LINE
  5
3A2
100
AcDbEntity
  8
ASSI
100
AcDbLine
 62
253
  6
CONTINUOUS
 10
-43.6830401132
 20
21.5871674974
 11
-43.6835090277
 21
21.6110070899
  0
LINE
  5
3A3
100
AcDbEntity
  8
ASSI
100
AcDbLine
 62
253
  6
CONTINUOUS
 10
-43.6835090277
 20
21.6110070899
 11
-43.6838462975
 21
21.6333396759
  0
LINE
  5
3A4
100
AcDbEntity
  8
ASSI
100
AcDbLine
 62
253
  6
CONTINUOUS
 10
-43.6838462975
 20
21.6333396759
 11
-43.6840504814
 21
21.6540698459
  0
LWPOLYLINE
  5
3A5
100
AcDbEntity
  8
ASSI
100
AcDbPolyline
 62
253
  6
CONTINUOUS
 90
20
 70
0
 10
-43.6840504814
 20
21.6540698459
 10
-43.6841207074
 20
21.6731090364
 10
-43.68410547
 20
21.6819688039
 10
-43.6840566753
 20
21.6903759081
 10
-43.6839743756
 20
21.6983213673
 10
-43.6838586587
 20
21.7057966932
 10
-43.6837096483
 20
21.7127938997
 10
-43.6835275036
 20
21.7193055112
 10
-43.6833124192
 20
21.7253245712
 10
-43.6830646247
 20
21.7308446494
 10
-43.6827843851
 20
21.7358598484
 10
-43.6824719996
 20
21.7403648103
 10
-43.682127802
 20
21.7443547223
 10
-43.68175216
 20
21.7478253218
 10
-43.681345475
 20
21.750772901
 10
-43.6809081813
 20
21.753194311
 10
-43.6804407462
 20
21.7550869648
 10
-43.6799436691
 20
21.7564488405
 10
-43.679417481
 20
21.7572784831
 10
-43.678862744
 20
21.7575750063
  0
LINE
  5
3A6
100
AcDbEntity
  8
ASSI
100
AcDbLine
 62
253
  6
CONTINUOUS
 10
-43.6841023713
 20
-22.2625436082
 11
-43.6841054699
 21
-22.2807063403
  0
LINE
  5
3A7
100
AcDbEntity
  8
ASSI
100
AcDbLine
 62
253
  6
CONTINUOUS
 10
-43.683965093
 20
-22.2426483013
 11
-43.6841023713
 21
-22.2625436082
  0
LINE
  5
3A8
100
AcDbEntity
  8
ASSI
100
AcDbLine
 62
253
  6
CONTINUOUS
 10
-43.6836942215
 20
-22.2211054166
 11
-43.683965093
 21
-22.2426483013
  0
LINE
  5
3A9
100
AcDbEntity
  8
ASSI
100
AcDbLine
 62
253
  6
CONTINUOUS
 10
-43.683290914
 20
-22.1980069896
 11
-43.6836942215
 21
-22.2211054166
  0
LINE
  5
3AA
100
AcDbEntity
  8
ASSI
100
AcDbLine
 62
253
  6
CONTINUOUS
 10
-43.6824415573
 20
-22.1606602863
 11
-43.683290914
 21
-22.1980069896
  0
LINE
  5
3AB
100
AcDbEntity
  8
ASSI
100
AcDbLine
 62
253
  6
CONTINUOUS
 10
-43.681306388
 20
-22.1203959386
 11
-43.6824415573
 21
-22.1606602863
  0
LINE
  5
3AC
100
AcDbEntity
  8
ASSI
100
AcDbLine
 62
253
  6
CONTINUOUS
 10
-43.679896313
 20
-22.0776008136
 11
-43.681306388
 21
-22.1203959386
  0
LINE
  5
3AD
100
AcDbEntity
  8
ASSI
100
AcDbLine
 62
253
  6
CONTINUOUS
 10
-43.6776123633
 20
-22.0173175814
 11
-43.679896313
 21
-22.0776008136
  0
LINE
  5
3AE
100
AcDbEntity
  8
ASSI
100
AcDbLine
 62
253
  6
CONTINUOUS
 10
-43.6749030562
 20
-21.9542975993
 11
-43.6776123633
 21
-22.0173175814
  0
LINE
  5
3AF
100
AcDbEntity
  8
ASSI
100
AcDbLine
 62
253
  6
CONTINUOUS
 10
-43.6718146409
 20
-21.8896166541
 11
-43.6749030562
 21
-21.9542975993
  0
LINE
  5
3B0
100
AcDbEntity
  8
ASSI
100
AcDbLine
 62
253
  6
CONTINUOUS
 10
-43.6701445142
 20
-21.8569977701
 11
-43.6718146409
 21
-21.8896166541
  0
LINE
  5
3B1
100
AcDbEntity
  8
ASSI
100
AcDbLine
 62
253
  6
CONTINUOUS
 10
-39.9951304676
 20
-0.6493021444
 11
-45.2124208952
 21
-0.6948327481
  0
LINE
  5
3B2
100
AcDbEntity
  8
ASSI
100
AcDbLine
 62
7
  6
CONTINUOUS
 10
-39.9951304676
 20
-0.3993687656
 11
-45.4471539606
 21
-0.4469478538
  0
LINE
  5
3B3
100
AcDbEntity
  8
ASSI
100
AcDbLine
 62
253
  6
CONTINUOUS
 10
-45.2124208952
 20
-0.6948327592
 11
-45.6949722473
 21
-0.6971372198
  0
LINE
  5
3B4
100
AcDbEntity
  8
ASSI
100
AcDbLine
 62
7
  6
CONTINUOUS
 10
-45.4471539606
 20
-0.1517896774
 11
-39.9951304676
 21
-0.1993687656
  0
LINE
  5
3B5
100
AcDbEntity
  8
ASSI
100
AcDbLine
 62
7
  6
CONTINUOUS
 10
-40.3951304676
 20
-18.2328603668
 11
-40.3951304676
 21
-17.9713896867
  0
LINE
  5
3B6
100
AcDbEntity
  8
ASSI
100
AcDbLine
 62
7
  6
CONTINUOUS
 10
-40.3951304676
 20
17.3726521555
 11
-40.3951304676
 21
17.6341228356
  0
LINE
  5
3B7
100
AcDbEntity
  8
ASSI
100
AcDbLine
 62
7
  6
CONTINUOUS
 10
-39.9951304676
 20
-0.3993687656
 11
-39.9951304676
 21
-13.3993687656
  0
LINE
  5
3B8
100
AcDbEntity
  8
ASSI
100
AcDbLine
 62
7
  6
CONTINUOUS
 10
-39.9951304676
 20
-0.1993687656
 11
-39.9951304676
 21
12.8006312344
  0
LINE
  5
3B9
100
AcDbEntity
  8
ASSI
100
AcDbLine
 62
253
  6
CONTINUOUS
 10
-45.6949722473
 20
0.0983996886
 11
-45.2124208952
 21
0.096095228
  0
LINE
  5
3BA
100
AcDbEntity
  8
ASSI
100
AcDbLine
 62
253
  6
CONTINUOUS
 10
-45.2124208952
 20
0.096095217
 11
-39.9951304676
 21
0.0505646132
  0
LINE
  5
3BB
100
AcDbEntity
  8
ASSI
100
AcDbLine
 62
7
  6
CONTINUOUS
 10
-40.7919980321
 20
21.908869175
 11
-39.9951304676
 21
12.8006312344
  0
LINE
  5
3BC
100
AcDbEntity
  8
ASSI
100
AcDbLine
 62
7
  6
CONTINUOUS
 10
-39.9951304676
 20
-13.3993687656
 11
-40.7919980321
 21
-22.5076067061
  0
LWPOLYLINE
  5
3BD
100
AcDbEntity
  8
ASSI
100
AcDbPolyline
 62
253
  6
CONTINUOUS
 90
3
 70
0
 10
-45.1224123275
 20
9.1911312344
 10
-45.6007840061
 20
9.2005111898
 10
-45.602571421
 20
9.200555707
  0
LWPOLYLINE
  5
3BE
100
AcDbEntity
  8
ASSI
100
AcDbPolyline
 62
253
  6
CONTINUOUS
 90
3
 70
0
 10
-45.6038493969
 20
9.2005905756
 10
-45.6046166254
 20
9.20061576
 10
-45.604872321
 20
9.2006312344
  0
LINE
  5
3BF
100
AcDbEntity
  8
ASSI
100
AcDbLine
 62
253
  6
CONTINUOUS
 10
-40.4180061879
 20
17.6341228357
 11
-40.3951304676
 21
17.6341228356
  0
LWPOLYLINE
  5
3C0
100
AcDbEntity
  8
ASSI
100
AcDbPolyline
 62
253
  6
CONTINUOUS
 90
52
 70
0
 10
-43.6701445142
 20
21.258260239
 10
-43.6835470602
 20
21.2573767114
 10
-43.6969031502
 20
21.2561362399
 10
-43.7102127844
 20
21.2545388247
 10
-43.7234858852
 20
21.2525827792
 10
-43.73671253
 20
21.2502697898
 10
-43.7498629517
 20
21.2476049159
 10
-43.7629366092
 20
21.2445874123
 10
-43.7759340434
 20
21.2412180242
 10
-43.7888271095
 20
21.2375040463
 10
-43.8016155385
 20
21.233444742
 10
-43.8142995993
 20
21.229040848
 10
-43.826851954
 20
21.2243018695
 10
-43.8392723376
 20
21.2192270772
 10
-43.8515610151
 20
21.2138172005
 10
-43.8636914427
 20
21.208083933
 10
-43.8756632745
 20
21.2020265757
 10
-43.8874768564
 20
21.1956458276
 10
-43.8991066823
 20
21.1889554793
 10
-43.9105523544
 20
21.181954861
 10
-43.9218142704
 20
21.1746446425
 10
-43.932868118
 20
21.1670406234
 10
-43.9437134383
 20
21.1591421764
 10
-43.9543506901
 20
21.1509499289
 10
-43.9647569384
 20
21.1424815625
 10
-43.9749316956
 20
21.133736471
 10
-43.9848754492
 20
21.1247152608
 10
-43.9945667268
 20
21.1154374323
 10
-44.0040049715
 20
21.1059024425
 10
-44.0131907402
 20
21.0961108345
 10
-44.022104232
 20
21.0860837384
 10
-44.0307448657
 20
21.0758206383
 10
-44.0391132224
 20
21.06532205
 10
-44.0471912451
 20
21.054610651
 10
-44.0549783037
 20
21.0436859845
 10
-44.0624750282
 20
21.0325485072
 10
-44.0696652512
 20
21.0212222671
 10
-44.0765483107
 20
21.0097068557
 10
-44.0831248686
 20
20.9980026816
 10
-44.089380744
 20
20.9861350184
 10
-44.0953152375
 20
20.9741035329
 10
-44.1009290485
 20
20.9619085585
 10
-44.1062100932
 20
20.949576368
 10
-44.1111576669
 20
20.9371066241
 10
-44.1157724744
 20
20.9244996642
 10
-44.1200445468
 20
20.911782774
 10
-44.1239731788
 20
20.8989554527
 10
-44.1275590757
 20
20.8860182011
 10
-44.1307943855
 20
20.8729998075
 10
-44.133676491
 20
20.859909868
 10
-44.1362080093
 20
20.8467387864
 10
-44.1383889406
 20
20.8334865628
  0
LINE
  5
3C1
100
AcDbEntity
  8
ASSI
100
AcDbLine
 62
253
  6
CONTINUOUS
 10
-40.7484732415
 20
21.4113785422
 11
-43.6701445142
 21
21.258260239
  0
LINE
  5
3C2
100
AcDbEntity
  8
ASSI
100
AcDbLine
 62
7
  6
CONTINUOUS
 10
-40.7919980321
 20
21.908869175
 11
-43.678862744
 21
21.7575750063
  0
LINE
  5
3C3
100
AcDbEntity
  8
ASSI
100
AcDbLine
 62
253
  6
CONTINUOUS
 10
-44.1383889406
 20
20.8334865628
 11
-44.454107276
 21
20.8817709668
  0
LINE
  5
3C4
100
AcDbEntity
  8
ASSI
100
AcDbLine
 62
253
  6
CONTINUOUS
 10
-44.454107276
 20
20.8817709668
 11
-44.5521188607
 21
20.8972043506
  0
LINE
  5
3C5
100
AcDbEntity
  8
ASSI
100
AcDbLine
 62
253
  6
CONTINUOUS
 10
-44.5521188607
 20
20.8972043506
 11
-44.5851595981
 21
20.9025679444
  0
LINE
  5
3C6
100
AcDbEntity
  8
ASSI
100
AcDbLine
 62
253
  6
CONTINUOUS
 10
-44.5851595981
 20
20.9025679444
 11
-44.5993314133
 21
20.9049456582
  0
LWPOLYLINE
  5
3C7
100
AcDbEntity
  8
ASSI
100
AcDbPolyline
 62
253
  6
CONTINUOUS
 90
8
 70
0
 10
-44.5993314133
 20
20.9049456582
 10
-44.6063373096
 20
20.9061661822
 10
-44.6090961457
 20
20.9066650708
 10
-44.6113549695
 20
20.9070890037
 10
-44.6131114673
 20
20.9074375467
 10
-44.61436384
 20
20.9077103427
 10
-44.6151108047
 20
20.9079071123
 10
-44.6153515965
 20
20.908027654
  0
ARC
  5
3C8
100
AcDbEntity
  8
ASSI
100
AcDbCircle
 62
7
  6
CONTINUOUS
 10
44.3788812126
 20
-8.0893687656
 40
90.0
100
AcDbArc
 50
181.08868532
 51
188.5737414447
  0
ARC
  5
3C9
100
AcDbEntity
  8
ASSI
100
AcDbCircle
 62
7
  6
CONTINUOUS
 10
-43.6265267877
 20
-21.3576830028
 40
1.0
100
AcDbArc
 50
188.5737414447
 51
267.0
  0
ARC
  5
3CA
100
AcDbEntity
  8
ASSI
100
AcDbCircle
 62
7
  6
CONTINUOUS
 10
-40.6951304676
 20
-18.2328603668
 40
0.3
100
AcDbArc
 50
334.9996147859
 51
360.0
  0
ARC
  5
3CB
100
AcDbEntity
  8
ASSI
100
AcDbCircle
 62
7
  6
CONTINUOUS
 10
-45.4449722966
 20
-0.6969383343
 40
0.25
100
AcDbArc
 50
90.5000068929
 51
180.0455810216
  0
ARC
  5
3CC
100
AcDbEntity
  8
ASSI
100
AcDbCircle
 62
7
  6
CONTINUOUS
 10
44.3788812126
 20
7.4906312344
 40
90.0
100
AcDbArc
 50
171.4262585553
 51
178.91131468
  0
ARC
  5
3CD
100
AcDbEntity
  8
ASSI
100
AcDbCircle
 62
7
  6
CONTINUOUS
 10
-43.6265267877
 20
20.7589454716
 40
1.0
100
AcDbArc
 50
93.0
 51
171.4262585553
  0
ARC
  5
3CE
100
AcDbEntity
  8
ASSI
100
AcDbCircle
 62
7
  6
CONTINUOUS
 10
-40.6951304676
 20
17.6341228356
 40
0.3
100
AcDbArc
 50
0.0
 51
25.0003852136
  0
ARC
  5
3CF
100
AcDbEntity
  8
ASSI
100
AcDbCircle
 62
7
  6
CONTINUOUS
 10
-45.4449722966
 20
0.0982008031
 40
0.25
100
AcDbArc
 50
179.9544189784
 51
269.4999931072
  0
ARC
  5
3D0
100
AcDbEntity
  8
ASSI
100
AcDbCircle
 62
7
  6
CONTINUOUS
 10
454.3048695324
 20
-0.2993687656
 40
500.0
100
AcDbArc
 50
178.91131468
 51
179.954419088
  0
ARC
  5
3D1
100
AcDbEntity
  8
ASSI
100
AcDbCircle
 62
7
  6
CONTINUOUS
 10
454.3048695324
 20
-0.2993687656
 40
500.0
100
AcDbArc
 50
180.045580912
 51
181.08868532
  0
ELLIPSE
  5
3D2
100
AcDbEntity
  8
ASSI
100
AcDbEllipse
 62
7
  6
CONTINUOUS
 10
3.5777869179
 20
21.8825011213
 30
0.0
 11
0.2
 21
0.0
 31
0.0
 40
0.0524077793
 41
-2.617993878
 42
-1.5707963268
  0
ELLIPSE
  5
3D3
100
AcDbEntity
  8
ASSI
100
AcDbEllipse
 62
7
  6
CONTINUOUS
 10
14.7777869179
 20
21.8825011213
 30
0.0
 11
0.2
 21
0.0
 31
0.0
 40
0.0524077793
 41
-2.617993878
 42
-1.5707963268
  0
ELLIPSE
  5
3D4
100
AcDbEntity
  8
ASSI
100
AcDbEllipse
 62
7
  6
CONTINUOUS
 10
18.1468468103
 20
21.8825011213
 30
0.0
 11
0.2
 21
0.0
 31
0.0
 40
0.0524077793
 41
-1.5707963268
 42
-0.5235987756
  0
ELLIPSE
  5
3D5
100
AcDbEntity
  8
ASSI
100
AcDbEllipse
 62
7
  6
CONTINUOUS
 10
6.9468468103
 20
21.8825011213
 30
0.0
 11
0.2
 21
0.0
 31
0.0
 40
0.0524077793
 41
-1.5707963268
 42
-0.5235987756
  0
ELLIPSE
  5
3D6
100
AcDbEntity
  8
ASSI
100
AcDbEllipse
 62
7
  6
CONTINUOUS
 10
-4.3531531897
 20
21.8825011213
 30
0.0
 11
0.2
 21
0.0
 31
0.0
 40
0.0524077793
 41
-1.5707963268
 42
-0.5235987756
  0
ELLIPSE
  5
3D7
100
AcDbEntity
  8
ASSI
100
AcDbEllipse
 62
7
  6
CONTINUOUS
 10
-7.7222130821
 20
21.8825011213
 30
0.0
 11
0.2
 21
0.0
 31
0.0
 40
0.0524077793
 41
-2.617993878
 42
-1.5707963268
  0
ELLIPSE
  5
3D8
100
AcDbEntity
  8
ASSI
100
AcDbEllipse
 62
7
  6
CONTINUOUS
 10
-18.9222130821
 20
21.8825011213
 30
0.0
 11
0.2
 21
-0.0
 31
0.0
 40
0.0524077793
 41
-2.617993878
 42
-1.5707963268
  0
ELLIPSE
  5
3D9
100
AcDbEntity
  8
ASSI
100
AcDbEllipse
 62
7
  6
CONTINUOUS
 10
-15.5531531897
 20
21.8825011213
 30
0.0
 11
0.2
 21
0.0
 31
0.0
 40
0.0524077793
 41
-1.5707963268
 42
-0.5235987756
  0
ELLIPSE
  5
3DA
100
AcDbEntity
  8
ASSI
100
AcDbEllipse
 62
7
  6
CONTINUOUS
 10
-22.2110738356
 20
21.4104682135
 30
0.0
 11
0.4943891341
 21
0.0770133648
 31
0.0
 40
0.9960067742
 41
1.4156538168
 42
2.984623644
  0
ELLIPSE
  5
3DB
100
AcDbEntity
  8
ASSI
100
AcDbEllipse
 62
7
  6
CONTINUOUS
 10
21.4357075638
 20
21.4104682135
 30
0.0
 11
0.4943891341
 21
-0.0770133648
 31
0.0
 40
0.9960067742
 41
0.1569690096
 42
1.7259388368
  0
ELLIPSE
  5
3DC
100
AcDbEntity
  8
ASSI
100
AcDbEllipse
 62
7
  6
CONTINUOUS
 10
-22.4875307498
 20
0.050640754
 30
0.0
 11
0.2426981267
 21
0.0606514259
 31
0.0
 40
0.9993528196
 41
2.8968558282
 42
4.4673476033
  0
ELLIPSE
  5
3DD
100
AcDbEntity
  8
ASSI
100
AcDbEllipse
 62
7
  6
CONTINUOUS
 10
21.712164478
 20
0.050640754
 30
0.0
 11
0.2426981267
 21
-0.0606514259
 31
0.0
 40
0.9993528196
 41
-1.3257549497
 42
0.2447368254
  0
ELLIPSE
  5
3DE
100
AcDbEntity
  8
ASSI
100
AcDbEllipse
 62
7
  6
CONTINUOUS
 10
-4.3531531897
 20
-22.4812386525
 30
0.0
 11
0.2
 21
-0.0
 31
0.0
 40
0.0524077793
 41
0.5235987756
 42
1.5707963268
  0
ELLIPSE
  5
3DF
100
AcDbEntity
  8
ASSI
100
AcDbEllipse
 62
7
  6
CONTINUOUS
 10
-15.5531531897
 20
-22.4812386525
 30
0.0
 11
0.2
 21
-0.0
 31
0.0
 40
0.0524077793
 41
0.5235987756
 42
1.5707963268
  0
ELLIPSE
  5
3E0
100
AcDbEntity
  8
ASSI
100
AcDbEllipse
 62
7
  6
CONTINUOUS
 10
-18.9222130821
 20
-22.4812386525
 30
0.0
 11
0.2
 21
0.0
 31
0.0
 40
0.0524077793
 41
1.5707963268
 42
2.617993878
  0
ELLIPSE
  5
3E1
100
AcDbEntity
  8
ASSI
100
AcDbEllipse
 62
7
  6
CONTINUOUS
 10
-7.7222130821
 20
-22.4812386525
 30
0.0
 11
0.2
 21
0.0
 31
0.0
 40
0.0524077793
 41
1.5707963268
 42
2.617993878
  0
ELLIPSE
  5
3E2
100
AcDbEntity
  8
ASSI
100
AcDbEllipse
 62
7
  6
CONTINUOUS
 10
3.5777869179
 20
-22.4812386525
 30
0.0
 11
0.2
 21
0.0
 31
0.0
 40
0.0524077793
 41
1.5707963268
 42
2.617993878
  0
ELLIPSE
  5
3E3
100
AcDbEntity
  8
ASSI
100
AcDbEllipse
 62
7
  6
CONTINUOUS
 10
6.9468468103
 20
-22.4812386525
 30
0.0
 11
0.2
 21
0.0
 31
0.0
 40
0.0524077793
 41
0.5235987756
 42
1.5707963268
  0
ELLIPSE
  5
3E4
100
AcDbEntity
  8
ASSI
100
AcDbEllipse
 62
7
  6
CONTINUOUS
 10
18.1468468103
 20
-22.4812386525
 30
0.0
 11
0.2
 21
0.0
 31
0.0
 40
0.0524077793
 41
0.5235987756
 42
1.5707963268
  0
ELLIPSE
  5
3E5
100
AcDbEntity
  8
ASSI
100
AcDbEllipse
 62
7
  6
CONTINUOUS
 10
14.7777869179
 20
-22.4812386525
 30
0.0
 11
0.2
 21
0.0
 31
0.0
 40
0.0524077793
 41
1.5707963268
 42
2.617993878
  0
ELLIPSE
  5
3E6
100
AcDbEntity
  8
ASSI
100
AcDbEllipse
 62
7
  6
CONTINUOUS
 10
21.4357075638
 20
-22.0092057447
 30
0.0
 11
0.4943891341
 21
0.0770133648
 31
0.0
 40
0.9960067742
 41
-1.7259388368
 42
-0.1569690096
  0
ELLIPSE
  5
3E7
100
AcDbEntity
  8
ASSI
100
AcDbEllipse
 62
7
  6
CONTINUOUS
 10
-22.2110738356
 20
-22.0092057447
 30
0.0
 11
0.4943891341
 21
-0.0770133648
 31
0.0
 40
0.9960067742
 41
-2.984623644
 42
-1.4156538168
  0
ELLIPSE
  5
3E8
100
AcDbEntity
  8
ASSI
100
AcDbEllipse
 62
7
  6
CONTINUOUS
 10
21.712164478
 20
-0.6493782852
 30
0.0
 11
0.2426981267
 21
0.0606514259
 31
0.0
 40
0.9993528196
 41
-0.2447368254
 42
1.3257549497
  0
ELLIPSE
  5
3E9
100
AcDbEntity
  8
ASSI
100
AcDbEllipse
 62
7
  6
CONTINUOUS
 10
-22.4875307498
 20
-0.6493782852
 30
0.0
 11
0.2426981267
 21
-0.0606514259
 31
0.0
 40
0.9993528196
 41
1.8158377039
 42
3.386329479
  0
ENDSEC
  0
SECTION
  2
OBJECTS
  0
DICTIONARY
  5
C
100
AcDbDictionary
280
0
281
1
  3
ACAD_GROUP
350
D
  3
ACAD_MLINESTYLE
350
17
  3
ACAD_LAYOUT
350
1A
  3
ACAD_PLOTSETTINGS
350
19
  3
ACAD_PLOTSTYLENAME
350
E
  0
DICTIONARY
  5
D
102
{ACAD_REACTORS
330
C
102
}
100
AcDbDictionary
280
0
281
1
  0
ACDBDICTIONARYWDFLT
  5
E
102
{ACAD_REACTORS
330
C
102
}
100
AcDbDictionary
281
1
  3
Normal
350
F
100
AcDbDictionaryWithDefault
340
F
  0
DICTIONARY
  5
17
102
{ACAD_REACTORS
330
C
102
}
100
AcDbDictionary
280
0
281
1
  3
Standard
350
18
  0
DICTIONARY
  5
19
102
{ACAD_REACTORS
330
C
102
}
100
AcDbDictionary
281
1
  0
DICTIONARY
  5
1A
102
{ACAD_REACTORS
330
C
102
}
100
AcDbDictionary
281
1
  3
Model
350
3EA
  3
Layout1
350
3EB
  0
ACDBPLACEHOLDER
  5
F
102
{ACAD_REACTORS
330
E
102
}
  0
MLINESTYLE
  5
18
102
{ACAD_REACTORS
330
17
102
}
100
AcDbMlineStyle
  2
STANDARD
 70
0
  3

 62
256
 51
90.0
 52
90.0
 71
2
 49
0.5
 62
256
  6
BYLAYER
 49
-0.5
 62
256
  6
BYLAYER
  0
LAYOUT
  5
3EA
102
{ACAD_REACTORS
330
1A
102
}
100
AcDbPlotSettings
  1

  2
none_device
  4
ISO_A4_(297.00_x_210.00_MM)
  6

 40
0.0
 41
0.0
 42
0.0
 43
0.0
 44
297.0
 45
210.0
 46
0.0
 47
0.0
 48
0.0
 49
0.0
140
0.0
141
0.0
142
1.0
143
1.0
 70
1024
 72
1
 73
0
 74
0
  7

 75
0
147
1.0
148
0.0
149
0.0
100
AcDbLayout
  1
Model
 70
0
 71
0
 10
0.0
 20
0.0
 11
297.0
 21
210.0
 12
0.0
 22
0.0
 32
0.0
 14
0.0
 24
0.0
 34
0.0
 15
0.0
 25
0.0
 35
0.0
146
0.0
 13
0.0
 23
0.0
 33
0.0
 16
1.0
 26
0.0
 36
0.0
 17
0.0
 27
1.0
 37
0.0
 76
0
330
218
345
0
346
0
  0
LAYOUT
  5
3EB
102
{ACAD_REACTORS
330
1A
102
}
100
AcDbPlotSettings
  1

  2
none_device
  4
ISO_A4_(297.00_x_210.00_MM)
  6

 40
0.0
 41
0.0
 42
0.0
 43
0.0
 44
297.0
 45
210.0
 46
0.0
 47
0.0
 48
0.0
 49
0.0
140
0.0
141
0.0
142
1.0
143
1.0
 70
0
 72
1
 73
0
 74
0
  7

 75
0
147
1.0
148
0.0
149
0.0
100
AcDbLayout
  1
Layout1
 70
0
 71
1
 10
0.0
 20
0.0
 11
297.0
 21
210.0
 12
0.0
 22
0.0
 32
0.0
 14
0.0
 24
0.0
 34
0.0
 15
0.0
 25
0.0
 35
0.0
146
0.0
 13
0.0
 23
0.0
 33
0.0
 16
1.0
 26
0.0
 36
0.0
 17
0.0
 27
1.0
 37
0.0
 76
0
330
219
345
0
346
0
  0
ENDSEC
  0
EOF
