  0
SECTION
  2
HEADER
  9
$ACADVER
  1
AC1021
  9
$DWGCODEPAGE
  3
ANSI_1252
  9
$EXTMAX
 10
297.0
 20
210.0
 30
0.0
  9
$EXTMIN
 10
0.0
 20
0.0
 30
0.0
  9
$LIMMIN
 10
0.0
 20
0.0
  9
$LIMMAX
 10
297.0
 20
210.0
  9
$VIEWCTR
 10
148.5
 20
105.0
  9
$VIEWSIZE
 40
210.0
  9
$CLAYER
  8
0
  9
$LTSCALE
 40
16.335
  9
$CELTYPE
  6
BYLAYER
  9
$DIMSCALE
 40
1.0
  9
$DIMASZ
 40
3.0
  9
$DIMEXO
 40
0.5
  9
$DIMDLI
 40
11.286
  9
$DIMEXE
 40
1.5
  9
$DIMCEN
 40
2.673
  9
$DIMLFAC
 40
1.0
  9
$DIMBLK
  1
_FILLED
  9
$DIMALT
 70
0
  9
$DIMALTF
 40
25.4
  9
$DIMTXT
 40
3.0
  9
$DIMTOL
 70
1
  9
$DIMLIM
 70
0
  9
$DIMTFAC
 40
1.0
  9
$DIMTP
 40
0.01
  9
$DIMTM
 40
0.01
  9
$DIMGAP
 40
0.625
  9
$DIMDSEP
 70
44
  9
$AUNITS
 70
0
  9
$PDMODE
 70
3
  9
$PDSIZE
 40
3.0
  9
$HANDSEED
  5
3EB
  9
$TILEMODE
 70
1
  9
$MEASUREMENT
 70
1
  9
$INSUNITS
 70
4
  0
ENDSEC
  0
SECTION
  2
CLASSES
  0
CLASS
  1
ACDBDICTIONARYWDFLT
  2
AcDbDictionaryWithDefault
  3
AutoCAD 2000
 90
0
 91
1
280
0
281
0
  0
CLASS
  1
ACDBPLACEHOLDER
  2
AcDbPlaceHolder
  3
AutoCAD 2000
 90
0
 91
1
280
0
281
0
  0
CLASS
  1
LAYOUT
  2
AcDbLayout
  3
AutoCAD 2000
 90
0
 91
0
280
0
281
0
  0
ENDSEC
  0
SECTION
  2
TABLES
  0
TABLE
  2
VPORT
  5
8
100
AcDbSymbolTable
 70
2
  0
VPORT
  5
1F4
100
AcDbSymbolTableRecord
100
AcDbViewportTableRecord
  2
*ACTIVE
 70
0
 10
0.0
 20
0.0
 11
1.0
 21
1.0
 12
148.5
 22
105.0
 13
0.0
 23
0.0
 14
1.0
 24
1.0
 15
0.0
 25
0.0
 16
0.0
 26
0.0
 36
1.0
 17
0.0
 27
0.0
 37
0.0
 40
210.0
 41
1.4142857143
 42
50.0
 43
0.0
 44
0.0
 50
0.0
 51
0.0
 71
0
 72
100
 73
1
 74
1
 75
0
 76
0
 77
0
 78
0
  0
ENDTAB
  0
TABLE
  2
LTYPE
  5
5
100
AcDbSymbolTable
 70
6
  0
LTYPE
  5
14
100
AcDbSymbolTableRecord
100
AcDbLinetypeTableRecord
  2
BYBLOCK
 70
0
  3

 72
65
 73
0
 40
0.0
  0
LTYPE
  5
15
100
AcDbSymbolTableRecord
100
AcDbLinetypeTableRecord
  2
BYLAYER
 70
0
  3

 72
65
 73
0
 40
0.0
  0
LTYPE
  5
16
100
AcDbSymbolTableRecord
100
AcDbLinetypeTableRecord
  2
CONTINUOUS
 70
64
  3
Solid line
 72
65
 73
0
 40
0.0
  0
LTYPE
  5
1F5
100
AcDbSymbolTableRecord
100
AcDbLinetypeTableRecord
  2
CENTER
 70
64
  3
____ _ ____ _ ____ _ ____ _ ____ _ ____ _ ____
 72
65
 73
4
 40
0.6
 49
0.375
 74
0
 49
-0.075
 74
0
 49
0.075
 74
0
 49
-0.075
 74
0
  0
LTYPE
  5
1F6
100
AcDbSymbolTableRecord
100
AcDbLinetypeTableRecord
  2
HIDDEN
 70
64
  3
- - - - - - - - - - - - - - - - - - - -
 72
65
 73
2
 40
0.2
 49
0.1
 74
0
 49
-0.1
 74
0
  0
LTYPE
  5
1F7
100
AcDbSymbolTableRecord
100
AcDbLinetypeTableRecord
  2
PHANTOM
 70
64
  3
_____ _ _ _____ _ _ _____ _ _ _____
 72
65
 73
6
 40
0.8
 49
0.45
 74
0
 49
-0.05
 74
0
 49
0.1
 74
0
 49
-0.05
 74
0
 49
0.1
 74
0
 49
-0.05
 74
0
  0
LTYPE
  5
1F8
100
AcDbSymbolTableRecord
100
AcDbLinetypeTableRecord
  2
DOT
 70
64
  3
. . . . . . . . . . . . . . . . . . . .
 72
65
 73
2
 40
0.2
 49
0.1
 74
0
 49
-0.1
 74
0
  0
LTYPE
  5
1F9
100
AcDbSymbolTableRecord
100
AcDbLinetypeTableRecord
  2
DASHED
 70
64
  3
- - - - - - - - - - - - - - - - - - - -
 72
65
 73
2
 40
0.2
 49
0.1
 74
0
 49
-0.1
 74
0
  0
ENDTAB
  0
TABLE
  2
LAYER
  5
2
100
AcDbSymbolTable
 70
36
  0
LAYER
  5
10
100
AcDbSymbolTableRecord
100
AcDbLayerTableRecord
  2
0
 70
0
 62
7
  6
CONTINUOUS
370
-3
390
F
  0
LAYER
  5
1FA
100
AcDbSymbolTableRecord
100
AcDbLayerTableRecord
  2
DEFAULT_1
 70
0
 62
7
  6
CENTER
370
-3
390
F
  0
LAYER
  5
1FB
100
AcDbSymbolTableRecord
100
AcDbLayerTableRecord
  2
DEFAULT_2
 70
0
 62
7
  6
HIDDEN
370
-3
390
F
  0
LAYER
  5
1FC
100
AcDbSymbolTableRecord
100
AcDbLayerTableRecord
  2
DEFAULT_3
 70
0
 62
7
  6
PHANTOM
370
-3
390
F
  0
LAYER
  5
1FD
100
AcDbSymbolTableRecord
100
AcDbLayerTableRecord
  2
ASSI
 70
0
 62
7
  6
CONTINUOUS
370
-3
390
F
  0
LAYER
  5
1FE
100
AcDbSymbolTableRecord
100
AcDbLayerTableRecord
  2
COLOR9
 70
0
 62
7
  6
CONTINUOUS
370
-3
390
F
  0
LAYER
  5
1FF
100
AcDbSymbolTableRecord
100
AcDbLayerTableRecord
  2
COORDINATE
 70
0
 62
7
  6
CONTINUOUS
370
-3
390
F
  0
LAYER
  5
200
100
AcDbSymbolTableRecord
100
AcDbLayerTableRecord
  2
COORD_ORIGINE
 70
0
 62
7
  6
CONTINUOUS
370
-3
390
F
  0
LAYER
  5
201
100
AcDbSymbolTableRecord
100
AcDbLayerTableRecord
  2
COPY_PUBLISH
 70
0
 62
7
  6
CONTINUOUS
370
-3
390
F
  0
LAYER
  5
202
100
AcDbSymbolTableRecord
100
AcDbLayerTableRecord
  2
COSMETICI
 70
0
 62
7
  6
CONTINUOUS
370
-3
390
F
  0
LAYER
  5
203
100
AcDbSymbolTableRecord
100
AcDbLayerTableRecord
  2
CURVE
 70
0
 62
7
  6
CONTINUOUS
370
-3
390
F
  0
LAYER
  5
204
100
AcDbSymbolTableRecord
100
AcDbLayerTableRecord
  2
DRAFT
 70
0
 62
7
  6
CONTINUOUS
370
-3
390
F
  0
LAYER
  5
205
100
AcDbSymbolTableRecord
100
AcDbLayerTableRecord
  2
IGES
 70
0
 62
7
  6
CONTINUOUS
370
-3
390
F
  0
LAYER
  5
206
100
AcDbSymbolTableRecord
100
AcDbLayerTableRecord
  2
IGS_SCRITTE
 70
0
 62
7
  6
CONTINUOUS
370
-3
390
F
  0
LAYER
  5
207
100
AcDbSymbolTableRecord
100
AcDbLayerTableRecord
  2
IMPORT_IGES
 70
0
 62
7
  6
CONTINUOUS
370
-3
390
F
  0
LAYER
  5
208
100
AcDbSymbolTableRecord
100
AcDbLayerTableRecord
  2
INTF_YELLOW
 70
0
 62
7
  6
CONTINUOUS
370
-3
390
F
  0
LAYER
  5
209
100
AcDbSymbolTableRecord
100
AcDbLayerTableRecord
  2
NOTE
 70
0
 62
7
  6
CONTINUOUS
370
-3
390
F
  0
LAYER
  5
20A
100
AcDbSymbolTableRecord
100
AcDbLayerTableRecord
  2
PIANI
 70
0
 62
7
  6
CONTINUOUS
370
-3
390
F
  0
LAYER
  5
20B
100
AcDbSymbolTableRecord
100
AcDbLayerTableRecord
  2
PIANI_ORIGINE
 70
0
 62
7
  6
CONTINUOUS
370
-3
390
F
  0
LAYER
  5
20C
100
AcDbSymbolTableRecord
100
AcDbLayerTableRecord
  2
PIANI_RIFERIMENTO
 70
0
 62
7
  6
CONTINUOUS
370
-3
390
F
  0
LAYER
  5
20D
100
AcDbSymbolTableRecord
100
AcDbLayerTableRecord
  2
PUNTI
 70
0
 62
7
  6
CONTINUOUS
370
-3
390
F
  0
LAYER
  5
20E
100
AcDbSymbolTableRecord
100
AcDbLayerTableRecord
  2
RACCORDO
 70
0
 62
7
  6
CONTINUOUS
370
-3
390
F
  0
LAYER
  5
20F
100
AcDbSymbolTableRecord
100
AcDbLayerTableRecord
  2
SIMBOLI
 70
0
 62
7
  6
CONTINUOUS
370
-3
390
F
  0
LAYER
  5
210
100
AcDbSymbolTableRecord
100
AcDbLayerTableRecord
  2
SMUSSO
 70
0
 62
7
  6
CONTINUOUS
370
-3
390
F
  0
LAYER
  5
211
100
AcDbSymbolTableRecord
100
AcDbLayerTableRecord
  2
SNAPLINE
 70
0
 62
7
  6
CONTINUOUS
370
-3
390
F
  0
LAYER
  5
212
100
AcDbSymbolTableRecord
100
AcDbLayerTableRecord
  2
SOLIDO
 70
0
 62
7
  6
CONTINUOUS
370
-3
390
F
  0
LAYER
  5
213
100
AcDbSymbolTableRecord
100
AcDbLayerTableRecord
  2
SUPERFICI
 70
0
 62
7
  6
CONTINUOUS
370
-3
390
F
  0
LAYER
  5
214
100
AcDbSymbolTableRecord
100
AcDbLayerTableRecord
  2
TRASH
 70
0
 62
7
  6
CONTINUOUS
370
-3
390
F
  0
LAYER
  5
215
100
AcDbSymbolTableRecord
100
AcDbLayerTableRecord
  2
WHITE
 70
0
 62
7
  6
CONTINUOUS
370
-3
390
F
  0
ENDTAB
  0
TABLE
  2
STYLE
  5
3
100
AcDbSymbolTable
 70
1
  0
STYLE
  5
11
100
AcDbSymbolTableRecord
100
AcDbTextStyleTableRecord
  2
STANDARD
 70
0
 40
0.0
 41
0.8
 50
0.0
 71
0
 42
0.2
  3
txt
  4

  0
STYLE
  5
216
100
AcDbSymbolTableRecord
100
AcDbTextStyleTableRecord
  2
TEXTSTYLE_1
 70
0
 40
0.0
 41
0.8
 50
0.0
 71
0
 42
0.2
  3
gdt
  4

  0
ENDTAB
  0
TABLE
  2
VIEW
  5
6
100
AcDbSymbolTable
 70
0
  0
ENDTAB
  0
TABLE
  2
UCS
  5
7
100
AcDbSymbolTable
 70
0
  0
ENDTAB
  0
TABLE
  2
APPID
  5
9
100
AcDbSymbolTable
 70
1
  0
APPID
  5
217
100
AcDbSymbolTableRecord
100
AcDbRegAppTableRecord
  2
ACAD
 70
0
  0
ENDTAB
  0
TABLE
  2
BLOCK_RECORD
  5
1
100
AcDbSymbolTable
 70
0
  0
BLOCK_RECORD
  5
218
100
AcDbSymbolTableRecord
100
AcDbBlockTableRecord
  2
*Model_Space
  0
BLOCK_RECORD
  5
219
100
AcDbSymbolTableRecord
100
AcDbBlockTableRecord
  2
*Paper_Space
  0
BLOCK_RECORD
  5
21A
100
AcDbSymbolTableRecord
100
AcDbBlockTableRecord
  2
_FILLED
  0
BLOCK_RECORD
  5
21B
100
AcDbSymbolTableRecord
100
AcDbBlockTableRecord
  2
*D0
  0
BLOCK_RECORD
  5
21C
100
AcDbSymbolTableRecord
100
AcDbBlockTableRecord
  2
*D1
  0
BLOCK_RECORD
  5
21D
100
AcDbSymbolTableRecord
100
AcDbBlockTableRecord
  2
*D2
  0
ENDTAB
  0
TABLE
  2
DIMSTYLE
  5
A
100
AcDbSymbolTable
 70
1
100
AcDbDimStyleTable
 71
0
  0
DIMSTYLE
105
21E
100
AcDbSymbolTableRecord
100
AcDbDimStyleTableRecord
  2
STANDARD
 70
0
  3

  4

 40
1.0
 41
3.0
 42
0.5
 43
0.38
 44
1.5
 45
0.0
 46
0.0
 47
0.01
 48
0.01
140
3.0
141
0.09
142
0.0
143
25.4
144
1.0
145
0.0
146
1.0
147
0.625
 71
1.0
 72
0.0
 73
0
 74
0
 75
0
 76
0
 77
1
 78
8
170
0
171
1
172
0
173
0
174
0
175
0
176
0
177
0
178
0
270
2
271
2
272
2
273
2
274
2
275
0
280
0
281
0
282
0
283
1
284
8
285
0
286
0
287
3
288
0
340
11
278
44
341
21A
342
21A
343
21A
344
21A
  0
DIMSTYLE
105
21F
100
AcDbSymbolTableRecord
100
AcDbDimStyleTableRecord
  2
DIMSTYLE_1
 70
0
  3

  4

 40
1.0
 41
3.0
 42
0.5
 43
0.38
 44
1.5
 45
0.0
 46
0.0
 47
0.0
 48
0.0
140
3.0
141
0.09
142
0.0
143
25.4
144
1.0
145
0.0
146
1.0
147
0.75
 71
0.0
 72
0.0
 73
0
 74
0
 75
0
 76
0
 77
1
 78
8
170
0
171
1
172
0
173
0
174
0
175
0
176
0
177
0
178
0
270
2
271
2
272
2
273
2
274
2
275
0
280
0
281
0
282
0
283
1
284
8
285
0
286
0
287
3
288
0
340
11
278
44
341
21A
342
21A
343
21A
344
21A
  0
DIMSTYLE
105
220
100
AcDbSymbolTableRecord
100
AcDbDimStyleTableRecord
  2
DIMSTYLE_2
 70
0
  3

  4

 40
1.0
 41
3.0
 42
0.5
 43
0.38
 44
1.5
 45
0.0
 46
0.0
 47
0.0
 48
0.0
140
3.0
141
0.09
142
0.0
143
25.4
144
1.0
145
0.0
146
1.0
147
0.75
 71
0.0
 72
0.0
 73
0
 74
0
 75
0
 76
0
 77
1
 78
8
170
0
171
1
172
0
173
0
174
0
175
0
176
0
177
0
178
0
270
2
271
1
272
1
273
2
274
2
275
0
280
0
281
0
282
0
283
1
284
8
285
0
286
0
287
3
288
0
340
11
278
44
341
21A
342
21A
343
21A
344
21A
  0
ENDTAB
  0
ENDSEC
  0
SECTION
  2
BLOCKS
  0
BLOCK
  5
20
100
AcDbEntity
  8
0
100
AcDbBlockBegin
  2
*Model_Space
 70
0
 10
0.0
 20
0.0
 30
0.0
  3
*Model_Space
  1

  0
ENDBLK
  5
21
100
AcDbEntity
  8
0
100
AcDbBlockEnd
  0
BLOCK
  5
1C
100
AcDbEntity
  8
0
100
AcDbBlockBegin
  2
*Paper_Space
 70
0
 10
0.0
 20
0.0
 30
0.0
  3
*Paper_Space
  1

  0
ENDBLK
  5
1D
100
AcDbEntity
  8
0
100
AcDbBlockEnd
  0
BLOCK
  5
221
100
AcDbEntity
  8
0
100
AcDbBlockBegin
  2
_FILLED
 70
64
 10
0.0
 20
0.0
  3
_FILLED
  1

  0
SOLID
  5
222
100
AcDbEntity
  8
0
  6
BYBLOCK
 62
0
100
AcDbTrace
 10
0.0
 20
0.0
 11
-1.0
 21
0.3166666667
 12
-1.0
 22
-0.3166666667
 13
-1.0
 23
-0.3166666667
  0
ENDBLK
  5
223
100
AcDbEntity
  8
0
  6
BYBLOCK
 62
0
100
AcDbBlockEnd
  0
BLOCK
  5
224
100
AcDbEntity
  8
0
100
AcDbBlockBegin
 62
7
  6
CONTINUOUS
  2
*D0
 70
65
 10
0.0
 20
0.0
  3
*D0
  1

  0
MTEXT
  5
225
100
AcDbEntity
  8
0
100
AcDbMText
 62
7
  6
CONTINUOUS
  7
STANDARD
 71
2
 72
1
 10
-0.3401890586
 20
34.0963146239
 30
0.0
 11
1.0
 21
0.0
 31
0.0
 44
0.9
  1
22,3
 40
3.0
 41
12.8571428571
  0
LINE
  5
226
100
AcDbEntity
  8
0
100
AcDbLine
 62
7
  6
CONTINUOUS
 10
-11.4901890586
 20
13.7380766833
 11
-11.4901890586
 21
31.8463146239
  0
LINE
  5
227
100
AcDbEntity
  8
0
100
AcDbLine
 62
7
  6
CONTINUOUS
 10
10.8098109414
 20
13.7380766833
 11
10.8098109414
 21
31.8463146239
  0
LINE
  5
228
100
AcDbEntity
  8
0
100
AcDbLine
 62
7
  6
CONTINUOUS
 10
-11.4901890586
 20
30.3463146239
 11
-0.3401890586
 21
30.3463146239
  0
LINE
  5
229
100
AcDbEntity
  8
0
100
AcDbLine
 62
7
  6
CONTINUOUS
 10
10.8098109414
 20
30.3463146239
 11
-0.3401890586
 21
30.3463146239
  0
INSERT
  5
22A
100
AcDbEntity
  8
0
100
AcDbBlockReference
 62
7
  6
CONTINUOUS
  2
_FILLED
 10
-11.4901890586
 20
30.3463146239
 41
3.0
 42
3.0
 43
3.0
 50
180.0
  0
INSERT
  5
22B
100
AcDbEntity
  8
0
100
AcDbBlockReference
 62
7
  6
CONTINUOUS
  2
_FILLED
 10
10.8098109414
 20
30.3463146239
 41
3.0
 42
3.0
 43
3.0
  0
ENDBLK
  5
22C
100
AcDbEntity
  8
0
  6
BYBLOCK
 62
0
100
AcDbBlockEnd
  0
BLOCK
  5
22D
100
AcDbEntity
  8
0
100
AcDbBlockBegin
 62
7
  6
CONTINUOUS
  2
*D1
 70
65
 10
0.0
 20
0.0
  3
*D1
  1

  0
MTEXT
  5
22E
100
AcDbEntity
  8
0
100
AcDbMText
 62
7
  6
CONTINUOUS
  7
STANDARD
 71
2
 72
1
 10
15.0598109414
 20
0.1380766833
 30
0.0
 11
0.0
 21
1.0
 31
0.0
 44
0.9
  1
44,4
 40
3.0
 41
13.1785714286
  0
LINE
  5
22F
100
AcDbEntity
  8
0
100
AcDbLine
 62
7
  6
CONTINUOUS
 10
10.7825927466
 20
22.3463146239
 11
20.3098109414
 21
22.3463146239
  0
LINE
  5
230
100
AcDbEntity
  8
0
100
AcDbLine
 62
7
  6
CONTINUOUS
 10
10.7825927466
 20
-22.0701612573
 11
20.3098109414
 21
-22.0701612573
  0
LINE
  5
231
100
AcDbEntity
  8
0
100
AcDbLine
 62
7
  6
CONTINUOUS
 10
18.8098109414
 20
22.3463146239
 11
18.8098109414
 21
0.1380766833
  0
LINE
  5
232
100
AcDbEntity
  8
0
100
AcDbLine
 62
7
  6
CONTINUOUS
 10
18.8098109414
 20
-22.0701612573
 11
18.8098109414
 21
0.1380766833
  0
INSERT
  5
233
100
AcDbEntity
  8
0
100
AcDbBlockReference
 62
7
  6
CONTINUOUS
  2
_FILLED
 10
18.8098109414
 20
22.3463146239
 41
3.0
 42
3.0
 43
3.0
 50
90.0
  0
INSERT
  5
234
100
AcDbEntity
  8
0
100
AcDbBlockReference
 62
7
  6
CONTINUOUS
  2
_FILLED
 10
18.8098109414
 20
-22.0701612573
 41
3.0
 42
3.0
 43
3.0
 50
270.0
  0
ENDBLK
  5
235
100
AcDbEntity
  8
0
  6
BYBLOCK
 62
0
100
AcDbBlockEnd
  0
BLOCK
  5
236
100
AcDbEntity
  8
0
100
AcDbBlockBegin
 62
7
  6
CONTINUOUS
  2
*D2
 70
65
 10
0.0
 20
0.0
  3
*D2
  1

  0
MTEXT
  5
237
100
AcDbEntity
  8
0
100
AcDbMText
 62
7
  6
CONTINUOUS
  7
STANDARD
 71
1
 72
1
 10
-24.2619803867
 20
34.0963146239
 30
0.0
 11
1.0
 21
0.0
 31
0.0
 44
0.9
  1
5,7
 40
3.0
 41
9.3214285714
  0
LINE
  5
238
100
AcDbEntity
  8
0
100
AcDbLine
 62
7
  6
CONTINUOUS
 10
-28.8265232357
 20
13.7380766833
 11
-28.8265232357
 21
31.8463146239
  0
LINE
  5
239
100
AcDbEntity
  8
0
100
AcDbLine
 62
7
  6
CONTINUOUS
 10
-34.5263650154
 20
1.0358451373
 11
-34.5263650154
 21
31.8463146239
  0
LINE
  5
23A
100
AcDbEntity
  8
0
100
AcDbLine
 62
7
  6
CONTINUOUS
 10
-28.8265232357
 20
30.3463146239
 11
-18.0476946724
 21
30.3463146239
  0
LINE
  5
23B
100
AcDbEntity
  8
0
100
AcDbLine
 62
7
  6
CONTINUOUS
 10
-18.0476946724
 20
30.3463146239
 11
-31.6764441256
 21
30.3463146239
  0
LINE
  5
23C
100
AcDbEntity
  8
0
100
AcDbLine
 62
7
  6
CONTINUOUS
 10
-34.5263650154
 20
30.3463146239
 11
-38.5263650154
 21
30.3463146239
  0
LINE
  5
23D
100
AcDbEntity
  8
0
100
AcDbLine
 62
7
  6
CONTINUOUS
 10
-38.5263650154
 20
30.3463146239
 11
-31.6764441256
 21
30.3463146239
  0
INSERT
  5
23E
100
AcDbEntity
  8
0
100
AcDbBlockReference
 62
7
  6
CONTINUOUS
  2
_FILLED
 10
-28.8265232357
 20
30.3463146239
 41
3.0
 42
3.0
 43
3.0
 50
180.0
  0
INSERT
  5
23F
100
AcDbEntity
  8
0
100
AcDbBlockReference
 62
7
  6
CONTINUOUS
  2
_FILLED
 10
-34.5263650154
 20
30.3463146239
 41
3.0
 42
3.0
 43
3.0
  0
ENDBLK
  5
240
100
AcDbEntity
  8
0
  6
BYBLOCK
 62
0
100
AcDbBlockEnd
  0
ENDSEC
  0
SECTION
  2
ENTITIES
  0
DIMENSION
  5
241
100
AcDbEntity
  8
0
100
AcDbDimension
 62
7
  6
CONTINUOUS
  2
*D0
 10
10.8098109414
 20
30.3463146239
 11
-0.7687604313
 21
30.3463146239
 70
160
 71
2
 42
22.3
  3
DIMSTYLE_1
100
AcDbAlignedDimension
 13
-11.4901890586
 23
13.2380766833
 14
10.8098109414
 24
13.2380766833
100
AcDbRotatedDimension
  0
DIMENSION
  5
242
100
AcDbEntity
  8
0
100
AcDbDimension
 62
7
  6
CONTINUOUS
  2
*D1
 10
18.8098109414
 20
-22.0701612573
 11
18.8098109414
 21
-0.2904950169
 70
160
 71
2
 42
44.4164758811
  3
DIMSTYLE_2
100
AcDbAlignedDimension
 13
10.2825927466
 23
22.3463146239
 14
10.2825927466
 24
-22.0701612573
 50
270.0
100
AcDbRotatedDimension
  0
DIMENSION
  5
243
100
AcDbEntity
  8
0
100
AcDbDimension
 62
7
  6
CONTINUOUS
  2
*D2
 10
-34.5263650154
 20
30.3463146239
 11
-21.5834092197
 21
30.3463146239
 70
160
 71
1
 42
5.6998417798
  3
DIMSTYLE_1
100
AcDbAlignedDimension
 13
-28.8265232357
 23
13.2380766833
 14
-34.5263650154
 24
0.5358451373
 50
180.0
100
AcDbRotatedDimension
  0
LINE
  5
244
100
AcDbEntity
  8
ASSI
100
AcDbLine
 62
7
  6
CONTINUOUS
 10
3.0538572405
 20
-22.0701612573
 11
3.4020759145
 21
-22.0385524257
  0
LINE
  5
245
100
AcDbEntity
  8
ASSI
100
AcDbLine
 62
7
  6
CONTINUOUS
 10
-8.1461427595
 20
-22.0701612573
 11
-7.7979240855
 21
-22.0385524257
  0
LINE
  5
246
100
AcDbEntity
  8
ASSI
100
AcDbLine
 62
253
  6
CONTINUOUS
 10
10.2503636147
 20
-21.0677991605
 11
10.2222055136
 21
-21.0685453232
  0
LWPOLYLINE
  5
247
100
AcDbEntity
  8
ASSI
100
AcDbPolyline
 62
253
  6
CONTINUOUS
 90
4
 70
0
 10
10.2222055136
 20
-21.0685453232
 10
10.193863649
 20
-21.0690527288
 10
10.1796524568
 20
-21.0692163541
 10
10.1654297538
 20
-21.069319735
  0
LINE
  5
248
100
AcDbEntity
  8
ASSI
100
AcDbLine
 62
7
  6
CONTINUOUS
 10
10.2825927466
 20
-22.0701612573
 11
7.4657646423
 21
-22.0701612573
  0
LINE
  5
249
100
AcDbEntity
  8
ASSI
100
AcDbLine
 62
7
  6
CONTINUOUS
 10
3.0538572405
 20
-22.0701612573
 11
-3.7342353577
 21
-22.0701612573
  0
LINE
  5
24A
100
AcDbEntity
  8
ASSI
100
AcDbLine
 62
7
  6
CONTINUOUS
 10
-8.1461427595
 20
-22.0701612573
 11
-10.9629708639
 21
-22.0701612573
  0
LINE
  5
24B
100
AcDbEntity
  8
ASSI
100
AcDbLine
 62
7
  6
CONTINUOUS
 10
-7.6247190048
 20
-22.0333116478
 11
-4.2556591124
 21
-22.0333116478
  0
LINE
  5
24C
100
AcDbEntity
  8
ASSI
100
AcDbLine
 62
7
  6
CONTINUOUS
 10
3.5752809952
 20
-22.0333116478
 11
6.9443408876
 21
-22.0333116478
  0
LINE
  5
24D
100
AcDbEntity
  8
ASSI
100
AcDbLine
 62
253
  6
CONTINUOUS
 10
-10.8621593267
 20
-21.9188670886
 11
10.1817812095
 21
-21.9188670886
  0
LINE
  5
24E
100
AcDbEntity
  8
ASSI
100
AcDbLine
 62
253
  6
CONTINUOUS
 10
-10.8884299465
 20
-21.0688289927
 11
-10.8600305741
 21
-21.0692163554
  0
LINE
  5
24F
100
AcDbEntity
  8
ASSI
100
AcDbLine
 62
7
  6
CONTINUOUS
 10
-3.7342353577
 20
-22.0701612573
 11
-4.0824540317
 21
-22.0385524257
  0
LINE
  5
250
100
AcDbEntity
  8
ASSI
100
AcDbLine
 62
7
  6
CONTINUOUS
 10
7.4657646423
 20
-22.0701612573
 11
7.1175459683
 21
-22.0385524257
  0
LINE
  5
251
100
AcDbEntity
  8
ASSI
100
AcDbLine
 62
253
  6
CONTINUOUS
 10
-10.845807871
 20
-21.0693197363
 11
10.1654297538
 21
-21.0693197363
  0
LINE
  5
252
100
AcDbEntity
  8
ASSI
100
AcDbLine
 62
253
  6
CONTINUOUS
 10
-10.8600305741
 20
-21.0692163554
 11
-10.845807871
 21
-21.0693197363
  0
LWPOLYLINE
  5
253
100
AcDbEntity
  8
ASSI
100
AcDbPolyline
 62
253
  6
CONTINUOUS
 90
49
 70
0
 10
-11.3455032845
 20
21.2709320117
 10
-11.3448102577
 20
21.2730536557
 10
-11.3437133748
 20
21.2751735827
 10
-11.3422135237
 20
21.2772900768
 10
-11.3403119181
 20
21.2794014252
 10
-11.3380100972
 20
21.281505919
 10
-11.3353099238
 20
21.2836018551
 10
-11.3322135833
 20
21.2856875372
 10
-11.3287235817
 20
21.2877612772
 10
-11.3248427433
 20
21.2898213968
 10
-11.3205742093
 20
21.2918662288
 10
-11.3159214341
 20
21.2938941181
 10
-11.3108881833
 20
21.2959034236
 10
-11.3054785307
 20
21.297892519
 10
-11.2996968542
 20
21.2998597946
 10
-11.2935478332
 20
21.3018036581
 10
-11.2870364443
 20
21.3037225364
 10
-11.2801679573
 20
21.3056148765
 10
-11.272947931
 20
21.3074791468
 10
-11.2653822088
 20
21.3093138385
 10
-11.2574769138
 20
21.3111174667
 10
-11.249238444
 20
21.3128885718
 10
-11.2406734671
 20
21.3146257203
 10
-11.2317889149
 20
21.3163275063
 10
-11.2225919778
 20
21.3179925526
 10
-11.2130900993
 20
21.3196195114
 10
-11.2032909694
 20
21.3212070662
 10
-11.1932025189
 20
21.322753932
 10
-11.1828329125
 20
21.324258857
 10
-11.1721905428
 20
21.3257206231
 10
-11.1612840228
 20
21.3271380473
 10
-11.1501221796
 20
21.3285099825
 10
-11.1387140465
 20
21.3298353183
 10
-11.1270688567
 20
21.331112982
 10
-11.1151960348
 20
21.3323419397
 10
-11.1031051899
 20
21.3335211966
 10
-11.0908061073
 20
21.3346497985
 10
-11.0783087411
 20
21.3357268318
 10
-11.0656232057
 20
21.336751425
 10
-11.0527597679
 20
21.3377227488
 10
-11.0397288384
 20
21.338640017
 10
-11.0265409634
 20
21.3395024873
 10
-11.0132068162
 20
21.3403094616
 10
-10.9997371887
 20
21.341060287
 10
-10.986142982
 20
21.3417543557
 10
-10.9724351983
 20
21.3423911059
 10
-10.9586249318
 20
21.3429700224
 10
-10.9447233593
 20
21.3434906365
 10
-10.9307417319
 20
21.3439525271
  0
LWPOLYLINE
  5
254
100
AcDbEntity
  8
ASSI
100
AcDbPolyline
 62
253
  6
CONTINUOUS
 90
51
 70
0
 10
-11.3455032845
 20
-20.9947786451
 10
-11.3448102579
 20
-20.9969002892
 10
-11.3437133752
 20
-20.9990202161
 10
-11.3422135242
 20
-21.0011367103
 10
-11.3403119189
 20
-21.0032480587
 10
-11.3380100981
 20
-21.0053525526
 10
-11.3353099249
 20
-21.0074484887
 10
-11.3322135846
 20
-21.0095341708
 10
-11.328723583
 20
-21.0116079108
 10
-11.3248427448
 20
-21.0136680305
 10
-11.3205742109
 20
-21.0157128625
 10
-11.3159214358
 20
-21.0177407518
 10
-11.3108881852
 20
-21.0197500573
 10
-11.3054785326
 20
-21.0217391528
 10
-11.2996968563
 20
-21.0237064284
 10
-11.2935478354
 20
-21.025650292
 10
-11.2870364465
 20
-21.0275691703
 10
-11.2801679595
 20
-21.0294615104
 10
-11.2729479333
 20
-21.0313257807
 10
-11.2653822111
 20
-21.0331604724
 10
-11.2574769162
 20
-21.0349641007
 10
-11.2492384465
 20
-21.0367352058
 10
-11.2406734696
 20
-21.0384723544
 10
-11.2317889173
 20
-21.0401741404
 10
-11.2225919803
 20
-21.0418391867
 10
-11.2130901018
 20
-21.0434661456
 10
-11.2032909719
 20
-21.0450537004
 10
-11.1932025213
 20
-21.0466005662
 10
-11.182832915
 20
-21.0481054912
 10
-11.1721905452
 20
-21.0495672574
 10
-11.1612840252
 20
-21.0509846816
 10
-11.1501221819
 20
-21.0523566168
 10
-11.1387140488
 20
-21.0536819526
 10
-11.1270688589
 20
-21.0549596164
 10
-11.115196037
 20
-21.0561885741
 10
-11.103105192
 20
-21.057367831
 10
-11.0908061093
 20
-21.0584964329
 10
-11.0783087431
 20
-21.0595734663
 10
-11.0656232076
 20
-21.0605980595
 10
-11.0527597697
 20
-21.0615693833
 10
-11.03972884
 20
-21.0624866515
 10
-11.0265409649
 20
-21.0633491218
 10
-11.0132068177
 20
-21.0641560962
 10
-10.99973719
 20
-21.0649069216
 10
-10.9861429832
 20
-21.0656009902
 10
-10.9724351994
 20
-21.0662377405
 10
-10.9586249328
 20
-21.066816657
 10
-10.9447233602
 20
-21.0673372712
 10
-10.9307417327
 20
-21.0677991617
 10
-10.916691366
 20
-21.0682019548
 10
-10.8884299465
 20
-21.0688289927
  0
LWPOLYLINE
  5
255
100
AcDbEntity
  8
ASSI
100
AcDbPolyline
 62
253
  6
CONTINUOUS
 90
12
 70
0
 10
-11.3111404307
 20
9.6285766833
 10
-11.310442165
 20
9.6288470154
 10
-11.3093402495
 20
9.6291171289
 10
-11.3078355753
 20
9.6293868051
 10
-11.3059293598
 20
9.6296558261
 10
-11.3036231447
 20
9.6299239741
 10
-11.3009187958
 20
9.6301910322
 10
-11.2978185006
 20
9.6304567845
 10
-11.294324767
 20
9.6307210159
 10
-11.2904404211
 20
9.6309835127
 10
-11.2861686052
 20
9.6312440626
 10
-11.2815127747
 20
9.6315024547
  0
LINE
  5
256
100
AcDbEntity
  8
0
100
AcDbLine
 62
253
  6
CONTINUOUS
 10
-3.9401890586
 20
-12.8619233167
 11
-2.6901890586
 21
-12.8619233167
  0
LINE
  5
257
100
AcDbEntity
  8
0
100
AcDbLine
 62
253
  6
CONTINUOUS
 10
3.2598109414
 20
-12.8619233167
 11
2.0098109414
 21
-12.8619233167
  0
LINE
  5
258
100
AcDbEntity
  8
0
100
AcDbLine
 62
253
  6
CONTINUOUS
 10
-1.0901890586
 20
-12.8619233167
 11
0.4098109414
 21
-12.8619233167
  0
LINE
  5
259
100
AcDbEntity
  8
0
100
AcDbLine
 62
253
  6
CONTINUOUS
 10
0.4098109414
 20
-11.8619233167
 11
-1.0901890586
 21
-11.8619233167
  0
LINE
  5
25A
100
AcDbEntity
  8
0
100
AcDbLine
 62
253
  6
CONTINUOUS
 10
2.0098109414
 20
-11.8619233167
 11
3.2598109414
 21
-11.8619233167
  0
LINE
  5
25B
100
AcDbEntity
  8
0
100
AcDbLine
 62
253
  6
CONTINUOUS
 10
-2.6901890586
 20
-11.8619233167
 11
-3.9401890586
 21
-11.8619233167
  0
LWPOLYLINE
  5
25C
100
AcDbEntity
  8
ASSI
100
AcDbPolyline
 62
253
  6
CONTINUOUS
 90
14
 70
0
 10
-11.3111404307
 20
-9.3524233167
 10
-11.3104421651
 20
-9.3526936488
 10
-11.3093402495
 20
-9.3529637623
 10
-11.3078355753
 20
-9.3532334385
 10
-11.3059293598
 20
-9.3535024595
 10
-11.3036231447
 20
-9.3537706075
 10
-11.3009187958
 20
-9.3540376656
 10
-11.2978185006
 20
-9.3543034179
 10
-11.294324767
 20
-9.3545676493
 10
-11.2904404212
 20
-9.3548301461
 10
-11.2861686052
 20
-9.355090696
 10
-11.2815127748
 20
-9.3553490881
 10
-11.276476696
 20
-9.3556051136
 10
-11.2652803929
 20
-9.356109238
  0
LINE
  5
25D
100
AcDbEntity
  8
ASSI
100
AcDbLine
 62
253
  6
CONTINUOUS
 10
-11.3531897272
 20
21.6144321227
 11
-11.3539015286
 21
21.627117418
  0
LINE
  5
25E
100
AcDbEntity
  8
ASSI
100
AcDbLine
 62
253
  6
CONTINUOUS
 10
-11.352499816
 20
21.6007792448
 11
-11.3531897272
 21
21.6144321227
  0
LINE
  5
25F
100
AcDbEntity
  8
ASSI
100
AcDbLine
 62
253
  6
CONTINUOUS
 10
-11.3518336079
 20
21.5861931853
 11
-11.352499816
 21
21.6007792448
  0
LINE
  5
260
100
AcDbEntity
  8
ASSI
100
AcDbLine
 62
253
  6
CONTINUOUS
 10
-11.3508821489
 20
21.5626420975
 11
-11.3518336079
 21
21.5861931853
  0
LINE
  5
261
100
AcDbEntity
  8
ASSI
100
AcDbLine
 62
253
  6
CONTINUOUS
 10
-11.3499923681
 20
21.5371912138
 11
-11.3508821489
 21
21.5626420975
  0
LINE
  5
262
100
AcDbEntity
  8
ASSI
100
AcDbLine
 62
253
  6
CONTINUOUS
 10
-10.8542060411
 20
22.0578439615
 11
-10.855311758
 21
22.092164831
  0
LINE
  5
263
100
AcDbEntity
  8
ASSI
100
AcDbLine
 62
253
  6
CONTINUOUS
 10
-11.3489099064
 20
21.500533196
 11
-11.3499923681
 21
21.5371912138
  0
LINE
  5
264
100
AcDbEntity
  8
ASSI
100
AcDbLine
 62
253
  6
CONTINUOUS
 10
-10.8528043539
 20
22.0051653474
 11
-10.8542060411
 21
22.0578439615
  0
LINE
  5
265
100
AcDbEntity
  8
ASSI
100
AcDbLine
 62
253
  6
CONTINUOUS
 10
-11.3479552309
 20
21.4610717456
 11
-11.3489099064
 21
21.500533196
  0
LINE
  5
266
100
AcDbEntity
  8
ASSI
100
AcDbLine
 62
253
  6
CONTINUOUS
 10
-10.8511867155
 20
21.9288956087
 11
-10.8528043539
 21
22.0051653474
  0
LWPOLYLINE
  5
267
100
AcDbEntity
  8
ASSI
100
AcDbPolyline
 62
253
  6
CONTINUOUS
 90
46
 70
0
 10
-11.3079971654
 20
0.53354069
 10
-11.3078423689
 20
0.5248178381
 10
-11.3073834779
 20
0.5161056096
 10
-11.3066210514
 20
0.5074146148
 10
-11.3055560179
 20
0.4987554382
 10
-11.3041896744
 20
0.4901386257
 10
-11.302523685
 20
0.4815746714
 10
-11.3005600786
 20
0.4730740052
 10
-11.2983012467
 20
0.4646469798
 10
-11.2957499403
 20
0.4563038582
 10
-11.2929092665
 20
0.4480548014
 10
-11.289782685
 20
0.4399098556
 10
-11.2863740034
 20
0.4318789403
 10
-11.2826873731
 20
0.4239718362
 10
-11.278727284
 20
0.4161981732
 10
-11.274498559
 20
0.4085674185
 10
-11.2700063482
 20
0.4010888655
 10
-11.2652561224
 20
0.3937716222
 10
-11.2602536669
 20
0.3866245999
 10
-11.255005074
 20
0.3796565028
 10
-11.2495167359
 20
0.3728758173
 10
-11.2437953366
 20
0.3662908014
 10
-11.2378478441
 20
0.3599094746
 10
-11.2316815017
 20
0.3537396088
 10
-11.2253038192
 20
0.347788718
 10
-11.2187225638
 20
0.3420640496
 10
-11.2119457508
 20
0.3365725756
 10
-11.2049816333
 20
0.3313209839
 10
-11.1978386928
 20
0.3263156702
 10
-11.1905256285
 20
0.3215627304
 10
-11.1830513467
 20
0.317067953
 10
-11.1754249503
 20
0.3128368121
 10
-11.1676557272
 20
0.3088744606
 10
-11.1597531393
 20
0.3051857241
 10
-11.1517268111
 20
0.3017750951
 10
-11.1435865174
 20
0.2986467274
 10
-11.1353421723
 20
0.2958044307
 10
-11.1270038162
 20
0.2932516668
 10
-11.1185816042
 20
0.2909915445
 10
-11.1100857936
 20
0.2890268164
 10
-11.1015267311
 20
0.2873598753
 10
-11.0929148405
 20
0.2859927513
 10
-11.0842606102
 20
0.2849271094
 10
-11.0755745798
 20
0.2841642473
 10
-11.0668673279
 20
0.2837050942
 10
-11.0581494587
 20
0.2835502093
  0
LINE
  5
268
100
AcDbEntity
  8
ASSI
100
AcDbLine
 62
253
  6
CONTINUOUS
 10
-11.3469547524
 20
21.4083552235
 11
-11.3479552309
 21
21.4610717456
  0
LWPOLYLINE
  5
269
100
AcDbEntity
  8
ASSI
100
AcDbPolyline
 62
253
  6
CONTINUOUS
 90
55
 70
0
 10
-11.3618547402
 20
-21.4195523213
 10
-11.3616173208
 20
-21.434057893
 10
-11.3609582922
 20
-21.4485512201
 10
-11.3598782108
 20
-21.4630200683
 10
-11.3583779881
 20
-21.4774522239
 10
-11.3564588908
 20
-21.4918355043
 10
-11.3541225386
 20
-21.5061577681
 10
-11.3513709039
 20
-21.5204069253
 10
-11.3482063093
 20
-21.5345709478
 10
-11.3446314262
 20
-21.5486378792
 10
-11.3406492723
 20
-21.5625958452
 10
-11.336263209
 20
-21.5764330634
 10
-11.3314769388
 20
-21.5901378533
 10
-11.3262945018
 20
-21.6036986463
 10
-11.3207202729
 20
-21.6171039952
 10
-11.3147589573
 20
-21.6303425842
 10
-11.3084155873
 20
-21.6434032381
 10
-11.3016955173
 20
-21.6562749319
 10
-11.2946044202
 20
-21.6689468003
 10
-11.2871482818
 20
-21.6814081464
 10
-11.2793333959
 20
-21.6936484514
 10
-11.2711663594
 20
-21.7056573826
 10
-11.2626540664
 20
-21.717424803
 10
-11.2538037024
 20
-21.7289407792
 10
-11.2446227383
 20
-21.7401955904
 10
-11.235118924
 20
-21.7511797358
 10
-11.225300282
 20
-21.7618839434
 10
-11.2151751006
 20
-21.7722991775
 10
-11.2047519268
 20
-21.7824166462
 10
-11.1940395591
 20
-21.792227809
 10
-11.1830470401
 20
-21.8017243839
 10
-11.1717836491
 20
-21.8108983546
 10
-11.1602588938
 20
-21.819741977
 10
-11.1484825027
 20
-21.828247786
 10
-11.1364644166
 20
-21.8364086014
 10
-11.1242147804
 20
-21.8442175345
 10
-11.1117439345
 20
-21.8516679935
 10
-11.0990624057
 20
-21.8587536892
 10
-11.0861808992
 20
-21.8654686403
 10
-11.0731102885
 20
-21.8718071786
 10
-11.0598616071
 20
-21.8777639534
 10
-11.0464460386
 20
-21.8833339364
 10
-11.0328749074
 20
-21.8885124258
 10
-11.0191596695
 20
-21.8932950504
 10
-11.0053119024
 20
-21.8976777728
 10
-10.9913432954
 20
-21.9016568935
 10
-10.9772656399
 20
-21.9052290536
 10
-10.9630908192
 20
-21.9083912378
 10
-10.9488307989
 20
-21.9111407766
 10
-10.9344976164
 20
-21.9134753492
 10
-10.9201033706
 20
-21.9153929848
 10
-10.9056602123
 20
-21.9168920647
 10
-10.8911803335
 20
-21.9179713235
 10
-10.8766759571
 20
-21.9186298501
 10
-10.8621593267
 20
-21.9188670886
  0
LINE
  5
26A
100
AcDbEntity
  8
ASSI
100
AcDbLine
 62
253
  6
CONTINUOUS
 10
-10.849473475
 20
21.823559003
 11
-10.8511867155
 21
21.9288956087
  0
LINE
  5
26B
100
AcDbEntity
  8
ASSI
100
AcDbLine
 62
253
  6
CONTINUOUS
 10
-11.3461820108
 20
21.3525873591
 11
-11.3469547524
 21
21.4083552235
  0
LINE
  5
26C
100
AcDbEntity
  8
ASSI
100
AcDbLine
 62
253
  6
CONTINUOUS
 10
-10.8476329959
 20
21.6633143218
 11
-10.849473475
 21
21.823559003
  0
LINE
  5
26D
100
AcDbEntity
  8
ASSI
100
AcDbLine
 62
253
  6
CONTINUOUS
 10
-11.3456481931
 20
21.2945861748
 11
-11.3461820108
 21
21.3525873591
  0
LINE
  5
26E
100
AcDbEntity
  8
ASSI
100
AcDbLine
 62
253
  6
CONTINUOUS
 10
-10.8461370645
 20
21.4396138004
 11
-10.8476329959
 21
21.6633143218
  0
LINE
  5
26F
100
AcDbEntity
  8
ASSI
100
AcDbLine
 62
7
  6
CONTINUOUS
 10
-11.4638817492
 20
-21.5726706244
 11
-11.4901890586
 21
-12.9619233167
  0
LINE
  5
270
100
AcDbEntity
  8
ASSI
100
AcDbLine
 62
253
  6
CONTINUOUS
 10
-10.8213572928
 20
15.290949961
 11
-10.8461370645
 21
21.4396138004
  0
LINE
  5
271
100
AcDbEntity
  8
ASSI
100
AcDbLine
 62
253
  6
CONTINUOUS
 10
-11.3111404307
 20
9.6285766833
 11
-11.3456481931
 21
21.2945861748
  0
LINE
  5
272
100
AcDbEntity
  8
ASSI
100
AcDbLine
 62
253
  6
CONTINUOUS
 10
-10.8114450171
 20
9.6380766833
 11
-10.8213572928
 21
15.290949961
  0
LINE
  5
273
100
AcDbEntity
  8
ASSI
100
AcDbLine
 62
7
  6
CONTINUOUS
 10
-11.4901890586
 20
-0.2118566955
 11
-11.4901890586
 21
-12.9619233167
  0
LINE
  5
274
100
AcDbEntity
  8
ASSI
100
AcDbLine
 62
7
  6
CONTINUOUS
 10
-11.4901890586
 20
0.4880100621
 11
-11.4901890586
 21
13.2380766833
  0
LINE
  5
275
100
AcDbEntity
  8
ASSI
100
AcDbLine
 62
253
  6
CONTINUOUS
 10
-11.3079972323
 20
0.5335406733
 11
-11.3111404307
 21
9.6285766833
  0
LINE
  5
276
100
AcDbEntity
  8
ASSI
100
AcDbLine
 62
253
  6
CONTINUOUS
 10
-10.8083018047
 20
0.2856557715
 11
-10.8114450171
 21
9.6380766833
  0
LINE
  5
277
100
AcDbEntity
  8
ASSI
100
AcDbLine
 62
7
  6
CONTINUOUS
 10
-11.4638817492
 20
21.848823991
 11
-11.4901890586
 21
13.2380766833
  0
LINE
  5
278
100
AcDbEntity
  8
ASSI
100
AcDbLine
 62
253
  6
CONTINUOUS
 10
-11.329787055
 20
-17.5599928777
 11
-11.3079972323
 21
-0.2573873067
  0
LINE
  5
279
100
AcDbEntity
  8
ASSI
100
AcDbLine
 62
253
  6
CONTINUOUS
 10
-10.830091641
 20
-17.6153484861
 11
-10.8083018047
 21
-0.0095024049
  0
LINE
  5
27A
100
AcDbEntity
  8
ASSI
100
AcDbLine
 62
253
  6
CONTINUOUS
 10
-10.8469222413
 20
-21.3002030954
 11
-10.830091641
 21
-17.6153484861
  0
LINE
  5
27B
100
AcDbEntity
  8
ASSI
100
AcDbLine
 62
253
  6
CONTINUOUS
 10
-11.3458324419
 20
-21.0418424428
 11
-11.329787055
 21
-17.5599928777
  0
LINE
  5
27C
100
AcDbEntity
  8
ASSI
100
AcDbLine
 62
253
  6
CONTINUOUS
 10
-10.8484859886
 20
-21.4698158968
 11
-10.8469222413
 21
-21.3002030954
  0
LINE
  5
27D
100
AcDbEntity
  8
ASSI
100
AcDbLine
 62
253
  6
CONTINUOUS
 10
-11.3464630073
 20
-21.0990581491
 11
-11.3458324419
 21
-21.0418424428
  0
LINE
  5
27E
100
AcDbEntity
  8
ASSI
100
AcDbLine
 62
253
  6
CONTINUOUS
 10
-10.8502969496
 20
-21.6018415174
 11
-10.8484859886
 21
-21.4698158968
  0
LWPOLYLINE
  5
27F
100
AcDbEntity
  8
ASSI
100
AcDbPolyline
 62
253
  6
CONTINUOUS
 90
55
 70
0
 10
-11.3618547402
 20
21.6957056878
 10
-11.3616173208
 20
21.7102112599
 10
-11.3609582922
 20
21.7247045873
 10
-11.3598782107
 20
21.7391734358
 10
-11.358377988
 20
21.7536055917
 10
-11.3564588906
 20
21.7679888723
 10
-11.3541225383
 20
21.7823111363
 10
-11.3513709035
 20
21.7965602937
 10
-11.3482063088
 20
21.8107243164
 10
-11.3446314256
 20
21.824791248
 10
-11.3406492715
 20
21.8387492142
 10
-11.3362632081
 20
21.8525864326
 10
-11.3314769378
 20
21.8662912226
 10
-11.3262945007
 20
21.8798520157
 10
-11.3207202716
 20
21.8932573648
 10
-11.3147589559
 20
21.9064959538
 10
-11.3084155857
 20
21.9195566078
 10
-11.3016955156
 20
21.9324283017
 10
-11.2946044184
 20
21.9451001701
 10
-11.2871482798
 20
21.9575615163
 10
-11.2793333938
 20
21.9698018212
 10
-11.2711663572
 20
21.9818107524
 10
-11.2626540641
 20
21.9935781727
 10
-11.2538037
 20
22.005094149
 10
-11.2446227357
 20
22.01634896
 10
-11.2351189213
 20
22.0273331054
 10
-11.2253002793
 20
22.038037313
 10
-11.2151750978
 20
22.0484525469
 10
-11.2047519239
 20
22.0585700155
 10
-11.1940395561
 20
22.0683811782
 10
-11.1830470371
 20
22.077877753
 10
-11.1717836461
 20
22.0870517235
 10
-11.1602588908
 20
22.0958953458
 10
-11.1484824997
 20
22.1044011546
 10
-11.1364644137
 20
22.1125619699
 10
-11.1242147775
 20
22.1203709029
 10
-11.1117439316
 20
22.1278213618
 10
-11.0990624029
 20
22.1349070573
 10
-11.0861808965
 20
22.1416220083
 10
-11.0731102859
 20
22.1479605464
 10
-11.0598616046
 20
22.1539173211
 10
-11.0464460362
 20
22.1594873039
 10
-11.0328749052
 20
22.1646657933
 10
-11.0191596674
 20
22.1694484176
 10
-11.0053119004
 20
22.17383114
 10
-10.9913432936
 20
22.1778102606
 10
-10.9772656382
 20
22.1813824206
 10
-10.9630908178
 20
22.1845446046
 10
-10.9488307977
 20
22.1872941434
 10
-10.9344976153
 20
22.1896287159
 10
-10.9201033698
 20
22.1915463515
 10
-10.9056602117
 20
22.1930454313
 10
-10.8911803331
 20
22.1941246901
 10
-10.8766759569
 20
22.1947832167
 10
-10.8621593267
 20
22.1950204552
  0
LWPOLYLINE
  5
280
100
AcDbEntity
  8
ASSI
100
AcDbPolyline
 62
253
  6
CONTINUOUS
 90
46
 70
0
 10
-11.3079971654
 20
-0.2573873235
 10
-11.3078423689
 20
-0.248664472
 10
-11.307383478
 20
-0.2399522438
 10
-11.3066210515
 20
-0.2312612493
 10
-11.3055560181
 20
-0.2226020731
 10
-11.3041896747
 20
-0.213985261
 10
-11.3025236854
 20
-0.2054213071
 10
-11.3005600793
 20
-0.1969206412
 10
-11.2983012476
 20
-0.1884936161
 10
-11.2957499413
 20
-0.1801504948
 10
-11.2929092678
 20
-0.1719014382
 10
-11.2897826864
 20
-0.1637564926
 10
-11.2863740051
 20
-0.1557255775
 10
-11.2826873751
 20
-0.1478184736
 10
-11.2787272862
 20
-0.1400448108
 10
-11.2744985615
 20
-0.1324140562
 10
-11.2700063509
 20
-0.1249355033
 10
-11.2652561254
 20
-0.11761826
 10
-11.2602536701
 20
-0.1104712377
 10
-11.2550050775
 20
-0.1035031407
 10
-11.2495167396
 20
-0.0967224552
 10
-11.2437953405
 20
-0.0901374391
 10
-11.2378478482
 20
-0.0837561123
 10
-11.231681506
 20
-0.0775862463
 10
-11.2253038236
 20
-0.0716353554
 10
-11.2187225684
 20
-0.0659106868
 10
-11.2119457554
 20
-0.0604192126
 10
-11.204981638
 20
-0.0551676207
 10
-11.1978386975
 20
-0.0501623068
 10
-11.1905256332
 20
-0.0454093668
 10
-11.1830513514
 20
-0.0409145892
 10
-11.175424955
 20
-0.036683448
 10
-11.1676557318
 20
-0.0327210962
 10
-11.1597531437
 20
-0.0290323595
 10
-11.1517268153
 20
-0.0256217302
 10
-11.1435865214
 20
-0.0224933622
 10
-11.135342176
 20
-0.0196510654
 10
-11.1270038196
 20
-0.0170983012
 10
-11.1185816074
 20
-0.0148381787
 10
-11.1100857963
 20
-0.0128734505
 10
-11.1015267334
 20
-0.0112065092
 10
-11.0929148425
 20
-0.009839385
 10
-11.0842606117
 20
-0.0087737429
 10
-11.0755745809
 20
-0.0080108808
 10
-11.0668673284
 20
-0.0075517277
 10
-11.0581494587
 20
-0.0073968427
  0
LINE
  5
281
100
AcDbEntity
  8
ASSI
100
AcDbLine
 62
253
  6
CONTINUOUS
 10
-11.3473283788
 20
-21.1536993664
 11
-11.3464630073
 21
-21.0990581491
  0
LINE
  5
282
100
AcDbEntity
  8
ASSI
100
AcDbLine
 62
253
  6
CONTINUOUS
 10
-10.8518145113
 20
-21.6845807496
 11
-10.8502969496
 21
-21.6018415174
  0
LINE
  5
283
100
AcDbEntity
  8
ASSI
100
AcDbLine
 62
253
  6
CONTINUOUS
 10
-11.3481813805
 20
-21.1950256945
 11
-11.3473283788
 21
-21.1536993664
  0
LINE
  5
284
100
AcDbEntity
  8
ASSI
100
AcDbLine
 62
253
  6
CONTINUOUS
 10
-10.8531463429
 20
-21.7429008313
 11
-10.8518145113
 21
-21.6845807496
  0
LINE
  5
285
100
AcDbEntity
  8
ASSI
100
AcDbLine
 62
253
  6
CONTINUOUS
 10
-11.3491688803
 20
-21.2338193297
 11
-11.3481813805
 21
-21.1950256945
  0
LINE
  5
286
100
AcDbEntity
  8
ASSI
100
AcDbLine
 62
253
  6
CONTINUOUS
 10
-10.8542060411
 20
-21.7816905949
 11
-10.8531463429
 21
-21.7429008313
  0
LINE
  5
287
100
AcDbEntity
  8
ASSI
100
AcDbLine
 62
253
  6
CONTINUOUS
 10
-11.3499923681
 20
-21.2610378472
 11
-11.3491688803
 21
-21.2338193297
  0
LINE
  5
288
100
AcDbEntity
  8
ASSI
100
AcDbLine
 62
253
  6
CONTINUOUS
 10
-10.855311758
 20
-21.8160114644
 11
-10.8542060411
 21
-21.7816905949
  0
LINE
  5
289
100
AcDbEntity
  8
ASSI
100
AcDbLine
 62
253
  6
CONTINUOUS
 10
-11.3508821489
 20
-21.286488731
 11
-11.3499923681
 21
-21.2610378472
  0
LINE
  5
28A
100
AcDbEntity
  8
ASSI
100
AcDbLine
 62
253
  6
CONTINUOUS
 10
-11.3518336079
 20
-21.3100398187
 11
-11.3508821489
 21
-21.286488731
  0
LINE
  5
28B
100
AcDbEntity
  8
ASSI
100
AcDbLine
 62
253
  6
CONTINUOUS
 10
-11.352499816
 20
-21.3246258782
 11
-11.3518336079
 21
-21.3100398187
  0
LINE
  5
28C
100
AcDbEntity
  8
ASSI
100
AcDbLine
 62
253
  6
CONTINUOUS
 10
-11.3531897272
 20
-21.3382787561
 11
-11.352499816
 21
-21.3246258782
  0
LINE
  5
28D
100
AcDbEntity
  8
ASSI
100
AcDbLine
 62
253
  6
CONTINUOUS
 10
-11.3539015286
 20
-21.3509640514
 11
-11.3531897272
 21
-21.3382787561
  0
LINE
  5
28E
100
AcDbEntity
  8
ASSI
100
AcDbLine
 62
253
  6
CONTINUOUS
 10
10.6011346575
 20
-9.3553490881
 11
10.5906863254
 21
-9.3558585652
  0
LINE
  5
28F
100
AcDbEntity
  8
ASSI
100
AcDbLine
 62
253
  6
CONTINUOUS
 10
10.5906863254
 20
-9.3558585652
 11
10.5787511083
 21
-9.3563569291
  0
LINE
  5
290
100
AcDbEntity
  8
ASSI
100
AcDbLine
 62
253
  6
CONTINUOUS
 10
10.5787511083
 20
-9.3563569291
 11
10.5653676171
 21
-9.3568425677
  0
LINE
  5
291
100
AcDbEntity
  8
ASSI
100
AcDbLine
 62
253
  6
CONTINUOUS
 10
10.5653676171
 20
-9.3568425677
 11
10.5426728233
 21
-9.3575437412
  0
LINE
  5
292
100
AcDbEntity
  8
ASSI
100
AcDbLine
 62
253
  6
CONTINUOUS
 10
10.5426728233
 20
-9.3575437412
 11
10.5077859165
 21
-9.3584198387
  0
LINE
  5
293
100
AcDbEntity
  8
ASSI
100
AcDbLine
 62
253
  6
CONTINUOUS
 10
10.5077859165
 20
-9.3584198387
 11
10.4884851662
 21
-9.358829483
  0
LINE
  5
294
100
AcDbEntity
  8
ASSI
100
AcDbLine
 62
253
  6
CONTINUOUS
 10
-11.2062460848
 20
-9.3579907955
 11
-11.1688632834
 21
-9.358829483
  0
LINE
  5
295
100
AcDbEntity
  8
ASSI
100
AcDbLine
 62
253
  6
CONTINUOUS
 10
-11.230957265
 20
-9.3573139098
 11
-11.2062460848
 21
-9.3579907955
  0
LINE
  5
296
100
AcDbEntity
  8
ASSI
100
AcDbLine
 62
253
  6
CONTINUOUS
 10
-11.2526159164
 20
-9.3566014383
 11
-11.230957265
 21
-9.3573139098
  0
LINE
  5
297
100
AcDbEntity
  8
ASSI
100
AcDbLine
 62
253
  6
CONTINUOUS
 10
-11.2652803929
 20
-9.356109238
 11
-11.2526159164
 21
-9.3566014383
  0
LWPOLYLINE
  5
298
100
AcDbEntity
  8
ASSI
100
AcDbPolyline
 62
253
  6
CONTINUOUS
 90
17
 70
0
 10
-11.3553852318
 20
21.6494879427
 10
-11.3557672355
 20
21.6544337522
 10
-11.3561532836
 20
21.6591150537
 10
-11.3565433691
 20
21.6635323045
 10
-11.3569368174
 20
21.6676778594
 10
-11.357333634
 20
21.6715512457
 10
-11.3577338134
 20
21.6751529361
 10
-11.3581366648
 20
21.6784767034
 10
-11.3585421934
 20
21.6815220707
 10
-11.358950394
 20
21.6842895149
 10
-11.3593605591
 20
21.6867742389
 10
-11.359772699
 20
21.6889757616
 10
-11.3601868033
 20
21.6908945642
 10
-11.3606021335
 20
21.6925272934
 10
-11.3610184433
 20
21.6938728316
 10
-11.3614359788
 20
21.6949322964
 10
-11.3618547402
 20
21.6957056878
  0
LINE
  5
299
100
AcDbEntity
  8
ASSI
100
AcDbLine
 62
253
  6
CONTINUOUS
 10
-11.3546339902
 20
21.6388131887
 11
-11.3553852318
 21
21.6494879427
  0
LINE
  5
29A
100
AcDbEntity
  8
ASSI
100
AcDbLine
 62
253
  6
CONTINUOUS
 10
-11.3539015286
 20
21.627117418
 11
-11.3546339902
 21
21.6388131887
  0
LWPOLYLINE
  5
29B
100
AcDbEntity
  8
ASSI
100
AcDbPolyline
 62
253
  6
CONTINUOUS
 90
11
 70
0
 10
-10.8580382537
 20
22.1539114276
 10
-10.8584410974
 20
22.160559934
 10
-10.8588466253
 20
22.1666524141
 10
-10.8592548276
 20
22.1721853333
 10
-10.8596649885
 20
22.1771554732
 10
-10.8600771032
 20
22.1815599554
 10
-10.8604911764
 20
22.1853962578
 10
-10.8609065056
 20
22.1886621844
 10
-10.8613228567
 20
22.1913558481
 10
-10.8617404637
 20
22.1934756818
 10
-10.8621593267
 20
22.1950204552
  0
LINE
  5
29C
100
AcDbEntity
  8
ASSI
100
AcDbLine
 62
253
  6
CONTINUOUS
 10
-10.8572412773
 20
22.1389619658
 11
-10.8580382537
 21
22.1539114276
  0
LINE
  5
29D
100
AcDbEntity
  8
ASSI
100
AcDbLine
 62
253
  6
CONTINUOUS
 10
-10.8564577559
 20
22.1218384763
 11
-10.8572412773
 21
22.1389619658
  0
LWPOLYLINE
  5
29E
100
AcDbEntity
  8
ASSI
100
AcDbPolyline
 62
253
  6
CONTINUOUS
 90
3
 70
0
 10
-10.855311758
 20
22.092164831
 10
-10.8556897171
 20
22.1025805243
 10
-10.8564577559
 20
22.1218384763
  0
LINE
  5
29F
100
AcDbEntity
  8
ASSI
100
AcDbLine
 62
253
  6
CONTINUOUS
 10
-10.8560717138
 20
-21.836320276
 11
-10.855311758
 21
-21.8160114644
  0
LINE
  5
2A0
100
AcDbEntity
  8
ASSI
100
AcDbLine
 62
253
  6
CONTINUOUS
 10
-10.8568478357
 20
-21.8545162527
 11
-10.8560717138
 21
-21.836320276
  0
LINE
  5
2A1
100
AcDbEntity
  8
ASSI
100
AcDbLine
 62
253
  6
CONTINUOUS
 10
-11.3546339902
 20
-21.3626598222
 11
-11.3539015286
 21
-21.3509640514
  0
LINE
  5
2A2
100
AcDbEntity
  8
ASSI
100
AcDbLine
 62
253
  6
CONTINUOUS
 10
10.4884851662
 20
-9.358829483
 11
10.4353203873
 21
-9.3597601926
  0
LINE
  5
2A3
100
AcDbEntity
  8
ASSI
100
AcDbLine
 62
253
  6
CONTINUOUS
 10
10.4353203873
 20
-9.3597601926
 11
10.3635173664
 21
-9.3606800601
  0
LINE
  5
2A4
100
AcDbEntity
  8
ASSI
100
AcDbLine
 62
253
  6
CONTINUOUS
 10
10.3635173664
 20
-9.3606800601
 11
10.2713697616
 21
-9.3614485628
  0
LINE
  5
2A5
100
AcDbEntity
  8
ASSI
100
AcDbLine
 62
253
  6
CONTINUOUS
 10
10.2713697616
 20
-9.3614485628
 11
10.159494076
 21
-9.3618890924
  0
LINE
  5
2A6
100
AcDbEntity
  8
ASSI
100
AcDbLine
 62
253
  6
CONTINUOUS
 10
10.159494076
 20
-9.3618890924
 11
-10.8114450171
 21
-9.3619233167
  0
LINE
  5
2A7
100
AcDbEntity
  8
ASSI
100
AcDbLine
 62
253
  6
CONTINUOUS
 10
-10.9242358762
 20
-9.3616036244
 11
-10.8114450171
 21
-9.3619233167
  0
LINE
  5
2A8
100
AcDbEntity
  8
ASSI
100
AcDbLine
 62
253
  6
CONTINUOUS
 10
-11.0312121945
 20
-9.3608106731
 11
-10.9242358762
 21
-9.3616036244
  0
LINE
  5
2A9
100
AcDbEntity
  8
ASSI
100
AcDbLine
 62
253
  6
CONTINUOUS
 10
-11.1042917117
 20
-9.3599291093
 11
-11.0312121945
 21
-9.3608106731
  0
LWPOLYLINE
  5
2AA
100
AcDbEntity
  8
ASSI
100
AcDbPolyline
 62
253
  6
CONTINUOUS
 90
3
 70
0
 10
-11.1688632834
 20
-9.358829483
 10
-11.1587752596
 20
-9.3590266139
 10
-11.1042917117
 20
-9.3599291093
  0
LWPOLYLINE
  5
2AB
100
AcDbEntity
  8
0
100
AcDbPolyline
 62
253
  6
CONTINUOUS
 90
37
 70
0
 10
-1.0901890586
 20
13.1380766833
 10
-1.1021624173
 20
13.1113377165
 10
-1.1133811209
 20
13.0845549947
 10
-1.1238663871
 20
13.057700398
 10
-1.1336394341
 20
13.030745807
 10
-1.1427214797
 20
13.0036631019
 10
-1.1511337418
 20
12.9764241631
 10
-1.1588931444
 20
12.9490068437
 10
-1.165999435
 20
12.9214128871
 10
-1.1724480672
 20
12.8936500097
 10
-1.1782344944
 20
12.8657259276
 10
-1.1833541702
 20
12.8376483571
 10
-1.1878025482
 20
12.8094250145
 10
-1.1915753044
 20
12.7810661758
 10
-1.1946690059
 20
12.7525923567
 10
-1.1970804423
 20
12.7240266329
 10
-1.1988064031
 20
12.6953920799
 10
-1.199843678
 20
12.6667117734
 10
-1.2001890567
 20
12.6380087889
 10
-1.1998404084
 20
12.6093062043
 10
-1.1987999218
 20
12.5806271064
 10
-1.1970708651
 20
12.5519945841
 10
-1.1946565066
 20
12.5234317264
 10
-1.1915601146
 20
12.4949616223
 10
-1.1877849574
 20
12.4666073608
 10
-1.1833345279
 20
12.438389469
 10
-1.1782132176
 20
12.4103182264
 10
-1.1724256428
 20
12.3824013504
 10
-1.1659764197
 20
12.3546465586
 10
-1.1588701644
 20
12.3270615687
 10
-1.1511114932
 20
12.299654098
 10
-1.1427007251
 20
12.2724258796
 10
-1.1336209907
 20
12.2453547079
 10
-1.1238511234
 20
12.2184123926
 10
-1.1133699566
 20
12.1915707436
 10
-1.1021563239
 20
12.1648015705
 10
-1.0901890586
 20
12.1380766833
  0
LWPOLYLINE
  5
2AC
100
AcDbEntity
  8
ASSI
100
AcDbPolyline
 62
253
  6
CONTINUOUS
 90
13
 70
0
 10
-10.8621593267
 20
-21.9188670886
 10
-10.8617404637
 20
-21.9173223153
 10
-10.8613228567
 20
-21.9152024816
 10
-10.8609065056
 20
-21.9125088178
 10
-10.8604911764
 20
-21.9092428912
 10
-10.8600771032
 20
-21.9054065888
 10
-10.8596649885
 20
-21.9010021067
 10
-10.8592548276
 20
-21.8960319667
 10
-10.8588466253
 20
-21.8904990475
 10
-10.8584410974
 20
-21.8844065675
 10
-10.8580382537
 20
-21.877758061
 10
-10.8576380846
 20
-21.8705573567
 10
-10.8568478357
 20
-21.8545162527
  0
LWPOLYLINE
  5
2AD
100
AcDbEntity
  8
0
100
AcDbPolyline
 62
253
  6
CONTINUOUS
 90
37
 70
0
 10
0.4098109414
 20
12.1380766833
 10
0.4217781923
 20
12.1648015372
 10
0.4329918128
 20
12.1915706776
 10
0.4434729695
 20
12.2184122949
 10
0.4532428287
 20
12.2453545794
 10
0.462322557
 20
12.2724257216
 10
0.4707333207
 20
12.2996539117
 10
0.4784919894
 20
12.3270613554
 10
0.4855982436
 20
12.3546463197
 10
0.4920474673
 20
12.3824010866
 10
0.497835044
 20
12.4103179383
 10
0.5029563574
 20
12.438389157
 10
0.5074067913
 20
12.4666070248
 10
0.511181954
 20
12.4949612622
 10
0.5142783526
 20
12.5234313423
 10
0.5166927187
 20
12.5519941768
 10
0.5184217841
 20
12.5806266772
 10
0.5194622804
 20
12.6093057552
 10
0.5198109394
 20
12.6380083221
 10
0.5194655725
 20
12.6667112919
 10
0.5184283099
 20
12.6953915873
 10
0.5167023616
 20
12.7240261333
 10
0.5142909376
 20
12.7525918549
 10
0.5111972477
 20
12.7810656772
 10
0.5074245021
 20
12.809424525
 10
0.5029761333
 20
12.8376478832
 10
0.4978564648
 20
12.8657254753
 10
0.4920700429
 20
12.8936495845
 10
0.4856214136
 20
12.9214124943
 10
0.4785151232
 20
12.9490064877
 10
0.4707557179
 20
12.9764238481
 10
0.4623434498
 20
13.0036628315
 10
0.4532613947
 20
13.0307455846
 10
0.4434883345
 20
13.0577002268
 10
0.433003051
 20
13.0845548777
 10
0.4217843261
 20
13.1113376567
 10
0.4098109414
 20
13.1380766833
  0
LWPOLYLINE
  5
2AE
100
AcDbEntity
  8
0
100
AcDbPolyline
 62
253
  6
CONTINUOUS
 90
37
 70
0
 10
2.0098109414
 20
13.1380766833
 10
1.9978375827
 20
13.1113377165
 10
1.9866188791
 20
13.0845549947
 10
1.9761336129
 20
13.057700398
 10
1.9663605659
 20
13.030745807
 10
1.9572785203
 20
13.0036631019
 10
1.9488662582
 20
12.9764241631
 10
1.9411068556
 20
12.9490068437
 10
1.934000565
 20
12.9214128871
 10
1.9275519328
 20
12.8936500097
 10
1.9217655056
 20
12.8657259276
 10
1.9166458298
 20
12.8376483571
 10
1.9121974518
 20
12.8094250145
 10
1.9084246956
 20
12.7810661758
 10
1.9053309941
 20
12.7525923567
 10
1.9029195577
 20
12.7240266329
 10
1.9011935969
 20
12.6953920799
 10
1.900156322
 20
12.6667117734
 10
1.8998109433
 20
12.6380087889
 10
1.9001595916
 20
12.6093062043
 10
1.9012000782
 20
12.5806271064
 10
1.9029291349
 20
12.5519945841
 10
1.9053434934
 20
12.5234317264
 10
1.9084398854
 20
12.4949616223
 10
1.9122150426
 20
12.4666073608
 10
1.9166654721
 20
12.438389469
 10
1.9217867824
 20
12.4103182264
 10
1.9275743572
 20
12.3824013504
 10
1.9340235803
 20
12.3546465586
 10
1.9411298356
 20
12.3270615687
 10
1.9488885068
 20
12.299654098
 10
1.9572992749
 20
12.2724258796
 10
1.9663790093
 20
12.2453547079
 10
1.9761488766
 20
12.2184123926
 10
1.9866300434
 20
12.1915707436
 10
1.9978436761
 20
12.1648015705
 10
2.0098109414
 20
12.1380766833
  0
LINE
  5
2AF
100
AcDbEntity
  8
ASSI
100
AcDbLine
 62
253
  6
CONTINUOUS
 10
10.2825927466
 20
22.3463146239
 11
10.1817812095
 21
22.1950204552
  0
LINE
  5
2B0
100
AcDbEntity
  8
ASSI
100
AcDbLine
 62
253
  6
CONTINUOUS
 10
10.1817812095
 20
-21.9188670886
 11
10.2825927466
 21
-22.0701612573
  0
LWPOLYLINE
  5
2B1
100
AcDbEntity
  8
0
100
AcDbPolyline
 62
253
  6
CONTINUOUS
 90
37
 70
0
 10
2.0098109414
 20
-12.8619233167
 10
1.9978375557
 20
-12.8351842878
 10
1.9866188298
 20
-12.8084015062
 10
1.9761335455
 20
-12.7815468527
 10
1.9663604845
 20
-12.7545922077
 10
1.9572784288
 20
-12.7275094518
 10
1.9488661601
 20
-12.7002704655
 10
1.9411067544
 20
-12.6728531022
 10
1.9340004636
 20
-12.6452591056
 10
1.9275518342
 20
-12.6174961925
 10
1.9217654121
 20
-12.5895720793
 10
1.9166457436
 20
-12.5614944825
 10
1.912197375
 20
-12.5332711189
 10
1.9084246296
 20
-12.5049122646
 10
1.9053309402
 20
-12.4764384352
 10
1.9029195169
 20
-12.447872706
 10
1.9011935697
 20
-12.4192381521
 10
1.9001563085
 20
-12.3905578489
 10
1.8998109434
 20
-12.3618548715
 10
1.9001596046
 20
-12.3331522975
 10
1.9012001035
 20
-12.3044732133
 10
1.9029291717
 20
-12.2758407077
 10
1.9053435407
 20
-12.2472778693
 10
1.908439942
 20
-12.2188077869
 10
1.9122151073
 20
-12.1904535492
 10
1.9166655435
 20
-12.162235683
 10
1.9217868589
 20
-12.1341644679
 10
1.927574437
 20
-12.1062476215
 10
1.9340236615
 20
-12.0784928614
 10
1.941129916
 20
-12.0509079053
 10
1.9488885841
 20
-12.0235004708
 10
1.9572993465
 20
-11.996272291
 10
1.9663790726
 20
-11.96920116
 10
1.9761489287
 20
-11.9422588875
 10
1.9866300813
 20
-11.915417283
 10
1.9978436967
 20
-11.8886481563
 10
2.0098109414
 20
-11.8619233167
  0
LWPOLYLINE
  5
2B2
100
AcDbEntity
  8
0
100
AcDbPolyline
 62
253
  6
CONTINUOUS
 90
37
 70
0
 10
3.2598109414
 20
12.1380766833
 10
3.2717781923
 20
12.1648015372
 10
3.2829918128
 20
12.1915706776
 10
3.2934729695
 20
12.2184122949
 10
3.3032428287
 20
12.2453545794
 10
3.312322557
 20
12.2724257216
 10
3.3207333207
 20
12.2996539117
 10
3.3284919894
 20
12.3270613554
 10
3.3355982436
 20
12.3546463197
 10
3.3420474673
 20
12.3824010866
 10
3.347835044
 20
12.4103179383
 10
3.3529563574
 20
12.438389157
 10
3.3574067913
 20
12.4666070248
 10
3.361181954
 20
12.4949612622
 10
3.3642783526
 20
12.5234313423
 10
3.3666927187
 20
12.5519941768
 10
3.3684217841
 20
12.5806266772
 10
3.3694622804
 20
12.6093057552
 10
3.3698109394
 20
12.6380083221
 10
3.3694655725
 20
12.6667112919
 10
3.3684283099
 20
12.6953915873
 10
3.3667023616
 20
12.7240261333
 10
3.3642909376
 20
12.7525918549
 10
3.3611972477
 20
12.7810656772
 10
3.3574245021
 20
12.809424525
 10
3.3529761333
 20
12.8376478832
 10
3.3478564648
 20
12.8657254753
 10
3.3420700429
 20
12.8936495845
 10
3.3356214136
 20
12.9214124943
 10
3.3285151232
 20
12.9490064877
 10
3.3207557179
 20
12.9764238481
 10
3.3123434498
 20
13.0036628315
 10
3.3032613947
 20
13.0307455846
 10
3.2934883345
 20
13.0577002268
 10
3.283003051
 20
13.0845548777
 10
3.2717843261
 20
13.1113376567
 10
3.2598109414
 20
13.1380766833
  0
LINE
  5
2B3
100
AcDbEntity
  8
ASSI
100
AcDbLine
 62
253
  6
CONTINUOUS
 10
10.783503632
 20
21.848823991
 11
10.681476623
 21
21.6957056878
  0
LINE
  5
2B4
100
AcDbEntity
  8
ASSI
100
AcDbLine
 62
253
  6
CONTINUOUS
 10
10.8098109414
 20
-0.2118566955
 11
10.6276191151
 21
-0.2573873067
  0
LINE
  5
2B5
100
AcDbEntity
  8
ASSI
100
AcDbLine
 62
253
  6
CONTINUOUS
 10
10.5597347397
 20
0.0380766833
 11
10.3777713414
 21
-0.0073968427
  0
LWPOLYLINE
  5
2B6
100
AcDbEntity
  8
ASSI
100
AcDbPolyline
 62
253
  6
CONTINUOUS
 90
8
 70
0
 10
10.3777713414
 20
-0.0073968427
 10
10.37742129
 20
-0.0074588904
 10
10.3768705585
 20
-0.0075207296
 10
10.3761191469
 20
-0.0075823603
 10
10.3751661202
 20
-0.0076438328
 10
10.3740124135
 20
-0.0077050969
 10
10.3726608321
 20
-0.0077660011
 10
10.3711108978
 20
-0.0078265438
  0
LWPOLYLINE
  5
2B7
100
AcDbEntity
  8
ASSI
100
AcDbPolyline
 62
253
  6
CONTINUOUS
 90
6
 70
0
 10
10.6276191151
 20
-0.2573873144
 10
10.6269208215
 20
-0.257455
 10
10.6258188826
 20
-0.2575224794
 10
10.6243141897
 20
-0.2575897435
 10
10.6224079642
 20
-0.2576568272
 10
10.6201017452
 20
-0.2577236774
  0
LINE
  5
2B8
100
AcDbEntity
  8
ASSI
100
AcDbLine
 62
253
  6
CONTINUOUS
 10
-11.3079972323
 20
-0.2573873067
 11
-11.4901890586
 21
-0.2118566955
  0
LINE
  5
2B9
100
AcDbEntity
  8
ASSI
100
AcDbLine
 62
253
  6
CONTINUOUS
 10
-11.0581494587
 20
-0.0073968427
 11
-11.2401128569
 21
0.0380766833
  0
LINE
  5
2BA
100
AcDbEntity
  8
ASSI
100
AcDbLine
 62
253
  6
CONTINUOUS
 10
10.681476623
 20
-21.4195523213
 11
10.783503632
 21
-21.5726706244
  0
LWPOLYLINE
  5
2BB
100
AcDbEntity
  8
0
100
AcDbPolyline
 62
253
  6
CONTINUOUS
 90
37
 70
0
 10
3.2598109414
 20
-11.8619233167
 10
3.2717781995
 20
-11.8886481874
 10
3.2829918263
 20
-11.9154173446
 10
3.2934729883
 20
-11.9422589786
 10
3.3032428518
 20
-11.9692012795
 10
3.3123225836
 20
-11.9962724378
 10
3.3207333499
 20
-12.0235006436
 10
3.3284920203
 20
-12.0509081027
 10
3.3355982756
 20
-12.0784930821
 10
3.3420474995
 20
-12.1062478645
 10
3.3478350757
 20
-12.1341647323
 10
3.3529563879
 20
-12.1622359682
 10
3.3574068199
 20
-12.1904538547
 10
3.36118198
 20
-12.2188081123
 10
3.3642783752
 20
-12.247278214
 10
3.3666927372
 20
-12.2758410707
 10
3.3684217975
 20
-12.3044735931
 10
3.3694622877
 20
-12.3331526924
 10
3.3698109395
 20
-12.3618552792
 10
3.3694655642
 20
-12.3905582669
 10
3.3684282924
 20
-12.4192385774
 10
3.3667023345
 20
-12.4478731351
 10
3.3642909008
 20
-12.4764388643
 10
3.3611972017
 20
-12.5049126893
 10
3.3574244474
 20
-12.5332715344
 10
3.3529760712
 20
-12.5614948839
 10
3.3478563966
 20
-12.5895724615
 10
3.3420699702
 20
-12.6174965512
 10
3.3356213383
 20
-12.6452594368
 10
3.3285150475
 20
-12.672853402
 10
3.3207556441
 20
-12.7002707307
 10
3.3123433805
 20
-12.7275096792
 10
3.3032613329
 20
-12.7545923946
 10
3.2934882831
 20
-12.7815469965
 10
3.2830030132
 20
-12.8084016044
 10
3.2717843053
 20
-12.8351843379
 10
3.2598109414
 20
-12.8619233167
  0
LWPOLYLINE
  5
2BC
100
AcDbEntity
  8
ASSI
100
AcDbPolyline
 62
253
  6
CONTINUOUS
 90
19
 70
0
 10
10.681476623
 20
21.6957056878
 10
10.6810578616
 20
21.6949322964
 10
10.6806403261
 20
21.6938728316
 10
10.6802240163
 20
21.6925272934
 10
10.6798086861
 20
21.6908945642
 10
10.6793945818
 20
21.6889757616
 10
10.6789824418
 20
21.6867742389
 10
10.6785722768
 20
21.6842895149
 10
10.6781640762
 20
21.6815220707
 10
10.6777585475
 20
21.6784767034
 10
10.6773556962
 20
21.6751529361
 10
10.6769555168
 20
21.6715512457
 10
10.6765587002
 20
21.6676778594
 10
10.6761652519
 20
21.6635323045
 10
10.6757751664
 20
21.6591150537
 10
10.6753891183
 20
21.6544337522
 10
10.6750071146
 20
21.6494879427
 10
10.6746291484
 20
21.6442780824
 10
10.6738872967
 20
21.63309282
  0
LINE
  5
2BD
100
AcDbEntity
  8
ASSI
100
AcDbLine
 62
7
  6
CONTINUOUS
 10
8.172276932
 20
0.0380766833
 11
7.9098109414
 21
0.0118960799
  0
LINE
  5
2BE
100
AcDbEntity
  8
ASSI
100
AcDbLine
 62
253
  6
CONTINUOUS
 10
10.3711108978
 20
-0.0078265438
 11
10.3674216447
 21
-0.0079464037
  0
LINE
  5
2BF
100
AcDbEntity
  8
ASSI
100
AcDbLine
 62
253
  6
CONTINUOUS
 10
10.3674216447
 20
-0.0079464037
 11
10.3629569163
 21
-0.0080642369
  0
LINE
  5
2C0
100
AcDbEntity
  8
ASSI
100
AcDbLine
 62
253
  6
CONTINUOUS
 10
10.6201017452
 20
-0.2577236774
 11
10.614297038
 21
-0.2578562437
  0
LINE
  5
2C1
100
AcDbEntity
  8
ASSI
100
AcDbLine
 62
253
  6
CONTINUOUS
 10
10.3629569163
 20
-0.0080642369
 11
10.3548405088
 21
-0.0082363365
  0
LINE
  5
2C2
100
AcDbEntity
  8
ASSI
100
AcDbLine
 62
253
  6
CONTINUOUS
 10
10.614297038
 20
-0.2578562437
 11
10.6026469256
 21
-0.2580517167
  0
LINE
  5
2C3
100
AcDbEntity
  8
ASSI
100
AcDbLine
 62
253
  6
CONTINUOUS
 10
10.3548405088
 20
-0.0082363365
 11
10.3376805143
 21
-0.0085077391
  0
LINE
  5
2C4
100
AcDbEntity
  8
ASSI
100
AcDbLine
 62
253
  6
CONTINUOUS
 10
10.6026469256
 20
-0.2580517167
 11
10.5756072138
 21
-0.2583648804
  0
LINE
  5
2C5
100
AcDbEntity
  8
ASSI
100
AcDbLine
 62
253
  6
CONTINUOUS
 10
10.3376805143
 20
-0.0085077391
 11
10.3066305521
 21
-0.0088463657
  0
LINE
  5
2C6
100
AcDbEntity
  8
ASSI
100
AcDbLine
 62
253
  6
CONTINUOUS
 10
10.5756072138
 20
-0.2583648804
 11
10.4853401904
 21
-0.2589707615
  0
LINE
  5
2C7
100
AcDbEntity
  8
ASSI
100
AcDbLine
 62
253
  6
CONTINUOUS
 10
10.3066305521
 20
-0.0088463657
 11
10.2378033284
 21
-0.0092803783
  0
LINE
  5
2C8
100
AcDbEntity
  8
ASSI
100
AcDbLine
 62
253
  6
CONTINUOUS
 10
-10.9660076865
 20
0.2851669093
 11
-10.878448704
 21
0.2855681268
  0
LINE
  5
2C9
100
AcDbEntity
  8
ASSI
100
AcDbLine
 62
253
  6
CONTINUOUS
 10
10.4853401904
 20
-0.2589707615
 11
10.1705332532
 21
-0.2596825155
  0
LINE
  5
2CA
100
AcDbEntity
  8
ASSI
100
AcDbLine
 62
253
  6
CONTINUOUS
 10
10.1705332532
 20
-0.2596825155
 11
-10.8082999744
 21
-0.2596917702
  0
LINE
  5
2CB
100
AcDbEntity
  8
ASSI
100
AcDbLine
 62
253
  6
CONTINUOUS
 10
10.2378033284
 20
-0.0092803783
 11
10.1279236875
 21
-0.0095024049
  0
LINE
  5
2CC
100
AcDbEntity
  8
ASSI
100
AcDbLine
 62
7
  6
CONTINUOUS
 10
10.1279236875
 20
-0.0095024049
 11
-10.8083018047
 21
-0.0095024049
  0
LINE
  5
2CD
100
AcDbEntity
  8
ASSI
100
AcDbLine
 62
7
  6
CONTINUOUS
 10
7.9098109414
 20
0.0118960799
 11
-8.5901890586
 21
0.0118960799
  0
LINE
  5
2CE
100
AcDbEntity
  8
ASSI
100
AcDbLine
 62
7
  6
CONTINUOUS
 10
10.5597347397
 20
0.0380766833
 11
8.172276932
 21
0.0380766833
  0
LINE
  5
2CF
100
AcDbEntity
  8
ASSI
100
AcDbLine
 62
7
  6
CONTINUOUS
 10
-8.8526550492
 20
0.0380766833
 11
-11.2401128569
 21
0.0380766833
  0
LINE
  5
2D0
100
AcDbEntity
  8
ASSI
100
AcDbLine
 62
7
  6
CONTINUOUS
 10
-11.2401128569
 20
0.2380766833
 11
-8.8526550492
 21
0.2380766833
  0
LINE
  5
2D1
100
AcDbEntity
  8
ASSI
100
AcDbLine
 62
7
  6
CONTINUOUS
 10
8.172276932
 20
0.2380766833
 11
10.5597347397
 21
0.2380766833
  0
LINE
  5
2D2
100
AcDbEntity
  8
ASSI
100
AcDbLine
 62
7
  6
CONTINUOUS
 10
-8.5901890586
 20
0.2642572867
 11
7.9098109414
 21
0.2642572867
  0
LINE
  5
2D3
100
AcDbEntity
  8
ASSI
100
AcDbLine
 62
7
  6
CONTINUOUS
 10
-10.8083018047
 20
0.2856557715
 11
10.1279236875
 21
0.2856557715
  0
LINE
  5
2D4
100
AcDbEntity
  8
ASSI
100
AcDbLine
 62
253
  6
CONTINUOUS
 10
-10.878448704
 20
0.2855681268
 11
-10.8083018047
 21
0.2856557715
  0
LINE
  5
2D5
100
AcDbEntity
  8
ASSI
100
AcDbLine
 62
253
  6
CONTINUOUS
 10
-10.8083018047
 20
-0.0095024049
 11
-10.9245266263
 21
-0.0092522999
  0
LINE
  5
2D6
100
AcDbEntity
  8
ASSI
100
AcDbLine
 62
253
  6
CONTINUOUS
 10
10.1279236875
 20
0.2856557715
 11
10.2441485091
 21
0.2854056665
  0
LINE
  5
2D7
100
AcDbEntity
  8
ASSI
100
AcDbLine
 62
253
  6
CONTINUOUS
 10
-10.8082999744
 20
-0.2596917707
 11
-11.20310148
 21
-0.2587662446
  0
LINE
  5
2D8
100
AcDbEntity
  8
ASSI
100
AcDbLine
 62
253
  6
CONTINUOUS
 10
10.2441485091
 20
0.2854056665
 11
10.2856295693
 21
0.2851669093
  0
LINE
  5
2D9
100
AcDbEntity
  8
ASSI
100
AcDbLine
 62
253
  6
CONTINUOUS
 10
-10.9245266263
 20
-0.0092522999
 11
-10.9870086693
 21
-0.0088463657
  0
LINE
  5
2DA
100
AcDbEntity
  8
ASSI
100
AcDbLine
 62
253
  6
CONTINUOUS
 10
-11.20310148
 20
-0.2587662446
 11
-11.2621365784
 21
-0.2583037658
  0
LINE
  5
2DB
100
AcDbEntity
  8
ASSI
100
AcDbLine
 62
253
  6
CONTINUOUS
 10
-10.9870086693
 20
-0.0088463657
 11
-11.0180586315
 21
-0.0085077391
  0
LINE
  5
2DC
100
AcDbEntity
  8
ASSI
100
AcDbLine
 62
253
  6
CONTINUOUS
 10
-11.2621365784
 20
-0.2583037658
 11
-11.2830250428
 21
-0.2580517167
  0
LINE
  5
2DD
100
AcDbEntity
  8
ASSI
100
AcDbLine
 62
253
  6
CONTINUOUS
 10
-11.0180586315
 20
-0.0085077391
 11
-11.035218626
 21
-0.0082363365
  0
LINE
  5
2DE
100
AcDbEntity
  8
ASSI
100
AcDbLine
 62
253
  6
CONTINUOUS
 10
-11.2830250428
 20
-0.2580517167
 11
-11.2946751552
 21
-0.2578562437
  0
LINE
  5
2DF
100
AcDbEntity
  8
ASSI
100
AcDbLine
 62
253
  6
CONTINUOUS
 10
-11.035218626
 20
-0.0082363365
 11
-11.0433350335
 21
-0.0080642369
  0
LWPOLYLINE
  5
2E0
100
AcDbEntity
  8
ASSI
100
AcDbPolyline
 62
253
  6
CONTINUOUS
 90
7
 70
0
 10
-11.2946751552
 20
-0.2578562437
 10
-11.3004798624
 20
-0.2577236774
 10
-11.3027860814
 20
-0.2576568272
 10
-11.3046923069
 20
-0.2575897435
 10
-11.3061969998
 20
-0.2575224794
 10
-11.3072989387
 20
-0.257455
 10
-11.3079972323
 20
-0.2573873144
  0
LINE
  5
2E1
100
AcDbEntity
  8
ASSI
100
AcDbLine
 62
253
  6
CONTINUOUS
 10
-11.0433350335
 20
-0.0080642369
 11
-11.0477997619
 21
-0.0079464037
  0
LWPOLYLINE
  5
2E2
100
AcDbEntity
  8
ASSI
100
AcDbPolyline
 62
253
  6
CONTINUOUS
 90
9
 70
0
 10
-11.0477997619
 20
-0.0079464037
 10
-11.051489015
 20
-0.0078265438
 10
-11.0530389493
 20
-0.0077660011
 10
-11.0543905308
 20
-0.0077050969
 10
-11.0555442375
 20
-0.0076438328
 10
-11.0564972641
 20
-0.0075823603
 10
-11.0572486757
 20
-0.0075207296
 10
-11.0577994072
 20
-0.0074588904
 10
-11.0581494587
 20
-0.0073968427
  0
LINE
  5
2E3
100
AcDbEntity
  8
ASSI
100
AcDbLine
 62
7
  6
CONTINUOUS
 10
-8.8526550492
 20
0.0380766833
 11
-8.5901890586
 21
0.0118960799
  0
LWPOLYLINE
  5
2E4
100
AcDbEntity
  8
0
100
AcDbPolyline
 62
253
  6
CONTINUOUS
 90
37
 70
0
 10
-3.9401890586
 20
-11.8619233167
 10
-3.9521563095
 20
-11.8886481706
 10
-3.9633699301
 20
-11.9154173111
 10
-3.9738510867
 20
-11.9422589283
 10
-3.9836209459
 20
-11.9692012129
 10
-3.9927006742
 20
-11.996272355
 10
-4.001111438
 20
-12.0235005451
 10
-4.0088701066
 20
-12.0509079888
 10
-4.0159763608
 20
-12.0784929531
 10
-4.0224255845
 20
-12.10624772
 10
-4.0282131612
 20
-12.1341645718
 10
-4.0333344746
 20
-12.1622357904
 10
-4.0377849085
 20
-12.1904536583
 10
-4.0415600712
 20
-12.2188078956
 10
-4.0446564698
 20
-12.2472779757
 10
-4.0470708359
 20
-12.2758408102
 10
-4.0487999013
 20
-12.3044733107
 10
-4.0498403976
 20
-12.3331523886
 10
-4.0501890566
 20
-12.3618549556
 10
-4.0498436897
 20
-12.3905579253
 10
-4.0488064271
 20
-12.4192382207
 10
-4.0470804788
 20
-12.4478727667
 10
-4.0446690548
 20
-12.4764384883
 10
-4.0415753649
 20
-12.5049123106
 10
-4.0378026193
 20
-12.5332711584
 10
-4.0333542505
 20
-12.5614945166
 10
-4.028234582
 20
-12.5895721087
 10
-4.0224481601
 20
-12.617496218
 10
-4.0159995308
 20
-12.6452591277
 10
-4.0088932404
 20
-12.6728531211
 10
-4.0011338351
 20
-12.7002704815
 10
-3.992721567
 20
-12.7275094649
 10
-3.9836395119
 20
-12.754592218
 10
-3.9738664517
 20
-12.7815468603
 10
-3.9633811683
 20
-12.8084015112
 10
-3.9521624433
 20
-12.8351842902
 10
-3.9401890586
 20
-12.8619233167
  0
LWPOLYLINE
  5
2E5
100
AcDbEntity
  8
ASSI
100
AcDbPolyline
 62
253
  6
CONTINUOUS
 90
18
 70
0
 10
-11.3618547402
 20
-21.4195523213
 10
-11.3614359788
 20
-21.4187789298
 10
-11.3610184433
 20
-21.417719465
 10
-11.3606021335
 20
-21.4163739269
 10
-11.3601868033
 20
-21.4147411976
 10
-11.359772699
 20
-21.412822395
 10
-11.3593605591
 20
-21.4106208723
 10
-11.358950394
 20
-21.4081361483
 10
-11.3585421934
 20
-21.4053687041
 10
-11.3581366648
 20
-21.4023233368
 10
-11.3577338134
 20
-21.3989995695
 10
-11.357333634
 20
-21.3953978791
 10
-11.3569368174
 20
-21.3915244928
 10
-11.3565433691
 20
-21.3873789379
 10
-11.3561532836
 20
-21.3829616871
 10
-11.3557672355
 20
-21.3782803857
 10
-11.3553852318
 20
-21.3733345761
 10
-11.3546339902
 20
-21.3626598222
  0
LINE
  5
2E6
100
AcDbEntity
  8
ASSI
100
AcDbLine
 62
7
  6
CONTINUOUS
 10
-8.8526550492
 20
0.2380766833
 11
-8.5901890586
 21
0.2642572867
  0
LWPOLYLINE
  5
2E7
100
AcDbEntity
  8
ASSI
100
AcDbPolyline
 62
253
  6
CONTINUOUS
 90
6
 70
0
 10
-11.3079972323
 20
0.5335406809
 10
-11.3072989387
 20
0.5336083666
 10
-11.3061969998
 20
0.533675846
 10
-11.3046923069
 20
0.5337431101
 10
-11.3027860814
 20
0.5338101938
 10
-11.3004798624
 20
0.533877044
  0
LINE
  5
2E8
100
AcDbEntity
  8
ASSI
100
AcDbLine
 62
253
  6
CONTINUOUS
 10
-11.051489015
 20
0.2839799104
 11
-11.0477997619
 21
0.2840997703
  0
LINE
  5
2E9
100
AcDbEntity
  8
ASSI
100
AcDbLine
 62
253
  6
CONTINUOUS
 10
-11.0477997619
 20
0.2840997703
 11
-11.0433350335
 21
0.2842176035
  0
LINE
  5
2EA
100
AcDbEntity
  8
ASSI
100
AcDbLine
 62
253
  6
CONTINUOUS
 10
-11.3004798624
 20
0.533877044
 11
-11.2946751552
 21
0.5340096103
  0
LINE
  5
2EB
100
AcDbEntity
  8
ASSI
100
AcDbLine
 62
253
  6
CONTINUOUS
 10
-11.0433350335
 20
0.2842176035
 11
-11.0352186261
 21
0.2843897031
  0
LINE
  5
2EC
100
AcDbEntity
  8
ASSI
100
AcDbLine
 62
253
  6
CONTINUOUS
 10
-11.2946751552
 20
0.5340096103
 11
-11.2830250428
 21
0.5342050833
  0
LINE
  5
2ED
100
AcDbEntity
  8
ASSI
100
AcDbLine
 62
253
  6
CONTINUOUS
 10
-11.0352186261
 20
0.2843897031
 11
-11.0180586315
 21
0.2846611057
  0
LINE
  5
2EE
100
AcDbEntity
  8
ASSI
100
AcDbLine
 62
253
  6
CONTINUOUS
 10
-11.2830250428
 20
0.5342050833
 11
-11.255985331
 21
0.534518247
  0
LINE
  5
2EF
100
AcDbEntity
  8
ASSI
100
AcDbLine
 62
253
  6
CONTINUOUS
 10
-11.0180586315
 20
0.2846611057
 11
-10.9870086693
 21
0.2849997322
  0
LINE
  5
2F0
100
AcDbEntity
  8
ASSI
100
AcDbLine
 62
253
  6
CONTINUOUS
 10
-10.9870086693
 20
0.2849997322
 11
-10.9660076865
 21
0.2851669093
  0
LINE
  5
2F1
100
AcDbEntity
  8
ASSI
100
AcDbLine
 62
253
  6
CONTINUOUS
 10
-11.255985331
 20
0.534518247
 11
-11.1657183076
 21
0.5351241281
  0
LINE
  5
2F2
100
AcDbEntity
  8
ASSI
100
AcDbLine
 62
253
  6
CONTINUOUS
 10
-11.1657183076
 20
0.5351241281
 11
10.4648829939
 21
0.5352184652
  0
LINE
  5
2F3
100
AcDbEntity
  8
ASSI
100
AcDbLine
 62
253
  6
CONTINUOUS
 10
10.4648829939
 20
0.5352184652
 11
10.5690938095
 21
0.5345785089
  0
LINE
  5
2F4
100
AcDbEntity
  8
ASSI
100
AcDbLine
 62
253
  6
CONTINUOUS
 10
10.2856295693
 20
0.2851669093
 11
10.329606717
 21
0.2847632745
  0
LINE
  5
2F5
100
AcDbEntity
  8
ASSI
100
AcDbLine
 62
253
  6
CONTINUOUS
 10
10.5690938095
 20
0.5345785089
 11
10.5979910397
 21
0.5342691422
  0
LINE
  5
2F6
100
AcDbEntity
  8
ASSI
100
AcDbLine
 62
253
  6
CONTINUOUS
 10
10.329606717
 20
0.2847632745
 11
10.3485098914
 21
0.2845007807
  0
LINE
  5
2F7
100
AcDbEntity
  8
ASSI
100
AcDbLine
 62
253
  6
CONTINUOUS
 10
10.5979910397
 20
0.5342691422
 11
10.6108032278
 21
0.5340753085
  0
LINE
  5
2F8
100
AcDbEntity
  8
ASSI
100
AcDbLine
 62
253
  6
CONTINUOUS
 10
10.3485098914
 20
0.2845007807
 11
10.3604397426
 21
0.2842756191
  0
LWPOLYLINE
  5
2F9
100
AcDbEntity
  8
ASSI
100
AcDbPolyline
 62
253
  6
CONTINUOUS
 90
8
 70
0
 10
10.6108032278
 20
0.5340753085
 10
10.6173973814
 20
0.5339435189
 10
10.6201017452
 20
0.533877044
 10
10.6224079642
 20
0.5338101938
 10
10.6243141897
 20
0.5337431101
 10
10.6258188826
 20
0.533675846
 10
10.6269208215
 20
0.5336083666
 10
10.6276191151
 20
0.5335406809
  0
LINE
  5
2FA
100
AcDbEntity
  8
ASSI
100
AcDbLine
 62
253
  6
CONTINUOUS
 10
10.3604397426
 20
0.2842756191
 11
10.3652860979
 21
0.2841589399
  0
LWPOLYLINE
  5
2FB
100
AcDbEntity
  8
ASSI
100
AcDbPolyline
 62
253
  6
CONTINUOUS
 90
10
 70
0
 10
10.3652860979
 20
0.2841589399
 10
10.3693630887
 20
0.2840400933
 10
10.3711108978
 20
0.2839799104
 10
10.3726608321
 20
0.2839193677
 10
10.3740124135
 20
0.2838584634
 10
10.3751661202
 20
0.2837971994
 10
10.3761191469
 20
0.2837357269
 10
10.3768705585
 20
0.2836740962
 10
10.37742129
 20
0.283612257
 10
10.3777713414
 20
0.2835502093
  0
LINE
  5
2FC
100
AcDbEntity
  8
ASSI
100
AcDbLine
 62
7
  6
CONTINUOUS
 10
8.172276932
 20
0.2380766833
 11
7.9098109414
 21
0.2642572867
  0
LWPOLYLINE
  5
2FD
100
AcDbEntity
  8
0
100
AcDbPolyline
 62
253
  6
CONTINUOUS
 90
37
 70
0
 10
-3.9401890586
 20
12.1380766833
 10
-3.9521563167
 20
12.164801554
 10
-3.9633699435
 20
12.1915707112
 10
-3.9738511055
 20
12.2184123451
 10
-3.983620969
 20
12.2453546461
 10
-3.9927007008
 20
12.2724258044
 10
-4.0011114672
 20
12.2996540102
 10
-4.0088701375
 20
12.3270614693
 10
-4.0159763928
 20
12.3546464487
 10
-4.0224256167
 20
12.3824012311
 10
-4.0282131929
 20
12.4103180989
 10
-4.0333345051
 20
12.4383893348
 10
-4.0377849371
 20
12.4666072212
 10
-4.0415600972
 20
12.4949614789
 10
-4.0446564925
 20
12.5234315806
 10
-4.0470708544
 20
12.5519944372
 10
-4.0487999147
 20
12.5806269597
 10
-4.0498404049
 20
12.609306059
 10
-4.0501890567
 20
12.6380086458
 10
-4.0498436814
 20
12.6667116335
 10
-4.0488064096
 20
12.695391944
 10
-4.0470804517
 20
12.7240265017
 10
-4.044669018
 20
12.7525922309
 10
-4.0415753189
 20
12.7810660559
 10
-4.0378025647
 20
12.809424901
 10
-4.0333541884
 20
12.8376482504
 10
-4.0282345138
 20
12.8657258281
 10
-4.0224480874
 20
12.8936499178
 10
-4.0159994555
 20
12.9214128034
 10
-4.0088931647
 20
12.9490067686
 10
-4.0011337613
 20
12.9764240972
 10
-3.9927214977
 20
13.0036630458
 10
-3.9836394501
 20
13.0307457612
 10
-3.9738664003
 20
13.0577003631
 10
-3.9633811304
 20
13.084554971
 10
-3.9521624225
 20
13.1113377045
 10
-3.9401890586
 20
13.1380766833
  0
LWPOLYLINE
  5
2FE
100
AcDbEntity
  8
0
100
AcDbPolyline
 62
253
  6
CONTINUOUS
 90
37
 70
0
 10
-2.6901890586
 20
-12.8619233167
 10
-2.6782156999
 20
-12.8351843499
 10
-2.6669969963
 20
-12.8084016281
 10
-2.6565117301
 20
-12.7815470314
 10
-2.6467386831
 20
-12.7545924404
 10
-2.6376566375
 20
-12.7275097353
 10
-2.6292443754
 20
-12.7002707966
 10
-2.6214849728
 20
-12.6728534771
 10
-2.6143786822
 20
-12.6452595205
 10
-2.60793005
 20
-12.6174966431
 10
-2.6021436228
 20
-12.589572561
 10
-2.597023947
 20
-12.5614949905
 10
-2.592575569
 20
-12.5332716479
 10
-2.5888028128
 20
-12.5049128092
 10
-2.5857091113
 20
-12.4764389901
 10
-2.583297675
 20
-12.4478732663
 10
-2.5815717141
 20
-12.4192387133
 10
-2.5805344392
 20
-12.3905584068
 10
-2.5801890605
 20
-12.3618554223
 10
-2.5805377088
 20
-12.3331528378
 10
-2.5815781954
 20
-12.3044737398
 10
-2.5833072521
 20
-12.2758412175
 10
-2.5857216106
 20
-12.2472783598
 10
-2.5888180026
 20
-12.2188082557
 10
-2.5925931598
 20
-12.1904539942
 10
-2.5970435893
 20
-12.1622361024
 10
-2.6021648996
 20
-12.1341648598
 10
-2.6079524744
 20
-12.1062479838
 10
-2.6144016975
 20
-12.0784931921
 10
-2.6215079528
 20
-12.0509082021
 10
-2.629266624
 20
-12.0235007315
 10
-2.6376773921
 20
-11.9962725131
 10
-2.6467571266
 20
-11.9692013413
 10
-2.6565269938
 20
-11.942259026
 10
-2.6670081606
 20
-11.915417377
 10
-2.6782217933
 20
-11.8886482039
 10
-2.6901890586
 20
-11.8619233167
  0
LINE
  5
2FF
100
AcDbEntity
  8
ASSI
100
AcDbLine
 62
253
  6
CONTINUOUS
 10
-11.4638817492
 20
-21.5726706244
 11
-11.3618547402
 21
-21.4195523213
  0
LINE
  5
300
100
AcDbEntity
  8
ASSI
100
AcDbLine
 62
253
  6
CONTINUOUS
 10
-10.9629708639
 20
-22.0701612573
 11
-10.8621593267
 21
-21.9188670886
  0
LINE
  5
301
100
AcDbEntity
  8
ASSI
100
AcDbLine
 62
253
  6
CONTINUOUS
 10
-11.2401128569
 20
0.2380766833
 11
-11.0581494587
 21
0.2835502093
  0
LINE
  5
302
100
AcDbEntity
  8
ASSI
100
AcDbLine
 62
253
  6
CONTINUOUS
 10
-11.4901890586
 20
0.4880100621
 11
-11.3079972323
 21
0.5335406733
  0
LWPOLYLINE
  5
303
100
AcDbEntity
  8
ASSI
100
AcDbPolyline
 62
253
  6
CONTINUOUS
 90
8
 70
0
 10
-11.0581494587
 20
0.2835502093
 10
-11.0577994072
 20
0.283612257
 10
-11.0572486757
 20
0.2836740962
 10
-11.0564972641
 20
0.2837357269
 10
-11.0555442375
 20
0.2837971994
 10
-11.0543905308
 20
0.2838584634
 10
-11.0530389493
 20
0.2839193677
 10
-11.051489015
 20
0.2839799104
  0
LINE
  5
304
100
AcDbEntity
  8
ASSI
100
AcDbLine
 62
253
  6
CONTINUOUS
 10
10.3777713414
 20
0.2835502093
 11
10.5597347397
 21
0.2380766833
  0
LINE
  5
305
100
AcDbEntity
  8
ASSI
100
AcDbLine
 62
253
  6
CONTINUOUS
 10
10.6276191151
 20
0.5335406733
 11
10.8098109414
 21
0.4880100621
  0
LINE
  5
306
100
AcDbEntity
  8
ASSI
100
AcDbLine
 62
253
  6
CONTINUOUS
 10
-11.3618547402
 20
21.6957056878
 11
-11.4638817492
 21
21.848823991
  0
LINE
  5
307
100
AcDbEntity
  8
ASSI
100
AcDbLine
 62
253
  6
CONTINUOUS
 10
-10.8621593267
 20
22.1950204552
 11
-10.9629708639
 21
22.3463146239
  0
LWPOLYLINE
  5
308
100
AcDbEntity
  8
0
100
AcDbPolyline
 62
253
  6
CONTINUOUS
 90
37
 70
0
 10
-2.6901890586
 20
13.1380766833
 10
-2.6782156729
 20
13.1113376544
 10
-2.666996947
 20
13.0845548728
 10
-2.6565116627
 20
13.0577002193
 10
-2.6467386017
 20
13.0307455743
 10
-2.637656546
 20
13.0036628183
 10
-2.6292442774
 20
12.9764238321
 10
-2.6214848716
 20
12.9490064688
 10
-2.6143785809
 20
12.9214124722
 10
-2.6079299514
 20
12.8936495591
 10
-2.6021435293
 20
12.8657254458
 10
-2.5970238608
 20
12.8376478491
 10
-2.5925754922
 20
12.8094244854
 10
-2.5888027468
 20
12.7810656312
 10
-2.5857090575
 20
12.7525918018
 10
-2.5832976341
 20
12.7240260726
 10
-2.5815716869
 20
12.6953915187
 10
-2.5805344257
 20
12.6667112155
 10
-2.5801890606
 20
12.6380082381
 10
-2.5805377218
 20
12.6093056641
 10
-2.5815782207
 20
12.5806265799
 10
-2.5833072889
 20
12.5519940743
 10
-2.5857216579
 20
12.5234312359
 10
-2.5888180592
 20
12.4949611535
 10
-2.5925932245
 20
12.4666069158
 10
-2.5970436607
 20
12.4383890496
 10
-2.6021649761
 20
12.4103178345
 10
-2.6079525542
 20
12.3824009881
 10
-2.6144017787
 20
12.354646228
 10
-2.6215080332
 20
12.3270612719
 10
-2.6292667013
 20
12.2996538374
 10
-2.6376774637
 20
12.2724256575
 10
-2.6467571898
 20
12.2453545266
 10
-2.6565270459
 20
12.2184122541
 10
-2.6670081985
 20
12.1915706496
 10
-2.6782218139
 20
12.1648015228
 10
-2.6901890586
 20
12.1380766833
  0
LWPOLYLINE
  5
309
100
AcDbEntity
  8
ASSI
100
AcDbPolyline
 62
253
  6
CONTINUOUS
 90
13
 70
0
 10
10.1817812095
 20
22.1950204552
 10
10.1813623465
 20
22.1934756818
 10
10.1809447395
 20
22.1913558481
 10
10.1805283884
 20
22.1886621844
 10
10.1801130592
 20
22.1853962578
 10
10.179698986
 20
22.1815599554
 10
10.1792868712
 20
22.1771554732
 10
10.1788767104
 20
22.1721853333
 10
10.178468508
 20
22.1666524141
 10
10.1780629802
 20
22.160559934
 10
10.1776601365
 20
22.1539114276
 10
10.1772599674
 20
22.1467107233
 10
10.1764697185
 20
22.1306696193
  0
LWPOLYLINE
  5
30A
100
AcDbEntity
  8
0
100
AcDbPolyline
 62
253
  6
CONTINUOUS
 90
37
 70
0
 10
-1.0901890586
 20
-11.8619233167
 10
-1.1021563095
 20
-11.8886481706
 10
-1.1133699301
 20
-11.9154173111
 10
-1.1238510867
 20
-11.9422589283
 10
-1.1336209459
 20
-11.9692012129
 10
-1.1427006742
 20
-11.996272355
 10
-1.151111438
 20
-12.0235005451
 10
-1.1588701066
 20
-12.0509079888
 10
-1.1659763608
 20
-12.0784929531
 10
-1.1724255845
 20
-12.10624772
 10
-1.1782131612
 20
-12.1341645718
 10
-1.1833344746
 20
-12.1622357904
 10
-1.1877849085
 20
-12.1904536583
 10
-1.1915600712
 20
-12.2188078956
 10
-1.1946564698
 20
-12.2472779757
 10
-1.1970708359
 20
-12.2758408102
 10
-1.1987999013
 20
-12.3044733107
 10
-1.1998403976
 20
-12.3331523886
 10
-1.2001890566
 20
-12.3618549556
 10
-1.1998436897
 20
-12.3905579253
 10
-1.1988064271
 20
-12.4192382207
 10
-1.1970804788
 20
-12.4478727667
 10
-1.1946690548
 20
-12.4764384883
 10
-1.1915753649
 20
-12.5049123106
 10
-1.1878026193
 20
-12.5332711584
 10
-1.1833542505
 20
-12.5614945166
 10
-1.178234582
 20
-12.5895721087
 10
-1.1724481601
 20
-12.617496218
 10
-1.1659995308
 20
-12.6452591277
 10
-1.1588932404
 20
-12.6728531211
 10
-1.1511338351
 20
-12.7002704815
 10
-1.142721567
 20
-12.7275094649
 10
-1.1336395119
 20
-12.754592218
 10
-1.1238664517
 20
-12.7815468603
 10
-1.1133811683
 20
-12.8084015112
 10
-1.1021624433
 20
-12.8351842902
 10
-1.0901890586
 20
-12.8619233167
  0
LWPOLYLINE
  5
30B
100
AcDbEntity
  8
0
100
AcDbPolyline
 62
253
  6
CONTINUOUS
 90
37
 70
0
 10
0.4098109414
 20
-12.8619233167
 10
0.4217843001
 20
-12.8351843499
 10
0.4330030037
 20
-12.8084016281
 10
0.4434882699
 20
-12.7815470314
 10
0.4532613169
 20
-12.7545924404
 10
0.4623433625
 20
-12.7275097353
 10
0.4707556246
 20
-12.7002707966
 10
0.4785150272
 20
-12.6728534771
 10
0.4856213178
 20
-12.6452595205
 10
0.49206995
 20
-12.6174966431
 10
0.4978563772
 20
-12.589572561
 10
0.502976053
 20
-12.5614949905
 10
0.507424431
 20
-12.5332716479
 10
0.5111971872
 20
-12.5049128092
 10
0.5142908887
 20
-12.4764389901
 10
0.516702325
 20
-12.4478732663
 10
0.5184282859
 20
-12.4192387133
 10
0.5194655608
 20
-12.3905584068
 10
0.5198109395
 20
-12.3618554223
 10
0.5194622912
 20
-12.3331528378
 10
0.5184218046
 20
-12.3044737398
 10
0.5166927479
 20
-12.2758412175
 10
0.5142783894
 20
-12.2472783598
 10
0.5111819974
 20
-12.2188082557
 10
0.5074068402
 20
-12.1904539942
 10
0.5029564107
 20
-12.1622361024
 10
0.4978351004
 20
-12.1341648598
 10
0.4920475256
 20
-12.1062479838
 10
0.4855983025
 20
-12.0784931921
 10
0.4784920472
 20
-12.0509082021
 10
0.470733376
 20
-12.0235007315
 10
0.4623226079
 20
-11.9962725131
 10
0.4532428734
 20
-11.9692013413
 10
0.4434730062
 20
-11.942259026
 10
0.4329918394
 20
-11.915417377
 10
0.4217782067
 20
-11.8886482039
 10
0.4098109414
 20
-11.8619233167
  0
LWPOLYLINE
  5
30C
100
AcDbEntity
  8
ASSI
100
AcDbPolyline
 62
253
  6
CONTINUOUS
 90
17
 70
0
 10
10.6750071146
 20
-21.3733345761
 10
10.6753891183
 20
-21.3782803857
 10
10.6757751664
 20
-21.3829616871
 10
10.6761652519
 20
-21.3873789379
 10
10.6765587002
 20
-21.3915244928
 10
10.6769555168
 20
-21.3953978791
 10
10.6773556962
 20
-21.3989995695
 10
10.6777585475
 20
-21.4023233368
 10
10.6781640762
 20
-21.4053687041
 10
10.6785722768
 20
-21.4081361483
 10
10.6789824418
 20
-21.4106208723
 10
10.6793945818
 20
-21.412822395
 10
10.6798086861
 20
-21.4147411976
 10
10.6802240163
 20
-21.4163739269
 10
10.6806403261
 20
-21.417719465
 10
10.6810578616
 20
-21.4187789298
 10
10.681476623
 20
-21.4195523213
  0
LINE
  5
30D
100
AcDbEntity
  8
ASSI
100
AcDbLine
 62
253
  6
CONTINUOUS
 10
10.674255873
 20
-21.3626598222
 11
10.6750071146
 21
-21.3733345761
  0
LINE
  5
30E
100
AcDbEntity
  8
ASSI
100
AcDbLine
 62
253
  6
CONTINUOUS
 10
10.6735234113
 20
-21.3509640514
 11
10.674255873
 21
-21.3626598222
  0
LWPOLYLINE
  5
30F
100
AcDbEntity
  8
ASSI
100
AcDbPolyline
 62
253
  6
CONTINUOUS
 90
11
 70
0
 10
10.1776601365
 20
-21.877758061
 10
10.1780629802
 20
-21.8844065675
 10
10.178468508
 20
-21.8904990475
 10
10.1788767104
 20
-21.8960319667
 10
10.1792868712
 20
-21.9010021067
 10
10.179698986
 20
-21.9054065888
 10
10.1801130592
 20
-21.9092428912
 10
10.1805283884
 20
-21.9125088178
 10
10.1809447395
 20
-21.9152024816
 10
10.1813623465
 20
-21.9173223153
 10
10.1817812095
 20
-21.9188670886
  0
LINE
  5
310
100
AcDbEntity
  8
ASSI
100
AcDbLine
 62
253
  6
CONTINUOUS
 10
10.67281161
 20
-21.3382787561
 11
10.6735234113
 21
-21.3509640514
  0
LINE
  5
311
100
AcDbEntity
  8
ASSI
100
AcDbLine
 62
253
  6
CONTINUOUS
 10
10.1768631601
 20
-21.8628085992
 11
10.1776601365
 21
-21.877758061
  0
LINE
  5
312
100
AcDbEntity
  8
ASSI
100
AcDbLine
 62
253
  6
CONTINUOUS
 10
10.6721216987
 20
-21.3246258782
 11
10.67281161
 21
-21.3382787561
  0
LINE
  5
313
100
AcDbEntity
  8
ASSI
100
AcDbLine
 62
253
  6
CONTINUOUS
 10
10.6714554906
 20
-21.3100398187
 11
10.6721216987
 21
-21.3246258782
  0
LINE
  5
314
100
AcDbEntity
  8
ASSI
100
AcDbLine
 62
253
  6
CONTINUOUS
 10
10.1760796387
 20
-21.8456851097
 11
10.1768631601
 21
-21.8628085992
  0
LINE
  5
315
100
AcDbEntity
  8
ASSI
100
AcDbLine
 62
253
  6
CONTINUOUS
 10
10.6708146894
 20
-21.2945594871
 11
10.6714554906
 21
-21.3100398187
  0
LINE
  5
316
100
AcDbEntity
  8
ASSI
100
AcDbLine
 62
253
  6
CONTINUOUS
 10
10.1753115999
 20
-21.8264271577
 11
10.1760796387
 21
-21.8456851097
  0
LINE
  5
317
100
AcDbEntity
  8
ASSI
100
AcDbLine
 62
253
  6
CONTINUOUS
 10
10.1741918028
 20
-21.7936367255
 11
10.1753115999
 21
-21.8264271577
  0
LINE
  5
318
100
AcDbEntity
  8
ASSI
100
AcDbLine
 62
253
  6
CONTINUOUS
 10
10.1731161354
 20
-21.756315324
 11
10.1741918028
 21
-21.7936367255
  0
LINE
  5
319
100
AcDbEntity
  8
ASSI
100
AcDbLine
 62
253
  6
CONTINUOUS
 10
10.1717600405
 20
-21.6998435111
 11
10.1731161354
 21
-21.756315324
  0
LWPOLYLINE
  5
31A
100
AcDbEntity
  8
ASSI
100
AcDbPolyline
 62
253
  6
CONTINUOUS
 90
3
 70
0
 10
10.1699188324
 20
-21.6018415174
 10
10.1702083892
 20
-21.6192146747
 10
10.1717600405
 20
-21.6998435111
  0
LINE
  5
31B
100
AcDbEntity
  8
ASSI
100
AcDbLine
 62
253
  6
CONTINUOUS
 10
10.1714363941
 20
21.9607341162
 11
10.1699188324
 21
21.8779948839
  0
LINE
  5
31C
100
AcDbEntity
  8
ASSI
100
AcDbLine
 62
253
  6
CONTINUOUS
 10
10.1727682257
 20
22.0190541979
 11
10.1714363941
 21
21.9607341162
  0
LINE
  5
31D
100
AcDbEntity
  8
ASSI
100
AcDbLine
 62
253
  6
CONTINUOUS
 10
10.1738279239
 20
22.0578439615
 11
10.1727682257
 21
22.0190541979
  0
LINE
  5
31E
100
AcDbEntity
  8
ASSI
100
AcDbLine
 62
253
  6
CONTINUOUS
 10
10.1749336408
 20
22.092164831
 11
10.1738279239
 21
22.0578439615
  0
LINE
  5
31F
100
AcDbEntity
  8
ASSI
100
AcDbLine
 62
253
  6
CONTINUOUS
 10
10.1756935966
 20
22.1124736426
 11
10.1749336408
 21
22.092164831
  0
LINE
  5
320
100
AcDbEntity
  8
ASSI
100
AcDbLine
 62
253
  6
CONTINUOUS
 10
10.1764697185
 20
22.1306696193
 11
10.1756935966
 21
22.1124736426
  0
LINE
  5
321
100
AcDbEntity
  8
ASSI
100
AcDbLine
 62
253
  6
CONTINUOUS
 10
10.6717856343
 20
21.5936027608
 11
10.6708146894
 21
21.5707128537
  0
LINE
  5
322
100
AcDbEntity
  8
ASSI
100
AcDbLine
 62
253
  6
CONTINUOUS
 10
10.672463694
 20
21.6077222295
 11
10.6717856343
 21
21.5936027608
  0
LINE
  5
323
100
AcDbEntity
  8
ASSI
100
AcDbLine
 62
253
  6
CONTINUOUS
 10
10.6731648459
 20
21.6208973252
 11
10.672463694
 21
21.6077222295
  0
LINE
  5
324
100
AcDbEntity
  8
ASSI
100
AcDbLine
 62
253
  6
CONTINUOUS
 10
10.6738872967
 20
21.63309282
 11
10.6731648459
 21
21.6208973252
  0
LINE
  5
325
100
AcDbEntity
  8
ASSI
100
AcDbLine
 62
253
  6
CONTINUOUS
 10
-11.2815127747
 20
9.6315024547
 11
-11.2710644426
 21
9.6320119318
  0
LINE
  5
326
100
AcDbEntity
  8
ASSI
100
AcDbLine
 62
253
  6
CONTINUOUS
 10
-11.2710644426
 20
9.6320119318
 11
-11.2591292255
 21
9.6325102957
  0
LINE
  5
327
100
AcDbEntity
  8
ASSI
100
AcDbLine
 62
253
  6
CONTINUOUS
 10
-11.2591292255
 20
9.6325102957
 11
-11.2457457343
 21
9.6329959342
  0
LINE
  5
328
100
AcDbEntity
  8
ASSI
100
AcDbLine
 62
253
  6
CONTINUOUS
 10
-11.2457457343
 20
9.6329959342
 11
-11.2230509405
 21
9.6336971078
  0
LINE
  5
329
100
AcDbEntity
  8
ASSI
100
AcDbLine
 62
253
  6
CONTINUOUS
 10
-11.2230509405
 20
9.6336971078
 11
-11.1881640337
 21
9.6345732053
  0
LINE
  5
32A
100
AcDbEntity
  8
ASSI
100
AcDbLine
 62
253
  6
CONTINUOUS
 10
-11.1881640337
 20
9.6345732053
 11
-11.1377647099
 21
9.6355580623
  0
LINE
  5
32B
100
AcDbEntity
  8
ASSI
100
AcDbLine
 62
253
  6
CONTINUOUS
 10
-11.1377647099
 20
9.6355580623
 11
-11.0686878508
 21
9.6365522745
  0
LINE
  5
32C
100
AcDbEntity
  8
ASSI
100
AcDbLine
 62
253
  6
CONTINUOUS
 10
-11.0686878508
 20
9.6365522745
 11
-10.9788059969
 21
9.6374176709
  0
LINE
  5
32D
100
AcDbEntity
  8
ASSI
100
AcDbLine
 62
253
  6
CONTINUOUS
 10
-10.9788059969
 20
9.6374176709
 11
-10.8682074063
 21
9.6379776126
  0
LINE
  5
32E
100
AcDbEntity
  8
ASSI
100
AcDbLine
 62
253
  6
CONTINUOUS
 10
-10.8682074063
 20
9.6379776126
 11
10.1310668999
 21
9.6380766833
  0
LINE
  5
32F
100
AcDbEntity
  8
ASSI
100
AcDbLine
 62
253
  6
CONTINUOUS
 10
10.243857759
 20
9.6377569909
 11
10.1310668999
 21
9.6380766833
  0
LINE
  5
330
100
AcDbEntity
  8
ASSI
100
AcDbLine
 62
253
  6
CONTINUOUS
 10
10.3508340773
 20
9.6369640397
 11
10.243857759
 21
9.6377569909
  0
LINE
  5
331
100
AcDbEntity
  8
ASSI
100
AcDbLine
 62
253
  6
CONTINUOUS
 10
10.4239135945
 20
9.6360824759
 11
10.3508340773
 21
9.6369640397
  0
LINE
  5
332
100
AcDbEntity
  8
ASSI
100
AcDbLine
 62
253
  6
CONTINUOUS
 10
10.4783971423
 20
9.6351799804
 11
10.4239135945
 21
9.6360824759
  0
LINE
  5
333
100
AcDbEntity
  8
ASSI
100
AcDbLine
 62
253
  6
CONTINUOUS
 10
10.5169830301
 20
9.6343610232
 11
10.4783971423
 21
9.6351799804
  0
LINE
  5
334
100
AcDbEntity
  8
ASSI
100
AcDbLine
 62
253
  6
CONTINUOUS
 10
10.5426728233
 20
9.6336971078
 11
10.5169830301
 21
9.6343610232
  0
LINE
  5
335
100
AcDbEntity
  8
ASSI
100
AcDbLine
 62
253
  6
CONTINUOUS
 10
10.5653676171
 20
9.6329959342
 11
10.5426728233
 21
9.6336971078
  0
LINE
  5
336
100
AcDbEntity
  8
ASSI
100
AcDbLine
 62
253
  6
CONTINUOUS
 10
10.5787511083
 20
9.6325102957
 11
10.5653676171
 21
9.6329959342
  0
LINE
  5
337
100
AcDbEntity
  8
ASSI
100
AcDbLine
 62
253
  6
CONTINUOUS
 10
10.5906863254
 20
9.6320119318
 11
10.5787511083
 21
9.6325102957
  0
LINE
  5
338
100
AcDbEntity
  8
ASSI
100
AcDbLine
 62
253
  6
CONTINUOUS
 10
10.6699038125
 20
-21.269727911
 11
10.6708146894
 21
-21.2945594871
  0
LINE
  5
339
100
AcDbEntity
  8
ASSI
100
AcDbLine
 62
253
  6
CONTINUOUS
 10
10.6690577262
 20
-21.2430835566
 11
10.6699038125
 21
-21.269727911
  0
LINE
  5
33A
100
AcDbEntity
  8
ASSI
100
AcDbLine
 62
253
  6
CONTINUOUS
 10
10.6680378363
 20
-21.2049743934
 11
10.6690577262
 21
-21.2430835566
  0
LINE
  5
33B
100
AcDbEntity
  8
ASSI
100
AcDbLine
 62
253
  6
CONTINUOUS
 10
10.6671504173
 20
-21.1642464628
 11
10.6680378363
 21
-21.2049743934
  0
LWPOLYLINE
  5
33C
100
AcDbEntity
  8
ASSI
100
AcDbPolyline
 62
253
  6
CONTINUOUS
 90
46
 70
0
 10
10.6276190482
 20
-0.2573873235
 10
10.6274642517
 20
-0.2486644716
 10
10.6270053607
 20
-0.239952243
 10
10.6262429342
 20
-0.2312612482
 10
10.6251779007
 20
-0.2226020716
 10
10.6238115572
 20
-0.2139852591
 10
10.6221455678
 20
-0.2054213048
 10
10.6201819614
 20
-0.1969206386
 10
10.6179231295
 20
-0.1884936132
 10
10.6153718231
 20
-0.1801504916
 10
10.6125311493
 20
-0.1719014348
 10
10.6094045677
 20
-0.163756489
 10
10.6059958861
 20
-0.1557255737
 10
10.6023092559
 20
-0.1478184696
 10
10.5983491668
 20
-0.1400448066
 10
10.5941204418
 20
-0.1324140519
 10
10.589628231
 20
-0.124935499
 10
10.5848780052
 20
-0.1176182556
 10
10.5798755497
 20
-0.1104712333
 10
10.5746269568
 20
-0.1035031363
 10
10.5691386187
 20
-0.0967224508
 10
10.5634172194
 20
-0.0901374348
 10
10.5574697269
 20
-0.083756108
 10
10.5513033845
 20
-0.0775862422
 10
10.544925702
 20
-0.0716353514
 10
10.5383444466
 20
-0.065910683
 10
10.5315676336
 20
-0.060419209
 10
10.5246035161
 20
-0.0551676173
 10
10.5174605756
 20
-0.0501623036
 10
10.5101475113
 20
-0.0454093639
 10
10.5026732295
 20
-0.0409145865
 10
10.4950468331
 20
-0.0366834455
 10
10.48727761
 20
-0.032721094
 10
10.4793750221
 20
-0.0290323575
 10
10.4713486939
 20
-0.0256217285
 10
10.4632084002
 20
-0.0224933608
 10
10.4549640551
 20
-0.0196510641
 10
10.446625699
 20
-0.0170983002
 10
10.438203487
 20
-0.0148381779
 10
10.4297076764
 20
-0.0128734499
 10
10.4211486139
 20
-0.0112065087
 10
10.4125367233
 20
-0.0098393847
 10
10.403882493
 20
-0.0087737428
 10
10.3951964626
 20
-0.0080108807
 10
10.3864892107
 20
-0.0075517276
 10
10.3777713414
 20
-0.0073968427
  0
LWPOLYLINE
  5
33D
100
AcDbEntity
  8
ASSI
100
AcDbPolyline
 62
253
  6
CONTINUOUS
 90
55
 70
0
 10
10.681476623
 20
21.6957056878
 10
10.6812392036
 20
21.7102112596
 10
10.680580175
 20
21.7247045867
 10
10.6795000935
 20
21.7391734349
 10
10.6779998709
 20
21.7536055905
 10
10.6760807736
 20
21.7679888709
 10
10.6737444214
 20
21.7823111347
 10
10.6709927867
 20
21.7965602919
 10
10.6678281921
 20
21.8107243143
 10
10.664253309
 20
21.8247912458
 10
10.6602711551
 20
21.8387492118
 10
10.6558850918
 20
21.85258643
 10
10.6510988216
 20
21.8662912199
 10
10.6459163846
 20
21.8798520129
 10
10.6403421557
 20
21.8932573618
 10
10.6343808401
 20
21.9064959508
 10
10.62803747
 20
21.9195566046
 10
10.6213174001
 20
21.9324282985
 10
10.614226303
 20
21.9451001669
 10
10.6067701646
 20
21.957561513
 10
10.5989552787
 20
21.969801818
 10
10.5907882422
 20
21.9818107492
 10
10.5822759492
 20
21.9935781696
 10
10.5734255852
 20
22.0050941458
 10
10.5642446211
 20
22.016348957
 10
10.5547408068
 20
22.0273331024
 10
10.5449221648
 20
22.03803731
 10
10.5347969834
 20
22.0484525441
 10
10.5243738096
 20
22.0585700128
 10
10.5136614418
 20
22.0683811755
 10
10.5026689229
 20
22.0778777505
 10
10.4914055319
 20
22.0870517212
 10
10.4798807766
 20
22.0958953436
 10
10.4681043855
 20
22.1044011525
 10
10.4560862994
 20
22.112561968
 10
10.4438366632
 20
22.1203709011
 10
10.4313658172
 20
22.1278213601
 10
10.4186842885
 20
22.1349070558
 10
10.405802782
 20
22.1416220069
 10
10.3927321713
 20
22.1479605452
 10
10.3794834899
 20
22.15391732
 10
10.3660679214
 20
22.159487303
 10
10.3524967902
 20
22.1646657924
 10
10.3387815523
 20
22.1694484169
 10
10.3249337852
 20
22.1738311394
 10
10.3109651782
 20
22.1778102601
 10
10.2968875227
 20
22.1813824202
 10
10.282712702
 20
22.1845446043
 10
10.2684526817
 20
22.1872941432
 10
10.2541194992
 20
22.1896287157
 10
10.2397252534
 20
22.1915463514
 10
10.2252820951
 20
22.1930454313
 10
10.2108022163
 20
22.19412469
 10
10.1962978399
 20
22.1947832166
 10
10.1817812095
 20
22.1950204552
  0
LINE
  5
33E
100
AcDbEntity
  8
ASSI
100
AcDbLine
 62
253
  6
CONTINUOUS
 10
10.6662395014
 20
-21.1102154565
 11
10.6671504173
 21
-21.1642464628
  0
LINE
  5
33F
100
AcDbEntity
  8
ASSI
100
AcDbLine
 62
253
  6
CONTINUOUS
 10
10.1681078714
 20
-21.4698158968
 11
10.1699188324
 21
-21.6018415174
  0
LINE
  5
340
100
AcDbEntity
  8
ASSI
100
AcDbLine
 62
253
  6
CONTINUOUS
 10
10.6655612095
 20
-21.053456417
 11
10.6662395014
 21
-21.1102154565
  0
LINE
  5
341
100
AcDbEntity
  8
ASSI
100
AcDbLine
 62
253
  6
CONTINUOUS
 10
10.1663895135
 20
-21.2778844407
 11
10.1681078714
 21
-21.4698158968
  0
LINE
  5
342
100
AcDbEntity
  8
ASSI
100
AcDbLine
 62
253
  6
CONTINUOUS
 10
10.6607609536
 20
-20.1377424113
 11
10.6655612095
 21
-21.053456417
  0
LINE
  5
343
100
AcDbEntity
  8
ASSI
100
AcDbLine
 62
7
  6
CONTINUOUS
 10
10.783503632
 20
21.848823991
 11
10.8098109414
 21
13.2380766833
  0
LINE
  5
344
100
AcDbEntity
  8
ASSI
100
AcDbLine
 62
253
  6
CONTINUOUS
 10
10.1654297538
 20
-21.0693197363
 11
10.1663895135
 21
-21.2778844407
  0
LINE
  5
345
100
AcDbEntity
  8
ASSI
100
AcDbLine
 62
253
  6
CONTINUOUS
 10
10.1328013334
 20
-11.1030274032
 11
10.1654297538
 21
-21.0693197363
  0
LINE
  5
346
100
AcDbEntity
  8
ASSI
100
AcDbLine
 62
253
  6
CONTINUOUS
 10
10.6314832708
 20
-10.2182721197
 11
10.6607609536
 21
-20.1377424113
  0
LINE
  5
347
100
AcDbEntity
  8
ASSI
100
AcDbLine
 62
253
  6
CONTINUOUS
 10
10.1328013334
 20
-11.1030274032
 11
10.1279236875
 21
-0.0095024049
  0
LINE
  5
348
100
AcDbEntity
  8
ASSI
100
AcDbLine
 62
253
  6
CONTINUOUS
 10
10.6276191151
 20
-0.2573873067
 11
10.6314832708
 21
-10.2182721197
  0
LINE
  5
349
100
AcDbEntity
  8
ASSI
100
AcDbLine
 62
7
  6
CONTINUOUS
 10
10.8098109414
 20
-0.2118566955
 11
10.8098109414
 21
-12.9619233167
  0
LINE
  5
34A
100
AcDbEntity
  8
ASSI
100
AcDbLine
 62
7
  6
CONTINUOUS
 10
10.8098109414
 20
0.4880100621
 11
10.8098109414
 21
13.2380766833
  0
LINE
  5
34B
100
AcDbEntity
  8
ASSI
100
AcDbLine
 62
7
  6
CONTINUOUS
 10
10.783503632
 20
-21.5726706244
 11
10.8098109414
 21
-12.9619233167
  0
LINE
  5
34C
100
AcDbEntity
  8
ASSI
100
AcDbLine
 62
253
  6
CONTINUOUS
 10
10.1569912846
 20
19.620676102
 11
10.1279236875
 21
0.2856557715
  0
LINE
  5
34D
100
AcDbEntity
  8
ASSI
100
AcDbLine
 62
253
  6
CONTINUOUS
 10
10.6586875985
 20
19.9849544299
 11
10.6276191151
 21
0.5335406733
  0
LINE
  5
34E
100
AcDbEntity
  8
ASSI
100
AcDbLine
 62
253
  6
CONTINUOUS
 10
10.6654543247
 20
21.3179958094
 11
10.6586875985
 21
19.9849544299
  0
LINE
  5
34F
100
AcDbEntity
  8
ASSI
100
AcDbLine
 62
253
  6
CONTINUOUS
 10
10.1672548787
 20
21.6633143218
 11
10.1569912846
 21
19.620676102
  0
LINE
  5
350
100
AcDbEntity
  8
ASSI
100
AcDbLine
 62
253
  6
CONTINUOUS
 10
10.6660848901
 20
21.3752115157
 11
10.6654543247
 21
21.3179958094
  0
LINE
  5
351
100
AcDbEntity
  8
ASSI
100
AcDbLine
 62
253
  6
CONTINUOUS
 10
10.1690953578
 20
21.823559003
 11
10.1672548787
 21
21.6633143218
  0
LINE
  5
352
100
AcDbEntity
  8
ASSI
100
AcDbLine
 62
253
  6
CONTINUOUS
 10
10.1699188324
 20
21.8779948839
 11
10.1690953578
 21
21.823559003
  0
LWPOLYLINE
  5
353
100
AcDbEntity
  8
ASSI
100
AcDbPolyline
 62
253
  6
CONTINUOUS
 90
55
 70
0
 10
10.681476623
 20
-21.4195523213
 10
10.6812392036
 20
-21.4340578933
 10
10.680580175
 20
-21.4485512207
 10
10.6795000935
 20
-21.4630200692
 10
10.6779998708
 20
-21.4774522251
 10
10.6760807734
 20
-21.4918355057
 10
10.6737444211
 20
-21.5061577697
 10
10.6709927863
 20
-21.5204069271
 10
10.6678281916
 20
-21.5345709498
 10
10.6642533084
 20
-21.5486378814
 10
10.6602711543
 20
-21.5625958476
 10
10.6558850909
 20
-21.576433066
 10
10.6510988206
 20
-21.590137856
 10
10.6459163835
 20
-21.6036986492
 10
10.6403421544
 20
-21.6171039982
 10
10.6343808387
 20
-21.6303425872
 10
10.6280374685
 20
-21.6434032412
 10
10.6213173984
 20
-21.6562749351
 10
10.6142263012
 20
-21.6689468035
 10
10.6067701626
 20
-21.6814081497
 10
10.5989552766
 20
-21.6936484546
 10
10.59078824
 20
-21.7056573858
 10
10.5822759469
 20
-21.7174248062
 10
10.5734255828
 20
-21.7289407824
 10
10.5642446185
 20
-21.7401955935
 10
10.5547408041
 20
-21.7511797388
 10
10.5449221621
 20
-21.7618839464
 10
10.5347969806
 20
-21.7722991804
 10
10.5243738067
 20
-21.7824166489
 10
10.5136614389
 20
-21.7922278116
 10
10.5026689199
 20
-21.8017243864
 10
10.4914055289
 20
-21.8108983569
 10
10.4798807736
 20
-21.8197419792
 10
10.4681043825
 20
-21.8282477881
 10
10.4560862965
 20
-21.8364086034
 10
10.4438366603
 20
-21.8442175363
 10
10.4313658144
 20
-21.8516679952
 10
10.4186842857
 20
-21.8587536907
 10
10.4058027793
 20
-21.8654686417
 10
10.3927321687
 20
-21.8718071798
 10
10.3794834874
 20
-21.8777639545
 10
10.3660679189
 20
-21.8833339374
 10
10.3524967879
 20
-21.8885124267
 10
10.3387815502
 20
-21.8932950511
 10
10.3249337832
 20
-21.8976777734
 10
10.3109651764
 20
-21.901656894
 10
10.296887521
 20
-21.905229054
 10
10.2827127006
 20
-21.9083912381
 10
10.2684526805
 20
-21.9111407768
 10
10.2541194981
 20
-21.9134753493
 10
10.2397252525
 20
-21.9153929849
 10
10.2252820945
 20
-21.9168920647
 10
10.2108022159
 20
-21.9179713235
 10
10.1962978397
 20
-21.9186298501
 10
10.1817812095
 20
-21.9188670886
  0
LWPOLYLINE
  5
354
100
AcDbEntity
  8
ASSI
100
AcDbPolyline
 62
253
  6
CONTINUOUS
 90
46
 70
0
 10
10.6276190482
 20
0.53354069
 10
10.6274642517
 20
0.5248178385
 10
10.6270053608
 20
0.5161056104
 10
10.6262429343
 20
0.5074146159
 10
10.6251779009
 20
0.4987554397
 10
10.6238115575
 20
0.4901386276
 10
10.6221455682
 20
0.4815746736
 10
10.620181962
 20
0.4730740077
 10
10.6179231304
 20
0.4646469826
 10
10.6153718241
 20
0.4563038614
 10
10.6125311506
 20
0.4480548048
 10
10.6094045692
 20
0.4399098592
 10
10.6059958879
 20
0.4318789441
 10
10.6023092578
 20
0.4239718402
 10
10.598349169
 20
0.4161981773
 10
10.5941204443
 20
0.4085674228
 10
10.5896282337
 20
0.4010888699
 10
10.5848780082
 20
0.3937716266
 10
10.5798755529
 20
0.3866246043
 10
10.5746269603
 20
0.3796565073
 10
10.5691386224
 20
0.3728758217
 10
10.5634172233
 20
0.3662908057
 10
10.557469731
 20
0.3599094789
 10
10.5513033887
 20
0.3537396129
 10
10.5449257064
 20
0.347788722
 10
10.5383444512
 20
0.3420640534
 10
10.5315676382
 20
0.3365725792
 10
10.5246035208
 20
0.3313209873
 10
10.5174605803
 20
0.3263156734
 10
10.510147516
 20
0.3215627334
 10
10.5026732342
 20
0.3170679558
 10
10.4950468378
 20
0.3128368145
 10
10.4872776145
 20
0.3088744628
 10
10.4793750265
 20
0.3051857261
 10
10.4713486981
 20
0.3017750968
 10
10.4632084042
 20
0.2986467288
 10
10.4549640588
 20
0.2958044319
 10
10.4466257024
 20
0.2932516678
 10
10.4382034901
 20
0.2909915453
 10
10.4297076791
 20
0.289026817
 10
10.4211486162
 20
0.2873598758
 10
10.4125367253
 20
0.2859927516
 10
10.4038824945
 20
0.2849271095
 10
10.3951964636
 20
0.2841642474
 10
10.3864892112
 20
0.2837050942
 10
10.3777713414
 20
0.2835502093
  0
LINE
  5
355
100
AcDbEntity
  8
ASSI
100
AcDbLine
 62
253
  6
CONTINUOUS
 10
10.6669502616
 20
21.429852733
 11
10.6660848901
 21
21.3752115157
  0
LINE
  5
356
100
AcDbEntity
  8
ASSI
100
AcDbLine
 62
253
  6
CONTINUOUS
 10
10.6678032633
 20
21.4711790611
 11
10.6669502616
 21
21.429852733
  0
LINE
  5
357
100
AcDbEntity
  8
ASSI
100
AcDbLine
 62
253
  6
CONTINUOUS
 10
10.6687907631
 20
21.5099726963
 11
10.6678032633
 21
21.4711790611
  0
LINE
  5
358
100
AcDbEntity
  8
ASSI
100
AcDbLine
 62
253
  6
CONTINUOUS
 10
10.6696142509
 20
21.5371912138
 11
10.6687907631
 21
21.5099726963
  0
LWPOLYLINE
  5
359
100
AcDbEntity
  8
ASSI
100
AcDbPolyline
 62
253
  6
CONTINUOUS
 90
3
 70
0
 10
10.6708146894
 20
21.5707128537
 10
10.6705040317
 20
21.5626420975
 10
10.6696142509
 20
21.5371912138
  0
LWPOLYLINE
  5
35A
100
AcDbEntity
  8
ASSI
100
AcDbPolyline
 62
253
  6
CONTINUOUS
 90
12
 70
0
 10
10.6307623134
 20
-9.3524233167
 10
10.6300640478
 20
-9.3526936488
 10
10.6289621323
 20
-9.3529637623
 10
10.6274574581
 20
-9.3532334385
 10
10.6255512426
 20
-9.3535024595
 10
10.6232450275
 20
-9.3537706075
 10
10.6205406786
 20
-9.3540376656
 10
10.6174403834
 20
-9.3543034179
 10
10.6139466498
 20
-9.3545676493
 10
10.6100623039
 20
-9.3548301461
 10
10.605790488
 20
-9.355090696
 10
10.6011346575
 20
-9.3553490881
  0
LINE
  5
35B
100
AcDbEntity
  8
0
100
AcDbLine
 62
253
  6
CONTINUOUS
 10
-1.0901890586
 20
12.1380766833
 11
0.4098109414
 21
12.1380766833
  0
LINE
  5
35C
100
AcDbEntity
  8
0
100
AcDbLine
 62
253
  6
CONTINUOUS
 10
2.0098109414
 20
12.1380766833
 11
3.2598109414
 21
12.1380766833
  0
LINE
  5
35D
100
AcDbEntity
  8
0
100
AcDbLine
 62
253
  6
CONTINUOUS
 10
-2.6901890586
 20
12.1380766833
 11
-3.9401890586
 21
12.1380766833
  0
LINE
  5
35E
100
AcDbEntity
  8
0
100
AcDbLine
 62
253
  6
CONTINUOUS
 10
-3.9401890586
 20
13.1380766833
 11
-2.6901890586
 21
13.1380766833
  0
LINE
  5
35F
100
AcDbEntity
  8
0
100
AcDbLine
 62
253
  6
CONTINUOUS
 10
3.2598109414
 20
13.1380766833
 11
2.0098109414
 21
13.1380766833
  0
LINE
  5
360
100
AcDbEntity
  8
0
100
AcDbLine
 62
253
  6
CONTINUOUS
 10
0.4098109414
 20
13.1380766833
 11
-1.0901890586
 21
13.1380766833
  0
LWPOLYLINE
  5
361
100
AcDbEntity
  8
ASSI
100
AcDbPolyline
 62
253
  6
CONTINUOUS
 90
13
 70
0
 10
10.6307623134
 20
9.6285766833
 10
10.6300640478
 20
9.6288470154
 10
10.6289621323
 20
9.6291171289
 10
10.6274574581
 20
9.6293868051
 10
10.6255512426
 20
9.6296558261
 10
10.6232450275
 20
9.6299239741
 10
10.6205406786
 20
9.6301910322
 10
10.6174403834
 20
9.6304567845
 10
10.6139466498
 20
9.6307210159
 10
10.610062304
 20
9.6309835127
 10
10.605790488
 20
9.6312440626
 10
10.6011346576
 20
9.6315024547
 10
10.5906863254
 20
9.6320119318
  0
LWPOLYLINE
  5
362
100
AcDbEntity
  8
ASSI
100
AcDbPolyline
 62
253
  6
CONTINUOUS
 90
49
 70
0
 10
10.6651251673
 20
-20.9947786451
 10
10.6644321405
 20
-20.9969002891
 10
10.6633352576
 20
-20.9990202161
 10
10.6618354065
 20
-21.0011367102
 10
10.6599338009
 20
-21.0032480586
 10
10.65763198
 20
-21.0053525524
 10
10.6549318066
 20
-21.0074484885
 10
10.6518354661
 20
-21.0095341706
 10
10.6483454644
 20
-21.0116079106
 10
10.6444646261
 20
-21.0136680302
 10
10.6401960921
 20
-21.0157128622
 10
10.6355433169
 20
-21.0177407515
 10
10.6305100661
 20
-21.019750057
 10
10.6251004135
 20
-21.0217391524
 10
10.619318737
 20
-21.023706428
 10
10.613169716
 20
-21.0256502916
 10
10.6066583271
 20
-21.0275691699
 10
10.5997898401
 20
-21.0294615099
 10
10.5925698137
 20
-21.0313257802
 10
10.5850040915
 20
-21.0331604719
 10
10.5770987966
 20
-21.0349641001
 10
10.5688603268
 20
-21.0367352052
 10
10.5602953499
 20
-21.0384723537
 10
10.5514107977
 20
-21.0401741398
 10
10.5422138606
 20
-21.041839186
 10
10.5327119821
 20
-21.0434661449
 10
10.5229128522
 20
-21.0450536996
 10
10.5128244017
 20
-21.0466005655
 10
10.5024547953
 20
-21.0481054904
 10
10.4918124256
 20
-21.0495672565
 10
10.4809059056
 20
-21.0509846807
 10
10.4697440623
 20
-21.0523566159
 10
10.4583359293
 20
-21.0536819517
 10
10.4466907395
 20
-21.0549596154
 10
10.4348179176
 20
-21.0561885731
 10
10.4227270727
 20
-21.0573678301
 10
10.4104279901
 20
-21.0584964319
 10
10.3979306239
 20
-21.0595734653
 10
10.3852450885
 20
-21.0605980584
 10
10.3723816507
 20
-21.0615693822
 10
10.3593507211
 20
-21.0624866504
 10
10.3461628462
 20
-21.0633491207
 10
10.332828699
 20
-21.0641560951
 10
10.3193590715
 20
-21.0649069204
 10
10.3057648648
 20
-21.0656009891
 10
10.2920570811
 20
-21.0662377393
 10
10.2782468145
 20
-21.0668166558
 10
10.2643452421
 20
-21.06733727
 10
10.2503636147
 20
-21.0677991605
  0
LWPOLYLINE
  5
363
100
AcDbEntity
  8
ASSI
100
AcDbPolyline
 62
253
  6
CONTINUOUS
 90
50
 70
0
 10
10.6651251673
 20
21.2709320117
 10
10.6644321407
 20
21.2730536557
 10
10.663335258
 20
21.2751735827
 10
10.661835407
 20
21.2772900769
 10
10.6599338017
 20
21.2794014253
 10
10.6576319809
 20
21.2815059191
 10
10.6549318077
 20
21.2836018553
 10
10.6518354674
 20
21.2856875374
 10
10.6483454658
 20
21.2877612774
 10
10.6444646276
 20
21.2898213971
 10
10.6401960937
 20
21.291866229
 10
10.6355433186
 20
21.2938941184
 10
10.630510068
 20
21.2959034239
 10
10.6251004154
 20
21.2978925194
 10
10.6193187391
 20
21.299859795
 10
10.6131697182
 20
21.3018036586
 10
10.6066583293
 20
21.3037225369
 10
10.5997898423
 20
21.305614877
 10
10.5925698161
 20
21.3074791473
 10
10.5850040939
 20
21.309313839
 10
10.577098799
 20
21.3111174673
 10
10.5688603293
 20
21.3128885724
 10
10.5602953524
 20
21.3146257209
 10
10.5514108001
 20
21.316327507
 10
10.5422138631
 20
21.3179925533
 10
10.5327119846
 20
21.3196195122
 10
10.5229128547
 20
21.321207067
 10
10.5128244041
 20
21.3227539328
 10
10.5024547978
 20
21.3242588578
 10
10.491812428
 20
21.3257206239
 10
10.480905908
 20
21.3271380482
 10
10.4697440647
 20
21.3285099834
 10
10.4583359316
 20
21.3298353192
 10
10.4466907417
 20
21.3311129829
 10
10.4348179198
 20
21.3323419406
 10
10.4227270748
 20
21.3335211976
 10
10.4104279921
 20
21.3346497995
 10
10.3979306258
 20
21.3357268329
 10
10.3852450904
 20
21.3367514261
 10
10.3723816525
 20
21.3377227498
 10
10.3593507228
 20
21.3386400181
 10
10.3461628477
 20
21.3395024884
 10
10.3328287005
 20
21.3403094628
 10
10.3193590728
 20
21.3410602882
 10
10.305764866
 20
21.3417543568
 10
10.2920570822
 20
21.3423911071
 10
10.2782468156
 20
21.3429700236
 10
10.264345243
 20
21.3434906377
 10
10.2503636155
 20
21.3439525283
 10
10.2222055141
 20
21.344698691
  0
LINE
  5
364
100
AcDbEntity
  8
ASSI
100
AcDbLine
 62
7
  6
CONTINUOUS
 10
7.4657646423
 20
22.3463146239
 11
7.1175459683
 21
22.3147057923
  0
LINE
  5
365
100
AcDbEntity
  8
ASSI
100
AcDbLine
 62
253
  6
CONTINUOUS
 10
-10.9307417319
 20
21.3439525271
 11
-10.9025836308
 21
21.3446986898
  0
LINE
  5
366
100
AcDbEntity
  8
ASSI
100
AcDbLine
 62
253
  6
CONTINUOUS
 10
-10.9025836308
 20
21.3446986898
 11
-10.8742417662
 21
21.3452060954
  0
LINE
  5
367
100
AcDbEntity
  8
ASSI
100
AcDbLine
 62
253
  6
CONTINUOUS
 10
-10.8742417662
 20
21.3452060954
 11
-10.845807871
 21
21.3454731016
  0
LINE
  5
368
100
AcDbEntity
  8
ASSI
100
AcDbLine
 62
253
  6
CONTINUOUS
 10
10.1654297538
 20
21.3454731029
 11
-10.845807871
 21
21.3454731029
  0
LINE
  5
369
100
AcDbEntity
  8
ASSI
100
AcDbLine
 62
253
  6
CONTINUOUS
 10
10.1938636493
 20
21.3452060966
 11
10.1654297538
 21
21.3454731029
  0
LINE
  5
36A
100
AcDbEntity
  8
ASSI
100
AcDbLine
 62
253
  6
CONTINUOUS
 10
10.2222055141
 20
21.344698691
 11
10.1938636493
 21
21.3452060966
  0
LINE
  5
36B
100
AcDbEntity
  8
ASSI
100
AcDbLine
 62
7
  6
CONTINUOUS
 10
-8.1461427595
 20
22.3463146239
 11
-7.7979240855
 21
22.3147057923
  0
LINE
  5
36C
100
AcDbEntity
  8
ASSI
100
AcDbLine
 62
7
  6
CONTINUOUS
 10
-3.7342353577
 20
22.3463146239
 11
-4.0824540317
 21
22.3147057923
  0
LINE
  5
36D
100
AcDbEntity
  8
ASSI
100
AcDbLine
 62
253
  6
CONTINUOUS
 10
10.1817812095
 20
22.1950204552
 11
-10.8621593267
 21
22.1950204552
  0
LINE
  5
36E
100
AcDbEntity
  8
ASSI
100
AcDbLine
 62
7
  6
CONTINUOUS
 10
6.9443408876
 20
22.3094650144
 11
3.5752809952
 21
22.3094650144
  0
LINE
  5
36F
100
AcDbEntity
  8
ASSI
100
AcDbLine
 62
7
  6
CONTINUOUS
 10
-4.2556591124
 20
22.3094650144
 11
-7.6247190048
 21
22.3094650144
  0
LINE
  5
370
100
AcDbEntity
  8
ASSI
100
AcDbLine
 62
7
  6
CONTINUOUS
 10
-10.9629708639
 20
22.3463146239
 11
-8.1461427595
 21
22.3463146239
  0
LINE
  5
371
100
AcDbEntity
  8
ASSI
100
AcDbLine
 62
7
  6
CONTINUOUS
 10
-3.7342353577
 20
22.3463146239
 11
3.0538572405
 21
22.3463146239
  0
LINE
  5
372
100
AcDbEntity
  8
ASSI
100
AcDbLine
 62
7
  6
CONTINUOUS
 10
7.4657646423
 20
22.3463146239
 11
10.2825927466
 21
22.3463146239
  0
LINE
  5
373
100
AcDbEntity
  8
ASSI
100
AcDbLine
 62
7
  6
CONTINUOUS
 10
3.0538572405
 20
22.3463146239
 11
3.4020759145
 21
22.3147057923
  0
LINE
  5
374
100
AcDbEntity
  8
ASSI
100
AcDbLine
 62
7
  6
CONTINUOUS
 10
-32.5102555121
 20
-21.9188670886
 11
-29.6233908002
 21
-22.0701612573
  0
LINE
  5
375
100
AcDbEntity
  8
ASSI
100
AcDbLine
 62
253
  6
CONTINUOUS
 10
-32.5015372823
 20
-21.4195523213
 11
-29.5798660096
 21
-21.5726706244
  0
LWPOLYLINE
  5
376
100
AcDbEntity
  8
ASSI
100
AcDbPolyline
 62
253
  6
CONTINUOUS
 90
7
 70
0
 10
-33.4396247216
 20
-21.0677991605
 10
-33.4418056976
 20
-21.0682019536
 10
-33.4435905295
 20
-21.0685453232
 10
-33.4449777726
 20
-21.0688289915
 10
-33.4459663042
 20
-21.0690527288
 10
-33.4465553244
 20
-21.0692163541
 10
-33.4467443563
 20
-21.069319735
  0
LINE
  5
377
100
AcDbEntity
  8
ASSI
100
AcDbLine
 62
253
  6
CONTINUOUS
 10
-33.4340817164
 20
-21.0668166558
 11
-33.4396247216
 21
-21.0677991605
  0
LINE
  5
378
100
AcDbEntity
  8
ASSI
100
AcDbLine
 62
253
  6
CONTINUOUS
 10
-33.4228505913
 20
-21.0649069204
 11
-33.4340817164
 21
-21.0668166558
  0
LINE
  5
379
100
AcDbEntity
  8
ASSI
100
AcDbLine
 62
253
  6
CONTINUOUS
 10
-33.3965717784
 20
-21.0605980584
 11
-33.4228505913
 21
-21.0649069204
  0
LINE
  5
37A
100
AcDbEntity
  8
ASSI
100
AcDbLine
 62
253
  6
CONTINUOUS
 10
-33.3271286432
 20
-21.0495672565
 11
-33.3965717784
 21
-21.0605980584
  0
LINE
  5
37B
100
AcDbEntity
  8
ASSI
100
AcDbLine
 62
253
  6
CONTINUOUS
 10
-32.9697817087
 20
-20.9947786451
 11
-33.3271286432
 21
-21.0495672565
  0
LINE
  5
37C
100
AcDbEntity
  8
ASSI
100
AcDbLine
 62
253
  6
CONTINUOUS
 10
-29.249398956
 20
-17.7954149179
 11
-29.2265232357
 21
-17.7954149179
  0
LWPOLYLINE
  5
37D
100
AcDbEntity
  8
ASSI
100
AcDbPolyline
 62
253
  6
CONTINUOUS
 90
3
 70
0
 10
-34.4354568346
 20
-9.3618890924
 10
-34.4360630742
 20
-9.3619100416
 10
-34.436265089
 20
-9.3619233167
  0
LINE
  5
37E
100
AcDbEntity
  8
ASSI
100
AcDbLine
 62
253
  6
CONTINUOUS
 10
-34.4312193035
 20
-9.3617804012
 11
-34.4354568346
 21
-9.3618890924
  0
LINE
  5
37F
100
AcDbEntity
  8
ASSI
100
AcDbLine
 62
253
  6
CONTINUOUS
 10
-33.9538050956
 20
-9.3524233167
 11
-34.4312193035
 21
-9.3617804012
  0
LWPOLYLINE
  5
380
100
AcDbEntity
  8
ASSI
100
AcDbPolyline
 62
253
  6
CONTINUOUS
 90
28
 70
0
 10
-32.9697817087
 20
21.2709320117
 10
-33.0333071538
 20
20.8425549718
 10
-33.0947564371
 20
20.4138957779
 10
-33.1541295585
 20
19.9849544299
 10
-33.2114278106
 20
19.5557208607
 10
-33.2666499008
 20
19.1262051375
 10
-33.3197919516
 20
18.6964374617
 10
-33.3708538151
 20
18.2664178293
 10
-33.4198356393
 20
17.8361462443
 10
-33.4667339907
 20
17.4056529205
 10
-33.5115487227
 20
16.9749378467
 10
-33.5542799819
 20
16.544001034
 10
-33.5949247747
 20
16.11287273
 10
-33.6334829545
 20
15.6815529242
 10
-33.6699546679
 20
15.2500416271
 10
-33.7043373602
 20
14.8183691179
 10
-33.7366308853
 20
14.3865353825
 10
-33.7668353894
 20
13.9545404351
 10
-33.7949487559
 20
13.522414597
 10
-33.8209708386
 20
13.0901578547
 10
-33.8449017838
 20
12.6577702217
 10
-33.8667399144
 20
12.2252820595
 10
-33.8864850839
 20
11.7926933407
 10
-33.9041374387
 20
11.3600040927
 10
-33.919695741
 20
10.9272447587
 10
-33.9331595783
 20
10.4944254863
 10
-33.9445293632
 20
10.0615361278
 10
-33.9719849542
 20
8.6180995304
  0
LWPOLYLINE
  5
381
100
AcDbEntity
  8
ASSI
100
AcDbPolyline
 62
253
  6
CONTINUOUS
 90
58
 70
0
 10
-32.9697817087
 20
-20.9947786451
 10
-32.967847487
 20
-21.0066371478
 10
-32.9656320712
 20
-21.0184328082
 10
-32.9631354613
 20
-21.0301656263
 10
-32.9603558751
 20
-21.0418424428
 10
-32.9572950947
 20
-21.053456417
 10
-32.9539584667
 20
-21.0649870269
 10
-32.950345532
 20
-21.0764339925
 10
-32.9464567497
 20
-21.0877975938
 10
-32.9422988438
 20
-21.0990581491
 10
-32.9378713564
 20
-21.1102154565
 10
-32.9331747453
 20
-21.121269718
 10
-32.9282171082
 20
-21.1322018569
 10
-32.9229979905
 20
-21.1430116729
 10
-32.9175178468
 20
-21.1536993664
 10
-32.9117861373
 20
-21.1642464628
 10
-32.9058024266
 20
-21.1746527195
 10
-32.8995671502
 20
-21.184918379
 10
-32.8930910748
 20
-21.1950256945
 10
-32.8863737829
 20
-21.2049743934
 10
-32.8794156919
 20
-21.2147647481
 10
-32.8722288211
 20
-21.2243798294
 10
-32.864812779
 20
-21.2338193297
 10
-32.857167957
 20
-21.2430835566
 10
-32.8493075488
 20
-21.2521565036
 10
-32.8412311754
 20
-21.2610378472
 10
-32.8329392157
 20
-21.269727911
 10
-32.8244460004
 20
-21.2782116593
 10
-32.8157511853
 20
-21.286488731
 10
-32.8068551146
 20
-21.2945594871
 10
-32.7977731507
 20
-21.3024099752
 10
-32.7885049664
 20
-21.3100398187
 10
-32.7790508888
 20
-21.3174493942
 10
-32.7694272625
 20
-21.3246258782
 10
-32.7596338008
 20
-21.3315688629
 10
-32.7496707903
 20
-21.3382787561
 10
-32.7395554353
 20
-21.3447439586
 10
-32.7292874655
 20
-21.3509640514
 10
-32.7188671513
 20
-21.3569394535
 10
-32.7083125071
 20
-21.3626598222
 10
-32.6976232998
 20
-21.3681247158
 10
-32.6867997626
 20
-21.3733345761
 10
-32.6758606091
 20
-21.3782803857
 10
-32.664805638
 20
-21.3829616871
 10
-32.6536350507
 20
-21.3873789379
 10
-32.6423681648
 20
-21.3915244928
 10
-32.631004824
 20
-21.3953978791
 10
-32.6195451846
 20
-21.3989995695
 10
-32.6080090325
 20
-21.4023233368
 10
-32.5963962102
 20
-21.4053687041
 10
-32.5847068752
 20
-21.4081361483
 10
-32.5729612853
 20
-21.4106208723
 10
-32.5611591424
 20
-21.412822395
 10
-32.5493007447
 20
-21.4147411976
 10
-32.5374072446
 20
-21.4163739269
 10
-32.5254856929
 20
-21.417719465
 10
-32.5135290388
 20
-21.4187789298
 10
-32.5015372823
 20
-21.4195523213
  0
LINE
  5
382
100
AcDbEntity
  8
0
100
AcDbLine
 62
253
  6
CONTINUOUS
 10
-34.3239008096
 20
-12.4616398567
 11
-34.30158445
 21
-12.8619233167
  0
LINE
  5
383
100
AcDbEntity
  8
0
100
AcDbLine
 62
253
  6
CONTINUOUS
 10
-34.3444917697
 20
-12.0600837524
 11
-34.3239008096
 21
-12.4616398567
  0
LINE
  5
384
100
AcDbEntity
  8
0
100
AcDbLine
 62
253
  6
CONTINUOUS
 10
-34.3539904087
 20
-11.8619233167
 11
-34.3444917697
 21
-12.0600837524
  0
LWPOLYLINE
  5
385
100
AcDbEntity
  8
ASSI
100
AcDbPolyline
 62
253
  6
CONTINUOUS
 90
27
 70
0
 10
-33.9445293632
 20
-9.7853827612
 10
-33.9331595783
 20
-10.2182721197
 10
-33.919695741
 20
-10.6510913921
 10
-33.9041374387
 20
-11.0838507262
 10
-33.8864850839
 20
-11.5165399741
 10
-33.8667399144
 20
-11.9491286929
 10
-33.8449017838
 20
-12.3816168551
 10
-33.8209708386
 20
-12.8140044881
 10
-33.7949487559
 20
-13.2462612304
 10
-33.7668353894
 20
-13.6783870685
 10
-33.7366308853
 20
-14.110382016
 10
-33.7043373602
 20
-14.5422157513
 10
-33.6699546679
 20
-14.9738882605
 10
-33.6334829545
 20
-15.4053995576
 10
-33.5949247747
 20
-15.8367193634
 10
-33.5542799819
 20
-16.2678476674
 10
-33.5115487227
 20
-16.6987844801
 10
-33.4667339907
 20
-17.129499554
 10
-33.4198356393
 20
-17.5599928777
 10
-33.3708538151
 20
-17.9902644627
 10
-33.3197919516
 20
-18.4202840951
 10
-33.2666499008
 20
-18.8500517709
 10
-33.2114278106
 20
-19.2795674942
 10
-33.1541295585
 20
-19.7088010634
 10
-33.0947564371
 20
-20.1377424113
 10
-33.0333071538
 20
-20.5664016052
 10
-32.9697817087
 20
-20.9947786451
  0
LINE
  5
386
100
AcDbEntity
  8
0
100
AcDbLine
 62
253
  6
CONTINUOUS
 10
-34.3321742088
 20
12.5806271064
 11
-34.3539904087
 21
12.1380766833
  0
LINE
  5
387
100
AcDbEntity
  8
0
100
AcDbLine
 62
253
  6
CONTINUOUS
 10
-34.3108121611
 20
12.9764241631
 11
-34.3321742088
 21
12.5806271064
  0
LINE
  5
388
100
AcDbEntity
  8
0
100
AcDbLine
 62
253
  6
CONTINUOUS
 10
-34.30158445
 20
13.1380766833
 11
-34.3108121611
 21
12.9764241631
  0
LWPOLYLINE
  5
389
100
AcDbEntity
  8
ASSI
100
AcDbPolyline
 62
253
  6
CONTINUOUS
 90
16
 70
0
 10
-34.0413423602
 20
0.3170679558
 10
-34.0411129652
 20
0.3128368145
 10
-34.0408762368
 20
0.3088744628
 10
-34.0406324635
 20
0.3051857261
 10
-34.040381942
 20
0.3017750968
 10
-34.0401249776
 20
0.2986467288
 10
-34.039861883
 20
0.2958044319
 10
-34.0395929788
 20
0.2932516678
 10
-34.0393185925
 20
0.2909915453
 10
-34.0390390582
 20
0.289026817
 10
-34.0387547163
 20
0.2873598758
 10
-34.0384659131
 20
0.2859927516
 10
-34.0381730004
 20
0.2849271095
 10
-34.037876335
 20
0.2841642474
 10
-34.037576278
 20
0.2837050942
 10
-34.0372731949
 20
0.2835502093
  0
LINE
  5
38A
100
AcDbEntity
  8
ASSI
100
AcDbLine
 62
253
  6
CONTINUOUS
 10
-34.0417780421
 20
0.3263156734
 11
-34.0413423602
 21
0.3170679558
  0
LINE
  5
38B
100
AcDbEntity
  8
ASSI
100
AcDbLine
 62
253
  6
CONTINUOUS
 10
-34.0421811607
 20
0.3365725792
 11
-34.0417780421
 21
0.3263156734
  0
LINE
  5
38C
100
AcDbEntity
  8
ASSI
100
AcDbLine
 62
253
  6
CONTINUOUS
 10
-34.042549753
 20
0.347788722
 11
-34.0421811607
 21
0.3365725792
  0
LINE
  5
38D
100
AcDbEntity
  8
ASSI
100
AcDbLine
 62
253
  6
CONTINUOUS
 10
-34.0428820237
 20
0.3599094789
 11
-34.042549753
 21
0.347788722
  0
LINE
  5
38E
100
AcDbEntity
  8
ASSI
100
AcDbLine
 62
253
  6
CONTINUOUS
 10
-34.0433088376
 20
0.3796565073
 11
-34.0428820237
 21
0.3599094789
  0
LWPOLYLINE
  5
38F
100
AcDbEntity
  8
ASSI
100
AcDbPolyline
 62
253
  6
CONTINUOUS
 90
18
 70
0
 10
-32.5153779401
 20
-21.8587536907
 10
-32.5152800237
 20
-21.8654686417
 10
-32.5151557766
 20
-21.8718071798
 10
-32.5150053038
 20
-21.8777639545
 10
-32.5148287322
 20
-21.8833339374
 10
-32.514626211
 20
-21.8885124267
 10
-32.5143979111
 20
-21.8932950511
 10
-32.5141440251
 20
-21.8976777734
 10
-32.5138647675
 20
-21.901656894
 10
-32.5135603739
 20
-21.905229054
 10
-32.5132311013
 20
-21.9083912381
 10
-32.5128772277
 20
-21.9111407768
 10
-32.5124990517
 20
-21.9134753493
 10
-32.5120968926
 20
-21.9153929849
 10
-32.5116710898
 20
-21.9168920647
 10
-32.5112220029
 20
-21.9179713235
 10
-32.5107500108
 20
-21.9186298501
 10
-32.5102555121
 20
-21.9188670886
  0
LINE
  5
390
100
AcDbEntity
  8
ASSI
100
AcDbLine
 62
253
  6
CONTINUOUS
 10
-34.0436456563
 20
0.4010888699
 11
-34.0433088376
 21
0.3796565073
  0
LINE
  5
391
100
AcDbEntity
  8
ASSI
100
AcDbLine
 62
253
  6
CONTINUOUS
 10
-34.0438887907
 20
0.4239718402
 11
-34.0436456563
 21
0.4010888699
  0
LINE
  5
392
100
AcDbEntity
  8
ASSI
100
AcDbLine
 62
253
  6
CONTINUOUS
 10
-32.5154944728
 20
-21.8442175363
 11
-32.5153779401
 21
-21.8587536907
  0
LINE
  5
393
100
AcDbEntity
  8
ASSI
100
AcDbLine
 62
253
  6
CONTINUOUS
 10
-34.0438164352
 20
-0.2573873235
 11
-34.0440347548
 21
-0.2226020716
  0
LINE
  5
394
100
AcDbEntity
  8
ASSI
100
AcDbLine
 62
253
  6
CONTINUOUS
 10
-34.0440627883
 20
0.4563038614
 11
-34.0438887907
 21
0.4239718402
  0
LWPOLYLINE
  5
395
100
AcDbEntity
  8
ASSI
100
AcDbPolyline
 62
253
  6
CONTINUOUS
 90
10
 70
0
 10
-34.0438145186
 20
-0.2573873067
 10
-34.0419927574
 20
-1.26802283
 10
-34.0381261155
 20
-2.2786401662
 10
-34.0322145929
 20
-3.2892393155
 10
-34.0242581105
 20
-4.2998213506
 10
-34.0142567473
 20
-5.3103851987
 10
-34.0022107405
 20
-6.3209276412
 10
-33.9881201692
 20
-7.3314476053
 10
-33.9719849542
 20
-8.3419461638
 10
-33.9445293632
 20
-9.7853827612
  0
LINE
  5
396
100
AcDbEntity
  8
ASSI
100
AcDbLine
 62
253
  6
CONTINUOUS
 10
-34.0440347548
 20
-0.2226020716
 11
-34.0440790726
 21
-0.1884936132
  0
LINE
  5
397
100
AcDbEntity
  8
ASSI
100
AcDbLine
 62
253
  6
CONTINUOUS
 10
-34.0440622388
 20
0.4901386276
 11
-34.0440627883
 21
0.4563038614
  0
LINE
  5
398
100
AcDbEntity
  8
ASSI
100
AcDbLine
 62
253
  6
CONTINUOUS
 10
-34.0440790726
 20
-0.1884936132
 11
-34.0439485265
 21
-0.1557255737
  0
LWPOLYLINE
  5
399
100
AcDbEntity
  8
ASSI
100
AcDbPolyline
 62
253
  6
CONTINUOUS
 90
3
 70
0
 10
-34.0438164352
 20
0.53354069
 10
-34.0438871528
 20
0.5248178385
 10
-34.0440622388
 20
0.4901386276
  0
LWPOLYLINE
  5
39A
100
AcDbEntity
  8
ASSI
100
AcDbPolyline
 62
253
  6
CONTINUOUS
 90
19
 70
0
 10
-32.5154944729
 20
22.1203709011
 10
-32.5153779402
 20
22.1349070558
 10
-32.5152800237
 20
22.1416220069
 10
-32.5151557766
 20
22.1479605452
 10
-32.5150053038
 20
22.15391732
 10
-32.5148287323
 20
22.159487303
 10
-32.5146262111
 20
22.1646657924
 10
-32.5143979111
 20
22.1694484169
 10
-32.5141440252
 20
22.1738311394
 10
-32.5138647676
 20
22.1778102601
 10
-32.513560374
 20
22.1813824202
 10
-32.5132311014
 20
22.1845446043
 10
-32.5128772277
 20
22.1872941432
 10
-32.5124990517
 20
22.1896287157
 10
-32.5120968926
 20
22.1915463514
 10
-32.5116710899
 20
22.1930454313
 10
-32.5112220029
 20
22.19412469
 10
-32.5107500108
 20
22.1947832166
 10
-32.5102555121
 20
22.1950204552
  0
LINE
  5
39B
100
AcDbEntity
  8
ASSI
100
AcDbLine
 62
253
  6
CONTINUOUS
 10
-34.0439485265
 20
-0.1557255737
 11
-34.0437372634
 21
-0.1324140519
  0
LINE
  5
39C
100
AcDbEntity
  8
ASSI
100
AcDbLine
 62
253
  6
CONTINUOUS
 10
-34.0437372634
 20
-0.1324140519
 11
-34.0434313129
 21
-0.1104712333
  0
LWPOLYLINE
  5
39D
100
AcDbEntity
  8
ASSI
100
AcDbPolyline
 62
253
  6
CONTINUOUS
 90
9
 70
0
 10
-33.9719849542
 20
8.6180995304
 10
-33.9881201692
 20
7.6076009719
 10
-34.0022107405
 20
6.5970810078
 10
-34.0142567473
 20
5.5865385653
 10
-34.0242581105
 20
4.5759747172
 10
-34.0322145929
 20
3.565392682
 10
-34.0381261155
 20
2.5547935328
 10
-34.0419927574
 20
1.5441761965
 10
-34.0438145186
 20
0.5335406733
  0
LINE
  5
39E
100
AcDbEntity
  8
ASSI
100
AcDbLine
 62
253
  6
CONTINUOUS
 10
-34.0434313129
 20
-0.1104712333
 11
-34.0430340257
 21
-0.0901374348
  0
LINE
  5
39F
100
AcDbEntity
  8
ASSI
100
AcDbLine
 62
253
  6
CONTINUOUS
 10
-34.0430340257
 20
-0.0901374348
 11
-34.0427205338
 21
-0.0775862422
  0
LINE
  5
3A0
100
AcDbEntity
  8
ASSI
100
AcDbLine
 62
253
  6
CONTINUOUS
 10
-34.0427205338
 20
-0.0775862422
 11
-34.0423698888
 21
-0.065910683
  0
LINE
  5
3A1
100
AcDbEntity
  8
ASSI
100
AcDbLine
 62
253
  6
CONTINUOUS
 10
-34.0423698888
 20
-0.065910683
 11
-34.0419837983
 21
-0.0551676173
  0
LWPOLYLINE
  5
3A2
100
AcDbEntity
  8
ASSI
100
AcDbPolyline
 62
253
  6
CONTINUOUS
 90
18
 70
0
 10
-34.0419837983
 20
-0.0551676173
 10
-34.0415641424
 20
-0.0454093639
 10
-34.0413423601
 20
-0.0409145865
 10
-34.0411129651
 20
-0.0366834455
 10
-34.0408762367
 20
-0.032721094
 10
-34.0406324634
 20
-0.0290323575
 10
-34.0403819419
 20
-0.0256217285
 10
-34.0401249775
 20
-0.0224933608
 10
-34.0398618829
 20
-0.0196510641
 10
-34.0395929788
 20
-0.0170983002
 10
-34.0393185924
 20
-0.0148381779
 10
-34.0390390581
 20
-0.0128734499
 10
-34.0387547162
 20
-0.0112065087
 10
-34.0384659131
 20
-0.0098393847
 10
-34.0381730004
 20
-0.0087737428
 10
-34.0378763349
 20
-0.0080108807
 10
-34.037576278
 20
-0.0075517276
 10
-34.0372731949
 20
-0.0073968427
  0
LINE
  5
3A3
100
AcDbEntity
  8
ASSI
100
AcDbLine
 62
253
  6
CONTINUOUS
 10
-32.5015372823
 20
21.6957056878
 11
-32.5051370562
 21
21.7679888709
  0
LINE
  5
3A4
100
AcDbEntity
  8
ASSI
100
AcDbLine
 62
253
  6
CONTINUOUS
 10
-32.5051370562
 20
21.7679888709
 11
-32.5082933645
 21
21.8387492118
  0
LINE
  5
3A5
100
AcDbEntity
  8
ASSI
100
AcDbLine
 62
253
  6
CONTINUOUS
 10
-32.5082933645
 20
21.8387492118
 11
-32.5104540796
 21
21.8932573618
  0
LINE
  5
3A6
100
AcDbEntity
  8
ASSI
100
AcDbLine
 62
253
  6
CONTINUOUS
 10
-32.5104540796
 20
21.8932573618
 11
-32.5122590602
 21
21.9451001669
  0
LINE
  5
3A7
100
AcDbEntity
  8
ASSI
100
AcDbLine
 62
253
  6
CONTINUOUS
 10
-32.5122590602
 20
21.9451001669
 11
-32.5136839538
 21
21.9935781696
  0
LINE
  5
3A8
100
AcDbEntity
  8
ASSI
100
AcDbLine
 62
253
  6
CONTINUOUS
 10
-32.5136839538
 20
21.9935781696
 11
-32.5144914265
 21
22.0273331024
  0
LINE
  5
3A9
100
AcDbEntity
  8
ASSI
100
AcDbLine
 62
253
  6
CONTINUOUS
 10
-32.5144914265
 20
22.0273331024
 11
-32.5150680447
 21
22.0585700128
  0
LINE
  5
3AA
100
AcDbEntity
  8
ASSI
100
AcDbLine
 62
253
  6
CONTINUOUS
 10
-32.5150680447
 20
22.0585700128
 11
-32.515321969
 21
22.0778777505
  0
LINE
  5
3AB
100
AcDbEntity
  8
ASSI
100
AcDbLine
 62
253
  6
CONTINUOUS
 10
-32.515321969
 20
22.0778777505
 11
-32.5154704514
 21
22.0958953436
  0
LWPOLYLINE
  5
3AC
100
AcDbEntity
  8
ASSI
100
AcDbPolyline
 62
253
  6
CONTINUOUS
 90
3
 70
0
 10
-32.5154704514
 20
22.0958953436
 10
-32.5155129907
 20
22.112561968
 10
-32.5154944729
 20
22.1203709011
  0
LINE
  5
3AD
100
AcDbEntity
  8
ASSI
100
AcDbLine
 62
253
  6
CONTINUOUS
 10
-32.5155049813
 20
-21.8282477881
 11
-32.5154944728
 21
-21.8442175363
  0
LINE
  5
3AE
100
AcDbEntity
  8
ASSI
100
AcDbLine
 62
253
  6
CONTINUOUS
 10
-32.5154094301
 20
-21.8108983569
 11
-32.5155049813
 21
-21.8282477881
  0
LINE
  5
3AF
100
AcDbEntity
  8
ASSI
100
AcDbLine
 62
253
  6
CONTINUOUS
 10
-32.5152081418
 20
-21.7922278116
 11
-32.5154094301
 21
-21.8108983569
  0
LINE
  5
3B0
100
AcDbEntity
  8
ASSI
100
AcDbLine
 62
253
  6
CONTINUOUS
 10
-32.5147095357
 20
-21.7618839464
 11
-32.5152081418
 21
-21.7922278116
  0
LINE
  5
3B1
100
AcDbEntity
  8
ASSI
100
AcDbLine
 62
253
  6
CONTINUOUS
 10
-32.513978419
 20
-21.7289407824
 11
-32.5147095357
 21
-21.7618839464
  0
LINE
  5
3B2
100
AcDbEntity
  8
ASSI
100
AcDbLine
 62
253
  6
CONTINUOUS
 10
-32.513020343
 20
-21.6936484546
 11
-32.513978419
 21
-21.7289407824
  0
LINE
  5
3B3
100
AcDbEntity
  8
ASSI
100
AcDbLine
 62
253
  6
CONTINUOUS
 10
-32.5114026755
 20
-21.6434032412
 11
-32.513020343
 21
-21.6936484546
  0
LINE
  5
3B4
100
AcDbEntity
  8
ASSI
100
AcDbLine
 62
253
  6
CONTINUOUS
 10
-32.5094164751
 20
-21.590137856
 11
-32.5114026755
 21
-21.6434032412
  0
LINE
  5
3B5
100
AcDbEntity
  8
ASSI
100
AcDbLine
 62
253
  6
CONTINUOUS
 10
-32.5070885395
 20
-21.5345709498
 11
-32.5094164751
 21
-21.590137856
  0
LINE
  5
3B6
100
AcDbEntity
  8
ASSI
100
AcDbLine
 62
253
  6
CONTINUOUS
 10
-32.5037463085
 20
-21.4630200692
 11
-32.5070885395
 21
-21.5345709498
  0
LINE
  5
3B7
100
AcDbEntity
  8
ASSI
100
AcDbLine
 62
253
  6
CONTINUOUS
 10
-32.5015372823
 20
-21.4195523213
 11
-32.5037463085
 21
-21.4630200692
  0
LINE
  5
3B8
100
AcDbEntity
  8
ASSI
100
AcDbLine
 62
253
  6
CONTINUOUS
 10
-28.8265232357
 20
-0.2118566955
 11
-34.0438145186
 21
-0.2573873067
  0
LINE
  5
3B9
100
AcDbEntity
  8
ASSI
100
AcDbLine
 62
7
  6
CONTINUOUS
 10
-28.8265232357
 20
0.0380766833
 11
-34.2785467287
 21
-0.0095024049
  0
LINE
  5
3BA
100
AcDbEntity
  8
ASSI
100
AcDbLine
 62
253
  6
CONTINUOUS
 10
-34.0438145186
 20
-0.2573873144
 11
-34.5263650154
 21
-0.2596917707
  0
LINE
  5
3BB
100
AcDbEntity
  8
ASSI
100
AcDbLine
 62
7
  6
CONTINUOUS
 10
-34.2785467287
 20
0.2856557715
 11
-28.8265232357
 21
0.2380766833
  0
LINE
  5
3BC
100
AcDbEntity
  8
ASSI
100
AcDbLine
 62
7
  6
CONTINUOUS
 10
-29.2265232357
 20
-17.7954131256
 11
-29.2265232357
 21
-17.5339442378
  0
LINE
  5
3BD
100
AcDbEntity
  8
ASSI
100
AcDbLine
 62
7
  6
CONTINUOUS
 10
-29.2265232357
 20
17.8100976044
 11
-29.2265232357
 21
18.0715664921
  0
LINE
  5
3BE
100
AcDbEntity
  8
ASSI
100
AcDbLine
 62
7
  6
CONTINUOUS
 10
-28.8265232357
 20
0.0380766833
 11
-28.8265232357
 21
-12.9619233167
  0
LINE
  5
3BF
100
AcDbEntity
  8
ASSI
100
AcDbLine
 62
7
  6
CONTINUOUS
 10
-28.8265232357
 20
0.2380766833
 11
-28.8265232357
 21
13.2380766833
  0
LINE
  5
3C0
100
AcDbEntity
  8
ASSI
100
AcDbLine
 62
253
  6
CONTINUOUS
 10
-34.5263650154
 20
0.5358451373
 11
-34.0438145186
 21
0.5335406809
  0
LINE
  5
3C1
100
AcDbEntity
  8
ASSI
100
AcDbLine
 62
253
  6
CONTINUOUS
 10
-34.0438145186
 20
0.5335406733
 11
-28.8265232357
 21
0.4880100621
  0
LINE
  5
3C2
100
AcDbEntity
  8
ASSI
100
AcDbLine
 62
7
  6
CONTINUOUS
 10
-29.6233908002
 20
22.3463146239
 11
-28.8265232357
 21
13.2380766833
  0
LINE
  5
3C3
100
AcDbEntity
  8
ASSI
100
AcDbLine
 62
7
  6
CONTINUOUS
 10
-29.6233908002
 20
-22.0701612573
 11
-28.8265232357
 21
-12.9619233167
  0
LWPOLYLINE
  5
3C4
100
AcDbEntity
  8
ASSI
100
AcDbPolyline
 62
253
  6
CONTINUOUS
 90
3
 70
0
 10
-33.9538050956
 20
9.6285766833
 10
-34.4330339694
 20
9.6379776126
 10
-34.4344468607
 20
9.6380138528
  0
LWPOLYLINE
  5
3C5
100
AcDbEntity
  8
ASSI
100
AcDbPolyline
 62
253
  6
CONTINUOUS
 90
3
 70
0
 10
-34.4354568347
 20
9.638042459
 10
-34.4360630743
 20
9.6380634082
 10
-34.4362650891
 20
9.6380766833
  0
LINE
  5
3C6
100
AcDbEntity
  8
ASSI
100
AcDbLine
 62
253
  6
CONTINUOUS
 10
-29.249398956
 20
18.0715682846
 11
-29.2265232357
 21
18.0715682845
  0
LWPOLYLINE
  5
3C7
100
AcDbEntity
  8
ASSI
100
AcDbPolyline
 62
253
  6
CONTINUOUS
 90
58
 70
0
 10
-32.5015372823
 20
21.6957056878
 10
-32.5135290388
 20
21.6949322964
 10
-32.5254856929
 20
21.6938728316
 10
-32.5374072446
 20
21.6925272934
 10
-32.5493007447
 20
21.6908945642
 10
-32.5611591424
 20
21.6889757616
 10
-32.5729612853
 20
21.6867742389
 10
-32.5847068752
 20
21.6842895149
 10
-32.5963962102
 20
21.6815220707
 10
-32.6080090325
 20
21.6784767034
 10
-32.6195451846
 20
21.6751529361
 10
-32.631004824
 20
21.6715512457
 10
-32.6423681648
 20
21.6676778594
 10
-32.6536350507
 20
21.6635323045
 10
-32.664805638
 20
21.6591150537
 10
-32.6758606091
 20
21.6544337522
 10
-32.6867997626
 20
21.6494879427
 10
-32.6976232998
 20
21.6442780824
 10
-32.7083125071
 20
21.6388131887
 10
-32.7188671513
 20
21.63309282
 10
-32.7292874655
 20
21.627117418
 10
-32.7395554353
 20
21.6208973252
 10
-32.7496707903
 20
21.6144321227
 10
-32.7596338008
 20
21.6077222295
 10
-32.7694272625
 20
21.6007792448
 10
-32.7790508888
 20
21.5936027608
 10
-32.7885049664
 20
21.5861931853
 10
-32.7977731507
 20
21.5785633418
 10
-32.8068551146
 20
21.5707128537
 10
-32.8157511853
 20
21.5626420975
 10
-32.8244460004
 20
21.5543650259
 10
-32.8329392157
 20
21.5458812776
 10
-32.8412311754
 20
21.5371912138
 10
-32.8493075488
 20
21.5283098702
 10
-32.857167957
 20
21.5192369232
 10
-32.864812779
 20
21.5099726963
 10
-32.8722288211
 20
21.500533196
 10
-32.8794156919
 20
21.4909181147
 10
-32.8863737829
 20
21.4811277599
 10
-32.8930910748
 20
21.4711790611
 10
-32.8995671502
 20
21.4610717456
 10
-32.9058024266
 20
21.450806086
 10
-32.9117861373
 20
21.4403998293
 10
-32.9175178468
 20
21.429852733
 10
-32.9229979905
 20
21.4191650395
 10
-32.9282171082
 20
21.4083552235
 10
-32.9331747453
 20
21.3974230845
 10
-32.9378713564
 20
21.3863688231
 10
-32.9422988438
 20
21.3752115157
 10
-32.9464567497
 20
21.3639509604
 10
-32.950345532
 20
21.3525873591
 10
-32.9539584667
 20
21.3411403935
 10
-32.9572950947
 20
21.3296097836
 10
-32.9603558751
 20
21.3179958094
 10
-32.9631354613
 20
21.3063189929
 10
-32.9656320712
 20
21.2945861748
 10
-32.967847487
 20
21.2827905144
 10
-32.9697817087
 20
21.2709320117
  0
LINE
  5
3C8
100
AcDbEntity
  8
ASSI
100
AcDbLine
 62
253
  6
CONTINUOUS
 10
-29.5798660096
 20
21.848823991
 11
-32.5015372823
 21
21.6957056878
  0
LINE
  5
3C9
100
AcDbEntity
  8
ASSI
100
AcDbLine
 62
7
  6
CONTINUOUS
 10
-29.6233908002
 20
22.3463146239
 11
-32.5102555121
 21
22.1950204552
  0
LINE
  5
3CA
100
AcDbEntity
  8
ASSI
100
AcDbLine
 62
253
  6
CONTINUOUS
 10
-32.9697817087
 20
21.2709320117
 11
-33.298277406
 21
21.321207067
  0
LINE
  5
3CB
100
AcDbEntity
  8
ASSI
100
AcDbLine
 62
253
  6
CONTINUOUS
 10
-33.298277406
 20
21.321207067
 11
-33.3902189042
 21
21.3357268329
  0
LINE
  5
3CC
100
AcDbEntity
  8
ASSI
100
AcDbLine
 62
253
  6
CONTINUOUS
 10
-33.3902189042
 20
21.3357268329
 11
-33.4183409322
 21
21.3403094628
  0
LINE
  5
3CD
100
AcDbEntity
  8
ASSI
100
AcDbLine
 62
253
  6
CONTINUOUS
 10
-33.4183409322
 20
21.3403094628
 11
-33.4307241815
 21
21.3423911071
  0
LWPOLYLINE
  5
3CE
100
AcDbEntity
  8
ASSI
100
AcDbPolyline
 62
253
  6
CONTINUOUS
 90
9
 70
0
 10
-33.4307241815
 20
21.3423911071
 10
-33.4370493746
 20
21.3434906377
 10
-33.4396247298
 20
21.3439525283
 10
-33.441805706
 20
21.3443553214
 10
-33.4435905378
 20
21.344698691
 10
-33.444977781
 20
21.3449823593
 10
-33.4459663127
 20
21.3452060966
 10
-33.4465553328
 20
21.345369722
 10
-33.4467443647
 20
21.3454731029
  0
ARC
  5
3CF
100
AcDbEntity
  8
ASSI
100
AcDbCircle
 62
7
  6
CONTINUOUS
 10
465.4734767643
 20
0.1380766833
 40
500.0
100
AcDbArc
 50
180.045580912
 51
181.08868532
  0
ARC
  5
3D0
100
AcDbEntity
  8
ASSI
100
AcDbCircle
 62
7
  6
CONTINUOUS
 10
465.4734767643
 20
0.1380766833
 40
500.0
100
AcDbArc
 50
178.91131468
 51
179.954419088
  0
ARC
  5
3D1
100
AcDbEntity
  8
ASSI
100
AcDbCircle
 62
7
  6
CONTINUOUS
 10
55.5474884445
 20
-7.6519233167
 40
90.0
100
AcDbArc
 50
181.08868532
 51
188.5737414447
  0
ARC
  5
3D2
100
AcDbEntity
  8
ASSI
100
AcDbCircle
 62
7
  6
CONTINUOUS
 10
55.5474884445
 20
7.9280766833
 40
90.0
100
AcDbArc
 50
171.4262585553
 51
178.91131468
  0
ARC
  5
3D3
100
AcDbEntity
  8
ASSI
100
AcDbCircle
 62
7
  6
CONTINUOUS
 10
-32.4579195558
 20
-20.9202375539
 40
1.0
100
AcDbArc
 50
188.5737414447
 51
267.0
  0
ARC
  5
3D4
100
AcDbEntity
  8
ASSI
100
AcDbCircle
 62
7
  6
CONTINUOUS
 10
-32.4579195558
 20
21.1963909205
 40
1.0
100
AcDbArc
 50
93.0
 51
171.4262585553
  0
ARC
  5
3D5
100
AcDbEntity
  8
ASSI
100
AcDbCircle
 62
7
  6
CONTINUOUS
 10
-29.5265232357
 20
-17.7954149179
 40
0.3
100
AcDbArc
 50
334.9997013218
 51
0.0003423163
  0
ARC
  5
3D6
100
AcDbEntity
  8
ASSI
100
AcDbCircle
 62
7
  6
CONTINUOUS
 10
-29.5265232357
 20
18.0715682845
 40
0.3
100
AcDbArc
 50
359.9996576837
 51
25.0002986779
  0
ARC
  5
3D7
100
AcDbEntity
  8
ASSI
100
AcDbCircle
 62
7
  6
CONTINUOUS
 10
-34.2763650807
 20
-0.2594928856
 40
0.25
100
AcDbArc
 50
90.5000032275
 51
180.045580992
  0
ARC
  5
3D8
100
AcDbEntity
  8
ASSI
100
AcDbCircle
 62
7
  6
CONTINUOUS
 10
-34.2763650807
 20
0.5356462522
 40
0.25
100
AcDbArc
 50
179.954419008
 51
269.4999967725
  0
ELLIPSE
  5
3D9
100
AcDbEntity
  8
ASSI
100
AcDbEllipse
 62
7
  6
CONTINUOUS
 10
-7.6247190048
 20
-22.0437932036
 30
0.0
 11
0.2
 21
0.0
 31
0.0
 40
0.0524077793
 41
1.5707963268
 42
2.617993878
  0
ELLIPSE
  5
3DA
100
AcDbEntity
  8
ASSI
100
AcDbEllipse
 62
7
  6
CONTINUOUS
 10
3.5752809952
 20
-22.0437932036
 30
0.0
 11
0.2
 21
-0.0
 31
0.0
 40
0.0524077793
 41
1.5707963268
 42
2.617993878
  0
ELLIPSE
  5
3DB
100
AcDbEntity
  8
ASSI
100
AcDbEllipse
 62
7
  6
CONTINUOUS
 10
-4.2556591124
 20
-22.0437932036
 30
0.0
 11
0.2
 21
-0.0
 31
0.0
 40
0.0524077793
 41
0.5235987756
 42
1.5707963268
  0
ELLIPSE
  5
3DC
100
AcDbEntity
  8
ASSI
100
AcDbEllipse
 62
7
  6
CONTINUOUS
 10
6.9443408876
 20
-22.0437932036
 30
0.0
 11
0.2
 21
0.0
 31
0.0
 40
0.0524077793
 41
0.5235987756
 42
1.5707963268
  0
ELLIPSE
  5
3DD
100
AcDbEntity
  8
ASSI
100
AcDbEllipse
 62
7
  6
CONTINUOUS
 10
10.2832016411
 20
-21.5717602958
 30
0.0
 11
0.4943891341
 21
0.0770133648
 31
0.0
 40
0.9960067742
 41
-1.7259388368
 42
-0.1569690096
  0
ELLIPSE
  5
3DE
100
AcDbEntity
  8
ASSI
100
AcDbEllipse
 62
7
  6
CONTINUOUS
 10
-10.9635797583
 20
-21.5717602958
 30
0.0
 11
0.4943891341
 21
-0.0770133648
 31
0.0
 40
0.9960067742
 41
-2.984623644
 42
-1.4156538168
  0
ELLIPSE
  5
3DF
100
AcDbEntity
  8
ASSI
100
AcDbEllipse
 62
7
  6
CONTINUOUS
 10
10.5596585553
 20
-0.2119328363
 30
0.0
 11
0.2426981267
 21
0.0606514259
 31
0.0
 40
0.9993528196
 41
-0.2447368254
 42
1.3257549497
  0
ELLIPSE
  5
3E0
100
AcDbEntity
  8
ASSI
100
AcDbEllipse
 62
7
  6
CONTINUOUS
 10
-11.2400366725
 20
-0.2119328363
 30
0.0
 11
0.2426981267
 21
-0.0606514259
 31
0.0
 40
0.9993528196
 41
1.8158377039
 42
3.386329479
  0
ELLIPSE
  5
3E1
100
AcDbEntity
  8
ASSI
100
AcDbEllipse
 62
7
  6
CONTINUOUS
 10
6.9443408876
 20
22.3199465702
 30
0.0
 11
0.2
 21
0.0
 31
0.0
 40
0.0524077793
 41
-1.5707963268
 42
-0.5235987756
  0
ELLIPSE
  5
3E2
100
AcDbEntity
  8
ASSI
100
AcDbEllipse
 62
7
  6
CONTINUOUS
 10
-4.2556591124
 20
22.3199465702
 30
0.0
 11
0.2
 21
-0.0
 31
0.0
 40
0.0524077793
 41
-1.5707963268
 42
-0.5235987756
  0
ELLIPSE
  5
3E3
100
AcDbEntity
  8
ASSI
100
AcDbEllipse
 62
7
  6
CONTINUOUS
 10
3.5752809952
 20
22.3199465702
 30
0.0
 11
0.2
 21
0.0
 31
0.0
 40
0.0524077793
 41
-2.617993878
 42
-1.5707963268
  0
ELLIPSE
  5
3E4
100
AcDbEntity
  8
ASSI
100
AcDbEllipse
 62
7
  6
CONTINUOUS
 10
-7.6247190048
 20
22.3199465702
 30
0.0
 11
0.2
 21
0.0
 31
0.0
 40
0.0524077793
 41
-2.617993878
 42
-1.5707963268
  0
ELLIPSE
  5
3E5
100
AcDbEntity
  8
ASSI
100
AcDbEllipse
 62
7
  6
CONTINUOUS
 10
-10.9635797583
 20
21.8479136624
 30
0.0
 11
0.4943891341
 21
0.0770133648
 31
0.0
 40
0.9960067742
 41
1.4156538168
 42
2.984623644
  0
ELLIPSE
  5
3E6
100
AcDbEntity
  8
ASSI
100
AcDbEllipse
 62
7
  6
CONTINUOUS
 10
10.2832016411
 20
21.8479136624
 30
0.0
 11
0.4943891341
 21
-0.0770133648
 31
0.0
 40
0.9960067742
 41
0.1569690096
 42
1.7259388368
  0
ELLIPSE
  5
3E7
100
AcDbEntity
  8
ASSI
100
AcDbEllipse
 62
7
  6
CONTINUOUS
 10
-11.2400366725
 20
0.4880862029
 30
0.0
 11
0.2426981267
 21
0.0606514259
 31
0.0
 40
0.9993528196
 41
2.8968558282
 42
4.4673476033
  0
ELLIPSE
  5
3E8
100
AcDbEntity
  8
ASSI
100
AcDbEllipse
 62
7
  6
CONTINUOUS
 10
10.5596585553
 20
0.4880862029
 30
0.0
 11
0.2426981267
 21
-0.0606514259
 31
0.0
 40
0.9993528196
 41
-1.3257549497
 42
0.2447368254
  0
ENDSEC
  0
SECTION
  2
OBJECTS
  0
DICTIONARY
  5
C
100
AcDbDictionary
280
0
281
1
  3
ACAD_GROUP
350
D
  3
ACAD_MLINESTYLE
350
17
  3
ACAD_LAYOUT
350
1A
  3
ACAD_PLOTSETTINGS
350
19
  3
ACAD_PLOTSTYLENAME
350
E
  0
DICTIONARY
  5
D
102
{ACAD_REACTORS
330
C
102
}
100
AcDbDictionary
280
0
281
1
  0
ACDBDICTIONARYWDFLT
  5
E
102
{ACAD_REACTORS
330
C
102
}
100
AcDbDictionary
281
1
  3
Normal
350
F
100
AcDbDictionaryWithDefault
340
F
  0
DICTIONARY
  5
17
102
{ACAD_REACTORS
330
C
102
}
100
AcDbDictionary
280
0
281
1
  3
Standard
350
18
  0
DICTIONARY
  5
19
102
{ACAD_REACTORS
330
C
102
}
100
AcDbDictionary
281
1
  0
DICTIONARY
  5
1A
102
{ACAD_REACTORS
330
C
102
}
100
AcDbDictionary
281
1
  3
Model
350
3E9
  3
Layout1
350
3EA
  0
ACDBPLACEHOLDER
  5
F
102
{ACAD_REACTORS
330
E
102
}
  0
MLINESTYLE
  5
18
102
{ACAD_REACTORS
330
17
102
}
100
AcDbMlineStyle
  2
STANDARD
 70
0
  3

 62
256
 51
90.0
 52
90.0
 71
2
 49
0.5
 62
256
  6
BYLAYER
 49
-0.5
 62
256
  6
BYLAYER
  0
LAYOUT
  5
3E9
102
{ACAD_REACTORS
330
1A
102
}
100
AcDbPlotSettings
  1

  2
none_device
  4
ISO_A4_(297.00_x_210.00_MM)
  6

 40
0.0
 41
0.0
 42
0.0
 43
0.0
 44
297.0
 45
210.0
 46
0.0
 47
0.0
 48
0.0
 49
0.0
140
0.0
141
0.0
142
1.0
143
1.0
 70
1024
 72
1
 73
0
 74
0
  7

 75
0
147
1.0
148
0.0
149
0.0
100
AcDbLayout
  1
Model
 70
0
 71
0
 10
0.0
 20
0.0
 11
297.0
 21
210.0
 12
0.0
 22
0.0
 32
0.0
 14
0.0
 24
0.0
 34
0.0
 15
0.0
 25
0.0
 35
0.0
146
0.0
 13
0.0
 23
0.0
 33
0.0
 16
1.0
 26
0.0
 36
0.0
 17
0.0
 27
1.0
 37
0.0
 76
0
330
218
345
0
346
0
  0
LAYOUT
  5
3EA
102
{ACAD_REACTORS
330
1A
102
}
100
AcDbPlotSettings
  1

  2
none_device
  4
ISO_A4_(297.00_x_210.00_MM)
  6

 40
0.0
 41
0.0
 42
0.0
 43
0.0
 44
297.0
 45
210.0
 46
0.0
 47
0.0
 48
0.0
 49
0.0
140
0.0
141
0.0
142
1.0
143
1.0
 70
0
 72
1
 73
0
 74
0
  7

 75
0
147
1.0
148
0.0
149
0.0
100
AcDbLayout
  1
Layout1
 70
0
 71
1
 10
0.0
 20
0.0
 11
297.0
 21
210.0
 12
0.0
 22
0.0
 32
0.0
 14
0.0
 24
0.0
 34
0.0
 15
0.0
 25
0.0
 35
0.0
146
0.0
 13
0.0
 23
0.0
 33
0.0
 16
1.0
 26
0.0
 36
0.0
 17
0.0
 27
1.0
 37
0.0
 76
0
330
219
345
0
346
0
  0
ENDSEC
  0
EOF
