0
SECTION
2
HEADER
9
$ACADVER
1
AC1015
9
$DWGCODEPAGE
3
ANSI_1252
9
$EXTMAX
10
297.0000000000
20
210.0000000000
30
0.0000000000
9
$EXTMIN
10
0.0000000000
20
0.0000000000
30
0.0000000000
9
$LIMMIN
10
0.0000000000
20
0.0000000000
9
$LIMMAX
10
297.0000000000
20
210.0000000000
9
$VIEWCTR
10
148.5000000000
20
105.0000000000
9
$VIEWSIZE
40
210.0000000000
9
$CLAYER
8
0
9
$LTSCALE
40
16.3350000000
9
$CELTYPE
6
BYLAYER
9
$DIMSCALE
40
1
9
$DIMASZ
40
3.0000000000
9
$DIMEXO
40
1.8562500000
9
$DIMDLI
40
11.2860000000
9
$DIMEXE
40
5.3460000000
9
$DIMCEN
40
2.6730000000
9
$DIMLFAC
40
1.0000000000
9
$DIMBLK
1
_FILLED
9
$DIMTXT
40
3.0000000000
9
$DIMTOL
70
1
9
$DIMLIM
70
0
9
$DIMTFAC
40
1.0000000000
9
$DIMTP
40
0.0100000000
9
$DIMTM
40
0.0100000000
9
$PDMODE
70
3
9
$PDSIZE
40
3.0000000000
9
$HANDSEED
5
3CE
9
$MEASUREMENT
70
1
9
$INSUNITS
70
4
0
ENDSEC
0
SECTION
2
CLASSES
0
CLASS
1
ACDBDICTIONARYWDFLT
2
AcDbDictionaryWithDefault
3
AutoCAD 2000
90
0
280
0
281
0
0
CLASS
1
ACDBPLACEHOLDER
2
AcDbPlaceHolder
3
AutoCAD 2000
90
0
280
0
281
0
0
CLASS
1
LAYOUT
2
AcDbLayout
3
AutoCAD 2000
90
0
280
0
281
0
0
ENDSEC
0
SECTION
2
TABLES
0
TABLE
2
VPORT
5
8
100
AcDbSymbolTable
70
2
0
VPORT
5
1F4
100
AcDbSymbolTableRecord
100
AcDbViewportTableRecord
2
*ACTIVE
70
0
10
0.0
20
0.0
11
1.0
21
1.0
12
148.5000000000
22
105.0000000000
13
0.0
23
0.0
14
1.0
24
1.0
15
0.0
25
0.0
16
0.0
26
0.0
36
1.0
17
0.0
27
0.0
37
0.0
40
210.0000000000
41
1.4142857143
42
50.0
43
0.0
44
0.0
50
0.0
51
0.0
71
0
72
100
73
1
74
1
75
0
76
0
77
0
78
0
0
ENDTAB
0
TABLE
2
LTYPE
5
5
100
AcDbSymbolTable
70
6
0
LTYPE
5
14
100
AcDbSymbolTableRecord
100
AcDbLinetypeTableRecord
2
BYBLOCK
70
0
3

72
65
73
0
40
0.0
0
LTYPE
5
15
100
AcDbSymbolTableRecord
100
AcDbLinetypeTableRecord
2
BYLAYER
70
0
3

72
65
73
0
40
0.0
0
LTYPE
5
16
100
AcDbSymbolTableRecord
100
AcDbLinetypeTableRecord
2
CONTINUOUS
70
64
3
Solid line
72
65
73
0
40
0
0
LTYPE
5
1F5
100
AcDbSymbolTableRecord
100
AcDbLinetypeTableRecord
2
CENTER
70
64
3
____ _ ____ _ ____ _ ____ _ ____ _ ____ _ ____
72
65
73
4
40
0.6
49
0.375
74
0
49
-0.075
74
0
49
0.075
74
0
49
-0.075
74
0
0
LTYPE
5
1F6
100
AcDbSymbolTableRecord
100
AcDbLinetypeTableRecord
2
HIDDEN
70
64
3
- - - - - - - - - - - - - - - - - - - -
72
65
73
2
40
0.2
49
0.1
74
0
49
-0.1
74
0
0
LTYPE
5
1F7
100
AcDbSymbolTableRecord
100
AcDbLinetypeTableRecord
2
PHANTOM
70
64
3
_____ _ _ _____ _ _ _____ _ _ _____
72
65
73
6
40
0.8
49
0.45
74
0
49
-0.05
74
0
49
0.1
74
0
49
-0.05
74
0
49
0.1
74
0
49
-0.05
74
0
0
LTYPE
5
1F8
100
AcDbSymbolTableRecord
100
AcDbLinetypeTableRecord
2
DOT
70
64
3
. . . . . . . . . . . . . . . . . . . .
72
65
73
2
40
0.2
49
0.1
74
0
49
-0.1
74
0
0
LTYPE
5
1F9
100
AcDbSymbolTableRecord
100
AcDbLinetypeTableRecord
2
DASHED
70
64
3
- - - - - - - - - - - - - - - - - - - -
72
65
73
2
40
0.2
49
0.1
74
0
49
-0.1
74
0
0
ENDTAB
0
TABLE
2
LAYER
5
2
100
AcDbSymbolTable
70
36
0
LAYER
5
10
100
AcDbSymbolTableRecord
100
AcDbLayerTableRecord
2
0
70
0
62
7
6
CONTINUOUS
370
-3
390
F
0
LAYER
5
1FA
100
AcDbSymbolTableRecord
100
AcDbLayerTableRecord
2
DEFAULT_1
70
0
62
7
6
CENTER
370
-3
390
F
0
LAYER
5
1FB
100
AcDbSymbolTableRecord
100
AcDbLayerTableRecord
2
DEFAULT_2
70
0
62
8
6
HIDDEN
370
-3
390
F
0
LAYER
5
1FC
100
AcDbSymbolTableRecord
100
AcDbLayerTableRecord
2
DEFAULT_3
70
0
62
7
6
PHANTOM
370
-3
390
F
0
LAYER
5
1FD
100
AcDbSymbolTableRecord
100
AcDbLayerTableRecord
2
_2D_DELETED_OBJS
70
0
62
7
6
CONTINUOUS
370
-3
390
F
0
LAYER
5
1FE
100
AcDbSymbolTableRecord
100
AcDbLayerTableRecord
2
ASSI
70
0
62
7
6
CONTINUOUS
370
-3
390
F
0
LAYER
5
1FF
100
AcDbSymbolTableRecord
100
AcDbLayerTableRecord
2
COORDINATE
70
0
62
7
6
CONTINUOUS
370
-3
390
F
0
LAYER
5
200
100
AcDbSymbolTableRecord
100
AcDbLayerTableRecord
2
COORD_ORIGINE
70
0
62
7
6
CONTINUOUS
370
-3
390
F
0
LAYER
5
201
100
AcDbSymbolTableRecord
100
AcDbLayerTableRecord
2
COPY
70
0
62
7
6
CONTINUOUS
370
-3
390
F
0
LAYER
5
202
100
AcDbSymbolTableRecord
100
AcDbLayerTableRecord
2
COPY_GRIGLIA
70
0
62
7
6
CONTINUOUS
370
-3
390
F
0
LAYER
5
203
100
AcDbSymbolTableRecord
100
AcDbLayerTableRecord
2
COPY_PLACCA
70
0
62
7
6
CONTINUOUS
370
-3
390
F
0
LAYER
5
204
100
AcDbSymbolTableRecord
100
AcDbLayerTableRecord
2
COPY_PUB
70
0
62
7
6
CONTINUOUS
370
-3
390
F
0
LAYER
5
205
100
AcDbSymbolTableRecord
100
AcDbLayerTableRecord
2
COPY_SUPPORTO
70
0
62
7
6
CONTINUOUS
370
-3
390
F
0
LAYER
5
206
100
AcDbSymbolTableRecord
100
AcDbLayerTableRecord
2
CURVE
70
0
62
7
6
CONTINUOUS
370
-3
390
F
0
LAYER
5
207
100
AcDbSymbolTableRecord
100
AcDbLayerTableRecord
2
DRAFT
70
0
62
7
6
CONTINUOUS
370
-3
390
F
0
LAYER
5
208
100
AcDbSymbolTableRecord
100
AcDbLayerTableRecord
2
IMPORT_SCRITTE
70
0
62
7
6
CONTINUOUS
370
-3
390
F
0
LAYER
5
209
100
AcDbSymbolTableRecord
100
AcDbLayerTableRecord
2
NOTE
70
0
62
7
6
CONTINUOUS
370
-3
390
F
0
LAYER
5
20A
100
AcDbSymbolTableRecord
100
AcDbLayerTableRecord
2
PIANI
70
0
62
7
6
CONTINUOUS
370
-3
390
F
0
LAYER
5
20B
100
AcDbSymbolTableRecord
100
AcDbLayerTableRecord
2
PIANI_ORIGINE
70
0
62
7
6
CONTINUOUS
370
-3
390
F
0
LAYER
5
20C
100
AcDbSymbolTableRecord
100
AcDbLayerTableRecord
2
PUNTI
70
0
62
7
6
CONTINUOUS
370
-3
390
F
0
LAYER
5
20D
100
AcDbSymbolTableRecord
100
AcDbLayerTableRecord
2
RACCORDO
70
0
62
7
6
CONTINUOUS
370
-3
390
F
0
LAYER
5
20E
100
AcDbSymbolTableRecord
100
AcDbLayerTableRecord
2
SKEL
70
0
62
7
6
CONTINUOUS
370
-3
390
F
0
LAYER
5
20F
100
AcDbSymbolTableRecord
100
AcDbLayerTableRecord
2
SMUSSO
70
0
62
7
6
CONTINUOUS
370
-3
390
F
0
LAYER
5
210
100
AcDbSymbolTableRecord
100
AcDbLayerTableRecord
2
SNAPLINE
70
0
62
7
6
CONTINUOUS
370
-3
390
F
0
LAYER
5
211
100
AcDbSymbolTableRecord
100
AcDbLayerTableRecord
2
SUPERFICI
70
0
62
7
6
CONTINUOUS
370
-3
390
F
0
LAYER
5
212
100
AcDbSymbolTableRecord
100
AcDbLayerTableRecord
2
TRASH
70
0
62
7
6
CONTINUOUS
370
-3
390
F
0
LAYER
5
213
100
AcDbSymbolTableRecord
100
AcDbLayerTableRecord
2
XSEC_DATUMS
70
0
62
7
6
CONTINUOUS
370
-3
390
F
0
ENDTAB
0
TABLE
2
STYLE
5
3
100
AcDbSymbolTable
70
1
0
STYLE
5
11
100
AcDbSymbolTableRecord
100
AcDbTextStyleTableRecord
2
STANDARD
70
0
40
0.0
41
0.8000000000
50
0.0
71
0
42
0.2
3
txt
4

0
ENDTAB
0
TABLE
2
VIEW
5
6
100
AcDbSymbolTable
70
0
0
ENDTAB
0
TABLE
2
UCS
5
7
100
AcDbSymbolTable
70
0
0
ENDTAB
0
TABLE
2
APPID
5
9
100
AcDbSymbolTable
70
1
0
APPID
5
214
100
AcDbSymbolTableRecord
100
AcDbRegAppTableRecord
2
ACAD
70
0
0
ENDTAB
0
TABLE
2
BLOCK_RECORD
5
1
100
AcDbSymbolTable
70
0
0
BLOCK_RECORD
5
1F
100
AcDbSymbolTableRecord
100
AcDbBlockTableRecord
2
*MODEL_SPACE
0
BLOCK_RECORD
5
1B
100
AcDbSymbolTableRecord
100
AcDbBlockTableRecord
2
*PAPER_SPACE
0
BLOCK_RECORD
5
215
100
AcDbSymbolTableRecord
100
AcDbBlockTableRecord
2
_FILLED
0
BLOCK_RECORD
5
216
100
AcDbSymbolTableRecord
100
AcDbBlockTableRecord
2
*D0
0
BLOCK_RECORD
5
217
100
AcDbSymbolTableRecord
100
AcDbBlockTableRecord
2
*D1
0
BLOCK_RECORD
5
218
100
AcDbSymbolTableRecord
100
AcDbBlockTableRecord
2
*D2
0
ENDTAB
0
TABLE
2
DIMSTYLE
5
A
100
AcDbSymbolTable
70
1
100
AcDbDimStyleTable
71
0
0
DIMSTYLE
105
219
100
AcDbSymbolTableRecord
100
AcDbDimStyleTableRecord
2
STANDARD
70
0
3

4

40
1.0
41
3.0000000000
42
0.0625
43
0.38
44
0.18
45
0.0
46
0.0
47
0.0100000000
48
0.0100000000
140
3.0000000000
141
0.09
142
0.0
143
25.4
144
1.0000000000
145
0.0
146
1.0000000000
147
0.09
71
1
72
0
73
0
74
0
75
0
76
0
77
1
78
8
170
0
171
2
172
0
173
0
174
0
175
0
176
0
177
0
178
0
270
2
271
2
272
2
273
2
274
2
275
0
280
0
281
0
282
0
283
1
284
8
285
0
286
0
287
3
288
0
340
11
341
215
342
215
343
215
344
215
0
DIMSTYLE
105
21A
100
AcDbSymbolTableRecord
100
AcDbDimStyleTableRecord
2
DIMSTYLE_1
70
0
3

4

40
1.0
41
3.0000000000
42
0.0625
43
0.38
44
0.18
45
0.0
46
0.0
47
0.0000000000
48
0.0000000000
140
3.0000000000
141
0.09
142
0.0
143
25.4
144
1.0000000000
145
0.0
146
1.0000000000
147
0.09
71
0
72
0
73
0
74
0
75
0
76
0
77
1
78
8
170
0
171
2
172
0
173
0
174
0
175
0
176
0
177
0
178
0
270
2
271
2
272
2
273
2
274
2
275
0
280
0
281
0
282
0
283
1
284
8
285
0
286
0
287
3
288
0
340
11
341
215
342
215
343
215
344
215
0
ENDTAB
0
ENDSEC
0
SECTION
2
BLOCKS
0
BLOCK
5
20
100
AcDbEntity
8
0
100
AcDbBlockBegin
2
*MODEL_SPACE
70
0
10
0.0
20
0.0
30
0.0
3
*MODEL_SPACE
1

0
ENDBLK
5
21
100
AcDbEntity
8
0
100
AcDbBlockEnd
0
BLOCK
5
1C
100
AcDbEntity
8
0
100
AcDbBlockBegin
2
*PAPER_SPACE
70
0
10
0.0
20
0.0
30
0.0
3
*PAPER_SPACE
1

0
ENDBLK
5
1D
100
AcDbEntity
8
0
100
AcDbBlockEnd
0
BLOCK
5
21B
100
AcDbEntity
8
0
100
AcDbBlockBegin
62
2
6
CONTINUOUS
2
*D0
70
65
10
0.0000000000
20
0.0000000000
3
*D0
1

0
TEXT
5
21C
100
AcDbEntity
8
0
100
AcDbText
62
2
6
CONTINUOUS
10
90.3216024213
20
87.7697905182
7
STANDARD
40
3.0000000000
1
142,5
41
0.6857142857
72
0
100
AcDbText
0
LINE
5
21D
100
AcDbEntity
8
0
100
AcDbLine
62
2
6
CONTINUOUS
10
166.5501205899
20
76.6951959326
11
166.5501205899
21
88.5197905182
0
LINE
5
21E
100
AcDbEntity
8
0
100
AcDbLine
62
2
6
CONTINUOUS
10
24.0501205899
20
76.8710990075
11
24.0501205899
21
88.5197905182
0
LINE
5
21F
100
AcDbEntity
8
0
100
AcDbLine
62
2
6
CONTINUOUS
10
166.5501205899
20
87.0197905182
11
95.3001205899
21
87.0197905182
0
LINE
5
220
100
AcDbEntity
8
0
100
AcDbLine
62
2
6
CONTINUOUS
10
24.0501205899
20
87.0197905182
11
95.3001205899
21
87.0197905182
0
INSERT
5
221
100
AcDbEntity
8
0
100
AcDbBlockReference
62
2
6
CONTINUOUS
2
_FILLED
10
166.5501205899
20
87.0197905182
41
  3.000000
42
  3.000000
43
  3.000000
50
360.000000
0
INSERT
5
222
100
AcDbEntity
8
0
100
AcDbBlockReference
62
2
6
CONTINUOUS
2
_FILLED
10
24.0501205899
20
87.0197905182
41
  3.000000
42
  3.000000
43
  3.000000
50
180.000000
0
ENDBLK
5
223
100
AcDbEntity
8
0
6
BYBLOCK
62
0
100
AcDbBlockEnd
0
BLOCK
5
224
100
AcDbEntity
8
0
100
AcDbBlockBegin
62
2
6
CONTINUOUS
2
*D1
70
65
10
0.0000000000
20
0.0000000000
3
*D1
1

0
TEXT
5
225
100
AcDbEntity
8
0
100
AcDbText
62
2
6
CONTINUOUS
10
175.8001205899
20
-0.6972539012
7
STANDARD
40
3.0000000000
1
156
50
90.0000000000
41
0.6904761905
72
0
100
AcDbText
0
LINE
5
226
100
AcDbEntity
8
0
100
AcDbLine
62
2
6
CONTINUOUS
10
166.1394761085
20
77.0197905182
11
178.0501205899
21
77.0197905182
0
LINE
5
227
100
AcDbEntity
8
0
100
AcDbLine
62
2
6
CONTINUOUS
10
166.6491503753
20
-78.9802094818
11
178.0501205899
21
-78.9802094818
0
LINE
5
228
100
AcDbEntity
8
0
100
AcDbLine
62
2
6
CONTINUOUS
10
176.5501205899
20
77.0197905182
11
176.5501205899
21
-0.9802094818
0
LINE
5
229
100
AcDbEntity
8
0
100
AcDbLine
62
2
6
CONTINUOUS
10
176.5501205899
20
-78.9802094818
11
176.5501205899
21
-0.9802094818
0
INSERT
5
22A
100
AcDbEntity
8
0
100
AcDbBlockReference
62
2
6
CONTINUOUS
2
_FILLED
10
176.5501205899
20
77.0197905182
41
  3.000000
42
  3.000000
43
  3.000000
50
 90.000000
0
INSERT
5
22B
100
AcDbEntity
8
0
100
AcDbBlockReference
62
2
6
CONTINUOUS
2
_FILLED
10
176.5501205899
20
-78.9802094818
41
  3.000000
42
  3.000000
43
  3.000000
50
270.000000
0
ENDBLK
5
22C
100
AcDbEntity
8
0
6
BYBLOCK
62
0
100
AcDbBlockEnd
0
BLOCK
5
22D
100
AcDbEntity
8
0
100
AcDbBlockBegin
62
2
6
CONTINUOUS
2
*D2
70
65
10
0.0000000000
20
0.0000000000
3
*D2
1

0
TEXT
5
22E
100
AcDbEntity
8
0
100
AcDbText
62
2
6
CONTINUOUS
10
-29.4230687039
20
87.7697905182
7
STANDARD
40
3.0000000000
1
10
41
0.6785714286
72
0
100
AcDbText
0
LINE
5
22F
100
AcDbEntity
8
0
100
AcDbLine
62
2
6
CONTINUOUS
10
-32.6921948261
20
77.0527224518
11
-32.6921948261
21
88.5197905182
0
LINE
5
230
100
AcDbEntity
8
0
100
AcDbLine
62
2
6
CONTINUOUS
10
-22.6921948261
20
76.1526261083
11
-22.6921948261
21
88.5197905182
0
LINE
5
231
100
AcDbEntity
8
0
100
AcDbLine
62
2
6
CONTINUOUS
10
-32.6921948261
20
87.0197905182
11
-27.6921948261
21
87.0197905182
0
LINE
5
232
100
AcDbEntity
8
0
100
AcDbLine
62
2
6
CONTINUOUS
10
-22.6921948261
20
87.0197905182
11
-27.6921948261
21
87.0197905182
0
INSERT
5
233
100
AcDbEntity
8
0
100
AcDbBlockReference
62
2
6
CONTINUOUS
2
_FILLED
10
-32.6921948261
20
87.0197905182
41
  3.000000
42
  3.000000
43
  3.000000
50
180.000000
0
INSERT
5
234
100
AcDbEntity
8
0
100
AcDbBlockReference
62
2
6
CONTINUOUS
2
_FILLED
10
-22.6921948261
20
87.0197905182
41
  3.000000
42
  3.000000
43
  3.000000
0
ENDBLK
5
235
100
AcDbEntity
8
0
6
BYBLOCK
62
0
100
AcDbBlockEnd
0
BLOCK
5
236
100
AcDbEntity
8
0
100
AcDbBlockBegin
2
_FILLED
70
64
10
0.0000000000
20
0.0000000000
3
_FILLED
1

0
SOLID
5
237
100
AcDbEntity
8
0
6
BYBLOCK
62
0
100
AcDbTrace
10
0.0000000000
20
0.0000000000
11
-1.0000000000
21
0.3166666667
12
-1.0000000000
22
-0.3166666667
13
-1.0000000000
23
-0.3166666667
0
ENDBLK
5
238
100
AcDbEntity
8
0
6
BYBLOCK
62
0
100
AcDbBlockEnd
0
ENDSEC
0
SECTION
2
ENTITIES
0
DIMENSION
5
239
100
AcDbEntity
8
0
100
AcDbDimension
62
2
6
CONTINUOUS
2
*D0
10
24.0501205899
20
87.0197905182
11
95.4644595642
21
89.2697905182
70
160
3
DIMSTYLE_1
100
AcDbAlignedDimension
13
166.5501205899
23
76.6951959326
14
24.0501205899
24
76.8710990075
50
180.000000
100
AcDbRotatedDimension
0
DIMENSION
5
23A
100
AcDbEntity
8
0
100
AcDbDimension
62
2
6
CONTINUOUS
2
*D1
10
176.5501205899
20
-78.9802094818
11
174.3001205899
21
2.4098889560
70
160
3
DIMSTYLE_1
100
AcDbAlignedDimension
13
166.1394761085
23
77.0197905182
14
166.6491503753
24
-78.9802094818
50
270.000000
100
AcDbRotatedDimension
0
DIMENSION
5
23B
100
AcDbEntity
8
0
100
AcDbDimension
62
2
6
CONTINUOUS
2
*D2
10
-22.6921948261
20
87.0197905182
11
-27.3873544182
21
89.2697905182
70
160
3
DIMSTYLE_1
100
AcDbAlignedDimension
13
-32.6921948261
23
77.0527224518
14
-22.6921948261
24
76.1526261083
100
AcDbRotatedDimension
0
LINE
5
23C
100
AcDbEntity
8
0
100
AcDbLine
62
7
6
CONTINUOUS
10
164.5501205899
20
-78.9802094818
11
26.0501205899
21
-78.9802094818
0
LINE
5
23D
100
AcDbEntity
8
0
100
AcDbLine
62
9
6
CONTINUOUS
10
26.0244629389
20
-78.4802094818
11
164.5757782408
21
-78.4802094818
0
LINE
5
23E
100
AcDbEntity
8
0
100
AcDbLine
62
7
6
CONTINUOUS
10
24.0501205899
20
75.0197905182
11
24.0501205899
21
-76.9802094818
0
LINE
5
23F
100
AcDbEntity
8
0
100
AcDbLine
62
9
6
CONTINUOUS
10
24.5239071775
20
75.0197905182
11
24.5239071775
21
-76.9802094818
0
LINE
5
240
100
AcDbEntity
8
0
100
AcDbLine
62
9
6
CONTINUOUS
10
24.5239071775
20
-76.9802094818
11
24.0501205899
21
-76.9802094818
0
LINE
5
241
100
AcDbEntity
8
0
100
AcDbLine
62
9
6
CONTINUOUS
10
166.0763340022
20
-76.9802094818
11
166.5501205899
21
-76.9802094818
0
LINE
5
242
100
AcDbEntity
8
0
100
AcDbLine
62
7
6
CONTINUOUS
10
99.6212615899
20
-61.5816364818
11
99.1682415899
21
-61.5816364818
0
LINE
5
243
100
AcDbEntity
8
0
100
AcDbLine
62
7
6
CONTINUOUS
10
98.4132085899
20
-61.5816364818
11
98.0105235899
21
-61.5816364818
0
LINE
5
244
100
AcDbEntity
8
0
100
AcDbLine
62
7
6
CONTINUOUS
10
97.6917315899
20
-61.5816364818
11
97.2890475899
21
-61.5816364818
0
LINE
5
245
100
AcDbEntity
8
0
100
AcDbLine
62
7
6
CONTINUOUS
10
96.3997855899
20
-61.5816364818
11
95.9971005899
21
-61.5816364818
0
LINE
5
246
100
AcDbEntity
8
0
100
AcDbLine
62
7
6
CONTINUOUS
10
95.6783085899
20
-61.5816364818
11
95.2756245899
21
-61.5816364818
0
LINE
5
247
100
AcDbEntity
8
0
100
AcDbLine
62
7
6
CONTINUOUS
10
94.8897185899
20
-61.5816364818
11
94.4870335899
21
-61.5816364818
0
LINE
5
248
100
AcDbEntity
8
0
100
AcDbLine
62
7
6
CONTINUOUS
10
94.1011275899
20
-61.5816364818
11
93.6984435899
21
-61.5816364818
0
LINE
5
249
100
AcDbEntity
8
0
100
AcDbLine
62
7
6
CONTINUOUS
10
93.3460945899
20
-61.5816364818
11
92.9434095899
21
-61.5816364818
0
LINE
5
24A
100
AcDbEntity
8
0
100
AcDbLine
62
7
6
CONTINUOUS
10
91.9870335899
20
-61.5816364818
11
91.6011275899
21
-61.5816364818
0
LINE
5
24B
100
AcDbEntity
8
0
100
AcDbLine
62
7
6
CONTINUOUS
10
97.1548185899
20
-61.2318864818
11
96.5172355899
21
-61.2318864818
0
LINE
5
24C
100
AcDbEntity
8
0
100
AcDbLine
62
9
6
CONTINUOUS
10
48.2001205899
20
-61.0010053873
11
48.0966240346
21
-61.0010053873
0
LINE
5
24D
100
AcDbEntity
8
0
100
AcDbLine
62
9
6
CONTINUOUS
10
142.4001205899
20
-61.0010053873
11
142.5036171452
21
-61.0010053873
0
LINE
5
24E
100
AcDbEntity
8
0
100
AcDbLine
62
9
6
CONTINUOUS
10
142.2461181508
20
-60.9512125822
11
142.0530749754
21
-60.9512125822
0
LINE
5
24F
100
AcDbEntity
8
0
100
AcDbLine
62
9
6
CONTINUOUS
10
48.3541230289
20
-60.9512125822
11
48.5471662043
21
-60.9512125822
0
LINE
5
250
100
AcDbEntity
8
0
100
AcDbLine
62
7
6
CONTINUOUS
10
98.7655575899
20
-60.8973434818
11
98.4132085899
21
-60.8973434818
0
LINE
5
251
100
AcDbEntity
8
0
100
AcDbLine
62
7
6
CONTINUOUS
10
96.6514635899
20
-60.8973434818
11
97.0373695899
21
-60.8973434818
0
LINE
5
252
100
AcDbEntity
8
0
100
AcDbLine
62
7
6
CONTINUOUS
10
98.3964295899
20
-60.5628004818
11
98.8997853570
21
-60.5628004818
0
LINE
5
253
100
AcDbEntity
8
0
100
AcDbLine
62
9
6
CONTINUOUS
10
140.6663120264
20
-60.1291690253
11
140.4598652022
21
-60.1291690253
0
LINE
5
254
100
AcDbEntity
8
0
100
AcDbLine
62
9
6
CONTINUOUS
10
49.9339291533
20
-60.1291690252
11
50.1403759775
21
-60.1291690252
0
LINE
5
255
100
AcDbEntity
8
0
100
AcDbLine
62
7
6
CONTINUOUS
10
98.8997853570
20
-60.1066054818
11
98.3964295899
21
-60.1066054818
0
LINE
5
256
100
AcDbEntity
8
0
100
AcDbLine
62
7
6
CONTINUOUS
10
90.9467655899
20
-59.7720624818
11
91.3494505899
21
-59.7720624818
0
LINE
5
257
100
AcDbEntity
8
0
100
AcDbLine
62
7
6
CONTINUOUS
10
92.2387115899
20
-59.7720624818
11
92.6413965899
21
-59.7720624818
0
LINE
5
258
100
AcDbEntity
8
0
100
AcDbLine
62
7
6
CONTINUOUS
10
92.9434095899
20
-59.7720624818
11
93.3460945899
21
-59.7720624818
0
LINE
5
259
100
AcDbEntity
8
0
100
AcDbLine
62
7
6
CONTINUOUS
10
93.6984435899
20
-59.7720624818
11
94.3192485899
21
-59.7720624818
0
LINE
5
25A
100
AcDbEntity
8
0
100
AcDbLine
62
7
6
CONTINUOUS
10
95.0742825899
20
-59.7720624818
11
95.6783085899
21
-59.7720624818
0
LINE
5
25B
100
AcDbEntity
8
0
100
AcDbLine
62
7
6
CONTINUOUS
10
96.6346845899
20
-59.7720624818
11
97.0373695899
21
-59.7720624818
0
LINE
5
25C
100
AcDbEntity
8
0
100
AcDbLine
62
7
6
CONTINUOUS
10
98.0105235899
20
-59.7720624818
11
98.9501209245
21
-59.7720624818
0
LINE
5
25D
100
AcDbEntity
8
0
100
AcDbLine
62
7
6
CONTINUOUS
10
140.1003947239
20
-58.9802094818
11
50.4998464521
21
-58.9802094818
0
LINE
5
25E
100
AcDbEntity
8
0
100
AcDbLine
62
9
6
CONTINUOUS
10
48.0966240346
20
59.0405864237
11
48.0966240346
21
-61.0010053873
0
LINE
5
25F
100
AcDbEntity
8
0
100
AcDbLine
62
7
6
CONTINUOUS
10
48.2001205899
20
59.0405864237
11
48.2001205899
21
-61.0010053873
0
LINE
5
260
100
AcDbEntity
8
0
100
AcDbLine
62
7
6
CONTINUOUS
10
48.2997992874
20
59.0412934075
11
48.2997992874
21
-61.0017123690
0
LINE
5
261
100
AcDbEntity
8
0
100
AcDbLine
62
9
6
CONTINUOUS
10
48.3541230289
20
-60.9512125822
11
48.3541230289
21
58.9907936186
0
LINE
5
262
100
AcDbEntity
8
0
100
AcDbLine
62
9
6
CONTINUOUS
10
48.5471662043
20
-60.9512125822
11
48.5471662043
21
58.9907936186
0
LINE
5
263
100
AcDbEntity
8
0
100
AcDbLine
62
7
6
CONTINUOUS
10
48.8312062492
20
-61.9955595960
11
48.8312062492
21
-61.8845803440
0
LINE
5
264
100
AcDbEntity
8
0
100
AcDbLine
62
7
6
CONTINUOUS
10
48.8312062492
20
59.9241613804
11
48.8312062492
21
60.0351428095
0
LINE
5
265
100
AcDbEntity
8
0
100
AcDbLine
62
9
6
CONTINUOUS
10
49.9339291533
20
-60.1291690252
11
49.9339291533
21
58.1687500615
0
LINE
5
266
100
AcDbEntity
8
0
100
AcDbLine
62
9
6
CONTINUOUS
10
50.1403759775
20
-60.1291690254
11
50.1403759775
21
58.1687500612
0
LINE
5
267
100
AcDbEntity
8
0
100
AcDbLine
62
7
6
CONTINUOUS
10
50.3001205899
20
56.8200649321
11
50.3001205899
21
-58.7804838700
0
LINE
5
268
100
AcDbEntity
8
0
100
AcDbLine
62
7
6
CONTINUOUS
10
99.1850204243
20
-60.8517242048
11
99.6212615899
21
-61.5816364818
0
LINE
5
269
100
AcDbEntity
8
0
100
AcDbLine
62
7
6
CONTINUOUS
10
99.1682415899
20
-61.5816364818
11
98.7655575899
21
-60.8973434818
0
LINE
5
26A
100
AcDbEntity
8
0
100
AcDbLine
62
7
6
CONTINUOUS
10
91.6011275899
20
-61.5816364818
11
90.9467655899
21
-59.7720624818
0
LINE
5
26B
100
AcDbEntity
8
0
100
AcDbLine
62
7
6
CONTINUOUS
10
91.3494505899
20
-59.7720624818
11
91.7856915899
21
-61.0342024818
0
LINE
5
26C
100
AcDbEntity
8
0
100
AcDbLine
62
9
6
CONTINUOUS
10
141.3186344548
20
59.9875728294
11
141.3731619423
21
60.0381821748
0
LINE
5
26D
100
AcDbEntity
8
0
100
AcDbLine
62
9
6
CONTINUOUS
10
141.3186344548
20
-61.9479917931
11
141.3731619472
21
-61.9986011380
0
LINE
5
26E
100
AcDbEntity
8
0
100
AcDbLine
62
7
6
CONTINUOUS
10
97.2890475899
20
-61.5816364818
11
97.1548185899
21
-61.2318864818
0
LINE
5
26F
100
AcDbEntity
8
0
100
AcDbLine
62
7
6
CONTINUOUS
10
97.0373695899
20
-59.7720624818
11
97.6917315899
21
-61.5816364818
0
LINE
5
270
100
AcDbEntity
8
0
100
AcDbLine
62
7
6
CONTINUOUS
10
97.0373695899
20
-60.8973434818
11
96.8360275899
21
-60.3347034818
0
LINE
5
271
100
AcDbEntity
8
0
100
AcDbLine
62
7
6
CONTINUOUS
10
94.4870335899
20
-61.5816364818
11
94.1011275899
21
-60.3955294818
0
LINE
5
272
100
AcDbEntity
8
0
100
AcDbLine
62
7
6
CONTINUOUS
10
94.3192485899
20
-59.7720624818
11
94.6883765899
21
-60.9581694818
0
LINE
5
273
100
AcDbEntity
8
0
100
AcDbLine
62
9
6
CONTINUOUS
10
140.1003947248
20
57.0197905182
11
140.1744280317
21
57.0938234461
0
LINE
5
274
100
AcDbEntity
8
0
100
AcDbLine
62
9
6
CONTINUOUS
10
140.3001205899
20
56.8200649002
11
140.3741545401
21
56.8941014630
0
LINE
5
275
100
AcDbEntity
8
0
100
AcDbLine
62
9
6
CONTINUOUS
10
142.2461181508
20
58.9907936186
11
142.3004418923
21
59.0412934054
0
LINE
5
276
100
AcDbEntity
8
0
100
AcDbLine
62
9
6
CONTINUOUS
10
142.2461181508
20
-60.9512125822
11
142.3004418923
21
-61.0017123711
0
LINE
5
277
100
AcDbEntity
8
0
100
AcDbLine
62
9
6
CONTINUOUS
10
140.1003947239
20
-58.9802094818
11
140.1744281199
21
-59.0542425070
0
LINE
5
278
100
AcDbEntity
8
0
100
AcDbLine
62
9
6
CONTINUOUS
10
140.3001205899
20
-58.7804838794
11
140.3741546160
21
-58.8545206587
0
LINE
5
279
100
AcDbEntity
8
0
100
AcDbLine
62
7
6
CONTINUOUS
10
92.9434095899
20
-61.5816364818
11
92.9434095899
21
-59.7720624818
0
LINE
5
27A
100
AcDbEntity
8
0
100
AcDbLine
62
7
6
CONTINUOUS
10
93.3460945899
20
-59.7720624818
11
93.3460945899
21
-61.5816364818
0
LINE
5
27B
100
AcDbEntity
8
0
100
AcDbLine
62
7
6
CONTINUOUS
10
93.6984435899
20
-61.5816364818
11
93.6984435899
21
-59.7720624818
0
LINE
5
27C
100
AcDbEntity
8
0
100
AcDbLine
62
7
6
CONTINUOUS
10
94.1011275899
20
-60.3955294818
11
94.1011275899
21
-61.5816364818
0
LINE
5
27D
100
AcDbEntity
8
0
100
AcDbLine
62
7
6
CONTINUOUS
10
95.2756245899
20
-61.5816364818
11
95.2756245899
21
-60.3955294818
0
LINE
5
27E
100
AcDbEntity
8
0
100
AcDbLine
62
7
6
CONTINUOUS
10
95.6783085899
20
-59.7720624818
11
95.6783085899
21
-61.5816364818
0
LINE
5
27F
100
AcDbEntity
8
0
100
AcDbLine
62
7
6
CONTINUOUS
10
98.0105235899
20
-61.5816364818
11
98.0105235899
21
-59.7720624818
0
LINE
5
280
100
AcDbEntity
8
0
100
AcDbLine
62
7
6
CONTINUOUS
10
98.3964295899
20
-60.1066054818
11
98.3964295899
21
-60.5628004818
0
LINE
5
281
100
AcDbEntity
8
0
100
AcDbLine
62
7
6
CONTINUOUS
10
98.4132085899
20
-60.8973434818
11
98.4132085899
21
-61.5816364818
0
LINE
5
282
100
AcDbEntity
8
0
100
AcDbLine
62
9
6
CONTINUOUS
10
50.3001205899
20
-58.7804838700
11
50.2260866182
21
-58.8545205100
0
LINE
5
283
100
AcDbEntity
8
0
100
AcDbLine
62
9
6
CONTINUOUS
10
50.4998464521
20
-58.9802094818
11
50.4258131665
21
-59.0542423628
0
LINE
5
284
100
AcDbEntity
8
0
100
AcDbLine
62
9
6
CONTINUOUS
10
48.3541230289
20
-60.9512125822
11
48.2997992874
21
-61.0017123690
0
LINE
5
285
100
AcDbEntity
8
0
100
AcDbLine
62
9
6
CONTINUOUS
10
49.2816067249
20
-61.9479917931
11
49.2270792374
21
-61.9986011384
0
LINE
5
286
100
AcDbEntity
8
0
100
AcDbLine
62
9
6
CONTINUOUS
10
49.2816067249
20
59.9875728294
11
49.2270792325
21
60.0381821744
0
LINE
5
287
100
AcDbEntity
8
0
100
AcDbLine
62
9
6
CONTINUOUS
10
48.3541230289
20
58.9907936186
11
48.2997992874
21
59.0412934075
0
LINE
5
288
100
AcDbEntity
8
0
100
AcDbLine
62
9
6
CONTINUOUS
10
50.3001205899
20
56.8200649321
11
50.2260865028
21
56.8941019197
0
LINE
5
289
100
AcDbEntity
8
0
100
AcDbLine
62
9
6
CONTINUOUS
10
50.4998464494
20
57.0197905182
11
50.4258130898
21
57.0938234491
0
LINE
5
28A
100
AcDbEntity
8
0
100
AcDbLine
62
7
6
CONTINUOUS
10
94.6883765899
20
-60.9581694818
11
95.0742825899
21
-59.7720624818
0
LINE
5
28B
100
AcDbEntity
8
0
100
AcDbLine
62
7
6
CONTINUOUS
10
95.2756245899
20
-60.3955294818
11
94.8897185899
21
-61.5816364818
0
LINE
5
28C
100
AcDbEntity
8
0
100
AcDbLine
62
7
6
CONTINUOUS
10
96.8360275899
20
-60.3347034818
11
96.6514635899
21
-60.8973434818
0
LINE
5
28D
100
AcDbEntity
8
0
100
AcDbLine
62
7
6
CONTINUOUS
10
96.5172355899
20
-61.2318864818
11
96.3997855899
21
-61.5816364818
0
LINE
5
28E
100
AcDbEntity
8
0
100
AcDbLine
62
7
6
CONTINUOUS
10
95.9971005899
20
-61.5816364818
11
96.6346845899
21
-59.7720624818
0
LINE
5
28F
100
AcDbEntity
8
0
100
AcDbLine
62
7
6
CONTINUOUS
10
91.7856915899
20
-61.0342024818
11
92.2387115899
21
-59.7720624818
0
LINE
5
290
100
AcDbEntity
8
0
100
AcDbLine
62
7
6
CONTINUOUS
10
92.6413965899
20
-59.7720624818
11
91.9870335899
21
-61.5816364818
0
LINE
5
291
100
AcDbEntity
8
0
100
AcDbLine
62
7
6
CONTINUOUS
10
140.3001205899
20
56.8200649002
11
140.3001205899
21
-58.7804838794
0
LINE
5
292
100
AcDbEntity
8
0
100
AcDbLine
62
9
6
CONTINUOUS
10
140.4598652022
20
58.1687500619
11
140.4598652022
21
-60.1291690249
0
LINE
5
293
100
AcDbEntity
8
0
100
AcDbLine
62
9
6
CONTINUOUS
10
140.6663120264
20
58.1687500616
11
140.6663120264
21
-60.1291690253
0
LINE
5
294
100
AcDbEntity
8
0
100
AcDbLine
62
7
6
CONTINUOUS
10
141.7690349305
20
60.0351406324
11
141.7690349305
21
59.9241613804
0
LINE
5
295
100
AcDbEntity
8
0
100
AcDbLine
62
7
6
CONTINUOUS
10
141.7690349305
20
-61.8845803440
11
141.7690349305
21
-61.9955617731
0
LINE
5
296
100
AcDbEntity
8
0
100
AcDbLine
62
9
6
CONTINUOUS
10
142.0530749754
20
58.9907936186
11
142.0530749754
21
-60.9512125822
0
LINE
5
297
100
AcDbEntity
8
0
100
AcDbLine
62
9
6
CONTINUOUS
10
142.2461181508
20
58.9907936186
11
142.2461181508
21
-60.9512125822
0
LINE
5
298
100
AcDbEntity
8
0
100
AcDbLine
62
7
6
CONTINUOUS
10
142.3004418923
20
59.0412934054
11
142.3004418923
21
-61.0017123711
0
LINE
5
299
100
AcDbEntity
8
0
100
AcDbLine
62
7
6
CONTINUOUS
10
142.4001205899
20
-61.0010053873
11
142.4001205899
21
59.0405864237
0
LINE
5
29A
100
AcDbEntity
8
0
100
AcDbLine
62
9
6
CONTINUOUS
10
142.5036171452
20
-61.0010053873
11
142.5036171452
21
59.0405864237
0
LINE
5
29B
100
AcDbEntity
8
0
100
AcDbLine
62
7
6
CONTINUOUS
10
50.4998464494
20
57.0197905182
11
140.1003947248
21
57.0197905182
0
LINE
5
29C
100
AcDbEntity
8
0
100
AcDbLine
62
9
6
CONTINUOUS
10
140.6663120264
20
58.1687500616
11
140.4598652022
21
58.1687500616
0
LINE
5
29D
100
AcDbEntity
8
0
100
AcDbLine
62
9
6
CONTINUOUS
10
49.9339291533
20
58.1687500615
11
50.1403759775
21
58.1687500615
0
LINE
5
29E
100
AcDbEntity
8
0
100
AcDbLine
62
9
6
CONTINUOUS
10
142.2461181508
20
58.9907936186
11
142.0530749754
21
58.9907936186
0
LINE
5
29F
100
AcDbEntity
8
0
100
AcDbLine
62
9
6
CONTINUOUS
10
48.3541230289
20
58.9907936186
11
48.5471662043
21
58.9907936186
0
LINE
5
2A0
100
AcDbEntity
8
0
100
AcDbLine
62
9
6
CONTINUOUS
10
48.2001205899
20
59.0405864237
11
48.0966240346
21
59.0405864237
0
LINE
5
2A1
100
AcDbEntity
8
0
100
AcDbLine
62
9
6
CONTINUOUS
10
142.4001205899
20
59.0405864237
11
142.5036171452
21
59.0405864237
0
LINE
5
2A2
100
AcDbEntity
8
0
100
AcDbLine
62
9
6
CONTINUOUS
10
166.0763340022
20
-76.9802094818
11
166.0763340022
21
75.0197905182
0
LINE
5
2A3
100
AcDbEntity
8
0
100
AcDbLine
62
7
6
CONTINUOUS
10
166.5501205899
20
-76.9802094818
11
166.5501205899
21
75.0197905182
0
LINE
5
2A4
100
AcDbEntity
8
0
100
AcDbLine
62
9
6
CONTINUOUS
10
24.5239071775
20
75.0197905182
11
24.0501205899
21
75.0197905182
0
LINE
5
2A5
100
AcDbEntity
8
0
100
AcDbLine
62
9
6
CONTINUOUS
10
166.0763340022
20
75.0197905182
11
166.5501205899
21
75.0197905182
0
LINE
5
2A6
100
AcDbEntity
8
0
100
AcDbLine
62
9
6
CONTINUOUS
10
164.5757782408
20
76.5197905182
11
26.0244629389
21
76.5197905182
0
LINE
5
2A7
100
AcDbEntity
8
0
100
AcDbLine
62
7
6
CONTINUOUS
10
164.5501205899
20
77.0197905182
11
26.0501205899
21
77.0197905182
0
LINE
5
2A8
100
AcDbEntity
8
0
100
AcDbLine
62
7
6
CONTINUOUS
10
-25.3974351091
20
-78.9802094818
11
-32.0921518995
21
-78.9802094818
0
LINE
5
2A9
100
AcDbEntity
8
0
100
AcDbLine
62
9
6
CONTINUOUS
10
-32.5921948261
20
-78.4802094818
11
-30.8135725149
21
-78.4802094818
0
LINE
5
2AA
100
AcDbEntity
8
0
100
AcDbLine
62
9
6
CONTINUOUS
10
-25.2921948261
20
-76.9802094818
11
-30.7356321558
21
-76.9802094818
0
LINE
5
2AB
100
AcDbEntity
8
0
100
AcDbLine
62
7
6
CONTINUOUS
10
-23.1915095935
20
-76.8657989661
11
-22.6921948261
21
-76.8657989661
0
LINE
5
2AC
100
AcDbEntity
8
0
100
AcDbLine
62
9
6
CONTINUOUS
10
-31.7667554046
20
-61.0010053873
11
-31.7666942564
21
-61.0010053873
0
LINE
5
2AD
100
AcDbEntity
8
0
100
AcDbLine
62
9
6
CONTINUOUS
10
-31.7667554046
20
-60.9512125829
11
-31.8799091726
21
-60.9512125825
0
LINE
5
2AE
100
AcDbEntity
8
0
100
AcDbLine
62
9
6
CONTINUOUS
10
-31.9297234602
20
-60.1291690253
11
-31.9298364189
21
-60.1291690252
0
LINE
5
2AF
100
AcDbEntity
8
0
100
AcDbLine
62
7
6
CONTINUOUS
10
-22.6921948261
20
-56.7799653490
11
-24.3921948261
21
-56.4802094818
0
LINE
5
2B0
100
AcDbEntity
8
0
100
AcDbLine
62
7
6
CONTINUOUS
10
-22.6921948261
20
-49.1804536146
11
-24.3921948261
21
-49.4802094818
0
LWPOLYLINE
5
2B1
100
AcDbEntity
8
0
100
AcDbPolyline
62
7
6
CONTINUOUS
90
5
70
0
10
-32.6921948249
20
60.2886828319
10
-32.6921325105
20
60.2836906488
10
-32.6895393540
20
60.2561999616
10
-32.6831850629
20
60.2293302493
10
-32.6731914985
20
60.2035934422
0
LINE
5
2B2
100
AcDbEntity
8
0
100
AcDbLine
62
7
6
CONTINUOUS
10
-31.9310903307
20
58.3946330351
11
-31.9303696582
21
58.3179625909
0
LINE
5
2B3
100
AcDbEntity
8
0
100
AcDbLine
62
7
6
CONTINUOUS
10
-31.7681998436
20
59.3522665763
11
-31.7671722009
21
59.2090399618
0
LINE
5
2B4
100
AcDbEntity
8
0
100
AcDbLine
62
7
6
CONTINUOUS
10
-31.9303696582
20
58.3179625909
11
-31.9298968538
21
58.2186566701
0
LINE
5
2B5
100
AcDbEntity
8
0
100
AcDbLine
62
7
6
CONTINUOUS
10
-31.7671722009
20
59.2090399618
11
-31.7667552974
21
59.0405864237
0
LINE
5
2B6
100
AcDbEntity
8
0
100
AcDbLine
62
7
6
CONTINUOUS
10
-32.6921948261
20
61.3851340609
11
-32.6921948261
21
60.2858129982
0
LINE
5
2B7
100
AcDbEntity
8
0
100
AcDbLine
62
7
6
CONTINUOUS
10
-32.6921948261
20
-62.2471095897
11
-32.6921948261
21
-63.3455530244
0
LINE
5
2B8
100
AcDbEntity
8
0
100
AcDbLine
62
7
6
CONTINUOUS
10
-32.5921948261
20
76.5197905182
11
-32.5921948261
21
61.9197902438
0
LINE
5
2B9
100
AcDbEntity
8
0
100
AcDbLine
62
7
6
CONTINUOUS
10
-32.5921948261
20
-63.8802092529
11
-32.5921948261
21
-78.4802094818
0
LINE
5
2BA
100
AcDbEntity
8
0
100
AcDbLine
62
7
6
CONTINUOUS
10
-31.9298968538
20
58.2186566701
11
-31.9298364189
21
-60.1291690252
0
LINE
5
2BB
100
AcDbEntity
8
0
100
AcDbLine
62
9
6
CONTINUOUS
10
-31.8823820333
20
58.9907936186
11
-31.8823820333
21
-60.9512125822
0
LINE
5
2BC
100
AcDbEntity
8
0
100
AcDbLine
62
7
6
CONTINUOUS
10
-31.7667554046
20
59.0405864237
11
-31.7669908595
21
-61.1277564450
0
LINE
5
2BD
100
AcDbEntity
8
0
100
AcDbLine
62
7
6
CONTINUOUS
10
-31.9298365038
20
-60.1291690252
11
-31.9301268934
21
-60.2397660923
0
LINE
5
2BE
100
AcDbEntity
8
0
100
AcDbLine
62
7
6
CONTINUOUS
10
-31.7669908595
20
-61.1277564450
11
-31.7680087878
21
-61.2916563429
0
LINE
5
2BF
100
AcDbEntity
8
0
100
AcDbLine
62
7
6
CONTINUOUS
10
-31.9301268934
20
-60.2397660923
11
-31.9308010709
21
-60.3270708512
0
LINE
5
2C0
100
AcDbEntity
8
0
100
AcDbLine
62
7
6
CONTINUOUS
10
-31.9308010709
20
-60.3270708512
11
-31.9311564953
21
-60.3599588306
0
LWPOLYLINE
5
2C1
100
AcDbEntity
8
0
100
AcDbPolyline
62
7
6
CONTINUOUS
90
6
70
0
10
-31.9385629994
20
58.6632357355
10
-31.9383888826
20
58.6611582976
10
-31.9381369975
20
58.6577882775
10
-31.9378623385
20
58.6536805387
10
-31.9375745142
20
58.6488884239
10
-31.9374067725
20
58.6458049724
0
LINE
5
2C2
100
AcDbEntity
8
0
100
AcDbLine
62
7
6
CONTINUOUS
10
-31.7896935234
20
60.1088946693
11
-31.7878311662
21
60.0803780969
0
LINE
5
2C3
100
AcDbEntity
8
0
100
AcDbLine
62
7
6
CONTINUOUS
10
-31.7878311662
20
60.0803780969
11
-31.7859874203
21
60.0484799907
0
LINE
5
2C4
100
AcDbEntity
8
0
100
AcDbLine
62
7
6
CONTINUOUS
10
-31.7859874203
20
60.0484799907
11
-31.7832820594
21
59.9943424814
0
LINE
5
2C5
100
AcDbEntity
8
0
100
AcDbLine
62
7
6
CONTINUOUS
10
-31.9372769158
20
58.6434179286
11
-31.9366612224
21
58.6306248994
0
LINE
5
2C6
100
AcDbEntity
8
0
100
AcDbLine
62
7
6
CONTINUOUS
10
-31.7832820594
20
59.9943424814
11
-31.7815323389
21
59.9540965163
0
LINE
5
2C7
100
AcDbEntity
8
0
100
AcDbLine
62
7
6
CONTINUOUS
10
-31.9366612224
20
58.6306248994
11
-31.9357014282
21
58.6074397037
0
LINE
5
2C8
100
AcDbEntity
8
0
100
AcDbLine
62
7
6
CONTINUOUS
10
-31.7815323389
20
59.9540965163
11
-31.7790146055
21
59.8876215804
0
LINE
5
2C9
100
AcDbEntity
8
0
100
AcDbLine
62
7
6
CONTINUOUS
10
-31.9357014282
20
58.6074397037
11
-31.9347393583
21
58.5802512877
0
LINE
5
2CA
100
AcDbEntity
8
0
100
AcDbLine
62
7
6
CONTINUOUS
10
-31.7790146055
20
59.8876215804
11
-31.7766521469
21
59.8139951211
0
LINE
5
2CB
100
AcDbEntity
8
0
100
AcDbLine
62
7
6
CONTINUOUS
10
-31.9347393583
20
58.5802512877
11
-31.9341396920
21
58.5601725038
0
LINE
5
2CC
100
AcDbEntity
8
0
100
AcDbLine
62
7
6
CONTINUOUS
10
-31.7766521469
20
59.8139951211
11
-31.7744734385
21
59.7334821620
0
LINE
5
2CD
100
AcDbEntity
8
0
100
AcDbLine
62
7
6
CONTINUOUS
10
-31.9341396920
20
58.5601725038
11
-31.9333145007
21
58.5270252150
0
LINE
5
2CE
100
AcDbEntity
8
0
100
AcDbLine
62
7
6
CONTINUOUS
10
-31.7744734385
20
59.7334821620
11
-31.7719098941
21
59.6161451396
0
LINE
5
2CF
100
AcDbEntity
8
0
100
AcDbLine
62
7
6
CONTINUOUS
10
-31.9333145007
20
58.5270252150
11
-31.9320792881
21
58.4646906992
0
LINE
5
2D0
100
AcDbEntity
8
0
100
AcDbLine
62
7
6
CONTINUOUS
10
-31.7719098941
20
59.6161451396
11
-31.7697976387
21
59.4885673997
0
LINE
5
2D1
100
AcDbEntity
8
0
100
AcDbLine
62
7
6
CONTINUOUS
10
-31.9320792881
20
58.4646906992
11
-31.9310903307
21
58.3946330351
0
LINE
5
2D2
100
AcDbEntity
8
0
100
AcDbLine
62
7
6
CONTINUOUS
10
-31.7697976387
20
59.4885673997
11
-31.7681998436
21
59.3522665763
0
LINE
5
2D3
100
AcDbEntity
8
0
100
AcDbLine
62
9
6
CONTINUOUS
10
-30.7356321558
20
-76.9802094818
11
-30.7356321558
21
75.0197905182
0
LINE
5
2D4
100
AcDbEntity
8
0
100
AcDbLine
62
9
6
CONTINUOUS
10
-30.2363197716
20
-76.9802094818
11
-30.2363197716
21
75.0197905182
0
LINE
5
2D5
100
AcDbEntity
8
0
100
AcDbLine
62
7
6
CONTINUOUS
10
-31.7680087878
20
-61.2916563429
11
-31.7697658106
21
-61.4467086914
0
LINE
5
2D6
100
AcDbEntity
8
0
100
AcDbLine
62
7
6
CONTINUOUS
10
-31.9311564953
20
-60.3599588306
11
-31.9320306341
21
-60.4216965813
0
LINE
5
2D7
100
AcDbEntity
8
0
100
AcDbLine
62
7
6
CONTINUOUS
10
-31.7697658106
20
-61.4467086914
11
-31.7721721251
21
-61.5900686796
0
LINE
5
2D8
100
AcDbEntity
8
0
100
AcDbLine
62
7
6
CONTINUOUS
10
-31.9320306341
20
-60.4216965813
11
-31.9330972559
21
-60.4775897938
0
LINE
5
2D9
100
AcDbEntity
8
0
100
AcDbLine
62
7
6
CONTINUOUS
10
-31.7721721251
20
-61.5900686796
11
-31.7751245050
21
-61.7194750686
0
LINE
5
2DA
100
AcDbEntity
8
0
100
AcDbLine
62
7
6
CONTINUOUS
10
-31.9330972559
20
-60.4775897938
11
-31.9339915798
21
-60.5150109661
0
LINE
5
2DB
100
AcDbEntity
8
0
100
AcDbLine
62
7
6
CONTINUOUS
10
-31.7751245050
20
-61.7194750686
11
-31.7773403112
21
-61.7971612383
0
LINE
5
2DC
100
AcDbEntity
8
0
100
AcDbLine
62
7
6
CONTINUOUS
10
-31.9339915798
20
-60.5150109661
11
-31.9349947734
21
-60.5482809895
0
LINE
5
2DD
100
AcDbEntity
8
0
100
AcDbLine
62
7
6
CONTINUOUS
10
-31.7773403112
20
-61.7971612383
11
-31.7797134809
21
-61.8676016755
0
LINE
5
2DE
100
AcDbEntity
8
0
100
AcDbLine
62
7
6
CONTINUOUS
10
-31.9349947734
20
-60.5482809895
11
-31.9356824805
21
-60.5679739982
0
LINE
5
2DF
100
AcDbEntity
8
0
100
AcDbLine
62
7
6
CONTINUOUS
10
-31.7797134809
20
-61.8676016755
11
-31.7822077257
21
-61.9305865811
0
LWPOLYLINE
5
2E0
100
AcDbEntity
8
0
100
AcDbPolyline
62
7
6
CONTINUOUS
90
5
70
0
10
-31.9356824805
20
-60.5679739982
10
-31.9363723198
20
-60.5852420354
10
-31.9367232013
20
-60.5929511199
10
-31.9370765344
20
-60.6000198740
10
-31.9374183575
20
-60.6062481526
0
LWPOLYLINE
5
2E1
100
AcDbEntity
8
0
100
AcDbPolyline
62
7
6
CONTINUOUS
90
14
70
0
10
-31.7822077257
20
-61.9305865811
10
-31.7847878654
20
-61.9860244712
10
-31.7860985922
20
-62.0109265245
10
-31.7874149758
20
-62.0339258675
10
-31.7887346588
20
-62.0550805099
10
-31.7900518177
20
-62.0743982648
10
-31.7913528114
20
-62.0918011123
10
-31.7926340685
20
-62.1073727111
10
-31.7938883508
20
-62.1211506307
10
-31.7950909709
20
-62.1330231018
10
-31.7962395324
20
-62.1431454420
10
-31.7973160390
20
-62.1515385018
10
-31.7982482560
20
-62.1579087962
10
-31.7985616016
20
-62.1598495768
0
LWPOLYLINE
5
2E2
100
AcDbEntity
8
0
100
AcDbPolyline
62
7
6
CONTINUOUS
90
5
70
0
10
-31.9374276394
20
-60.6064172769
10
-31.9377705553
20
-60.6121132086
10
-31.9381084822
20
-60.6172270398
10
-31.9384272399
20
-60.6216105459
10
-31.9386872097
20
-60.6248580699
0
LINE
5
2E3
100
AcDbEntity
8
0
100
AcDbLine
62
7
6
CONTINUOUS
10
-25.2921948261
20
75.0197905182
11
-25.2921948261
21
-76.9802094818
0
LINE
5
2E4
100
AcDbEntity
8
0
100
AcDbLine
62
7
6
CONTINUOUS
10
-24.3921948261
20
54.5197905182
11
-24.3921948261
21
47.5197905182
0
LINE
5
2E5
100
AcDbEntity
8
0
100
AcDbLine
62
7
6
CONTINUOUS
10
-24.3921948261
20
-49.4802094818
11
-24.3921948261
21
-56.4802094818
0
LINE
5
2E6
100
AcDbEntity
8
0
100
AcDbLine
62
7
6
CONTINUOUS
10
-23.1915095935
20
74.9053800025
11
-23.1915095935
21
54.7315037200
0
LINE
5
2E7
100
AcDbEntity
8
0
100
AcDbLine
62
7
6
CONTINUOUS
10
-23.1915095935
20
47.3080773163
11
-23.1915095935
21
-49.2684962800
0
LINE
5
2E8
100
AcDbEntity
8
0
100
AcDbLine
62
7
6
CONTINUOUS
10
-23.1915095935
20
-56.6919226837
11
-23.1915095935
21
-76.8657989661
0
LINE
5
2E9
100
AcDbEntity
8
0
100
AcDbLine
62
7
6
CONTINUOUS
10
-22.6921948261
20
75.3778398293
11
-22.6921948261
21
54.8195463854
0
LINE
5
2EA
100
AcDbEntity
8
0
100
AcDbLine
62
7
6
CONTINUOUS
10
-22.6921948261
20
47.2200346510
11
-22.6921948261
21
-49.1804536146
0
LINE
5
2EB
100
AcDbEntity
8
0
100
AcDbLine
62
7
6
CONTINUOUS
10
-22.6921948261
20
-56.7799653490
11
-22.6921948261
21
-77.3382587929
0
LWPOLYLINE
5
2EC
100
AcDbEntity
8
0
100
AcDbPolyline
62
7
6
CONTINUOUS
90
12
70
0
10
-31.7989844684
20
60.2018372501
10
-31.7984562322
20
60.1987900133
10
-31.7977240472
20
60.1940135311
10
-31.7969389358
20
60.1883020184
10
-31.7960924792
20
60.1814969395
10
-31.7952175063
20
60.1737770597
10
-31.7943233632
20
60.1651761462
10
-31.7934101865
20
60.1556484722
10
-31.7924878523
20
60.1452550214
10
-31.7915597340
20
60.1340024082
10
-31.7906269597
20
60.1218740646
10
-31.7896935234
20
60.1088946693
0
LINE
5
2ED
100
AcDbEntity
8
0
100
AcDbLine
62
7
6
CONTINUOUS
10
-31.7995601646
20
60.2048039133
11
-31.7989844684
21
60.2018372501
0
LWPOLYLINE
5
2EE
100
AcDbEntity
8
0
100
AcDbPolyline
62
7
6
CONTINUOUS
90
3
70
0
10
-32.6731914544
20
-62.1640123107
10
-32.6831848743
20
-62.1897486048
10
-32.6895391864
20
-62.2166179063
0
LINE
5
2EF
100
AcDbEntity
8
0
100
AcDbLine
62
7
6
CONTINUOUS
10
-31.7958156257
20
-62.1554761234
11
-32.5827681216
21
-63.8378246007
0
LINE
5
2F0
100
AcDbEntity
8
0
100
AcDbLine
62
7
6
CONTINUOUS
10
-31.9374183575
20
-60.6062481526
11
-32.6731914544
21
-62.1640123107
0
LINE
5
2F1
100
AcDbEntity
8
0
100
AcDbLine
62
7
6
CONTINUOUS
10
-32.6731914985
20
60.2035934422
11
-31.9374067725
21
58.6458049724
0
LINE
5
2F2
100
AcDbEntity
8
0
100
AcDbLine
62
7
6
CONTINUOUS
10
-32.5827681216
20
61.8774056371
11
-31.7989844684
21
60.2018372501
0
LINE
5
2F3
100
AcDbEntity
8
0
100
AcDbLine
62
7
6
CONTINUOUS
10
-22.6921948261
20
47.2200346510
11
-24.3921948261
21
47.5197905182
0
LINE
5
2F4
100
AcDbEntity
8
0
100
AcDbLine
62
7
6
CONTINUOUS
10
-22.6921948261
20
-77.3382587929
11
-23.1915095985
21
-77.8644247316
0
LINE
5
2F5
100
AcDbEntity
8
0
100
AcDbLine
62
7
6
CONTINUOUS
10
-22.6921948261
20
54.8195463854
11
-24.3921948261
21
54.5197905182
0
LINE
5
2F6
100
AcDbEntity
8
0
100
AcDbLine
62
7
6
CONTINUOUS
10
-22.6921948261
20
75.3778398293
11
-23.1915095985
21
75.9040057680
0
LINE
5
2F7
100
AcDbEntity
8
0
100
AcDbLine
62
9
6
CONTINUOUS
10
-31.9297234602
20
58.1687500616
11
-31.9298364189
21
58.1687500616
0
LINE
5
2F8
100
AcDbEntity
8
0
100
AcDbLine
62
9
6
CONTINUOUS
10
-31.7667554046
20
58.9907936186
11
-31.8799091661
21
58.9907936186
0
LINE
5
2F9
100
AcDbEntity
8
0
100
AcDbLine
62
9
6
CONTINUOUS
10
-31.7667554046
20
59.0405864237
11
-31.7666942564
21
59.0405864237
0
LINE
5
2FA
100
AcDbEntity
8
0
100
AcDbLine
62
7
6
CONTINUOUS
10
-23.1915095935
20
74.9053800025
11
-22.6921948261
21
74.9053800025
0
LINE
5
2FB
100
AcDbEntity
8
0
100
AcDbLine
62
9
6
CONTINUOUS
10
-30.7356321558
20
75.0197905182
11
-25.2921948261
21
75.0197905182
0
LINE
5
2FC
100
AcDbEntity
8
0
100
AcDbLine
62
9
6
CONTINUOUS
10
-30.8135725149
20
76.5197905182
11
-32.5921948261
21
76.5197905182
0
LINE
5
2FD
100
AcDbEntity
8
0
100
AcDbLine
62
7
6
CONTINUOUS
10
-25.3974351091
20
77.0197905182
11
-32.0921518995
21
77.0197905182
0
ARC
5
2FE
100
AcDbEntity
8
0
100
AcDbCircle
62
7
6
CONTINUOUS
10
95.3001205899
20
-570.2802094818
40
632.0000000000
100
AcDbArc
50
85.8194072448
51
94.1805927552
0
ARC
5
2FF
100
AcDbEntity
8
0
100
AcDbCircle
62
7
6
CONTINUOUS
10
95.3001205899
20
568.3197905182
40
632.0000000000
100
AcDbArc
50
265.8194072448
51
274.1805927552
0
ARC
5
300
100
AcDbEntity
8
0
100
AcDbCircle
62
7
6
CONTINUOUS
10
95.3001205899
20
-570.1802094818
40
632.0000000000
100
AcDbArc
50
85.8187562841
51
94.1812437159
0
ARC
5
301
100
AcDbEntity
8
0
100
AcDbCircle
62
7
6
CONTINUOUS
10
49.3001205899
20
-61.0010053873
40
1.1000000000
100
AcDbArc
50
180.0000000000
51
265.8187562841
0
ARC
5
302
100
AcDbEntity
8
0
100
AcDbCircle
62
7
6
CONTINUOUS
10
141.3001205899
20
-61.0010053873
40
1.1000000000
100
AcDbArc
50
274.1812437159
51
360.0000000000
0
ARC
5
303
100
AcDbEntity
8
0
100
AcDbCircle
62
7
6
CONTINUOUS
10
141.3001205899
20
59.0405864237
40
1.1000000000
100
AcDbArc
50
0.0000000000
51
85.8187562841
0
ARC
5
304
100
AcDbEntity
8
0
100
AcDbCircle
62
7
6
CONTINUOUS
10
49.3001205899
20
59.0405864237
40
1.1000000000
100
AcDbArc
50
94.1812437159
51
180.0000000000
0
ARC
5
305
100
AcDbEntity
8
0
100
AcDbCircle
62
7
6
CONTINUOUS
10
164.5501205899
20
-76.9802094818
40
2.0000000000
100
AcDbArc
50
270.0000000000
51
360.0000000000
0
ARC
5
306
100
AcDbEntity
8
0
100
AcDbCircle
62
7
6
CONTINUOUS
10
95.3001205899
20
568.2197905182
40
632.0000000000
100
AcDbArc
50
265.8187562841
51
274.1812437159
0
ARC
5
307
100
AcDbEntity
8
0
100
AcDbCircle
62
7
6
CONTINUOUS
10
26.0501205899
20
-76.9802094818
40
2.0000000000
100
AcDbArc
50
180.0000000000
51
270.0000000000
0
ARC
5
308
100
AcDbEntity
8
0
100
AcDbCircle
62
7
6
CONTINUOUS
10
26.0501205899
20
75.0197905182
40
2.0000000000
100
AcDbArc
50
90.0000000000
51
180.0000000000
0
ARC
5
309
100
AcDbEntity
8
0
100
AcDbCircle
62
7
6
CONTINUOUS
10
164.5501205899
20
75.0197905182
40
2.0000000000
100
AcDbArc
50
0.0000000000
51
90.0000000000
0
ARC
5
30A
100
AcDbEntity
8
0
100
AcDbCircle
62
7
6
CONTINUOUS
10
-32.0921948261
20
-78.4802094818
40
0.5000000000
100
AcDbArc
50
180.0000000000
51
269.9999918418
0
ARC
5
30B
100
AcDbEntity
8
0
100
AcDbCircle
62
7
6
CONTINUOUS
10
-32.0921948261
20
76.5197905182
40
0.5000000000
100
AcDbArc
50
90.0000081583
51
180.0000000000
0
ARC
5
30C
100
AcDbEntity
8
0
100
AcDbCircle
62
7
6
CONTINUOUS
10
-32.4921919882
20
61.4516820584
40
0.1999999996
100
AcDbArc
50
91.0000000287
51
180.0000000000
0
ARC
5
30D
100
AcDbEntity
8
0
100
AcDbCircle
62
7
6
CONTINUOUS
10
-32.4921919882
20
-63.4121010220
40
0.1999999996
100
AcDbArc
50
180.0000000000
51
268.9999999713
0
SPLINE
5
30E
100
AcDbEntity
8
0
100
AcDbSpline
62
7
6
CONTINUOUS
70
0
71
3
72
11
73
7
74
5
42
0.0000001000
43
0.0000001000
44
0.0000000001
12
0.3117550253
22
0.0000000638
32
0.0000000000
13
0.0000004741
23
0.3117550253
33
0.0000000000
40
0.0000000000
40
0.0000000000
40
0.0000000000
40
0.0000000000
40
0.2501860846
40
0.4991544506
40
0.7498735200
40
1.0000000000
40
1.0000000000
40
1.0000000000
40
1.0000000000
10
140.1003946829
20
-58.9802094818
30
0.0000000000
10
140.1263936060
20
-58.9802094765
30
0.0000000000
10
140.1788366656
20
-58.9698495949
30
0.0000000000
10
140.2452466188
20
-58.9254702021
30
0.0000000000
10
140.2897314417
20
-58.8590944520
30
0.0000000000
10
140.3001205503
20
-58.8064763048
30
0.0000000000
10
140.3001205899
20
-58.7804835758
30
0.0000000000
11
140.1003946829
21
-58.9802094818
31
0.0000000000
11
140.1768952507
21
-58.9650055636
31
0.0000000000
11
140.2414651879
21
-58.9219341866
31
0.0000000000
11
140.2849239184
21
-58.8569666382
31
0.0000000000
11
140.3001205899
21
-58.7804835758
31
0.0000000000
0
SPLINE
5
30F
100
AcDbEntity
8
0
100
AcDbSpline
62
7
6
CONTINUOUS
70
0
71
3
72
11
73
7
74
5
42
0.0000001000
43
0.0000001000
44
0.0000000001
12
0.0000004595
22
-0.3117550253
32
0.0000000000
13
0.3117550253
23
-0.0000000697
33
0.0000000000
40
0.0000000000
40
0.0000000000
40
0.0000000000
40
0.0000000000
40
0.2501860846
40
0.4991544504
40
0.7498735200
40
1.0000000000
40
1.0000000000
40
1.0000000000
40
1.0000000000
10
50.3001205899
20
-58.7804835758
30
0.0000000000
10
50.3001206282
20
-58.8064824988
30
0.0000000000
10
50.3104804619
20
-58.8589255573
30
0.0000000000
10
50.3548598743
20
-58.9253355156
30
0.0000000000
10
50.4212356193
20
-58.9698203184
30
0.0000000000
10
50.4738537678
20
-58.9802094760
30
0.0000000000
10
50.4998464968
20
-58.9802094818
30
0.0000000000
11
50.3001205899
21
-58.7804835758
31
0.0000000000
11
50.3153245085
21
-58.8569841435
31
0.0000000000
11
50.3583958857
21
-58.9215540805
31
0.0000000000
11
50.4233634343
21
-58.9650128107
31
0.0000000000
11
50.4998464968
21
-58.9802094818
31
0.0000000000
0
SPLINE
5
310
100
AcDbEntity
8
0
100
AcDbSpline
62
7
6
CONTINUOUS
70
0
71
3
72
11
73
7
74
5
42
0.0000001000
43
0.0000001000
44
0.0000000001
12
-0.3117550253
22
-0.0000000738
32
0.0000000000
13
-0.0000004995
23
-0.3117550253
33
0.0000000000
40
0.0000000000
40
0.0000000000
40
0.0000000000
40
0.0000000000
40
0.2501860846
40
0.4991544506
40
0.7498735200
40
1.0000000000
40
1.0000000000
40
1.0000000000
40
1.0000000000
10
50.4998464968
20
57.0197905182
30
0.0000000000
10
50.4738475738
20
57.0197905120
30
0.0000000000
10
50.4214045140
20
57.0094306317
30
0.0000000000
10
50.3549945611
20
56.9650512384
30
0.0000000000
10
50.3105097370
20
56.8986754885
30
0.0000000000
10
50.3001206315
20
56.8460573412
30
0.0000000000
10
50.3001205899
20
56.8200646122
30
0.0000000000
11
50.4998464968
21
57.0197905182
31
0.0000000000
11
50.4233459291
21
57.0045865999
31
0.0000000000
11
50.3587759918
21
56.9615152230
31
0.0000000000
11
50.3153172613
21
56.8965476746
31
0.0000000000
11
50.3001205899
21
56.8200646122
31
0.0000000000
0
SPLINE
5
311
100
AcDbEntity
8
0
100
AcDbSpline
62
7
6
CONTINUOUS
70
0
71
3
72
11
73
7
74
5
42
0.0000001000
43
0.0000001000
44
0.0000000001
12
-0.0000004499
22
0.3117550253
32
0.0000000000
13
-0.3117550253
23
0.0000000653
33
0.0000000000
40
0.0000000000
40
0.0000000000
40
0.0000000000
40
0.0000000000
40
0.2501860846
40
0.4991544504
40
0.7498735200
40
1.0000000000
40
1.0000000000
40
1.0000000000
40
1.0000000000
10
140.3001205899
20
56.8200646122
30
0.0000000000
10
140.3001205523
20
56.8460635352
30
0.0000000000
10
140.2897607174
20
56.8985065936
30
0.0000000000
10
140.2453813055
20
56.9649165521
30
0.0000000000
10
140.1790055604
20
57.0094013546
30
0.0000000000
10
140.1263874119
20
57.0197905128
30
0.0000000000
10
140.1003946829
20
57.0197905182
30
0.0000000000
11
140.3001205899
21
56.8200646122
31
0.0000000000
11
140.2849166712
21
56.8965651799
31
0.0000000000
11
140.2418452941
21
56.9611351169
31
0.0000000000
11
140.1768777454
21
57.0045938471
31
0.0000000000
11
140.1003946829
21
57.0197905182
31
0.0000000000
0
SPLINE
5
312
100
AcDbEntity
8
0
100
AcDbSpline
62
7
6
CONTINUOUS
70
0
71
3
72
17
73
13
74
11
42
0.0000001000
43
0.0000001000
44
0.0000000001
12
0.0000827822
22
1.4856416574
32
0.0000000000
13
1.4807596530
23
0.1234631777
33
0.0000000000
40
0.0000000000
40
0.0000000000
40
0.0000000000
40
0.0000000000
40
0.0833748751
40
0.1767643374
40
0.2790524445
40
0.3871544495
40
0.4985782553
40
0.6108481377
40
0.7210419533
40
0.8259460674
40
0.9224106164
40
1.0000000000
40
1.0000000000
40
1.0000000000
40
1.0000000000
10
48.3541230289
20
58.9907936186
30
0.0000000000
10
48.3541253296
20
59.0320820145
30
0.0000000000
10
48.3595666662
20
59.1197092546
30
0.0000000000
10
48.3862279622
20
59.2557419607
30
0.0000000000
10
48.4364654628
20
59.3981659829
30
0.0000000000
10
48.5125964858
20
59.5389564631
30
0.0000000000
10
48.6136829232
20
59.6694496755
30
0.0000000000
10
48.7357692613
20
59.7821011848
30
0.0000000000
10
48.8720083379
20
59.8713062610
30
0.0000000000
10
49.0134833440
20
59.9344411500
30
0.0000000000
10
49.1470621979
20
59.9714240951
30
0.0000000000
10
49.2326355775
20
59.9835472484
30
0.0000000000
10
49.2709326537
20
59.9867403924
30
0.0000000000
11
48.3541230289
21
58.9907936186
31
0.0000000000
11
48.3618050854
21
59.1144203583
31
0.0000000000
11
48.3884902915
21
59.2505732001
31
0.0000000000
11
48.4390445017
21
59.3938811518
31
0.0000000000
11
48.5154356280
21
59.5351504914
31
0.0000000000
11
48.6168099714
21
59.6660143879
31
0.0000000000
11
48.7393904424
21
59.7791243834
31
0.0000000000
11
48.8763502203
21
59.8688043688
31
0.0000000000
11
49.0186691248
21
59.9323223004
31
0.0000000000
11
49.1567848477
21
59.9705624050
31
0.0000000000
11
49.2709326537
21
59.9867403924
31
0.0000000000
0
SPLINE
5
313
100
AcDbEntity
8
0
100
AcDbSpline
62
7
6
CONTINUOUS
70
0
71
3
72
8
73
4
74
2
42
0.0000001000
43
0.0000001000
44
0.0000000001
12
0.0106704145
22
0.0008896807
32
0.0000000000
13
0.0106774937
23
0.0007751656
33
0.0000000000
40
0.0000000000
40
0.0000000000
40
0.0000000000
40
0.0000000000
40
1.0000000000
40
1.0000000000
40
1.0000000000
40
1.0000000000
10
49.2709326537
20
59.9867403924
30
0.0000000000
10
49.2744894586
20
59.9870369526
30
0.0000000000
10
49.2780475604
20
59.9873144409
30
0.0000000000
10
49.2816067249
20
59.9875728294
30
0.0000000000
11
49.2709326537
21
59.9867403924
31
0.0000000000
11
49.2816067249
21
59.9875728294
31
0.0000000000
0
SPLINE
5
314
100
AcDbEntity
8
0
100
AcDbSpline
62
7
6
CONTINUOUS
70
0
71
3
72
8
73
4
74
2
42
0.0000001000
43
0.0000001000
44
0.0000000001
12
-0.0831672638
22
0.0060374188
32
0.0000000000
13
-0.0824501417
23
0.0129514318
33
0.0000000000
40
0.0000000000
40
0.0000000000
40
0.0000000000
40
0.0000000000
40
1.0000000000
40
1.0000000000
40
1.0000000000
40
1.0000000000
10
49.2816067249
20
-61.9479917931
30
0.0000000000
10
49.2538843037
20
-61.9459793201
30
0.0000000000
10
49.2262260291
20
-61.9428078280
30
0.0000000000
10
49.1987426486
20
-61.9384906840
30
0.0000000000
11
49.2816067249
21
-61.9479917931
31
0.0000000000
11
49.1987426486
21
-61.9384906840
31
0.0000000000
0
SPLINE
5
315
100
AcDbEntity
8
0
100
AcDbSpline
62
7
6
CONTINUOUS
70
0
71
3
72
17
73
13
74
11
42
0.0000001000
43
0.0000001000
44
0.0000000001
12
-1.3970990933
22
0.2194590974
32
0.0000000000
13
-0.0000839949
23
1.4129589490
33
0.0000000000
40
0.0000000000
40
0.0000000000
40
0.0000000000
40
0.0000000000
40
0.0315063940
40
0.1340747698
40
0.2453185851
40
0.3618355639
40
0.4802219516
40
0.5973849030
40
0.7106543001
40
0.8173564511
40
0.9140324810
40
1.0000000000
40
1.0000000000
40
1.0000000000
40
1.0000000000
10
49.1987426486
20
-61.9384906840
30
0.0000000000
10
49.1840701304
20
-61.9361858958
30
0.0000000000
10
49.1218436757
20
-61.9249883831
30
0.0000000000
10
49.0101970482
20
-61.8937481591
30
0.0000000000
10
48.8677983139
20
-61.8294796184
30
0.0000000000
10
48.7312667240
20
-61.7390352811
30
0.0000000000
10
48.6095149742
20
-61.6253186862
30
0.0000000000
10
48.5092666127
20
-61.4942068808
30
0.0000000000
10
48.4342635303
20
-61.3534785363
30
0.0000000000
10
48.3851915093
20
-61.2120381430
30
0.0000000000
10
48.3593686081
20
-61.0778106628
30
0.0000000000
10
48.3541254358
20
-60.9917021073
30
0.0000000000
10
48.3541230289
20
-60.9512125822
30
0.0000000000
11
49.1987426486
21
-61.9384906840
31
0.0000000000
11
49.1548914881
21
-61.9305987665
31
0.0000000000
11
49.0153275445
21
-61.8915458066
31
0.0000000000
11
48.8720627752
21
-61.8268798657
31
0.0000000000
11
48.7348135846
21
-61.7359572747
31
0.0000000000
11
48.6125683076
21
-61.6217773577
31
0.0000000000
11
48.5120150922
21
-61.4902681375
31
0.0000000000
11
48.4367393953
21
-61.3490308401
31
0.0000000000
11
48.3873172429
21
-61.2065957142
31
0.0000000000
11
48.3615108113
21
-61.0724562852
31
0.0000000000
11
48.3541230289
21
-60.9512125822
31
0.0000000000
0
SPLINE
5
316
100
AcDbEntity
8
0
100
AcDbSpline
62
7
6
CONTINUOUS
70
0
71
3
72
8
73
4
74
2
42
0.0000001000
43
0.0000001000
44
0.0000000001
12
0.0831672638
22
-0.0060374188
32
0.0000000000
13
0.0824501417
23
-0.0129514318
33
0.0000000000
40
0.0000000000
40
0.0000000000
40
0.0000000000
40
0.0000000000
40
1.0000000000
40
1.0000000000
40
1.0000000000
40
1.0000000000
10
141.3186344548
20
59.9875728294
30
0.0000000000
10
141.3463568761
20
59.9855603565
30
0.0000000000
10
141.3740151506
20
59.9823888644
30
0.0000000000
10
141.4014985312
20
59.9780717204
30
0.0000000000
11
141.3186344548
21
59.9875728294
31
0.0000000000
11
141.4014985312
21
59.9780717204
31
0.0000000000
0
SPLINE
5
317
100
AcDbEntity
8
0
100
AcDbSpline
62
7
6
CONTINUOUS
70
0
71
3
72
17
73
13
74
11
42
0.0000001000
43
0.0000001000
44
0.0000000001
12
1.3970990933
22
-0.2194590974
32
0.0000000000
13
0.0000839949
23
-1.4129589490
33
0.0000000000
40
0.0000000000
40
0.0000000000
40
0.0000000000
40
0.0000000000
40
0.0315063940
40
0.1340747698
40
0.2453185851
40
0.3618355639
40
0.4802219516
40
0.5973849030
40
0.7106543001
40
0.8173564511
40
0.9140324810
40
1.0000000000
40
1.0000000000
40
1.0000000000
40
1.0000000000
10
141.4014985312
20
59.9780717204
30
0.0000000000
10
141.4161710493
20
59.9757669322
30
0.0000000000
10
141.4783975040
20
59.9645694195
30
0.0000000000
10
141.5900441315
20
59.9333291955
30
0.0000000000
10
141.7324428659
20
59.8690606548
30
0.0000000000
10
141.8689744557
20
59.7786163175
30
0.0000000000
10
141.9907262055
20
59.6648997226
30
0.0000000000
10
142.0909745670
20
59.5337879172
30
0.0000000000
10
142.1659776494
20
59.3930595727
30
0.0000000000
10
142.2150496705
20
59.2516191794
30
0.0000000000
10
142.2408725717
20
59.1173916992
30
0.0000000000
10
142.2461157439
20
59.0312831437
30
0.0000000000
10
142.2461181508
20
58.9907936186
30
0.0000000000
11
141.4014985312
21
59.9780717204
31
0.0000000000
11
141.4453496916
21
59.9701798028
31
0.0000000000
11
141.5849136352
21
59.9311268430
31
0.0000000000
11
141.7281784045
21
59.8664609021
31
0.0000000000
11
141.8654275951
21
59.7755383111
31
0.0000000000
11
141.9876728721
21
59.6613583941
31
0.0000000000
11
142.0882260875
21
59.5298491739
31
0.0000000000
11
142.1635017844
21
59.3886118764
31
0.0000000000
11
142.2129239368
21
59.2461767506
31
0.0000000000
11
142.2387303684
21
59.1120373216
31
0.0000000000
11
142.2461181508
21
58.9907936186
31
0.0000000000
0
SPLINE
5
318
100
AcDbEntity
8
0
100
AcDbSpline
62
7
6
CONTINUOUS
70
0
71
3
72
17
73
13
74
11
42
0.0000001000
43
0.0000001000
44
0.0000000001
12
-0.0000827822
22
-1.4856416574
32
0.0000000000
13
-1.4807596530
23
-0.1234631777
33
0.0000000000
40
0.0000000000
40
0.0000000000
40
0.0000000000
40
0.0000000000
40
0.0833748751
40
0.1767643374
40
0.2790524445
40
0.3871544495
40
0.4985782553
40
0.6108481377
40
0.7210419533
40
0.8259460674
40
0.9224106164
40
1.0000000000
40
1.0000000000
40
1.0000000000
40
1.0000000000
10
142.2461181508
20
-60.9512125822
30
0.0000000000
10
142.2461158502
20
-60.9925009781
30
0.0000000000
10
142.2406745135
20
-61.0801282182
30
0.0000000000
10
142.2140132175
20
-61.2161609243
30
0.0000000000
10
142.1637757169
20
-61.3585849465
30
0.0000000000
10
142.0876446939
20
-61.4993754267
30
0.0000000000
10
141.9865582565
20
-61.6298686391
30
0.0000000000
10
141.8644719185
20
-61.7425201484
30
0.0000000000
10
141.7282328418
20
-61.8317252246
30
0.0000000000
10
141.5867578357
20
-61.8948601136
30
0.0000000000
10
141.4531789819
20
-61.9318430587
30
0.0000000000
10
141.3676056022
20
-61.9439662121
30
0.0000000000
10
141.3293085260
20
-61.9471593560
30
0.0000000000
11
142.2461181508
21
-60.9512125822
31
0.0000000000
11
142.2384360943
21
-61.0748393219
31
0.0000000000
11
142.2117508882
21
-61.2109921637
31
0.0000000000
11
142.1611966780
21
-61.3543001154
31
0.0000000000
11
142.0848055517
21
-61.4955694550
31
0.0000000000
11
141.9834312084
21
-61.6264333515
31
0.0000000000
11
141.8608507373
21
-61.7395433470
31
0.0000000000
11
141.7238909594
21
-61.8292233324
31
0.0000000000
11
141.5815720549
21
-61.8927412641
31
0.0000000000
11
141.4434563321
21
-61.9309813686
31
0.0000000000
11
141.3293085260
21
-61.9471593560
31
0.0000000000
0
SPLINE
5
319
100
AcDbEntity
8
0
100
AcDbSpline
62
7
6
CONTINUOUS
70
0
71
3
72
8
73
4
74
2
42
0.0000001000
43
0.0000001000
44
0.0000000001
12
-0.0106704145
22
-0.0008896807
32
0.0000000000
13
-0.0106774937
23
-0.0007751656
33
0.0000000000
40
0.0000000000
40
0.0000000000
40
0.0000000000
40
0.0000000000
40
1.0000000000
40
1.0000000000
40
1.0000000000
40
1.0000000000
10
141.3293085260
20
-61.9471593560
30
0.0000000000
10
141.3257517212
20
-61.9474559162
30
0.0000000000
10
141.3221936194
20
-61.9477334045
30
0.0000000000
10
141.3186344548
20
-61.9479917931
30
0.0000000000
11
141.3293085260
21
-61.9471593560
31
0.0000000000
11
141.3186344548
21
-61.9479917931
31
0.0000000000
0
SPLINE
5
31A
100
AcDbEntity
8
0
100
AcDbSpline
62
7
6
CONTINUOUS
70
0
71
3
72
13
73
9
74
7
42
0.0000001000
43
0.0000001000
44
0.0000000001
12
1.5982009129
22
-0.0000005207
32
0.0000000000
13
-1.4979748086
23
-0.5570616319
33
0.0000000000
40
0.0000000000
40
0.0000000000
40
0.0000000000
40
0.0000000000
40
0.2256554029
40
0.3632767210
40
0.5068415172
40
0.6481251526
40
0.7809165321
40
1.0000000000
40
1.0000000000
40
1.0000000000
40
1.0000000000
10
98.9501211361
20
-59.7720623763
30
0.0000000000
10
99.0703353597
20
-59.7720624155
30
0.0000000000
10
99.2693282546
20
-59.8257800868
30
0.0000000000
10
99.4746310460
20
-60.0092117787
30
0.0000000000
10
99.5741635568
20
-60.2193313871
30
0.0000000000
10
99.5717032319
20
-60.4496831658
30
0.0000000000
10
99.4576048572
20
-60.6933234422
30
0.0000000000
10
99.2944142629
20
-60.8110432068
30
0.0000000000
10
99.1850204243
20
-60.8517242048
30
0.0000000000
11
98.9501211361
21
-59.7720623763
31
0.0000000000
11
99.2975473960
21
-59.8687997888
31
0.0000000000
11
99.4608089560
21
-60.0161840818
31
0.0000000000
11
99.5572275967
21
-60.2243874162
31
0.0000000000
11
99.5552319668
21
-60.4501782249
31
0.0000000000
11
99.4659227142
21
-60.6426990887
31
0.0000000000
11
99.1850204243
21
-60.8517242048
31
0.0000000000
0
SPLINE
5
31B
100
AcDbEntity
8
0
100
AcDbSpline
62
7
6
CONTINUOUS
70
0
71
3
72
13
73
9
74
7
42
0.0000001000
43
0.0000001000
44
0.0000000001
12
0.7427844758
22
0.0000008816
32
0.0000000000
13
-0.7427843384
23
-0.0000000827
33
0.0000000000
40
0.0000000000
40
0.0000000000
40
0.0000000000
40
0.0000000000
40
0.2559150557
40
0.3844872800
40
0.4999997795
40
0.6155122789
40
0.7440845032
40
1.0000000000
40
1.0000000000
40
1.0000000000
40
1.0000000000
10
98.8997856565
20
-60.5628006673
30
0.0000000000
10
98.9631489000
20
-60.5628005921
30
0.0000000000
10
99.0634536925
20
-60.5269418012
30
0.0000000000
10
99.1383378347
20
-60.4243242609
30
0.0000000000
10
99.1576747389
20
-60.3347030833
30
0.0000000000
10
99.1383378347
20
-60.2450819057
30
0.0000000000
10
99.0634536264
20
-60.1424642750
30
0.0000000000
10
98.9631486698
20
-60.1066054923
30
0.0000000000
10
98.8997853289
20
-60.1066054994
30
0.0000000000
11
98.8997856565
21
-60.5628006673
31
0.0000000000
11
99.0777484625
21
-60.4959924317
31
0.0000000000
11
99.1337924659
21
-60.4186645973
31
0.0000000000
11
99.1514631945
21
-60.3347030833
31
0.0000000000
11
99.1337924659
21
-60.2507415694
31
0.0000000000
11
99.0777484625
21
-60.1734137350
31
0.0000000000
11
98.8997853289
21
-60.1066054994
31
0.0000000000
0
SPLINE
5
31C
100
AcDbEntity
8
0
100
AcDbSpline
62
9
6
CONTINUOUS
70
0
71
3
72
11
73
7
74
5
42
0.0000001000
43
0.0000001000
44
0.0000000001
12
0.3114554938
22
0.0008537253
32
0.0000000000
13
0.0008578433
23
0.3114554825
33
0.0000000000
40
0.0000000000
40
0.0000000000
40
0.0000000000
40
0.0000000000
40
0.2499061093
40
0.4999964824
40
0.7500890304
40
1.0000000000
40
1.0000000000
40
1.0000000000
40
1.0000000000
10
140.1744291294
20
-59.0542435164
30
0.0000000000
10
140.2003740062
20
-59.0541723994
30
0.0000000000
10
140.2528164278
20
-59.0436586633
30
0.0000000000
10
140.3190977446
20
-58.9991898506
30
0.0000000000
10
140.3635683648
20
-58.9329090828
30
0.0000000000
10
140.3740831545
20
-58.8804660393
30
0.0000000000
10
140.3741546160
20
-58.8545206587
30
0.0000000000
11
140.1744291294
21
-59.0542435164
31
0.0000000000
11
140.2507335149
21
-59.0388839590
31
0.0000000000
11
140.3154615217
21
-58.9955538586
31
0.0000000000
11
140.3587934590
21
-58.9308262664
31
0.0000000000
11
140.3741546160
21
-58.8545206587
31
0.0000000000
0
SPLINE
5
31D
100
AcDbEntity
8
0
100
AcDbSpline
62
9
6
CONTINUOUS
70
0
71
3
72
11
73
7
74
5
42
0.0000001000
43
0.0000001000
44
0.0000000001
12
0.2691517108
22
0.0077916631
32
0.0000000000
13
0.0128102082
23
0.2689595732
33
0.0000000000
40
0.0000000000
40
0.0000000000
40
0.0000000000
40
0.0000000000
40
0.2811902200
40
0.5465873462
40
0.7852199142
40
1.0000000000
40
1.0000000000
40
1.0000000000
40
1.0000000000
10
140.1980123165
20
-59.1841953774
30
0.0000000000
10
140.2232399261
20
-59.1834650643
30
0.0000000000
10
140.2723815583
20
-59.1752102117
30
0.0000000000
10
140.3365989955
20
-59.1436001831
30
0.0000000000
10
140.3826962226
20
-59.0961950336
30
0.0000000000
10
140.3960493877
20
-59.0556939341
30
0.0000000000
10
140.3969665136
20
-59.0364382140
30
0.0000000000
11
140.1980123165
21
-59.1841953774
31
0.0000000000
11
140.2726263268
21
-59.1713330193
31
0.0000000000
11
140.3363209834
21
-59.1389322409
31
0.0000000000
11
140.3798703647
21
-59.0916861694
31
0.0000000000
11
140.3969665136
21
-59.0364382140
31
0.0000000000
0
SPLINE
5
31E
100
AcDbEntity
8
0
100
AcDbSpline
62
9
6
CONTINUOUS
70
0
71
3
72
13
73
9
74
7
42
0.0000001000
43
0.0000001000
44
0.0000000001
12
0.0082001466
22
-0.4563786594
32
0.0000000000
13
-0.4544830236
23
-0.0423545089
33
0.0000000000
40
0.0000000000
40
0.0000000000
40
0.0000000000
40
0.0000000000
40
0.2185021018
40
0.4306338667
40
0.6149787527
40
0.7668716205
40
0.8925869457
40
1.0000000000
40
1.0000000000
40
1.0000000000
40
1.0000000000
10
140.4598652022
20
-60.1291690253
30
0.0000000000
10
140.4604624520
20
-60.1624089240
30
0.0000000000
10
140.4574311703
20
-60.2280835922
30
0.0000000000
10
140.4401942709
20
-60.3203957972
30
0.0000000000
10
140.4116470671
20
-60.3992861911
30
0.0000000000
10
140.3744923498
20
-60.4596685594
30
0.0000000000
10
140.3306603141
20
-60.5000954262
30
0.0000000000
10
140.2959350920
20
-60.5124026557
30
0.0000000000
10
140.2796626221
20
-60.5139191314
30
0.0000000000
11
140.4598652022
21
-60.1291690253
31
0.0000000000
11
140.4550593005
21
-60.2287889605
31
0.0000000000
11
140.4366880686
21
-60.3238582330
31
0.0000000000
11
140.4070902251
21
-60.4026255487
31
0.0000000000
11
140.3696099705
21
-60.4609533831
31
0.0000000000
11
140.3261965292
21
-60.4984778790
31
0.0000000000
11
140.2796626221
21
-60.5139191314
31
0.0000000000
0
SPLINE
5
31F
100
AcDbEntity
8
0
100
AcDbSpline
62
9
6
CONTINUOUS
70
0
71
3
72
12
73
8
74
6
42
0.0000001000
43
0.0000001000
44
0.0000000001
12
-0.1301636210
22
-0.1301112723
32
0.0000000000
13
-0.0105602928
23
-0.1837389225
33
0.0000000000
40
0.0000000000
40
0.0000000000
40
0.0000000000
40
0.0000000000
40
0.0670297177
40
0.2047520310
40
0.4135534471
40
0.6840956390
40
1.0000000000
40
1.0000000000
40
1.0000000000
40
1.0000000000
10
50.2260866182
20
-58.8545205100
30
0.0000000000
10
50.2231783413
20
-58.8574276172
30
0.0000000000
10
50.2199771638
20
-58.8704250946
30
0.0000000000
10
50.2151069922
20
-58.8947139727
30
0.0000000000
10
50.2108952181
20
-58.9326730129
30
0.0000000000
10
50.2066719524
20
-58.9811463841
30
0.0000000000
10
50.2043867217
20
-59.0170898497
30
0.0000000000
10
50.2032747075
20
-59.0364378254
30
0.0000000000
11
50.2260866182
21
-58.8545205100
31
0.0000000000
11
50.2211670593
21
-58.8658334259
31
0.0000000000
11
50.2162150433
21
-58.8906916891
31
0.0000000000
11
50.2114544106
21
-58.9288239273
31
0.0000000000
11
50.2070893179
21
-58.9784233843
31
0.0000000000
11
50.2032747075
21
-59.0364378254
31
0.0000000000
0
SPLINE
5
320
100
AcDbEntity
8
0
100
AcDbSpline
62
9
6
CONTINUOUS
70
0
71
3
72
11
73
7
74
5
42
0.0000001000
43
0.0000001000
44
0.0000000001
12
0.0008576964
22
-0.3114555386
32
0.0000000000
13
0.3114555494
23
-0.0008537830
33
0.0000000000
40
0.0000000000
40
0.0000000000
40
0.0000000000
40
0.0000000000
40
0.2499108825
40
0.5000033914
40
0.7500937607
40
1.0000000000
40
1.0000000000
40
1.0000000000
40
1.0000000000
10
50.2260866182
20
-58.8545205100
30
0.0000000000
10
50.2261580674
20
-58.8804658861
30
0.0000000000
10
50.2366728298
20
-58.9329089306
30
0.0000000000
10
50.2811434149
20
-58.9991897226
30
0.0000000000
10
50.3474247295
20
-59.0436585817
30
0.0000000000
10
50.3998671726
20
-59.0541723398
30
0.0000000000
10
50.4258120677
20
-59.0542434617
30
0.0000000000
11
50.2260866182
21
-58.8545205100
31
0.0000000000
11
50.2414477341
21
-58.9308261124
31
0.0000000000
11
50.2847796379
21
-58.9955537292
31
0.0000000000
11
50.3495076338
21
-59.0388838688
31
0.0000000000
11
50.4258120677
21
-59.0542434617
31
0.0000000000
0
SPLINE
5
321
100
AcDbEntity
8
0
100
AcDbSpline
62
9
6
CONTINUOUS
70
0
71
3
72
11
73
7
74
5
42
0.0000001000
43
0.0000001000
44
0.0000000001
12
0.0128106469
22
-0.2689594224
32
0.0000000000
13
0.2691515825
23
-0.0077916102
33
0.0000000000
40
0.0000000000
40
0.0000000000
40
0.0000000000
40
0.0000000000
40
0.2147800999
40
0.4534126938
40
0.7188098160
40
1.0000000000
40
1.0000000000
40
1.0000000000
40
1.0000000000
10
50.2032747075
20
-59.0364378254
30
0.0000000000
10
50.2041918649
20
-59.0556935359
30
0.0000000000
10
50.2175450816
20
-59.0961945963
30
0.0000000000
10
50.2636423256
20
-59.1435996836
30
0.0000000000
10
50.3278597442
20
-59.1752096646
30
0.0000000000
10
50.3770013502
20
-59.1834644996
30
0.0000000000
10
50.4022289446
20
-59.1841948077
30
0.0000000000
11
50.2032747075
21
-59.0364378254
31
0.0000000000
11
50.2203709274
21
-59.0916857336
31
0.0000000000
11
50.2639203346
21
-59.1389317487
31
0.0000000000
11
50.3276149763
21
-59.1713324780
31
0.0000000000
11
50.4022289446
21
-59.1841948077
31
0.0000000000
0
SPLINE
5
322
100
AcDbEntity
8
0
100
AcDbSpline
62
9
6
CONTINUOUS
70
0
71
3
72
14
73
10
74
8
42
0.0000001000
43
0.0000001000
44
0.0000000001
12
-0.4546050735
22
0.0418146345
32
0.0000000000
13
0.0081870671
23
0.4564506637
33
0.0000000000
40
0.0000000000
40
0.0000000000
40
0.0000000000
40
0.0000000000
40
0.1119245332
40
0.2463263329
40
0.3953151302
40
0.5461944432
40
0.6977362921
40
0.8492402112
40
1.0000000000
40
1.0000000000
40
1.0000000000
40
1.0000000000
10
50.3205785578
20
-60.5139191314
30
0.0000000000
10
50.3036180709
20
-60.5123591036
30
0.0000000000
10
50.2669832760
20
-60.4988659038
30
0.0000000000
10
50.2229796677
20
-60.4561877788
30
0.0000000000
10
50.1890728308
20
-60.3989021502
30
0.0000000000
10
50.1650065235
20
-60.3342928912
30
0.0000000000
10
50.1494807880
20
-60.2668270843
30
0.0000000000
10
50.1411875238
20
-60.1981615129
30
0.0000000000
10
50.1399645506
20
-60.1521071604
30
0.0000000000
10
50.1403759775
20
-60.1291690252
30
0.0000000000
11
50.3205785578
21
-60.5139191314
31
0.0000000000
11
50.2722288084
21
-60.4973925484
31
0.0000000000
11
50.2267218432
21
-60.4562357952
31
0.0000000000
11
50.1910535986
21
-60.3983213320
31
0.0000000000
11
50.1664803647
21
-60.3339737132
31
0.0000000000
11
50.1506865491
21
-60.2666181333
31
0.0000000000
11
50.1422544441
21
-60.1979688598
31
0.0000000000
11
50.1403759775
21
-60.1291690252
31
0.0000000000
0
SPLINE
5
323
100
AcDbEntity
8
0
100
AcDbSpline
62
9
6
CONTINUOUS
70
0
71
3
72
10
73
6
74
4
42
0.0000001000
43
0.0000001000
44
0.0000000001
12
-0.0627944026
22
-1.0927372018
32
0.0000000000
13
-0.0630044678
23
-1.0927251100
33
0.0000000000
40
0.0000000000
40
0.0000000000
40
0.0000000000
40
0.0000000000
40
0.3342624021
40
0.6675926633
40
1.0000000000
40
1.0000000000
40
1.0000000000
40
1.0000000000
10
50.2032747075
20
-59.0364378254
30
0.0000000000
10
50.1962781049
20
-59.1581914793
30
0.0000000000
10
50.1822972414
20
-59.4013588470
30
0.0000000000
10
50.1613306383
20
-59.7656025604
30
0.0000000000
10
50.1473570266
20
-60.0080924109
30
0.0000000000
10
50.1403759775
20
-60.1291690254
30
0.0000000000
11
50.2032747075
21
-59.0364378254
31
0.0000000000
11
50.1822736372
21
-59.4016981399
31
0.0000000000
11
50.1613074381
21
-59.7659385082
31
0.0000000000
11
50.1403759775
21
-60.1291690254
31
0.0000000000
0
SPLINE
5
324
100
AcDbEntity
8
0
100
AcDbSpline
62
9
6
CONTINUOUS
70
0
71
3
72
11
73
7
74
5
42
0.0000001000
43
0.0000001000
44
0.0000000001
12
-0.3114552708
22
-0.0008538234
32
0.0000000000
13
-0.0008580965
23
-0.3114552590
33
0.0000000000
40
0.0000000000
40
0.0000000000
40
0.0000000000
40
0.0000000000
40
0.2499061257
40
0.4999963711
40
0.7500889022
40
1.0000000000
40
1.0000000000
40
1.0000000000
40
1.0000000000
10
50.4258119247
20
57.0938246142
30
0.0000000000
10
50.3998670647
20
57.0937534889
30
0.0000000000
10
50.3474246962
20
57.0832397530
30
0.0000000000
10
50.2811434345
20
57.0387709945
30
0.0000000000
10
50.2366728105
20
56.9724903040
30
0.0000000000
10
50.2261579854
20
56.9200472949
30
0.0000000000
10
50.2260865028
20
56.8941019197
30
0.0000000000
11
50.4258119247
21
57.0938246142
31
0.0000000000
11
50.3495075917
21
57.0784650523
31
0.0000000000
11
50.2847796565
21
57.0351350166
31
0.0000000000
11
50.2414477157
21
56.9704075000
31
0.0000000000
11
50.2260865028
21
56.8941019197
31
0.0000000000
0
SPLINE
5
325
100
AcDbEntity
8
0
100
AcDbSpline
62
9
6
CONTINUOUS
70
0
71
3
72
11
73
7
74
5
42
0.0000001000
43
0.0000001000
44
0.0000000001
12
-0.2691519262
22
-0.0077915901
32
0.0000000000
13
-0.0128098726
23
-0.2689598026
33
0.0000000000
40
0.0000000000
40
0.0000000000
40
0.0000000000
40
0.0000000000
40
0.2811902449
40
0.5465873831
40
0.7852199342
40
1.0000000000
40
1.0000000000
40
1.0000000000
40
1.0000000000
10
50.4022289088
20
57.2237769715
30
0.0000000000
10
50.3770012768
20
57.2230466651
30
0.0000000000
10
50.3278595996
20
57.2147918137
30
0.0000000000
10
50.2636421104
20
57.1831817545
30
0.0000000000
10
50.2175448645
20
57.1357765476
30
0.0000000000
10
50.2041917291
20
57.0952754015
30
0.0000000000
10
50.2032746274
20
57.0760196668
30
0.0000000000
11
50.4022289088
21
57.2237769715
31
0.0000000000
11
50.3276148306
21
57.2109146148
31
0.0000000000
11
50.2639201237
21
57.1785138036
31
0.0000000000
11
50.2203707328
21
57.1312676779
31
0.0000000000
11
50.2032746274
21
57.0760196668
31
0.0000000000
0
SPLINE
5
326
100
AcDbEntity
8
0
100
AcDbSpline
62
9
6
CONTINUOUS
70
0
71
3
72
13
73
9
74
7
42
0.0000001000
43
0.0000001000
44
0.0000000001
12
-0.0082001476
22
0.4563786595
32
0.0000000000
13
0.4544830237
23
0.0423545082
33
0.0000000000
40
0.0000000000
40
0.0000000000
40
0.0000000000
40
0.0000000000
40
0.2185019517
40
0.4306337791
40
0.6149787351
40
0.7668716040
40
0.8925869472
40
1.0000000000
40
1.0000000000
40
1.0000000000
40
1.0000000000
10
50.1403759775
20
58.1687500615
30
0.0000000000
10
50.1397787281
20
58.2019899375
30
0.0000000000
10
50.1428100064
20
58.2676645921
30
0.0000000000
10
50.1600468972
20
58.3599767961
30
0.0000000000
10
50.1885941035
20
58.4388672112
30
0.0000000000
10
50.2257488266
20
58.4992495919
30
0.0000000000
10
50.2695808636
20
58.5396764616
30
0.0000000000
10
50.3043060880
20
58.5519836921
30
0.0000000000
10
50.3205785577
20
58.5535001678
30
0.0000000000
11
50.1403759775
21
58.1687500615
31
0.0000000000
11
50.1451818712
21
58.2683699286
31
0.0000000000
11
50.1635531002
21
58.3634392307
31
0.0000000000
11
50.1931509510
21
58.4422065778
31
0.0000000000
11
50.2306312044
21
58.5005344136
31
0.0000000000
11
50.2740446513
21
58.5380589157
31
0.0000000000
11
50.3205785577
21
58.5535001678
31
0.0000000000
0
SPLINE
5
327
100
AcDbEntity
8
0
100
AcDbSpline
62
9
6
CONTINUOUS
70
0
71
3
72
11
73
7
74
5
42
0.0000001000
43
0.0000001000
44
0.0000000001
12
-0.0008576008
22
0.3114556270
32
0.0000000000
13
-0.3114556376
23
0.0008537396
33
0.0000000000
40
0.0000000000
40
0.0000000000
40
0.0000000000
40
0.0000000000
40
0.2499108374
40
0.5000033558
40
0.7500937765
40
1.0000000000
40
1.0000000000
40
1.0000000000
40
1.0000000000
10
140.3741545400
20
56.8941014630
30
0.0000000000
10
140.3740830988
20
56.9200468419
30
0.0000000000
10
140.3635683492
20
56.9724899008
30
0.0000000000
10
140.3190977633
20
57.0387707230
30
0.0000000000
10
140.2528164261
20
57.0832396014
30
0.0000000000
10
140.2003739628
20
57.0937533581
30
0.0000000000
10
140.1744290620
20
57.0938244764
30
0.0000000000
11
140.3741545400
21
56.8941014630
31
0.0000000000
11
140.3587934445
21
56.9704070777
31
0.0000000000
11
140.3154615398
21
57.0351347241
31
0.0000000000
11
140.2507335142
21
57.0784648876
31
0.0000000000
11
140.1744290620
21
57.0938244764
31
0.0000000000
0
SPLINE
5
328
100
AcDbEntity
8
0
100
AcDbSpline
62
9
6
CONTINUOUS
70
0
71
3
72
11
73
7
74
5
42
0.0000001000
43
0.0000001000
44
0.0000000001
12
-0.0128107552
22
0.2689593391
32
0.0000000000
13
-0.2691515035
23
0.0077916431
33
0.0000000000
40
0.0000000000
40
0.0000000000
40
0.0000000000
40
0.0000000000
40
0.2147801071
40
0.4534127062
40
0.7188098238
40
1.0000000000
40
1.0000000000
40
1.0000000000
40
1.0000000000
10
140.3969664589
20
57.0760187150
30
0.0000000000
10
140.3960492938
20
57.0952744202
30
0.0000000000
10
140.3826960683
20
57.1357754642
30
0.0000000000
10
140.3365988330
20
57.1831805322
30
0.0000000000
10
140.2723814342
20
57.2147905038
30
0.0000000000
10
140.2232398447
20
57.2230453403
30
0.0000000000
10
140.1980122585
20
57.2237756515
30
0.0000000000
11
140.3969664589
21
57.0760187150
31
0.0000000000
11
140.3798702259
21
57.1312666036
31
0.0000000000
11
140.3363208242
21
57.1785126003
31
0.0000000000
11
140.2726262020
21
57.2109133194
31
0.0000000000
11
140.1980122585
21
57.2237756515
31
0.0000000000
0
SPLINE
5
329
100
AcDbEntity
8
0
100
AcDbSpline
62
9
6
CONTINUOUS
70
0
71
3
72
14
73
10
74
8
42
0.0000001000
43
0.0000001000
44
0.0000000001
12
0.4546050733
22
-0.0418146364
32
0.0000000000
13
-0.0081870670
23
-0.4564506638
33
0.0000000000
40
0.0000000000
40
0.0000000000
40
0.0000000000
40
0.0000000000
40
0.1119245131
40
0.2463262916
40
0.3953150756
40
0.5461943928
40
0.6977362562
40
0.8492401918
40
1.0000000000
40
1.0000000000
40
1.0000000000
40
1.0000000000
10
140.2796626220
20
58.5535001678
30
0.0000000000
10
140.2966231059
20
58.5519401402
30
0.0000000000
10
140.3332578949
20
58.5384469446
30
0.0000000000
10
140.3772615007
20
58.4957688293
30
0.0000000000
10
140.4111683393
20
58.4384832071
30
0.0000000000
10
140.4352346503
20
58.3738739484
30
0.0000000000
10
140.4507603893
20
58.3064081368
30
0.0000000000
10
140.4590536556
20
58.2377425578
30
0.0000000000
10
140.4602766291
20
58.1916881998
30
0.0000000000
10
140.4598652022
20
58.1687500616
30
0.0000000000
11
140.2796626220
21
58.5535001678
31
0.0000000000
11
140.3280123634
21
58.5369735895
31
0.0000000000
11
140.3735193246
21
58.4958168464
31
0.0000000000
11
140.4091875703
21
58.4379023911
31
0.0000000000
11
140.4337608084
21
58.3735547718
31
0.0000000000
11
140.4495546278
21
58.3061991859
31
0.0000000000
11
140.4579867350
21
58.2375499051
31
0.0000000000
11
140.4598652022
21
58.1687500616
31
0.0000000000
0
SPLINE
5
32A
100
AcDbEntity
8
0
100
AcDbSpline
62
9
6
CONTINUOUS
70
0
71
3
72
13
73
9
74
7
42
0.0000001000
43
0.0000001000
44
0.0000000001
12
0.1094723581
22
-0.0756656545
32
0.0000000000
13
0.0110372907
23
-0.1326185005
33
0.0000000000
40
0.0000000000
40
0.0000000000
40
0.0000000000
40
0.0000000000
40
0.0580120145
40
0.1633208406
40
0.3173666772
40
0.5149680397
40
0.7466346381
40
1.0000000000
40
1.0000000000
40
1.0000000000
40
1.0000000000
10
140.1744280973
20
-59.0542486060
30
0.0000000000
10
140.1765450013
20
-59.0557117783
30
0.0000000000
10
140.1799456812
20
-59.0626376435
30
0.0000000000
10
140.1839351440
20
-59.0758772843
30
0.0000000000
10
140.1879131892
20
-59.0959045043
30
0.0000000000
10
140.1916834127
20
-59.1214568921
30
0.0000000000
10
140.1951194958
20
-59.1515643061
30
0.0000000000
10
140.1970790306
20
-59.1729872707
30
0.0000000000
10
140.1980111863
20
-59.1841875821
30
0.0000000000
11
140.1744280973
21
-59.0542486060
31
0.0000000000
11
140.1787908311
21
-59.0606177470
31
0.0000000000
11
140.1831572288
21
-59.0739343491
31
0.0000000000
11
140.1873827138
21
-59.0939940989
31
0.0000000000
11
140.1913331708
21
-59.1199918653
31
0.0000000000
11
140.1949003350
21
-59.1506142948
31
0.0000000000
11
140.1980111863
21
-59.1841875821
31
0.0000000000
0
SPLINE
5
32B
100
AcDbEntity
8
0
100
AcDbSpline
62
9
6
CONTINUOUS
70
0
71
3
72
12
73
8
74
6
42
0.0000001000
43
0.0000001000
44
0.0000000001
12
-0.1094461146
22
-0.0756444572
32
0.0000000000
13
-0.0110360074
23
-0.1325848500
33
0.0000000000
40
0.0000000000
40
0.0000000000
40
0.0000000000
40
0.0000000000
40
0.0717518739
40
0.2106419469
40
0.4186825590
40
0.6871309754
40
1.0000000000
40
1.0000000000
40
1.0000000000
40
1.0000000000
10
50.4258131889
20
-59.0542482739
30
0.0000000000
10
50.4231955343
20
-59.0560574844
30
0.0000000000
10
50.4193156596
20
-59.0653431879
30
0.0000000000
10
50.4146267508
20
-59.0828430349
30
0.0000000000
10
50.4100626289
20
-59.1100103768
30
0.0000000000
10
50.4057711800
20
-59.1446612189
30
0.0000000000
10
50.4033810511
20
-59.1703601440
30
0.0000000000
10
50.4022301095
20
-59.1841873749
30
0.0000000000
11
50.4258131889
21
-59.0542482739
31
0.0000000000
11
50.4207287647
21
-59.0623276833
31
0.0000000000
11
50.4156114967
21
-59.0800833842
31
0.0000000000
11
50.4106905207
21
-59.1073208410
31
0.0000000000
11
50.4061769429
21
-59.1427497671
31
0.0000000000
11
50.4022301095
21
-59.1841873749
31
0.0000000000
0
SPLINE
5
32C
100
AcDbEntity
8
0
100
AcDbSpline
62
9
6
CONTINUOUS
70
0
71
3
72
13
73
9
74
7
42
0.0000001000
43
0.0000001000
44
0.0000000001
12
-0.1094738102
22
0.0756636805
32
0.0000000000
13
-0.0110370859
23
0.1326185899
33
0.0000000000
40
0.0000000000
40
0.0000000000
40
0.0000000000
40
0.0000000000
40
0.0580136548
40
0.1633220131
40
0.3173674405
40
0.5149684689
40
0.7466348088
40
1.0000000000
40
1.0000000000
40
1.0000000000
40
1.0000000000
10
50.4258131158
20
57.0938298748
30
0.0000000000
10
50.4236961239
20
57.0952930503
30
0.0000000000
10
50.4202953186
20
57.1022189473
30
0.0000000000
10
50.4163060039
20
57.1154586783
30
0.0000000000
10
50.4123279968
20
57.1354858551
30
0.0000000000
10
50.4085578548
20
57.1610382278
30
0.0000000000
10
50.4051218730
20
57.1911456334
30
0.0000000000
10
50.4031622651
20
57.2125685841
30
0.0000000000
10
50.4022301274
20
57.2237688956
30
0.0000000000
11
50.4258131158
21
57.0938298748
31
0.0000000000
11
50.4214501854
21
57.1001991507
31
0.0000000000
11
50.4170838761
21
57.1135157243
31
0.0000000000
11
50.4128584743
21
57.1335754473
31
0.0000000000
11
50.4089080938
21
57.1595731948
31
0.0000000000
11
50.4053409982
21
57.1901956145
31
0.0000000000
11
50.4022301274
21
57.2237688956
31
0.0000000000
0
SPLINE
5
32D
100
AcDbEntity
8
0
100
AcDbSpline
62
9
6
CONTINUOUS
70
0
71
3
72
12
73
8
74
6
42
0.0000001000
43
0.0000001000
44
0.0000000001
12
0.1094454757
22
0.0756453203
32
0.0000000000
13
0.0110360943
23
0.1325848078
33
0.0000000000
40
0.0000000000
40
0.0000000000
40
0.0000000000
40
0.0000000000
40
0.0717509504
40
0.2106409104
40
0.4186815372
40
0.6871302777
40
1.0000000000
40
1.0000000000
40
1.0000000000
40
1.0000000000
10
140.1744280108
20
57.0938292338
30
0.0000000000
10
140.1770456164
20
57.0956384417
30
0.0000000000
10
140.1809254395
20
57.1049240895
30
0.0000000000
10
140.1856144209
20
57.1224238732
30
0.0000000000
10
140.1901785610
20
57.1495912144
30
0.0000000000
10
140.1944700764
20
57.1842420857
30
0.0000000000
10
140.1968601781
20
57.2099410524
30
0.0000000000
10
140.1980111313
20
57.2237683097
30
0.0000000000
11
140.1744280108
21
57.0938292338
31
0.0000000000
11
140.1795123421
21
57.1019085535
31
0.0000000000
11
140.1846296503
21
57.1196642221
31
0.0000000000
11
140.1895506700
21
57.1469016657
31
0.0000000000
11
140.1940642917
21
57.1823306203
31
0.0000000000
11
140.1980111313
21
57.2237683097
31
0.0000000000
0
SPLINE
5
32E
100
AcDbEntity
8
0
100
AcDbSpline
62
7
6
CONTINUOUS
70
0
71
3
72
8
73
4
74
2
42
0.0000001000
43
0.0000001000
44
0.0000000001
12
0.0618594153
22
0.0328302503
32
0.0000000000
13
0.0641079214
23
0.0284549928
33
0.0000000000
40
0.0000000000
40
0.0000000000
40
0.0000000000
40
0.0000000000
40
1.0000000000
40
1.0000000000
40
1.0000000000
40
1.0000000000
10
48.8312062492
20
59.9241613804
30
0.0000000000
10
48.8518260543
20
59.9351047972
30
0.0000000000
10
48.8728503844
20
59.9453321768
30
0.0000000000
10
48.8942196915
20
59.9548171745
30
0.0000000000
11
48.8312062492
21
59.9241613804
31
0.0000000000
11
48.8942196915
21
59.9548171745
31
0.0000000000
0
SPLINE
5
32F
100
AcDbEntity
8
0
100
AcDbSpline
62
7
6
CONTINUOUS
70
0
71
3
72
9
73
5
74
3
42
0.0000001000
43
0.0000001000
44
0.0000000001
12
0.1887810932
22
0.0837925259
32
0.0000000000
13
0.2021291540
23
0.0432945366
33
0.0000000000
40
0.0000000000
40
0.0000000000
40
0.0000000000
40
0.0000000000
40
0.6680235937
40
1.0000000000
40
1.0000000000
40
1.0000000000
40
1.0000000000
10
48.8942196915
20
59.9548171745
30
0.0000000000
10
48.9362564329
20
59.9734756359
30
0.0000000000
10
49.0011818325
20
59.9971060380
30
0.0000000000
10
49.0680829171
20
60.0138494865
30
0.0000000000
10
49.0904502872
20
60.0186404081
30
0.0000000000
11
48.8942196915
21
59.9548171745
31
0.0000000000
11
49.0238814908
21
60.0019736271
31
0.0000000000
11
49.0904502872
21
60.0186404081
31
0.0000000000
0
SPLINE
5
330
100
AcDbEntity
8
0
100
AcDbSpline
62
7
6
CONTINUOUS
70
0
71
3
72
8
73
4
74
2
42
0.0000001000
43
0.0000001000
44
0.0000000001
12
0.1351974433
22
0.0289582702
32
0.0000000000
13
0.1375696785
23
0.0100556379
33
0.0000000000
40
0.0000000000
40
0.0000000000
40
0.0000000000
40
0.0000000000
40
1.0000000000
40
1.0000000000
40
1.0000000000
40
1.0000000000
10
49.0904502872
20
60.0186404081
30
0.0000000000
10
49.1355161016
20
60.0282931648
30
0.0000000000
10
49.1812224463
20
60.0348302786
30
0.0000000000
10
49.2270790058
20
60.0381821578
30
0.0000000000
11
49.0904502872
21
60.0186404081
31
0.0000000000
11
49.2270790058
21
60.0381821578
31
0.0000000000
0
SPLINE
5
331
100
AcDbEntity
8
0
100
AcDbSpline
62
7
6
CONTINUOUS
70
0
71
3
72
8
73
4
74
2
42
0.0000001000
43
0.0000001000
44
0.0000000001
12
0.0000000000
22
0.1438598467
32
0.0000000000
13
0.0207092233
23
0.1427378510
33
0.0000000000
40
0.0000000000
40
0.0000000000
40
0.0000000000
40
0.0000000000
40
1.0000000000
40
1.0000000000
40
1.0000000000
40
1.0000000000
10
48.2997992874
20
59.0412935042
30
0.0000000000
10
48.2997992874
20
59.0892467864
30
0.0000000000
10
48.3032771620
20
59.1373066744
30
0.0000000000
10
48.3101802364
20
59.1848859581
30
0.0000000000
11
48.2997992874
21
59.0412935042
31
0.0000000000
11
48.3101802364
21
59.1848859581
31
0.0000000000
0
SPLINE
5
332
100
AcDbEntity
8
0
100
AcDbSpline
62
7
6
CONTINUOUS
70
0
71
3
72
9
73
5
74
3
42
0.0000001000
43
0.0000001000
44
0.0000000001
12
0.0207731714
22
0.1431786119
32
0.0000000000
13
0.0412108941
23
0.1386028398
33
0.0000000000
40
0.0000000000
40
0.0000000000
40
0.0000000000
40
0.0000000000
40
0.4966766924
40
1.0000000000
40
1.0000000000
40
1.0000000000
40
1.0000000000
10
48.3101802364
20
59.1848859581
30
0.0000000000
10
48.3136194198
20
59.2085904512
30
0.0000000000
10
48.3222555498
20
59.2560764737
30
0.0000000000
10
48.3343116603
20
59.3027845555
30
0.0000000000
10
48.3412257948
20
59.3260385687
30
0.0000000000
11
48.3101802364
21
59.1848859581
31
0.0000000000
11
48.3230418160
21
59.2555689439
31
0.0000000000
11
48.3412257948
21
59.3260385687
31
0.0000000000
0
SPLINE
5
333
100
AcDbEntity
8
0
100
AcDbSpline
62
7
6
CONTINUOUS
70
0
71
3
72
11
73
7
74
5
42
0.0000001000
43
0.0000001000
44
0.0000000001
12
0.2262917467
22
0.7610773654
32
0.0000000000
13
0.7001730363
23
0.3709836532
33
0.0000000000
40
0.0000000000
40
0.0000000000
40
0.0000000000
40
0.0000000000
40
0.1847225194
40
0.4601996173
40
0.7303109756
40
1.0000000000
40
1.0000000000
40
1.0000000000
40
1.0000000000
10
48.3412257948
20
59.3260385687
30
0.0000000000
10
48.3551595220
20
59.3729012782
30
0.0000000000
10
48.3984324240
20
59.4870678550
30
0.0000000000
10
48.4993023322
20
59.6533438346
30
0.0000000000
10
48.6490507181
20
59.8102711375
30
0.0000000000
10
48.7682632548
20
59.8908113072
30
0.0000000000
10
48.8312062492
20
59.9241613804
30
0.0000000000
11
48.3412257948
21
59.3260385687
31
0.0000000000
11
48.3931677268
21
59.4630406450
31
0.0000000000
11
48.5063803472
21
59.6496701099
31
0.0000000000
11
48.6541519387
21
59.8045026891
31
0.0000000000
11
48.8312062492
21
59.9241613804
31
0.0000000000
0
SPLINE
5
334
100
AcDbEntity
8
0
100
AcDbSpline
62
9
6
CONTINUOUS
70
0
71
3
72
12
73
8
74
6
42
0.0000001000
43
0.0000001000
44
0.0000000001
12
-91.8734406751
22
-6.6532421921
32
0.0000000000
13
-91.8734406859
23
6.6532420430
33
0.0000000000
40
0.0000000000
40
0.0000000000
40
0.0000000000
40
0.0000000000
40
0.2000272699
40
0.4000134829
40
0.5999859907
40
0.7999722211
40
1.0000000000
40
1.0000000000
40
1.0000000000
40
1.0000000000
10
141.3186344548
20
-61.9479917931
30
0.0000000000
10
135.1929032832
20
-62.3916017503
30
0.0000000000
10
122.9291270861
20
-63.1016211459
30
0.0000000000
10
104.5120195235
20
-63.6342612299
30
0.0000000000
10
86.0882696187
20
-63.6342619296
30
0.0000000000
10
67.6711458573
20
-63.1016227631
30
0.0000000000
10
55.4073534840
20
-62.3916028691
30
0.0000000000
10
49.2816067249
20
-61.9479917931
30
0.0000000000
11
141.3186344548
21
-61.9479917931
31
0.0000000000
11
122.9241185605
21
-63.0129493706
31
0.0000000000
11
104.5102817392
21
-63.5455011712
31
0.0000000000
11
86.0900079330
21
-63.5455018723
31
0.0000000000
11
67.6761694628
21
-63.0129514034
31
0.0000000000
11
49.2816067249
21
-61.9479917931
31
0.0000000000
0
SPLINE
5
335
100
AcDbEntity
8
0
100
AcDbSpline
62
9
6
CONTINUOUS
70
0
71
3
72
12
73
8
74
6
42
0.0000001000
43
0.0000001000
44
0.0000000001
12
91.8734406751
22
6.6532421921
32
0.0000000000
13
91.8734406859
23
-6.6532420431
33
0.0000000000
40
0.0000000000
40
0.0000000000
40
0.0000000000
40
0.0000000000
40
0.2000278538
40
0.4000140656
40
0.5999865733
40
0.7999728047
40
1.0000000000
40
1.0000000000
40
1.0000000000
40
1.0000000000
10
49.2816067249
20
59.9875728294
30
0.0000000000
10
55.4073557770
20
60.4311840815
30
0.0000000000
10
67.6711498815
20
61.1412039945
30
0.0000000000
10
86.0882753707
20
61.6738430423
30
0.0000000000
10
104.5120252657
20
61.6738421899
30
0.0000000000
10
122.9291310979
20
61.1412019879
30
0.0000000000
10
135.1929055665
20
60.4311826113
30
0.0000000000
10
141.3186344548
20
59.9875728294
30
0.0000000000
11
49.2816067249
21
59.9875728294
31
0.0000000000
11
67.6761763562
21
61.0525327390
31
0.0000000000
11
86.0900131145
21
61.5850829836
31
0.0000000000
11
104.5102869125
21
61.5850821328
31
0.0000000000
11
122.9241254248
21
61.0525301090
31
0.0000000000
11
141.3186344548
21
59.9875728294
31
0.0000000000
0
SPLINE
5
336
100
AcDbEntity
8
0
100
AcDbSpline
62
9
6
CONTINUOUS
70
0
71
3
72
17
73
13
74
11
42
0.0000001000
43
0.0000001000
44
0.0000000001
12
1.1940795960
22
-0.0864597416
32
0.0000000000
13
0.0000067850
23
-1.1972056500
33
0.0000000000
40
0.0000000000
40
0.0000000000
40
0.0000000000
40
0.0000000000
40
0.0854763236
40
0.1823097684
40
0.2873375597
40
0.3973693565
40
0.5092011254
40
0.6198873177
40
0.7268539715
40
0.8275856734
40
0.9188437025
40
1.0000000000
40
1.0000000000
40
1.0000000000
40
1.0000000000
10
141.3108890076
20
59.7881341951
30
0.0000000000
10
141.3449108522
20
59.7856707749
30
0.0000000000
10
141.4172181801
20
59.7757636717
30
0.0000000000
10
141.5280282081
20
59.7447911126
30
0.0000000000
10
141.6419660661
20
59.6934131534
30
0.0000000000
10
141.7512396987
20
59.6210803082
30
0.0000000000
10
141.8487080821
20
59.5300959887
30
0.0000000000
10
141.9289579052
20
59.4251736383
30
0.0000000000
10
141.9889788647
20
59.3125675494
30
0.0000000000
10
142.0282328940
20
59.1994193672
30
0.0000000000
10
142.0488836928
20
59.0920546348
30
0.0000000000
10
142.0530747918
20
59.0231805446
30
0.0000000000
10
142.0530749754
20
58.9907936186
30
0.0000000000
11
141.3108890076
21
59.7881341951
31
0.0000000000
11
141.4122739553
21
59.7742388168
31
0.0000000000
11
141.5239235946
21
59.7430295556
31
0.0000000000
11
141.6385464845
21
59.6913371307
31
0.0000000000
11
141.7483904424
21
59.6186234505
31
0.0000000000
11
141.8462599335
21
59.5272619518
31
0.0000000000
11
141.9267654503
21
59.4220057992
31
0.0000000000
11
141.9870024254
21
59.3089962967
31
0.0000000000
11
142.0265330112
21
59.1950627033
31
0.0000000000
11
142.0471697367
21
59.0877747762
31
0.0000000000
11
142.0530749754
21
58.9907936186
31
0.0000000000
0
SPLINE
5
337
100
AcDbEntity
8
0
100
AcDbSpline
62
9
6
CONTINUOUS
70
0
71
3
72
17
73
13
74
11
42
0.0000001000
43
0.0000001000
44
0.0000000001
12
0.0000020337
22
-1.1972074345
32
0.0000000000
13
-1.1940806255
23
-0.0864702326
33
0.0000000000
40
0.0000000000
40
0.0000000000
40
0.0000000000
40
0.0000000000
40
0.0827624008
40
0.1754513787
40
0.2769685679
40
0.3842766611
40
0.4949180986
40
0.6064388720
40
0.7158885362
40
0.8200516320
40
0.9158164112
40
1.0000000000
40
1.0000000000
40
1.0000000000
40
1.0000000000
10
142.0530749754
20
-60.9512125822
30
0.0000000000
10
142.0530750315
20
-60.9842405027
30
0.0000000000
10
142.0487247518
20
-61.0543308178
30
0.0000000000
10
142.0274033926
20
-61.1631350427
30
0.0000000000
10
141.9872234103
20
-61.2770526880
30
0.0000000000
10
141.9263199427
20
-61.3896814345
30
0.0000000000
10
141.8454230569
20
-61.4940979179
30
0.0000000000
10
141.7476942291
20
-61.5842439039
30
0.0000000000
10
141.6386351557
20
-61.6556100902
30
0.0000000000
10
141.5254113401
20
-61.7060961263
30
0.0000000000
10
141.4157697677
20
-61.7364186205
30
0.0000000000
10
141.3443963383
20
-61.7461267006
30
0.0000000000
10
141.3108890076
20
-61.7485531588
30
0.0000000000
11
142.0530749754
21
-60.9512125822
31
0.0000000000
11
142.0469335256
21
-61.0501058297
31
0.0000000000
11
142.0255933199
21
-61.1590024681
31
0.0000000000
11
141.9851633287
21
-61.2736178715
31
0.0000000000
11
141.9240551140
21
-61.3866237963
31
0.0000000000
11
141.8429294873
21
-61.4913352254
31
0.0000000000
11
141.7447920060
21
-61.5818608527
31
0.0000000000
11
141.6351489844
21
-61.6536125379
31
0.0000000000
11
141.5212557915
21
-61.7044026541
31
0.0000000000
11
141.4107540086
21
-61.7349648618
31
0.0000000000
11
141.3108890076
21
-61.7485531588
31
0.0000000000
0
SPLINE
5
338
100
AcDbEntity
8
0
100
AcDbSpline
62
9
6
CONTINUOUS
70
0
71
3
72
12
73
8
74
6
42
0.0000001000
43
0.0000001000
44
0.0000000001
12
-91.8580271535
22
-6.6511129675
32
0.0000000000
13
-91.8580271754
23
6.6511126652
33
0.0000000000
40
0.0000000000
40
0.0000000000
40
0.0000000000
40
0.0000000000
40
0.2000268180
40
0.4000133388
40
0.5999861804
40
0.7999727182
40
1.0000000000
40
1.0000000000
40
1.0000000000
40
1.0000000000
10
141.3108890076
20
-61.7485531588
30
0.0000000000
10
135.1861993801
20
-62.1920201465
30
0.0000000000
10
122.9244893548
20
-62.9018142167
30
0.0000000000
10
104.5104788054
20
-63.4342846275
30
0.0000000000
10
86.0898061374
20
-63.4342852561
30
0.0000000000
10
67.6757807952
20
-62.9018157058
30
0.0000000000
10
55.4140560000
20
-62.1920211545
30
0.0000000000
10
49.2893521722
20
-61.7485531588
30
0.0000000000
11
141.3108890076
21
-61.7485531588
31
0.0000000000
11
122.9195060723
21
-62.8131694039
31
0.0000000000
11
104.5087425149
21
-63.3455527058
31
0.0000000000
11
86.0915429463
21
-63.3455533431
31
0.0000000000
11
67.6807777798
21
-62.8131712591
31
0.0000000000
11
49.2893521722
21
-61.7485531588
31
0.0000000000
0
SPLINE
5
339
100
AcDbEntity
8
0
100
AcDbSpline
62
9
6
CONTINUOUS
70
0
71
3
72
17
73
13
74
11
42
0.0000001000
43
0.0000001000
44
0.0000000001
12
-1.1940795960
22
0.0864597416
32
0.0000000000
13
-0.0000067850
23
1.1972056500
33
0.0000000000
40
0.0000000000
40
0.0000000000
40
0.0000000000
40
0.0000000000
40
0.0854763236
40
0.1823097684
40
0.2873375597
40
0.3973693565
40
0.5092011254
40
0.6198873177
40
0.7268539715
40
0.8275856734
40
0.9188437025
40
1.0000000000
40
1.0000000000
40
1.0000000000
40
1.0000000000
10
49.2893521722
20
-61.7485531588
30
0.0000000000
10
49.2553303275
20
-61.7460897385
30
0.0000000000
10
49.1830229996
20
-61.7361826353
30
0.0000000000
10
49.0722129716
20
-61.7052100762
30
0.0000000000
10
48.9582751137
20
-61.6538321170
30
0.0000000000
10
48.8490014810
20
-61.5814992718
30
0.0000000000
10
48.7515330976
20
-61.4905149523
30
0.0000000000
10
48.6712832745
20
-61.3855926019
30
0.0000000000
10
48.6112623150
20
-61.2729865130
30
0.0000000000
10
48.5720082857
20
-61.1598383308
30
0.0000000000
10
48.5513574869
20
-61.0524735985
30
0.0000000000
10
48.5471663879
20
-60.9835995082
30
0.0000000000
10
48.5471662043
20
-60.9512125822
30
0.0000000000
11
49.2893521722
21
-61.7485531588
31
0.0000000000
11
49.1879672244
21
-61.7346577804
31
0.0000000000
11
49.0763175851
21
-61.7034485192
31
0.0000000000
11
48.9616946953
21
-61.6517560943
31
0.0000000000
11
48.8518507373
21
-61.5790424141
31
0.0000000000
11
48.7539812462
21
-61.4876809154
31
0.0000000000
11
48.6734757294
21
-61.3824247628
31
0.0000000000
11
48.6132387543
21
-61.2694152604
31
0.0000000000
11
48.5737081685
21
-61.1554816669
31
0.0000000000
11
48.5530714430
21
-61.0481937398
31
0.0000000000
11
48.5471662043
21
-60.9512125822
31
0.0000000000
0
SPLINE
5
33A
100
AcDbEntity
8
0
100
AcDbSpline
62
9
6
CONTINUOUS
70
0
71
3
72
17
73
13
74
11
42
0.0000001000
43
0.0000001000
44
0.0000000001
12
-0.0000020337
22
1.1972074345
32
0.0000000000
13
1.1940806255
23
0.0864702326
33
0.0000000000
40
0.0000000000
40
0.0000000000
40
0.0000000000
40
0.0000000000
40
0.0827624008
40
0.1754513787
40
0.2769685679
40
0.3842766611
40
0.4949180986
40
0.6064388720
40
0.7158885362
40
0.8200516321
40
0.9158164112
40
1.0000000000
40
1.0000000000
40
1.0000000000
40
1.0000000000
10
48.5471662043
20
58.9907936186
30
0.0000000000
10
48.5471661482
20
59.0238215391
30
0.0000000000
10
48.5515164279
20
59.0939118542
30
0.0000000000
10
48.5728377871
20
59.2027160790
30
0.0000000000
10
48.6130177694
20
59.3166337244
30
0.0000000000
10
48.6739212371
20
59.4292624709
30
0.0000000000
10
48.7548181228
20
59.5336789543
30
0.0000000000
10
48.8525469506
20
59.6238249403
30
0.0000000000
10
48.9616060240
20
59.6951911266
30
0.0000000000
10
49.0748298396
20
59.7456771627
30
0.0000000000
10
49.1844714120
20
59.7759996569
30
0.0000000000
10
49.2558448414
20
59.7857077370
30
0.0000000000
10
49.2893521722
20
59.7881341951
30
0.0000000000
11
48.5471662043
21
58.9907936186
31
0.0000000000
11
48.5533076541
21
59.0896868661
31
0.0000000000
11
48.5746478598
21
59.1985835045
31
0.0000000000
11
48.6150778510
21
59.3131989079
31
0.0000000000
11
48.6761860657
21
59.4262048327
31
0.0000000000
11
48.7573116924
21
59.5309162618
31
0.0000000000
11
48.8554491737
21
59.6214418891
31
0.0000000000
11
48.9650921953
21
59.6931935743
31
0.0000000000
11
49.0789853882
21
59.7439836904
31
0.0000000000
11
49.1894871712
21
59.7745458982
31
0.0000000000
11
49.2893521722
21
59.7881341951
31
0.0000000000
0
SPLINE
5
33B
100
AcDbEntity
8
0
100
AcDbSpline
62
9
6
CONTINUOUS
70
0
71
3
72
12
73
8
74
6
42
0.0000001000
43
0.0000001000
44
0.0000000001
12
91.8580271535
22
6.6511129673
32
0.0000000000
13
91.8580271754
23
-6.6511126652
33
0.0000000000
40
0.0000000000
40
0.0000000000
40
0.0000000000
40
0.0000000000
40
0.2000274019
40
0.4000139215
40
0.5999867630
40
0.7999733018
40
1.0000000000
40
1.0000000000
40
1.0000000000
40
1.0000000000
10
49.2893521722
20
59.7881341951
30
0.0000000000
10
55.4140596773
20
60.2316024773
30
0.0000000000
10
67.6757876071
20
60.9413970648
30
0.0000000000
10
86.0898160802
20
61.4738664396
30
0.0000000000
10
104.5104887384
20
61.4738655167
30
0.0000000000
10
122.9244961543
20
60.9413949311
30
0.0000000000
10
135.1862030476
20
60.2316008971
30
0.0000000000
10
141.3108890076
20
59.7881341951
30
0.0000000000
11
49.2893521722
21
59.7881341951
31
0.0000000000
11
67.6807888358
21
60.8527527716
31
0.0000000000
11
86.0915523302
21
61.3851345179
31
0.0000000000
11
104.5087518908
21
61.3851336039
31
0.0000000000
11
122.9195170992
21
60.8527499654
31
0.0000000000
11
141.3108890076
21
59.7881341951
31
0.0000000000
0
SPLINE
5
33C
100
AcDbEntity
8
0
100
AcDbSpline
62
9
6
CONTINUOUS
70
0
71
3
72
27
73
23
74
21
42
0.0000001000
43
0.0000001000
44
0.0000000001
12
-89.8386910418
22
-6.2862298705
32
0.0000000000
13
-89.8386903661
23
6.2862395268
33
0.0000000000
40
0.0000000000
40
0.0000000000
40
0.0000000000
40
0.0000000000
40
0.0316610054
40
0.0664176530
40
0.1046063780
40
0.1465517673
40
0.1925746473
40
0.2429546139
40
0.2979599595
40
0.3585436118
40
0.4250475281
40
0.4953431006
40
0.5669678127
40
0.6365096041
40
0.7003809397
40
0.7573016345
40
0.8081999345
40
0.8541547342
40
0.8959224288
40
0.9339002447
40
0.9684644968
40
1.0000000000
40
1.0000000000
40
1.0000000000
40
1.0000000000
10
140.2921861708
20
-60.6617508979
30
0.0000000000
10
139.3440584109
20
-60.7280936838
30
0.0000000000
10
137.3548101937
20
-60.8631588824
30
0.0000000000
10
134.2208708539
20
-61.0619403275
30
0.0000000000
10
130.7777703856
20
-61.2631314046
30
0.0000000000
10
126.9958688939
20
-61.4631117588
30
0.0000000000
10
122.8472293043
20
-61.6569780462
30
0.0000000000
10
118.3056240688
20
-61.8384369293
30
0.0000000000
10
113.3259094564
20
-62.0003808833
30
0.0000000000
10
107.8611329469
20
-62.1334398891
30
0.0000000000
10
101.9364091605
20
-62.2243759116
30
0.0000000000
10
95.6796248259
20
-62.2597123629
30
0.0000000000
10
89.3316016456
20
-62.2316504803
30
0.0000000000
10
83.1770189812
20
-62.1428269543
30
0.0000000000
10
77.4648528854
20
-62.0064129333
30
0.0000000000
10
72.3134548721
20
-61.8393953554
30
0.0000000000
10
67.7009042370
20
-61.6547665272
30
0.0000000000
10
63.5441117186
20
-61.4600876569
30
0.0000000000
10
59.7759178675
20
-61.2605081384
30
0.0000000000
10
56.3502408791
20
-61.0601354780
30
0.0000000000
10
53.2321502956
20
-60.8622656348
30
0.0000000000
10
51.2524244452
20
-60.7278308068
30
0.0000000000
10
50.3080550091
20
-60.6617508979
30
0.0000000000
11
140.2921861708
21
-60.6617508979
31
0.0000000000
11
137.4473943457
21
-60.8548519125
31
0.0000000000
11
134.3235426617
21
-61.0529487361
31
0.0000000000
11
130.8901831930
21
-61.2535322023
31
0.0000000000
11
127.1179189207
21
-61.4529705659
31
0.0000000000
11
122.9776908803
21
-61.6464163127
31
0.0000000000
11
118.4441702858
21
-61.8275293036
31
0.0000000000
11
113.4930962627
21
-61.9885241534
31
0.0000000000
11
108.0386484726
21
-62.1213156869
31
0.0000000000
11
102.0501203532
21
-62.2132155388
31
0.0000000000
11
95.7195177421
21
-62.2489632636
31
0.0000000000
11
89.2691770791
21
-62.2204536146
31
0.0000000000
11
83.0070097095
21
-62.1300938205
31
0.0000000000
11
77.2565014933
21
-61.9927828581
31
0.0000000000
11
72.1330089265
21
-61.8266894159
31
0.0000000000
11
67.5528585601
21
-61.6433812662
31
0.0000000000
11
63.4187750508
21
-61.4497934879
31
0.0000000000
11
59.6625084053
21
-61.2508778913
31
0.0000000000
11
56.2481223467
21
-61.0512036061
31
0.0000000000
11
53.1415686608
21
-60.8541100986
31
0.0000000000
11
50.3080550091
21
-60.6617508979
31
0.0000000000
0
SPLINE
5
33D
100
AcDbEntity
8
0
100
AcDbSpline
62
9
6
CONTINUOUS
70
0
71
3
72
13
73
9
74
7
42
0.0000001000
43
0.0000001000
44
0.0000000001
12
0.0000184358
22
-0.7108989219
32
0.0000000000
13
-0.7090664252
23
-0.0510106073
33
0.0000000000
40
0.0000000000
40
0.0000000000
40
0.0000000000
40
0.0000000000
40
0.1940468039
40
0.3871027071
40
0.5634307049
40
0.7205690257
40
0.8647888565
40
1.0000000000
40
1.0000000000
40
1.0000000000
40
1.0000000000
10
140.6663120264
20
-60.1291690253
30
0.0000000000
10
140.6663132189
20
-60.1751515798
30
0.0000000000
10
140.6576561290
20
-60.2671308135
30
0.0000000000
10
140.6189777130
20
-60.3959061158
30
0.0000000000
10
140.5576141552
20
-60.5058079851
30
0.0000000000
10
140.4795075601
20
-60.5894376885
30
0.0000000000
10
140.3898554116
20
-60.6439024177
30
0.0000000000
10
140.3241440649
20
-60.6594518304
30
0.0000000000
10
140.2921861708
20
-60.6617508979
30
0.0000000000
11
140.6663120264
21
-60.1291690253
31
0.0000000000
11
140.6531318193
21
-60.2664855941
31
0.0000000000
11
140.6129966002
21
-60.3977291437
31
0.0000000000
11
140.5509987732
21
-60.5066751800
31
0.0000000000
11
140.4739665271
21
-60.5875765839
31
0.0000000000
11
140.3857868800
21
-60.6398821625
31
0.0000000000
11
140.2921861708
21
-60.6617508979
31
0.0000000000
0
SPLINE
5
33E
100
AcDbEntity
8
0
100
AcDbSpline
62
9
6
CONTINUOUS
70
0
71
3
72
14
73
10
74
8
42
0.0000001000
43
0.0000001000
44
0.0000000001
12
0.7094753261
22
-0.0489754638
32
0.0000000000
13
0.0000116078
23
-0.7111637183
33
0.0000000000
40
0.0000000000
40
0.0000000000
40
0.0000000000
40
0.0000000000
40
0.1404075603
40
0.2931039297
40
0.4462230461
40
0.5909473124
40
0.7303155932
40
0.8663103681
40
1.0000000000
40
1.0000000000
40
1.0000000000
40
1.0000000000
10
140.2921861708
20
58.7013319343
30
0.0000000000
10
140.3253914040
20
58.6990397591
30
0.0000000000
10
140.3942681254
20
58.6819447081
30
0.0000000000
10
140.4850741950
20
58.6246484676
30
0.0000000000
10
140.5570949466
20
58.5443092898
30
0.0000000000
10
140.6088204779
20
58.4538206858
30
0.0000000000
10
140.6428546767
20
58.3597870148
30
0.0000000000
10
140.6621519177
20
58.2644527136
30
0.0000000000
10
140.6663115092
20
58.2004418002
30
0.0000000000
10
140.6663120264
20
58.1687500616
30
0.0000000000
11
140.2921861708
21
58.7013319343
31
0.0000000000
11
140.3892622382
21
58.6779479364
31
0.0000000000
11
140.4816605633
21
58.6208971031
31
0.0000000000
11
140.5551664572
21
58.5405570957
31
0.0000000000
11
140.6067048175
21
58.4514679900
31
0.0000000000
11
140.6407408797
21
58.3583816590
31
0.0000000000
11
140.6600831892
21
58.2636210173
31
0.0000000000
11
140.6663120264
21
58.1687500616
31
0.0000000000
0
SPLINE
5
33F
100
AcDbEntity
8
0
100
AcDbSpline
62
9
6
CONTINUOUS
70
0
71
3
72
27
73
23
74
21
42
0.0000001000
43
0.0000001000
44
0.0000000001
12
89.8386905230
22
6.2862393625
32
0.0000000000
13
89.8386911800
23
-6.2862299722
33
0.0000000000
40
0.0000000000
40
0.0000000000
40
0.0000000000
40
0.0000000000
40
0.0315383097
40
0.0661603523
40
0.1041899331
40
0.1459435625
40
0.1917355012
40
0.2418497104
40
0.2965514945
40
0.3567905115
40
0.4229696848
40
0.4930483361
40
0.5646239896
40
0.6343406977
40
0.6986014257
40
0.7559366380
40
0.8071680501
40
0.8533912458
40
0.8953882554
40
0.9335675768
40
0.9683075084
40
1.0000000000
40
1.0000000000
40
1.0000000000
40
1.0000000000
10
50.3080550091
20
58.7013319343
30
0.0000000000
10
51.2525084921
20
58.7674177223
30
0.0000000000
10
53.2340492816
20
58.9019754349
30
0.0000000000
10
56.3555070366
20
59.1000456165
30
0.0000000000
10
59.7840481413
20
59.3005449844
30
0.0000000000
10
63.5484928695
20
59.4998706833
30
0.0000000000
10
67.6764678669
20
59.6931900021
30
0.0000000000
10
72.1940435747
20
59.8743071945
30
0.0000000000
10
77.1463068259
20
60.0362374270
30
0.0000000000
10
82.5818540294
20
60.1698006981
30
0.0000000000
10
88.4799486805
20
60.2619292596
30
0.0000000000
10
94.7189879595
20
60.2991007307
30
0.0000000000
10
101.0642861975
20
60.2731389798
30
0.0000000000
10
107.2343637213
20
60.1860654806
30
0.0000000000
10
112.9759447535
20
60.0505533153
30
0.0000000000
10
118.1614959969
20
59.8835800702
30
0.0000000000
10
122.8045548027
20
59.6985137398
30
0.0000000000
10
126.9862859414
20
59.5031930483
30
0.0000000000
10
130.7754589277
20
59.3028445823
30
0.0000000000
10
134.2193238856
20
59.1016136274
30
0.0000000000
10
137.3534246220
20
58.9028318358
30
0.0000000000
10
139.3431155152
20
58.7677406978
30
0.0000000000
10
140.2921861708
20
58.7013319343
30
0.0000000000
11
50.3080550091
21
58.7013319343
31
0.0000000000
11
53.1418208731
21
58.8937077262
31
0.0000000000
11
56.2535694764
21
59.0911173933
31
0.0000000000
11
59.6726118319
21
59.2910232133
31
0.0000000000
11
63.4276164796
21
59.4898169319
31
0.0000000000
11
67.5470495046
21
59.6827089790
31
0.0000000000
11
72.0566308355
21
59.8634829266
31
0.0000000000
11
76.9803525914
21
60.0244623177
31
0.0000000000
11
82.4037426431
21
60.1577110162
31
0.0000000000
11
88.3630033535
21
60.2507795141
31
0.0000000000
11
94.6740593689
21
60.2883741158
31
0.0000000000
11
101.1199909665
21
60.2620047549
31
0.0000000000
11
107.3979380657
21
60.1734251650
31
0.0000000000
11
113.1835426881
21
60.0368928273
31
0.0000000000
11
118.3443834246
21
59.8707348155
31
0.0000000000
11
122.9545403591
21
59.6870038628
31
0.0000000000
11
127.1127931260
21
59.4928075954
31
0.0000000000
11
130.8897006193
21
59.2931401590
31
0.0000000000
11
134.3222149347
21
59.0926108262
31
0.0000000000
11
137.4445648482
21
58.8946190301
31
0.0000000000
11
140.2921861708
21
58.7013319343
31
0.0000000000
0
SPLINE
5
340
100
AcDbEntity
8
0
100
AcDbSpline
62
9
6
CONTINUOUS
70
0
71
3
72
13
73
9
74
7
42
0.0000001000
43
0.0000001000
44
0.0000000001
12
-0.0000184410
22
0.7108989219
32
0.0000000000
13
0.7090664252
23
0.0510106090
33
0.0000000000
40
0.0000000000
40
0.0000000000
40
0.0000000000
40
0.0000000000
40
0.1940466675
40
0.3871026234
40
0.5634306854
40
0.7205690059
40
0.8647888574
40
1.0000000000
40
1.0000000000
40
1.0000000000
40
1.0000000000
10
49.9339291533
20
58.1687500615
30
0.0000000000
10
49.9339279605
20
58.2147325838
30
0.0000000000
10
49.9425850428
20
58.3067117970
30
0.0000000000
10
49.9812634419
20
58.4354871000
30
0.0000000000
10
50.0426270060
20
58.5453889987
30
0.0000000000
10
50.1207336124
20
58.6290187190
30
0.0000000000
10
50.2103857639
20
58.6834834533
30
0.0000000000
10
50.2760971153
20
58.6990328667
30
0.0000000000
10
50.3080550091
20
58.7013319343
30
0.0000000000
11
49.9339291533
21
58.1687500615
31
0.0000000000
11
49.9471093416
21
58.3060665348
31
0.0000000000
11
49.9872445560
21
58.4373101250
31
0.0000000000
11
50.0492423984
21
58.5462562050
31
0.0000000000
11
50.1262746418
21
58.6271576112
31
0.0000000000
11
50.2144543006
21
58.6794631992
31
0.0000000000
11
50.3080550091
21
58.7013319343
31
0.0000000000
0
SPLINE
5
341
100
AcDbEntity
8
0
100
AcDbSpline
62
9
6
CONTINUOUS
70
0
71
3
72
14
73
10
74
8
42
0.0000001000
43
0.0000001000
44
0.0000000001
12
-0.7094753265
22
0.0489754596
32
0.0000000000
13
-0.0000116077
23
0.7111637184
33
0.0000000000
40
0.0000000000
40
0.0000000000
40
0.0000000000
40
0.0000000000
40
0.1404075835
40
0.2931039726
40
0.4462230990
40
0.5909473590
40
0.7303156254
40
0.8663103852
40
1.0000000000
40
1.0000000000
40
1.0000000000
40
1.0000000000
10
50.3080550091
20
-60.6617508979
30
0.0000000000
10
50.2748497704
20
-60.6594587226
30
0.0000000000
10
50.2059730391
20
-60.6423636665
30
0.0000000000
10
50.1151669621
20
-60.5850674134
30
0.0000000000
10
50.0431462133
20
-60.5047282255
30
0.0000000000
10
49.9914206891
20
-60.4142396206
30
0.0000000000
10
49.9573864974
20
-60.3202059562
30
0.0000000000
10
49.9380892610
20
-60.2248716654
30
0.0000000000
10
49.9339296705
20
-60.1608607597
30
0.0000000000
10
49.9339291533
20
-60.1291690252
30
0.0000000000
11
50.3080550091
21
-60.6617508979
31
0.0000000000
11
50.2109789263
21
-60.6383668935
31
0.0000000000
11
50.1185805929
21
-60.5813160471
31
0.0000000000
11
50.0450747005
21
-60.5009760286
31
0.0000000000
11
49.9935363484
21
-60.4118869234
31
0.0000000000
11
49.9595002938
21
-60.3188006004
31
0.0000000000
11
49.9401579890
21
-60.2240399688
31
0.0000000000
11
49.9339291533
21
-60.1291690252
31
0.0000000000
0
SPLINE
5
342
100
AcDbEntity
8
0
100
AcDbSpline
62
7
6
CONTINUOUS
70
0
71
3
72
11
73
7
74
5
42
0.0000001000
43
0.0000001000
44
0.0000000001
12
-0.7004154913
22
0.3711121169
32
0.0000000000
13
-0.2261605542
23
0.7614057765
33
0.0000000000
40
0.0000000000
40
0.0000000000
40
0.0000000000
40
0.0000000000
40
0.2691946425
40
0.5392388368
40
0.8150995492
40
1.0000000000
40
1.0000000000
40
1.0000000000
40
1.0000000000
10
48.8312062492
20
-61.8845803440
30
0.0000000000
10
48.7683568832
20
-61.8512798794
30
0.0000000000
10
48.6492177504
20
-61.7708170184
30
0.0000000000
10
48.4994009859
20
-61.6139159279
30
0.0000000000
10
48.3984067814
20
-61.4474758014
30
0.0000000000
10
48.3550862413
20
-61.3331208416
30
0.0000000000
10
48.3411471785
20
-61.2861927511
30
0.0000000000
11
48.8312062492
21
-61.8845803440
31
0.0000000000
11
48.6543962031
21
-61.7651279215
31
0.0000000000
11
48.5065622846
21
-61.6103259826
31
0.0000000000
11
48.3931325908
21
-61.4233841439
31
0.0000000000
11
48.3411471785
21
-61.2861927511
31
0.0000000000
0
SPLINE
5
343
100
AcDbEntity
8
0
100
AcDbSpline
62
7
6
CONTINUOUS
70
0
71
3
72
9
73
5
74
3
42
0.0000001000
43
0.0000001000
44
0.0000000001
12
-0.0411692528
22
0.1386028923
32
0.0000000000
13
-0.0207335990
23
0.1431708384
33
0.0000000000
40
0.0000000000
40
0.0000000000
40
0.0000000000
40
0.0000000000
40
0.5035808332
40
1.0000000000
40
1.0000000000
40
1.0000000000
40
1.0000000000
10
48.3411471785
20
-61.2861927511
30
0.0000000000
10
48.3342364963
20
-61.2629268311
30
0.0000000000
10
48.3221949952
20
-61.2162191301
30
0.0000000000
10
48.3135731578
20
-61.1687350039
30
0.0000000000
10
48.3101423058
20
-61.1450440878
30
0.0000000000
11
48.3411471785
21
-61.2861927511
31
0.0000000000
11
48.3229759630
21
-61.2156877286
31
0.0000000000
11
48.3101423058
21
-61.1450440878
31
0.0000000000
0
SPLINE
5
344
100
AcDbEntity
8
0
100
AcDbSpline
62
7
6
CONTINUOUS
70
0
71
3
72
8
73
4
74
2
42
0.0000001000
43
0.0000001000
44
0.0000000001
12
-0.0206338370
22
0.1424819560
32
0.0000000000
13
0.0000000000
23
0.1435975570
33
0.0000000000
40
0.0000000000
40
0.0000000000
40
0.0000000000
40
0.0000000000
40
1.0000000000
40
1.0000000000
40
1.0000000000
40
1.0000000000
10
48.3101423058
20
-61.1450440878
30
0.0000000000
10
48.3032643602
20
-61.0975501025
30
0.0000000000
10
48.2997992874
20
-61.0495783201
30
0.0000000000
10
48.2997992874
20
-61.0017124678
30
0.0000000000
11
48.3101423058
21
-61.1450440878
31
0.0000000000
11
48.2997992874
21
-61.0017124678
31
0.0000000000
0
SPLINE
5
345
100
AcDbEntity
8
0
100
AcDbSpline
62
7
6
CONTINUOUS
70
0
71
3
72
8
73
4
74
2
42
0.0000001000
43
0.0000001000
44
0.0000000001
12
-0.1377240189
22
0.0100669194
32
0.0000000000
13
-0.1353452084
23
0.0290118696
33
0.0000000000
40
0.0000000000
40
0.0000000000
40
0.0000000000
40
0.0000000000
40
1.0000000000
40
1.0000000000
40
1.0000000000
40
1.0000000000
10
49.2270790058
20
-61.9986011215
30
0.0000000000
10
49.1811709995
20
-61.9952454817
30
0.0000000000
10
49.1354133525
20
-61.9886973560
30
0.0000000000
10
49.0902982831
20
-61.9790267328
30
0.0000000000
11
49.2270790058
21
-61.9986011215
31
0.0000000000
11
49.0902982831
21
-61.9790267328
31
0.0000000000
0
SPLINE
5
346
100
AcDbEntity
8
0
100
AcDbSpline
62
7
6
CONTINUOUS
70
0
71
3
72
8
73
4
74
2
42
0.0000001000
43
0.0000001000
44
0.0000000001
12
-0.0671194103
22
0.0143873551
32
0.0000000000
13
-0.0659911459
23
0.0189692320
33
0.0000000000
40
0.0000000000
40
0.0000000000
40
0.0000000000
40
0.0000000000
40
1.0000000000
40
1.0000000000
40
1.0000000000
40
1.0000000000
10
49.0902982831
20
-61.9790267328
30
0.0000000000
10
49.0679251463
20
-61.9742309478
30
0.0000000000
10
49.0457100383
20
-61.9686672487
30
0.0000000000
10
49.0237129896
20
-61.9623441714
30
0.0000000000
11
49.0902982831
21
-61.9790267328
31
0.0000000000
11
49.0237129896
21
-61.9623441714
31
0.0000000000
0
SPLINE
5
347
100
AcDbEntity
8
0
100
AcDbSpline
62
7
6
CONTINUOUS
70
0
71
3
72
8
73
4
74
2
42
0.0000001000
43
0.0000001000
44
0.0000000001
12
-0.1326781097
22
0.0381384776
32
0.0000000000
13
-0.1260326556
23
0.0559556020
33
0.0000000000
40
0.0000000000
40
0.0000000000
40
0.0000000000
40
0.0000000000
40
1.0000000000
40
1.0000000000
40
1.0000000000
40
1.0000000000
10
49.0237129896
20
-61.9623441714
30
0.0000000000
10
48.9794869531
20
-61.9496313455
30
0.0000000000
10
48.9361423754
20
-61.9338488943
30
0.0000000000
10
48.8941314902
20
-61.9151970269
30
0.0000000000
11
49.0237129896
21
-61.9623441714
31
0.0000000000
11
48.8941314902
21
-61.9151970269
31
0.0000000000
0
SPLINE
5
348
100
AcDbEntity
8
0
100
AcDbSpline
62
7
6
CONTINUOUS
70
0
71
3
72
8
73
4
74
2
42
0.0000001000
43
0.0000001000
44
0.0000000001
12
-0.0640167880
22
0.0284219824
32
0.0000000000
13
-0.0617744295
23
0.0327851463
33
0.0000000000
40
0.0000000000
40
0.0000000000
40
0.0000000000
40
0.0000000000
40
1.0000000000
40
1.0000000000
40
1.0000000000
40
1.0000000000
10
48.8941314902
20
-61.9151970269
30
0.0000000000
10
48.8727925609
20
-61.9057230328
30
0.0000000000
10
48.8517977257
20
-61.8955087261
30
0.0000000000
10
48.8312062492
20
-61.8845803440
30
0.0000000000
11
48.8941314902
21
-61.9151970269
31
0.0000000000
11
48.8312062492
21
-61.8845803440
31
0.0000000000
0
SPLINE
5
349
100
AcDbEntity
8
0
100
AcDbSpline
62
7
6
CONTINUOUS
70
0
71
3
72
11
73
7
74
5
42
0.0000001000
43
0.0000001000
44
0.0000000001
12
0.7004154913
22
-0.3711121169
32
0.0000000000
13
0.2261605542
23
-0.7614057765
33
0.0000000000
40
0.0000000000
40
0.0000000000
40
0.0000000000
40
0.0000000000
40
0.2691946425
40
0.5392388368
40
0.8150995492
40
1.0000000000
40
1.0000000000
40
1.0000000000
40
1.0000000000
10
141.7690349305
20
59.9241613804
30
0.0000000000
10
141.8318842965
20
59.8908609158
30
0.0000000000
10
141.9510234293
20
59.8103980548
30
0.0000000000
10
142.1008401939
20
59.6534969642
30
0.0000000000
10
142.2018343983
20
59.4870568377
30
0.0000000000
10
142.2451549384
20
59.3727018779
30
0.0000000000
10
142.2590940012
20
59.3257737875
30
0.0000000000
11
141.7690349305
21
59.9241613804
31
0.0000000000
11
141.9458449766
21
59.8047089578
31
0.0000000000
11
142.0936788951
21
59.6499070190
31
0.0000000000
11
142.2071085889
21
59.4629651803
31
0.0000000000
11
142.2590940012
21
59.3257737875
31
0.0000000000
0
SPLINE
5
34A
100
AcDbEntity
8
0
100
AcDbSpline
62
7
6
CONTINUOUS
70
0
71
3
72
9
73
5
74
3
42
0.0000001000
43
0.0000001000
44
0.0000000001
12
0.0411692528
22
-0.1386028923
32
0.0000000000
13
0.0207335990
23
-0.1431708384
33
0.0000000000
40
0.0000000000
40
0.0000000000
40
0.0000000000
40
0.0000000000
40
0.5035808332
40
1.0000000000
40
1.0000000000
40
1.0000000000
40
1.0000000000
10
142.2590940012
20
59.3257737875
30
0.0000000000
10
142.2660046834
20
59.3025078675
30
0.0000000000
10
142.2780461845
20
59.2558001664
30
0.0000000000
10
142.2866680219
20
59.2083160403
30
0.0000000000
10
142.2900988739
20
59.1846251242
30
0.0000000000
11
142.2590940012
21
59.3257737875
31
0.0000000000
11
142.2772652167
21
59.2552687650
31
0.0000000000
11
142.2900988739
21
59.1846251242
31
0.0000000000
0
SPLINE
5
34B
100
AcDbEntity
8
0
100
AcDbSpline
62
7
6
CONTINUOUS
70
0
71
3
72
8
73
4
74
2
42
0.0000001000
43
0.0000001000
44
0.0000000001
12
0.0206338370
22
-0.1424819560
32
0.0000000000
13
0.0000000000
23
-0.1435975570
33
0.0000000000
40
0.0000000000
40
0.0000000000
40
0.0000000000
40
0.0000000000
40
1.0000000000
40
1.0000000000
40
1.0000000000
40
1.0000000000
10
142.2900988739
20
59.1846251242
30
0.0000000000
10
142.2969768196
20
59.1371311389
30
0.0000000000
10
142.3004418923
20
59.0891593565
30
0.0000000000
10
142.3004418923
20
59.0412935042
30
0.0000000000
11
142.2900988739
21
59.1846251242
31
0.0000000000
11
142.3004418923
21
59.0412935042
31
0.0000000000
0
SPLINE
5
34C
100
AcDbEntity
8
0
100
AcDbSpline
62
7
6
CONTINUOUS
70
0
71
3
72
8
73
4
74
2
42
0.0000001000
43
0.0000001000
44
0.0000000001
12
0.1377129490
22
-0.0100661102
32
0.0000000000
13
0.1353346105
23
-0.0290080237
33
0.0000000000
40
0.0000000000
40
0.0000000000
40
0.0000000000
40
0.0000000000
40
1.0000000000
40
1.0000000000
40
1.0000000000
40
1.0000000000
10
141.3731621739
20
60.0381821578
30
0.0000000000
10
141.4190664902
20
60.0348267878
30
0.0000000000
10
141.4648204576
20
60.0282794522
30
0.0000000000
10
141.5099319944
20
60.0186101110
30
0.0000000000
11
141.3731621739
21
60.0381821578
31
0.0000000000
11
141.5099319944
21
60.0186101110
31
0.0000000000
0
SPLINE
5
34D
100
AcDbEntity
8
0
100
AcDbSpline
62
7
6
CONTINUOUS
70
0
71
3
72
8
73
4
74
2
42
0.0000001000
43
0.0000001000
44
0.0000000001
12
0.0671181696
22
-0.0143863085
32
0.0000000000
13
0.0659900263
23
-0.0189680165
33
0.0000000000
40
0.0000000000
40
0.0000000000
40
0.0000000000
40
0.0000000000
40
1.0000000000
40
1.0000000000
40
1.0000000000
40
1.0000000000
10
141.5099319944
20
60.0186101110
30
0.0000000000
10
141.5323047176
20
60.0138146748
30
0.0000000000
10
141.5545194293
20
60.0082513538
30
0.0000000000
10
141.5765161048
20
60.0019286816
30
0.0000000000
11
141.5099319944
21
60.0186101110
31
0.0000000000
11
141.5765161048
21
60.0019286816
31
0.0000000000
0
SPLINE
5
34E
100
AcDbEntity
8
0
100
AcDbSpline
62
7
6
CONTINUOUS
70
0
71
3
72
8
73
4
74
2
42
0.0000001000
43
0.0000001000
44
0.0000000001
12
0.1326839887
22
-0.0381383708
32
0.0000000000
13
0.1260382189
23
-0.0559570214
33
0.0000000000
40
0.0000000000
40
0.0000000000
40
0.0000000000
40
0.0000000000
40
1.0000000000
40
1.0000000000
40
1.0000000000
40
1.0000000000
10
141.5765161048
20
60.0019286816
30
0.0000000000
10
141.6207441010
20
59.9892158913
30
0.0000000000
10
141.6640906238
20
59.9734332093
30
0.0000000000
10
141.7061033635
20
59.9547808688
30
0.0000000000
11
141.5765161048
21
60.0019286816
31
0.0000000000
11
141.7061033635
21
59.9547808688
31
0.0000000000
0
SPLINE
5
34F
100
AcDbEntity
8
0
100
AcDbSpline
62
7
6
CONTINUOUS
70
0
71
3
72
8
73
4
74
2
42
0.0000001000
43
0.0000001000
44
0.0000000001
12
0.0640233242
22
-0.0284243506
32
0.0000000000
13
0.0617805250
23
-0.0327883814
33
0.0000000000
40
0.0000000000
40
0.0000000000
40
0.0000000000
40
0.0000000000
40
1.0000000000
40
1.0000000000
40
1.0000000000
40
1.0000000000
10
141.7061033635
20
59.9547808688
30
0.0000000000
10
141.7274444715
20
59.9453060853
30
0.0000000000
10
141.7484414222
20
59.9350908409
30
0.0000000000
10
141.7690349305
20
59.9241613804
30
0.0000000000
11
141.7061033635
21
59.9547808688
31
0.0000000000
11
141.7690349305
21
59.9241613804
31
0.0000000000
0
SPLINE
5
350
100
AcDbEntity
8
0
100
AcDbSpline
62
9
6
CONTINUOUS
70
0
71
3
72
10
73
6
74
4
42
0.0000001000
43
0.0000001000
44
0.0000000001
12
89.7486110310
22
0.0280730676
32
0.0000000000
13
89.7486110205
23
-0.0281065959
33
0.0000000000
40
0.0000000000
40
0.0000000000
40
0.0000000000
40
0.0000000000
40
0.3230391668
40
0.6701445305
40
1.0000000000
40
1.0000000000
40
1.0000000000
40
1.0000000000
10
50.4258131665
20
-59.0542423628
30
0.0000000000
10
60.0899186752
20
-59.0512194627
30
0.0000000000
10
80.1381003136
20
-59.0503059781
30
0.0000000000
10
110.0543051438
20
-59.0503037172
30
0.0000000000
10
130.3064047108
20
-59.0511521355
30
0.0000000000
10
140.1744281199
20
-59.0542425070
30
0.0000000000
11
50.4258131665
21
-59.0542423628
31
0.0000000000
11
79.4181308758
21
-59.0505506942
31
0.0000000000
11
110.5703566740
21
-59.0505271323
31
0.0000000000
11
140.1744281199
21
-59.0542425070
31
0.0000000000
0
SPLINE
5
351
100
AcDbEntity
8
0
100
AcDbSpline
62
7
6
CONTINUOUS
70
0
71
3
72
8
73
4
74
2
42
0.0000001000
43
0.0000001000
44
0.0000000001
12
-0.0618594153
22
-0.0328302503
32
0.0000000000
13
-0.0641079214
23
-0.0284549928
33
0.0000000000
40
0.0000000000
40
0.0000000000
40
0.0000000000
40
0.0000000000
40
1.0000000000
40
1.0000000000
40
1.0000000000
40
1.0000000000
10
141.7690349305
20
-61.8845803440
30
0.0000000000
10
141.7484151254
20
-61.8955237608
30
0.0000000000
10
141.7273907953
20
-61.9057511405
30
0.0000000000
10
141.7060214882
20
-61.9152361381
30
0.0000000000
11
141.7690349305
21
-61.8845803440
31
0.0000000000
11
141.7060214882
21
-61.9152361381
31
0.0000000000
0
SPLINE
5
352
100
AcDbEntity
8
0
100
AcDbSpline
62
7
6
CONTINUOUS
70
0
71
3
72
9
73
5
74
3
42
0.0000001000
43
0.0000001000
44
0.0000000001
12
-0.1887810932
22
-0.0837925259
32
0.0000000000
13
-0.2021291540
23
-0.0432945366
33
0.0000000000
40
0.0000000000
40
0.0000000000
40
0.0000000000
40
0.0000000000
40
0.6680235937
40
1.0000000000
40
1.0000000000
40
1.0000000000
40
1.0000000000
10
141.7060214882
20
-61.9152361381
30
0.0000000000
10
141.6639847468
20
-61.9338945995
30
0.0000000000
10
141.5990593472
20
-61.9575250016
30
0.0000000000
10
141.5321582626
20
-61.9742684501
30
0.0000000000
10
141.5097908925
20
-61.9790593717
30
0.0000000000
11
141.7060214882
21
-61.9152361381
31
0.0000000000
11
141.5763596889
21
-61.9623925907
31
0.0000000000
11
141.5097908925
21
-61.9790593717
31
0.0000000000
0
SPLINE
5
353
100
AcDbEntity
8
0
100
AcDbSpline
62
7
6
CONTINUOUS
70
0
71
3
72
8
73
4
74
2
42
0.0000001000
43
0.0000001000
44
0.0000000001
12
-0.1351974433
22
-0.0289582702
32
0.0000000000
13
-0.1375696785
23
-0.0100556379
33
0.0000000000
40
0.0000000000
40
0.0000000000
40
0.0000000000
40
0.0000000000
40
1.0000000000
40
1.0000000000
40
1.0000000000
40
1.0000000000
10
141.5097908925
20
-61.9790593717
30
0.0000000000
10
141.4647250781
20
-61.9887121284
30
0.0000000000
10
141.4190187334
20
-61.9952492422
30
0.0000000000
10
141.3731621739
20
-61.9986011215
30
0.0000000000
11
141.5097908925
21
-61.9790593717
31
0.0000000000
11
141.3731621739
21
-61.9986011215
31
0.0000000000
0
SPLINE
5
354
100
AcDbEntity
8
0
100
AcDbSpline
62
7
6
CONTINUOUS
70
0
71
3
72
8
73
4
74
2
42
0.0000001000
43
0.0000001000
44
0.0000000001
12
0.0000000000
22
-0.1438598467
32
0.0000000000
13
-0.0207092233
23
-0.1427378510
33
0.0000000000
40
0.0000000000
40
0.0000000000
40
0.0000000000
40
0.0000000000
40
1.0000000000
40
1.0000000000
40
1.0000000000
40
1.0000000000
10
142.3004418923
20
-61.0017124678
30
0.0000000000
10
142.3004418923
20
-61.0496657500
30
0.0000000000
10
142.2969640177
20
-61.0977256380
30
0.0000000000
10
142.2900609433
20
-61.1453049217
30
0.0000000000
11
142.3004418923
21
-61.0017124678
31
0.0000000000
11
142.2900609433
21
-61.1453049217
31
0.0000000000
0
SPLINE
5
355
100
AcDbEntity
8
0
100
AcDbSpline
62
7
6
CONTINUOUS
70
0
71
3
72
9
73
5
74
3
42
0.0000001000
43
0.0000001000
44
0.0000000001
12
-0.0207731714
22
-0.1431786119
32
0.0000000000
13
-0.0412108941
23
-0.1386028398
33
0.0000000000
40
0.0000000000
40
0.0000000000
40
0.0000000000
40
0.0000000000
40
0.4966766924
40
1.0000000000
40
1.0000000000
40
1.0000000000
40
1.0000000000
10
142.2900609433
20
-61.1453049217
30
0.0000000000
10
142.2866217599
20
-61.1690094148
30
0.0000000000
10
142.2779856299
20
-61.2164954373
30
0.0000000000
10
142.2659295194
20
-61.2632035191
30
0.0000000000
10
142.2590153849
20
-61.2864575323
30
0.0000000000
11
142.2900609433
21
-61.1453049217
31
0.0000000000
11
142.2771993637
21
-61.2159879076
31
0.0000000000
11
142.2590153849
21
-61.2864575323
31
0.0000000000
0
SPLINE
5
356
100
AcDbEntity
8
0
100
AcDbSpline
62
7
6
CONTINUOUS
70
0
71
3
72
11
73
7
74
5
42
0.0000001000
43
0.0000001000
44
0.0000000001
12
-0.2262917467
22
-0.7610773654
32
0.0000000000
13
-0.7001730363
23
-0.3709836532
33
0.0000000000
40
0.0000000000
40
0.0000000000
40
0.0000000000
40
0.0000000000
40
0.1847225194
40
0.4601996173
40
0.7303109756
40
1.0000000000
40
1.0000000000
40
1.0000000000
40
1.0000000000
10
142.2590153849
20
-61.2864575323
30
0.0000000000
10
142.2450816577
20
-61.3333202418
30
0.0000000000
10
142.2018087557
20
-61.4474868186
30
0.0000000000
10
142.1009388475
20
-61.6137627982
30
0.0000000000
10
141.9511904616
20
-61.7706901011
30
0.0000000000
10
141.8319779249
20
-61.8512302708
30
0.0000000000
10
141.7690349305
20
-61.8845803440
30
0.0000000000
11
142.2590153849
21
-61.2864575323
31
0.0000000000
11
142.2070734529
21
-61.4234596086
31
0.0000000000
11
142.0938608325
21
-61.6100890735
31
0.0000000000
11
141.9460892410
21
-61.7649216527
31
0.0000000000
11
141.7690349305
21
-61.8845803440
31
0.0000000000
0
SPLINE
5
357
100
AcDbEntity
8
0
100
AcDbSpline
62
9
6
CONTINUOUS
70
0
71
3
72
10
73
6
74
4
42
0.0000001000
43
0.0000001000
44
0.0000000001
12
0.0627943802
22
-1.0927368115
32
0.0000000000
13
0.0630044453
23
-1.0927247198
33
0.0000000000
40
0.0000000000
40
0.0000000000
40
0.0000000000
40
0.0000000000
40
0.3342627533
40
0.6675932788
40
1.0000000000
40
1.0000000000
40
1.0000000000
40
1.0000000000
10
140.3969665136
20
-59.0364382140
30
0.0000000000
10
140.4039631211
20
-59.1581919524
30
0.0000000000
10
140.4179439647
20
-59.4013594591
30
0.0000000000
10
140.4389105716
20
-59.7656030418
30
0.0000000000
10
140.4528841685
20
-60.0080926778
30
0.0000000000
10
140.4598652022
20
-60.1291690249
30
0.0000000000
11
140.3969665136
21
-59.0364382140
31
0.0000000000
11
140.4179675795
21
-59.4016987830
31
0.0000000000
11
140.4389337877
21
-59.7659393100
31
0.0000000000
11
140.4598652022
21
-60.1291690249
31
0.0000000000
0
SPLINE
5
358
100
AcDbEntity
8
0
100
AcDbSpline
62
9
6
CONTINUOUS
70
0
71
3
72
13
73
9
74
7
42
0.0000001000
43
0.0000001000
44
0.0000000001
12
0.1301841994
22
-0.1301294966
32
0.0000000000
13
0.0105609710
23
-0.1837663667
33
0.0000000000
40
0.0000000000
40
0.0000000000
40
0.0000000000
40
0.0000000000
40
0.0536009209
40
0.1574174933
40
0.3115337737
40
0.5103157685
40
0.7440124519
40
1.0000000000
40
1.0000000000
40
1.0000000000
40
1.0000000000
10
140.3741546160
20
-58.8545206587
30
0.0000000000
10
140.3764806137
20
-58.8568456790
30
0.0000000000
10
140.3794154659
20
-58.8666142704
30
0.0000000000
10
140.3834525469
20
-58.8849289907
30
0.0000000000
10
140.3871779315
20
-58.9129070768
30
0.0000000000
10
140.3908629646
20
-58.9486358553
30
0.0000000000
10
140.3941702184
20
-58.9907780787
30
0.0000000000
10
140.3960653546
20
-59.0207575801
30
0.0000000000
10
140.3969665136
20
-59.0364382140
30
0.0000000000
11
140.3741546160
21
-58.8545206587
31
0.0000000000
11
140.3783754994
21
-58.8634385062
31
0.0000000000
11
140.3826000802
21
-58.8820751605
31
0.0000000000
11
140.3866874108
21
-58.9101472808
31
0.0000000000
11
140.3905085624
21
-58.9465369268
31
0.0000000000
11
140.3939590048
21
-58.9894147710
31
0.0000000000
11
140.3969665136
21
-59.0364382140
31
0.0000000000
0
SPLINE
5
359
100
AcDbEntity
8
0
100
AcDbSpline
62
9
6
CONTINUOUS
70
0
71
3
72
10
73
6
74
4
42
0.0000001000
43
0.0000001000
44
0.0000000001
12
0.0103464462
22
-0.1480064687
32
0.0000000000
13
0.0157513733
23
-0.1475291767
33
0.0000000000
40
0.0000000000
40
0.0000000000
40
0.0000000000
40
0.0000000000
40
0.3702783557
40
0.7123639015
40
1.0000000000
40
1.0000000000
40
1.0000000000
40
1.0000000000
10
50.3080550089
20
58.7013319343
30
0.0000000000
10
50.3093320306
20
58.6830640703
30
0.0000000000
10
50.3119458707
20
58.6479299062
30
0.0000000000
10
50.3160915150
20
58.5986475023
30
0.0000000000
10
50.3190683369
20
58.5676450625
30
0.0000000000
10
50.3205785581
20
58.5535001569
30
0.0000000000
11
50.3080550089
21
58.7013319343
31
0.0000000000
11
50.3121410073
21
58.6465467596
31
0.0000000000
11
50.3164253153
21
58.5959734741
31
0.0000000000
11
50.3205785581
21
58.5535001569
31
0.0000000000
0
SPLINE
5
35A
100
AcDbEntity
8
0
100
AcDbSpline
62
9
6
CONTINUOUS
70
0
71
3
72
12
73
8
74
6
42
0.0000001000
43
0.0000001000
44
0.0000000001
12
0.1301635476
22
0.1301112647
32
0.0000000000
13
0.0105602898
23
0.1837388652
33
0.0000000000
40
0.0000000000
40
0.0000000000
40
0.0000000000
40
0.0000000000
40
0.0670292528
40
0.2047513502
40
0.4135527155
40
0.6840951924
40
1.0000000000
40
1.0000000000
40
1.0000000000
40
1.0000000000
10
140.3741545401
20
56.8941014630
30
0.0000000000
10
140.3770627952
20
56.8970085500
30
0.0000000000
10
140.3802640140
20
56.9100059551
30
0.0000000000
10
140.3851341439
20
56.9342947984
30
0.0000000000
10
140.3893459398
20
56.9722538194
30
0.0000000000
10
140.3935692008
20
57.0207272201
30
0.0000000000
10
140.3958544435
20
57.0566707180
30
0.0000000000
10
140.3969664590
20
57.0760187150
30
0.0000000000
11
140.3741545401
21
56.8941014630
31
0.0000000000
11
140.3790740903
21
56.9054142853
31
0.0000000000
11
140.3840261035
21
56.9302725004
31
0.0000000000
11
140.3887867389
21
56.9684047169
31
0.0000000000
11
140.3931518381
21
57.0180042103
31
0.0000000000
11
140.3969664590
21
57.0760187150
31
0.0000000000
0
SPLINE
5
35B
100
AcDbEntity
8
0
100
AcDbSpline
62
9
6
CONTINUOUS
70
0
71
3
72
10
73
6
74
4
42
0.0000001000
43
0.0000001000
44
0.0000000001
12
0.0627944109
22
1.0927373489
32
0.0000000000
13
0.0630044763
23
1.0927252572
33
0.0000000000
40
0.0000000000
40
0.0000000000
40
0.0000000000
40
0.0000000000
40
0.3342623153
40
0.6675925904
40
1.0000000000
40
1.0000000000
40
1.0000000000
40
1.0000000000
10
140.3969664590
20
57.0760187150
30
0.0000000000
10
140.4039630607
20
57.1977723537
30
0.0000000000
10
140.4179439316
20
57.4409397272
30
0.0000000000
10
140.4389105346
20
57.8051834898
30
0.0000000000
10
140.4528841507
20
58.0476734045
30
0.0000000000
10
140.4598652022
20
58.1687500619
30
0.0000000000
11
140.3969664590
21
57.0760187150
31
0.0000000000
11
140.4179675314
21
57.4412789835
31
0.0000000000
11
140.4389337342
21
57.8055194160
31
0.0000000000
11
140.4598652022
21
58.1687500619
31
0.0000000000
0
SPLINE
5
35C
100
AcDbEntity
8
0
100
AcDbSpline
62
9
6
CONTINUOUS
70
0
71
3
72
10
73
6
74
4
42
0.0000001000
43
0.0000001000
44
0.0000000001
12
0.0103414693
22
0.1480190191
32
0.0000000000
13
0.0157541202
23
0.1475411255
33
0.0000000000
40
0.0000000000
40
0.0000000000
40
0.0000000000
40
0.0000000000
40
0.3702809521
40
0.7123726204
40
1.0000000000
40
1.0000000000
40
1.0000000000
40
1.0000000000
10
50.3080571257
20
-60.6617508531
30
0.0000000000
10
50.3093335420
20
-60.6434813120
30
0.0000000000
10
50.3119465195
20
-60.6083437507
30
0.0000000000
10
50.3160916469
20
-60.5590572298
30
0.0000000000
10
50.3190686044
20
-60.5280523611
30
0.0000000000
10
50.3205790432
20
-60.5139067386
30
0.0000000000
11
50.3080571257
21
-60.6617508531
31
0.0000000000
11
50.3121417502
21
-60.6069606699
31
0.0000000000
11
50.3164256246
21
-60.5563822569
31
0.0000000000
11
50.3205790432
21
-60.5139067386
31
0.0000000000
0
SPLINE
5
35D
100
AcDbEntity
8
0
100
AcDbSpline
62
9
6
CONTINUOUS
70
0
71
3
72
10
73
6
74
4
42
0.0000001000
43
0.0000001000
44
0.0000000001
12
-0.0103464473
22
0.1480064920
32
0.0000000000
13
-0.0157513753
23
0.1475291999
33
0.0000000000
40
0.0000000000
40
0.0000000000
40
0.0000000000
40
0.0000000000
40
0.3702783466
40
0.7123638932
40
1.0000000000
40
1.0000000000
40
1.0000000000
40
1.0000000000
10
140.2921861716
20
-60.6617508979
30
0.0000000000
10
140.2909091498
20
-60.6434830315
30
0.0000000000
10
140.2882953094
20
-60.6083488623
30
0.0000000000
10
140.2841496646
20
-60.5590664506
30
0.0000000000
10
140.2811728422
20
-60.5280640055
30
0.0000000000
10
140.2796626208
20
-60.5139190972
30
0.0000000000
11
140.2921861716
21
-60.6617508979
31
0.0000000000
11
140.2881001728
21
-60.6069657160
31
0.0000000000
11
140.2838158643
21
-60.5563924224
31
0.0000000000
11
140.2796626208
21
-60.5139190972
31
0.0000000000
0
SPLINE
5
35E
100
AcDbEntity
8
0
100
AcDbSpline
62
9
6
CONTINUOUS
70
0
71
3
72
10
73
6
74
4
42
0.0000001000
43
0.0000001000
44
0.0000000001
12
-0.0103414694
22
-0.1480190191
32
0.0000000000
13
-0.0157541202
23
-0.1475411255
33
0.0000000000
40
0.0000000000
40
0.0000000000
40
0.0000000000
40
0.0000000000
40
0.3702809521
40
0.7123726204
40
1.0000000000
40
1.0000000000
40
1.0000000000
40
1.0000000000
10
140.2921840543
20
58.7013318895
30
0.0000000000
10
140.2909076379
20
58.6830623484
30
0.0000000000
10
140.2882946604
20
58.6479247870
30
0.0000000000
10
140.2841495329
20
58.5986382662
30
0.0000000000
10
140.2811725754
20
58.5676333975
30
0.0000000000
10
140.2796621366
20
58.5534877750
30
0.0000000000
11
140.2921840543
21
58.7013318895
31
0.0000000000
11
140.2880994297
21
58.6465417063
31
0.0000000000
11
140.2838155552
21
58.5959632932
31
0.0000000000
11
140.2796621366
21
58.5534877750
31
0.0000000000
0
SPLINE
5
35F
100
AcDbEntity
8
0
100
AcDbSpline
62
9
6
CONTINUOUS
70
0
71
3
72
11
73
7
74
5
42
0.0000001000
43
0.0000001000
44
0.0000000001
12
-0.1706142529
22
-0.1038800509
32
0.0000000000
13
0.0144109599
23
-0.1992300492
33
0.0000000000
40
0.0000000000
40
0.0000000000
40
0.0000000000
40
0.0000000000
40
0.0819270306
40
0.2997156739
40
0.6216268026
40
1.0000000000
40
1.0000000000
40
1.0000000000
40
1.0000000000
10
49.2816067277
20
59.9875727910
30
0.0000000000
10
49.2769474213
20
59.9847359296
30
0.0000000000
10
49.2842900694
20
59.9589718011
30
0.0000000000
10
49.2789237523
20
59.9226339600
30
0.0000000000
10
49.2853893715
20
59.8590829278
30
0.0000000000
10
49.2875345992
20
59.8132619654
30
0.0000000000
10
49.2893521729
20
59.7881341951
30
0.0000000000
11
49.2816067277
21
59.9875727910
31
0.0000000000
11
49.2802196673
21
59.9712667084
31
0.0000000000
11
49.2812002449
21
59.9277743565
31
0.0000000000
11
49.2844028925
21
59.8635522323
31
0.0000000000
11
49.2893521729
21
59.7881341951
31
0.0000000000
0
SPLINE
5
360
100
AcDbEntity
8
0
100
AcDbSpline
62
9
6
CONTINUOUS
70
0
71
3
72
11
73
7
74
5
42
0.0000001000
43
0.0000001000
44
0.0000000001
12
-0.1706142122
22
0.1038791374
32
0.0000000000
13
0.0144109114
23
0.1992295416
33
0.0000000000
40
0.0000000000
40
0.0000000000
40
0.0000000000
40
0.0000000000
40
0.0819269583
40
0.2997155127
40
0.6216266273
40
1.0000000000
40
1.0000000000
40
1.0000000000
40
1.0000000000
10
49.2816067649
20
-61.9479912456
30
0.0000000000
10
49.2769474637
20
-61.9451544117
30
0.0000000000
10
49.2842900985
20
-61.9193903244
30
0.0000000000
10
49.2789237800
20
-61.8830526202
30
0.0000000000
10
49.2853893858
20
-61.8195017277
30
0.0000000000
10
49.2875346038
20
-61.7736808766
30
0.0000000000
10
49.2893521722
20
-61.7485531588
30
0.0000000000
11
49.2816067649
21
-61.9479912456
31
0.0000000000
11
49.2802197025
21
-61.9316852196
31
0.0000000000
11
49.2812002720
21
-61.8881929963
31
0.0000000000
11
49.2844029066
21
-61.8239710387
31
0.0000000000
11
49.2893521722
21
-61.7485531588
31
0.0000000000
0
SPLINE
5
361
100
AcDbEntity
8
0
100
AcDbSpline
62
9
6
CONTINUOUS
70
0
71
3
72
10
73
6
74
4
42
0.0000001000
43
0.0000001000
44
0.0000000001
12
-89.7486110113
22
-0.0280997451
32
0.0000000000
13
-89.7486110281
23
0.0280460965
33
0.0000000000
40
0.0000000000
40
0.0000000000
40
0.0000000000
40
0.0000000000
40
0.3287851505
40
0.6763716394
40
1.0000000000
40
1.0000000000
40
1.0000000000
40
1.0000000000
10
140.1744280317
20
57.0938234461
30
0.0000000000
10
130.3384245062
20
57.0907438532
30
0.0000000000
10
110.1039513893
20
57.0898845495
30
0.0000000000
10
80.1877465622
20
57.0898851903
30
0.0000000000
10
60.1075450421
20
57.0907979450
30
0.0000000000
10
50.4258130898
20
57.0938234491
30
0.0000000000
11
140.1744280317
21
57.0938234461
31
0.0000000000
11
110.6664162422
21
57.0901115870
31
0.0000000000
11
79.4710101300
21
57.0901298595
31
0.0000000000
11
50.4258130898
21
57.0938234491
31
0.0000000000
0
SPLINE
5
362
100
AcDbEntity
8
0
100
AcDbSpline
62
9
6
CONTINUOUS
70
0
71
3
72
10
73
6
74
4
42
0.0000001000
43
0.0000001000
44
0.0000000001
12
-0.0627943564
22
1.0927363942
32
0.0000000000
13
-0.0630044213
23
1.0927243025
33
0.0000000000
40
0.0000000000
40
0.0000000000
40
0.0000000000
40
0.0000000000
40
0.3342628977
40
0.6675933804
40
1.0000000000
40
1.0000000000
40
1.0000000000
40
1.0000000000
10
50.2032746273
20
57.0760196668
30
0.0000000000
10
50.1962780195
20
57.1977734113
30
0.0000000000
10
50.1822972008
20
57.4409408633
30
0.0000000000
10
50.1613305930
20
57.8051843063
30
0.0000000000
10
50.1473570064
20
58.0476737973
30
0.0000000000
10
50.1403759775
20
58.1687500612
30
0.0000000000
11
50.2032746273
21
57.0760196668
31
0.0000000000
11
50.1822735751
21
57.4412802548
31
0.0000000000
11
50.1613073776
21
57.8055205960
31
0.0000000000
11
50.1403759775
21
58.1687500612
31
0.0000000000
0
SPLINE
5
363
100
AcDbEntity
8
0
100
AcDbSpline
62
9
6
CONTINUOUS
70
0
71
3
72
13
73
9
74
7
42
0.0000001000
43
0.0000001000
44
0.0000000001
12
-0.1301843909
22
0.1301295514
32
0.0000000000
13
-0.0105609800
23
0.1837665407
33
0.0000000000
40
0.0000000000
40
0.0000000000
40
0.0000000000
40
0.0000000000
40
0.0536015331
40
0.1574178161
40
0.3115337834
40
0.5103154889
40
0.7440119188
40
1.0000000000
40
1.0000000000
40
1.0000000000
40
1.0000000000
10
50.2260865028
20
56.8941019197
30
0.0000000000
10
50.2237604752
20
56.8964269675
30
0.0000000000
10
50.2208257305
20
56.9061956459
30
0.0000000000
10
50.2167885537
20
56.9245103432
30
0.0000000000
10
50.2130632135
20
56.9524884203
30
0.0000000000
10
50.2093781662
20
56.9882171729
30
0.0000000000
10
50.2060709069
20
57.0303594377
30
0.0000000000
10
50.2041757890
20
57.0603389854
30
0.0000000000
10
50.2032746273
20
57.0760196668
30
0.0000000000
11
50.2260865028
21
56.8941019197
31
0.0000000000
11
50.2218656273
21
56.9030199059
31
0.0000000000
11
50.2176410512
21
56.9216565252
31
0.0000000000
11
50.2135537228
21
56.9497286147
31
0.0000000000
11
50.2097325719
21
56.9861182421
31
0.0000000000
11
50.2062821295
21
57.0289960804
31
0.0000000000
11
50.2032746273
21
57.0760196668
31
0.0000000000
0
SPLINE
5
364
100
AcDbEntity
8
0
100
AcDbSpline
62
9
6
CONTINUOUS
70
0
71
3
72
11
73
7
74
5
42
0.0000001000
43
0.0000001000
44
0.0000000001
12
0.1706142529
22
0.1038800509
32
0.0000000000
13
-0.0144109599
23
0.1992300492
33
0.0000000000
40
0.0000000000
40
0.0000000000
40
0.0000000000
40
0.0000000000
40
0.0819270306
40
0.2997156739
40
0.6216268026
40
1.0000000000
40
1.0000000000
40
1.0000000000
40
1.0000000000
10
141.3186344520
20
-61.9479917546
30
0.0000000000
10
141.3232937584
20
-61.9451548932
30
0.0000000000
10
141.3159511103
20
-61.9193907647
30
0.0000000000
10
141.3213174274
20
-61.8830529236
30
0.0000000000
10
141.3148518082
20
-61.8195018914
30
0.0000000000
10
141.3127065805
20
-61.7736809290
30
0.0000000000
10
141.3108890069
20
-61.7485531588
30
0.0000000000
11
141.3186344520
21
-61.9479917546
31
0.0000000000
11
141.3200215124
21
-61.9316856720
31
0.0000000000
11
141.3190409348
21
-61.8881933201
31
0.0000000000
11
141.3158382872
21
-61.8239711959
31
0.0000000000
11
141.3108890069
21
-61.7485531588
31
0.0000000000
0
SPLINE
5
365
100
AcDbEntity
8
0
100
AcDbSpline
62
9
6
CONTINUOUS
70
0
71
3
72
11
73
7
74
5
42
0.0000001000
43
0.0000001000
44
0.0000000001
12
0.1706142122
22
-0.1038791374
32
0.0000000000
13
-0.0144109114
23
-0.1992295416
33
0.0000000000
40
0.0000000000
40
0.0000000000
40
0.0000000000
40
0.0000000000
40
0.0819269583
40
0.2997155127
40
0.6216266273
40
1.0000000000
40
1.0000000000
40
1.0000000000
40
1.0000000000
10
141.3186344148
20
59.9875722820
30
0.0000000000
10
141.3232937160
20
59.9847354481
30
0.0000000000
10
141.3159510812
20
59.9589713608
30
0.0000000000
10
141.3213173997
20
59.9226336566
30
0.0000000000
10
141.3148517939
20
59.8590827641
30
0.0000000000
10
141.3127065759
20
59.8132619130
30
0.0000000000
10
141.3108890075
20
59.7881341951
30
0.0000000000
11
141.3186344148
21
59.9875722820
31
0.0000000000
11
141.3200214772
21
59.9712662560
31
0.0000000000
11
141.3190409078
21
59.9277740327
31
0.0000000000
11
141.3158382731
21
59.8635520750
31
0.0000000000
11
141.3108890075
21
59.7881341951
31
0.0000000000
0
SPLINE
5
366
100
AcDbEntity
8
0
100
AcDbSpline
62
9
6
CONTINUOUS
70
0
71
3
72
10
73
6
74
4
42
0.0000001000
43
0.0000001000
44
0.0000000001
12
0.0814504924
22
-1.3297359936
32
0.0000000000
13
0.0818482644
23
-1.3297115691
33
0.0000000000
40
0.0000000000
40
0.0000000000
40
0.0000000000
40
0.0000000000
40
0.3344693771
40
0.6678002831
40
1.0000000000
40
1.0000000000
40
1.0000000000
40
1.0000000000
10
140.1980123177
20
-59.1841953963
30
0.0000000000
10
140.2070932162
20
-59.3324473861
30
0.0000000000
10
140.2252402092
20
-59.6284457574
30
0.0000000000
10
140.2524563188
20
-60.0716870450
30
0.0000000000
10
140.2705992987
20
-60.3666758625
30
0.0000000000
10
140.2796626221
20
-60.5139191314
30
0.0000000000
11
140.1980123177
21
-59.1841953963
31
0.0000000000
11
140.2252781533
21
-59.6289499477
31
0.0000000000
11
140.2524945871
21
-60.0721879750
31
0.0000000000
11
140.2796626221
21
-60.5139191314
31
0.0000000000
0
SPLINE
5
367
100
AcDbEntity
8
0
100
AcDbSpline
62
9
6
CONTINUOUS
70
0
71
3
72
10
73
6
74
4
42
0.0000001000
43
0.0000001000
44
0.0000000001
12
89.7951617220
22
-0.3589588935
32
0.0000000000
13
89.7951619707
23
0.3588966841
33
0.0000000000
40
0.0000000000
40
0.0000000000
40
0.0000000000
40
0.0000000000
40
0.3230300564
40
0.6701487093
40
1.0000000000
40
1.0000000000
40
1.0000000000
40
1.0000000000
10
50.4022289437
20
-59.1841948219
30
0.0000000000
10
60.0710743294
20
-59.2228463257
30
0.0000000000
10
80.1299865487
20
-59.2421619108
30
0.0000000000
10
110.0619079754
20
-59.2423065623
30
0.0000000000
10
130.3249956249
20
-59.2236562411
30
0.0000000000
10
140.1980123177
20
-59.1841953963
30
0.0000000000
11
50.4022289437
21
-59.1841948219
31
0.0000000000
11
79.4089487972
21
-59.2370021481
31
0.0000000000
11
110.5787734116
21
-59.2373798450
31
0.0000000000
11
140.1980123177
21
-59.1841953963
31
0.0000000000
0
SPLINE
5
368
100
AcDbEntity
8
0
100
AcDbSpline
62
9
6
CONTINUOUS
70
0
71
3
72
10
73
6
74
4
42
0.0000001000
43
0.0000001000
44
0.0000000001
12
-0.0814505258
22
-1.3297365710
32
0.0000000000
13
-0.0818483022
23
-1.3297121462
33
0.0000000000
40
0.0000000000
40
0.0000000000
40
0.0000000000
40
0.0000000000
40
0.3344667091
40
0.6677948368
40
1.0000000000
40
1.0000000000
40
1.0000000000
40
1.0000000000
10
50.4022289437
20
-59.1841948219
30
0.0000000000
10
50.3931481139
20
-59.3324456935
30
0.0000000000
10
50.3750011940
20
-59.6284417751
30
0.0000000000
10
50.3477851007
20
-60.0716832568
30
0.0000000000
10
50.3296420338
20
-60.3666733845
30
0.0000000000
10
50.3205785575
20
-60.5139191314
30
0.0000000000
11
50.4022289437
21
-59.1841948219
31
0.0000000000
11
50.3749632683
21
-59.6289460159
31
0.0000000000
11
50.3477470501
21
-60.0721805411
31
0.0000000000
11
50.3205785575
21
-60.5139191314
31
0.0000000000
0
SPLINE
5
369
100
AcDbEntity
8
0
100
AcDbSpline
62
9
6
CONTINUOUS
70
0
71
3
72
27
73
23
74
21
42
0.0000001000
43
0.0000001000
44
0.0000000001
12
-89.8051371453
22
-6.4416732850
32
0.0000000000
13
-89.8051364596
23
6.4416828444
33
0.0000000000
40
0.0000000000
40
0.0000000000
40
0.0000000000
40
0.0000000000
40
0.0316590187
40
0.0664141376
40
0.1046018065
40
0.1465466017
40
0.1925693387
40
0.2429495986
40
0.2979556528
40
0.3585404107
40
0.4250457799
40
0.4953430186
40
0.5669694322
40
0.6365127498
40
0.7003852543
40
0.7573066791
40
0.8082052662
40
0.8541599120
40
0.8959270043
40
0.9339037613
40
0.9684664877
40
1.0000000000
40
1.0000000000
40
1.0000000000
40
1.0000000000
10
140.2796626221
20
-60.5139191314
30
0.0000000000
10
139.3319484499
20
-60.5818981497
30
0.0000000000
10
137.3435164628
20
-60.7200579891
30
0.0000000000
10
134.2107544841
20
-60.9228275186
30
0.0000000000
10
130.7688198440
20
-61.1275651845
30
0.0000000000
10
126.9880836328
20
-61.3306593986
30
0.0000000000
10
122.8406203789
20
-61.5272126432
30
0.0000000000
10
118.3002144479
20
-61.7109332087
30
0.0000000000
10
113.3217396847
20
-61.8747159878
30
0.0000000000
10
107.8582627541
20
-62.0091730688
30
0.0000000000
10
101.9349036649
20
-62.1010104996
30
0.0000000000
10
95.6795366380
20
-62.1366859736
30
0.0000000000
10
89.3329504975
20
-62.1083554143
30
0.0000000000
10
83.1797832989
20
-62.0186559378
30
0.0000000000
10
77.4689735697
20
-61.8808153688
30
0.0000000000
10
72.3188573653
20
-61.7119045910
30
0.0000000000
10
67.7075254307
20
-61.5249726756
30
0.0000000000
10
63.5519130939
20
-61.3275907233
30
0.0000000000
10
59.7848820100
20
-61.1248979268
30
0.0000000000
10
56.3603664130
20
-60.9209879011
30
0.0000000000
10
53.2434485419
20
-60.7191447037
30
0.0000000000
10
51.2645356825
20
-60.5816287598
30
0.0000000000
10
50.3205785575
20
-60.5139191314
30
0.0000000000
11
140.2796626221
21
-60.5139191314
31
0.0000000000
11
137.4360697527
21
-60.7114774412
31
0.0000000000
11
134.3133959182
21
-60.9135832680
31
0.0000000000
11
130.8812022541
21
-61.1177360412
31
0.0000000000
11
127.1101031759
21
-61.3203112351
31
0.0000000000
11
122.9710514761
21
-61.5164669112
31
0.0000000000
11
118.4387299167
21
-61.6998629457
31
0.0000000000
11
113.4888899909
21
-61.8627080118
31
0.0000000000
11
108.0357398250
21
-61.9969133514
31
0.0000000000
11
102.0485906016
21
-62.0897376874
31
0.0000000000
11
95.7194205112
21
-62.1258338305
31
0.0000000000
11
89.2705383329
21
-62.0970467620
31
0.0000000000
11
83.0098104292
21
-62.0057815382
31
0.0000000000
11
77.2606684293
21
-61.8670134889
31
0.0000000000
11
72.1384527924
21
-61.6990128930
31
0.0000000000
11
67.5595150624
21
-61.5133915320
31
0.0000000000
11
63.4266079699
21
-61.3170869810
31
0.0000000000
11
59.6715033728
21
-61.1150372894
31
0.0000000000
11
56.2582781711
21
-60.9118049699
31
0.0000000000
11
53.1528967653
21
-60.7107195317
31
0.0000000000
11
50.3205785575
21
-60.5139191314
31
0.0000000000
0
SPLINE
5
36A
100
AcDbEntity
8
0
100
AcDbSpline
62
9
6
CONTINUOUS
70
0
71
3
72
10
73
6
74
4
42
0.0000001000
43
0.0000001000
44
0.0000000001
12
-0.0814504569
22
1.3297354401
32
0.0000000000
13
-0.0818482326
23
1.3297110154
33
0.0000000000
40
0.0000000000
40
0.0000000000
40
0.0000000000
40
0.0000000000
40
0.3344694511
40
0.6678003581
40
1.0000000000
40
1.0000000000
40
1.0000000000
40
1.0000000000
10
50.4022289076
20
57.2237769911
30
0.0000000000
10
50.3931480111
20
57.3720289521
30
0.0000000000
10
50.3750009078
20
57.6680272263
30
0.0000000000
10
50.3477848567
20
58.1112683322
30
0.0000000000
10
50.3296418755
20
58.4062569934
30
0.0000000000
10
50.3205785577
20
58.5535001678
30
0.0000000000
11
50.4022289076
21
57.2237769911
31
0.0000000000
11
50.3749629984
21
57.6685314510
31
0.0000000000
11
50.3477465758
21
58.1117692949
31
0.0000000000
11
50.3205785577
21
58.5535001678
31
0.0000000000
0
SPLINE
5
36B
100
AcDbEntity
8
0
100
AcDbSpline
62
9
6
CONTINUOUS
70
0
71
3
72
10
73
6
74
4
42
0.0000001000
43
0.0000001000
44
0.0000000001
12
-89.7951619335
22
0.3589060134
32
0.0000000000
13
-89.7951614795
23
-0.3590195779
33
0.0000000000
40
0.0000000000
40
0.0000000000
40
0.0000000000
40
0.0000000000
40
0.3287803882
40
0.6763803662
40
1.0000000000
40
1.0000000000
40
1.0000000000
40
1.0000000000
10
140.1980122593
20
57.2237756657
30
0.0000000000
10
130.3570495261
20
57.2631094185
30
0.0000000000
10
110.1116094560
20
57.2818730542
30
0.0000000000
10
80.1796880392
20
57.2817681194
30
0.0000000000
10
60.0887213340
20
57.2625055859
30
0.0000000000
10
50.4022289076
20
57.2237769911
30
0.0000000000
11
140.1980122593
21
57.2237756657
31
0.0000000000
11
110.6749360362
21
57.2769007039
31
0.0000000000
11
79.4618904102
21
57.2766186206
31
0.0000000000
11
50.4022289076
21
57.2237769911
31
0.0000000000
0
SPLINE
5
36C
100
AcDbEntity
8
0
100
AcDbSpline
62
9
6
CONTINUOUS
70
0
71
3
72
10
73
6
74
4
42
0.0000001000
43
0.0000001000
44
0.0000000001
12
0.0814505392
22
1.3297367613
32
0.0000000000
13
0.0818483117
23
1.3297123368
33
0.0000000000
40
0.0000000000
40
0.0000000000
40
0.0000000000
40
0.0000000000
40
0.3344666350
40
0.6677947616
40
1.0000000000
40
1.0000000000
40
1.0000000000
40
1.0000000000
10
140.1980122593
20
57.2237756657
30
0.0000000000
10
140.2070930886
20
57.3720265257
30
0.0000000000
10
140.2252399585
20
57.6680226195
30
0.0000000000
10
140.2524560764
20
58.1112641634
30
0.0000000000
10
140.2705991430
20
58.4062543665
30
0.0000000000
10
140.2796626223
20
58.5535001678
30
0.0000000000
11
140.1980122593
21
57.2237756657
31
0.0000000000
11
140.2252778983
21
57.6685268270
31
0.0000000000
11
140.2524941202
21
58.1117614142
31
0.0000000000
11
140.2796626223
21
58.5535001678
31
0.0000000000
0
SPLINE
5
36D
100
AcDbEntity
8
0
100
AcDbSpline
62
9
6
CONTINUOUS
70
0
71
3
72
27
73
23
74
21
42
0.0000001000
43
0.0000001000
44
0.0000000001
12
89.8051366178
22
6.4416826726
32
0.0000000000
13
89.8051372832
23
-6.4416733965
33
0.0000000000
40
0.0000000000
40
0.0000000000
40
0.0000000000
40
0.0000000000
40
0.0315363188
40
0.0661568336
40
0.1041853554
40
0.1459383841
40
0.1917301694
40
0.2418446577
40
0.2965471319
40
0.3567872313
40
0.4229678351
40
0.4930481395
40
0.5646254961
40
0.6343437491
40
0.6986056741
40
0.7559416412
40
0.8071733582
40
0.8533964121
40
0.8953928272
40
0.9335710929
40
0.9683094969
40
1.0000000000
40
1.0000000000
40
1.0000000000
40
1.0000000000
10
50.3205785577
20
58.5535001678
30
0.0000000000
10
51.2646196985
20
58.6212158207
30
0.0000000000
10
53.2453467913
20
58.7588574456
30
0.0000000000
10
56.3656307264
20
58.9609044469
30
0.0000000000
10
59.7930096810
20
59.1649423395
30
0.0000000000
10
63.5562929431
20
59.3673764375
30
0.0000000000
10
67.6830956642
20
59.5633800017
30
0.0000000000
10
72.1994764289
20
59.7467591111
30
0.0000000000
10
77.1505045331
20
59.9105317788
30
0.0000000000
10
82.5847569928
20
60.0455009921
30
0.0000000000
10
88.4814913476
20
60.1385441511
30
0.0000000000
10
94.7191164998
20
60.1760725068
30
0.0000000000
10
101.0629787626
20
60.1498623200
30
0.0000000000
10
107.2316389741
20
60.0619314791
30
0.0000000000
10
112.9718591819
20
59.9250053171
30
0.0000000000
10
118.1561228427
20
59.7561441905
30
0.0000000000
10
122.7979574012
20
59.5687749588
30
0.0000000000
10
126.9785034914
20
59.3707483561
30
0.0000000000
10
130.7665091470
20
59.1672806294
30
0.0000000000
10
134.2092080904
20
58.9625024876
30
0.0000000000
10
137.3421314471
20
58.7597329247
30
0.0000000000
10
139.3310059621
20
58.6215467913
30
0.0000000000
10
140.2796626223
20
58.5535001678
30
0.0000000000
11
50.3205785577
21
58.5535001678
31
0.0000000000
11
53.1531488917
21
58.7503175189
31
0.0000000000
11
56.2637233692
21
58.9517250713
31
0.0000000000
11
59.6816035446
21
59.1551920497
31
0.0000000000
11
63.4354467942
21
59.3571169888
31
0.0000000000
11
67.5537076004
21
59.5527158824
31
0.0000000000
11
72.0620942708
21
59.7357729345
31
0.0000000000
11
76.9845866410
21
59.8986059390
31
0.0000000000
11
82.4066842268
21
60.0332757713
31
0.0000000000
11
88.3645708680
21
60.1272817702
31
0.0000000000
11
94.6741978288
21
60.1652430335
31
0.0000000000
11
101.1186723786
21
60.1386172415
31
0.0000000000
11
107.3951783303
21
60.0491513794
31
0.0000000000
11
113.1794111996
21
59.9111732529
31
0.0000000000
11
118.3389684729
21
59.7431118859
31
0.0000000000
11
122.9479072763
21
59.5570677937
31
0.0000000000
11
127.1049789139
21
59.3601520546
31
0.0000000000
11
130.8807198548
21
59.1573444464
31
0.0000000000
11
134.3120686844
21
58.9532468931
31
0.0000000000
11
137.4332413985
21
58.7512485762
31
0.0000000000
11
140.2796626223
21
58.5535001678
31
0.0000000000
0
SPLINE
5
36E
100
AcDbEntity
8
0
100
AcDbSpline
62
9
6
CONTINUOUS
70
0
71
3
72
10
73
6
74
4
42
0.0000001000
43
0.0000001000
44
0.0000000001
12
-0.1001151763
22
0.0072995684
32
0.0000000000
13
-0.0073104236
23
-0.1001143842
33
0.0000000000
40
0.0000000000
40
0.0000000000
40
0.0000000000
40
0.0000000000
40
0.1349568544
40
0.5008269972
40
1.0000000000
40
1.0000000000
40
1.0000000000
40
1.0000000000
10
49.2199177831
20
-62.0980765590
30
0.0000000000
10
49.2154140400
20
-62.0977481834
30
0.0000000000
10
49.2200583393
20
-62.1250595050
30
0.0000000000
10
49.2106450139
20
-62.1490312809
30
0.0000000000
10
49.2104288037
20
-62.1811533335
30
0.0000000000
10
49.2092124150
20
-62.1978114661
30
0.0000000000
11
49.2199177831
21
-62.0980765590
31
0.0000000000
11
49.2172374534
21
-62.1113558520
31
0.0000000000
11
49.2133178235
21
-62.1478724786
31
0.0000000000
11
49.2092124150
21
-62.1978114661
31
0.0000000000
0
SPLINE
5
36F
100
AcDbEntity
8
0
100
AcDbSpline
62
9
6
CONTINUOUS
70
0
71
3
72
11
73
7
74
5
42
0.0000001000
43
0.0000001000
44
0.0000000001
12
92.0130453030
22
-6.7261409851
32
0.0000000000
13
92.0130453522
23
6.7261403122
33
0.0000000000
40
0.0000000000
40
0.0000000000
40
0.0000000000
40
0.0000000000
40
0.2500018609
40
0.5000001359
40
0.7499983696
40
1.0000000000
40
1.0000000000
40
1.0000000000
40
1.0000000000
10
49.2092123924
20
-62.1978114661
30
0.0000000000
10
56.8770232420
20
-62.7583273870
30
0.0000000000
10
72.2344454450
20
-63.5996765811
30
0.0000000000
10
95.3001318634
20
-64.0204751224
30
0.0000000000
10
118.3658111804
20
-63.5996759022
30
0.0000000000
10
133.7232250035
20
-62.7583268141
30
0.0000000000
10
141.3910287873
20
-62.1978114661
30
0.0000000000
11
49.2092123924
21
-62.1978114661
31
0.0000000000
11
72.2394905729
21
-63.4594765671
31
0.0000000000
11
95.3001331340
21
-63.8802094818
31
0.0000000000
11
118.3607718626
21
-63.4594757991
31
0.0000000000
11
141.3910287873
21
-62.1978114661
31
0.0000000000
0
SPLINE
5
370
100
AcDbEntity
8
0
100
AcDbSpline
62
9
6
CONTINUOUS
70
0
71
3
72
8
73
4
74
2
42
0.0000001000
43
0.0000001000
44
0.0000000001
12
0.1620275454
22
0.0118420246
32
0.0000000000
13
0.1591089692
23
0.0336513833
33
0.0000000000
40
0.0000000000
40
0.0000000000
40
0.0000000000
40
0.0000000000
40
1.0000000000
40
1.0000000000
40
1.0000000000
40
1.0000000000
10
141.3910287873
20
-62.1978114661
30
0.0000000000
10
141.4450379691
20
-62.1938641246
30
0.0000000000
10
141.4988465236
20
-62.1862441565
30
0.0000000000
10
141.5518828467
20
-62.1750270287
30
0.0000000000
11
141.3910287873
21
-62.1978114661
31
0.0000000000
11
141.5518828467
21
-62.1750270287
31
0.0000000000
0
SPLINE
5
371
100
AcDbEntity
8
0
100
AcDbSpline
62
9
6
CONTINUOUS
70
0
71
3
72
9
73
5
74
3
42
0.0000001000
43
0.0000001000
44
0.0000000001
12
0.3099568444
22
0.0655555537
32
0.0000000000
13
0.2821861484
23
0.1441899741
33
0.0000000000
40
0.0000000000
40
0.0000000000
40
0.0000000000
40
0.0000000000
40
0.5746290999
40
1.0000000000
40
1.0000000000
40
1.0000000000
40
1.0000000000
10
141.5518828467
20
-62.1750270287
30
0.0000000000
10
141.6112529209
20
-62.1624703191
30
0.0000000000
10
141.7128878451
20
-62.1327740546
30
0.0000000000
10
141.8096380305
20
-62.0899930146
30
0.0000000000
10
141.8496492892
20
-62.0695482749
30
0.0000000000
11
141.5518828467
21
-62.1750270287
31
0.0000000000
11
141.7264447570
21
-62.1240210690
31
0.0000000000
11
141.8496492892
21
-62.0695482749
31
0.0000000000
0
SPLINE
5
372
100
AcDbEntity
8
0
100
AcDbSpline
62
9
6
CONTINUOUS
70
0
71
3
72
12
73
8
74
6
42
0.0000001000
43
0.0000001000
44
0.0000000001
12
0.7431446654
22
0.3797281004
32
0.0000000000
13
0.3271172045
23
0.7677959279
33
0.0000000000
40
0.0000000000
40
0.0000000000
40
0.0000000000
40
0.0000000000
40
0.0847657263
40
0.3555021867
40
0.6381634332
40
0.9138231098
40
1.0000000000
40
1.0000000000
40
1.0000000000
40
1.0000000000
10
141.8496492892
20
-62.0695482749
30
0.0000000000
10
141.8706470216
20
-62.0588189655
30
0.0000000000
10
141.9573894539
20
-62.0112255827
30
0.0000000000
10
142.1019730551
20
-61.9068019736
30
0.0000000000
10
142.2604735006
20
-61.7376186919
30
0.0000000000
10
142.3559574041
20
-61.5848395717
30
0.0000000000
10
142.3981865940
20
-61.4934104164
30
0.0000000000
10
142.4075832418
20
-61.4713549946
30
0.0000000000
11
141.8496492892
21
-62.0695482749
31
0.0000000000
11
141.9116602061
21
-62.0355212985
31
0.0000000000
11
142.0945851573
21
-61.9033974992
31
0.0000000000
11
142.2556544788
21
-61.7314697392
31
0.0000000000
11
142.3774261668
21
-61.5366401257
31
0.0000000000
11
142.4075832418
21
-61.4713549946
31
0.0000000000
0
SPLINE
5
373
100
AcDbEntity
8
0
100
AcDbSpline
62
9
6
CONTINUOUS
70
0
71
3
72
10
73
6
74
4
42
0.0000001000
43
0.0000001000
44
0.0000000001
12
0.1895056478
22
0.4447997926
32
0.0000000000
13
0.0000023852
23
0.4828460691
33
0.0000000000
40
0.0000000000
40
0.0000000000
40
0.0000000000
40
0.0000000000
40
0.2829717453
40
0.6630332227
40
1.0000000000
40
1.0000000000
40
1.0000000000
40
1.0000000000
10
142.4075832418
20
-61.4713549946
30
0.0000000000
10
142.4254581564
20
-61.4293997368
30
0.0000000000
10
142.4617375605
20
-61.3287185035
30
0.0000000000
10
142.4957693107
20
-61.1707885691
30
0.0000000000
10
142.5036168772
20
-61.0552397486
30
0.0000000000
10
142.5036171452
20
-61.0010053873
30
0.0000000000
11
142.4075832418
21
-61.4713549946
31
0.0000000000
11
142.4539269205
21
-61.3427272007
31
0.0000000000
11
142.4925849419
21
-61.1633340169
31
0.0000000000
11
142.5036171452
21
-61.0010053873
31
0.0000000000
0
SPLINE
5
374
100
AcDbEntity
8
0
100
AcDbSpline
62
9
6
CONTINUOUS
70
0
71
3
72
8
73
4
74
2
42
0.0000001000
43
0.0000001000
44
0.0000000001
12
0.0000023266
22
0.1626135988
32
0.0000000000
13
-0.0220081043
23
0.1612884967
33
0.0000000000
40
0.0000000000
40
0.0000000000
40
0.0000000000
40
0.0000000000
40
1.0000000000
40
1.0000000000
40
1.0000000000
40
1.0000000000
10
142.5036171452
20
59.0405864237
30
0.0000000000
10
142.5036179207
20
59.0947909567
30
0.0000000000
10
142.4999333951
20
59.1490633735
30
0.0000000000
10
142.4925973603
20
59.2028262057
30
0.0000000000
11
142.5036171452
21
59.0405864237
31
0.0000000000
11
142.4925973603
21
59.2028262057
31
0.0000000000
0
SPLINE
5
375
100
AcDbEntity
8
0
100
AcDbSpline
62
9
6
CONTINUOUS
70
0
71
3
72
9
73
5
74
3
42
0.0000001000
43
0.0000001000
44
0.0000000001
12
-0.0428704314
22
0.3141800553
32
0.0000000000
13
-0.1234688417
23
0.2921497277
33
0.0000000000
40
0.0000000000
40
0.0000000000
40
0.0000000000
40
0.0000000000
40
0.5746679696
40
1.0000000000
40
1.0000000000
40
1.0000000000
40
1.0000000000
10
142.4925973603
20
59.2028262057
30
0.0000000000
10
142.4843852724
20
59.2630092772
30
0.0000000000
10
142.4621328051
20
59.3666247841
30
0.0000000000
10
142.4264495736
20
59.4663104478
30
0.0000000000
10
142.4089444893
20
59.5077306600
30
0.0000000000
11
142.4925973603
21
59.2028262057
31
0.0000000000
11
142.4543742924
21
59.3808004989
31
0.0000000000
11
142.4089444893
21
59.5077306600
31
0.0000000000
0
SPLINE
5
376
100
AcDbEntity
8
0
100
AcDbSpline
62
9
6
CONTINUOUS
70
0
71
3
72
12
73
8
74
6
42
0.0000001000
43
0.0000001000
44
0.0000000001
12
-0.3248750782
22
0.7687135012
32
0.0000000000
13
-0.7420718191
23
0.3818982382
33
0.0000000000
40
0.0000000000
40
0.0000000000
40
0.0000000000
40
0.0000000000
40
0.0848189872
40
0.3556617390
40
0.6383275981
40
0.9138776726
40
1.0000000000
40
1.0000000000
40
1.0000000000
40
1.0000000000
10
142.4089444893
20
59.5077306600
30
0.0000000000
10
142.3997592976
20
59.5294644936
30
0.0000000000
10
142.3585565792
20
59.6194678977
30
0.0000000000
10
142.2648464147
20
59.7712704666
30
0.0000000000
10
142.1075696630
20
59.9415933682
30
0.0000000000
10
141.9621381510
20
60.0478573148
30
0.0000000000
10
141.8740485509
20
60.0965770428
30
0.0000000000
10
141.8527455668
20
60.1075403645
30
0.0000000000
11
142.4089444893
21
59.5077306600
31
0.0000000000
11
142.3794808625
21
59.5720845155
31
0.0000000000
11
142.2608967043
21
59.7641686060
31
0.0000000000
11
142.1010666934
21
59.9372551739
31
0.0000000000
11
141.9156346122
21
60.0727549262
31
0.0000000000
11
141.8527455668
21
60.1075403645
31
0.0000000000
0
SPLINE
5
377
100
AcDbEntity
8
0
100
AcDbSpline
62
9
6
CONTINUOUS
70
0
71
3
72
10
73
6
74
4
42
0.0000001000
43
0.0000001000
44
0.0000000001
12
-0.4295105930
22
0.2210424039
32
0.0000000000
13
-0.4811290789
23
0.0351732047
33
0.0000000000
40
0.0000000000
40
0.0000000000
40
0.0000000000
40
0.0000000000
40
0.2830042747
40
0.6630509741
40
1.0000000000
40
1.0000000000
40
1.0000000000
40
1.0000000000
10
141.8527455668
20
60.1075403645
30
0.0000000000
10
141.8122277889
20
60.1283923462
30
0.0000000000
10
141.7145282659
20
60.1718396216
30
0.0000000000
10
141.5596289356
20
60.2172155866
30
0.0000000000
10
141.4450674455
20
60.2334419768
30
0.0000000000
10
141.3910287873
20
60.2373925025
30
0.0000000000
11
141.8527455668
21
60.1075403645
31
0.0000000000
11
141.7279152256
21
60.1630467868
31
0.0000000000
11
141.5519699708
21
60.2145893333
31
0.0000000000
11
141.3910287873
21
60.2373925025
31
0.0000000000
0
SPLINE
5
378
100
AcDbEntity
8
0
100
AcDbSpline
62
9
6
CONTINUOUS
70
0
71
3
72
11
73
7
74
5
42
0.0000001000
43
0.0000001000
44
0.0000000001
12
-92.0130453030
22
6.7261409852
32
0.0000000000
13
-92.0130453522
23
-6.7261403120
33
0.0000000000
40
0.0000000000
40
0.0000000000
40
0.0000000000
40
0.0000000000
40
0.2500017252
40
0.4999998370
40
0.7499980578
40
1.0000000000
40
1.0000000000
40
1.0000000000
40
1.0000000000
10
141.3910287873
20
60.2373925025
30
0.0000000000
10
133.7232220999
20
60.7979081191
30
0.0000000000
10
118.3658090911
20
61.6392569621
30
0.0000000000
10
95.3001322825
20
62.0600560600
30
0.0000000000
10
72.2344487750
20
61.6392577918
30
0.0000000000
10
56.8770257401
20
60.7979085496
30
0.0000000000
10
49.2092123924
20
60.2373925025
30
0.0000000000
11
141.3910287873
21
60.2373925025
31
0.0000000000
11
118.3607631202
21
61.4990571467
31
0.0000000000
11
95.3001356294
21
61.9197905182
31
0.0000000000
11
72.2394980708
21
61.4990578851
31
0.0000000000
11
49.2092123924
21
60.2373925025
31
0.0000000000
0
SPLINE
5
379
100
AcDbEntity
8
0
100
AcDbSpline
62
9
6
CONTINUOUS
70
0
71
3
72
8
73
4
74
2
42
0.0000001000
43
0.0000001000
44
0.0000000001
12
-0.1620275454
22
-0.0118420246
32
0.0000000000
13
-0.1591089692
23
-0.0336513833
33
0.0000000000
40
0.0000000000
40
0.0000000000
40
0.0000000000
40
0.0000000000
40
1.0000000000
40
1.0000000000
40
1.0000000000
40
1.0000000000
10
49.2092123924
20
60.2373925025
30
0.0000000000
10
49.1552032106
20
60.2334451610
30
0.0000000000
10
49.1013946561
20
60.2258251928
30
0.0000000000
10
49.0483583330
20
60.2146080651
30
0.0000000000
11
49.2092123924
21
60.2373925025
31
0.0000000000
11
49.0483583330
21
60.2146080651
31
0.0000000000
0
SPLINE
5
37A
100
AcDbEntity
8
0
100
AcDbSpline
62
9
6
CONTINUOUS
70
0
71
3
72
9
73
5
74
3
42
0.0000001000
43
0.0000001000
44
0.0000000001
12
-0.3099568444
22
-0.0655555537
32
0.0000000000
13
-0.2821861484
23
-0.1441899741
33
0.0000000000
40
0.0000000000
40
0.0000000000
40
0.0000000000
40
0.0000000000
40
0.5746290999
40
1.0000000000
40
1.0000000000
40
1.0000000000
40
1.0000000000
10
49.0483583330
20
60.2146080651
30
0.0000000000
10
48.9889882588
20
60.2020513555
30
0.0000000000
10
48.8873533346
20
60.1723550910
30
0.0000000000
10
48.7906031492
20
60.1295740510
30
0.0000000000
10
48.7505918905
20
60.1091293113
30
0.0000000000
11
49.0483583330
21
60.2146080651
31
0.0000000000
11
48.8737964227
21
60.1636021054
31
0.0000000000
11
48.7505918905
21
60.1091293113
31
0.0000000000
0
SPLINE
5
37B
100
AcDbEntity
8
0
100
AcDbSpline
62
9
6
CONTINUOUS
70
0
71
3
72
12
73
8
74
6
42
0.0000001000
43
0.0000001000
44
0.0000000001
12
-0.7431446654
22
-0.3797281004
32
0.0000000000
13
-0.3271172045
23
-0.7677959279
33
0.0000000000
40
0.0000000000
40
0.0000000000
40
0.0000000000
40
0.0000000000
40
0.0847657263
40
0.3555021867
40
0.6381634332
40
0.9138231098
40
1.0000000000
40
1.0000000000
40
1.0000000000
40
1.0000000000
10
48.7505918905
20
60.1091293113
30
0.0000000000
10
48.7295941581
20
60.0984000019
30
0.0000000000
10
48.6428517258
20
60.0508066191
30
0.0000000000
10
48.4982681246
20
59.9463830100
30
0.0000000000
10
48.3397676791
20
59.7771997283
30
0.0000000000
10
48.2442837756
20
59.6244206081
30
0.0000000000
10
48.2020545857
20
59.5329914528
30
0.0000000000
10
48.1926579379
20
59.5109360310
30
0.0000000000
11
48.7505918905
21
60.1091293113
31
0.0000000000
11
48.6885809736
21
60.0751023349
31
0.0000000000
11
48.5056560224
21
59.9429785356
31
0.0000000000
11
48.3445867009
21
59.7710507756
31
0.0000000000
11
48.2228150130
21
59.5762211621
31
0.0000000000
11
48.1926579379
21
59.5109360310
31
0.0000000000
0
SPLINE
5
37C
100
AcDbEntity
8
0
100
AcDbSpline
62
9
6
CONTINUOUS
70
0
71
3
72
10
73
6
74
4
42
0.0000001000
43
0.0000001000
44
0.0000000001
12
-0.1895056478
22
-0.4447997926
32
0.0000000000
13
-0.0000023852
23
-0.4828460691
33
0.0000000000
40
0.0000000000
40
0.0000000000
40
0.0000000000
40
0.0000000000
40
0.2829717453
40
0.6630332227
40
1.0000000000
40
1.0000000000
40
1.0000000000
40
1.0000000000
10
48.1926579379
20
59.5109360310
30
0.0000000000
10
48.1747830233
20
59.4689807731
30
0.0000000000
10
48.1385036192
20
59.3682995399
30
0.0000000000
10
48.1044718690
20
59.2103696054
30
0.0000000000
10
48.0966243025
20
59.0948207850
30
0.0000000000
10
48.0966240346
20
59.0405864237
30
0.0000000000
11
48.1926579379
21
59.5109360310
31
0.0000000000
11
48.1463142592
21
59.3823082371
31
0.0000000000
11
48.1076562378
21
59.2029150533
31
0.0000000000
11
48.0966240346
21
59.0405864237
31
0.0000000000
0
SPLINE
5
37D
100
AcDbEntity
8
0
100
AcDbSpline
62
9
6
CONTINUOUS
70
0
71
3
72
10
73
6
74
4
42
0.0000001000
43
0.0000001000
44
0.0000000001
12
0.0000000002
22
-0.5014818034
32
0.0000000000
13
-0.5014818034
23
0.0000000000
33
0.0000000000
40
0.0000000000
40
0.0000000000
40
0.0000000000
40
0.0000000000
40
0.4985692832
40
0.8639935220
40
1.0000000000
40
1.0000000000
40
1.0000000000
40
1.0000000000
10
164.5757782408
20
-78.4802094818
30
0.0000000000
10
164.5757782409
20
-78.5635506229
30
0.0000000000
10
164.5837809849
20
-78.7230483034
30
0.0000000000
10
164.5489925763
20
-78.8471103247
30
0.0000000000
10
164.5728555145
20
-78.9802094818
30
0.0000000000
10
164.5501205899
20
-78.9802094818
30
0.0000000000
11
164.5757782408
21
-78.4802094818
31
0.0000000000
11
164.5723407737
21
-78.7302092738
31
0.0000000000
11
164.5629494248
21
-78.9132220787
31
0.0000000000
11
164.5501205899
21
-78.9802094818
31
0.0000000000
0
SPLINE
5
37E
100
AcDbEntity
8
0
100
AcDbSpline
62
9
6
CONTINUOUS
70
0
71
3
72
17
73
13
74
11
42
0.0000001000
43
0.0000001000
44
0.0000000001
12
2.3541396731
22
-0.0000084629
32
0.0000000000
13
0.0000653060
23
2.3541396722
33
0.0000000000
40
0.0000000000
40
0.0000000000
40
0.0000000000
40
0.0000000000
40
0.0820169195
40
0.1747051811
40
0.2765142212
40
0.3840837829
40
0.4945915655
40
0.6053277163
40
0.7138326376
40
0.8175334984
40
0.9127231691
40
1.0000000000
40
1.0000000000
40
1.0000000000
40
1.0000000000
10
164.5757782408
20
-78.4802094818
30
0.0000000000
10
164.6401380022
20
-78.4802097132
30
0.0000000000
10
164.7773846684
20
-78.4713682520
30
0.0000000000
10
164.9907071629
20
-78.4278010801
30
0.0000000000
10
165.2139963160
20
-78.3452549433
30
0.0000000000
10
165.4330595885
20
-78.2202575903
30
0.0000000000
10
165.6330989182
20
-78.0552284290
30
0.0000000000
10
165.8020674997
20
-77.8575263195
30
0.0000000000
10
165.9318842787
20
-77.6384536527
30
0.0000000000
10
166.0190896055
20
-77.4123892080
30
0.0000000000
10
166.0664957483
20
-77.1920664416
30
0.0000000000
10
166.0763321023
20
-77.0486967651
30
0.0000000000
10
166.0763340022
20
-76.9802094818
30
0.0000000000
11
164.5757782408
21
-78.4802094818
31
0.0000000000
11
164.7684577013
21
-78.4677903240
31
0.0000000000
11
164.9822455431
21
-78.4241270130
31
0.0000000000
11
165.2070456629
21
-78.3410131788
31
0.0000000000
11
165.4269910700
21
-78.2155087498
31
0.0000000000
11
165.6276637830
21
-78.0499524826
31
0.0000000000
11
165.7970340615
21
-77.8517805046
31
0.0000000000
11
165.9272525720
21
-77.6320293799
31
0.0000000000
11
166.0151222367
21
-77.4042650775
31
0.0000000000
11
166.0622571519
21
-77.1851885395
31
0.0000000000
11
166.0763340022
21
-76.9802094818
31
0.0000000000
0
SPLINE
5
37F
100
AcDbEntity
8
0
100
AcDbSpline
62
9
6
CONTINUOUS
70
0
71
3
72
10
73
6
74
4
42
0.0000001000
43
0.0000001000
44
0.0000000001
12
-0.0000000000
22
-0.5014818038
32
0.0000000000
13
0.5014818038
23
0.0000000000
33
0.0000000000
40
0.0000000000
40
0.0000000000
40
0.0000000000
40
0.0000000000
40
0.4985697071
40
0.8639937377
40
1.0000000000
40
1.0000000000
40
1.0000000000
40
1.0000000000
10
26.0244629389
20
-78.4802094818
30
0.0000000000
10
26.0244629389
20
-78.5635506938
30
0.0000000000
10
26.0164601906
20
-78.7230484262
30
0.0000000000
10
26.0512485912
20
-78.8471104499
30
0.0000000000
10
26.0273857013
20
-78.9802094818
30
0.0000000000
10
26.0501205899
20
-78.9802094818
30
0.0000000000
11
26.0244629389
21
-78.4802094818
31
0.0000000000
11
26.0279004124
21
-78.7302094865
31
0.0000000000
11
26.0372917647
21
-78.9132221870
31
0.0000000000
11
26.0501205899
21
-78.9802094818
31
0.0000000000
0
SPLINE
5
380
100
AcDbEntity
8
0
100
AcDbSpline
62
9
6
CONTINUOUS
70
0
71
3
72
17
73
13
74
11
42
0.0000001000
43
0.0000001000
44
0.0000000001
12
0.0000603966
22
-2.3541420657
32
0.0000000000
13
2.3541420665
23
0.0000052320
33
0.0000000000
40
0.0000000000
40
0.0000000000
40
0.0000000000
40
0.0000000000
40
0.0861406893
40
0.1796454967
40
0.2815495744
40
0.3886359153
40
0.4987746109
40
0.6096962085
40
0.7184688986
40
0.8219418429
40
0.9163755917
40
1.0000000000
40
1.0000000000
40
1.0000000000
40
1.0000000000
10
24.5239071775
20
-76.9802094818
30
0.0000000000
10
24.5239089117
20
-77.0478052886
30
0.0000000000
10
24.5334665893
20
-77.1889543641
30
0.0000000000
10
24.5794267943
20
-77.4058380785
30
0.0000000000
10
24.6639254355
20
-77.6287628964
30
0.0000000000
10
24.7903731910
20
-77.8462898486
30
0.0000000000
10
24.9565409581
20
-78.0446880025
30
0.0000000000
10
25.1555235920
20
-78.2122570335
30
0.0000000000
10
25.3757326926
20
-78.3405020257
30
0.0000000000
10
25.6019078281
20
-78.4258107821
30
0.0000000000
10
25.8189545877
20
-78.4710210819
30
0.0000000000
10
25.9588416931
20
-78.4802096277
30
0.0000000000
10
26.0244629389
20
-78.4802094818
30
0.0000000000
11
24.5239071775
21
-76.9802094818
31
0.0000000000
11
24.5376198587
21
-77.1825327386
31
0.0000000000
11
24.5832502760
21
-77.3978749418
31
0.0000000000
11
24.6682858701
21
-77.6221947202
31
0.0000000000
11
24.7949789396
21
-77.8401430883
31
0.0000000000
11
24.9614618501
21
-78.0389159911
31
0.0000000000
11
25.1611953103
21
-78.2071209683
31
0.0000000000
11
25.3824705726
21
-78.3359900561
31
0.0000000000
11
25.6103840648
21
-78.4219640842
31
0.0000000000
11
25.8280230175
21
-78.4672986977
31
0.0000000000
11
26.0244629389
21
-78.4802094818
31
0.0000000000
0
SPLINE
5
381
100
AcDbEntity
8
0
100
AcDbSpline
62
9
6
CONTINUOUS
70
0
71
3
72
10
73
6
74
4
42
0.0000001000
43
0.0000001000
44
0.0000000001
12
-0.1001134463
22
-0.0073189081
32
0.0000000000
13
-0.0073104091
23
0.1001140673
33
0.0000000000
40
0.0000000000
40
0.0000000000
40
0.0000000000
40
0.0000000000
40
0.1349546079
40
0.5008249232
40
1.0000000000
40
1.0000000000
40
1.0000000000
40
1.0000000000
10
49.2199177597
20
60.1376579161
30
0.0000000000
10
49.2154141694
20
60.1373286759
30
0.0000000000
10
49.2200581855
20
60.1646417573
30
0.0000000000
10
49.2106450572
20
60.1886116932
30
0.0000000000
10
49.2104287884
20
60.2207343534
30
0.0000000000
10
49.2092123971
20
60.2373925025
30
0.0000000000
11
49.2199177597
21
60.1376579161
31
0.0000000000
11
49.2172374450
21
60.1509369384
31
0.0000000000
11
49.2133178151
21
60.1874534658
31
0.0000000000
11
49.2092123971
21
60.2373925025
31
0.0000000000
0
SPLINE
5
382
100
AcDbEntity
8
0
100
AcDbSpline
62
9
6
CONTINUOUS
70
0
71
3
72
10
73
6
74
4
42
0.0000001000
43
0.0000001000
44
0.0000000001
12
-0.0000000002
22
0.5014818034
32
0.0000000000
13
0.5014818034
23
0.0000000000
33
0.0000000000
40
0.0000000000
40
0.0000000000
40
0.0000000000
40
0.0000000000
40
0.4985692832
40
0.8639935220
40
1.0000000000
40
1.0000000000
40
1.0000000000
40
1.0000000000
10
26.0244629389
20
76.5197905182
30
0.0000000000
10
26.0244629388
20
76.6031316593
30
0.0000000000
10
26.0164601949
20
76.7626293398
30
0.0000000000
10
26.0512486034
20
76.8866913611
30
0.0000000000
10
26.0273856652
20
77.0197905182
30
0.0000000000
10
26.0501205899
20
77.0197905182
30
0.0000000000
11
26.0244629389
21
76.5197905182
31
0.0000000000
11
26.0279004061
21
76.7697903102
31
0.0000000000
11
26.0372917549
21
76.9528031151
31
0.0000000000
11
26.0501205899
21
77.0197905182
31
0.0000000000
0
SPLINE
5
383
100
AcDbEntity
8
0
100
AcDbSpline
62
9
6
CONTINUOUS
70
0
71
3
72
8
73
4
74
2
42
0.0000001000
43
0.0000001000
44
0.0000000001
12
-0.0000023266
22
-0.1626135988
32
0.0000000000
13
0.0220081043
23
-0.1612884967
33
0.0000000000
40
0.0000000000
40
0.0000000000
40
0.0000000000
40
0.0000000000
40
1.0000000000
40
1.0000000000
40
1.0000000000
40
1.0000000000
10
48.0966240346
20
-61.0010053873
30
0.0000000000
10
48.0966232590
20
-61.0552099203
30
0.0000000000
10
48.1003077846
20
-61.1094823371
30
0.0000000000
10
48.1076438194
20
-61.1632451693
30
0.0000000000
11
48.0966240346
21
-61.0010053873
31
0.0000000000
11
48.1076438194
21
-61.1632451693
31
0.0000000000
0
SPLINE
5
384
100
AcDbEntity
8
0
100
AcDbSpline
62
9
6
CONTINUOUS
70
0
71
3
72
9
73
5
74
3
42
0.0000001000
43
0.0000001000
44
0.0000000001
12
0.0428704314
22
-0.3141800553
32
0.0000000000
13
0.1234688417
23
-0.2921497277
33
0.0000000000
40
0.0000000000
40
0.0000000000
40
0.0000000000
40
0.0000000000
40
0.5746679696
40
1.0000000000
40
1.0000000000
40
1.0000000000
40
1.0000000000
10
48.1076438194
20
-61.1632451693
30
0.0000000000
10
48.1158559073
20
-61.2234282408
30
0.0000000000
10
48.1381083747
20
-61.3270437478
30
0.0000000000
10
48.1737916061
20
-61.4267294114
30
0.0000000000
10
48.1912966905
20
-61.4681496237
30
0.0000000000
11
48.1076438194
21
-61.1632451693
31
0.0000000000
11
48.1458668873
21
-61.3412194625
31
0.0000000000
11
48.1912966905
21
-61.4681496237
31
0.0000000000
0
SPLINE
5
385
100
AcDbEntity
8
0
100
AcDbSpline
62
9
6
CONTINUOUS
70
0
71
3
72
12
73
8
74
6
42
0.0000001000
43
0.0000001000
44
0.0000000001
12
0.3248750782
22
-0.7687135012
32
0.0000000000
13
0.7420718191
23
-0.3818982382
33
0.0000000000
40
0.0000000000
40
0.0000000000
40
0.0000000000
40
0.0000000000
40
0.0848189872
40
0.3556617390
40
0.6383275981
40
0.9138776726
40
1.0000000000
40
1.0000000000
40
1.0000000000
40
1.0000000000
10
48.1912966905
20
-61.4681496237
30
0.0000000000
10
48.2004818822
20
-61.4898834572
30
0.0000000000
10
48.2416846005
20
-61.5798868613
30
0.0000000000
10
48.3353947651
20
-61.7316894302
30
0.0000000000
10
48.4926715167
20
-61.9020123318
30
0.0000000000
10
48.6381030287
20
-62.0082762784
30
0.0000000000
10
48.7261926288
20
-62.0569960064
30
0.0000000000
10
48.7474956129
20
-62.0679593281
30
0.0000000000
11
48.1912966905
21
-61.4681496237
31
0.0000000000
11
48.2207603172
21
-61.5325034791
31
0.0000000000
11
48.3393444754
21
-61.7245875696
31
0.0000000000
11
48.4991744863
21
-61.8976741375
31
0.0000000000
11
48.6846065675
21
-62.0331738899
31
0.0000000000
11
48.7474956129
21
-62.0679593281
31
0.0000000000
0
SPLINE
5
386
100
AcDbEntity
8
0
100
AcDbSpline
62
9
6
CONTINUOUS
70
0
71
3
72
10
73
6
74
4
42
0.0000001000
43
0.0000001000
44
0.0000000001
12
0.4295105930
22
-0.2210424039
32
0.0000000000
13
0.4811290789
23
-0.0351732047
33
0.0000000000
40
0.0000000000
40
0.0000000000
40
0.0000000000
40
0.0000000000
40
0.2830042747
40
0.6630509741
40
1.0000000000
40
1.0000000000
40
1.0000000000
40
1.0000000000
10
48.7474956129
20
-62.0679593281
30
0.0000000000
10
48.7880133908
20
-62.0888113098
30
0.0000000000
10
48.8857129138
20
-62.1322585852
30
0.0000000000
10
49.0406122441
20
-62.1776345503
30
0.0000000000
10
49.1551737342
20
-62.1938609404
30
0.0000000000
10
49.2092123924
20
-62.1978114661
30
0.0000000000
11
48.7474956129
21
-62.0679593281
31
0.0000000000
11
48.8723259542
21
-62.1234657504
31
0.0000000000
11
49.0482712089
21
-62.1750082969
31
0.0000000000
11
49.2092123924
21
-62.1978114661
31
0.0000000000
0
SPLINE
5
387
100
AcDbEntity
8
0
100
AcDbSpline
62
9
6
CONTINUOUS
70
0
71
3
72
17
73
13
74
11
42
0.0000001000
43
0.0000001000
44
0.0000000001
12
-2.3541396731
22
0.0000084629
32
0.0000000000
13
-0.0000653060
23
-2.3541396722
33
0.0000000000
40
0.0000000000
40
0.0000000000
40
0.0000000000
40
0.0000000000
40
0.0820169195
40
0.1747051811
40
0.2765142212
40
0.3840837830
40
0.4945915655
40
0.6053277163
40
0.7138326376
40
0.8175334984
40
0.9127231692
40
1.0000000000
40
1.0000000000
40
1.0000000000
40
1.0000000000
10
26.0244629389
20
76.5197905182
30
0.0000000000
10
25.9601031775
20
76.5197907496
30
0.0000000000
10
25.8228565113
20
76.5109492884
30
0.0000000000
10
25.6095340168
20
76.4673821164
30
0.0000000000
10
25.3862448637
20
76.3848359797
30
0.0000000000
10
25.1671815912
20
76.2598386267
30
0.0000000000
10
24.9671422615
20
76.0948094653
30
0.0000000000
10
24.7981736800
20
75.8971073558
30
0.0000000000
10
24.6683569010
20
75.6780346891
30
0.0000000000
10
24.5811515742
20
75.4519702444
30
0.0000000000
10
24.5337454314
20
75.2316474780
30
0.0000000000
10
24.5239090774
20
75.0882778015
30
0.0000000000
10
24.5239071775
20
75.0197905182
30
0.0000000000
11
26.0244629389
21
76.5197905182
31
0.0000000000
11
25.8317834784
21
76.5073713603
31
0.0000000000
11
25.6179956366
21
76.4637080494
31
0.0000000000
11
25.3931955168
21
76.3805942151
31
0.0000000000
11
25.1732501097
21
76.2550897862
31
0.0000000000
11
24.9725773966
21
76.0895335190
31
0.0000000000
11
24.8032071182
21
75.8913615409
31
0.0000000000
11
24.6729886077
21
75.6716104163
31
0.0000000000
11
24.5851189430
21
75.4438461139
31
0.0000000000
11
24.5379840279
21
75.2247695759
31
0.0000000000
11
24.5239071775
21
75.0197905182
31
0.0000000000
0
SPLINE
5
388
100
AcDbEntity
8
0
100
AcDbSpline
62
9
6
CONTINUOUS
70
0
71
3
72
10
73
6
74
4
42
0.0000001000
43
0.0000001000
44
0.0000000001
12
-0.0000000000
22
0.5014818038
32
0.0000000000
13
-0.5014818038
23
0.0000000000
33
0.0000000000
40
0.0000000000
40
0.0000000000
40
0.0000000000
40
0.0000000000
40
0.4985697122
40
0.8639937413
40
1.0000000000
40
1.0000000000
40
1.0000000000
40
1.0000000000
10
164.5757782408
20
76.5197905182
30
0.0000000000
10
164.5757782408
20
76.6031317311
30
0.0000000000
10
164.5837809892
20
76.7626294643
30
0.0000000000
10
164.5489925887
20
76.8866914878
30
0.0000000000
10
164.5728554778
20
77.0197905182
30
0.0000000000
10
164.5501205899
20
77.0197905182
30
0.0000000000
11
164.5757782408
21
76.5197905182
31
0.0000000000
11
164.5723407672
21
76.7697905255
31
0.0000000000
11
164.5629494149
21
76.9528032251
31
0.0000000000
11
164.5501205899
21
77.0197905182
31
0.0000000000
0
SPLINE
5
389
100
AcDbEntity
8
0
100
AcDbSpline
62
9
6
CONTINUOUS
70
0
71
3
72
10
73
6
74
4
42
0.0000001000
43
0.0000001000
44
0.0000000001
12
0.1001151763
22
-0.0072995684
32
0.0000000000
13
0.0073104236
23
0.1001143842
33
0.0000000000
40
0.0000000000
40
0.0000000000
40
0.0000000000
40
0.0000000000
40
0.1349568543
40
0.5008269972
40
1.0000000000
40
1.0000000000
40
1.0000000000
40
1.0000000000
10
141.3803233966
20
60.1376575954
30
0.0000000000
10
141.3848271397
20
60.1373292198
30
0.0000000000
10
141.3801828404
20
60.1646405413
30
0.0000000000
10
141.3895961658
20
60.1886123173
30
0.0000000000
10
141.3898123760
20
60.2207343699
30
0.0000000000
10
141.3910287647
20
60.2373925025
30
0.0000000000
11
141.3803233966
21
60.1376575954
31
0.0000000000
11
141.3830037263
21
60.1509368884
31
0.0000000000
11
141.3869233562
21
60.1874535150
31
0.0000000000
11
141.3910287647
21
60.2373925025
31
0.0000000000
0
SPLINE
5
38A
100
AcDbEntity
8
0
100
AcDbSpline
62
9
6
CONTINUOUS
70
0
71
3
72
10
73
6
74
4
42
0.0000001000
43
0.0000001000
44
0.0000000001
12
0.1001134463
22
0.0073189081
32
0.0000000000
13
0.0073104091
23
-0.1001140673
33
0.0000000000
40
0.0000000000
40
0.0000000000
40
0.0000000000
40
0.0000000000
40
0.1349546079
40
0.5008249232
40
1.0000000000
40
1.0000000000
40
1.0000000000
40
1.0000000000
10
141.3803234201
20
-62.0980768797
30
0.0000000000
10
141.3848270104
20
-62.0977476396
30
0.0000000000
10
141.3801829942
20
-62.1250607210
30
0.0000000000
10
141.3895961226
20
-62.1490306568
30
0.0000000000
10
141.3898123913
20
-62.1811533170
30
0.0000000000
10
141.3910287827
20
-62.1978114661
30
0.0000000000
11
141.3803234201
21
-62.0980768797
31
0.0000000000
11
141.3830037347
21
-62.1113559020
31
0.0000000000
11
141.3869233646
21
-62.1478724294
31
0.0000000000
11
141.3910287827
21
-62.1978114661
31
0.0000000000
0
SPLINE
5
38B
100
AcDbEntity
8
0
100
AcDbSpline
62
9
6
CONTINUOUS
70
0
71
3
72
17
73
13
74
11
42
0.0000001000
43
0.0000001000
44
0.0000000001
12
-0.0000603966
22
2.3541420657
32
0.0000000000
13
-2.3541420665
23
-0.0000052320
33
0.0000000000
40
0.0000000000
40
0.0000000000
40
0.0000000000
40
0.0000000000
40
0.0861406893
40
0.1796454967
40
0.2815495744
40
0.3886359153
40
0.4987746110
40
0.6096962085
40
0.7184688986
40
0.8219418429
40
0.9163755917
40
1.0000000000
40
1.0000000000
40
1.0000000000
40
1.0000000000
10
166.0763340022
20
75.0197905182
30
0.0000000000
10
166.0763322680
20
75.0873863250
30
0.0000000000
10
166.0667745904
20
75.2285354004
30
0.0000000000
10
166.0208143854
20
75.4454191149
30
0.0000000000
10
165.9363157442
20
75.6683439328
30
0.0000000000
10
165.8098679886
20
75.8858708850
30
0.0000000000
10
165.6437002216
20
76.0842690390
30
0.0000000000
10
165.4447175877
20
76.2518380699
30
0.0000000000
10
165.2245084871
20
76.3800830621
30
0.0000000000
10
164.9983333516
20
76.4653918185
30
0.0000000000
10
164.7812865920
20
76.5106021183
30
0.0000000000
10
164.6413994866
20
76.5197906640
30
0.0000000000
10
164.5757782408
20
76.5197905182
30
0.0000000000
11
166.0763340022
21
75.0197905182
31
0.0000000000
11
166.0626213210
21
75.2221137750
31
0.0000000000
11
166.0169909037
21
75.4374559782
31
0.0000000000
11
165.9319553096
21
75.6617757566
31
0.0000000000
11
165.8052622400
21
75.8797241247
31
0.0000000000
11
165.6387793296
21
76.0784970275
31
0.0000000000
11
165.4390458694
21
76.2467020047
31
0.0000000000
11
165.2177706071
21
76.3755710925
31
0.0000000000
11
164.9898571149
21
76.4615451206
31
0.0000000000
11
164.7722181622
21
76.5068797341
31
0.0000000000
11
164.5757782408
21
76.5197905182
31
0.0000000000
0
SPLINE
5
38C
100
AcDbEntity
8
0
100
AcDbSpline
62
7
6
CONTINUOUS
70
0
71
3
72
11
73
7
74
5
42
0.0000001000
43
0.0000001000
44
0.0000000001
12
1.0036227065
22
0.0000000000
32
0.0000000000
13
0.0291121577
23
-1.0075578613
33
0.0000000000
40
0.0000000000
40
0.0000000000
40
0.0000000000
40
0.0000000000
40
0.1023970144
40
0.3880084841
40
0.8272812714
40
1.0000000000
40
1.0000000000
40
1.0000000000
40
1.0000000000
10
-25.3974351091
20
77.0197905182
30
0.0000000000
10
-25.3631791195
20
77.0197905182
30
0.0000000000
10
-25.3714416508
20
76.8219300820
30
0.0000000000
10
-25.3198607326
20
76.6089924507
30
0.0000000000
10
-25.3152829614
20
76.2862567930
30
0.0000000000
10
-25.3095571102
20
76.0786035479
30
0.0000000000
10
-25.3078810385
20
76.0205955103
30
0.0000000000
11
-25.3974351091
21
77.0197905182
31
0.0000000000
11
-25.3652798227
21
76.9221826652
31
0.0000000000
11
-25.3358840487
21
76.6370477720
31
0.0000000000
11
-25.3125815909
21
76.1967999002
31
0.0000000000
11
-25.3078810385
21
76.0205955103
31
0.0000000000
0
SPLINE
5
38D
100
AcDbEntity
8
0
100
AcDbSpline
62
7
6
CONTINUOUS
70
0
71
3
72
8
73
4
74
2
42
0.0000001000
43
0.0000001000
44
0.0000000001
12
0.0054745938
22
-0.1894730747
32
0.0000000000
13
0.0053314471
23
-0.1867396926
33
0.0000000000
40
0.0000000000
40
0.0000000000
40
0.0000000000
40
0.0000000000
40
1.0000000000
40
1.0000000000
40
1.0000000000
40
1.0000000000
10
-25.3078810385
20
76.0205955103
30
0.0000000000
10
-25.3060561739
20
75.9574378188
30
0.0000000000
10
-25.3041600665
20
75.8949874780
30
0.0000000000
10
-25.3023829175
20
75.8327409139
30
0.0000000000
11
-25.3078810385
21
76.0205955103
31
0.0000000000
11
-25.3023829175
21
75.8327409139
31
0.0000000000
0
SPLINE
5
38E
100
AcDbEntity
8
0
100
AcDbSpline
62
7
6
CONTINUOUS
70
0
71
3
72
9
73
5
74
3
42
0.0000001000
43
0.0000001000
44
0.0000000001
12
0.0230271281
22
-0.8065500335
32
0.0000000000
13
-0.0000000000
23
-0.8151596225
33
0.0000000000
40
0.0000000000
40
0.0000000000
40
0.0000000000
40
0.0000000000
40
0.2435740228
40
1.0000000000
40
1.0000000000
40
1.0000000000
40
1.0000000000
10
-25.3023829175
20
75.8327409139
30
0.0000000000
10
-25.3005133141
20
75.7672560351
30
0.0000000000
10
-25.2933781292
20
75.4993319461
30
0.0000000000
10
-25.2921948261
20
75.2253264895
30
0.0000000000
10
-25.2921948261
20
75.0197905182
30
0.0000000000
11
-25.3023829175
21
75.8327409139
31
0.0000000000
11
-25.2973905378
21
75.6363765416
31
0.0000000000
11
-25.2921948261
21
75.0197905182
31
0.0000000000
0
SPLINE
5
38F
100
AcDbEntity
8
0
100
AcDbSpline
62
7
6
CONTINUOUS
70
0
71
3
72
9
73
5
74
3
42
0.0000001000
43
0.0000001000
44
0.0000000001
12
0.0000000000
22
-0.8151596225
32
0.0000000000
13
-0.0230271281
23
-0.8065500335
33
0.0000000000
40
0.0000000000
40
0.0000000000
40
0.0000000000
40
0.0000000000
40
0.7564259772
40
1.0000000000
40
1.0000000000
40
1.0000000000
40
1.0000000000
10
-25.2921948261
20
-76.9802094818
30
0.0000000000
10
-25.2921948261
20
-77.1857454531
30
0.0000000000
10
-25.2933781292
20
-77.4597509097
30
0.0000000000
10
-25.3005133141
20
-77.7276749987
30
0.0000000000
10
-25.3023829175
20
-77.7931598775
30
0.0000000000
11
-25.2921948261
21
-76.9802094818
31
0.0000000000
11
-25.2973905378
21
-77.5967955052
31
0.0000000000
11
-25.3023829175
21
-77.7931598775
31
0.0000000000
0
SPLINE
5
390
100
AcDbEntity
8
0
100
AcDbSpline
62
7
6
CONTINUOUS
70
0
71
3
72
8
73
4
74
2
42
0.0000001000
43
0.0000001000
44
0.0000000001
12
-0.0053927314
22
-0.1888862414
32
0.0000000000
13
-0.0055324773
23
-0.1917005916
33
0.0000000000
40
0.0000000000
40
0.0000000000
40
0.0000000000
40
0.0000000000
40
1.0000000000
40
1.0000000000
40
1.0000000000
40
1.0000000000
10
-25.3023829175
20
-77.7931598775
30
0.0000000000
10
-25.3041804946
20
-77.8561219579
30
0.0000000000
10
-25.3060997807
20
-77.9192925266
30
0.0000000000
10
-25.3079439398
20
-77.9831927238
30
0.0000000000
11
-25.3023829175
21
-77.7931598775
31
0.0000000000
11
-25.3079439398
21
-77.9831927238
31
0.0000000000
0
SPLINE
5
391
100
AcDbEntity
8
0
100
AcDbSpline
62
7
6
CONTINUOUS
70
0
71
3
72
11
73
7
74
5
42
0.0000001000
43
0.0000001000
44
0.0000000001
12
-0.0290227556
22
-1.0056398165
32
0.0000000000
13
-1.0014532441
23
0.0000000000
33
0.0000000000
40
0.0000000000
40
0.0000000000
40
0.0000000000
40
0.0000000000
40
0.1709265775
40
0.6111509676
40
0.8973811615
40
1.0000000000
40
1.0000000000
40
1.0000000000
40
1.0000000000
10
-25.3079439398
20
-77.9831927238
30
0.0000000000
10
-25.3095975265
20
-78.0404895812
30
0.0000000000
10
-25.3152939857
20
-78.2474529772
30
0.0000000000
10
-25.3198607326
20
-78.5694114143
30
0.0000000000
10
-25.3714416508
20
-78.7823490456
30
0.0000000000
10
-25.3631791195
20
-78.9802094818
30
0.0000000000
10
-25.3974351091
20
-78.9802094818
30
0.0000000000
11
-25.3079439398
21
-77.9831927238
31
0.0000000000
11
-25.3125815909
21
-78.1572188638
31
0.0000000000
11
-25.3358840487
21
-78.5974667356
31
0.0000000000
11
-25.3652798227
21
-78.8826016288
31
0.0000000000
11
-25.3974351091
21
-78.9802094818
31
0.0000000000
0
SPLINE
5
392
100
AcDbEntity
8
0
100
AcDbSpline
62
9
6
CONTINUOUS
70
0
71
3
72
9
73
5
74
3
42
0.0000001000
43
0.0000001000
44
0.0000000001
12
0.0168038450
22
0.0359522763
32
0.0000000000
13
0.0049197267
23
0.0394460766
33
0.0000000000
40
0.0000000000
40
0.0000000000
40
0.0000000000
40
0.0000000000
40
0.5906432452
40
1.0000000000
40
1.0000000000
40
1.0000000000
40
1.0000000000
10
-31.8051610333
20
-62.1978114661
30
0.0000000000
10
-31.8018526741
20
-62.1907331431
30
0.0000000000
10
-31.7999356472
20
-62.1773911304
30
0.0000000000
10
-31.7982144840
20
-62.1642056993
30
0.0000000000
10
-31.7975431762
20
-62.1588231933
30
0.0000000000
11
-31.8051610333
21
-62.1978114661
31
0.0000000000
11
-31.7996564450
21
-62.1750270287
31
0.0000000000
11
-31.7975431762
21
-62.1588231933
31
0.0000000000
0
SPLINE
5
393
100
AcDbEntity
8
0
100
AcDbSpline
62
9
6
CONTINUOUS
70
0
71
3
72
10
73
6
74
4
42
0.0000001000
43
0.0000001000
44
0.0000000001
12
0.0257167027
22
0.2061949953
32
0.0000000000
13
0.0094559564
23
0.2071493270
33
0.0000000000
40
0.0000000000
40
0.0000000000
40
0.0000000000
40
0.0000000000
40
0.1692563478
40
0.5969809162
40
1.0000000000
40
1.0000000000
40
1.0000000000
40
1.0000000000
10
-31.7975431762
20
-62.1588231933
30
0.0000000000
10
-31.7960922711
20
-62.1471899227
30
0.0000000000
10
-31.7915228339
20
-62.1064062174
30
0.0000000000
10
-31.7871991137
20
-62.0371973504
30
0.0000000000
10
-31.7842964441
20
-61.9798299768
30
0.0000000000
10
-31.7830261338
20
-61.9520015995
30
0.0000000000
11
-31.7975431762
21
-62.1588231933
31
0.0000000000
11
-31.7936610365
21
-62.1240210690
31
0.0000000000
11
-31.7872750034
21
-62.0355212985
31
0.0000000000
11
-31.7830261338
21
-61.9520015995
31
0.0000000000
0
SPLINE
5
394
100
AcDbEntity
8
0
100
AcDbSpline
62
9
6
CONTINUOUS
70
0
71
3
72
10
73
6
74
4
42
0.0000001000
43
0.0000001000
44
0.0000000001
12
0.0129448284
22
0.2835791931
32
0.0000000000
13
0.0066167762
23
0.2839130480
33
0.0000000000
40
0.0000000000
40
0.0000000000
40
0.0000000000
40
0.0000000000
40
0.1713840713
40
0.7771145468
40
1.0000000000
40
1.0000000000
40
1.0000000000
40
1.0000000000
10
-31.7830261338
20
-61.9520015995
30
0.0000000000
10
-31.7822866213
20
-61.9358012806
30
0.0000000000
10
-31.7791452694
20
-61.8623469537
30
0.0000000000
10
-31.7762119756
20
-61.7677009214
30
0.0000000000
10
-31.7742640526
20
-61.6892824111
30
0.0000000000
10
-31.7737724583
20
-61.6681890483
30
0.0000000000
11
-31.7830261338
21
-61.9520015995
31
0.0000000000
11
-31.7809429581
21
-61.9033974992
31
0.0000000000
11
-31.7753468990
21
-61.7314697392
31
0.0000000000
11
-31.7737724583
21
-61.6681890483
31
0.0000000000
0
SPLINE
5
395
100
AcDbEntity
8
0
100
AcDbSpline
62
9
6
CONTINUOUS
70
0
71
3
72
11
73
7
74
5
42
0.0000001000
43
0.0000001000
44
0.0000000001
12
0.0155464363
22
0.6670674656
32
0.0000000000
13
-0.0000001612
23
0.6672382252
33
0.0000000000
40
0.0000000000
40
0.0000000000
40
0.0000000000
40
0.0000000000
40
0.1972002339
40
0.4878480411
40
0.7567149449
40
1.0000000000
40
1.0000000000
40
1.0000000000
40
1.0000000000
10
-31.7737724583
20
-61.6681890483
30
0.0000000000
10
-31.7727505380
20
-61.6243404283
30
0.0000000000
10
-31.7705684694
20
-61.5158652056
30
0.0000000000
10
-31.7682938981
20
-61.3475723067
30
0.0000000000
10
-31.7669624397
20
-61.1690246037
30
0.0000000000
10
-31.7666942433
20
-61.0551150835
30
0.0000000000
10
-31.7666942564
20
-61.0010053873
30
0.0000000000
11
-31.7737724583
21
-61.6681890483
31
0.0000000000
11
-31.7711033848
21
-61.5366401257
31
0.0000000000
11
-31.7684318495
21
-61.3427272007
31
0.0000000000
11
-31.7670801944
21
-61.1633340169
31
0.0000000000
11
-31.7666942564
21
-61.0010053873
31
0.0000000000
0
SPLINE
5
396
100
AcDbEntity
8
0
100
AcDbSpline
62
9
6
CONTINUOUS
70
0
71
3
72
8
73
4
74
2
42
0.0000001000
43
0.0000001000
44
0.0000000001
12
-0.0184551792
22
-0.0397967660
32
0.0000000000
13
0.0001081802
23
-0.0432258218
33
0.0000000000
40
0.0000000000
40
0.0000000000
40
0.0000000000
40
0.0000000000
40
1.0000000000
40
1.0000000000
40
1.0000000000
40
1.0000000000
10
-31.7957947821
20
-62.1554857867
30
0.0000000000
10
-31.8019465085
20
-62.1687513754
30
0.0000000000
10
-31.8051969569
20
-62.1834028588
30
0.0000000000
10
-31.8051608968
20
-62.1978114661
30
0.0000000000
11
-31.7957947821
21
-62.1554857867
31
0.0000000000
11
-31.8051608968
21
-62.1978114661
31
0.0000000000
0
SPLINE
5
397
100
AcDbEntity
8
0
100
AcDbSpline
62
9
6
CONTINUOUS
70
0
71
3
72
10
73
6
74
4
42
0.0000001000
43
0.0000001000
44
0.0000000001
12
0.0000000000
22
-0.7759457292
32
0.0000000000
13
0.7759457292
23
-0.0000000000
33
0.0000000000
40
0.0000000000
40
0.0000000000
40
0.0000000000
40
0.0000000000
40
0.3335233061
40
0.6668567135
40
1.0000000000
40
1.0000000000
40
1.0000000000
40
1.0000000000
10
-30.8135725149
20
-78.4802094818
30
0.0000000000
10
-30.8135725149
20
-78.5664748101
30
0.0000000000
10
-30.7667974845
20
-78.7422657921
30
0.0000000000
10
-30.5760945621
20
-78.9332996935
30
0.0000000000
10
-30.4003983007
20
-78.9802094818
30
0.0000000000
10
-30.3142312639
20
-78.9802094818
30
0.0000000000
11
-30.8135725149
21
-78.4802094818
31
0.0000000000
11
-30.7466735924
21
-78.7302092738
31
0.0000000000
11
-30.5639020710
21
-78.9132220787
31
0.0000000000
11
-30.3142312639
21
-78.9802094818
31
0.0000000000
0
SPLINE
5
398
100
AcDbEntity
8
0
100
AcDbSpline
62
9
6
CONTINUOUS
70
0
71
3
72
17
73
13
74
11
42
0.0000001000
43
0.0000001000
44
0.0000000001
12
1.5068683353
22
-0.0001054244
32
0.0000000000
13
0.0000022561
23
1.5068683390
33
0.0000000000
40
0.0000000000
40
0.0000000000
40
0.0000000000
40
0.0000000000
40
0.0105457962
40
0.0404326786
40
0.0961274150
40
0.1797599186
40
0.2898464737
40
0.4214898993
40
0.5673930195
40
0.7185746912
40
0.8639692770
40
1.0000000000
40
1.0000000000
40
1.0000000000
40
1.0000000000
10
-30.8135725149
20
-78.4802094818
30
0.0000000000
10
-30.8082754728
20
-78.4802098524
30
0.0000000000
10
-30.7986318759
20
-78.4554536854
30
0.0000000000
10
-30.7901500292
20
-78.4138768802
30
0.0000000000
10
-30.7784355316
20
-78.3258992155
30
0.0000000000
10
-30.7680955108
20
-78.2028180036
30
0.0000000000
10
-30.7579680390
20
-78.0389786928
30
0.0000000000
10
-30.7495594884
20
-77.8446996358
30
0.0000000000
10
-30.7429875195
20
-77.6293708663
30
0.0000000000
10
-30.7385641757
20
-77.4071810303
30
0.0000000000
10
-30.7361368570
20
-77.1898925525
30
0.0000000000
10
-30.7356322581
20
-77.0485362784
30
0.0000000000
10
-30.7356321558
20
-76.9802094818
30
0.0000000000
11
-30.8135725149
21
-78.4802094818
31
0.0000000000
11
-30.8036582616
21
-78.4677903240
31
0.0000000000
11
-30.7926255715
21
-78.4241270130
31
0.0000000000
11
-30.7809879211
21
-78.3410131788
31
0.0000000000
11
-30.7695652180
21
-78.2155087498
31
0.0000000000
11
-30.7591120394
21
-78.0499524826
31
0.0000000000
11
-30.7502661186
21
-77.8517805046
31
0.0000000000
11
-30.7434505196
21
-77.6320293799
31
0.0000000000
11
-30.7388443202
21
-77.4042650775
31
0.0000000000
11
-30.7363711030
21
-77.1851885395
31
0.0000000000
11
-30.7356321558
21
-76.9802094818
31
0.0000000000
0
SPLINE
5
399
100
AcDbEntity
8
0
100
AcDbSpline
62
9
6
CONTINUOUS
70
0
71
3
72
8
73
4
74
2
42
0.0000001000
43
0.0000001000
44
0.0000000001
12
-0.0184548956
22
0.0397966545
32
0.0000000000
13
0.0001082890
23
0.0432256061
33
0.0000000000
40
0.0000000000
40
0.0000000000
40
0.0000000000
40
0.0000000000
40
1.0000000000
40
1.0000000000
40
1.0000000000
40
1.0000000000
10
-31.7957944578
20
60.1950669988
30
0.0000000000
10
-31.8019460897
20
60.2083325503
30
0.0000000000
10
-31.8051964680
20
60.2229839671
30
0.0000000000
10
-31.8051603716
20
60.2373925025
30
0.0000000000
11
-31.7957944578
21
60.1950669988
31
0.0000000000
11
-31.8051603716
21
60.2373925025
31
0.0000000000
0
SPLINE
5
39A
100
AcDbEntity
8
0
100
AcDbSpline
62
9
6
CONTINUOUS
70
0
71
3
72
10
73
6
74
4
42
0.0000001000
43
0.0000001000
44
0.0000000001
12
-0.0000000000
22
0.7759457292
32
0.0000000000
13
0.7759457292
23
0.0000000000
33
0.0000000000
40
0.0000000000
40
0.0000000000
40
0.0000000000
40
0.0000000000
40
0.3335236155
40
0.6668569871
40
1.0000000000
40
1.0000000000
40
1.0000000000
40
1.0000000000
10
-30.8135725149
20
76.5197905182
30
0.0000000000
10
-30.8135725149
20
76.6060559265
30
0.0000000000
10
-30.7667974166
20
76.7818469880
30
0.0000000000
10
-30.5760944035
20
76.9728807943
30
0.0000000000
10
-30.4003982299
20
77.0197905182
30
0.0000000000
10
-30.3142312639
20
77.0197905182
30
0.0000000000
11
-30.8135725149
21
76.5197905182
31
0.0000000000
11
-30.7466734682
21
76.7697905255
31
0.0000000000
11
-30.5639018807
21
76.9528032251
31
0.0000000000
11
-30.3142312639
21
77.0197905182
31
0.0000000000
0
SPLINE
5
39B
100
AcDbEntity
8
0
100
AcDbSpline
62
9
6
CONTINUOUS
70
0
71
3
72
8
73
4
74
2
42
0.0000001000
43
0.0000001000
44
0.0000000001
12
-0.1491019743
22
-0.3184729501
32
0.0000000000
13
0.0000000018
23
0.0000000012
33
0.0000000000
40
0.0000000000
40
0.0000000000
40
0.0000000000
40
0.0000000000
40
1.0000000000
40
1.0000000000
40
1.0000000000
40
1.0000000000
10
-32.5046275219
20
-63.6931777320
30
0.0000000000
10
-32.5543281800
20
-63.7993353821
30
0.0000000000
10
-32.5921948267
20
-63.8802094822
30
0.0000000000
10
-32.5921948261
20
-63.8802094818
30
0.0000000000
11
-32.5046275219
21
-63.6931777320
31
0.0000000000
11
-32.5921948261
21
-63.8802094818
31
0.0000000000
0
SPLINE
5
39C
100
AcDbEntity
8
0
100
AcDbSpline
62
9
6
CONTINUOUS
70
0
71
3
72
8
73
4
74
2
42
0.0000001000
43
0.0000001000
44
0.0000000001
12
-0.0338430253
22
-0.0722888849
32
0.0000000000
13
-0.0314207124
23
-0.0671127732
33
0.0000000000
40
0.0000000000
40
0.0000000000
40
0.0000000000
40
0.0000000000
40
1.0000000000
40
1.0000000000
40
1.0000000000
40
1.0000000000
10
-32.4718738422
20
-63.6232167859
30
0.0000000000
10
-32.4831548506
20
-63.6473130809
30
0.0000000000
10
-32.4941539511
20
-63.6708068076
30
0.0000000000
10
-32.5046275219
20
-63.6931777320
30
0.0000000000
11
-32.4718738422
21
-63.6232167859
31
0.0000000000
11
-32.5046275219
21
-63.6931777320
31
0.0000000000
0
SPLINE
5
39D
100
AcDbEntity
8
0
100
AcDbSpline
62
9
6
CONTINUOUS
70
0
71
3
72
8
73
4
74
2
42
0.0000001000
43
0.0000001000
44
0.0000000001
12
-0.0054527009
22
-0.0116470635
32
0.0000000000
13
-0.0054124287
23
-0.0115609769
33
0.0000000000
40
0.0000000000
40
0.0000000000
40
0.0000000000
40
0.0000000000
40
1.0000000000
40
1.0000000000
40
1.0000000000
40
1.0000000000
10
-32.4664407791
20
-63.6116117017
30
0.0000000000
10
-32.4682583461
20
-63.6154940562
30
0.0000000000
10
-32.4700696993
20
-63.6193631269
30
0.0000000000
10
-32.4718738422
20
-63.6232167859
30
0.0000000000
11
-32.4664407791
21
-63.6116117017
31
0.0000000000
11
-32.4718738422
21
-63.6232167859
31
0.0000000000
0
SPLINE
5
39E
100
AcDbEntity
8
0
100
AcDbSpline
62
9
6
CONTINUOUS
70
0
71
3
72
8
73
4
74
2
42
0.0000001000
43
0.0000001000
44
0.0000000001
12
-0.0700523270
22
-0.1496478067
32
0.0000000000
13
-0.0702577894
23
-0.1500718539
33
0.0000000000
40
0.0000000000
40
0.0000000000
40
0.0000000000
40
0.0000000000
40
1.0000000000
40
1.0000000000
40
1.0000000000
40
1.0000000000
10
-32.3952198527
20
-63.4594757977
30
0.0000000000
10
-32.4185706284
20
-63.5093584000
30
0.0000000000
10
-32.4430215159
20
-63.5615877504
30
0.0000000000
10
-32.4664407791
20
-63.6116117017
30
0.0000000000
11
-32.3952198527
21
-63.4594757977
31
0.0000000000
11
-32.4664407791
21
-63.6116117017
31
0.0000000000
0
SPLINE
5
39F
100
AcDbEntity
8
0
100
AcDbSpline
62
9
6
CONTINUOUS
70
0
71
3
72
8
73
4
74
2
42
0.0000001000
43
0.0000001000
44
0.0000000001
12
-0.5896824625
22
-1.2618405346
32
0.0000000000
13
-0.8119110610
23
-1.7344278878
33
0.0000000000
40
0.0000000000
40
0.0000000000
40
0.0000000000
40
0.0000000000
40
1.0000000000
40
1.0000000000
40
1.0000000000
40
1.0000000000
10
-31.8051610333
20
-62.1978114661
30
0.0000000000
10
-32.0017218541
20
-62.6184249776
30
0.0000000000
10
-32.1245828324
20
-62.8813331685
30
0.0000000000
10
-32.3952198527
20
-63.4594757977
30
0.0000000000
11
-31.8051610333
21
-62.1978114661
31
0.0000000000
11
-32.3952198527
21
-63.4594757977
31
0.0000000000
0
SPLINE
5
3A0
100
AcDbEntity
8
0
100
AcDbSpline
62
9
6
CONTINUOUS
70
0
71
3
72
17
73
13
74
11
42
0.0000001000
43
0.0000001000
44
0.0000000001
12
-0.0000031589
22
2.0052729334
32
0.0000000000
13
-2.0052729325
23
-0.0000600369
33
0.0000000000
40
0.0000000000
40
0.0000000000
40
0.0000000000
40
0.0000000000
40
0.1345199817
40
0.2776708298
40
0.4267924361
40
0.5717198080
40
0.7039614897
40
0.8159550749
40
0.9018749337
40
0.9593736438
40
0.9900448133
40
1.0000000000
40
1.0000000000
40
1.0000000000
40
1.0000000000
10
-30.2363197716
20
75.0197905182
30
0.0000000000
10
-30.2363199132
20
75.1097069443
30
0.0000000000
10
-30.2368105833
20
75.2953070385
30
0.0000000000
10
-30.2391621399
20
75.5805880375
30
0.0000000000
10
-30.2434570523
20
75.8727532328
30
0.0000000000
10
-30.2498277935
20
76.1577727912
30
0.0000000000
10
-30.2581821033
20
76.4173040691
30
0.0000000000
10
-30.2679695318
20
76.6391244137
30
0.0000000000
10
-30.2790132084
20
76.8061230627
30
0.0000000000
10
-30.2894266231
20
76.9290925128
30
0.0000000000
10
-30.3001729056
20
76.9828649842
30
0.0000000000
10
-30.3075769751
20
77.0197907174
30
0.0000000000
10
-30.3142312639
20
77.0197905182
30
0.0000000000
11
-30.2363197716
21
75.0197905182
31
0.0000000000
11
-30.2370392439
21
75.2895388371
31
0.0000000000
11
-30.2394316997
21
75.5765853881
31
0.0000000000
11
-30.2438855206
21
75.8755817389
31
0.0000000000
11
-30.2505116758
21
76.1661251265
31
0.0000000000
11
-30.2592023098
21
76.4311633464
31
0.0000000000
11
-30.2696039734
21
76.6555000377
31
0.0000000000
11
-30.2810954095
21
76.8274091547
31
0.0000000000
11
-30.2928949407
21
76.9421044078
31
0.0000000000
11
-30.3041257758
21
77.0025743878
31
0.0000000000
11
-30.3142312639
21
77.0197905182
31
0.0000000000
0
SPLINE
5
3A1
100
AcDbEntity
8
0
100
AcDbSpline
62
9
6
CONTINUOUS
70
0
71
3
72
17
73
13
74
11
42
0.0000001000
43
0.0000001000
44
0.0000000001
12
-0.0000020840
22
1.5068460058
32
0.0000000000
13
-1.5068460044
23
-0.0000651760
33
0.0000000000
40
0.0000000000
40
0.0000000000
40
0.0000000000
40
0.0000000000
40
0.1342702151
40
0.2771882788
40
0.4260847606
40
0.5707904822
40
0.7028298830
40
0.8146704766
40
0.9005323513
40
0.9581228953
40
0.9891183544
40
1.0000000000
40
1.0000000000
40
1.0000000000
40
1.0000000000
10
-30.7356321558
20
75.0197905182
30
0.0000000000
10
-30.7356322490
20
75.0872320306
30
0.0000000000
10
-30.7361228780
20
75.2264580162
30
0.0000000000
10
-30.7384782473
20
75.4404676913
30
0.0000000000
10
-30.7427691082
20
75.6596631065
30
0.0000000000
10
-30.7491730513
20
75.8734426166
30
0.0000000000
10
-30.7574445813
20
76.0681989336
30
0.0000000000
10
-30.7674968185
20
76.2342684980
30
0.0000000000
10
-30.7778995945
20
76.3602190494
30
0.0000000000
10
-30.7896929768
20
76.4510505881
30
0.0000000000
10
-30.7983866316
20
76.4939334584
30
0.0000000000
10
-30.8081068602
20
76.5197907546
30
0.0000000000
10
-30.8135725149
20
76.5197905182
30
0.0000000000
11
-30.7356321558
21
75.0197905182
31
0.0000000000
11
-30.7363519882
21
75.2221137750
31
0.0000000000
11
-30.7387463008
21
75.4374559782
31
0.0000000000
11
-30.7432041437
21
75.6617757566
31
0.0000000000
11
-30.7498358314
21
75.8797241247
31
0.0000000000
11
-30.7585321476
21
76.0784970275
31
0.0000000000
11
-30.7689381208
21
76.2467020047
31
0.0000000000
11
-30.7804317634
21
76.3755710925
31
0.0000000000
11
-30.7922321437
21
76.4615451206
31
0.0000000000
11
-30.8034644938
21
76.5068797341
31
0.0000000000
11
-30.8135725149
21
76.5197905182
31
0.0000000000
0
SPLINE
5
3A2
100
AcDbEntity
8
0
100
AcDbSpline
62
9
6
CONTINUOUS
70
0
71
3
72
11
73
7
74
5
42
0.0000001000
43
0.0000001000
44
0.0000000001
12
-0.0000004509
22
0.6609845354
32
0.0000000000
13
-0.0151940845
23
0.6608197691
33
0.0000000000
40
0.0000000000
40
0.0000000000
40
0.0000000000
40
0.0000000000
40
0.2454523991
40
0.5147163553
40
0.8041359809
40
1.0000000000
40
1.0000000000
40
1.0000000000
40
1.0000000000
10
-31.7666942564
20
59.0405864237
30
0.0000000000
10
-31.7666942933
20
59.0946665037
30
0.0000000000
10
-31.7669610678
20
59.2080734177
30
0.0000000000
10
-31.7682780602
20
59.3852421063
30
0.0000000000
10
-31.7705090336
20
59.5514803121
30
0.0000000000
10
-31.7726356059
20
59.6583745071
30
0.0000000000
10
-31.7736275973
20
59.7015181124
30
0.0000000000
11
-31.7666942564
21
59.0405864237
31
0.0000000000
11
-31.7670797600
21
59.2028262057
31
0.0000000000
11
-31.7684162137
21
59.3808004989
31
0.0000000000
11
-31.7710316881
21
59.5720845155
31
0.0000000000
11
-31.7736275973
21
59.7015181124
31
0.0000000000
0
SPLINE
5
3A3
100
AcDbEntity
8
0
100
AcDbSpline
62
9
6
CONTINUOUS
70
0
71
3
72
12
73
8
74
6
42
0.0000001000
43
0.0000001000
44
0.0000000001
12
-0.0114403269
22
0.4975616786
32
0.0000000000
13
-0.0616352731
23
0.4947362807
33
0.0000000000
40
0.0000000000
40
0.0000000000
40
0.0000000000
40
0.0000000000
40
0.1259137075
40
0.4738755440
40
0.7464405896
40
0.9283296048
40
1.0000000000
40
1.0000000000
40
1.0000000000
40
1.0000000000
10
-31.7736275973
20
59.7015181124
30
0.0000000000
10
-31.7741077620
20
59.7224013909
30
0.0000000000
10
-31.7760327442
20
59.8009957842
30
0.0000000000
10
-31.7798169467
20
59.9248075640
30
0.0000000000
10
-31.7860190943
20
60.0576636829
30
0.0000000000
10
-31.7914301092
20
60.1450252197
30
0.0000000000
10
-31.7960720941
20
60.1865840644
30
0.0000000000
10
-31.7975445689
20
60.1984033793
30
0.0000000000
11
-31.7736275973
21
59.7015181124
31
0.0000000000
11
-31.7751644439
21
59.7641686060
31
0.0000000000
11
-31.7807181407
21
59.9372551739
31
0.0000000000
11
-31.7871376911
21
60.0727549262
31
0.0000000000
11
-31.7936104366
21
60.1630467868
31
0.0000000000
11
-31.7975445689
21
60.1984033793
31
0.0000000000
0
SPLINE
5
3A4
100
AcDbEntity
8
0
100
AcDbSpline
62
9
6
CONTINUOUS
70
0
71
3
72
9
73
5
74
3
42
0.0000001000
43
0.0000001000
44
0.0000000001
12
-0.0043243328
22
0.0347107138
32
0.0000000000
13
-0.0112193579
23
0.0329322065
33
0.0000000000
40
0.0000000000
40
0.0000000000
40
0.0000000000
40
0.0000000000
40
0.4647007156
40
1.0000000000
40
1.0000000000
40
1.0000000000
40
1.0000000000
10
-31.7975445689
20
60.1984033793
30
0.0000000000
10
-31.7982144091
20
60.2037800771
30
0.0000000000
10
-31.7997272759
20
60.2153825598
30
0.0000000000
10
-31.8013929058
20
60.2271049433
30
0.0000000000
10
-31.8033948106
20
60.2329811388
30
0.0000000000
11
-31.7975445689
21
60.1984033793
31
0.0000000000
11
-31.7996534583
21
60.2145893333
31
0.0000000000
11
-31.8033948106
21
60.2329811388
31
0.0000000000
0
SPLINE
5
3A5
100
AcDbEntity
8
0
100
AcDbSpline
62
9
6
CONTINUOUS
70
0
71
3
72
8
73
4
74
2
42
0.0000001000
43
0.0000001000
44
0.0000000001
12
-0.0015318295
22
0.0044963825
32
0.0000000000
13
-0.0020183132
23
0.0043191575
33
0.0000000000
40
0.0000000000
40
0.0000000000
40
0.0000000000
40
0.0000000000
40
1.0000000000
40
1.0000000000
40
1.0000000000
40
1.0000000000
10
-31.8033948106
20
60.2329811388
30
0.0000000000
10
-31.8039054204
20
60.2344799330
30
0.0000000000
10
-31.8044882622
20
60.2359527833
30
0.0000000000
10
-31.8051610333
20
60.2373925025
30
0.0000000000
11
-31.8033948106
21
60.2329811388
31
0.0000000000
11
-31.8051610333
21
60.2373925025
31
0.0000000000
0
SPLINE
5
3A6
100
AcDbEntity
8
0
100
AcDbSpline
62
9
6
CONTINUOUS
70
0
71
3
72
17
73
13
74
11
42
0.0000001000
43
0.0000001000
44
0.0000000001
12
2.0052935379
22
-0.0000948309
32
0.0000000000
13
0.0000034245
23
2.0052935402
33
0.0000000000
40
0.0000000000
40
0.0000000000
40
0.0000000000
40
0.0000000000
40
0.0096242543
40
0.0391831595
40
0.0947793674
40
0.1784633801
40
0.2886997893
40
0.4205449507
40
0.5666677927
40
0.7180719782
40
0.8637082573
40
1.0000000000
40
1.0000000000
40
1.0000000000
40
1.0000000000
10
-30.3142312639
20
-78.9802094818
30
0.0000000000
10
-30.3077981122
20
-78.9802097860
30
0.0000000000
10
-30.3003266760
20
-78.9447947175
30
0.0000000000
10
-30.2899473628
20
-78.8926993704
30
0.0000000000
10
-30.2795196450
20
-78.7735698576
30
0.0000000000
10
-30.2685777743
20
-78.6103899111
30
0.0000000000
10
-30.2587029420
20
-78.3915384605
30
0.0000000000
10
-30.2502144543
20
-78.1326466796
30
0.0000000000
10
-30.2436754831
20
-77.8455661286
30
0.0000000000
10
-30.2392481797
20
-77.5494139515
30
0.0000000000
10
-30.2368245977
20
-77.2597587429
30
0.0000000000
10
-30.2363199271
20
-77.0713111322
30
0.0000000000
10
-30.2363197716
20
-76.9802094818
30
0.0000000000
11
-30.3142312639
21
-78.9802094818
31
0.0000000000
11
-30.3043196900
21
-78.9636496006
31
0.0000000000
11
-30.2932886403
21
-78.9054108128
31
0.0000000000
11
-30.2816518238
21
-78.7945330761
31
0.0000000000
11
-30.2702311095
21
-78.6271111471
31
0.0000000000
11
-30.2597819692
21
-78.4063018867
31
0.0000000000
11
-30.2509416977
21
-78.1420614722
31
0.0000000000
11
-30.2441318816
21
-77.8491214225
31
0.0000000000
11
-30.2395299083
21
-77.5455464666
31
0.0000000000
11
-30.2370584278
21
-77.2535134348
31
0.0000000000
11
-30.2363197716
21
-76.9802094818
31
0.0000000000
0
SPLINE
5
3A7
100
AcDbEntity
8
0
100
AcDbSpline
62
9
6
CONTINUOUS
70
0
71
3
72
8
73
4
74
2
42
0.0000001000
43
0.0000001000
44
0.0000000001
12
-0.5896825105
22
1.2618406375
32
0.0000000000
13
-0.8119118060
23
1.7344294785
33
0.0000000000
40
0.0000000000
40
0.0000000000
40
0.0000000000
40
0.0000000000
40
1.0000000000
40
1.0000000000
40
1.0000000000
40
1.0000000000
10
-31.8051610333
20
60.2373925025
30
0.0000000000
10
-32.0017218701
20
60.6580060483
30
0.0000000000
10
-32.1245827304
20
60.9209139872
30
0.0000000000
10
-32.3952199991
20
61.4990571467
30
0.0000000000
11
-31.8051610333
21
60.2373925025
31
0.0000000000
11
-32.3952199991
21
61.4990571467
31
0.0000000000
0
SPLINE
5
3A8
100
AcDbEntity
8
0
100
AcDbSpline
62
9
6
CONTINUOUS
70
0
71
3
72
8
73
4
74
2
42
0.0000001000
43
0.0000001000
44
0.0000000001
12
-0.1094842298
22
0.2338833778
32
0.0000000000
13
-0.1011929896
23
0.2161422080
33
0.0000000000
40
0.0000000000
40
0.0000000000
40
0.0000000000
40
0.0000000000
40
1.0000000000
40
1.0000000000
40
1.0000000000
40
1.0000000000
10
-32.3952199991
20
61.4990571467
30
0.0000000000
10
-32.4317147424
20
61.5770182727
30
0.0000000000
10
-32.4708966271
20
61.6607115831
30
0.0000000000
10
-32.5046276236
20
61.7327589857
30
0.0000000000
11
-32.3952199991
21
61.4990571467
31
0.0000000000
11
-32.5046276236
21
61.7327589857
31
0.0000000000
0
SPLINE
5
3A9
100
AcDbEntity
8
0
100
AcDbSpline
62
9
6
CONTINUOUS
70
0
71
3
72
8
73
4
74
2
42
0.0000001000
43
0.0000001000
44
0.0000000001
12
-0.0867317855
22
0.1852539361
32
0.0000000000
13
-0.0473344073
23
0.1010977002
33
0.0000000000
40
0.0000000000
40
0.0000000000
40
0.0000000000
40
0.0000000000
40
1.0000000000
40
1.0000000000
40
1.0000000000
40
1.0000000000
10
-32.5046276236
20
61.7327589857
30
0.0000000000
10
-32.5335382188
20
61.7945102978
30
0.0000000000
10
-32.5584445473
20
61.8477064315
30
0.0000000000
10
-32.5742226831
20
61.8814056649
30
0.0000000000
11
-32.5046276236
21
61.7327589857
31
0.0000000000
11
-32.5742226831
21
61.8814056649
31
0.0000000000
0
SPLINE
5
3AA
100
AcDbEntity
8
0
100
AcDbSpline
62
9
6
CONTINUOUS
70
0
71
3
72
8
73
4
74
2
42
0.0000001000
43
0.0000001000
44
0.0000000001
12
-0.0340388426
22
0.0727007878
32
0.0000000000
13
0.0000000013
23
-0.0000000017
33
0.0000000000
40
0.0000000000
40
0.0000000000
40
0.0000000000
40
0.0000000000
40
1.0000000000
40
1.0000000000
40
1.0000000000
40
1.0000000000
10
-32.5742226831
20
61.8814056649
30
0.0000000000
10
-32.5855689640
20
61.9056392608
30
0.0000000000
10
-32.5921948266
20
61.9197905187
30
0.0000000000
10
-32.5921948261
20
61.9197905182
30
0.0000000000
11
-32.5742226831
21
61.8814056649
31
0.0000000000
11
-32.5921948261
21
61.9197905182
31
0.0000000000
0
SPLINE
5
3AB
100
AcDbEntity
8
0
100
AcDbSpline
62
7
6
CONTINUOUS
70
0
71
3
72
9
73
5
74
3
42
0.0000001000
43
0.0000001000
44
0.0000000001
12
2.1148872299
22
-0.1111382317
32
0.0000000000
13
2.1148872553
23
-0.1111377486
33
0.0000000000
40
0.0000000000
40
0.0000000000
40
0.0000000000
40
0.0000000000
40
0.4790946045
40
1.0000000000
40
1.0000000000
40
1.0000000000
40
1.0000000000
10
-25.3063968411
20
76.0151437583
30
0.0000000000
10
-24.9686531542
20
75.9973951825
30
0.0000000000
10
-24.2636907421
20
75.9603491442
30
0.0000000000
10
-23.5587283259
20
75.9233031858
30
0.0000000000
10
-23.1915095985
20
75.9040057682
30
0.0000000000
11
-25.3063968411
21
76.0151437583
31
0.0000000000
11
-24.2931657773
21
75.9618980867
31
0.0000000000
11
-23.1915095985
21
75.9040057682
31
0.0000000000
0
SPLINE
5
3AC
100
AcDbEntity
8
0
100
AcDbSpline
62
7
6
CONTINUOUS
70
0
71
3
72
9
73
5
74
3
42
0.0000001000
43
0.0000001000
44
0.0000000001
12
-2.1148872553
22
-0.1111377486
32
0.0000000000
13
-2.1148872299
23
-0.1111382317
33
0.0000000000
40
0.0000000000
40
0.0000000000
40
0.0000000000
40
0.0000000000
40
0.5209053955
40
1.0000000000
40
1.0000000000
40
1.0000000000
40
1.0000000000
10
-23.1915095985
20
-77.8644247318
30
0.0000000000
10
-23.5587283259
20
-77.8837221494
30
0.0000000000
10
-24.2636907421
20
-77.9207681079
30
0.0000000000
10
-24.9686531542
20
-77.9578141462
30
0.0000000000
10
-25.3063968411
20
-77.9755627219
30
0.0000000000
11
-23.1915095985
21
-77.8644247318
31
0.0000000000
11
-24.2931657773
21
-77.9223170504
31
0.0000000000
11
-25.3063968411
21
-77.9755627219
31
0.0000000000
0
SPLINE
5
3AD
100
AcDbEntity
8
0
100
AcDbSpline
62
7
6
CONTINUOUS
70
0
71
3
72
8
73
4
74
2
42
0.0000001000
43
0.0000001000
44
0.0000000001
12
-0.0000893041
22
0.0383076709
32
0.0000000000
13
0.0072813699
23
0.0377781968
33
0.0000000000
40
0.0000000000
40
0.0000000000
40
0.0000000000
40
0.0000000000
40
1.0000000000
40
1.0000000000
40
1.0000000000
40
1.0000000000
10
-31.9422510025
20
-60.6617508979
30
0.0000000000
10
-31.9422807705
20
-60.6489816742
30
0.0000000000
10
-31.9410649283
20
-60.6361588814
30
0.0000000000
10
-31.9386378050
20
-60.6235661491
30
0.0000000000
11
-31.9422510025
21
-60.6617508979
31
0.0000000000
11
-31.9386378050
21
-60.6235661491
31
0.0000000000
0
SPLINE
5
3AE
100
AcDbEntity
8
0
100
AcDbSpline
62
7
6
CONTINUOUS
70
0
71
3
72
8
73
4
74
2
42
0.0000001000
43
0.0000001000
44
0.0000000001
12
-0.0001142842
22
-0.0382251416
32
0.0000000000
13
0.0072278562
23
-0.0377042223
33
0.0000000000
40
0.0000000000
40
0.0000000000
40
0.0000000000
40
0.0000000000
40
1.0000000000
40
1.0000000000
40
1.0000000000
40
1.0000000000
10
-31.9421865595
20
58.7013318895
30
0.0000000000
10
-31.9422246543
20
58.6885901757
30
0.0000000000
10
-31.9410222324
20
58.6757942347
30
0.0000000000
10
-31.9386129470
20
58.6632261606
30
0.0000000000
11
-31.9421865595
21
58.7013318895
31
0.0000000000
11
-31.9386129470
21
58.6632261606
31
0.0000000000
0
SPLINE
5
3AF
100
AcDbEntity
8
0
100
AcDbSpline
62
9
6
CONTINUOUS
70
0
71
3
72
9
73
5
74
3
42
0.0000001000
43
0.0000001000
44
0.0000000001
12
0.0243911244
22
-0.0509042946
32
0.0000000000
13
0.0038028425
23
-0.0559674978
33
0.0000000000
40
0.0000000000
40
0.0000000000
40
0.0000000000
40
0.0000000000
40
0.4182295864
40
1.0000000000
40
1.0000000000
40
1.0000000000
40
1.0000000000
10
-31.9422509813
20
58.7013319343
30
0.0000000000
10
-31.9388506180
20
58.6942353736
30
0.0000000000
10
-31.9393773601
20
58.6745854794
30
0.0000000000
10
-31.9382986017
20
58.6557868343
30
0.0000000000
10
-31.9375611413
20
58.6449334229
30
0.0000000000
11
-31.9422509813
21
58.7013319343
31
0.0000000000
11
-31.9390103886
21
58.6779479364
31
0.0000000000
11
-31.9375611413
21
58.6449334229
31
0.0000000000
0
SPLINE
5
3B0
100
AcDbEntity
8
0
100
AcDbSpline
62
9
6
CONTINUOUS
70
0
71
3
72
9
73
5
74
3
42
0.0000001000
43
0.0000001000
44
0.0000000001
12
0.0070519705
22
-0.1037858244
32
0.0000000000
13
0.0018850453
23
-0.1049005575
33
0.0000000000
40
0.0000000000
40
0.0000000000
40
0.0000000000
40
0.0000000000
40
0.2321099607
40
1.0000000000
40
1.0000000000
40
1.0000000000
40
1.0000000000
10
-31.9375611413
20
58.6449334229
30
0.0000000000
10
-31.9370155304
20
58.6369035150
30
0.0000000000
10
-31.9344057681
20
58.6025041754
30
0.0000000000
10
-31.9339384912
20
58.5674077935
30
0.0000000000
10
-31.9334559887
20
58.5405570957
30
0.0000000000
11
-31.9375611413
21
58.6449334229
31
0.0000000000
11
-31.9359194532
21
58.6208971031
31
0.0000000000
11
-31.9334559887
21
58.5405570957
31
0.0000000000
0
SPLINE
5
3B1
100
AcDbEntity
8
0
100
AcDbSpline
62
9
6
CONTINUOUS
70
0
71
3
72
8
73
4
74
2
42
0.0000001000
43
0.0000001000
44
0.0000000001
12
0.0010582144
22
-0.0588883895
32
0.0000000000
13
0.0011700051
23
-0.0587042282
33
0.0000000000
40
0.0000000000
40
0.0000000000
40
0.0000000000
40
0.0000000000
40
1.0000000000
40
1.0000000000
40
1.0000000000
40
1.0000000000
10
-31.9334559887
20
58.5405570957
30
0.0000000000
10
-31.9331032505
20
58.5209276326
30
0.0000000000
10
-31.9326844090
20
58.5013513280
30
0.0000000000
10
-31.9322944073
20
58.4817832519
30
0.0000000000
11
-31.9334559887
21
58.5405570957
31
0.0000000000
11
-31.9322944073
21
58.4817832519
31
0.0000000000
0
SPLINE
5
3B2
100
AcDbEntity
8
0
100
AcDbSpline
62
9
6
CONTINUOUS
70
0
71
3
72
11
73
7
74
5
42
0.0000001000
43
0.0000001000
44
0.0000000001
12
0.0062336684
22
-0.3127701680
32
0.0000000000
13
-0.0000085333
23
-0.3130723585
33
0.0000000000
40
0.0000000000
40
0.0000000000
40
0.0000000000
40
0.0000000000
40
0.0969263073
40
0.3942804165
40
0.6969672212
40
1.0000000000
40
1.0000000000
40
1.0000000000
40
1.0000000000
10
-31.9322944073
20
58.4817832519
30
0.0000000000
10
-31.9320930052
20
58.4716780328
30
0.0000000000
10
-31.9313050201
20
58.4305805752
30
0.0000000000
10
-31.9305195360
20
58.3578160302
30
0.0000000000
10
-31.9298539451
20
58.2635880855
30
0.0000000000
10
-31.9297225982
20
58.2003737906
30
0.0000000000
10
-31.9297234602
20
58.1687500616
30
0.0000000000
11
-31.9322944073
21
58.4817832519
31
0.0000000000
11
-31.9317263496
21
58.4514679900
31
0.0000000000
11
-31.9305830110
21
58.3583816590
31
0.0000000000
11
-31.9299328816
21
58.2636210173
31
0.0000000000
11
-31.9297234602
21
58.1687500616
31
0.0000000000
0
SPLINE
5
3B3
100
AcDbEntity
8
0
100
AcDbSpline
62
9
6
CONTINUOUS
70
0
71
3
72
10
73
6
74
4
42
0.0000001000
43
0.0000001000
44
0.0000000001
12
-0.0000082591
22
-0.3076122696
32
0.0000000000
13
-0.0059812305
23
-0.3073111769
33
0.0000000000
40
0.0000000000
40
0.0000000000
40
0.0000000000
40
0.0000000000
40
0.4463972905
40
0.8730723298
40
1.0000000000
40
1.0000000000
40
1.0000000000
40
1.0000000000
10
-31.9297234602
20
-60.1291690253
30
0.0000000000
10
-31.9297246891
20
-60.1749414532
30
0.0000000000
10
-31.9300434344
20
-60.2644469588
30
0.0000000000
10
-31.9309164338
20
-60.3670382150
30
0.0000000000
10
-31.9319669658
20
-60.4237311121
30
0.0000000000
10
-31.9322200270
20
-60.4367332093
30
0.0000000000
11
-31.9297234602
21
-60.1291690253
31
0.0000000000
11
-31.9301665614
21
-60.2664855941
31
0.0000000000
11
-31.9315150609
21
-60.3977291437
31
0.0000000000
11
-31.9322200270
21
-60.4367332093
31
0.0000000000
0
SPLINE
5
3B4
100
AcDbEntity
8
0
100
AcDbSpline
62
9
6
CONTINUOUS
70
0
71
3
72
10
73
6
74
4
42
0.0000001000
43
0.0000001000
44
0.0000000001
12
-0.0032822169
22
-0.1686378651
32
0.0000000000
13
-0.0117997784
23
-0.1671403111
33
0.0000000000
40
0.0000000000
40
0.0000000000
40
0.0000000000
40
0.0000000000
40
0.4142186894
40
0.8937275289
40
1.0000000000
40
1.0000000000
40
1.0000000000
40
1.0000000000
10
-31.9322200270
20
-60.4367332093
30
0.0000000000
10
-31.9326732122
20
-60.4600175278
30
0.0000000000
10
-31.9337354308
20
-60.5102825297
30
0.0000000000
10
-31.9346006888
20
-60.5668615068
30
0.0000000000
10
-31.9369781478
20
-60.5994040993
30
0.0000000000
10
-31.9373961450
20
-60.6053249039
30
0.0000000000
11
-31.9322200270
21
-60.4367332093
31
0.0000000000
11
-31.9335957710
21
-60.5066751800
31
0.0000000000
11
-31.9361770781
21
-60.5875765839
31
0.0000000000
11
-31.9373961450
21
-60.6053249039
31
0.0000000000
0
SPLINE
5
3B5
100
AcDbEntity
8
0
100
AcDbSpline
62
9
6
CONTINUOUS
70
0
71
3
72
9
73
5
74
3
42
0.0000001000
43
0.0000001000
44
0.0000000001
12
-0.0036661920
22
-0.0519305071
32
0.0000000000
13
-0.0145969486
23
-0.0498265508
33
0.0000000000
40
0.0000000000
40
0.0000000000
40
0.0000000000
40
0.0000000000
40
0.6568433198
40
1.0000000000
40
1.0000000000
40
1.0000000000
40
1.0000000000
10
-31.9373961450
20
-60.6053249039
30
0.0000000000
10
-31.9381988496
20
-60.6166949728
30
0.0000000000
10
-31.9393461214
20
-60.6341001714
30
0.0000000000
10
-31.9391502693
20
-60.6522521958
30
0.0000000000
10
-31.9408199495
20
-60.6579516337
30
0.0000000000
11
-31.9373961450
21
-60.6053249039
31
0.0000000000
11
-31.9391265236
21
-60.6398821625
31
0.0000000000
11
-31.9408199495
21
-60.6579516337
31
0.0000000000
0
SPLINE
5
3B6
100
AcDbEntity
8
0
100
AcDbSpline
62
9
6
CONTINUOUS
70
0
71
3
72
8
73
4
74
2
42
0.0000001000
43
0.0000001000
44
0.0000000001
12
-0.0011392155
22
-0.0038887018
32
0.0000000000
13
-0.0017451414
23
-0.0037025624
33
0.0000000000
40
0.0000000000
40
0.0000000000
40
0.0000000000
40
0.0000000000
40
1.0000000000
40
1.0000000000
40
1.0000000000
40
1.0000000000
10
-31.9408199495
20
-60.6579516337
30
0.0000000000
10
-31.9411996880
20
-60.6592478676
30
0.0000000000
10
-31.9416692675
20
-60.6605167104
30
0.0000000000
10
-31.9422509813
20
-60.6617508979
30
0.0000000000
11
-31.9408199495
21
-60.6579516337
31
0.0000000000
11
-31.9422509813
21
-60.6617508979
31
0.0000000000
0
SPLINE
5
3B7
100
AcDbEntity
8
0
100
AcDbSpline
62
9
6
CONTINUOUS
70
0
71
3
72
8
73
4
74
2
42
0.0000001000
43
0.0000001000
44
0.0000000001
12
-0.0303852793
22
-0.0637595711
32
0.0000000000
13
-0.0303545875
23
-0.0637738195
33
0.0000000000
40
0.0000000000
40
0.0000000000
40
0.0000000000
40
0.0000000000
40
1.0000000000
40
1.0000000000
40
1.0000000000
40
1.0000000000
10
-31.9422509813
20
-60.6617508979
30
0.0000000000
10
-31.9523794077
20
-60.6830040882
30
0.0000000000
10
-31.9625024704
20
-60.7042597119
30
0.0000000000
10
-31.9726206662
20
-60.7255176518
30
0.0000000000
11
-31.9422509813
21
-60.6617508979
31
0.0000000000
11
-31.9726206662
21
-60.7255176518
31
0.0000000000
0
SPLINE
5
3B8
100
AcDbEntity
8
0
100
AcDbSpline
62
9
6
CONTINUOUS
70
0
71
3
72
11
73
7
74
5
42
0.0000001000
43
0.0000001000
44
0.0000000001
12
-0.3145505880
22
-0.6608586737
32
0.0000000000
13
-0.3125100179
23
-0.6617678390
33
0.0000000000
40
0.0000000000
40
0.0000000000
40
0.0000000000
40
0.0000000000
40
0.1956646355
40
0.4952246333
40
0.7984167764
40
1.0000000000
40
1.0000000000
40
1.0000000000
40
1.0000000000
10
-31.9726206662
20
-60.7255176518
30
0.0000000000
10
-31.9931361416
20
-60.7686198756
30
0.0000000000
10
-32.0450099018
20
-60.8777351403
30
0.0000000000
10
-32.1284785642
20
-61.0537424666
30
0.0000000000
10
-32.2123927369
20
-61.2310921176
30
0.0000000000
10
-32.2650251835
20
-61.3424912330
30
0.0000000000
10
-32.2860241091
20
-61.3869583311
30
0.0000000000
11
-31.9726206662
21
-60.7255176518
31
0.0000000000
11
-32.0341112116
21
-60.8548519125
31
0.0000000000
11
-32.1280667851
21
-61.0529487361
31
0.0000000000
11
-32.2229827090
21
-61.2535322023
31
0.0000000000
11
-32.2860241091
21
-61.3869583311
31
0.0000000000
0
SPLINE
5
3B9
100
AcDbEntity
8
0
100
AcDbSpline
62
9
6
CONTINUOUS
70
0
71
3
72
11
73
7
74
5
42
0.0000001000
43
0.0000001000
44
0.0000000001
12
-0.2839801525
22
-0.6013533041
32
0.0000000000
13
-0.2941138497
23
-0.6248334708
33
0.0000000000
40
0.0000000000
40
0.0000000000
40
0.0000000000
40
0.0000000000
40
0.1098050654
40
0.4314013012
40
0.7324390513
40
1.0000000000
40
1.0000000000
40
1.0000000000
40
1.0000000000
10
-32.2860241091
20
-61.3869583311
30
0.0000000000
10
-32.2964182621
20
-61.4089688774
30
0.0000000000
10
-32.3372355130
20
-61.4954241071
30
0.0000000000
10
-32.4063588715
20
-61.6419624323
30
0.0000000000
10
-32.4911447148
20
-61.8218890272
30
0.0000000000
10
-32.5433713316
20
-61.9327971413
30
0.0000000000
10
-32.5696024584
20
-61.9885241534
30
0.0000000000
11
-32.2860241091
21
-61.3869583311
31
0.0000000000
11
-32.3171900412
21
-61.4529705659
31
0.0000000000
11
-32.4084435624
21
-61.6464163127
31
0.0000000000
11
-32.4937924558
21
-61.8275293036
31
0.0000000000
11
-32.5696024584
21
-61.9885241534
31
0.0000000000
0
SPLINE
5
3BA
100
AcDbEntity
8
0
100
AcDbSpline
62
9
6
CONTINUOUS
70
0
71
3
72
10
73
6
74
4
42
0.0000001000
43
0.0000001000
44
0.0000000001
12
-0.1272805468
22
-0.2704025870
32
0.0000000000
13
0.0130945257
23
0.0278486119
33
0.0000000000
40
0.0000000000
40
0.0000000000
40
0.0000000000
40
0.0000000000
40
0.5099012240
40
0.8627524840
40
1.0000000000
40
1.0000000000
40
1.0000000000
40
1.0000000000
10
-32.5696024584
20
-61.9885241534
30
0.0000000000
10
-32.5912359606
20
-62.0344836901
30
0.0000000000
10
-32.6297447969
20
-62.1163187564
30
0.0000000000
10
-32.6589122988
20
-62.1783218243
30
0.0000000000
10
-32.6927287439
20
-62.2502373146
30
0.0000000000
10
-32.6921296802
20
-62.2489632636
30
0.0000000000
11
-32.5696024584
21
-61.9885241534
31
0.0000000000
11
-32.6320934540
21
-62.1213156869
31
0.0000000000
11
-32.6753197218
21
-62.2132155388
31
0.0000000000
11
-32.6921296802
21
-62.2489632636
31
0.0000000000
0
SPLINE
5
3BB
100
AcDbEntity
8
0
100
AcDbSpline
62
9
6
CONTINUOUS
70
0
71
3
72
10
73
6
74
4
42
0.0000001000
43
0.0000001000
44
0.0000000001
12
-0.8521744146
22
-1.8093742676
32
0.0000000000
13
0.8621751883
23
1.8274816090
33
0.0000000000
40
0.0000000000
40
0.0000000000
40
0.0000000000
40
0.0000000000
40
0.5884592742
40
0.8827831533
40
1.0000000000
40
1.0000000000
40
1.0000000000
40
1.0000000000
10
-31.9078963319
20
-61.7485531588
30
0.0000000000
10
-32.0750529777
20
-62.1034675149
30
0.0000000000
10
-32.2422360861
20
-62.4584385938
30
0.0000000000
10
-32.7163633644
20
-63.4633449365
30
0.0000000000
10
-32.6386539323
20
-63.2986408498
30
0.0000000000
10
-32.6049667800
20
-63.2272369725
30
0.0000000000
11
-31.9078963319
21
-61.7485531588
31
0.0000000000
11
-32.4096354579
21
-62.8131694039
31
0.0000000000
11
-32.6607875283
21
-63.3455527058
31
0.0000000000
11
-32.6049667800
21
-63.2272369725
31
0.0000000000
0
SPLINE
5
3BC
100
AcDbEntity
8
0
100
AcDbSpline
62
9
6
CONTINUOUS
70
0
71
3
72
8
73
4
74
2
42
0.0000001000
43
0.0000001000
44
0.0000000001
12
0.0000000004
22
-0.0000000002
32
0.0000000000
13
0.1010615762
23
0.2142118846
33
0.0000000000
40
0.0000000000
40
0.0000000000
40
0.0000000000
40
0.0000000000
40
1.0000000000
40
1.0000000000
40
1.0000000000
40
1.0000000000
10
-32.6607875283
20
-63.3455527058
30
0.0000000000
10
-32.6607875281
20
-63.3455527058
30
0.0000000000
10
-32.6386539721
20
-63.2986409341
30
0.0000000000
10
-32.6049667800
20
-63.2272369725
30
0.0000000000
11
-32.6607875283
21
-63.3455527058
31
0.0000000000
11
-32.6049667800
21
-63.2272369725
31
0.0000000000
0
SPLINE
5
3BD
100
AcDbEntity
8
0
100
AcDbSpline
62
9
6
CONTINUOUS
70
0
71
3
72
17
73
13
74
11
42
0.0000001000
43
0.0000001000
44
0.0000000001
12
0.0000000488
22
-0.7983753656
32
0.0000000000
13
-0.3401408500
23
-0.7222931722
33
0.0000000000
40
0.0000000000
40
0.0000000000
40
0.0000000000
40
0.0000000000
40
0.1238683966
40
0.2602693330
40
0.4038408322
40
0.5454104301
40
0.6766129822
40
0.7900793769
40
0.8800754561
40
0.9438801962
40
0.9824525374
40
1.0000000000
40
1.0000000000
40
1.0000000000
40
1.0000000000
10
-31.8823820333
20
-60.9512125822
30
0.0000000000
10
-31.8823820313
20
-60.9841770744
30
0.0000000000
10
-31.8825300512
20
-61.0534413363
30
0.0000000000
10
-31.8832523503
20
-61.1609116905
30
0.0000000000
10
-31.8846060060
20
-61.2730864308
30
0.0000000000
10
-31.8866410225
20
-61.3838704986
30
0.0000000000
10
-31.8893438751
20
-61.4866163643
30
0.0000000000
10
-31.8925408170
20
-61.5756463795
30
0.0000000000
10
-31.8962113490
20
-61.6466231109
30
0.0000000000
10
-31.8996876849
20
-61.6978345843
30
0.0000000000
10
-31.9035507888
20
-61.7293101559
30
0.0000000000
10
-31.9059067956
20
-61.7443283546
30
0.0000000000
10
-31.9078963319
20
-61.7485531588
30
0.0000000000
11
-31.8823820333
21
-60.9512125822
31
0.0000000000
11
-31.8825948366
21
-61.0501058297
31
0.0000000000
11
-31.8833340641
21
-61.1590024681
31
0.0000000000
11
-31.8847336376
21
-61.2736178715
31
0.0000000000
11
-31.8868467313
21
-61.3866237963
31
0.0000000000
11
-31.8896477365
21
-61.4913352254
31
0.0000000000
11
-31.8930295787
21
-61.5818608527
31
0.0000000000
11
-31.8967994520
21
-61.6536125379
31
0.0000000000
11
-31.9007060136
21
-61.7044026541
31
0.0000000000
11
-31.9044870491
21
-61.7349648618
31
0.0000000000
11
-31.9078963319
21
-61.7485531588
31
0.0000000000
0
SPLINE
5
3BE
100
AcDbEntity
8
0
100
AcDbSpline
62
9
6
CONTINUOUS
70
0
71
3
72
17
73
13
74
11
42
0.0000001000
43
0.0000001000
44
0.0000000001
12
0.3401739012
22
-0.7222765893
32
0.0000000000
13
0.0000001606
23
-0.7983744450
33
0.0000000000
40
0.0000000000
40
0.0000000000
40
0.0000000000
40
0.0000000000
40
0.0179364130
40
0.0573192294
40
0.1222533495
40
0.2134533037
40
0.3279656571
40
0.4598497039
40
0.6014232472
40
0.7441405053
40
0.8785264558
40
1.0000000000
40
1.0000000000
40
1.0000000000
40
1.0000000000
10
-31.9078963319
20
59.7881341951
30
0.0000000000
10
-31.9058624987
20
59.7838158447
30
0.0000000000
10
-31.9034989949
20
59.7684651382
30
0.0000000000
10
-31.8995859716
20
59.7363800210
30
0.0000000000
10
-31.8961001509
20
59.6843260793
30
0.0000000000
10
-31.8924206934
20
59.6124512255
30
0.0000000000
10
-31.8892344141
20
59.5226397916
30
0.0000000000
10
-31.8865530086
20
59.4194327206
30
0.0000000000
10
-31.8845474950
20
59.3086931615
30
0.0000000000
10
-31.8832246891
20
59.1972807783
30
0.0000000000
10
-31.8825247412
20
59.0912113533
30
0.0000000000
10
-31.8823820398
20
59.0231207431
30
0.0000000000
10
-31.8823820333
20
58.9907936186
30
0.0000000000
11
-31.9078963319
21
59.7881341951
31
0.0000000000
11
-31.9044351026
21
59.7742388168
31
0.0000000000
11
-31.9006146174
21
59.7430295556
31
0.0000000000
11
-31.8966827691
21
59.6913371307
31
0.0000000000
11
-31.8929057019
21
59.6186234505
31
0.0000000000
11
-31.8895328431
21
59.5272619518
31
0.0000000000
11
-31.8867530678
21
59.4220057992
31
0.0000000000
11
-31.8846699995
21
59.3089962967
31
0.0000000000
11
-31.8833015201
21
59.1950627033
31
0.0000000000
11
-31.8825866523
21
59.0877747762
31
0.0000000000
11
-31.8823820333
21
58.9907936186
31
0.0000000000
0
SPLINE
5
3BF
100
AcDbEntity
8
0
100
AcDbSpline
62
9
6
CONTINUOUS
70
0
71
3
72
8
73
4
74
2
42
0.0000001000
43
0.0000001000
44
0.0000000001
12
-0.1148213057
22
-0.2438923386
32
0.0000000000
13
-0.1126378149
23
-0.2391752827
33
0.0000000000
40
0.0000000000
40
0.0000000000
40
0.0000000000
40
0.0000000000
40
1.0000000000
40
1.0000000000
40
1.0000000000
40
1.0000000000
10
-31.7940759638
20
-62.1233931122
30
0.0000000000
10
-31.8323497323
20
-62.2046905584
30
0.0000000000
10
-31.8689461603
20
-62.2824172676
30
0.0000000000
10
-31.9064920986
20
-62.3621423619
30
0.0000000000
11
-31.7940759638
21
-62.1233931122
31
0.0000000000
11
-31.9064920986
21
-62.3621423619
31
0.0000000000
0
SPLINE
5
3C0
100
AcDbEntity
8
0
100
AcDbSpline
62
9
6
CONTINUOUS
70
0
71
3
72
9
73
5
74
3
42
0.0000001000
43
0.0000001000
44
0.0000000001
12
-0.4844745865
22
-1.0287339673
32
0.0000000000
13
-0.0000000031
23
0.0000000014
33
0.0000000000
40
0.0000000000
40
0.0000000000
40
0.0000000000
40
0.0000000000
40
0.5355428830
40
1.0000000000
40
1.0000000000
40
1.0000000000
40
1.0000000000
10
-31.9064920986
20
-62.3621423619
30
0.0000000000
10
-31.9929777376
20
-62.5457860801
30
0.0000000000
10
-32.1638766207
20
-62.9084965728
30
0.0000000000
10
-32.4642827339
20
-63.5455011714
30
0.0000000000
10
-32.4642827344
20
-63.5455011712
30
0.0000000000
11
-31.9064920986
21
-62.3621423619
31
0.0000000000
11
-32.2131685726
21
-63.0129493706
31
0.0000000000
11
-32.4642827344
21
-63.5455011712
31
0.0000000000
0
SPLINE
5
3C1
100
AcDbEntity
8
0
100
AcDbSpline
62
7
6
CONTINUOUS
70
0
71
3
72
25
73
21
74
19
42
0.0000001000
43
0.0000001000
44
0.0000000001
12
-0.0012034332
22
-0.9970163665
32
0.0000000000
13
-0.0737319895
23
-1.1677461746
33
0.0000000000
40
0.0000000000
40
0.0000000000
40
0.0000000000
40
0.0000000000
40
0.0867276131
40
0.1721969389
40
0.2568845759
40
0.3409348647
40
0.4231631133
40
0.5020523720
40
0.5763123579
40
0.6455594508
40
0.7096366971
40
0.7683537837
40
0.8213869561
40
0.8683791020
40
0.9089470301
40
0.9426032221
40
0.9688340856
40
0.9872659393
40
0.9980847375
40
1.0000000000
40
1.0000000000
40
1.0000000000
40
1.0000000000
10
-23.1915095935
20
-76.8657988843
30
0.0000000000
10
-23.1915443838
20
-76.8946218342
30
0.0000000000
10
-23.1913578051
20
-76.9518495355
30
0.0000000000
10
-23.1912861294
20
-77.0372222334
30
0.0000000000
10
-23.1911667937
20
-77.1217051541
30
0.0000000000
10
-23.1910712426
20
-77.2051109557
30
0.0000000000
10
-23.1909841954
20
-77.2865897227
30
0.0000000000
10
-23.1909138618
20
-77.3648148729
30
0.0000000000
10
-23.1908624295
20
-77.4387256560
30
0.0000000000
10
-23.1908312522
20
-77.5077146382
30
0.0000000000
10
-23.1908196743
20
-77.5715354573
30
0.0000000000
10
-23.1908307012
20
-77.6299764785
30
0.0000000000
10
-23.1908548905
20
-77.6827113977
30
0.0000000000
10
-23.1909201587
20
-77.7295024473
30
0.0000000000
10
-23.1909393497
20
-77.7695887672
30
0.0000000000
10
-23.1911593394
20
-77.8035325832
30
0.0000000000
10
-23.1909003653
20
-77.8281258836
30
0.0000000000
10
-23.1917813849
20
-77.8497520045
30
0.0000000000
10
-23.1906000209
20
-77.8549216011
30
0.0000000000
10
-23.1916813726
20
-77.8632768417
30
0.0000000000
10
-23.1917284446
20
-77.8640223552
30
0.0000000000
11
-23.1915095935
21
-76.8657988843
31
0.0000000000
11
-23.1913915828
21
-76.9522677164
31
0.0000000000
11
-23.1912777362
21
-77.0374820191
31
0.0000000000
11
-23.1911702650
21
-77.1219169724
31
0.0000000000
11
-23.1910716400
21
-77.2057164890
31
0.0000000000
11
-23.1909853700
21
-77.2876994129
31
0.0000000000
11
-23.1909152235
21
-77.3663533210
31
0.0000000000
11
-23.1908643856
21
-77.4403917788
31
0.0000000000
11
-23.1908337092
21
-77.5094323072
31
0.0000000000
11
-23.1908234640
21
-77.5733184162
31
0.0000000000
11
-23.1908338240
21
-77.6318603543
31
0.0000000000
11
-23.1908645797
21
-77.6847353247
31
0.0000000000
11
-23.1909154259
21
-77.7315872698
31
0.0000000000
11
-23.1909854905
21
-77.7720341268
31
0.0000000000
11
-23.1910716345
21
-77.8055898150
31
0.0000000000
11
-23.1911701521
21
-77.8317422487
31
0.0000000000
11
-23.1912775860
21
-77.8501188078
31
0.0000000000
11
-23.1913914730
21
-77.8609047333
31
0.0000000000
11
-23.1917284446
21
-77.8640223552
31
0.0000000000
0
SPLINE
5
3C2
100
AcDbEntity
8
0
100
AcDbSpline
62
7
6
CONTINUOUS
70
0
71
3
72
14
73
10
74
8
42
0.0000001000
43
0.0000001000
44
0.0000000001
12
-0.0721942642
22
0.1645522724
32
0.0000000000
13
0.0001717909
23
-0.1797939242
33
0.0000000000
40
0.0000000000
40
0.0000000000
40
0.0000000000
40
0.0000000000
40
0.0196000170
40
0.0796276500
40
0.1818959913
40
0.3274368009
40
0.5141767240
40
0.7392661152
40
1.0000000000
40
1.0000000000
40
1.0000000000
40
1.0000000000
10
-23.1915095985
20
75.9040057680
30
0.0000000000
10
-23.1919812681
20
75.9050808437
30
0.0000000000
10
-23.1905387179
20
75.8947708970
30
0.0000000000
10
-23.1917813849
20
75.8893330409
30
0.0000000000
10
-23.1909003653
20
75.8677069200
30
0.0000000000
10
-23.1911593394
20
75.8431136196
30
0.0000000000
10
-23.1909393497
20
75.8091698036
30
0.0000000000
10
-23.1909201587
20
75.7690834836
30
0.0000000000
10
-23.1908795103
20
75.7399424839
30
0.0000000000
10
-23.1908645797
20
75.7243163611
30
0.0000000000
11
-23.1915095985
21
75.9040057680
31
0.0000000000
11
-23.1913914730
21
75.9004857697
31
0.0000000000
11
-23.1912775860
21
75.8896998442
31
0.0000000000
11
-23.1911701521
21
75.8713232851
31
0.0000000000
11
-23.1910716345
21
75.8451708514
31
0.0000000000
11
-23.1909854905
21
75.8116151632
31
0.0000000000
11
-23.1909154259
21
75.7711683062
31
0.0000000000
11
-23.1908645797
21
75.7243163611
31
0.0000000000
0
SPLINE
5
3C3
100
AcDbEntity
8
0
100
AcDbSpline
62
7
6
CONTINUOUS
70
0
71
3
72
18
73
14
74
12
42
0.0000001000
43
0.0000001000
44
0.0000000001
12
0.0007829249
22
-0.8193982120
32
0.0000000000
13
0.0009884843
23
-0.8189362385
33
0.0000000000
40
0.0000000000
40
0.0000000000
40
0.0000000000
40
0.0000000000
40
0.0645653940
40
0.1360506862
40
0.2140617209
40
0.2983668007
40
0.3887748421
40
0.4848188054
40
0.5849278319
40
0.6872551068
40
0.7903583231
40
0.8944132088
40
1.0000000000
40
1.0000000000
40
1.0000000000
40
1.0000000000
10
-23.1908645797
20
75.7243163611
30
0.0000000000
10
-23.1908477298
20
75.7066814383
30
0.0000000000
10
-23.1908307012
20
75.6695575149
30
0.0000000000
10
-23.1908196743
20
75.6111164937
30
0.0000000000
10
-23.1908312522
20
75.5472956746
30
0.0000000000
10
-23.1908624295
20
75.4783066924
30
0.0000000000
10
-23.1909138618
20
75.4043959093
30
0.0000000000
10
-23.1909841954
20
75.3261707591
30
0.0000000000
10
-23.1910712426
20
75.2446919921
30
0.0000000000
10
-23.1911667937
20
75.1612861905
30
0.0000000000
10
-23.1912861294
20
75.0768032698
30
0.0000000000
10
-23.1913578051
20
74.9914305719
30
0.0000000000
10
-23.1915443838
20
74.9342028706
30
0.0000000000
10
-23.1915095935
20
74.9053799207
30
0.0000000000
11
-23.1908645797
21
75.7243163611
31
0.0000000000
11
-23.1908338240
21
75.6714413906
31
0.0000000000
11
-23.1908234640
21
75.6128994526
31
0.0000000000
11
-23.1908337092
21
75.5490133436
31
0.0000000000
11
-23.1908643856
21
75.4799728151
31
0.0000000000
11
-23.1909152235
21
75.4059343574
31
0.0000000000
11
-23.1909853700
21
75.3272804493
31
0.0000000000
11
-23.1910716400
21
75.2452975254
31
0.0000000000
11
-23.1911702650
21
75.1614980087
31
0.0000000000
11
-23.1912777362
21
75.0770630555
31
0.0000000000
11
-23.1913915828
21
74.9918487528
31
0.0000000000
11
-23.1915095935
21
74.9053799207
31
0.0000000000
0
SPLINE
5
3C4
100
AcDbEntity
8
0
100
AcDbSpline
62
9
6
CONTINUOUS
70
0
71
3
72
11
73
7
74
5
42
0.0000001000
43
0.0000001000
44
0.0000000001
12
-0.2204137256
22
0.0885579167
32
0.0000000000
13
-0.0005813338
23
0.2356544964
33
0.0000000000
40
0.0000000000
40
0.0000000000
40
0.0000000000
40
0.0000000000
40
0.0199904354
40
0.3469618707
40
0.6736772439
40
1.0000000000
40
1.0000000000
40
1.0000000000
40
1.0000000000
10
-31.7824200498
20
-61.9335082859
30
0.0000000000
10
-31.7838887719
20
-61.9329181822
30
0.0000000000
10
-31.8092549554
20
-61.9223729619
30
0.0000000000
10
-31.8539766988
20
-61.8917376488
30
0.0000000000
10
-31.8975500569
20
-61.8260036822
30
0.0000000000
10
-31.9078330773
20
-61.7741863003
30
0.0000000000
10
-31.9078963115
20
-61.7485531588
30
0.0000000000
11
-31.7824200498
21
-61.9335082859
31
0.0000000000
11
-31.7868040050
21
-61.9316856720
31
0.0000000000
11
-31.8504083026
21
-61.8881933201
31
0.0000000000
11
-31.8928737557
21
-61.8239711959
31
0.0000000000
11
-31.9078963115
21
-61.7485531588
31
0.0000000000
0
SPLINE
5
3C5
100
AcDbEntity
8
0
100
AcDbSpline
62
9
6
CONTINUOUS
70
0
71
3
72
11
73
7
74
5
42
0.0000001000
43
0.0000001000
44
0.0000000001
12
-0.2204163660
22
-0.0885560699
32
0.0000000000
13
-0.0005818073
23
-0.2356562220
33
0.0000000000
40
0.0000000000
40
0.0000000000
40
0.0000000000
40
0.0000000000
40
0.0199991290
40
0.3469677261
40
0.6736801942
40
1.0000000000
40
1.0000000000
40
1.0000000000
40
1.0000000000
10
-31.7824180088
20
59.9730896492
30
0.0000000000
10
-31.7838873873
20
59.9724993011
30
0.0000000000
10
-31.8092542520
20
59.9619539795
30
0.0000000000
10
-31.8539765509
20
59.9313183609
30
0.0000000000
10
-31.8975499446
20
59.8655845683
30
0.0000000000
10
-31.9078330454
20
59.8137672927
30
0.0000000000
10
-31.9078963305
20
59.7881341951
30
0.0000000000
11
-31.7824180088
21
59.9730896492
31
0.0000000000
11
-31.7868039139
21
59.9712662560
31
0.0000000000
11
-31.8504081732
21
59.9277740327
31
0.0000000000
11
-31.8928736597
21
59.8635520750
31
0.0000000000
11
-31.9078963305
21
59.7881341951
31
0.0000000000
0
SPLINE
5
3C6
100
AcDbEntity
8
0
100
AcDbSpline
62
9
6
CONTINUOUS
70
0
71
3
72
11
73
7
74
5
42
0.0000001000
43
0.0000001000
44
0.0000000001
12
-0.0000005542
22
-0.0000004630
32
0.0000000000
13
0.1229036931
23
-0.2611117915
33
0.0000000000
40
0.0000000000
40
0.0000000000
40
0.0000000000
40
0.0000000000
40
0.0067162714
40
0.1108591492
40
0.4607094185
40
1.0000000000
40
1.0000000000
40
1.0000000000
40
1.0000000000
10
-32.6921159619
20
60.2885151307
30
0.0000000000
10
-32.6921159632
20
60.2885151296
30
0.0000000000
10
-32.6917577498
20
60.2877532772
30
0.0000000000
10
-32.6643396271
20
60.2294443634
30
0.0000000000
10
-32.6338164898
20
60.1645533574
30
0.0000000000
10
-32.5958325691
20
60.0838312040
30
0.0000000000
10
-32.5737389677
20
60.0368928273
30
0.0000000000
11
-32.6921159619
21
60.2885151307
31
0.0000000000
11
-32.6920496585
21
60.2883741158
31
0.0000000000
11
-32.6796499933
21
60.2620047549
31
0.0000000000
11
-32.6379873720
21
60.1734251650
31
0.0000000000
11
-32.5737389677
21
60.0368928273
31
0.0000000000
0
SPLINE
5
3C7
100
AcDbEntity
8
0
100
AcDbSpline
62
9
6
CONTINUOUS
70
0
71
3
72
14
73
10
74
8
42
0.0000001000
43
0.0000001000
44
0.0000000001
12
0.6178534801
22
-1.3126442746
32
0.0000000000
13
0.6045136795
23
-1.2700621952
33
0.0000000000
40
0.0000000000
40
0.0000000000
40
0.0000000000
40
0.0000000000
40
0.1305684291
40
0.2749663708
40
0.4276176837
40
0.5846083456
40
0.7423276383
40
0.8981168945
40
1.0000000000
40
1.0000000000
40
1.0000000000
40
1.0000000000
10
-32.5737389677
20
60.0368928273
30
0.0000000000
10
-32.5468482483
20
59.9797628604
30
0.0000000000
10
-32.4931660543
20
59.8657599803
30
0.0000000000
10
-32.4071552505
20
59.6832322372
30
0.0000000000
10
-32.3164946161
20
59.4910348626
30
0.0000000000
10
-32.2228622527
20
59.2928001940
30
0.0000000000
10
-32.1285243666
20
59.0934202536
30
0.0000000000
10
-32.0450672836
20
58.9174370678
30
0.0000000000
10
-31.9931957919
20
58.8083263117
30
0.0000000000
10
-31.9726658816
20
58.7651936849
30
0.0000000000
11
-32.5737389677
21
60.0368928273
31
0.0000000000
11
-32.4954997378
21
59.8707348155
31
0.0000000000
11
-32.4089180933
21
59.6870038628
31
0.0000000000
11
-32.3173108736
21
59.4928075954
31
0.0000000000
11
-32.2229954355
21
59.2931401590
31
0.0000000000
11
-32.1281051801
21
59.0926108262
31
0.0000000000
11
-32.0341995892
21
58.8946190301
31
0.0000000000
11
-31.9726658816
21
58.7651936849
31
0.0000000000
0
SPLINE
5
3C8
100
AcDbEntity
8
0
100
AcDbSpline
62
9
6
CONTINUOUS
70
0
71
3
72
27
73
23
74
21
42
0.0000001000
43
0.0000001000
44
0.0000000001
12
-1.4798044635
22
3.1051860519
32
0.0000000000
13
1.4783121310
23
-3.1058823216
33
0.0000000000
40
0.0000000000
40
0.0000000000
40
0.0000000000
40
0.0000000000
40
0.0619327386
40
0.1254512005
40
0.1897456938
40
0.2536618704
40
0.3156653007
40
0.3737627021
40
0.4254912659
40
0.4683041526
40
0.4982044297
40
0.5102819183
40
0.5187531977
40
0.5472110185
40
0.5910784558
40
0.6444706994
40
0.7035181287
40
0.7659405393
40
0.8301374032
40
0.8946322200
40
0.9583378032
40
1.0000000000
40
1.0000000000
40
1.0000000000
40
1.0000000000
10
-31.9422509813
20
58.7013319343
30
0.0000000000
10
-31.9728004290
20
58.7654361596
30
0.0000000000
10
-32.0345828459
20
58.8953305940
30
0.0000000000
10
-32.1278110443
20
59.0919147340
30
0.0000000000
10
-32.2218192777
20
59.2905942404
30
0.0000000000
10
-32.3150249572
20
59.4879217343
30
0.0000000000
10
-32.4048368009
20
59.6783151355
30
0.0000000000
10
-32.4895056653
20
59.8579906459
30
0.0000000000
10
-32.5619364186
20
60.0118014919
30
0.0000000000
10
-32.6285516775
20
60.1533640456
30
0.0000000000
10
-32.6575626388
20
60.2150327520
30
0.0000000000
10
-32.7001942922
20
60.3056949003
30
0.0000000000
10
-32.6643396271
20
60.2294443634
30
0.0000000000
10
-32.6338164898
20
60.1645533574
30
0.0000000000
10
-32.5677919260
20
60.0242401704
30
0.0000000000
10
-32.4931660543
20
59.8657599803
30
0.0000000000
10
-32.4071552505
20
59.6832322372
30
0.0000000000
10
-32.3164946161
20
59.4910348626
30
0.0000000000
10
-32.2228622527
20
59.2928001940
30
0.0000000000
10
-32.1285243666
20
59.0934202536
30
0.0000000000
10
-32.0450672836
20
58.9174370678
30
0.0000000000
10
-31.9931957919
20
58.8083263117
30
0.0000000000
10
-31.9726658816
20
58.7651936849
30
0.0000000000
11
-31.9422509813
21
58.7013319343
31
0.0000000000
11
-32.0337667659
21
58.8937077262
31
0.0000000000
11
-32.1273977337
21
59.0911173933
31
0.0000000000
11
-32.2219946526
21
59.2910232133
31
0.0000000000
11
-32.3158992274
21
59.4898169319
31
0.0000000000
11
-32.4068932144
21
59.6827089790
31
0.0000000000
11
-32.4920837667
21
59.8634829266
31
0.0000000000
11
-32.5678876588
21
60.0244623177
31
0.0000000000
11
-32.6305946933
21
60.1577110162
31
0.0000000000
11
-32.6743711546
21
60.2507795141
31
0.0000000000
11
-32.6920496585
21
60.2883741158
31
0.0000000000
11
-32.6796499933
21
60.2620047549
31
0.0000000000
11
-32.6379873720
21
60.1734251650
31
0.0000000000
11
-32.5737389677
21
60.0368928273
31
0.0000000000
11
-32.4954997378
21
59.8707348155
31
0.0000000000
11
-32.4089180933
21
59.6870038628
31
0.0000000000
11
-32.3173108736
21
59.4928075954
31
0.0000000000
11
-32.2229954355
21
59.2931401590
31
0.0000000000
11
-32.1281051801
21
59.0926108262
31
0.0000000000
11
-32.0341995892
21
58.8946190301
31
0.0000000000
11
-31.9726658816
21
58.7651936849
31
0.0000000000
0
SPLINE
5
3C9
100
AcDbEntity
8
0
100
AcDbSpline
62
9
6
CONTINUOUS
70
0
71
3
72
9
73
5
74
3
42
0.0000001000
43
0.0000001000
44
0.0000000001
12
-0.7522857609
22
1.5972862764
32
0.0000000000
13
0.0000000026
23
0.0000000012
33
0.0000000000
40
0.0000000000
40
0.0000000000
40
0.0000000000
40
0.0000000000
40
0.6665964743
40
1.0000000000
40
1.0000000000
40
1.0000000000
40
1.0000000000
10
-31.9078963319
20
59.7881341951
30
0.0000000000
10
-32.0750533438
20
60.1430493286
30
0.0000000000
10
-32.2422367605
20
60.4980210606
30
0.0000000000
10
-32.6607878946
20
61.3851345177
30
0.0000000000
10
-32.6607878943
20
61.3851345179
30
0.0000000000
11
-31.9078963319
21
59.7881341951
31
0.0000000000
11
-32.4096365573
21
60.8527527716
31
0.0000000000
11
-32.6607878943
21
61.3851345179
31
0.0000000000
0
SPLINE
5
3CA
100
AcDbEntity
8
0
100
AcDbSpline
62
9
6
CONTINUOUS
70
0
71
3
72
9
73
5
74
3
42
0.0000001000
43
0.0000001000
44
0.0000000001
12
-0.4844753245
22
1.0287355348
32
0.0000000000
13
-0.0000000034
23
-0.0000000016
33
0.0000000000
40
0.0000000000
40
0.0000000000
40
0.0000000000
40
0.0000000000
40
0.5355443948
40
1.0000000000
40
1.0000000000
40
1.0000000000
40
1.0000000000
10
-31.9064920070
20
60.4017232036
30
0.0000000000
10
-31.9929780218
20
60.5853677200
30
0.0000000000
10
-32.1638770358
20
60.9480784904
30
0.0000000000
10
-32.4642830999
20
61.5850829838
30
0.0000000000
10
-32.4642831004
20
61.5850829836
30
0.0000000000
11
-31.9064920070
21
60.4017232036
31
0.0000000000
11
-32.2131696718
21
61.0525327390
31
0.0000000000
11
-32.4642831004
21
61.5850829836
31
0.0000000000
0
SPLINE
5
3CB
100
AcDbEntity
8
0
100
AcDbSpline
62
9
6
CONTINUOUS
70
0
71
3
72
8
73
4
74
2
42
0.0000001000
43
0.0000001000
44
0.0000000001
12
-0.1148254516
22
0.2439011465
32
0.0000000000
13
-0.1126415084
23
0.2391831256
33
0.0000000000
40
0.0000000000
40
0.0000000000
40
0.0000000000
40
0.0000000000
40
1.0000000000
40
1.0000000000
40
1.0000000000
40
1.0000000000
10
-31.7940720729
20
60.1629658840
30
0.0000000000
10
-31.8323472235
20
60.2442662662
30
0.0000000000
10
-31.8689448376
20
60.3219954950
30
0.0000000000
10
-31.9064920070
20
60.4017232036
30
0.0000000000
11
-31.7940720729
21
60.1629658840
31
0.0000000000
11
-31.9064920070
21
60.4017232036
31
0.0000000000
0
SPLINE
5
3CC
100
AcDbEntity
8
0
100
AcDbSpline
62
9
6
CONTINUOUS
70
0
71
3
72
9
73
5
74
3
42
0.0000001000
43
0.0000001000
44
0.0000000001
12
-2.1008958545
22
-0.1104025095
32
0.0000000000
13
-2.1008958316
23
-0.1104029457
33
0.0000000000
40
0.0000000000
40
0.0000000000
40
0.0000000000
40
0.0000000000
40
0.5119401600
40
1.0000000000
40
1.0000000000
40
1.0000000000
40
1.0000000000
10
-23.1915095935
20
-76.8657989661
30
0.0000000000
10
-23.5500205801
20
-76.8846387922
30
0.0000000000
10
-24.2503191913
20
-76.9214397616
30
0.0000000000
10
-24.9506178109
20
-76.9582405720
30
0.0000000000
10
-25.2924054387
20
-76.9762016533
30
0.0000000000
11
-23.1915095935
21
-76.8657989661
31
0.0000000000
11
-24.2670425485
21
-76.9223185389
31
0.0000000000
11
-25.2924054387
21
-76.9762016533
31
0.0000000000
0
SPLINE
5
3CD
100
AcDbEntity
8
0
100
AcDbSpline
62
9
6
CONTINUOUS
70
0
71
3
72
9
73
5
74
3
42
0.0000001000
43
0.0000001000
44
0.0000000001
12
2.1008958316
22
-0.1104029457
32
0.0000000000
13
2.1008958545
23
-0.1104025095
33
0.0000000000
40
0.0000000000
40
0.0000000000
40
0.0000000000
40
0.0000000000
40
0.4880598400
40
1.0000000000
40
1.0000000000
40
1.0000000000
40
1.0000000000
10
-25.2924054387
20
75.0157826897
30
0.0000000000
10
-24.9506178109
20
74.9978216084
30
0.0000000000
10
-24.2503191913
20
74.9610207980
30
0.0000000000
10
-23.5500205801
20
74.9242198286
30
0.0000000000
10
-23.1915095935
20
74.9053800025
30
0.0000000000
11
-25.2924054387
21
75.0157826897
31
0.0000000000
11
-24.2670425485
21
74.9618995752
31
0.0000000000
11
-23.1915095935
21
74.9053800025
31
0.0000000000
0
ENDSEC
0
SECTION
2
OBJECTS
0
DICTIONARY
5
C
100
AcDbDictionary
280
0
281
1
3
ACAD_GROUP
350
D
3
ACAD_MLINESTYLE
350
17
3
ACAD_LAYOUT
350
1A
3
ACAD_PLOTSETTINGS
350
19
3
ACAD_PLOTSTYLENAME
350
E
0
DICTIONARY
5
D
102
{ACAD_REACTORS
330
C
102
}
100
AcDbDictionary
280
0
281
1
0
ACDBDICTIONARYWDFLT
5
E
102
{ACAD_REACTORS
330
C
102
}
100
AcDbDictionary
281
1
3
Normal
350
F
100
AcDbDictionaryWithDefault
340
F
0
DICTIONARY
5
17
102
{ACAD_REACTORS
330
C
102
}
100
AcDbDictionary
280
0
281
1
3
Standard
350
18
0
DICTIONARY
5
19
102
{ACAD_REACTORS
330
C
102
}
100
AcDbDictionary
281
1
0
DICTIONARY
5
1A
102
{ACAD_REACTORS
330
C
102
}
100
AcDbDictionary
281
1
3
Layout1
350
1E
3
Model
350
22
0
ACDBPLACEHOLDER
5
F
102
{ACAD_REACTORS
330
E
102
}
0
MLINESTYLE
5
18
102
{ACAD_REACTORS
330
17
102
}
100
AcDbMlineStyle
2
STANDARD
70
0
3

62
256
51
90.0
52
90.0
71
2
49
0.5
62
256
6
BYLAYER
49
-0.5
62
256
6
BYLAYER
0
LAYOUT
5
1E
102
{ACAD_REACTORS
330
1A
102
}
100
AcDbPlotSettings
1

2

4

6

40
0.0
41
0.0
42
0.0
43
0.0
44
0.0
45
0.0
46
0.0
47
0.0
48
0.0
49
0.0
140
0.0
141
0.0
142
1.0
143
1.0
70
0
72
0
73
0
74
0
7

75
0
147
1.0
148
0.0
149
0.0
100
AcDbLayout
1
Layout1
70
0
71
0
10
0.0
20
0.0
11
0.0
21
0.0
12
0.0
22
0.0
32
0.0
14
0.0
24
0.0
34
0.0
15
0.0
25
0.0
35
0.0
146
0.0
13
0.0
23
0.0
33
0.0
16
0.0
26
0.0
36
0.0
17
0.0
27
0.0
37
0.0
76
0
330
1B
331
0
345
0
346
0
0
LAYOUT
5
22
102
{ACAD_REACTORS
330
1A
102
}
100
AcDbPlotSettings
1

2

4

6

40
0.0
41
0.0
42
0.0
43
0.0
44
0.0
45
0.0
46
0.0
47
0.0
48
0.0
49
0.0
140
0.0
141
0.0
142
1.0
143
1.0
70
0
72
0
73
0
74
0
7

75
0
147
1.0
148
0.0
149
0.0
100
AcDbLayout
1
Model
70
0
71
0
10
0.0
20
0.0
11
0.0
21
0.0
12
0.0
22
0.0
32
0.0
14
0.0
24
0.0
34
0.0
15
0.0
25
0.0
35
0.0
146
0.0
13
0.0
23
0.0
33
0.0
16
0.0
26
0.0
36
0.0
17
0.0
27
0.0
37
0.0
76
0
330
1F
331
0
345
0
346
0
0
ENDSEC
0
EOF
