  0
SECTION
  2
HEADER
  9
$ACADVER
  1
AC1015
  9
$DWGCODEPAGE
  3
ANSI_1252
  9
$EXTMAX
 10
297.0
 20
210.0
 30
0.0
  9
$EXTMIN
 10
0.0
 20
0.0
 30
0.0
  9
$LIMMIN
 10
0.0
 20
0.0
  9
$LIMMAX
 10
297.0
 20
210.0
  9
$VIEWCTR
 10
148.5
 20
105.0
  9
$VIEWSIZE
 40
210.0
  9
$CLAYER
  8
0
  9
$LTSCALE
 40
16.335
  9
$CELTYPE
  6
BYLAYER
  9
$DIMSCALE
 40
1.0
  9
$DIMASZ
 40
3.0
  9
$DIMEXO
 40
1.85625
  9
$DIMDLI
 40
11.286
  9
$DIMEXE
 40
5.346
  9
$DIMCEN
 40
2.673
  9
$DIMLFAC
 40
1.0
  9
$DIMBLK
  1
_FILLED
  9
$DIMTXT
 40
3.0
  9
$DIMTOL
 70
1
  9
$DIMLIM
 70
0
  9
$DIMTFAC
 40
1.0
  9
$DIMTP
 40
0.01
  9
$DIMTM
 40
0.01
  9
$PDMODE
 70
3
  9
$PDSIZE
 40
3.0
  9
$HANDSEED
  5
310
  9
$TILEMODE
 70
1
  9
$MEASUREMENT
 70
1
  9
$INSUNITS
 70
4
  0
ENDSEC
  0
SECTION
  2
CLASSES
  0
CLASS
  1
ACDBDICTIONARYWDFLT
  2
AcDbDictionaryWithDefault
  3
AutoCAD 2000
 90
0
280
0
281
0
  0
CLASS
  1
ACDBPLACEHOLDER
  2
AcDbPlaceHolder
  3
AutoCAD 2000
 90
0
280
0
281
0
  0
CLASS
  1
LAYOUT
  2
AcDbLayout
  3
AutoCAD 2000
 90
0
280
0
281
0
  0
ENDSEC
  0
SECTION
  2
TABLES
  0
TABLE
  2
VPORT
  5
8
100
AcDbSymbolTable
 70
2
  0
VPORT
  5
1F4
100
AcDbSymbolTableRecord
100
AcDbViewportTableRecord
  2
*ACTIVE
 70
0
 10
0.0
 20
0.0
 11
1.0
 21
1.0
 12
148.5
 22
105.0
 13
0.0
 23
0.0
 14
1.0
 24
1.0
 15
0.0
 25
0.0
 16
0.0
 26
0.0
 36
1.0
 17
0.0
 27
0.0
 37
0.0
 40
210.0
 41
1.4142857143
 42
50.0
 43
0.0
 44
0.0
 50
0.0
 51
0.0
 71
0
 72
100
 73
1
 74
1
 75
0
 76
0
 77
0
 78
0
  0
ENDTAB
  0
TABLE
  2
LTYPE
  5
5
100
AcDbSymbolTable
 70
6
  0
LTYPE
  5
14
100
AcDbSymbolTableRecord
100
AcDbLinetypeTableRecord
  2
BYBLOCK
 70
0
  3

 72
65
 73
0
 40
0.0
  0
LTYPE
  5
15
100
AcDbSymbolTableRecord
100
AcDbLinetypeTableRecord
  2
BYLAYER
 70
0
  3

 72
65
 73
0
 40
0.0
  0
LTYPE
  5
16
100
AcDbSymbolTableRecord
100
AcDbLinetypeTableRecord
  2
CONTINUOUS
 70
64
  3
Solid line
 72
65
 73
0
 40
0.0
  0
LTYPE
  5
1F5
100
AcDbSymbolTableRecord
100
AcDbLinetypeTableRecord
  2
CENTER
 70
64
  3
____ _ ____ _ ____ _ ____ _ ____ _ ____ _ ____
 72
65
 73
4
 40
0.6
 49
0.375
 74
0
 49
-0.075
 74
0
 49
0.075
 74
0
 49
-0.075
 74
0
  0
LTYPE
  5
1F6
100
AcDbSymbolTableRecord
100
AcDbLinetypeTableRecord
  2
HIDDEN
 70
64
  3
- - - - - - - - - - - - - - - - - - - -
 72
65
 73
2
 40
0.2
 49
0.1
 74
0
 49
-0.1
 74
0
  0
LTYPE
  5
1F7
100
AcDbSymbolTableRecord
100
AcDbLinetypeTableRecord
  2
PHANTOM
 70
64
  3
_____ _ _ _____ _ _ _____ _ _ _____
 72
65
 73
6
 40
0.8
 49
0.45
 74
0
 49
-0.05
 74
0
 49
0.1
 74
0
 49
-0.05
 74
0
 49
0.1
 74
0
 49
-0.05
 74
0
  0
LTYPE
  5
1F8
100
AcDbSymbolTableRecord
100
AcDbLinetypeTableRecord
  2
DOT
 70
64
  3
. . . . . . . . . . . . . . . . . . . .
 72
65
 73
2
 40
0.2
 49
0.1
 74
0
 49
-0.1
 74
0
  0
LTYPE
  5
1F9
100
AcDbSymbolTableRecord
100
AcDbLinetypeTableRecord
  2
DASHED
 70
64
  3
- - - - - - - - - - - - - - - - - - - -
 72
65
 73
2
 40
0.2
 49
0.1
 74
0
 49
-0.1
 74
0
  0
ENDTAB
  0
TABLE
  2
LAYER
  5
2
100
AcDbSymbolTable
 70
36
  0
LAYER
  5
10
100
AcDbSymbolTableRecord
100
AcDbLayerTableRecord
  2
0
 70
0
 62
7
  6
CONTINUOUS
370
-3
390
F
  0
LAYER
  5
1FA
100
AcDbSymbolTableRecord
100
AcDbLayerTableRecord
  2
DEFAULT_1
 70
0
 62
7
  6
CENTER
370
-3
390
F
  0
LAYER
  5
1FB
100
AcDbSymbolTableRecord
100
AcDbLayerTableRecord
  2
DEFAULT_2
 70
0
 62
7
  6
HIDDEN
370
-3
390
F
  0
LAYER
  5
1FC
100
AcDbSymbolTableRecord
100
AcDbLayerTableRecord
  2
DEFAULT_3
 70
0
 62
7
  6
PHANTOM
370
-3
390
F
  0
LAYER
  5
1FD
100
AcDbSymbolTableRecord
100
AcDbLayerTableRecord
  2
ASSI
 70
0
 62
7
  6
CONTINUOUS
370
-3
390
F
  0
LAYER
  5
1FE
100
AcDbSymbolTableRecord
100
AcDbLayerTableRecord
  2
COLOR9
 70
0
 62
7
  6
CONTINUOUS
370
-3
390
F
  0
LAYER
  5
1FF
100
AcDbSymbolTableRecord
100
AcDbLayerTableRecord
  2
COORDINATE
 70
0
 62
7
  6
CONTINUOUS
370
-3
390
F
  0
LAYER
  5
200
100
AcDbSymbolTableRecord
100
AcDbLayerTableRecord
  2
COORD_ORIGINE
 70
0
 62
7
  6
CONTINUOUS
370
-3
390
F
  0
LAYER
  5
201
100
AcDbSymbolTableRecord
100
AcDbLayerTableRecord
  2
CURVE
 70
0
 62
7
  6
CONTINUOUS
370
-3
390
F
  0
LAYER
  5
202
100
AcDbSymbolTableRecord
100
AcDbLayerTableRecord
  2
DRAFT
 70
0
 62
7
  6
CONTINUOUS
370
-3
390
F
  0
LAYER
  5
203
100
AcDbSymbolTableRecord
100
AcDbLayerTableRecord
  2
IGS_SIMBOLO
 70
0
 62
7
  6
CONTINUOUS
370
-3
390
F
  0
LAYER
  5
204
100
AcDbSymbolTableRecord
100
AcDbLayerTableRecord
  2
PIANI
 70
0
 62
7
  6
CONTINUOUS
370
-3
390
F
  0
LAYER
  5
205
100
AcDbSymbolTableRecord
100
AcDbLayerTableRecord
  2
PIANI_ORIGINE
 70
0
 62
7
  6
CONTINUOUS
370
-3
390
F
  0
LAYER
  5
206
100
AcDbSymbolTableRecord
100
AcDbLayerTableRecord
  2
PIANI_RIFERIMENTO
 70
0
 62
7
  6
CONTINUOUS
370
-3
390
F
  0
LAYER
  5
207
100
AcDbSymbolTableRecord
100
AcDbLayerTableRecord
  2
RACCORDO
 70
0
 62
7
  6
CONTINUOUS
370
-3
390
F
  0
LAYER
  5
208
100
AcDbSymbolTableRecord
100
AcDbLayerTableRecord
  2
SMUSSO
 70
0
 62
7
  6
CONTINUOUS
370
-3
390
F
  0
LAYER
  5
209
100
AcDbSymbolTableRecord
100
AcDbLayerTableRecord
  2
SNAPLINE
 70
0
 62
7
  6
CONTINUOUS
370
-3
390
F
  0
LAYER
  5
20A
100
AcDbSymbolTableRecord
100
AcDbLayerTableRecord
  2
SUPERFICI
 70
0
 62
7
  6
CONTINUOUS
370
-3
390
F
  0
LAYER
  5
20B
100
AcDbSymbolTableRecord
100
AcDbLayerTableRecord
  2
TRASH
 70
0
 62
7
  6
CONTINUOUS
370
-3
390
F
  0
LAYER
  5
20C
100
AcDbSymbolTableRecord
100
AcDbLayerTableRecord
  2
XSEC_DATUMS
 70
0
 62
7
  6
CONTINUOUS
370
-3
390
F
  0
ENDTAB
  0
TABLE
  2
STYLE
  5
3
100
AcDbSymbolTable
 70
1
  0
STYLE
  5
11
100
AcDbSymbolTableRecord
100
AcDbTextStyleTableRecord
  2
STANDARD
 70
0
 40
0.0
 41
0.8
 50
0.0
 71
0
 42
0.2
  3
txt
  4

  0
STYLE
  5
20D
100
AcDbSymbolTableRecord
100
AcDbTextStyleTableRecord
  2
TEXTSTYLE_1
 70
0
 40
0.0
 41
0.8
 50
0.0
 71
0
 42
0.2
  3
gdt
  4

  0
ENDTAB
  0
TABLE
  2
VIEW
  5
6
100
AcDbSymbolTable
 70
0
  0
ENDTAB
  0
TABLE
  2
UCS
  5
7
100
AcDbSymbolTable
 70
0
  0
ENDTAB
  0
TABLE
  2
APPID
  5
9
100
AcDbSymbolTable
 70
1
  0
APPID
  5
20E
100
AcDbSymbolTableRecord
100
AcDbRegAppTableRecord
  2
ACAD
 70
0
  0
ENDTAB
  0
TABLE
  2
BLOCK_RECORD
  5
1
100
AcDbSymbolTable
 70
0
  0
BLOCK_RECORD
  5
20F
100
AcDbSymbolTableRecord
100
AcDbBlockTableRecord
  2
*Model_Space
  0
BLOCK_RECORD
  5
210
100
AcDbSymbolTableRecord
100
AcDbBlockTableRecord
  2
*Paper_Space
  0
BLOCK_RECORD
  5
211
100
AcDbSymbolTableRecord
100
AcDbBlockTableRecord
  2
_FILLED
  0
BLOCK_RECORD
  5
212
100
AcDbSymbolTableRecord
100
AcDbBlockTableRecord
  2
*D0
  0
BLOCK_RECORD
  5
213
100
AcDbSymbolTableRecord
100
AcDbBlockTableRecord
  2
*D1
  0
BLOCK_RECORD
  5
214
100
AcDbSymbolTableRecord
100
AcDbBlockTableRecord
  2
*D2
  0
ENDTAB
  0
TABLE
  2
DIMSTYLE
  5
A
100
AcDbSymbolTable
 70
1
100
AcDbDimStyleTable
 71
0
  0
DIMSTYLE
105
215
100
AcDbSymbolTableRecord
100
AcDbDimStyleTableRecord
  2
STANDARD
 70
0
  3

  4

 40
1.0
 41
3.0
 42
0.0625
 43
0.38
 44
0.18
 45
0.0
 46
0.0
 47
0.01
 48
0.01
140
3.0
141
0.09
142
0.0
143
25.4
144
1.0
145
0.0
146
1.0
147
0.09
 71
1.0
 72
0.0
 73
0
 74
0
 75
0
 76
0
 77
1
 78
8
170
0
171
2
172
0
173
0
174
0
175
0
176
0
177
0
178
0
270
2
271
2
272
2
273
2
274
2
275
0
280
0
281
0
282
0
283
1
284
8
285
0
286
0
287
3
288
0
340
11
341
211
342
211
343
211
344
211
  0
DIMSTYLE
105
216
100
AcDbSymbolTableRecord
100
AcDbDimStyleTableRecord
  2
DIMSTYLE_1
 70
0
  3

  4

 40
1.0
 41
3.0
 42
0.0625
 43
0.38
 44
0.18
 45
0.0
 46
0.0
 47
0.0
 48
0.0
140
3.0
141
0.09
142
0.0
143
25.4
144
1.0
145
0.0
146
1.0
147
0.09
 71
0.0
 72
0.0
 73
0
 74
0
 75
0
 76
0
 77
1
 78
8
170
0
171
2
172
0
173
0
174
0
175
0
176
0
177
0
178
0
270
2
271
1
272
1
273
2
274
2
275
0
280
0
281
0
282
0
283
1
284
8
285
0
286
0
287
3
288
0
340
11
341
211
342
211
343
211
344
211
  0
DIMSTYLE
105
217
100
AcDbSymbolTableRecord
100
AcDbDimStyleTableRecord
  2
DIMSTYLE_2
 70
0
  3

  4

 40
1.0
 41
3.0
 42
0.0625
 43
0.38
 44
0.18
 45
0.0
 46
0.0
 47
0.0
 48
0.0
140
3.0
141
0.09
142
0.0
143
25.4
144
1.0
145
0.0
146
1.0
147
0.09
 71
0.0
 72
0.0
 73
0
 74
0
 75
0
 76
0
 77
1
 78
8
170
0
171
2
172
0
173
0
174
0
175
0
176
0
177
0
178
0
270
2
271
2
272
2
273
2
274
2
275
0
280
0
281
0
282
0
283
1
284
8
285
0
286
0
287
3
288
0
340
11
341
211
342
211
343
211
344
211
  0
ENDTAB
  0
ENDSEC
  0
SECTION
  2
BLOCKS
  0
BLOCK
  5
20
100
AcDbEntity
  8
0
100
AcDbBlockBegin
  2
*Model_Space
 70
0
 10
0.0
 20
0.0
 30
0.0
  3
*Model_Space
  1

  0
ENDBLK
  5
21
100
AcDbEntity
  8
0
100
AcDbBlockEnd
  0
BLOCK
  5
1C
100
AcDbEntity
  8
0
100
AcDbBlockBegin
  2
*Paper_Space
 70
0
 10
0.0
 20
0.0
 30
0.0
  3
*Paper_Space
  1

  0
ENDBLK
  5
1D
100
AcDbEntity
  8
0
100
AcDbBlockEnd
  0
BLOCK
  5
218
100
AcDbEntity
  8
0
100
AcDbBlockBegin
  2
_FILLED
 70
64
 10
0.0
 20
0.0
  3
_FILLED
  1

  0
SOLID
  5
219
100
AcDbEntity
  8
0
  6
BYBLOCK
 62
0
100
AcDbTrace
 10
0.0
 20
0.0
 11
-1.0
 21
0.3166666667
 12
-1.0
 22
-0.3166666667
 13
-1.0
 23
-0.3166666667
  0
ENDBLK
  5
21A
100
AcDbEntity
  8
0
  6
BYBLOCK
 62
0
100
AcDbBlockEnd
  0
BLOCK
  5
21B
100
AcDbEntity
  8
0
100
AcDbBlockBegin
 62
7
  6
CONTINUOUS
  2
*D0
 70
65
 10
0.0
 20
0.0
  3
*D0
  1

  0
MTEXT
  5
21C
100
AcDbEntity
  8
0
100
AcDbMText
 62
7
  6
CONTINUOUS
  7
STANDARD
 71
2
 72
1
 10
31.078265744
 20
34.4774506951
 30
0.0
 11
1.0
 21
0.0
 31
0.0
 44
0.9
  1
44,7
 40
3.0
 41
8.7857142857
  0
LINE
  5
21D
100
AcDbEntity
  8
0
100
AcDbLine
 62
7
  6
CONTINUOUS
 10
8.7219034063
 20
6.8274506951
 11
8.7219034063
 21
32.2274506951
  0
LINE
  5
21E
100
AcDbEntity
  8
0
100
AcDbLine
 62
7
  6
CONTINUOUS
 10
53.4346280817
 20
6.0404592574
 11
53.4346280817
 21
32.2274506951
  0
LINE
  5
21F
100
AcDbEntity
  8
0
100
AcDbLine
 62
7
  6
CONTINUOUS
 10
8.7219034063
 20
30.7274506951
 11
31.078265744
 21
30.7274506951
  0
LINE
  5
220
100
AcDbEntity
  8
0
100
AcDbLine
 62
7
  6
CONTINUOUS
 10
53.4346280817
 20
30.7274506951
 11
31.078265744
 21
30.7274506951
  0
INSERT
  5
221
100
AcDbEntity
  8
0
100
AcDbBlockReference
 62
7
  6
CONTINUOUS
  2
_FILLED
 10
8.7219034063
 20
30.7274506951
 41
3.0
 42
3.0
 43
3.0
 50
180.0
  0
INSERT
  5
222
100
AcDbEntity
  8
0
100
AcDbBlockReference
 62
7
  6
CONTINUOUS
  2
_FILLED
 10
53.4346280817
 20
30.7274506951
 41
3.0
 42
3.0
 43
3.0
  0
ENDBLK
  5
223
100
AcDbEntity
  8
0
  6
BYBLOCK
 62
0
100
AcDbBlockEnd
  0
BLOCK
  5
224
100
AcDbEntity
  8
0
100
AcDbBlockBegin
 62
7
  6
CONTINUOUS
  2
*D1
 70
65
 10
0.0
 20
0.0
  3
*D1
  1

  0
MTEXT
  5
225
100
AcDbEntity
  8
0
100
AcDbMText
 62
7
  6
CONTINUOUS
  7
STANDARD
 71
2
 72
1
 10
57.728265744
 20
0.3274506951
 30
0.0
 11
0.0
 21
1.0
 31
0.0
 44
0.9
  1
44,4
 40
3.0
 41
8.7857142857
  0
LINE
  5
226
100
AcDbEntity
  8
0
100
AcDbLine
 62
7
  6
CONTINUOUS
 10
53.4100333584
 20
22.5410989725
 11
62.978265744
 21
22.5410989725
  0
LINE
  5
227
100
AcDbEntity
  8
0
100
AcDbLine
 62
7
  6
CONTINUOUS
 10
53.4100333584
 20
-21.8861975823
 11
62.978265744
 21
-21.8861975823
  0
LINE
  5
228
100
AcDbEntity
  8
0
100
AcDbLine
 62
7
  6
CONTINUOUS
 10
61.478265744
 20
22.5410989725
 11
61.478265744
 21
0.3274506951
  0
LINE
  5
229
100
AcDbEntity
  8
0
100
AcDbLine
 62
7
  6
CONTINUOUS
 10
61.478265744
 20
-21.8861975823
 11
61.478265744
 21
0.3274506951
  0
INSERT
  5
22A
100
AcDbEntity
  8
0
100
AcDbBlockReference
 62
7
  6
CONTINUOUS
  2
_FILLED
 10
61.478265744
 20
22.5410989725
 41
3.0
 42
3.0
 43
3.0
 50
90.0
  0
INSERT
  5
22B
100
AcDbEntity
  8
0
100
AcDbBlockReference
 62
7
  6
CONTINUOUS
  2
_FILLED
 10
61.478265744
 20
-21.8861975823
 41
3.0
 42
3.0
 43
3.0
 50
270.0
  0
ENDBLK
  5
22C
100
AcDbEntity
  8
0
  6
BYBLOCK
 62
0
100
AcDbBlockEnd
  0
BLOCK
  5
22D
100
AcDbEntity
  8
0
100
AcDbBlockBegin
 62
7
  6
CONTINUOUS
  2
*D2
 70
65
 10
0.0
 20
0.0
  3
*D2
  1

  0
MTEXT
  5
22E
100
AcDbEntity
  8
0
100
AcDbMText
 62
7
  6
CONTINUOUS
  7
STANDARD
 71
2
 72
1
 10
-9.5588757961
 20
34.4774506951
 30
0.0
 11
1.0
 21
0.0
 31
0.0
 44
0.9
  1
6
 40
3.0
 41
2.3571428571
  0
LINE
  5
22F
100
AcDbEntity
  8
0
100
AcDbLine
 62
7
  6
CONTINUOUS
 10
-12.5588757961
 20
0.8274506951
 11
-12.5588757961
 21
32.2274506951
  0
LINE
  5
230
100
AcDbEntity
  8
0
100
AcDbLine
 62
7
  6
CONTINUOUS
 10
-6.5588757961
 20
6.0404592574
 11
-6.5588757961
 21
32.2274506951
  0
LINE
  5
231
100
AcDbEntity
  8
0
100
AcDbLine
 62
7
  6
CONTINUOUS
 10
-12.5588757961
 20
30.7274506951
 11
-16.5588757961
 21
30.7274506951
  0
LINE
  5
232
100
AcDbEntity
  8
0
100
AcDbLine
 62
7
  6
CONTINUOUS
 10
-16.5588757961
 20
30.7274506951
 11
-9.5588757961
 21
30.7274506951
  0
LINE
  5
233
100
AcDbEntity
  8
0
100
AcDbLine
 62
7
  6
CONTINUOUS
 10
-6.5588757961
 20
30.7274506951
 11
-2.5588757961
 21
30.7274506951
  0
LINE
  5
234
100
AcDbEntity
  8
0
100
AcDbLine
 62
7
  6
CONTINUOUS
 10
-2.5588757961
 20
30.7274506951
 11
-9.5588757961
 21
30.7274506951
  0
INSERT
  5
235
100
AcDbEntity
  8
0
100
AcDbBlockReference
 62
7
  6
CONTINUOUS
  2
_FILLED
 10
-12.5588757961
 20
30.7274506951
 41
3.0
 42
3.0
 43
3.0
  0
INSERT
  5
236
100
AcDbEntity
  8
0
100
AcDbBlockReference
 62
7
  6
CONTINUOUS
  2
_FILLED
 10
-6.5588757961
 20
30.7274506951
 41
3.0
 42
3.0
 43
3.0
 50
180.0
  0
ENDBLK
  5
237
100
AcDbEntity
  8
0
  6
BYBLOCK
 62
0
100
AcDbBlockEnd
  0
ENDSEC
  0
SECTION
  2
ENTITIES
  0
DIMENSION
  5
238
100
AcDbEntity
  8
0
100
AcDbDimension
 62
7
  6
CONTINUOUS
  2
*D0
 10
53.4346280817
 20
30.7274506951
 11
26.6854086012
 21
32.9774506951
 70
160
 71
2
 42
44.7127246754
  3
DIMSTYLE_1
100
AcDbAlignedDimension
 13
8.7219034063
 23
6.8274506951
 14
53.4346280817
 24
6.0404592574
100
AcDbRotatedDimension
  0
DIMENSION
  5
239
100
AcDbEntity
  8
0
100
AcDbDimension
 62
7
  6
CONTINUOUS
  2
*D1
 10
61.478265744
 20
-21.8861975823
 11
61.1965891292
 21
-3.5997489343
 70
160
 71
2
 42
44.4272965548
  3
DIMSTYLE_1
100
AcDbAlignedDimension
 13
53.4100333584
 23
22.5410989725
 14
53.4100333584
 24
-21.8861975823
 50
270.0
100
AcDbRotatedDimension
  0
DIMENSION
  5
23A
100
AcDbEntity
  8
0
100
AcDbDimension
 62
7
  6
CONTINUOUS
  2
*D2
 10
-6.5588757961
 20
30.7274506951
 11
-10.7374472246
 21
32.9774506951
 70
160
 71
2
 42
6.0
  3
DIMSTYLE_2
100
AcDbAlignedDimension
 13
-12.5588757961
 23
0.8274506951
 14
-6.5588757961
 24
6.0404592574
100
AcDbRotatedDimension
  0
LINE
  5
23B
100
AcDbEntity
  8
DRAFT
100
AcDbLine
 62
7
  6
CONTINUOUS
 10
8.7219034063
 20
-4.8855578672
 11
8.746946307
 21
-20.5725493049
  0
LINE
  5
23C
100
AcDbEntity
  8
RACCORDO
100
AcDbLine
 62
7
  6
CONTINUOUS
 10
8.746946307
 20
-21.385817971
 11
8.746946307
 21
-20.5725493049
  0
LINE
  5
23D
100
AcDbEntity
  8
RACCORDO
100
AcDbLine
 62
7
  6
CONTINUOUS
 10
8.746946307
 20
21.2274506951
 11
8.746946307
 21
22.0407193612
  0
LINE
  5
23E
100
AcDbEntity
  8
RACCORDO
100
AcDbLine
 62
253
  6
CONTINUOUS
 10
9.3164085411
 20
-9.1725493049
 11
9.3164085411
 21
9.8274506951
  0
LINE
  5
23F
100
AcDbEntity
  8
DRAFT
100
AcDbLine
 62
7
  6
CONTINUOUS
 10
8.7219034063
 20
5.5404592574
 11
8.746946307
 21
21.2274506951
  0
LINE
  5
240
100
AcDbEntity
  8
RACCORDO
100
AcDbLine
 62
7
  6
CONTINUOUS
 10
30.4600333584
 20
-21.8861975823
 11
9.2464981297
 21
-21.8861975823
  0
LINE
  5
241
100
AcDbEntity
  8
RACCORDO
100
AcDbLine
 62
7
  6
CONTINUOUS
 10
31.6964981297
 20
-21.8861975823
 11
52.9100333584
 21
-21.8861975823
  0
LINE
  5
242
100
AcDbEntity
  8
RACCORDO
100
AcDbLine
 62
253
  6
CONTINUOUS
 10
30.4154134422
 20
-21.7323413387
 11
9.2911180459
 21
-21.7323413387
  0
LINE
  5
243
100
AcDbEntity
  8
RACCORDO
100
AcDbLine
 62
253
  6
CONTINUOUS
 10
31.7411180459
 20
-21.7323413387
 11
52.8654134422
 21
-21.7323413387
  0
LINE
  5
244
100
AcDbEntity
  8
RACCORDO
100
AcDbLine
 62
253
  6
CONTINUOUS
 10
30.4073078315
 20
-20.8832667961
 11
9.2992236566
 21
-20.8832667961
  0
LINE
  5
245
100
AcDbEntity
  8
RACCORDO
100
AcDbLine
 62
253
  6
CONTINUOUS
 10
31.7492236566
 20
-20.8832667961
 11
52.8573078315
 21
-20.8832667961
  0
LINE
  5
246
100
AcDbEntity
  8
DRAFT
100
AcDbLine
 62
7
  6
CONTINUOUS
 10
8.7219034063
 20
-4.8855578672
 11
8.8017649831
 21
-4.6387817302
  0
LINE
  5
247
100
AcDbEntity
  8
DRAFT
100
AcDbLine
 62
7
  6
CONTINUOUS
 10
8.8017649831
 20
5.2936831204
 11
8.7219034063
 21
5.5404592574
  0
LINE
  5
248
100
AcDbEntity
  8
RACCORDO
100
AcDbLine
 62
253
  6
CONTINUOUS
 10
8.746946307
 20
-21.385817971
 11
8.7911941983
 21
-21.2332445258
  0
LINE
  5
249
100
AcDbEntity
  8
RACCORDO
100
AcDbLine
 62
253
  6
CONTINUOUS
 10
9.2464981297
 20
-21.8861975823
 11
9.2911180459
 21
-21.7323413387
  0
LINE
  5
24A
100
AcDbEntity
  8
RACCORDO
100
AcDbLine
 62
253
  6
CONTINUOUS
 10
8.7911941983
 20
21.8881459159
 11
8.746946307
 21
22.0407193612
  0
LINE
  5
24B
100
AcDbEntity
  8
RACCORDO
100
AcDbLine
 62
253
  6
CONTINUOUS
 10
9.2911180459
 20
22.3872427288
 11
9.2464981297
 21
22.5410989725
  0
LINE
  5
24C
100
AcDbEntity
  8
RACCORDO
100
AcDbLine
 62
253
  6
CONTINUOUS
 10
30.3901229469
 20
-9.1725493049
 11
9.3164085411
 21
-9.1725493049
  0
LINE
  5
24D
100
AcDbEntity
  8
RACCORDO
100
AcDbLine
 62
253
  6
CONTINUOUS
 10
31.7664085411
 20
-9.1725493049
 11
52.8401229469
 21
-9.1725493049
  0
LINE
  5
24E
100
AcDbEntity
  8
RACCORDO
100
AcDbLine
 62
253
  6
CONTINUOUS
 10
30.4600333584
 20
22.5410989725
 11
30.4154134422
 21
22.3872427288
  0
LINE
  5
24F
100
AcDbEntity
  8
RACCORDO
100
AcDbLine
 62
253
  6
CONTINUOUS
 10
30.959585181
 20
22.0407193612
 11
30.9153372898
 21
21.8881459159
  0
LINE
  5
250
100
AcDbEntity
  8
RACCORDO
100
AcDbLine
 62
253
  6
CONTINUOUS
 10
30.4154134422
 20
-21.7323413387
 11
30.4600333584
 21
-21.8861975823
  0
LINE
  5
251
100
AcDbEntity
  8
RACCORDO
100
AcDbLine
 62
253
  6
CONTINUOUS
 10
30.9153372898
 20
-21.2332445258
 11
30.959585181
 21
-21.385817971
  0
LINE
  5
252
100
AcDbEntity
  8
RACCORDO
100
AcDbLine
 62
7
  6
CONTINUOUS
 10
30.9543082728
 20
-19.8662656915
 11
30.9244697266
 21
-19.5648436809
  0
LINE
  5
253
100
AcDbEntity
  8
RACCORDO
100
AcDbLine
 62
7
  6
CONTINUOUS
 10
30.9543082728
 20
20.5211670816
 11
30.9302450675
 21
20.2780862133
  0
LINE
  5
254
100
AcDbEntity
  8
RACCORDO
100
AcDbLine
 62
253
  6
CONTINUOUS
 10
30.3901229469
 20
9.8274506951
 11
30.3901229469
 21
-9.1725493049
  0
LINE
  5
255
100
AcDbEntity
  8
RACCORDO
100
AcDbLine
 62
7
  6
CONTINUOUS
 10
30.9600457388
 20
20.9534284839
 11
30.959585181
 21
22.0407193612
  0
LINE
  5
256
100
AcDbEntity
  8
RACCORDO
100
AcDbLine
 62
7
  6
CONTINUOUS
 10
31.1964857492
 20
-20.2985270937
 11
31.196946307
 21
-21.385817971
  0
LINE
  5
257
100
AcDbEntity
  8
RACCORDO
100
AcDbLine
 62
7
  6
CONTINUOUS
 10
30.9600457388
 20
-20.2985270937
 11
30.959585181
 21
-21.385817971
  0
LINE
  5
258
100
AcDbEntity
  8
RACCORDO
100
AcDbLine
 62
7
  6
CONTINUOUS
 10
31.1964857492
 20
20.9534284839
 11
31.196946307
 21
22.0407193612
  0
LINE
  5
259
100
AcDbEntity
  8
RACCORDO
100
AcDbLine
 62
7
  6
CONTINUOUS
 10
31.2022232152
 20
20.5211670816
 11
31.2320617615
 21
20.2197450711
  0
LINE
  5
25A
100
AcDbEntity
  8
RACCORDO
100
AcDbLine
 62
253
  6
CONTINUOUS
 10
31.7664085411
 20
-9.1725493049
 11
31.7664085411
 21
9.8274506951
  0
LINE
  5
25B
100
AcDbEntity
  8
RACCORDO
100
AcDbLine
 62
7
  6
CONTINUOUS
 10
31.2022232152
 20
-19.8662656915
 11
31.2262864206
 21
-19.6231848232
  0
LINE
  5
25C
100
AcDbEntity
  8
RACCORDO
100
AcDbLine
 62
253
  6
CONTINUOUS
 10
31.196946307
 20
-21.385817971
 11
31.2411941983
 21
-21.2332445258
  0
LINE
  5
25D
100
AcDbEntity
  8
RACCORDO
100
AcDbLine
 62
253
  6
CONTINUOUS
 10
31.2411941983
 20
21.8881459159
 11
31.196946307
 21
22.0407193612
  0
LINE
  5
25E
100
AcDbEntity
  8
RACCORDO
100
AcDbLine
 62
253
  6
CONTINUOUS
 10
31.6964981297
 20
-21.8861975823
 11
31.7411180459
 21
-21.7323413387
  0
LINE
  5
25F
100
AcDbEntity
  8
RACCORDO
100
AcDbLine
 62
253
  6
CONTINUOUS
 10
31.7411180459
 20
22.3872427288
 11
31.6964981297
 21
22.5410989725
  0
LINE
  5
260
100
AcDbEntity
  8
RACCORDO
100
AcDbLine
 62
253
  6
CONTINUOUS
 10
30.3901229469
 20
9.8274506951
 11
9.3164085411
 21
9.8274506951
  0
LINE
  5
261
100
AcDbEntity
  8
RACCORDO
100
AcDbLine
 62
253
  6
CONTINUOUS
 10
31.7664085411
 20
9.8274506951
 11
52.8401229469
 21
9.8274506951
  0
LINE
  5
262
100
AcDbEntity
  8
RACCORDO
100
AcDbLine
 62
253
  6
CONTINUOUS
 10
52.9100333584
 20
22.5410989725
 11
52.8654134422
 21
22.3872427288
  0
LINE
  5
263
100
AcDbEntity
  8
RACCORDO
100
AcDbLine
 62
253
  6
CONTINUOUS
 10
52.8654134422
 20
-21.7323413387
 11
52.9100333584
 21
-21.8861975823
  0
LINE
  5
264
100
AcDbEntity
  8
RACCORDO
100
AcDbLine
 62
253
  6
CONTINUOUS
 10
53.409585181
 20
22.0407193612
 11
53.3653372898
 21
21.8881459159
  0
LINE
  5
265
100
AcDbEntity
  8
RACCORDO
100
AcDbLine
 62
253
  6
CONTINUOUS
 10
53.3653372898
 20
-21.2332445258
 11
53.409585181
 21
-21.385817971
  0
LINE
  5
266
100
AcDbEntity
  8
DRAFT
100
AcDbLine
 62
7
  6
CONTINUOUS
 10
53.4346280817
 20
5.5404592574
 11
53.3547665049
 21
5.2936831204
  0
LINE
  5
267
100
AcDbEntity
  8
RACCORDO
100
AcDbLine
 62
253
  6
CONTINUOUS
 10
30.4073078315
 20
21.5381681862
 11
9.2992236566
 21
21.5381681862
  0
LINE
  5
268
100
AcDbEntity
  8
RACCORDO
100
AcDbLine
 62
253
  6
CONTINUOUS
 10
31.7492236566
 20
21.5381681862
 11
52.8573078315
 21
21.5381681862
  0
LINE
  5
269
100
AcDbEntity
  8
DRAFT
100
AcDbLine
 62
7
  6
CONTINUOUS
 10
53.3547665049
 20
-4.6387817302
 11
53.4346280817
 21
-4.8855578672
  0
LINE
  5
26A
100
AcDbEntity
  8
RACCORDO
100
AcDbLine
 62
253
  6
CONTINUOUS
 10
52.8401229469
 20
9.8274506951
 11
52.8401229469
 21
-9.1725493049
  0
LINE
  5
26B
100
AcDbEntity
  8
RACCORDO
100
AcDbLine
 62
7
  6
CONTINUOUS
 10
53.409585181
 20
22.0407193612
 11
53.409585181
 21
21.2274506951
  0
LINE
  5
26C
100
AcDbEntity
  8
RACCORDO
100
AcDbLine
 62
7
  6
CONTINUOUS
 10
53.409585181
 20
-20.5725493049
 11
53.409585181
 21
-21.385817971
  0
LINE
  5
26D
100
AcDbEntity
  8
DRAFT
100
AcDbLine
 62
7
  6
CONTINUOUS
 10
53.4346280817
 20
5.5404592574
 11
53.409585181
 21
21.2274506951
  0
LINE
  5
26E
100
AcDbEntity
  8
DRAFT
100
AcDbLine
 62
7
  6
CONTINUOUS
 10
53.4346280817
 20
-4.8855578672
 11
53.409585181
 21
-20.5725493049
  0
LINE
  5
26F
100
AcDbEntity
  8
RACCORDO
100
AcDbLine
 62
253
  6
CONTINUOUS
 10
30.4154134422
 20
22.3872427288
 11
9.2911180459
 21
22.3872427288
  0
LINE
  5
270
100
AcDbEntity
  8
RACCORDO
100
AcDbLine
 62
253
  6
CONTINUOUS
 10
31.7411180459
 20
22.3872427288
 11
52.8654134422
 21
22.3872427288
  0
LINE
  5
271
100
AcDbEntity
  8
RACCORDO
100
AcDbLine
 62
7
  6
CONTINUOUS
 10
30.4600333584
 20
22.5410989725
 11
9.2464981297
 21
22.5410989725
  0
LINE
  5
272
100
AcDbEntity
  8
RACCORDO
100
AcDbLine
 62
7
  6
CONTINUOUS
 10
31.6964981297
 20
22.5410989725
 11
52.9100333584
 21
22.5410989725
  0
LINE
  5
273
100
AcDbEntity
  8
RACCORDO
100
AcDbLine
 62
7
  6
CONTINUOUS
 10
-10.5498559006
 20
-21.7323413387
 11
-7.9935826142
 21
-21.8861975823
  0
LINE
  5
274
100
AcDbEntity
  8
RACCORDO
100
AcDbLine
 62
253
  6
CONTINUOUS
 10
-10.528542608
 20
-21.2332445258
 11
-7.9935826142
 21
-21.385817971
  0
LINE
  5
275
100
AcDbEntity
  8
RACCORDO
100
AcDbLine
 62
253
  6
CONTINUOUS
 10
-11.9774341109
 20
-9.1630493049
 11
-12.4686176273
 21
-9.1725493045
  0
LINE
  5
276
100
AcDbEntity
  8
DRAFT
100
AcDbLine
 62
7
  6
CONTINUOUS
 10
-11.1341424665
 20
-4.6387817302
 11
-6.5588757961
 21
-4.8855578672
  0
LINE
  5
277
100
AcDbEntity
  8
DRAFT
100
AcDbLine
 62
7
  6
CONTINUOUS
 10
-6.5588757961
 20
-4.7535873786
 11
-11.1354402155
 21
-4.5067412449
  0
LINE
  5
278
100
AcDbEntity
  8
0
100
AcDbLine
 62
7
  6
CONTINUOUS
 10
-11.0475070263
 20
-3.0392293049
 11
-11.0400333988
 21
-4.0067753049
  0
LINE
  5
279
100
AcDbEntity
  8
0
100
AcDbLine
 62
7
  6
CONTINUOUS
 10
-11.140037178
 20
-4.0067753049
 11
-11.0400333988
 21
-4.0067753049
  0
LINE
  5
27A
100
AcDbEntity
  8
0
100
AcDbLine
 62
7
  6
CONTINUOUS
 10
-11.1439516974
 20
-3.5302803049
 11
-11.0439487035
 21
-3.5302803049
  0
LINE
  5
27B
100
AcDbEntity
  8
0
100
AcDbLine
 62
7
  6
CONTINUOUS
 10
-11.1475093065
 20
-3.0392293049
 11
-11.0475070263
 21
-3.0392293049
  0
LINE
  5
27C
100
AcDbEntity
  8
0
100
AcDbLine
 62
7
  6
CONTINUOUS
 10
-9.9559776729
 20
-1.3725493049
 11
-9.9559776729
 21
-0.8194537142
  0
LINE
  5
27D
100
AcDbEntity
  8
0
100
AcDbLine
 62
7
  6
CONTINUOUS
 10
-9.9559776729
 20
1.4743551044
 11
-9.9559776729
 21
2.0274506951
  0
LINE
  5
27E
100
AcDbEntity
  8
RACCORDO
100
AcDbLine
 62
7
  6
CONTINUOUS
 10
-11.1523434769
 20
-2.2248004777
 11
-8.6501495928
 21
-2.1811245209
  0
LINE
  5
27F
100
AcDbEntity
  8
0
100
AcDbLine
 62
7
  6
CONTINUOUS
 10
-11.1507575858
 20
-2.5177933049
 11
-11.0507559572
 21
-2.5177933049
  0
LINE
  5
280
100
AcDbEntity
  8
0
100
AcDbLine
 62
7
  6
CONTINUOUS
 10
-11.1513861436
 20
-2.4054278946
 11
-11.0513846411
 21
-2.4054278946
  0
LINE
  5
281
100
AcDbEntity
  8
0
100
AcDbLine
 62
7
  6
CONTINUOUS
 10
-11.151638229
 20
-2.3590432024
 11
-11.0516367771
 21
-2.3590432024
  0
LINE
  5
282
100
AcDbEntity
  8
0
100
AcDbLine
 62
253
  6
CONTINUOUS
 10
-11.1517590098
 20
-2.3365329108
 11
-11.0517575821
 21
-2.3365329108
  0
LINE
  5
283
100
AcDbEntity
  8
0
100
AcDbLine
 62
7
  6
CONTINUOUS
 10
-11.151824995
 20
-2.3241543049
 11
-11.0518235806
 21
-2.3241543049
  0
LINE
  5
284
100
AcDbEntity
  8
0
100
AcDbLine
 62
7
  6
CONTINUOUS
 10
-11.1559776729
 20
-1.3725493049
 11
-9.9559776729
 21
-1.3725493049
  0
LINE
  5
285
100
AcDbEntity
  8
RACCORDO
100
AcDbLine
 62
7
  6
CONTINUOUS
 10
-8.1588757961
 20
-1.6812006734
 11
-8.1588757961
 21
-1.0225493049
  0
LINE
  5
286
100
AcDbEntity
  8
RACCORDO
100
AcDbLine
 62
7
  6
CONTINUOUS
 10
-8.1588757961
 20
1.6774506951
 11
-8.1588757961
 21
2.3361020635
  0
LINE
  5
287
100
AcDbEntity
  8
RACCORDO
100
AcDbLine
 62
7
  6
CONTINUOUS
 10
-7.9935826142
 20
22.5410989725
 11
-7.9935826142
 21
21.2274506951
  0
LINE
  5
288
100
AcDbEntity
  8
RACCORDO
100
AcDbLine
 62
7
  6
CONTINUOUS
 10
-7.9935826142
 20
-20.5725493049
 11
-7.9935826142
 21
-21.8861975823
  0
LINE
  5
289
100
AcDbEntity
  8
RACCORDO
100
AcDbLine
 62
7
  6
CONTINUOUS
 10
-8.7806427978
 20
-0.7225493049
 11
-8.4588757961
 21
-0.7225493049
  0
LINE
  5
28A
100
AcDbEntity
  8
DRAFT
100
AcDbLine
 62
7
  6
CONTINUOUS
 10
-6.5588757961
 20
-5.6725493049
 11
-6.5588757961
 21
-4.7535873786
  0
LINE
  5
28B
100
AcDbEntity
  8
DRAFT
100
AcDbLine
 62
7
  6
CONTINUOUS
 10
-6.5588757961
 20
5.4084887687
 11
-6.5588757961
 21
6.3274506951
  0
LINE
  5
28C
100
AcDbEntity
  8
RACCORDO
100
AcDbLine
 62
7
  6
CONTINUOUS
 10
-8.7806427978
 20
1.3774506951
 11
-8.4588757961
 21
1.3774506951
  0
LINE
  5
28D
100
AcDbEntity
  8
0
100
AcDbLine
 62
7
  6
CONTINUOUS
 10
-9.9559776729
 20
2.0274506951
 11
-11.1559776729
 21
2.0274506951
  0
LINE
  5
28E
100
AcDbEntity
  8
DRAFT
100
AcDbLine
 62
7
  6
CONTINUOUS
 10
-7.9935826142
 20
21.2274506951
 11
-6.5588757961
 21
6.3274506951
  0
LINE
  5
28F
100
AcDbEntity
  8
DRAFT
100
AcDbLine
 62
7
  6
CONTINUOUS
 10
-6.5588757961
 20
-5.6725493049
 11
-7.9935826142
 21
-20.5725493049
  0
LINE
  5
290
100
AcDbEntity
  8
0
100
AcDbLine
 62
7
  6
CONTINUOUS
 10
-11.150878284
 20
3.1514646951
 11
-11.0508766797
 21
3.1514646951
  0
LINE
  5
291
100
AcDbEntity
  8
0
100
AcDbLine
 62
7
  6
CONTINUOUS
 10
-11.1499868851
 20
3.3046881722
 11
-11.0499851019
 21
3.3046881722
  0
LINE
  5
292
100
AcDbEntity
  8
RACCORDO
100
AcDbLine
 62
7
  6
CONTINUOUS
 10
-11.1523434769
 20
2.8797018678
 11
-8.6501495928
 21
2.8360259111
  0
LINE
  5
293
100
AcDbEntity
  8
0
100
AcDbLine
 62
253
  6
CONTINUOUS
 10
-11.1406346536
 20
4.5923931967
 11
-11.0406309942
 21
4.5923931967
  0
LINE
  5
294
100
AcDbEntity
  8
0
100
AcDbLine
 62
7
  6
CONTINUOUS
 10
-11.0369775216
 20
4.9999339868
 11
-11.1369819137
 21
4.9999339868
  0
LINE
  5
295
100
AcDbEntity
  8
DRAFT
100
AcDbLine
 62
7
  6
CONTINUOUS
 10
-6.5588757961
 20
5.4084887687
 11
-11.1354402155
 21
5.161642635
  0
LINE
  5
296
100
AcDbEntity
  8
DRAFT
100
AcDbLine
 62
7
  6
CONTINUOUS
 10
-6.5588757961
 20
5.5404592574
 11
-11.1341424665
 21
5.2936831204
  0
LINE
  5
297
100
AcDbEntity
  8
0
100
AcDbLine
 62
7
  6
CONTINUOUS
 10
-11.1357908891
 20
5.1253394308
 11
-11.035786258
 21
5.1253394308
  0
LINE
  5
298
100
AcDbEntity
  8
RACCORDO
100
AcDbLine
 62
253
  6
CONTINUOUS
 10
-11.9774341109
 20
9.8179506951
 11
-12.4686176491
 21
9.8274506951
  0
LINE
  5
299
100
AcDbEntity
  8
RACCORDO
100
AcDbLine
 62
253
  6
CONTINUOUS
 10
-7.9935826142
 20
22.0407193612
 11
-10.528542608
 21
21.8881459159
  0
LINE
  5
29A
100
AcDbEntity
  8
RACCORDO
100
AcDbLine
 62
7
  6
CONTINUOUS
 10
-7.9935826142
 20
22.5410989725
 11
-10.5498559006
 21
22.3872427288
  0
ARC
  5
29B
100
AcDbEntity
  8
RACCORDO
100
AcDbCircle
 62
253
  6
CONTINUOUS
 10
5163.5428050048
 20
8.1516242203
 40
5133.1529567011
100
AcDbArc
 50
179.8505804623
 51
179.9812945792
  0
ARC
  5
29C
100
AcDbEntity
  8
RACCORDO
100
AcDbCircle
 62
253
  6
CONTINUOUS
 10
-5101.3862735155
 20
-7.4967219559
 40
5133.1529567011
100
AcDbArc
 50
359.8505804526
 51
359.9812945695
  0
ARC
  5
29D
100
AcDbEntity
  8
RACCORDO
100
AcDbCircle
 62
253
  6
CONTINUOUS
 10
-5123.8351903236
 20
-7.4967233797
 40
5133.1518735086
100
AcDbArc
 50
359.8505804369
 51
359.9812945814
  0
ARC
  5
29E
100
AcDbEntity
  8
RACCORDO
100
AcDbCircle
 62
253
  6
CONTINUOUS
 10
5185.9917218117
 20
8.1516256443
 40
5133.1518735074
100
AcDbArc
 50
179.8505804467
 51
179.9812945912
  0
ARC
  5
29F
100
AcDbEntity
  8
RACCORDO
100
AcDbCircle
 62
253
  6
CONTINUOUS
 10
5144.6597423756
 20
-7.5244211325
 40
5114.2698806087
100
AcDbArc
 50
180.0184641781
 51
180.149660922
  0
ARC
  5
2A0
100
AcDbEntity
  8
RACCORDO
100
AcDbCircle
 62
253
  6
CONTINUOUS
 10
-5082.5032108888
 20
8.1793234071
 40
5114.2698806087
100
AcDbArc
 50
0.0184641682
 51
0.1496609121
  0
ARC
  5
2A1
100
AcDbEntity
  8
RACCORDO
100
AcDbCircle
 62
253
  6
CONTINUOUS
 10
-5104.9521365779
 20
8.179325147
 40
5114.2688062967
100
AcDbArc
 50
0.0184641526
 51
0.1496609241
  0
ARC
  5
2A2
100
AcDbEntity
  8
RACCORDO
100
AcDbCircle
 62
253
  6
CONTINUOUS
 10
5167.1086680549
 20
-7.5244228726
 40
5114.268806287
100
AcDbArc
 50
180.0184641625
 51
180.149660934
  0
ARC
  5
2A3
100
AcDbEntity
  8
RACCORDO
100
AcDbCircle
 62
253
  6
CONTINUOUS
 10
5107.166356758
 20
8.1514342045
 40
5076.2765846067
100
AcDbArc
 50
179.8497457194
 51
179.9811900787
  0
ARC
  5
2A4
100
AcDbEntity
  8
RACCORDO
100
AcDbCircle
 62
253
  6
CONTINUOUS
 10
-5045.0098252687
 20
-7.496531945
 40
5076.2765846067
100
AcDbArc
 50
359.8497457096
 51
359.9811900689
  0
ARC
  5
2A5
100
AcDbEntity
  8
RACCORDO
100
AcDbCircle
 62
253
  6
CONTINUOUS
 10
5129.6154159742
 20
8.1514354204
 40
5076.2756438224
100
AcDbArc
 50
179.8497457053
 51
179.9811900889
  0
ARC
  5
2A6
100
AcDbEntity
  8
RACCORDO
100
AcDbCircle
 62
253
  6
CONTINUOUS
 10
-5067.4588844788
 20
-7.4965331613
 40
5076.2756438164
100
AcDbArc
 50
359.8497456954
 51
359.9811900791
  0
ARC
  5
2A7
100
AcDbEntity
  8
RACCORDO
100
AcDbCircle
 62
253
  6
CONTINUOUS
 10
5088.4924609103
 20
-7.5240773273
 40
5057.6026752957
100
AcDbArc
 50
180.0185673301
 51
180.1504970143
  0
ARC
  5
2A8
100
AcDbEntity
  8
RACCORDO
100
AcDbCircle
 62
253
  6
CONTINUOUS
 10
-5026.3359294235
 20
8.1789795965
 40
5057.6026752958
100
AcDbArc
 50
0.0185673202
 51
0.1504970044
  0
ARC
  5
2A9
100
AcDbEntity
  8
RACCORDO
100
AcDbCircle
 62
253
  6
CONTINUOUS
 10
-5048.7847060772
 20
8.1789815612
 40
5057.6014519483
100
AcDbArc
 50
0.0185673024
 51
0.1504970185
  0
ARC
  5
2AA
100
AcDbEntity
  8
RACCORDO
100
AcDbCircle
 62
253
  6
CONTINUOUS
 10
5110.9412375543
 20
-7.5240792915
 40
5057.6014519387
100
AcDbArc
 50
180.0185673124
 51
180.1504970285
  0
ARC
  5
2AB
100
AcDbEntity
  8
RACCORDO
100
AcDbCircle
 62
253
  6
CONTINUOUS
 10
9.2912920423
 20
-21.2321709253
 40
0.5001367861
100
AcDbArc
 50
180.1230012915
 51
269.9800682646
  0
ARC
  5
2AC
100
AcDbEntity
  8
RACCORDO
100
AcDbCircle
 62
253
  6
CONTINUOUS
 10
52.86523945
 20
21.8870723113
 40
0.500136786
100
AcDbArc
 50
0.1230017642
 51
89.98006875
  0
ARC
  5
2AD
100
AcDbEntity
  8
RACCORDO
100
AcDbCircle
 62
253
  6
CONTINUOUS
 10
30.4152394506
 20
-21.2321709223
 40
0.5001367848
100
AcDbArc
 50
270.0199311667
 51
359.8769983591
  0
ARC
  5
2AE
100
AcDbEntity
  8
RACCORDO
100
AcDbCircle
 62
253
  6
CONTINUOUS
 10
9.2912920418
 20
21.8870723164
 40
0.5001367851
100
AcDbArc
 50
90.019931666
 51
179.8769988132
  0
ARC
  5
2AF
100
AcDbEntity
  8
RACCORDO
100
AcDbCircle
 62
253
  6
CONTINUOUS
 10
31.7412920416
 20
21.8870723165
 40
0.5001367849
100
AcDbArc
 50
90.0199316534
 51
179.8769988276
  0
ARC
  5
2B0
100
AcDbEntity
  8
RACCORDO
100
AcDbCircle
 62
253
  6
CONTINUOUS
 10
52.8652394505
 20
-21.2321709221
 40
0.500136785
100
AcDbArc
 50
270.0199311812
 51
359.8769983428
  0
ARC
  5
2B1
100
AcDbEntity
  8
RACCORDO
100
AcDbCircle
 62
253
  6
CONTINUOUS
 10
30.4152394538
 20
21.8870723151
 40
0.5001367822
100
AcDbArc
 50
0.1230013279
 51
89.9800691936
  0
ARC
  5
2B2
100
AcDbEntity
  8
RACCORDO
100
AcDbCircle
 62
253
  6
CONTINUOUS
 10
31.7412920383
 20
-21.2321709292
 40
0.5001367822
100
AcDbArc
 50
180.1230008441
 51
269.9800687182
  0
ARC
  5
2B3
100
AcDbEntity
  8
RACCORDO
100
AcDbCircle
 62
7
  6
CONTINUOUS
 10
77.5151358841
 20
-7.4625493049
 40
90.0
100
AcDbArc
 50
181.08868532
 51
188.5758796048
  0
ARC
  5
2B4
100
AcDbEntity
  8
RACCORDO
100
AcDbCircle
 62
253
  6
CONTINUOUS
 10
77.5063820311
 20
-7.4625516424
 40
89.4999723108
100
AcDbArc
 50
181.0886841602
 51
188.5758807646
  0
ARC
  5
2B5
100
AcDbEntity
  8
RACCORDO
100
AcDbCircle
 62
7
  6
CONTINUOUS
 10
-10.4897769089
 20
-20.7341477128
 40
1.0
100
AcDbArc
 50
188.5758796048
 51
266.5556531592
  0
ARC
  5
2B6
100
AcDbEntity
  8
RACCORDO
100
AcDbCircle
 62
253
  6
CONTINUOUS
 10
-10.4985020383
 20
-20.7341465382
 40
0.500001237
100
AcDbArc
 50
188.5759943486
 51
266.5555384154
  0
ARC
  5
2B7
100
AcDbEntity
  8
RACCORDO
100
AcDbCircle
 62
7
  6
CONTINUOUS
 10
-8.6588757961
 20
-1.6812006734
 40
0.5
100
AcDbArc
 50
271.0
 51
360.0
  0
ARC
  5
2B8
100
AcDbEntity
  8
RACCORDO
100
AcDbCircle
 62
7
  6
CONTINUOUS
 10
-8.4588757961
 20
-1.0225493049
 40
0.3
100
AcDbArc
 50
0.0
 51
90.0
  0
ARC
  5
2B9
100
AcDbEntity
  8
RACCORDO
100
AcDbCircle
 62
7
  6
CONTINUOUS
 10
77.5151358841
 20
8.1174506951
 40
90.0
100
AcDbArc
 50
171.4241203952
 51
178.91131468
  0
ARC
  5
2BA
100
AcDbEntity
  8
RACCORDO
100
AcDbCircle
 62
253
  6
CONTINUOUS
 10
77.5063820302
 20
8.1174530327
 40
89.4999723099
100
AcDbArc
 50
171.4241192353
 51
178.9113158399
  0
ARC
  5
2BB
100
AcDbEntity
  8
0
100
AcDbCircle
 62
7
  6
CONTINUOUS
 10
-9.4588757961
 20
0.3274506951
 40
1.25
100
AcDbArc
 50
57.1401196211
 51
302.8598803789
  0
ARC
  5
2BC
100
AcDbEntity
  8
RACCORDO
100
AcDbCircle
 62
7
  6
CONTINUOUS
 10
-10.4897769089
 20
21.389049103
 40
1.0
100
AcDbArc
 50
93.4443468408
 51
171.4241203952
  0
ARC
  5
2BD
100
AcDbEntity
  8
RACCORDO
100
AcDbCircle
 62
253
  6
CONTINUOUS
 10
-10.4985020406
 20
21.389047931
 40
0.5000012343
100
AcDbArc
 50
93.4444613319
 51
171.4240059041
  0
ARC
  5
2BE
100
AcDbEntity
  8
RACCORDO
100
AcDbCircle
 62
7
  6
CONTINUOUS
 10
-8.6588757961
 20
2.3361020635
 40
0.5
100
AcDbArc
 50
0.0
 51
89.0
  0
ARC
  5
2BF
100
AcDbEntity
  8
RACCORDO
100
AcDbCircle
 62
7
  6
CONTINUOUS
 10
-8.4588757961
 20
1.6774506951
 40
0.3
100
AcDbArc
 50
270.0
 51
360.0
  0
ARC
  5
2C0
100
AcDbEntity
  8
RACCORDO
100
AcDbCircle
 62
7
  6
CONTINUOUS
 10
487.4411242039
 20
0.3274506951
 40
500.0
100
AcDbArc
 50
178.91131468
 51
181.08868532
  0
ARC
  5
2C1
100
AcDbEntity
  8
RACCORDO
100
AcDbCircle
 62
253
  6
CONTINUOUS
 10
487.4323899105
 20
0.3274506951
 40
499.4999919113
100
AcDbArc
 50
178.9113146624
 51
181.0886853376
  0
ARC
  5
2C2
100
AcDbEntity
  8
DRAFT
100
AcDbCircle
 62
7
  6
CONTINUOUS
 10
487.4411242039
 20
0.3274506951
 40
498.6
100
AcDbArc
 50
179.4293043258
 51
180.5706956742
  0
ARC
  5
2C3
100
AcDbEntity
  8
0
100
AcDbCircle
 62
7
  6
CONTINUOUS
 10
487.4411242039
 20
0.3274506951
 40
498.5
100
AcDbArc
 50
179.4437461815
 51
179.7068530395
  0
ARC
  5
2C4
100
AcDbEntity
  8
0
100
AcDbCircle
 62
7
  6
CONTINUOUS
 10
487.4411242039
 20
0.3274506951
 40
498.5
100
AcDbArc
 50
180.4981664717
 51
180.5562534893
  0
ARC
  5
2C5
100
AcDbEntity
  8
0
100
AcDbCircle
 62
7
  6
CONTINUOUS
 10
487.4411242039
 20
0.3274506951
 40
498.5
100
AcDbArc
 50
180.2931471515
 51
180.3869569135
  0
SPLINE
  5
2C6
100
AcDbEntity
  8
RACCORDO
100
AcDbSpline
 62
253
  6
CONTINUOUS
 70
0
 71
3
 72
13
 73
9
 74
7
 42
0.0000001
 43
0.0000001
 44
0.0000000001
 12
-0.0011232904
 22
0.8491582777
 32
0.0
 13
-0.1220016021
 23
0.8403491248
 33
0.0
 40
0.0
 40
0.0
 40
0.0
 40
0.0
 40
0.2573968047
 40
0.4926033318
 40
0.6935537272
 40
0.8499891575
 40
0.9539121031
 40
1.0
 40
1.0
 40
1.0
 40
1.0
 10
9.2992236566
 20
21.5381681862
 30
0.0
 10
9.2991272795
 20
21.611025062
 30
0.0
 10
9.2987885482
 20
21.7504549289
 30
0.0
 10
9.2979850996
 20
21.9467765055
 30
0.0
 10
9.2965281555
 20
22.1144760087
 30
0.0
 10
9.2956536086
 20
22.2451230045
 30
0.0
 10
9.2928834391
 20
22.3316890426
 30
0.0
 10
9.2929923116
 20
22.3743327542
 30
0.0
 10
9.2911180459
 20
22.3872427288
 30
0.0
 11
9.2992236566
 21
21.5381681862
 31
0.0
 11
9.2987099665
 21
21.7567384012
 31
0.0
 11
9.2977805056
 21
21.9564639826
 31
0.0
 11
9.296482302
 21
22.1270978853
 31
0.0
 11
9.2948825777
 21
22.2599268093
 31
0.0
 11
9.2930636882
 21
22.3481551692
 31
0.0
 11
9.2911180459
 21
22.3872427288
 31
0.0
  0
SPLINE
  5
2C7
100
AcDbEntity
  8
RACCORDO
100
AcDbSpline
 62
253
  6
CONTINUOUS
 70
0
 71
3
 72
13
 73
9
 74
7
 42
0.0000001
 43
0.0000001
 44
0.0000000001
 12
-0.0011198509
 22
0.4247046816
 32
0.0
 13
-0.1180855233
 23
0.4079597159
 33
0.0
 40
0.0
 40
0.0
 40
0.0
 40
0.0
 40
0.256315624
 40
0.4920407319
 40
0.6935253708
 40
0.8501744653
 40
0.9540825079
 40
1.0
 40
1.0
 40
1.0
 40
1.0
 10
8.799299809
 20
21.4636086446
 30
0.0
 10
8.7992041306
 20
21.4998947931
 30
0.0
 10
8.7988673901
 20
21.5695467821
 30
0.0
 10
8.7980586838
 20
21.6677450707
 30
0.0
 10
8.7966175832
 20
21.7517498495
 30
0.0
 10
8.7956949401
 20
21.8172943287
 30
0.0
 10
8.793015697
 20
21.8603542874
 30
0.0
 10
8.7930015953
 20
21.8819017536
 30
0.0
 10
8.7911941983
 20
21.8881459159
 30
0.0
 11
8.799299809
 21
21.4636086446
 31
0.0
 11
8.7987889808
 21
21.5724662699
 31
0.0
 11
8.7978585442
 21
21.6725758511
 31
0.0
 11
8.7965575006
 21
21.7581377268
 31
0.0
 11
8.794954363
 21
21.824648244
 31
0.0
 11
8.7931319379
 21
21.8687409837
 31
0.0
 11
8.7911941983
 21
21.8881459159
 31
0.0
  0
SPLINE
  5
2C8
100
AcDbEntity
  8
RACCORDO
100
AcDbSpline
 62
253
  6
CONTINUOUS
 70
0
 71
3
 72
12
 73
8
 74
6
 42
0.0000001
 43
0.0000001
 44
0.0000000001
 12
0.3382844035
 22
0.3684034611
 32
0.0
 13
0.5001573955
 23
0.0001658454
 33
0.0
 40
0.0
 40
0.0
 40
0.0
 40
0.0
 40
0.0534970751
 40
0.1973791315
 40
0.418044094
 40
0.694398666
 40
1.0
 40
1.0
 40
1.0
 40
1.0
 10
8.8164846935
 20
9.8179506951
 30
0.0
 10
8.8225171023
 20
9.8245201976
 30
0.0
 10
8.8616604804
 20
9.8158394688
 30
0.0
 10
8.9257619013
 20
9.8274571396
 30
0.0
 10
9.0354453348
 20
9.8244844001
 30
0.0
 10
9.1681512141
 20
9.8276098618
 30
0.0
 10
9.265458952
 20
9.8274338005
 30
0.0
 10
9.3164085411
 20
9.8274506947
 30
0.0
 11
8.8164846935
 21
9.8179506951
 31
0.0
 11
8.8430835363
 21
9.8208552483
 31
0.0
 11
8.9149992697
 21
9.8234817149
 31
0.0
 11
9.0253465667
 21
9.8255786328
 31
0.0
 11
9.1635606012
 21
9.8269452398
 31
0.0
 11
9.3164085411
 21
9.8274506947
 31
0.0
  0
SPLINE
  5
2C9
100
AcDbEntity
  8
RACCORDO
100
AcDbSpline
 62
253
  6
CONTINUOUS
 70
0
 71
3
 72
12
 73
8
 74
6
 42
0.0000001
 43
0.0000001
 44
0.0000000001
 12
0.3382839437
 22
-0.3684038833
 32
0.0
 13
0.5001573955
 23
-0.0001658454
 33
0.0
 40
0.0
 40
0.0
 40
0.0
 40
0.0
 40
0.0534970646
 40
0.1973791166
 40
0.4180440802
 40
0.6943986579
 40
1.0
 40
1.0
 40
1.0
 40
1.0
 10
8.8164846935
 20
-9.1630493049
 30
0.0
 10
8.8225170929
 20
-9.1696188137
 30
0.0
 10
8.8616604864
 20
-9.1609380701
 30
0.0
 10
8.9257618887
 20
-9.172555755
 30
0.0
 10
9.0354453311
 20
-9.1695830082
 30
0.0
 10
9.1681512095
 20
-9.1727084728
 30
0.0
 10
9.2654589507
 20
-9.1725324107
 30
0.0
 10
9.3164085411
 20
-9.1725493049
 30
0.0
 11
8.8164846935
 21
-9.1630493049
 31
0.0
 11
8.843083531
 21
-9.1659538582
 31
0.0
 11
8.9149992622
 21
-9.168580325
 31
0.0
 11
9.0253465598
 21
-9.170677243
 31
0.0
 11
9.1635605971
 21
-9.17204385
 31
0.0
 11
9.3164085411
 21
-9.1725493049
 31
0.0
  0
SPLINE
  5
2CA
100
AcDbEntity
  8
RACCORDO
100
AcDbSpline
 62
253
  6
CONTINUOUS
 70
0
 71
3
 72
10
 73
6
 74
4
 42
0.0000001
 43
0.0000001
 44
0.0000000001
 12
0.0062961109
 22
18.9809992651
 32
0.0
 13
-0.0062961104
 23
18.9809992651
 33
0.0
 40
0.0
 40
0.0
 40
0.0
 40
0.0
 40
0.333331192
 40
0.6666690465
 40
1.0
 40
1.0
 40
1.0
 40
1.0
 10
8.8164846935
 20
-9.1630493049
 30
0.0
 10
8.8171842569
 20
-7.054062935
 30
0.0
 10
8.8181168716
 20
-2.836047871
 30
0.0
 10
8.8181168711
 20
3.4909522785
 30
0.0
 10
8.8171842564
 20
7.7089658338
 30
0.0
 10
8.8164846935
 20
9.8179506951
 30
0.0
 11
8.8164846935
 21
-9.1630493049
 31
0.0
 11
8.8178837132
 21
-2.8360900016
 31
0.0
 11
8.8178837127
 21
3.4909959179
 31
0.0
 11
8.8164846935
 21
9.8179506951
 31
0.0
  0
SPLINE
  5
2CB
100
AcDbEntity
  8
RACCORDO
100
AcDbSpline
 62
253
  6
CONTINUOUS
 70
0
 71
3
 72
12
 73
8
 74
6
 42
0.0000001
 43
0.0000001
 44
0.0000000001
 12
0.0589601507
 22
-0.5095474219
 32
0.0
 13
0.5129455444
 23
-0.0013202159
 33
0.0
 40
0.0
 40
0.0
 40
0.0
 40
0.0
 40
0.0682622547
 40
0.2140915711
 40
0.4316004313
 40
0.7018853505
 40
1.0
 40
1.0
 40
1.0
 40
1.0
 10
8.799299809
 20
-20.8087072544
 30
0.0
 10
8.8006413933
 20
-20.8203015397
 30
0.0
 10
8.8415085021
 20
-20.8397305483
 30
0.0
 10
8.9075047783
 20
-20.8553934495
 30
0.0
 10
9.0177855169
 20
-20.8711248336
 30
0.0
 10
9.1507746263
 20
-20.8806260442
 30
0.0
 10
9.2482514628
 20
-20.8831356008
 30
0.0
 10
9.2992236566
 20
-20.8832667927
 30
0.0
 11
8.799299809
 21
-20.8087072544
 31
0.0
 11
8.8258754837
 21
-20.8315059214
 31
0.0
 11
8.8977813813
 21
-20.8521212718
 31
0.0
 11
9.0081314283
 21
-20.8685790751
 31
0.0
 11
9.1463579442
 21
-20.8793032487
 31
0.0
 11
9.2992236566
 21
-20.8832667927
 31
0.0
  0
SPLINE
  5
2CC
100
AcDbEntity
  8
RACCORDO
100
AcDbSpline
 62
253
  6
CONTINUOUS
 70
0
 71
3
 72
13
 73
9
 74
7
 42
0.0000001
 43
0.0000001
 44
0.0000000001
 12
0.121760214
 22
0.8403841423
 32
0.0
 13
0.00112241
 23
0.8491582871
 33
0.0
 40
0.0
 40
0.0
 40
0.0
 40
0.0
 40
0.0460880154
 40
0.1500134329
 40
0.3064509164
 40
0.5074008512
 40
0.7426034268
 40
1.0
 40
1.0
 40
1.0
 40
1.0
 10
9.2911180459
 20
-21.7323413387
 30
0.0
 10
9.2929886081
 20
-21.7194307929
 30
0.0
 10
9.2928876829
 20
-21.6767874716
 30
0.0
 10
9.2956516091
 20
-21.5902192266
 30
0.0
 10
9.2965299134
 20
-21.4595715282
 30
0.0
 10
9.2979845149
 20
-21.2918725075
 30
0.0
 10
9.2987887082
 20
-21.0955523073
 30
0.0
 10
9.2991273551
 20
-20.9561236071
 30
0.0
 10
9.2992236566
 20
-20.8832667961
 30
0.0
 11
9.2911180459
 21
-21.7323413387
 31
0.0
 11
9.2930638266
 21
-21.6932536847
 31
0.0
 11
9.294882838
 21
-21.6050232271
 31
0.0
 11
9.296482877
 21
-21.472192562
 31
0.0
 11
9.2977805291
 21
-21.3015590446
 31
0.0
 11
9.2987099594
 21
-21.1018368165
 31
0.0
 11
9.2992236566
 21
-20.8832667961
 31
0.0
  0
SPLINE
  5
2CD
100
AcDbEntity
  8
RACCORDO
100
AcDbSpline
 62
253
  6
CONTINUOUS
 70
0
 71
3
 72
13
 73
9
 74
7
 42
0.0000001
 43
0.0000001
 44
0.0000000001
 12
0.1178422521
 22
0.40803005
 32
0.0
 13
0.001118831
 23
0.4247046813
 33
0.0
 40
0.0
 40
0.0
 40
0.0
 40
0.0
 40
0.0459360357
 40
0.1499538366
 40
0.3067831137
 40
0.5081859909
 40
0.7437531761
 40
1.0
 40
1.0
 40
1.0
 40
1.0
 10
8.7911941983
 20
-21.2332445258
 30
0.0
 10
8.7929986003
 20
-21.2269967648
 30
0.0
 10
8.7930200876
 20
-21.2054330673
 30
0.0
 10
8.7956954379
 20
-21.1623280317
 30
0.0
 10
8.7966201267
 20
-21.0967548036
 30
0.0
 10
8.7980591288
 20
-21.0127580671
 30
0.0
 10
8.7988676692
 20
-20.9146035885
 30
0.0
 10
8.7992042434
 20
-20.844983663
 30
0.0
 10
8.799299809
 20
-20.8087072544
 30
0.0
 11
8.7911941983
 21
-21.2332445258
 31
0.0
 11
8.7931324638
 21
-21.2138317315
 31
0.0
 11
8.7949561373
 21
-21.1696923889
 31
0.0
 11
8.7965600016
 21
-21.1031053427
 31
0.0
 11
8.7978596487
 21
-21.0175781751
 31
0.0
 11
8.7987891639
 21
-20.9175356597
 31
0.0
 11
8.799299809
 21
-20.8087072544
 31
0.0
  0
SPLINE
  5
2CE
100
AcDbEntity
  8
RACCORDO
100
AcDbSpline
 62
253
  6
CONTINUOUS
 70
0
 71
3
 72
13
 73
9
 74
7
 42
0.0000001
 43
0.0000001
 44
0.0000000001
 12
-0.1220016003
 22
-0.840349125
 32
0.0
 13
-0.0011232904
 23
-0.8491582777
 33
0.0
 40
0.0
 40
0.0
 40
0.0
 40
0.0
 40
0.0460878969
 40
0.1500108425
 40
0.3064462728
 40
0.5073966682
 40
0.7426031953
 40
1.0
 40
1.0
 40
1.0
 40
1.0
 10
30.4154134422
 20
22.3872427288
 30
0.0
 10
30.4135391765
 20
22.3743327542
 30
0.0
 10
30.4136480489
 20
22.3316890427
 30
0.0
 10
30.4108778795
 20
22.2451230045
 30
0.0
 10
30.4100033325
 20
22.1144760087
 30
0.0
 10
30.4085463885
 20
21.9467765055
 30
0.0
 10
30.4077429398
 20
21.7504549289
 30
0.0
 10
30.4074042086
 20
21.611025062
 30
0.0
 10
30.4073078315
 20
21.5381681862
 30
0.0
 11
30.4154134422
 21
22.3872427288
 31
0.0
 11
30.4134677998
 21
22.3481551692
 31
0.0
 11
30.4116489104
 21
22.2599268093
 31
0.0
 11
30.410049186
 21
22.1270978853
 31
0.0
 11
30.4087509825
 21
21.9564639826
 31
0.0
 11
30.4078215216
 21
21.7567384012
 31
0.0
 11
30.4073078315
 21
21.5381681862
 31
0.0
  0
SPLINE
  5
2CF
100
AcDbEntity
  8
RACCORDO
100
AcDbSpline
 62
253
  6
CONTINUOUS
 70
0
 71
3
 72
13
 73
9
 74
7
 42
0.0000001
 43
0.0000001
 44
0.0000000001
 12
-0.1180855232
 22
-0.4079597159
 32
0.0
 13
-0.0011198509
 23
-0.4247046816
 33
0.0
 40
0.0
 40
0.0
 40
0.0
 40
0.0
 40
0.0459174922
 40
0.1498255347
 40
0.3064746292
 40
0.5079592681
 40
0.743684376
 40
1.0
 40
1.0
 40
1.0
 40
1.0
 10
30.9153372898
 20
21.8881459159
 30
0.0
 10
30.9135298927
 20
21.8819017535
 30
0.0
 10
30.913515791
 20
21.8603542874
 30
0.0
 10
30.910836548
 20
21.8172943286
 30
0.0
 10
30.9099139048
 20
21.7517498495
 30
0.0
 10
30.9084728042
 20
21.6677450707
 30
0.0
 10
30.9076640979
 20
21.5695467821
 30
0.0
 10
30.9073273575
 20
21.4998947931
 30
0.0
 10
30.907231679
 20
21.4636086446
 30
0.0
 11
30.9153372898
 21
21.8881459159
 31
0.0
 11
30.9133995502
 21
21.8687409837
 31
0.0
 11
30.9115771251
 21
21.824648244
 31
0.0
 11
30.9099739874
 21
21.7581377268
 31
0.0
 11
30.9086729438
 21
21.6725758511
 31
0.0
 11
30.9077425072
 21
21.5724662699
 31
0.0
 11
30.907231679
 21
21.4636086446
 31
0.0
  0
SPLINE
  5
2D0
100
AcDbEntity
  8
RACCORDO
100
AcDbSpline
 62
253
  6
CONTINUOUS
 70
0
 71
3
 72
12
 73
8
 74
6
 42
0.0000001
 43
0.0000001
 44
0.0000000001
 12
-0.0589602499
 22
0.5095474088
 32
0.0
 13
-0.5129455428
 23
0.0013202187
 33
0.0
 40
0.0
 40
0.0
 40
0.0
 40
0.0
 40
0.0682622595
 40
0.2140915789
 40
0.4316004389
 40
0.7018853551
 40
1.0
 40
1.0
 40
1.0
 40
1.0
 10
30.907231679
 20
21.4636086446
 30
0.0
 10
30.9058900924
 20
21.4752029304
 30
0.0
 10
30.8650229832
 20
21.4946319362
 30
0.0
 10
30.7990267048
 20
21.5102948388
 30
0.0
 10
30.688745967
 20
21.5260262214
 30
0.0
 10
30.5557568591
 20
21.5355274317
 30
0.0
 10
30.4582800242
 20
21.5380369885
 30
0.0
 10
30.4073078315
 20
21.5381681807
 30
0.0
 11
30.907231679
 21
21.4636086446
 31
0.0
 11
30.8806560008
 21
21.486407311
 31
0.0
 11
30.8087501016
 21
21.5070226606
 31
0.0
 11
30.698400055
 21
21.5234804632
 31
0.0
 11
30.560173541
 21
21.5342046363
 31
0.0
 11
30.4073078315
 21
21.5381681807
 31
0.0
  0
SPLINE
  5
2D1
100
AcDbEntity
  8
RACCORDO
100
AcDbSpline
 62
253
  6
CONTINUOUS
 70
0
 71
3
 72
12
 73
8
 74
6
 42
0.0000001
 43
0.0000001
 44
0.0000000001
 12
-0.3382839495
 22
0.368403878
 32
0.0
 13
-0.5001573955
 23
0.0001658454
 33
0.0
 40
0.0
 40
0.0
 40
0.0
 40
0.0
 40
0.0534970647
 40
0.1973791168
 40
0.4180440804
 40
0.694398658
 40
1.0
 40
1.0
 40
1.0
 40
1.0
 10
30.8900467945
 20
9.8179506951
 30
0.0
 10
30.884014395
 20
9.8245202038
 30
0.0
 10
30.8448710017
 20
9.8158394604
 30
0.0
 10
30.7807695992
 20
9.827457145
 30
0.0
 10
30.6710861569
 20
9.8244843983
 30
0.0
 10
30.5383802784
 20
9.827609863
 30
0.0
 10
30.4410725373
 20
9.8274338009
 30
0.0
 10
30.3901229469
 20
9.8274506951
 30
0.0
 11
30.8900467945
 21
9.8179506951
 31
0.0
 11
30.8634479569
 21
9.8208552484
 31
0.0
 11
30.7915322258
 21
9.8234817151
 31
0.0
 11
30.6811849282
 21
9.8255786331
 31
0.0
 11
30.5429708909
 21
9.8269452402
 31
0.0
 11
30.3901229469
 21
9.8274506951
 31
0.0
  0
SPLINE
  5
2D2
100
AcDbEntity
  8
RACCORDO
100
AcDbSpline
 62
253
  6
CONTINUOUS
 70
0
 71
3
 72
10
 73
6
 74
4
 42
0.0000001
 43
0.0000001
 44
0.0000000001
 12
-0.0062961104
 22
-18.9809992651
 32
0.0
 13
0.0062961109
 23
-18.9809992651
 33
0.0
 40
0.0
 40
0.0
 40
0.0
 40
0.0
 40
0.3333309535
 40
0.666668808
 40
1.0
 40
1.0
 40
1.0
 40
1.0
 10
30.8900467945
 20
9.8179506951
 30
0.0
 10
30.8893472317
 20
7.7089658338
 30
0.0
 10
30.8884146169
 20
3.4909522785
 30
0.0
 10
30.8884146165
 20
-2.836047871
 30
0.0
 10
30.8893472311
 20
-7.054062935
 30
0.0
 10
30.8900467945
 20
-9.1630493049
 30
0.0
 11
30.8900467945
 21
9.8179506951
 31
0.0
 11
30.8886477754
 21
3.4909959179
 31
0.0
 11
30.8886477749
 21
-2.8360900016
 31
0.0
 11
30.8900467945
 21
-9.1630493049
 31
0.0
  0
SPLINE
  5
2D3
100
AcDbEntity
  8
RACCORDO
100
AcDbSpline
 62
253
  6
CONTINUOUS
 70
0
 71
3
 72
12
 73
8
 74
6
 42
0.0000001
 43
0.0000001
 44
0.0000000001
 12
-0.3382847136
 22
-0.3684031762
 32
0.0
 13
-0.5001573955
 23
-0.0001658454
 33
0.0
 40
0.0
 40
0.0
 40
0.0
 40
0.0
 40
0.0534970821
 40
0.1973791416
 40
0.4180441033
 40
0.6943986715
 40
1.0
 40
1.0
 40
1.0
 40
1.0
 10
30.8900467945
 20
-9.1630493049
 30
0.0
 10
30.8840143795
 20
-9.1696188033
 30
0.0
 10
30.8448710117
 20
-9.1609380844
 30
0.0
 10
30.7807695782
 20
-9.1725557457
 30
0.0
 10
30.6710861508
 20
-9.1695830112
 30
0.0
 10
30.5383802709
 20
-9.1727084709
 30
0.0
 10
30.4410725351
 20
-9.17253241
 30
0.0
 10
30.3901229469
 20
-9.1725493042
 30
0.0
 11
30.8900467945
 21
-9.1630493049
 31
0.0
 11
30.8634479482
 21
-9.1659538581
 31
0.0
 11
30.7915322133
 21
-9.1685803246
 31
0.0
 11
30.6811849167
 21
-9.1706772425
 31
0.0
 11
30.5429708841
 21
-9.1720438494
 31
0.0
 11
30.3901229469
 21
-9.1725493042
 31
0.0
  0
SPLINE
  5
2D4
100
AcDbEntity
  8
RACCORDO
100
AcDbSpline
 62
253
  6
CONTINUOUS
 70
0
 71
3
 72
12
 73
8
 74
6
 42
0.0000001
 43
0.0000001
 44
0.0000000001
 12
-0.0590459952
 22
-0.5095356987
 32
0.0
 13
-0.5129437736
 23
-0.0013201829
 33
0.0
 40
0.0
 40
0.0
 40
0.0
 40
0.0
 40
0.0682658561
 40
0.2140976142
 40
0.4316063154
 40
0.7018889037
 40
1.0
 40
1.0
 40
1.0
 40
1.0
 10
30.9072316789
 20
-20.8087072544
 30
0.0
 10
30.9058880704
 20
-20.8203018847
 30
0.0
 10
30.8650204251
 20
-20.8397280033
 30
0.0
 10
30.7990225156
 20
-20.8553919541
 30
0.0
 10
30.688742497
 20
-20.8711218408
 30
0.0
 10
30.5557546905
 20
-20.8806229184
 30
0.0
 10
30.4582792417
 20
-20.8831322764
 30
0.0
 10
30.4073078315
 20
-20.8832634634
 30
0.0
 11
30.9072316789
 21
-20.8087072544
 31
0.0
 11
30.8806529627
 21
-20.8315050274
 31
0.0
 11
30.8087457683
 21
-20.852119462
 31
0.0
 11
30.6983960758
 21
-20.8685764779
 31
0.0
 11
30.5601711977
 21
-20.8793001173
 31
0.0
 11
30.4073078315
 21
-20.8832634634
 31
0.0
  0
SPLINE
  5
2D5
100
AcDbEntity
  8
RACCORDO
100
AcDbSpline
 62
253
  6
CONTINUOUS
 70
0
 71
3
 72
13
 73
9
 74
7
 42
0.0000001
 43
0.0000001
 44
0.0000000001
 12
0.00112241
 22
-0.8491582871
 32
0.0
 13
0.1217602147
 23
-0.8403841422
 33
0.0
 40
0.0
 40
0.0
 40
0.0
 40
0.0
 40
0.2573965732
 40
0.4925991488
 40
0.6935490836
 40
0.8499865671
 40
0.9539119846
 40
1.0
 40
1.0
 40
1.0
 40
1.0
 10
30.4073078315
 20
-20.8832667961
 30
0.0
 10
30.407404133
 20
-20.9561236071
 30
0.0
 10
30.4077427799
 20
-21.0955523073
 30
0.0
 10
30.4085469731
 20
-21.2918725075
 30
0.0
 10
30.4100015747
 20
-21.4595715282
 30
0.0
 10
30.410879879
 20
-21.5902192266
 30
0.0
 10
30.4136438051
 20
-21.6767874716
 30
0.0
 10
30.41354288
 20
-21.7194307929
 30
0.0
 10
30.4154134422
 20
-21.7323413387
 30
0.0
 11
30.4073078315
 21
-20.8832667961
 31
0.0
 11
30.4078215286
 21
-21.1018368165
 31
0.0
 11
30.408750959
 21
-21.3015590446
 31
0.0
 11
30.410048611
 21
-21.472192562
 31
0.0
 11
30.41164865
 21
-21.6050232271
 31
0.0
 11
30.4134676615
 21
-21.6932536847
 31
0.0
 11
30.4154134422
 21
-21.7323413387
 31
0.0
  0
SPLINE
  5
2D6
100
AcDbEntity
  8
RACCORDO
100
AcDbSpline
 62
253
  6
CONTINUOUS
 70
0
 71
3
 72
13
 73
9
 74
7
 42
0.0000001
 43
0.0000001
 44
0.0000000001
 12
0.001118831
 22
-0.4247046813
 32
0.0
 13
0.1178422493
 23
-0.4080300508
 33
0.0
 40
0.0
 40
0.0
 40
0.0
 40
0.0
 40
0.2562468239
 40
0.4918140091
 40
0.6932168863
 40
0.8500461634
 40
0.9540639644
 40
1.0
 40
1.0
 40
1.0
 40
1.0
 10
30.907231679
 20
-20.8087072544
 30
0.0
 10
30.9073272447
 20
-20.844983663
 30
0.0
 10
30.9076638188
 20
-20.9146035885
 30
0.0
 10
30.9084723592
 20
-21.0127580671
 30
0.0
 10
30.9099113613
 20
-21.0967548037
 30
0.0
 10
30.9108360501
 20
-21.1623280317
 30
0.0
 10
30.9135114004
 20
-21.2054330673
 30
0.0
 10
30.9135328878
 20
-21.2269967648
 30
0.0
 10
30.9153372898
 20
-21.2332445258
 30
0.0
 11
30.907231679
 21
-20.8087072544
 31
0.0
 11
30.9077423241
 21
-20.9175356597
 31
0.0
 11
30.9086718393
 21
-21.0175781751
 31
0.0
 11
30.9099714864
 21
-21.1031053427
 31
0.0
 11
30.9115753508
 21
-21.1696923889
 31
0.0
 11
30.9133990243
 21
-21.2138317316
 31
0.0
 11
30.9153372898
 21
-21.2332445258
 31
0.0
  0
SPLINE
  5
2D7
100
AcDbEntity
  8
RACCORDO
100
AcDbSpline
 62
253
  6
CONTINUOUS
 70
0
 71
3
 72
12
 73
8
 74
6
 42
0.0000001
 43
0.0000001
 44
0.0000000001
 12
0.0590255123
 22
0.5095385381
 32
0.0
 13
0.5129442368
 23
0.0013201424
 33
0.0
 40
0.0
 40
0.0
 40
0.0
 40
0.0
 40
0.0682650537
 40
0.2140962395
 40
0.4316049667
 40
0.7018880863
 40
1.0
 40
1.0
 40
1.0
 40
1.0
 10
8.7992998091
 20
21.4636086446
 30
0.0
 10
8.8006429357
 20
21.4752032031
 30
0.0
 10
8.841510431
 20
21.4946300622
 30
0.0
 10
8.907507981
 20
21.5102937817
 30
0.0
 10
9.0177881626
 20
21.5260240494
 30
0.0
 10
9.1507762832
 20
21.5355251615
 30
0.0
 10
9.2482520605
 20
21.538034562
 30
0.0
 10
9.2992236566
 20
21.5381657454
 30
0.0
 11
8.7992998091
 21
21.4636086446
 31
0.0
 11
8.8258778037
 21
21.4864066751
 31
0.0
 11
8.8977846906
 21
21.5070213624
 31
0.0
 11
9.0081344672
 21
21.5234785871
 31
0.0
 11
9.1463597338
 21
21.5342023601
 31
0.0
 11
9.2992236566
 21
21.5381657454
 31
0.0
  0
SPLINE
  5
2D8
100
AcDbEntity
  8
RACCORDO
100
AcDbSpline
 62
253
  6
CONTINUOUS
 70
0
 71
3
 72
13
 73
9
 74
7
 42
0.0000001
 43
0.0000001
 44
0.0000000001
 12
0.0011232904
 22
-0.8491582777
 32
0.0
 13
0.1220016021
 23
-0.8403491248
 33
0.0
 40
0.0
 40
0.0
 40
0.0
 40
0.0
 40
0.2573968047
 40
0.4926033318
 40
0.6935537272
 40
0.8499891575
 40
0.9539121031
 40
1.0
 40
1.0
 40
1.0
 40
1.0
 10
52.8573078315
 20
-20.8832667961
 30
0.0
 10
52.8574042086
 20
-20.9561236718
 30
0.0
 10
52.8577429398
 20
-21.0955535388
 30
0.0
 10
52.8585463885
 20
-21.2918751153
 30
0.0
 10
52.8600033325
 20
-21.4595746185
 30
0.0
 10
52.8608778795
 20
-21.5902216144
 30
0.0
 10
52.8636480489
 20
-21.6767876525
 30
0.0
 10
52.8635391764
 20
-21.7194313641
 30
0.0
 10
52.8654134422
 20
-21.7323413387
 30
0.0
 11
52.8573078315
 21
-20.8832667961
 31
0.0
 11
52.8578215216
 21
-21.101837011
 31
0.0
 11
52.8587509825
 21
-21.3015625925
 31
0.0
 11
52.860049186
 21
-21.4721964951
 31
0.0
 11
52.8616489104
 21
-21.6050254191
 31
0.0
 11
52.8634677998
 21
-21.693253779
 31
0.0
 11
52.8654134422
 21
-21.7323413387
 31
0.0
  0
SPLINE
  5
2D9
100
AcDbEntity
  8
RACCORDO
100
AcDbSpline
 62
253
  6
CONTINUOUS
 70
0
 71
3
 72
13
 73
9
 74
7
 42
0.0000001
 43
0.0000001
 44
0.0000000001
 12
0.0011198509
 22
-0.4247046816
 32
0.0
 13
0.1180855233
 23
-0.4079597159
 33
0.0
 40
0.0
 40
0.0
 40
0.0
 40
0.0
 40
0.256315624
 40
0.4920407319
 40
0.6935253708
 40
0.8501744653
 40
0.9540825079
 40
1.0
 40
1.0
 40
1.0
 40
1.0
 10
53.357231679
 20
-20.8087072544
 30
0.0
 10
53.3573273575
 20
-20.8449934029
 30
0.0
 10
53.3576640979
 20
-20.9146453919
 30
0.0
 10
53.3584728042
 20
-21.0128436805
 30
0.0
 10
53.3599139048
 20
-21.0968484593
 30
0.0
 10
53.360836548
 20
-21.1623929385
 30
0.0
 10
53.363515791
 20
-21.2054528973
 30
0.0
 10
53.3635298927
 20
-21.2270003634
 30
0.0
 10
53.3653372898
 20
-21.2332445258
 30
0.0
 11
53.357231679
 21
-20.8087072544
 31
0.0
 11
53.3577425072
 21
-20.9175648798
 31
0.0
 11
53.3586729438
 21
-21.017674461
 31
0.0
 11
53.3599739874
 21
-21.1032363366
 31
0.0
 11
53.3615771251
 21
-21.1697468539
 31
0.0
 11
53.3633995502
 21
-21.2138395936
 31
0.0
 11
53.3653372898
 21
-21.2332445258
 31
0.0
  0
SPLINE
  5
2DA
100
AcDbEntity
  8
RACCORDO
100
AcDbSpline
 62
253
  6
CONTINUOUS
 70
0
 71
3
 72
12
 73
8
 74
6
 42
0.0000001
 43
0.0000001
 44
0.0000000001
 12
-0.3382844035
 22
-0.3684034611
 32
0.0
 13
-0.5001573955
 23
-0.0001658454
 33
0.0
 40
0.0
 40
0.0
 40
0.0
 40
0.0
 40
0.0534970751
 40
0.1973791315
 40
0.418044094
 40
0.694398666
 40
1.0
 40
1.0
 40
1.0
 40
1.0
 10
53.3400467945
 20
-9.1630493049
 30
0.0
 10
53.3340143858
 20
-9.1696188075
 30
0.0
 10
53.2948710077
 20
-9.1609380787
 30
0.0
 10
53.2307695867
 20
-9.1725557494
 30
0.0
 10
53.1210861533
 20
-9.16958301
 30
0.0
 10
52.988380274
 20
-9.1727084717
 30
0.0
 10
52.891072536
 20
-9.1725324103
 30
0.0
 10
52.8401229469
 20
-9.1725493045
 30
0.0
 11
53.3400467945
 21
-9.1630493049
 31
0.0
 11
53.3134479517
 21
-9.1659538581
 31
0.0
 11
53.2415322183
 21
-9.1685803248
 31
0.0
 11
53.1311849213
 21
-9.1706772427
 31
0.0
 11
52.9929708868
 21
-9.1720438496
 31
0.0
 11
52.8401229469
 21
-9.1725493045
 31
0.0
  0
SPLINE
  5
2DB
100
AcDbEntity
  8
RACCORDO
100
AcDbSpline
 62
253
  6
CONTINUOUS
 70
0
 71
3
 72
12
 73
8
 74
6
 42
0.0000001
 43
0.0000001
 44
0.0000000001
 12
-0.3382839437
 22
0.3684038833
 32
0.0
 13
-0.5001573955
 23
0.0001658454
 33
0.0
 40
0.0
 40
0.0
 40
0.0
 40
0.0
 40
0.0534970646
 40
0.1973791166
 40
0.4180440802
 40
0.6943986579
 40
1.0
 40
1.0
 40
1.0
 40
1.0
 10
53.3400467945
 20
9.8179506951
 30
0.0
 10
53.3340143952
 20
9.8245202039
 30
0.0
 10
53.2948710016
 20
9.8158394603
 30
0.0
 10
53.2307695994
 20
9.8274571451
 30
0.0
 10
53.121086157
 20
9.8244843983
 30
0.0
 10
52.9883802785
 20
9.827609863
 30
0.0
 10
52.8910725374
 20
9.8274338009
 30
0.0
 10
52.8401229469
 20
9.8274506951
 30
0.0
 11
53.3400467945
 21
9.8179506951
 31
0.0
 11
53.313447957
 21
9.8208552484
 31
0.0
 11
53.2415322259
 21
9.8234817151
 31
0.0
 11
53.1311849282
 21
9.8255786331
 31
0.0
 11
52.9929708909
 21
9.8269452402
 31
0.0
 11
52.8401229469
 21
9.8274506951
 31
0.0
  0
SPLINE
  5
2DC
100
AcDbEntity
  8
RACCORDO
100
AcDbSpline
 62
253
  6
CONTINUOUS
 70
0
 71
3
 72
10
 73
6
 74
4
 42
0.0000001
 43
0.0000001
 44
0.0000000001
 12
-0.0062961109
 22
-18.9809992651
 32
0.0
 13
0.0062961104
 23
-18.9809992651
 33
0.0
 40
0.0
 40
0.0
 40
0.0
 40
0.0
 40
0.333331192
 40
0.6666690465
 40
1.0
 40
1.0
 40
1.0
 40
1.0
 10
53.3400467945
 20
9.8179506951
 30
0.0
 10
53.3393472311
 20
7.7089643251
 30
0.0
 10
53.3384146165
 20
3.4909492611
 30
0.0
 10
53.3384146169
 20
-2.8360508884
 30
0.0
 10
53.3393472317
 20
-7.0540644437
 30
0.0
 10
53.3400467945
 20
-9.1630493049
 30
0.0
 11
53.3400467945
 21
9.8179506951
 31
0.0
 11
53.3386477749
 21
3.4909913918
 31
0.0
 11
53.3386477754
 21
-2.8360945277
 31
0.0
 11
53.3400467945
 21
-9.1630493049
 31
0.0
  0
SPLINE
  5
2DD
100
AcDbEntity
  8
RACCORDO
100
AcDbSpline
 62
253
  6
CONTINUOUS
 70
0
 71
3
 72
12
 73
8
 74
6
 42
0.0000001
 43
0.0000001
 44
0.0000000001
 12
-0.0589601507
 22
0.5095474219
 32
0.0
 13
-0.5129455444
 23
0.0013202159
 33
0.0
 40
0.0
 40
0.0
 40
0.0
 40
0.0
 40
0.0682622547
 40
0.2140915711
 40
0.4316004313
 40
0.7018853505
 40
1.0
 40
1.0
 40
1.0
 40
1.0
 10
53.357231679
 20
21.4636086446
 30
0.0
 10
53.3558900948
 20
21.4752029299
 30
0.0
 10
53.315022986
 20
21.4946319385
 30
0.0
 10
53.2490267098
 20
21.5102948397
 30
0.0
 10
53.1387459711
 20
21.5260262238
 30
0.0
 10
53.0057568617
 20
21.5355274344
 30
0.0
 10
52.9082800252
 20
21.538036991
 30
0.0
 10
52.8573078315
 20
21.5381681829
 30
0.0
 11
53.357231679
 21
21.4636086446
 31
0.0
 11
53.3306560043
 21
21.4864073115
 31
0.0
 11
53.2587501067
 21
21.5070226619
 31
0.0
 11
53.1484000598
 21
21.5234804652
 31
0.0
 11
53.0101735438
 21
21.5342046388
 31
0.0
 11
52.8573078315
 21
21.5381681829
 31
0.0
  0
SPLINE
  5
2DE
100
AcDbEntity
  8
RACCORDO
100
AcDbSpline
 62
253
  6
CONTINUOUS
 70
0
 71
3
 72
13
 73
9
 74
7
 42
0.0000001
 43
0.0000001
 44
0.0000000001
 12
-0.121760214
 22
-0.8403841423
 32
0.0
 13
-0.00112241
 23
-0.8491582871
 33
0.0
 40
0.0
 40
0.0
 40
0.0
 40
0.0
 40
0.0460880154
 40
0.1500134329
 40
0.3064509164
 40
0.5074008512
 40
0.7426034268
 40
1.0
 40
1.0
 40
1.0
 40
1.0
 10
52.8654134422
 20
22.3872427288
 30
0.0
 10
52.86354288
 20
22.3743321831
 30
0.0
 10
52.8636438051
 20
22.3316888618
 30
0.0
 10
52.860879879
 20
22.2451206167
 30
0.0
 10
52.8600015747
 20
22.1144729184
 30
0.0
 10
52.8585469731
 20
21.9467738976
 30
0.0
 10
52.8577427799
 20
21.7504536974
 30
0.0
 10
52.857404133
 20
21.6110249973
 30
0.0
 10
52.8573078315
 20
21.5381681862
 30
0.0
 11
52.8654134422
 21
22.3872427288
 31
0.0
 11
52.8634676615
 21
22.3481550749
 31
0.0
 11
52.86164865
 21
22.2599246172
 31
0.0
 11
52.860048611
 21
22.1270939521
 31
0.0
 11
52.858750959
 21
21.9564604348
 31
0.0
 11
52.8578215286
 21
21.7567382067
 31
0.0
 11
52.8573078315
 21
21.5381681862
 31
0.0
  0
SPLINE
  5
2DF
100
AcDbEntity
  8
RACCORDO
100
AcDbSpline
 62
253
  6
CONTINUOUS
 70
0
 71
3
 72
13
 73
9
 74
7
 42
0.0000001
 43
0.0000001
 44
0.0000000001
 12
-0.1178422521
 22
-0.40803005
 32
0.0
 13
-0.001118831
 23
-0.4247046813
 33
0.0
 40
0.0
 40
0.0
 40
0.0
 40
0.0
 40
0.0459360357
 40
0.1499538366
 40
0.3067831137
 40
0.5081859909
 40
0.7437531761
 40
1.0
 40
1.0
 40
1.0
 40
1.0
 10
53.3653372898
 20
21.8881459159
 30
0.0
 10
53.3635328878
 20
21.8818981549
 30
0.0
 10
53.3635114005
 20
21.8603344575
 30
0.0
 10
53.3608360501
 20
21.8172294219
 30
0.0
 10
53.3599113614
 20
21.7516561938
 30
0.0
 10
53.3584723592
 20
21.6676594573
 30
0.0
 10
53.3576638188
 20
21.5695049787
 30
0.0
 10
53.3573272447
 20
21.4998850531
 30
0.0
 10
53.357231679
 20
21.4636086446
 30
0.0
 11
53.3653372898
 21
21.8881459159
 31
0.0
 11
53.3633990243
 21
21.8687331217
 31
0.0
 11
53.3615753508
 21
21.824593779
 31
0.0
 11
53.3599714864
 21
21.7580067329
 31
0.0
 11
53.3586718393
 21
21.6724795653
 31
0.0
 11
53.3577423241
 21
21.5724370499
 31
0.0
 11
53.357231679
 21
21.4636086446
 31
0.0
  0
SPLINE
  5
2E0
100
AcDbEntity
  8
RACCORDO
100
AcDbSpline
 62
253
  6
CONTINUOUS
 70
0
 71
3
 72
13
 73
9
 74
7
 42
0.0000001
 43
0.0000001
 44
0.0000000001
 12
0.1220016003
 22
0.840349125
 32
0.0
 13
0.0011232904
 23
0.8491582777
 33
0.0
 40
0.0
 40
0.0
 40
0.0
 40
0.0
 40
0.0460878969
 40
0.1500108425
 40
0.3064462728
 40
0.5073966682
 40
0.7426031953
 40
1.0
 40
1.0
 40
1.0
 40
1.0
 10
31.7411180459
 20
-21.7323413387
 30
0.0
 10
31.7429923116
 20
-21.7194313641
 30
0.0
 10
31.7428834391
 20
-21.6767876525
 30
0.0
 10
31.7456536086
 20
-21.5902216144
 30
0.0
 10
31.7465281555
 20
-21.4595746185
 30
0.0
 10
31.7479850996
 20
-21.2918751153
 30
0.0
 10
31.7487885482
 20
-21.0955535388
 30
0.0
 10
31.7491272795
 20
-20.9561236718
 30
0.0
 10
31.7492236566
 20
-20.8832667961
 30
0.0
 11
31.7411180459
 21
-21.7323413387
 31
0.0
 11
31.7430636882
 21
-21.693253779
 31
0.0
 11
31.7448825777
 21
-21.6050254191
 31
0.0
 11
31.746482302
 21
-21.4721964951
 31
0.0
 11
31.7477805056
 21
-21.3015625925
 31
0.0
 11
31.7487099665
 21
-21.101837011
 31
0.0
 11
31.7492236566
 21
-20.8832667961
 31
0.0
  0
SPLINE
  5
2E1
100
AcDbEntity
  8
RACCORDO
100
AcDbSpline
 62
253
  6
CONTINUOUS
 70
0
 71
3
 72
13
 73
9
 74
7
 42
0.0000001
 43
0.0000001
 44
0.0000000001
 12
0.1180855232
 22
0.4079597159
 32
0.0
 13
0.0011198509
 23
0.4247046816
 33
0.0
 40
0.0
 40
0.0
 40
0.0
 40
0.0
 40
0.0459174922
 40
0.1498255347
 40
0.3064746292
 40
0.5079592681
 40
0.743684376
 40
1.0
 40
1.0
 40
1.0
 40
1.0
 10
31.2411941983
 20
-21.2332445258
 30
0.0
 10
31.2430015953
 20
-21.2270003634
 30
0.0
 10
31.243015697
 20
-21.2054528973
 30
0.0
 10
31.2456949401
 20
-21.1623929385
 30
0.0
 10
31.2466175832
 20
-21.0968484593
 30
0.0
 10
31.2480586838
 20
-21.0128436805
 30
0.0
 10
31.2488673901
 20
-20.9146453919
 30
0.0
 10
31.2492041306
 20
-20.8449934029
 30
0.0
 10
31.249299809
 20
-20.8087072544
 30
0.0
 11
31.2411941983
 21
-21.2332445258
 31
0.0
 11
31.2431319379
 21
-21.2138395936
 31
0.0
 11
31.244954363
 21
-21.1697468539
 31
0.0
 11
31.2465575006
 21
-21.1032363366
 31
0.0
 11
31.2478585442
 21
-21.017674461
 31
0.0
 11
31.2487889808
 21
-20.9175648798
 31
0.0
 11
31.249299809
 21
-20.8087072544
 31
0.0
  0
SPLINE
  5
2E2
100
AcDbEntity
  8
RACCORDO
100
AcDbSpline
 62
253
  6
CONTINUOUS
 70
0
 71
3
 72
12
 73
8
 74
6
 42
0.0000001
 43
0.0000001
 44
0.0000000001
 12
0.0589602499
 22
-0.5095474088
 32
0.0
 13
0.5129455428
 23
-0.0013202187
 33
0.0
 40
0.0
 40
0.0
 40
0.0
 40
0.0
 40
0.0682622595
 40
0.2140915789
 40
0.4316004389
 40
0.7018853551
 40
1.0
 40
1.0
 40
1.0
 40
1.0
 10
31.249299809
 20
-20.8087072544
 30
0.0
 10
31.2506413956
 20
-20.8203015403
 30
0.0
 10
31.2915085048
 20
-20.8397305461
 30
0.0
 10
31.3575047833
 20
-20.8553934486
 30
0.0
 10
31.4677855211
 20
-20.8711248312
 30
0.0
 10
31.600774629
 20
-20.8806260416
 30
0.0
 10
31.6982514638
 20
-20.8831355984
 30
0.0
 10
31.7492236566
 20
-20.8832667905
 30
0.0
 11
31.249299809
 21
-20.8087072544
 31
0.0
 11
31.2758754873
 21
-20.8315059208
 31
0.0
 11
31.3477813865
 21
-20.8521212705
 31
0.0
 11
31.458131433
 21
-20.8685790731
 31
0.0
 11
31.596357947
 21
-20.8793032461
 31
0.0
 11
31.7492236566
 21
-20.8832667905
 31
0.0
  0
SPLINE
  5
2E3
100
AcDbEntity
  8
RACCORDO
100
AcDbSpline
 62
253
  6
CONTINUOUS
 70
0
 71
3
 72
12
 73
8
 74
6
 42
0.0000001
 43
0.0000001
 44
0.0000000001
 12
0.3382839495
 22
-0.368403878
 32
0.0
 13
0.5001573955
 23
-0.0001658454
 33
0.0
 40
0.0
 40
0.0
 40
0.0
 40
0.0
 40
0.0534970647
 40
0.1973791168
 40
0.4180440804
 40
0.694398658
 40
1.0
 40
1.0
 40
1.0
 40
1.0
 10
31.2664846935
 20
-9.1630493049
 30
0.0
 10
31.272517093
 20
-9.1696188136
 30
0.0
 10
31.3116604864
 20
-9.1609380702
 30
0.0
 10
31.3757618888
 20
-9.1725557549
 30
0.0
 10
31.4854453311
 20
-9.1695830082
 30
0.0
 10
31.6181512096
 20
-9.1727084728
 30
0.0
 10
31.7154589507
 20
-9.1725324107
 30
0.0
 10
31.7664085411
 20
-9.1725493049
 30
0.0
 11
31.2664846935
 21
-9.1630493049
 31
0.0
 11
31.2930835311
 21
-9.1659538582
 31
0.0
 11
31.3649992623
 21
-9.168580325
 31
0.0
 11
31.4753465599
 21
-9.170677243
 31
0.0
 11
31.6135605972
 21
-9.17204385
 31
0.0
 11
31.7664085411
 21
-9.1725493049
 31
0.0
  0
SPLINE
  5
2E4
100
AcDbEntity
  8
RACCORDO
100
AcDbSpline
 62
253
  6
CONTINUOUS
 70
0
 71
3
 72
10
 73
6
 74
4
 42
0.0000001
 43
0.0000001
 44
0.0000000001
 12
0.0062961104
 22
18.9809992651
 32
0.0
 13
-0.0062961109
 23
18.9809992651
 33
0.0
 40
0.0
 40
0.0
 40
0.0
 40
0.0
 40
0.3333309535
 40
0.666668808
 40
1.0
 40
1.0
 40
1.0
 40
1.0
 10
31.2664846935
 20
-9.1630493049
 30
0.0
 10
31.2671842564
 20
-7.0540644437
 30
0.0
 10
31.2681168711
 20
-2.8360508884
 30
0.0
 10
31.2681168716
 20
3.4909492611
 30
0.0
 10
31.2671842569
 20
7.7089643251
 30
0.0
 10
31.2664846935
 20
9.8179506951
 30
0.0
 11
31.2664846935
 21
-9.1630493049
 31
0.0
 11
31.2678837127
 21
-2.8360945277
 31
0.0
 11
31.2678837132
 21
3.4909913918
 31
0.0
 11
31.2664846935
 21
9.8179506951
 31
0.0
  0
SPLINE
  5
2E5
100
AcDbEntity
  8
RACCORDO
100
AcDbSpline
 62
253
  6
CONTINUOUS
 70
0
 71
3
 72
12
 73
8
 74
6
 42
0.0000001
 43
0.0000001
 44
0.0000000001
 12
0.3382847136
 22
0.3684031762
 32
0.0
 13
0.5001573955
 23
0.0001658454
 33
0.0
 40
0.0
 40
0.0
 40
0.0
 40
0.0
 40
0.0534970821
 40
0.1973791416
 40
0.4180441033
 40
0.6943986715
 40
1.0
 40
1.0
 40
1.0
 40
1.0
 10
31.2664846935
 20
9.8179506951
 30
0.0
 10
31.2725171086
 20
9.8245201934
 30
0.0
 10
31.3116604763
 20
9.8158394746
 30
0.0
 10
31.3757619099
 20
9.8274571358
 30
0.0
 10
31.4854453373
 20
9.8244844014
 30
0.0
 10
31.6181512171
 20
9.827609861
 30
0.0
 10
31.7154589529
 20
9.8274338002
 30
0.0
 10
31.7664085411
 20
9.8274506944
 30
0.0
 11
31.2664846935
 21
9.8179506951
 31
0.0
 11
31.2930835399
 21
9.8208552482
 31
0.0
 11
31.3649992748
 21
9.8234817148
 31
0.0
 11
31.4753465714
 21
9.8255786326
 31
0.0
 11
31.6135606039
 21
9.8269452395
 31
0.0
 11
31.7664085411
 21
9.8274506944
 31
0.0
  0
SPLINE
  5
2E6
100
AcDbEntity
  8
RACCORDO
100
AcDbSpline
 62
253
  6
CONTINUOUS
 70
0
 71
3
 72
12
 73
8
 74
6
 42
0.0000001
 43
0.0000001
 44
0.0000000001
 12
0.0590459952
 22
0.5095356987
 32
0.0
 13
0.5129437736
 23
0.0013201829
 33
0.0
 40
0.0
 40
0.0
 40
0.0
 40
0.0
 40
0.0682658561
 40
0.2140976142
 40
0.4316063154
 40
0.7018889037
 40
1.0
 40
1.0
 40
1.0
 40
1.0
 10
31.2492998092
 20
21.4636086446
 30
0.0
 10
31.2506434176
 20
21.4752032748
 30
0.0
 10
31.2915110629
 20
21.4946293934
 30
0.0
 10
31.3575089724
 20
21.5102933442
 30
0.0
 10
31.467788991
 20
21.5260232309
 30
0.0
 10
31.6007767975
 20
21.5355243085
 30
0.0
 10
31.6982522463
 20
21.5380336665
 30
0.0
 10
31.7492236566
 20
21.5381648536
 30
0.0
 11
31.2492998092
 21
21.4636086446
 31
0.0
 11
31.2758785253
 21
21.4864064175
 31
0.0
 11
31.3477857198
 21
21.5070208521
 31
0.0
 11
31.4581354123
 21
21.523477868
 31
0.0
 11
31.5963602903
 21
21.5342015074
 31
0.0
 11
31.7492236566
 21
21.5381648536
 31
0.0
  0
SPLINE
  5
2E7
100
AcDbEntity
  8
RACCORDO
100
AcDbSpline
 62
253
  6
CONTINUOUS
 70
0
 71
3
 72
13
 73
9
 74
7
 42
0.0000001
 43
0.0000001
 44
0.0000000001
 12
-0.00112241
 22
0.8491582871
 32
0.0
 13
-0.1217602147
 23
0.8403841422
 33
0.0
 40
0.0
 40
0.0
 40
0.0
 40
0.0
 40
0.2573965732
 40
0.4925991488
 40
0.6935490836
 40
0.8499865671
 40
0.9539119846
 40
1.0
 40
1.0
 40
1.0
 40
1.0
 10
31.7492236566
 20
21.5381681862
 30
0.0
 10
31.7491273551
 20
21.6110249973
 30
0.0
 10
31.7487887082
 20
21.7504536974
 30
0.0
 10
31.7479845149
 20
21.9467738976
 30
0.0
 10
31.7465299134
 20
22.1144729184
 30
0.0
 10
31.7456516091
 20
22.2451206167
 30
0.0
 10
31.7428876829
 20
22.3316888618
 30
0.0
 10
31.7429886081
 20
22.3743321831
 30
0.0
 10
31.7411180459
 20
22.3872427288
 30
0.0
 11
31.7492236566
 21
21.5381681862
 31
0.0
 11
31.7487099594
 21
21.7567382067
 31
0.0
 11
31.7477805291
 21
21.9564604348
 31
0.0
 11
31.746482877
 21
22.1270939521
 31
0.0
 11
31.744882838
 21
22.2599246172
 31
0.0
 11
31.7430638266
 21
22.3481550749
 31
0.0
 11
31.7411180459
 21
22.3872427288
 31
0.0
  0
SPLINE
  5
2E8
100
AcDbEntity
  8
RACCORDO
100
AcDbSpline
 62
253
  6
CONTINUOUS
 70
0
 71
3
 72
13
 73
9
 74
7
 42
0.0000001
 43
0.0000001
 44
0.0000000001
 12
-0.001118831
 22
0.4247046813
 32
0.0
 13
-0.1178422493
 23
0.4080300508
 33
0.0
 40
0.0
 40
0.0
 40
0.0
 40
0.0
 40
0.2562468239
 40
0.4918140091
 40
0.6932168863
 40
0.8500461634
 40
0.9540639644
 40
1.0
 40
1.0
 40
1.0
 40
1.0
 10
31.249299809
 20
21.4636086446
 30
0.0
 10
31.2492042434
 20
21.4998850531
 30
0.0
 10
31.2488676692
 20
21.5695049787
 30
0.0
 10
31.2480591288
 20
21.6676594573
 30
0.0
 10
31.2466201267
 20
21.7516561938
 30
0.0
 10
31.2456954379
 20
21.8172294219
 30
0.0
 10
31.2430200876
 20
21.8603344575
 30
0.0
 10
31.2429986002
 20
21.8818981549
 30
0.0
 10
31.2411941983
 20
21.8881459159
 30
0.0
 11
31.249299809
 21
21.4636086446
 31
0.0
 11
31.2487891639
 21
21.5724370499
 31
0.0
 11
31.2478596487
 21
21.6724795653
 31
0.0
 11
31.2465600016
 21
21.7580067329
 31
0.0
 11
31.2449561373
 21
21.824593779
 31
0.0
 11
31.2431324638
 21
21.8687331217
 31
0.0
 11
31.2411941983
 21
21.8881459159
 31
0.0
  0
SPLINE
  5
2E9
100
AcDbEntity
  8
RACCORDO
100
AcDbSpline
 62
253
  6
CONTINUOUS
 70
0
 71
3
 72
12
 73
8
 74
6
 42
0.0000001
 43
0.0000001
 44
0.0000000001
 12
-0.0590255123
 22
-0.5095385381
 32
0.0
 13
-0.5129442368
 23
-0.0013201424
 33
0.0
 40
0.0
 40
0.0
 40
0.0
 40
0.0
 40
0.0682650537
 40
0.2140962395
 40
0.4316049667
 40
0.7018880863
 40
1.0
 40
1.0
 40
1.0
 40
1.0
 10
53.3572316789
 20
-20.8087072544
 30
0.0
 10
53.3558885524
 20
-20.820301813
 30
0.0
 10
53.315021057
 20
-20.8397286721
 30
0.0
 10
53.249023507
 20
-20.8553923916
 30
0.0
 10
53.1387433255
 20
-20.8711226593
 30
0.0
 10
53.0057552048
 20
-20.8806237713
 30
0.0
 10
52.9082794275
 20
-20.8831331719
 30
0.0
 10
52.8573078315
 20
-20.8832643553
 30
0.0
 11
53.3572316789
 21
-20.8087072544
 31
0.0
 11
53.3306536843
 21
-20.831505285
 31
0.0
 11
53.2587467975
 21
-20.8521199723
 31
0.0
 11
53.1483970208
 21
-20.868577197
 31
0.0
 11
53.0101717542
 21
-20.87930097
 31
0.0
 11
52.8573078315
 21
-20.8832643553
 31
0.0
  0
SPLINE
  5
2EA
100
AcDbEntity
  8
RACCORDO
100
AcDbSpline
 62
253
  6
CONTINUOUS
 70
0
 71
3
 72
12
 73
8
 74
6
 42
0.0000001
 43
0.0000001
 44
0.0000000001
 12
-0.0300116246
 22
-0.4987856624
 32
0.0
 13
0.4987851141
 23
-0.0300207354
 33
0.0
 40
0.0
 40
0.0
 40
0.0
 40
0.0
 40
0.3089602697
 40
0.5876247634
 40
0.8087658163
 40
0.9507953892
 40
1.0
 40
1.0
 40
1.0
 40
1.0
 10
-10.528542608
 20
-21.2332445258
 30
0.0
 10
-10.5316334079
 20
-21.2846128433
 30
0.0
 10
-10.538053911
 20
-21.3832205844
 30
0.0
 10
-10.5419371019
 20
-21.5143073359
 30
0.0
 10
-10.5545455152
 20
-21.6299300514
 30
0.0
 10
-10.5416208082
 20
-21.6817278014
 30
0.0
 10
-10.5580367431
 20
-21.7318489525
 30
0.0
 10
-10.5498559006
 20
-21.7323413387
 30
0.0
 11
-10.528542608
 21
-21.2332445258
 31
0.0
 11
-10.5373899853
 21
-21.3873744637
 31
0.0
 11
-10.5445194149
 21
-21.5264370589
 31
0.0
 11
-10.5492339421
 21
-21.6368379132
 31
0.0
 11
-10.5510726872
 21
-21.7077845254
 31
0.0
 11
-10.5498559006
 21
-21.7323413387
 31
0.0
  0
SPLINE
  5
2EB
100
AcDbEntity
  8
RACCORDO
100
AcDbSpline
 62
253
  6
CONTINUOUS
 70
0
 71
3
 72
12
 73
8
 74
6
 42
0.0000001
 43
0.0000001
 44
0.0000000001
 12
-0.4858627104
 22
-0.0732929812
 32
0.0
 13
0.0734189608
 23
-0.4858436895
 33
0.0
 40
0.0
 40
0.0
 40
0.0
 40
0.0
 40
0.3102126027
 40
0.5890350572
 40
0.8097668647
 40
0.9512708172
 40
1.0
 40
1.0
 40
1.0
 40
1.0
 10
-10.9929127345
 20
-20.8087072544
 30
0.0
 10
-11.0431529798
 20
-20.8162860566
 30
0.0
 10
-11.1396141632
 20
-20.8299519585
 30
0.0
 10
-11.2666192966
 20
-20.8528284221
 30
0.0
 10
-11.3809065409
 20
-20.8612602232
 30
0.0
 10
-11.4274021207
 20
-20.8858378534
 30
0.0
 10
-11.4797725435
 20
-20.8753727666
 30
0.0
 10
-11.4785799948
 20
-20.8832643553
 30
0.0
 11
-10.9929127345
 21
-20.8087072544
 31
0.0
 11
-11.1436241615
 21
-20.831505285
 31
0.0
 11
-11.279066478
 21
-20.8521199723
 31
0.0
 11
-11.3862693531
 21
-20.868577197
 31
0.0
 11
-11.4549667428
 21
-20.87930097
 31
0.0
 11
-11.4785799948
 21
-20.8832643553
 31
0.0
  0
SPLINE
  5
2EC
100
AcDbEntity
  8
RACCORDO
100
AcDbSpline
 62
253
  6
CONTINUOUS
 70
0
 71
3
 72
12
 73
8
 74
6
 42
0.0000001
 43
0.0000001
 44
0.0000000001
 12
-0.4858788528
 22
0.0732953821
 32
0.0
 13
0.0732736964
 23
0.4858821236
 33
0.0
 40
0.0
 40
0.0
 40
0.0
 40
0.0
 40
0.3102110961
 40
0.5890333814
 40
0.8097657296
 40
0.9512703717
 40
1.0
 40
1.0
 40
1.0
 40
1.0
 10
-10.9929127345
 20
21.4636086446
 30
0.0
 10
-11.043154405
 20
21.4711876582
 30
0.0
 10
-11.1396182292
 20
21.4848539293
 30
0.0
 10
-11.2666285064
 20
21.5077312723
 30
0.0
 10
-11.3809169371
 20
21.5161629417
 30
0.0
 10
-11.427419572
 20
21.5407422905
 30
0.0
 10
-11.4797863318
 20
21.5302758978
 30
0.0
 10
-11.4785961318
 20
21.5381681829
 30
0.0
 11
-10.9929127345
 21
21.4636086446
 31
0.0
 11
-11.1436284368
 21
21.4864073115
 31
0.0
 11
-11.2790751709
 21
21.5070226619
 31
0.0
 11
-11.3862818706
 21
21.5234804652
 31
0.0
 11
-11.4549818781
 21
21.5342046388
 31
0.0
 11
-11.4785961318
 21
21.5381681829
 31
0.0
  0
SPLINE
  5
2ED
100
AcDbEntity
  8
RACCORDO
100
AcDbSpline
 62
253
  6
CONTINUOUS
 70
0
 71
3
 72
12
 73
8
 74
6
 42
0.0000001
 43
0.0000001
 44
0.0000000001
 12
-0.0300116389
 22
0.4987856612
 32
0.0
 13
0.4987851138
 23
0.0300207354
 33
0.0
 40
0.0
 40
0.0
 40
0.0
 40
0.0
 40
0.3089558499
 40
0.5876193646
 40
0.8087621358
 40
0.9507942046
 40
1.0
 40
1.0
 40
1.0
 40
1.0
 10
-10.528542608
 20
21.8881459159
 30
0.0
 10
-10.5316333651
 20
21.9395134985
 30
0.0
 10
-10.5380538048
 20
22.0381203197
 30
0.0
 10
-10.5419370114
 20
22.1692065022
 30
0.0
 10
-10.554545504
 20
22.284829772
 30
0.0
 10
-10.5416206034
 20
22.336628193
 30
0.0
 10
-10.5580369362
 20
22.386750331
 30
0.0
 10
-10.5498558968
 20
22.3872427291
 30
0.0
 11
-10.528542608
 21
21.8881459159
 31
0.0
 11
-10.5373898686
 21
22.0422736483
 31
0.0
 11
-10.5445192916
 21
22.181335754
 31
0.0
 11
-10.5492338793
 21
22.2917374649
 31
0.0
 11
-10.5510726838
 21
22.3626853232
 31
0.0
 11
-10.5498558968
 21
22.3872427291
 31
0.0
  0
ELLIPSE
  5
2EE
100
AcDbEntity
  8
RACCORDO
100
AcDbEllipse
 62
7
  6
CONTINUOUS
 10
31.4286460834
 20
-12.6725493049
 30
0.0
 11
0.0
 21
30.0
 31
0.0
 40
0.0174550649
 41
1.5095718747
 42
1.789480621
  0
ELLIPSE
  5
2EF
100
AcDbEntity
  8
RACCORDO
100
AcDbEllipse
 62
7
  6
CONTINUOUS
 10
30.9530958567
 20
-20.2601887927
 30
0.0
 11
-0.0
 21
0.4
 31
0.0
 40
0.0174550649
 41
-1.6667894357
 42
-0.1745329252
  0
ELLIPSE
  5
2F0
100
AcDbEntity
  8
RACCORDO
100
AcDbEllipse
 62
7
  6
CONTINUOUS
 10
30.9530958567
 20
20.9150901828
 30
0.0
 11
0.0
 21
0.4
 31
0.0
 40
0.0174550649
 41
-2.9670597284
 42
-1.4748032179
  0
ELLIPSE
  5
2F1
100
AcDbEntity
  8
RACCORDO
100
AcDbEllipse
 62
7
  6
CONTINUOUS
 10
31.4286460834
 20
13.3274506951
 30
0.0
 11
0.0
 21
30.0
 31
0.0
 40
0.0174550649
 41
1.3635987802
 42
1.6320207789
  0
ELLIPSE
  5
2F2
100
AcDbEntity
  8
DRAFT
100
AcDbEllipse
 62
7
  6
CONTINUOUS
 10
30.7317516606
 20
10.8800022962
 30
0.0
 11
0.0
 21
10.0
 31
0.0
 40
0.0174550649
 41
-1.5988177584
 42
-1.5095718747
  0
ELLIPSE
  5
2F3
100
AcDbEntity
  8
DRAFT
100
AcDbEllipse
 62
7
  6
CONTINUOUS
 10
32.4521454144
 20
8.1174506951
 30
0.0
 11
0.0
 21
88.6
 31
0.0
 40
0.0174550649
 41
1.5427748951
 42
1.5517951834
  0
ELLIPSE
  5
2F4
100
AcDbEntity
  8
DRAFT
100
AcDbEllipse
 62
7
  6
CONTINUOUS
 10
39.6074301562
 20
0.3274506951
 30
0.0
 11
0.0
 21
498.6
 31
0.0
 40
0.0174550649
 41
1.5517951834
 42
1.5897974701
  0
ELLIPSE
  5
2F5
100
AcDbEntity
  8
DRAFT
100
AcDbEllipse
 62
7
  6
CONTINUOUS
 10
32.4521454144
 20
-7.4625493049
 30
0.0
 11
0.0
 21
88.6
 31
0.0
 40
0.0174550649
 41
-4.693387837
 42
-4.6843675487
  0
ELLIPSE
  5
2F6
100
AcDbEntity
  8
DRAFT
100
AcDbEllipse
 62
7
  6
CONTINUOUS
 10
30.7317516606
 20
-10.225100906
 30
0.0
 11
0.0
 21
10.0
 31
0.0
 40
0.0174550649
 41
-1.6320207789
 42
-1.5427748951
  0
ELLIPSE
  5
2F7
100
AcDbEntity
  8
DRAFT
100
AcDbEllipse
 62
7
  6
CONTINUOUS
 10
0.0991013318
 20
0.3274506951
 30
0.0
 11
0.0
 21
498.6
 31
0.0
 40
0.0174550649
 41
-1.5807568453
 42
-1.5608358083
  0
ELLIPSE
  5
2F8
100
AcDbEntity
  8
RACCORDO
100
AcDbEllipse
 62
7
  6
CONTINUOUS
 10
30.9259852467
 20
-19.0724398044
 30
0.0
 11
0.0
 21
0.5
 31
0.0
 40
0.0174550649
 41
-4.4937046862
 42
-3.3161255788
  0
ELLIPSE
  5
2F9
100
AcDbEntity
  8
RACCORDO
100
AcDbEllipse
 62
7
  6
CONTINUOUS
 10
30.9332761077
 20
19.2932784603
 30
0.0
 11
0.0
 21
1.0
 31
0.0
 40
0.0174550649
 41
0.1745329252
 42
1.3635987802
  0
ELLIPSE
  5
2FA
100
AcDbEntity
  8
RACCORDO
100
AcDbEllipse
 62
7
  6
CONTINUOUS
 10
9.247022471
 20
22.040194151
 30
0.0
 11
-0.1395400468
 21
0.4811552612
 31
0.0
 40
0.9980421448
 41
-0.2817432202
 42
1.2880045835
  0
ELLIPSE
  5
2FB
100
AcDbEntity
  8
RACCORDO
100
AcDbEllipse
 62
7
  6
CONTINUOUS
 10
9.247022471
 20
-21.3852927608
 30
0.0
 11
0.1395400468
 21
0.4811552612
 31
0.0
 40
0.9980421448
 41
-4.429597237
 42
-2.8598494334
  0
ELLIPSE
  5
2FC
100
AcDbEntity
  8
RACCORDO
100
AcDbEllipse
 62
7
  6
CONTINUOUS
 10
30.459509017
 20
22.040194151
 30
0.0
 11
0.1395400468
 21
0.4811552612
 31
0.0
 40
0.9980421448
 41
-1.2880045835
 42
0.2817432202
  0
ELLIPSE
  5
2FD
100
AcDbEntity
  8
RACCORDO
100
AcDbEllipse
 62
7
  6
CONTINUOUS
 10
30.459509017
 20
-21.3852927608
 30
0.0
 11
-0.1395400468
 21
0.4811552612
 31
0.0
 40
0.9980421448
 41
-3.4233358738
 42
-1.8535880701
  0
ELLIPSE
  5
2FE
100
AcDbEntity
  8
RACCORDO
100
AcDbEllipse
 62
7
  6
CONTINUOUS
 10
30.7278854046
 20
13.3274506951
 30
0.0
 11
0.0
 21
30.0
 31
0.0
 40
0.0174550649
 41
-1.6320207789
 42
-1.3521120326
  0
ELLIPSE
  5
2FF
100
AcDbEntity
  8
RACCORDO
100
AcDbEllipse
 62
7
  6
CONTINUOUS
 10
31.2034356313
 20
20.9150901828
 30
0.0
 11
-0.0
 21
0.4
 31
0.0
 40
0.0174550649
 41
1.4748032179
 42
2.9670597284
  0
ELLIPSE
  5
300
100
AcDbEntity
  8
RACCORDO
100
AcDbEllipse
 62
7
  6
CONTINUOUS
 10
31.2034356313
 20
-20.2601887927
 30
0.0
 11
-0.0
 21
0.4
 31
0.0
 40
0.0174550649
 41
0.1745329252
 42
1.6667894357
  0
ELLIPSE
  5
301
100
AcDbEntity
  8
RACCORDO
100
AcDbEllipse
 62
7
  6
CONTINUOUS
 10
30.7278854046
 20
-12.6725493049
 30
0.0
 11
0.0
 21
30.0
 31
0.0
 40
0.0174550649
 41
-1.7779938734
 42
-1.5095718747
  0
ELLIPSE
  5
302
100
AcDbEntity
  8
DRAFT
100
AcDbEllipse
 62
7
  6
CONTINUOUS
 10
31.4247798274
 20
-10.225100906
 30
0.0
 11
0.0
 21
10.0
 31
0.0
 40
0.0174550649
 41
1.5427748951
 42
1.6320207789
  0
ELLIPSE
  5
303
100
AcDbEntity
  8
DRAFT
100
AcDbEllipse
 62
7
  6
CONTINUOUS
 10
29.7043860737
 20
-7.4625493049
 30
0.0
 11
0.0
 21
88.6
 31
0.0
 40
0.0174550649
 41
-1.5988177584
 42
-1.5897974701
  0
ELLIPSE
  5
304
100
AcDbEntity
  8
DRAFT
100
AcDbEllipse
 62
7
  6
CONTINUOUS
 10
22.5491013318
 20
0.3274506951
 30
0.0
 11
0.0
 21
498.6
 31
0.0
 40
0.0174550649
 41
-1.5897974701
 42
-1.5517951834
  0
ELLIPSE
  5
305
100
AcDbEntity
  8
DRAFT
100
AcDbEllipse
 62
7
  6
CONTINUOUS
 10
29.7043860737
 20
8.1174506951
 30
0.0
 11
0.0
 21
88.6
 31
0.0
 40
0.0174550649
 41
-1.5517951834
 42
-1.5427748951
  0
ELLIPSE
  5
306
100
AcDbEntity
  8
DRAFT
100
AcDbEllipse
 62
7
  6
CONTINUOUS
 10
31.4247798274
 20
10.8800022962
 30
0.0
 11
-0.0
 21
10.0
 31
0.0
 40
0.0174550649
 41
1.5095718747
 42
1.5988177584
  0
ELLIPSE
  5
307
100
AcDbEntity
  8
DRAFT
100
AcDbEllipse
 62
7
  6
CONTINUOUS
 10
62.0574301562
 20
0.3274506951
 30
0.0
 11
0.0
 21
498.6
 31
0.0
 40
0.0174550649
 41
1.5608358083
 42
1.5807568453
  0
ELLIPSE
  5
308
100
AcDbEntity
  8
RACCORDO
100
AcDbEllipse
 62
7
  6
CONTINUOUS
 10
31.2305462414
 20
19.7273411946
 30
0.0
 11
0.0
 21
0.5
 31
0.0
 40
0.0174550649
 41
-1.3521120326
 42
-0.1745329252
  0
ELLIPSE
  5
309
100
AcDbEntity
  8
RACCORDO
100
AcDbEllipse
 62
7
  6
CONTINUOUS
 10
31.2232553803
 20
-18.6383770702
 30
0.0
 11
-0.0
 21
1.0
 31
0.0
 40
0.0174550649
 41
-2.9670597284
 42
-1.7779938734
  0
ELLIPSE
  5
30A
100
AcDbEntity
  8
RACCORDO
100
AcDbEllipse
 62
7
  6
CONTINUOUS
 10
52.909509017
 20
-21.3852927608
 30
0.0
 11
-0.1395400468
 21
0.4811552612
 31
0.0
 40
0.9980421448
 41
-3.4233358738
 42
-1.8535880701
  0
ELLIPSE
  5
30B
100
AcDbEntity
  8
RACCORDO
100
AcDbEllipse
 62
7
  6
CONTINUOUS
 10
52.909509017
 20
22.040194151
 30
0.0
 11
0.1395400468
 21
0.4811552612
 31
0.0
 40
0.9980421448
 41
-1.2880045835
 42
0.2817432202
  0
ELLIPSE
  5
30C
100
AcDbEntity
  8
RACCORDO
100
AcDbEllipse
 62
7
  6
CONTINUOUS
 10
31.697022471
 20
-21.3852927608
 30
0.0
 11
0.1395400468
 21
0.4811552612
 31
0.0
 40
0.9980421448
 41
-4.429597237
 42
-2.8598494334
  0
ELLIPSE
  5
30D
100
AcDbEntity
  8
RACCORDO
100
AcDbEllipse
 62
7
  6
CONTINUOUS
 10
31.697022471
 20
22.040194151
 30
0.0
 11
-0.1395400468
 21
0.4811552612
 31
0.0
 40
0.9980421448
 41
-0.2817432202
 42
1.2880045835
  0
ENDSEC
  0
SECTION
  2
OBJECTS
  0
DICTIONARY
  5
C
100
AcDbDictionary
280
0
281
1
  3
ACAD_GROUP
350
D
  3
ACAD_MLINESTYLE
350
17
  3
ACAD_LAYOUT
350
1A
  3
ACAD_PLOTSETTINGS
350
19
  3
ACAD_PLOTSTYLENAME
350
E
  0
DICTIONARY
  5
D
102
{ACAD_REACTORS
330
C
102
}
100
AcDbDictionary
280
0
281
1
  0
ACDBDICTIONARYWDFLT
  5
E
102
{ACAD_REACTORS
330
C
102
}
100
AcDbDictionary
281
1
  3
Normal
350
F
100
AcDbDictionaryWithDefault
340
F
  0
DICTIONARY
  5
17
102
{ACAD_REACTORS
330
C
102
}
100
AcDbDictionary
280
0
281
1
  3
Standard
350
18
  0
DICTIONARY
  5
19
102
{ACAD_REACTORS
330
C
102
}
100
AcDbDictionary
281
1
  0
DICTIONARY
  5
1A
102
{ACAD_REACTORS
330
C
102
}
100
AcDbDictionary
281
1
  3
Model
350
30E
  3
Layout1
350
30F
  0
ACDBPLACEHOLDER
  5
F
102
{ACAD_REACTORS
330
E
102
}
  0
MLINESTYLE
  5
18
102
{ACAD_REACTORS
330
17
102
}
100
AcDbMlineStyle
  2
STANDARD
 70
0
  3

 62
256
 51
90.0
 52
90.0
 71
2
 49
0.5
 62
256
  6
BYLAYER
 49
-0.5
 62
256
  6
BYLAYER
  0
LAYOUT
  5
30E
102
{ACAD_REACTORS
330
1A
102
}
100
AcDbPlotSettings
  1

  2
none_device
  4
ISO_A4_(297.00_x_210.00_MM)
  6

 40
0.0
 41
0.0
 42
0.0
 43
0.0
 44
297.0
 45
210.0
 46
0.0
 47
0.0
 48
0.0
 49
0.0
140
0.0
141
0.0
142
1.0
143
1.0
 70
1024
 72
1
 73
0
 74
0
  7

 75
0
147
1.0
148
0.0
149
0.0
100
AcDbLayout
  1
Model
 70
0
 71
0
 10
0.0
 20
0.0
 11
297.0
 21
210.0
 12
0.0
 22
0.0
 32
0.0
 14
0.0
 24
0.0
 34
0.0
 15
0.0
 25
0.0
 35
0.0
146
0.0
 13
0.0
 23
0.0
 33
0.0
 16
1.0
 26
0.0
 36
0.0
 17
0.0
 27
1.0
 37
0.0
 76
0
330
20F
345
0
346
0
  0
LAYOUT
  5
30F
102
{ACAD_REACTORS
330
1A
102
}
100
AcDbPlotSettings
  1

  2
none_device
  4
ISO_A4_(297.00_x_210.00_MM)
  6

 40
0.0
 41
0.0
 42
0.0
 43
0.0
 44
297.0
 45
210.0
 46
0.0
 47
0.0
 48
0.0
 49
0.0
140
0.0
141
0.0
142
1.0
143
1.0
 70
0
 72
1
 73
0
 74
0
  7

 75
0
147
1.0
148
0.0
149
0.0
100
AcDbLayout
  1
Layout1
 70
0
 71
1
 10
0.0
 20
0.0
 11
297.0
 21
210.0
 12
0.0
 22
0.0
 32
0.0
 14
0.0
 24
0.0
 34
0.0
 15
0.0
 25
0.0
 35
0.0
146
0.0
 13
0.0
 23
0.0
 33
0.0
 16
1.0
 26
0.0
 36
0.0
 17
0.0
 27
1.0
 37
0.0
 76
0
330
210
345
0
346
0
  0
ENDSEC
  0
EOF
