  0
SECTION
  2
HEADER
  9
$ACADVER
  1
AC1015
  9
$DWGCODEPAGE
  3
ANSI_1252
  9
$EXTMAX
 10
297.0
 20
210.0
 30
0.0
  9
$EXTMIN
 10
0.0
 20
0.0
 30
0.0
  9
$LIMMIN
 10
0.0
 20
0.0
  9
$LIMMAX
 10
297.0
 20
210.0
  9
$VIEWCTR
 10
148.5
 20
105.0
  9
$VIEWSIZE
 40
210.0
  9
$CLAYER
  8
0
  9
$LTSCALE
 40
16.335
  9
$CELTYPE
  6
BYLAYER
  9
$DIMSCALE
 40
1.0
  9
$DIMASZ
 40
3.0
  9
$DIMEXO
 40
0.5
  9
$DIMDLI
 40
11.286
  9
$DIMEXE
 40
1.5
  9
$DIMCEN
 40
2.673
  9
$DIMLFAC
 40
1.0
  9
$DIMBLK
  1
_FILLED
  9
$DIMTXT
 40
3.0
  9
$DIMTOL
 70
1
  9
$DIMLIM
 70
0
  9
$DIMTFAC
 40
1.0
  9
$DIMTP
 40
0.01
  9
$DIMTM
 40
0.01
  9
$DIMGAP
 40
0.625
  9
$DIMDSEP
 70
44
  9
$PDMODE
 70
3
  9
$PDSIZE
 40
3.0
  9
$HANDSEED
  5
2F6
  9
$TILEMODE
 70
1
  9
$MEASUREMENT
 70
1
  9
$INSUNITS
 70
4
  0
ENDSEC
  0
SECTION
  2
CLASSES
  0
CLASS
  1
ACDBDICTIONARYWDFLT
  2
AcDbDictionaryWithDefault
  3
AutoCAD 2000
 90
0
280
0
281
0
  0
CLASS
  1
ACDBPLACEHOLDER
  2
AcDbPlaceHolder
  3
AutoCAD 2000
 90
0
280
0
281
0
  0
CLASS
  1
LAYOUT
  2
AcDbLayout
  3
AutoCAD 2000
 90
0
280
0
281
0
  0
ENDSEC
  0
SECTION
  2
TABLES
  0
TABLE
  2
VPORT
  5
8
100
AcDbSymbolTable
 70
2
  0
VPORT
  5
1F4
100
AcDbSymbolTableRecord
100
AcDbViewportTableRecord
  2
*ACTIVE
 70
0
 10
0.0
 20
0.0
 11
1.0
 21
1.0
 12
148.5
 22
105.0
 13
0.0
 23
0.0
 14
1.0
 24
1.0
 15
0.0
 25
0.0
 16
0.0
 26
0.0
 36
1.0
 17
0.0
 27
0.0
 37
0.0
 40
210.0
 41
1.4142857143
 42
50.0
 43
0.0
 44
0.0
 50
0.0
 51
0.0
 71
0
 72
100
 73
1
 74
1
 75
0
 76
0
 77
0
 78
0
  0
ENDTAB
  0
TABLE
  2
LTYPE
  5
5
100
AcDbSymbolTable
 70
6
  0
LTYPE
  5
14
100
AcDbSymbolTableRecord
100
AcDbLinetypeTableRecord
  2
BYBLOCK
 70
0
  3

 72
65
 73
0
 40
0.0
  0
LTYPE
  5
15
100
AcDbSymbolTableRecord
100
AcDbLinetypeTableRecord
  2
BYLAYER
 70
0
  3

 72
65
 73
0
 40
0.0
  0
LTYPE
  5
16
100
AcDbSymbolTableRecord
100
AcDbLinetypeTableRecord
  2
CONTINUOUS
 70
64
  3
Solid line
 72
65
 73
0
 40
0.0
  0
LTYPE
  5
1F5
100
AcDbSymbolTableRecord
100
AcDbLinetypeTableRecord
  2
CENTER
 70
64
  3
____ _ ____ _ ____ _ ____ _ ____ _ ____ _ ____
 72
65
 73
4
 40
0.6
 49
0.375
 74
0
 49
-0.075
 74
0
 49
0.075
 74
0
 49
-0.075
 74
0
  0
LTYPE
  5
1F6
100
AcDbSymbolTableRecord
100
AcDbLinetypeTableRecord
  2
HIDDEN
 70
64
  3
- - - - - - - - - - - - - - - - - - - -
 72
65
 73
2
 40
0.2
 49
0.1
 74
0
 49
-0.1
 74
0
  0
LTYPE
  5
1F7
100
AcDbSymbolTableRecord
100
AcDbLinetypeTableRecord
  2
PHANTOM
 70
64
  3
_____ _ _ _____ _ _ _____ _ _ _____
 72
65
 73
6
 40
0.8
 49
0.45
 74
0
 49
-0.05
 74
0
 49
0.1
 74
0
 49
-0.05
 74
0
 49
0.1
 74
0
 49
-0.05
 74
0
  0
LTYPE
  5
1F8
100
AcDbSymbolTableRecord
100
AcDbLinetypeTableRecord
  2
DOT
 70
64
  3
. . . . . . . . . . . . . . . . . . . .
 72
65
 73
2
 40
0.2
 49
0.1
 74
0
 49
-0.1
 74
0
  0
LTYPE
  5
1F9
100
AcDbSymbolTableRecord
100
AcDbLinetypeTableRecord
  2
DASHED
 70
64
  3
- - - - - - - - - - - - - - - - - - - -
 72
65
 73
2
 40
0.2
 49
0.1
 74
0
 49
-0.1
 74
0
  0
ENDTAB
  0
TABLE
  2
LAYER
  5
2
100
AcDbSymbolTable
 70
36
  0
LAYER
  5
10
100
AcDbSymbolTableRecord
100
AcDbLayerTableRecord
  2
0
 70
0
 62
7
  6
CONTINUOUS
370
-3
390
F
  0
LAYER
  5
1FA
100
AcDbSymbolTableRecord
100
AcDbLayerTableRecord
  2
DEFAULT_1
 70
0
 62
7
  6
CENTER
370
-3
390
F
  0
LAYER
  5
1FB
100
AcDbSymbolTableRecord
100
AcDbLayerTableRecord
  2
DEFAULT_2
 70
0
 62
7
  6
HIDDEN
370
-3
390
F
  0
LAYER
  5
1FC
100
AcDbSymbolTableRecord
100
AcDbLayerTableRecord
  2
DEFAULT_3
 70
0
 62
7
  6
PHANTOM
370
-3
390
F
  0
LAYER
  5
1FD
100
AcDbSymbolTableRecord
100
AcDbLayerTableRecord
  2
ASSI
 70
0
 62
7
  6
CONTINUOUS
370
-3
390
F
  0
LAYER
  5
1FE
100
AcDbSymbolTableRecord
100
AcDbLayerTableRecord
  2
COORDINATE
 70
0
 62
7
  6
CONTINUOUS
370
-3
390
F
  0
LAYER
  5
1FF
100
AcDbSymbolTableRecord
100
AcDbLayerTableRecord
  2
COORD_ORIGINE
 70
0
 62
7
  6
CONTINUOUS
370
-3
390
F
  0
LAYER
  5
200
100
AcDbSymbolTableRecord
100
AcDbLayerTableRecord
  2
COSMETICI
 70
0
 62
7
  6
CONTINUOUS
370
-3
390
F
  0
LAYER
  5
201
100
AcDbSymbolTableRecord
100
AcDbLayerTableRecord
  2
CURVE
 70
0
 62
7
  6
CONTINUOUS
370
-3
390
F
  0
LAYER
  5
202
100
AcDbSymbolTableRecord
100
AcDbLayerTableRecord
  2
NOTE
 70
0
 62
7
  6
CONTINUOUS
370
-3
390
F
  0
LAYER
  5
203
100
AcDbSymbolTableRecord
100
AcDbLayerTableRecord
  2
PIANI
 70
0
 62
7
  6
CONTINUOUS
370
-3
390
F
  0
LAYER
  5
204
100
AcDbSymbolTableRecord
100
AcDbLayerTableRecord
  2
PIANI_ORIGINE
 70
0
 62
7
  6
CONTINUOUS
370
-3
390
F
  0
LAYER
  5
205
100
AcDbSymbolTableRecord
100
AcDbLayerTableRecord
  2
PUNTI
 70
0
 62
7
  6
CONTINUOUS
370
-3
390
F
  0
LAYER
  5
206
100
AcDbSymbolTableRecord
100
AcDbLayerTableRecord
  2
RACCORDO
 70
0
 62
7
  6
CONTINUOUS
370
-3
390
F
  0
LAYER
  5
207
100
AcDbSymbolTableRecord
100
AcDbLayerTableRecord
  2
SIMBOLI
 70
0
 62
7
  6
CONTINUOUS
370
-3
390
F
  0
LAYER
  5
208
100
AcDbSymbolTableRecord
100
AcDbLayerTableRecord
  2
SMUSSO
 70
0
 62
7
  6
CONTINUOUS
370
-3
390
F
  0
LAYER
  5
209
100
AcDbSymbolTableRecord
100
AcDbLayerTableRecord
  2
SNAPLINE
 70
0
 62
7
  6
CONTINUOUS
370
-3
390
F
  0
LAYER
  5
20A
100
AcDbSymbolTableRecord
100
AcDbLayerTableRecord
  2
SUPERFICI
 70
0
 62
7
  6
CONTINUOUS
370
-3
390
F
  0
LAYER
  5
20B
100
AcDbSymbolTableRecord
100
AcDbLayerTableRecord
  2
TRASH
 70
0
 62
7
  6
CONTINUOUS
370
-3
390
F
  0
ENDTAB
  0
TABLE
  2
STYLE
  5
3
100
AcDbSymbolTable
 70
1
  0
STYLE
  5
11
100
AcDbSymbolTableRecord
100
AcDbTextStyleTableRecord
  2
STANDARD
 70
0
 40
0.0
 41
0.8
 50
0.0
 71
0
 42
0.2
  3
txt
  4

  0
STYLE
  5
20C
100
AcDbSymbolTableRecord
100
AcDbTextStyleTableRecord
  2
TEXTSTYLE_1
 70
0
 40
0.0
 41
0.8
 50
0.0
 71
0
 42
0.2
  3
gdt
  4

  0
ENDTAB
  0
TABLE
  2
VIEW
  5
6
100
AcDbSymbolTable
 70
0
  0
ENDTAB
  0
TABLE
  2
UCS
  5
7
100
AcDbSymbolTable
 70
0
  0
ENDTAB
  0
TABLE
  2
APPID
  5
9
100
AcDbSymbolTable
 70
1
  0
APPID
  5
20D
100
AcDbSymbolTableRecord
100
AcDbRegAppTableRecord
  2
ACAD
 70
0
  0
ENDTAB
  0
TABLE
  2
BLOCK_RECORD
  5
1
100
AcDbSymbolTable
 70
0
  0
BLOCK_RECORD
  5
20E
100
AcDbSymbolTableRecord
100
AcDbBlockTableRecord
  2
*Model_Space
  0
BLOCK_RECORD
  5
20F
100
AcDbSymbolTableRecord
100
AcDbBlockTableRecord
  2
*Paper_Space
  0
BLOCK_RECORD
  5
210
100
AcDbSymbolTableRecord
100
AcDbBlockTableRecord
  2
_FILLED
  0
BLOCK_RECORD
  5
211
100
AcDbSymbolTableRecord
100
AcDbBlockTableRecord
  2
*D0
  0
BLOCK_RECORD
  5
212
100
AcDbSymbolTableRecord
100
AcDbBlockTableRecord
  2
*D1
  0
BLOCK_RECORD
  5
213
100
AcDbSymbolTableRecord
100
AcDbBlockTableRecord
  2
*D2
  0
ENDTAB
  0
TABLE
  2
DIMSTYLE
  5
A
100
AcDbSymbolTable
 70
1
100
AcDbDimStyleTable
 71
0
  0
DIMSTYLE
105
214
100
AcDbSymbolTableRecord
100
AcDbDimStyleTableRecord
  2
STANDARD
 70
0
  3

  4

 40
1.0
 41
3.0
 42
0.5
 43
0.38
 44
1.5
 45
0.0
 46
0.0
 47
0.01
 48
0.01
140
3.0
141
0.09
142
0.0
143
25.4
144
1.0
145
0.0
146
1.0
147
0.625
 71
1.0
 72
0.0
 73
0
 74
0
 75
0
 76
0
 77
1
 78
8
170
0
171
2
172
0
173
0
174
0
175
0
176
0
177
0
178
0
270
2
271
2
272
2
273
2
274
2
275
0
280
0
281
0
282
0
283
1
284
8
285
0
286
0
287
3
288
0
340
11
278
44
341
210
342
210
343
210
344
210
  0
DIMSTYLE
105
215
100
AcDbSymbolTableRecord
100
AcDbDimStyleTableRecord
  2
DIMSTYLE_1
 70
0
  3

  4

 40
1.0
 41
3.0
 42
0.5
 43
0.38
 44
1.5
 45
0.0
 46
0.0
 47
0.0
 48
0.0
140
3.0
141
0.09
142
0.0
143
25.4
144
1.0
145
0.0
146
1.0
147
0.75
 71
0.0
 72
0.0
 73
0
 74
0
 75
0
 76
0
 77
1
 78
8
170
0
171
2
172
0
173
0
174
0
175
0
176
0
177
0
178
0
270
2
271
2
272
2
273
2
274
2
275
0
280
0
281
0
282
0
283
1
284
8
285
0
286
0
287
3
288
0
340
11
278
44
341
210
342
210
343
210
344
210
  0
ENDTAB
  0
ENDSEC
  0
SECTION
  2
BLOCKS
  0
BLOCK
  5
20
100
AcDbEntity
  8
0
100
AcDbBlockBegin
  2
*Model_Space
 70
0
 10
0.0
 20
0.0
 30
0.0
  3
*Model_Space
  1

  0
ENDBLK
  5
21
100
AcDbEntity
  8
0
100
AcDbBlockEnd
  0
BLOCK
  5
1C
100
AcDbEntity
  8
0
100
AcDbBlockBegin
  2
*Paper_Space
 70
0
 10
0.0
 20
0.0
 30
0.0
  3
*Paper_Space
  1

  0
ENDBLK
  5
1D
100
AcDbEntity
  8
0
100
AcDbBlockEnd
  0
BLOCK
  5
216
100
AcDbEntity
  8
0
100
AcDbBlockBegin
  2
_FILLED
 70
64
 10
0.0
 20
0.0
  3
_FILLED
  1

  0
SOLID
  5
217
100
AcDbEntity
  8
0
  6
BYBLOCK
 62
0
100
AcDbTrace
 10
0.0
 20
0.0
 11
-1.0
 21
0.3166666667
 12
-1.0
 22
-0.3166666667
 13
-1.0
 23
-0.3166666667
  0
ENDBLK
  5
218
100
AcDbEntity
  8
0
  6
BYBLOCK
 62
0
100
AcDbBlockEnd
  0
BLOCK
  5
219
100
AcDbEntity
  8
0
100
AcDbBlockBegin
 62
7
  6
CONTINUOUS
  2
*D0
 70
65
 10
0.0
 20
0.0
  3
*D0
  1

  0
MTEXT
  5
21A
100
AcDbEntity
  8
0
100
AcDbMText
 62
7
  6
CONTINUOUS
  7
STANDARD
 71
2
 72
1
 10
122.4515212611
 20
122.715752551
 30
0.0
 11
1.0
 21
0.0
 31
0.0
 44
0.9
  1
29,6
 40
3.0
 41
8.7857142857
  0
LINE
  5
21B
100
AcDbEntity
  8
0
100
AcDbLine
 62
7
  6
CONTINUOUS
 10
138.6553911174
 20
103.965752551
 11
138.6553911174
 21
120.465752551
  0
LINE
  5
21C
100
AcDbEntity
  8
0
100
AcDbLine
 62
7
  6
CONTINUOUS
 10
109.0553911174
 20
109.465752551
 11
109.0553911174
 21
120.465752551
  0
LINE
  5
21D
100
AcDbEntity
  8
0
100
AcDbLine
 62
7
  6
CONTINUOUS
 10
138.6553911174
 20
118.965752551
 11
123.8553911174
 21
118.965752551
  0
LINE
  5
21E
100
AcDbEntity
  8
0
100
AcDbLine
 62
7
  6
CONTINUOUS
 10
109.0553911174
 20
118.965752551
 11
123.8553911174
 21
118.965752551
  0
INSERT
  5
21F
100
AcDbEntity
  8
0
100
AcDbBlockReference
 62
7
  6
CONTINUOUS
  2
_FILLED
 10
138.6553911174
 20
118.965752551
 41
3.0
 42
3.0
 43
3.0
  0
INSERT
  5
220
100
AcDbEntity
  8
0
100
AcDbBlockReference
 62
7
  6
CONTINUOUS
  2
_FILLED
 10
109.0553911174
 20
118.965752551
 41
3.0
 42
3.0
 43
3.0
 50
180.0
  0
ENDBLK
  5
221
100
AcDbEntity
  8
0
  6
BYBLOCK
 62
0
100
AcDbBlockEnd
  0
BLOCK
  5
222
100
AcDbEntity
  8
0
100
AcDbBlockBegin
 62
7
  6
CONTINUOUS
  2
*D1
 70
65
 10
0.0
 20
0.0
  3
*D1
  1

  0
MTEXT
  5
223
100
AcDbEntity
  8
0
100
AcDbMText
 62
7
  6
CONTINUOUS
  7
STANDARD
 71
2
 72
1
 10
166.0677628929
 20
122.715752551
 30
0.0
 11
1.0
 21
0.0
 31
0.0
 44
0.9
  1
35
 40
3.0
 41
4.2857142857
  0
LINE
  5
224
100
AcDbEntity
  8
0
100
AcDbLine
 62
7
  6
CONTINUOUS
 10
147.3653061224
 20
111.465752551
 11
147.3653061224
 21
120.465752551
  0
LINE
  5
225
100
AcDbEntity
  8
0
100
AcDbLine
 62
7
  6
CONTINUOUS
 10
182.3653061224
 20
111.465752551
 11
182.3653061224
 21
120.465752551
  0
LINE
  5
226
100
AcDbEntity
  8
0
100
AcDbLine
 62
7
  6
CONTINUOUS
 10
147.3653061224
 20
118.965752551
 11
164.8653061224
 21
118.965752551
  0
LINE
  5
227
100
AcDbEntity
  8
0
100
AcDbLine
 62
7
  6
CONTINUOUS
 10
182.3653061224
 20
118.965752551
 11
164.8653061224
 21
118.965752551
  0
INSERT
  5
228
100
AcDbEntity
  8
0
100
AcDbBlockReference
 62
7
  6
CONTINUOUS
  2
_FILLED
 10
147.3653061224
 20
118.965752551
 41
3.0
 42
3.0
 43
3.0
 50
180.0
  0
INSERT
  5
229
100
AcDbEntity
  8
0
100
AcDbBlockReference
 62
7
  6
CONTINUOUS
  2
_FILLED
 10
182.3653061224
 20
118.965752551
 41
3.0
 42
3.0
 43
3.0
 50
0.0
  0
ENDBLK
  5
22A
100
AcDbEntity
  8
0
  6
BYBLOCK
 62
0
100
AcDbBlockEnd
  0
BLOCK
  5
22B
100
AcDbEntity
  8
0
100
AcDbBlockBegin
 62
7
  6
CONTINUOUS
  2
*D2
 70
65
 10
0.0
 20
0.0
  3
*D2
  1

  0
MTEXT
  5
22C
100
AcDbEntity
  8
0
100
AcDbMText
 62
7
  6
CONTINUOUS
  7
STANDARD
 71
2
 72
1
 10
186.6153061224
 20
103.465752551
 30
0.0
 11
0.0
 21
1.0
 31
0.0
 44
0.9
  1
15
 40
3.0
 41
3.8571428571
  0
LINE
  5
22D
100
AcDbEntity
  8
0
100
AcDbLine
 62
7
  6
CONTINUOUS
 10
182.8653061224
 20
110.965752551
 11
191.8653061224
 21
110.965752551
  0
LINE
  5
22E
100
AcDbEntity
  8
0
100
AcDbLine
 62
7
  6
CONTINUOUS
 10
182.8653061224
 20
95.965752551
 11
191.8653061224
 21
95.965752551
  0
LINE
  5
22F
100
AcDbEntity
  8
0
100
AcDbLine
 62
7
  6
CONTINUOUS
 10
190.3653061224
 20
110.965752551
 11
190.3653061224
 21
103.465752551
  0
LINE
  5
230
100
AcDbEntity
  8
0
100
AcDbLine
 62
7
  6
CONTINUOUS
 10
190.3653061224
 20
95.965752551
 11
190.3653061224
 21
103.465752551
  0
INSERT
  5
231
100
AcDbEntity
  8
0
100
AcDbBlockReference
 62
7
  6
CONTINUOUS
  2
_FILLED
 10
190.3653061224
 20
110.965752551
 41
3.0
 42
3.0
 43
3.0
 50
90.0
  0
INSERT
  5
232
100
AcDbEntity
  8
0
100
AcDbBlockReference
 62
7
  6
CONTINUOUS
  2
_FILLED
 10
190.3653061224
 20
95.965752551
 41
3.0
 42
3.0
 43
3.0
 50
270.0
  0
ENDBLK
  5
233
100
AcDbEntity
  8
0
  6
BYBLOCK
 62
0
100
AcDbBlockEnd
  0
ENDSEC
  0
SECTION
  2
ENTITIES
  0
DIMENSION
  5
234
100
AcDbEntity
  8
0
100
AcDbDimension
 62
7
  6
CONTINUOUS
  2
*D0
 10
109.0553911174
 20
118.965752551
 11
122.4515212611
 21
118.965752551
 70
160
 71
2
 42
29.6
  3
DIMSTYLE_1
100
AcDbAlignedDimension
 13
138.6553911174
 23
103.465752551
 14
109.0553911174
 24
108.965752551
 50
180.0
100
AcDbRotatedDimension
  0
DIMENSION
  5
235
100
AcDbEntity
  8
0
100
AcDbDimension
 62
7
  6
CONTINUOUS
  2
*D1
 10
182.3653061224
 20
118.965752551
 11
166.0677628929
 21
118.965752551
 70
160
 71
2
 42
35.0
  3
DIMSTYLE_1
100
AcDbAlignedDimension
 13
147.3653061224
 23
110.965752551
 14
182.3653061224
 24
110.965752551
100
AcDbRotatedDimension
  0
DIMENSION
  5
236
100
AcDbEntity
  8
0
100
AcDbDimension
 62
7
  6
CONTINUOUS
  2
*D2
 10
190.3653061224
 20
95.965752551
 11
190.3653061224
 21
103.465752551
 70
160
 71
2
 42
15.0
  3
DIMSTYLE_1
100
AcDbAlignedDimension
 13
182.3653061224
 23
110.965752551
 14
182.3653061224
 24
95.965752551
 50
270.0
100
AcDbRotatedDimension
  0
LINE
  5
237
100
AcDbEntity
  8
0
100
AcDbLine
 62
7
  6
CONTINUOUS
 10
147.3653061224
 20
110.965752551
 11
147.3653061224
 21
106.965752551
  0
LINE
  5
238
100
AcDbEntity
  8
0
100
AcDbLine
 62
7
  6
CONTINUOUS
 10
147.3653061224
 20
99.965752551
 11
147.3653061224
 21
95.965752551
  0
LINE
  5
239
100
AcDbEntity
  8
0
100
AcDbLine
 62
7
  6
CONTINUOUS
 10
148.8653061224
 20
99.965752551
 11
148.8653061224
 21
106.965752551
  0
LWPOLYLINE
  5
23A
100
AcDbEntity
  8
0
100
AcDbPolyline
 62
7
  6
CONTINUOUS
 90
13
 70
0
 10
149.566447713
 20
108.965752551
 10
149.569360225
 20
108.925542205
 10
149.5769433056
 20
108.8872738618
 10
149.5891969549
 20
108.8509475213
 10
149.6064864628
 20
108.8160144002
 10
149.6284465394
 20
108.7830232818
 10
149.6539813145
 20
108.7536205167
 10
149.6832721933
 20
108.7279882029
 10
149.7161377705
 20
108.7059442423
 10
149.7509379605
 20
108.6885886913
 10
149.7871260683
 20
108.6762882351
 10
149.8252487889
 20
108.6686761883
 10
149.8653061224
 20
108.665752551
  0
LWPOLYLINE
  5
23B
100
AcDbEntity
  8
0
100
AcDbPolyline
 62
253
  6
CONTINUOUS
 90
13
 70
0
 10
150.2378629684
 20
108.965752551
 10
150.2404197435
 20
108.9265946934
 10
150.2480463217
 20
108.8881068375
 10
150.2606122102
 20
108.8509475213
 10
150.2779024031
 20
108.815752551
 10
150.2996210604
 20
108.7831241223
 10
150.3253965699
 20
108.7536205167
 10
150.3547879054
 20
108.7277465489
 10
150.3872921731
 20
108.7059449299
 10
150.4223532159
 20
108.6885886913
 10
150.4593711296
 20
108.6759748031
 10
150.4977125276
 20
108.6683190926
 10
150.5367213778
 20
108.665752551
  0
LINE
  5
23C
100
AcDbEntity
  8
0
100
AcDbLine
 62
253
  6
CONTINUOUS
 10
153.3653061224
 20
98.665752551
 11
153.3653061224
 21
99.265752551
  0
LWPOLYLINE
  5
23D
100
AcDbEntity
  8
ASSI
100
AcDbPolyline
 62
7
  6
CONTINUOUS
 90
17
 70
0
 10
153.3723963515
 20
109.265752551
 10
153.3747311217
 20
109.2763354051
 10
153.4060972241
 20
109.3758900251
 10
153.4462067611
 20
109.4730928996
 10
153.4941554472
 20
109.565752551
 10
153.5501213574
 20
109.6537657749
 10
153.6139264167
 20
109.7372357756
 10
153.6841321143
 20
109.8142806884
 10
153.760883848
 20
109.8847545605
 10
153.8440362202
 20
109.9488033447
 10
153.9317145272
 20
110.0049830356
 10
154.0240215806
 20
110.0531148779
 10
154.1208545689
 20
110.0933776268
 10
154.2200303534
 20
110.1248635426
 10
154.3216021534
 20
110.1473732496
 10
154.4255167497
 20
110.1611061235
 10
154.529431346
 20
110.165752551
  0
LINE
  5
23E
100
AcDbEntity
  8
ASSI
100
AcDbLine
 62
7
  6
CONTINUOUS
 10
154.3653061224
 20
101.965752551
 11
154.3653061224
 21
95.965752551
  0
LWPOLYLINE
  5
23F
100
AcDbEntity
  8
ASSI
100
AcDbPolyline
 62
7
  6
CONTINUOUS
 90
15
 70
0
 10
154.8282897554
 20
108.965752551
 10
154.8260456164
 20
108.9301754475
 10
154.8200378272
 20
108.8959734331
 10
154.810266388
 20
108.863146508
 10
154.7964994672
 20
108.8312915944
 10
154.7789688964
 20
108.8008117701
 10
154.7583701698
 20
108.7729162681
 10
154.7345799327
 20
108.747708991
 10
154.7077215399
 20
108.7250860364
 10
154.6788605507
 20
108.7059449299
 10
154.6479164509
 20
108.690425659
 10
154.6149697548
 20
108.6783882362
 10
154.5813275642
 20
108.6703102251
 10
154.5469619169
 20
108.6663508135
 10
154.529431346
 20
108.665855887
  0
LWPOLYLINE
  5
240
100
AcDbEntity
  8
0
100
AcDbPolyline
 62
253
  6
CONTINUOUS
 90
13
 70
0
 10
154.8203585796
 20
108.965752551
 10
154.8178018045
 20
108.9265946934
 10
154.8101752262
 20
108.8881068375
 10
154.7976093378
 20
108.8509475213
 10
154.7803191449
 20
108.815752551
 10
154.7586004876
 20
108.7831241223
 10
154.7328249781
 20
108.7536205167
 10
154.7034336426
 20
108.7277465489
 10
154.6709293749
 20
108.7059449299
 10
154.6358683321
 20
108.6885886913
 10
154.5988504183
 20
108.6759748031
 10
154.5605090204
 20
108.6683190926
 10
154.5215001702
 20
108.665752551
  0
LWPOLYLINE
  5
241
100
AcDbEntity
  8
ASSI
100
AcDbPolyline
 62
7
  6
CONTINUOUS
 90
17
 70
0
 10
153.3723963515
 20
108.665752551
 10
153.3747311217
 20
108.6551696969
 10
153.4060972241
 20
108.555615077
 10
153.4462067611
 20
108.4584122024
 10
153.4941554472
 20
108.365752551
 10
153.5501213574
 20
108.2777393272
 10
153.6139264167
 20
108.1942693265
 10
153.6841321143
 20
108.1172244136
 10
153.760883848
 20
108.0467505416
 10
153.8440362202
 20
107.9827017574
 10
153.9317145272
 20
107.9265220665
 10
154.0240215806
 20
107.8783902242
 10
154.1208545689
 20
107.8381274752
 10
154.2200303534
 20
107.8066415595
 10
154.3216021534
 20
107.7841318524
 10
154.4255167497
 20
107.7703989786
 10
154.529431346
 20
107.765752551
  0
LINE
  5
242
100
AcDbEntity
  8
ASSI
100
AcDbLine
 62
7
  6
CONTINUOUS
 10
175.3653061224
 20
95.965752551
 11
171.3653061224
 21
95.965752551
  0
LINE
  5
243
100
AcDbEntity
  8
0
100
AcDbLine
 62
7
  6
CONTINUOUS
 10
147.3653061224
 20
95.965752551
 11
154.3653061224
 21
95.965752551
  0
LINE
  5
244
100
AcDbEntity
  8
ASSI
100
AcDbLine
 62
7
  6
CONTINUOUS
 10
154.3653061224
 20
95.965752551
 11
158.3653061224
 21
95.965752551
  0
LINE
  5
245
100
AcDbEntity
  8
0
100
AcDbLine
 62
7
  6
CONTINUOUS
 10
158.3653061224
 20
95.965752551
 11
171.3653061224
 21
95.965752551
  0
LINE
  5
246
100
AcDbEntity
  8
0
100
AcDbLine
 62
7
  6
CONTINUOUS
 10
175.3653061224
 20
95.965752551
 11
182.3653061224
 21
95.965752551
  0
LWPOLYLINE
  5
247
100
AcDbEntity
  8
0
100
AcDbPolyline
 62
7
  6
CONTINUOUS
 90
13
 70
0
 10
158.066447713
 20
108.965752551
 10
158.069360225
 20
108.925542205
 10
158.0769433056
 20
108.8872738618
 10
158.0891969549
 20
108.8509475213
 10
158.1064864628
 20
108.8160144002
 10
158.1284465394
 20
108.7830232818
 10
158.1539813145
 20
108.7536205167
 10
158.1832721933
 20
108.7279882029
 10
158.2161377705
 20
108.7059442423
 10
158.2509379605
 20
108.6885886913
 10
158.2871260683
 20
108.6762882351
 10
158.3252487889
 20
108.6686761883
 10
158.3653061224
 20
108.665752551
  0
LINE
  5
248
100
AcDbEntity
  8
ASSI
100
AcDbLine
 62
7
  6
CONTINUOUS
 10
158.3653061224
 20
101.965752551
 11
158.3653061224
 21
95.965752551
  0
LINE
  5
249
100
AcDbEntity
  8
ASSI
100
AcDbLine
 62
7
  6
CONTINUOUS
 10
171.3653061224
 20
96.465752551
 11
170.3653061224
 21
96.465752551
  0
LINE
  5
24A
100
AcDbEntity
  8
ASSI
100
AcDbLine
 62
7
  6
CONTINUOUS
 10
158.3653061224
 20
96.465752551
 11
159.3653061224
 21
96.465752551
  0
LINE
  5
24B
100
AcDbEntity
  8
ASSI
100
AcDbLine
 62
7
  6
CONTINUOUS
 10
159.3653061224
 20
96.715752551
 11
170.3653061224
 21
96.715752551
  0
LWPOLYLINE
  5
24C
100
AcDbEntity
  8
0
100
AcDbPolyline
 62
253
  6
CONTINUOUS
 90
13
 70
0
 10
158.7378629684
 20
108.965752551
 10
158.7404197435
 20
108.9265946934
 10
158.7480463217
 20
108.8881068375
 10
158.7606122102
 20
108.8509475213
 10
158.7779024031
 20
108.815752551
 10
158.7996210604
 20
108.7831241223
 10
158.8253965699
 20
108.7536205167
 10
158.8547879054
 20
108.7277465489
 10
158.8872921731
 20
108.7059449299
 10
158.9223532159
 20
108.6885886913
 10
158.9593711296
 20
108.6759748031
 10
158.9977125276
 20
108.6683190926
 10
159.0367213778
 20
108.665752551
  0
LINE
  5
24D
100
AcDbEntity
  8
ASSI
100
AcDbLine
 62
7
  6
CONTINUOUS
 10
159.3653061224
 20
101.465752551
 11
159.3653061224
 21
96.465752551
  0
LWPOLYLINE
  5
24E
100
AcDbEntity
  8
ASSI
100
AcDbPolyline
 62
7
  6
CONTINUOUS
 90
17
 70
0
 10
161.8723963515
 20
109.265752551
 10
161.8747311217
 20
109.2763354051
 10
161.9060972241
 20
109.3758900251
 10
161.9462067611
 20
109.4730928996
 10
161.9941554472
 20
109.565752551
 10
162.0501213574
 20
109.6537657749
 10
162.1139264167
 20
109.7372357756
 10
162.1841321143
 20
109.8142806884
 10
162.260883848
 20
109.8847545605
 10
162.3440362202
 20
109.9488033447
 10
162.4317145272
 20
110.0049830356
 10
162.5240215806
 20
110.0531148779
 10
162.6208545689
 20
110.0933776268
 10
162.7200303534
 20
110.1248635426
 10
162.8216021534
 20
110.1473732496
 10
162.9255167497
 20
110.1611061235
 10
163.029431346
 20
110.165752551
  0
LINE
  5
24F
100
AcDbEntity
  8
0
100
AcDbLine
 62
7
  6
CONTINUOUS
 10
154.3653061224
 20
98.665752551
 11
152.8653061224
 21
98.665752551
  0
LINE
  5
250
100
AcDbEntity
  8
0
100
AcDbLine
 62
7
  6
CONTINUOUS
 10
175.3653061224
 20
98.665752551
 11
176.8653061224
 21
98.665752551
  0
LINE
  5
251
100
AcDbEntity
  8
0
100
AcDbLine
 62
7
  6
CONTINUOUS
 10
154.3653061224
 20
99.265752551
 11
152.8653061224
 21
99.265752551
  0
LINE
  5
252
100
AcDbEntity
  8
0
100
AcDbLine
 62
7
  6
CONTINUOUS
 10
175.3653061224
 20
99.265752551
 11
176.8653061224
 21
99.265752551
  0
LINE
  5
253
100
AcDbEntity
  8
0
100
AcDbLine
 62
7
  6
CONTINUOUS
 10
182.3653061224
 20
99.965752551
 11
180.8653061224
 21
99.965752551
  0
LINE
  5
254
100
AcDbEntity
  8
0
100
AcDbLine
 62
7
  6
CONTINUOUS
 10
147.3653061224
 20
99.965752551
 11
148.8653061224
 21
99.965752551
  0
LWPOLYLINE
  5
255
100
AcDbEntity
  8
ASSI
100
AcDbPolyline
 62
7
  6
CONTINUOUS
 90
15
 70
0
 10
163.3282897554
 20
108.965752551
 10
163.3260456164
 20
108.9301754475
 10
163.3200378272
 20
108.8959734331
 10
163.310266388
 20
108.863146508
 10
163.2964994672
 20
108.8312915944
 10
163.2789688964
 20
108.8008117701
 10
163.2583701698
 20
108.7729162681
 10
163.2345799327
 20
108.747708991
 10
163.2077215399
 20
108.7250860364
 10
163.1788605507
 20
108.7059449299
 10
163.1479164509
 20
108.690425659
 10
163.1149697548
 20
108.6783882362
 10
163.0813275642
 20
108.6703102251
 10
163.0469619169
 20
108.6663508135
 10
163.029431346
 20
108.665855887
  0
LWPOLYLINE
  5
256
100
AcDbEntity
  8
0
100
AcDbPolyline
 62
253
  6
CONTINUOUS
 90
13
 70
0
 10
163.3203585796
 20
108.965752551
 10
163.3178018045
 20
108.9265946934
 10
163.3101752262
 20
108.8881068375
 10
163.2976093378
 20
108.8509475213
 10
163.2803191449
 20
108.815752551
 10
163.2586004876
 20
108.7831241223
 10
163.2328249781
 20
108.7536205167
 10
163.2034336426
 20
108.7277465489
 10
163.1709293749
 20
108.7059449299
 10
163.1358683321
 20
108.6885886913
 10
163.0988504183
 20
108.6759748031
 10
163.0605090204
 20
108.6683190926
 10
163.0215001702
 20
108.665752551
  0
LINE
  5
257
100
AcDbEntity
  8
ASSI
100
AcDbLine
 62
7
  6
CONTINUOUS
 10
159.3653061224
 20
101.215752551
 11
170.3653061224
 21
101.215752551
  0
LINE
  5
258
100
AcDbEntity
  8
ASSI
100
AcDbLine
 62
7
  6
CONTINUOUS
 10
171.3653061224
 20
101.465752551
 11
170.3653061224
 21
101.465752551
  0
LINE
  5
259
100
AcDbEntity
  8
ASSI
100
AcDbLine
 62
7
  6
CONTINUOUS
 10
158.3653061224
 20
101.465752551
 11
159.3653061224
 21
101.465752551
  0
LINE
  5
25A
100
AcDbEntity
  8
ASSI
100
AcDbLine
 62
7
  6
CONTINUOUS
 10
175.3653061224
 20
101.965752551
 11
171.3653061224
 21
101.965752551
  0
LINE
  5
25B
100
AcDbEntity
  8
ASSI
100
AcDbLine
 62
7
  6
CONTINUOUS
 10
154.3653061224
 20
101.965752551
 11
158.3653061224
 21
101.965752551
  0
LWPOLYLINE
  5
25C
100
AcDbEntity
  8
ASSI
100
AcDbPolyline
 62
7
  6
CONTINUOUS
 90
17
 70
0
 10
161.8723963515
 20
108.665752551
 10
161.8747311217
 20
108.6551696969
 10
161.9060972241
 20
108.555615077
 10
161.9462067611
 20
108.4584122024
 10
161.9941554472
 20
108.365752551
 10
162.0501213574
 20
108.2777393272
 10
162.1139264167
 20
108.1942693265
 10
162.1841321143
 20
108.1172244136
 10
162.260883848
 20
108.0467505416
 10
162.3440362202
 20
107.9827017574
 10
162.4317145272
 20
107.9265220665
 10
162.5240215806
 20
107.8783902242
 10
162.6208545689
 20
107.8381274752
 10
162.7200303534
 20
107.8066415595
 10
162.8216021534
 20
107.7841318524
 10
162.9255167497
 20
107.7703989786
 10
163.029431346
 20
107.765752551
  0
LWPOLYLINE
  5
25D
100
AcDbEntity
  8
0
100
AcDbPolyline
 62
7
  6
CONTINUOUS
 90
13
 70
0
 10
166.566447713
 20
108.965752551
 10
166.569360225
 20
108.925542205
 10
166.5769433056
 20
108.8872738618
 10
166.5891969549
 20
108.8509475213
 10
166.6064864628
 20
108.8160144002
 10
166.6284465394
 20
108.7830232818
 10
166.6539813145
 20
108.7536205167
 10
166.6832721933
 20
108.7279882029
 10
166.7161377705
 20
108.7059442423
 10
166.7509379605
 20
108.6885886913
 10
166.7871260683
 20
108.6762882351
 10
166.8252487889
 20
108.6686761883
 10
166.8653061224
 20
108.665752551
  0
LWPOLYLINE
  5
25E
100
AcDbEntity
  8
0
100
AcDbPolyline
 62
253
  6
CONTINUOUS
 90
13
 70
0
 10
167.2378629684
 20
108.965752551
 10
167.2404197435
 20
108.9265946934
 10
167.2480463217
 20
108.8881068375
 10
167.2606122102
 20
108.8509475213
 10
167.2779024031
 20
108.815752551
 10
167.2996210604
 20
108.7831241223
 10
167.3253965699
 20
108.7536205167
 10
167.3547879054
 20
108.7277465489
 10
167.3872921731
 20
108.7059449299
 10
167.4223532159
 20
108.6885886913
 10
167.4593711296
 20
108.6759748031
 10
167.4977125276
 20
108.6683190926
 10
167.5367213778
 20
108.665752551
  0
LWPOLYLINE
  5
25F
100
AcDbEntity
  8
ASSI
100
AcDbPolyline
 62
7
  6
CONTINUOUS
 90
19
 70
0
 10
180.5087879311
 20
107.765752551
 10
180.6127025274
 20
107.7703989786
 10
180.7166171237
 20
107.7841318524
 10
180.8181889237
 20
107.8066415595
 10
180.9173647082
 20
107.8381274752
 10
181.0141976965
 20
107.8783902242
 10
181.10650475
 20
107.9265220665
 10
181.1941830569
 20
107.9827017574
 10
181.2773354291
 20
108.0467505416
 10
181.3540871628
 20
108.1172244136
 10
181.4242928605
 20
108.1942693265
 10
181.4880979197
 20
108.2777393272
 10
181.5440638299
 20
108.365752551
 10
181.592012516
 20
108.4584122024
 10
181.632122053
 20
108.555615077
 10
181.6634881554
 20
108.6551696969
 10
181.6858093945
 20
108.7563455696
 10
181.699387199
 20
108.8598731876
 10
181.7042215688
 20
108.965752551
  0
LWPOLYLINE
  5
260
100
AcDbEntity
  8
ASSI
100
AcDbPolyline
 62
7
  6
CONTINUOUS
 90
19
 70
0
 10
180.029431346
 20
107.765752551
 10
180.1333459423
 20
107.7703989786
 10
180.2372605386
 20
107.7841318524
 10
180.3388323386
 20
107.8066415595
 10
180.4380081231
 20
107.8381274752
 10
180.5348411114
 20
107.8783902242
 10
180.6271481649
 20
107.9265220665
 10
180.7148264718
 20
107.9827017574
 10
180.797978844
 20
108.0467505416
 10
180.8747305777
 20
108.1172244136
 10
180.9449362754
 20
108.1942693265
 10
181.0087413346
 20
108.2777393272
 10
181.0647072448
 20
108.365752551
 10
181.1126559309
 20
108.4584122024
 10
181.1527654679
 20
108.555615077
 10
181.1841315703
 20
108.6551696969
 10
181.2064528094
 20
108.7563455696
 10
181.2200306139
 20
108.8598731876
 10
181.2248649837
 20
108.965752551
  0
LWPOLYLINE
  5
261
100
AcDbEntity
  8
ASSI
100
AcDbPolyline
 62
7
  6
CONTINUOUS
 90
19
 70
0
 10
172.0087879311
 20
107.765752551
 10
172.1127025274
 20
107.7703989786
 10
172.2166171237
 20
107.7841318524
 10
172.3181889237
 20
107.8066415595
 10
172.4173647082
 20
107.8381274752
 10
172.5141976965
 20
107.8783902242
 10
172.60650475
 20
107.9265220665
 10
172.6941830569
 20
107.9827017574
 10
172.7773354291
 20
108.0467505416
 10
172.8540871628
 20
108.1172244136
 10
172.9242928605
 20
108.1942693265
 10
172.9880979197
 20
108.2777393272
 10
173.0440638299
 20
108.365752551
 10
173.092012516
 20
108.4584122024
 10
173.132122053
 20
108.555615077
 10
173.1634881554
 20
108.6551696969
 10
173.1858093945
 20
108.7563455696
 10
173.199387199
 20
108.8598731876
 10
173.2042215688
 20
108.965752551
  0
LINE
  5
262
100
AcDbEntity
  8
0
100
AcDbLine
 62
7
  6
CONTINUOUS
 10
182.3653061224
 20
106.965752551
 11
180.8653061224
 21
106.965752551
  0
LINE
  5
263
100
AcDbEntity
  8
0
100
AcDbLine
 62
7
  6
CONTINUOUS
 10
147.3653061224
 20
106.965752551
 11
148.8653061224
 21
106.965752551
  0
LWPOLYLINE
  5
264
100
AcDbEntity
  8
0
100
AcDbPolyline
 62
253
  6
CONTINUOUS
 90
12
 70
0
 10
154.5605090204
 20
109.2631860094
 10
154.5988504183
 20
109.2555302989
 10
154.6358683321
 20
109.2429164108
 10
154.6709293749
 20
109.2255601722
 10
154.7034336426
 20
109.2037585531
 10
154.7328249781
 20
109.1778845854
 10
154.7586004876
 20
109.1483809797
 10
154.7803191449
 20
109.115752551
 10
154.7976093378
 20
109.0805575807
 10
154.8101752262
 20
109.0433982646
 10
154.8178018045
 20
109.0049104087
 10
154.8203585796
 20
108.965752551
  0
LWPOLYLINE
  5
265
100
AcDbEntity
  8
ASSI
100
AcDbPolyline
 62
7
  6
CONTINUOUS
 90
17
 70
0
 10
170.3723963515
 20
109.265752551
 10
170.3747311217
 20
109.2763354051
 10
170.4060972241
 20
109.3758900251
 10
170.4462067611
 20
109.4730928996
 10
170.4941554472
 20
109.565752551
 10
170.5501213574
 20
109.6537657749
 10
170.6139264167
 20
109.7372357756
 10
170.6841321143
 20
109.8142806884
 10
170.760883848
 20
109.8847545605
 10
170.8440362202
 20
109.9488033447
 10
170.9317145272
 20
110.0049830356
 10
171.0240215806
 20
110.0531148779
 10
171.1208545689
 20
110.0933776268
 10
171.2200303534
 20
110.1248635426
 10
171.3216021534
 20
110.1473732496
 10
171.4255167497
 20
110.1611061235
 10
171.529431346
 20
110.165752551
  0
LWPOLYLINE
  5
266
100
AcDbEntity
  8
0
100
AcDbPolyline
 62
7
  6
CONTINUOUS
 90
13
 70
0
 10
175.3653061224
 20
109.265752551
 10
175.3252487889
 20
109.2628289137
 10
175.2871260683
 20
109.255216867
 10
175.2509379605
 20
109.2429164108
 10
175.2161377705
 20
109.2255608597
 10
175.1832721933
 20
109.2035168992
 10
175.1539813145
 20
109.1778845854
 10
175.1284465394
 20
109.1484818203
 10
175.1064864628
 20
109.1154907019
 10
175.0891969549
 20
109.0805575807
 10
175.0769433056
 20
109.0442312403
 10
175.069360225
 20
109.005962897
 10
175.066447713
 20
108.965752551
  0
LWPOLYLINE
  5
267
100
AcDbEntity
  8
0
100
AcDbPolyline
 62
253
  6
CONTINUOUS
 90
13
 70
0
 10
176.0367213778
 20
109.265752551
 10
175.9977125276
 20
109.2631860094
 10
175.9593711296
 20
109.2555302989
 10
175.9223532159
 20
109.2429164108
 10
175.8872921731
 20
109.2255601722
 10
175.8547879054
 20
109.2037585531
 10
175.8253965699
 20
109.1778845854
 10
175.7996210604
 20
109.1483809797
 10
175.7779024031
 20
109.115752551
 10
175.7606122102
 20
109.0805575807
 10
175.7480463217
 20
109.0433982646
 10
175.7404197435
 20
109.0049104087
 10
175.7378629684
 20
108.965752551
  0
LWPOLYLINE
  5
268
100
AcDbEntity
  8
ASSI
100
AcDbPolyline
 62
7
  6
CONTINUOUS
 90
19
 70
0
 10
171.529431346
 20
107.765752551
 10
171.6333459423
 20
107.7703989786
 10
171.7372605386
 20
107.7841318524
 10
171.8388323386
 20
107.8066415595
 10
171.9380081231
 20
107.8381274752
 10
172.0348411114
 20
107.8783902242
 10
172.1271481649
 20
107.9265220665
 10
172.2148264718
 20
107.9827017574
 10
172.297978844
 20
108.0467505416
 10
172.3747305777
 20
108.1172244136
 10
172.4449362754
 20
108.1942693265
 10
172.5087413346
 20
108.2777393272
 10
172.5647072448
 20
108.365752551
 10
172.6126559309
 20
108.4584122024
 10
172.6527654679
 20
108.555615077
 10
172.6841315703
 20
108.6551696969
 10
172.7064528094
 20
108.7563455696
 10
172.7200306139
 20
108.8598731876
 10
172.7248649837
 20
108.965752551
  0
LWPOLYLINE
  5
269
100
AcDbEntity
  8
ASSI
100
AcDbPolyline
 62
7
  6
CONTINUOUS
 90
19
 70
0
 10
163.5087879311
 20
107.765752551
 10
163.6127025274
 20
107.7703989786
 10
163.7166171237
 20
107.7841318524
 10
163.8181889237
 20
107.8066415595
 10
163.9173647082
 20
107.8381274752
 10
164.0141976965
 20
107.8783902242
 10
164.10650475
 20
107.9265220665
 10
164.1941830569
 20
107.9827017574
 10
164.2773354291
 20
108.0467505416
 10
164.3540871628
 20
108.1172244136
 10
164.4242928605
 20
108.1942693265
 10
164.4880979197
 20
108.2777393272
 10
164.5440638299
 20
108.365752551
 10
164.592012516
 20
108.4584122024
 10
164.632122053
 20
108.555615077
 10
164.6634881554
 20
108.6551696969
 10
164.6858093945
 20
108.7563455696
 10
164.699387199
 20
108.8598731876
 10
164.7042215688
 20
108.965752551
  0
LWPOLYLINE
  5
26A
100
AcDbEntity
  8
ASSI
100
AcDbPolyline
 62
7
  6
CONTINUOUS
 90
19
 70
0
 10
163.029431346
 20
107.765752551
 10
163.1333459423
 20
107.7703989786
 10
163.2372605386
 20
107.7841318524
 10
163.3388323386
 20
107.8066415595
 10
163.4380081231
 20
107.8381274752
 10
163.5348411114
 20
107.8783902242
 10
163.6271481649
 20
107.9265220665
 10
163.7148264718
 20
107.9827017574
 10
163.797978844
 20
108.0467505416
 10
163.8747305777
 20
108.1172244136
 10
163.9449362754
 20
108.1942693265
 10
164.0087413346
 20
108.2777393272
 10
164.0647072448
 20
108.365752551
 10
164.1126559309
 20
108.4584122024
 10
164.1527654679
 20
108.555615077
 10
164.1841315703
 20
108.6551696969
 10
164.2064528094
 20
108.7563455696
 10
164.2200306139
 20
108.8598731876
 10
164.2248649837
 20
108.965752551
  0
LWPOLYLINE
  5
26B
100
AcDbEntity
  8
ASSI
100
AcDbPolyline
 62
7
  6
CONTINUOUS
 90
19
 70
0
 10
155.0087879311
 20
107.765752551
 10
155.1127025274
 20
107.7703989786
 10
155.2166171237
 20
107.7841318524
 10
155.3181889237
 20
107.8066415595
 10
155.4173647082
 20
107.8381274752
 10
155.5141976965
 20
107.8783902242
 10
155.60650475
 20
107.9265220665
 10
155.6941830569
 20
107.9827017574
 10
155.7773354291
 20
108.0467505416
 10
155.8540871628
 20
108.1172244136
 10
155.9242928605
 20
108.1942693265
 10
155.9880979197
 20
108.2777393272
 10
156.0440638299
 20
108.365752551
 10
156.092012516
 20
108.4584122024
 10
156.132122053
 20
108.555615077
 10
156.1634881554
 20
108.6551696969
 10
156.1858093945
 20
108.7563455696
 10
156.199387199
 20
108.8598731876
 10
156.2042215688
 20
108.965752551
  0
LWPOLYLINE
  5
26C
100
AcDbEntity
  8
ASSI
100
AcDbPolyline
 62
7
  6
CONTINUOUS
 90
19
 70
0
 10
154.529431346
 20
107.765752551
 10
154.6333459423
 20
107.7703989786
 10
154.7372605386
 20
107.7841318524
 10
154.8388323386
 20
107.8066415595
 10
154.9380081231
 20
107.8381274752
 10
155.0348411114
 20
107.8783902242
 10
155.1271481649
 20
107.9265220665
 10
155.2148264718
 20
107.9827017574
 10
155.297978844
 20
108.0467505416
 10
155.3747305777
 20
108.1172244136
 10
155.4449362754
 20
108.1942693265
 10
155.5087413346
 20
108.2777393272
 10
155.5647072448
 20
108.365752551
 10
155.6126559309
 20
108.4584122024
 10
155.6527654679
 20
108.555615077
 10
155.6841315703
 20
108.6551696969
 10
155.7064528094
 20
108.7563455696
 10
155.7200306139
 20
108.8598731876
 10
155.7248649837
 20
108.965752551
  0
LINE
  5
26D
100
AcDbEntity
  8
ASSI
100
AcDbLine
 62
7
  6
CONTINUOUS
 10
180.5087879311
 20
107.765752551
 11
180.029431346
 21
107.765752551
  0
LINE
  5
26E
100
AcDbEntity
  8
ASSI
100
AcDbLine
 62
7
  6
CONTINUOUS
 10
172.0087879311
 20
107.765752551
 11
171.529431346
 21
107.765752551
  0
LINE
  5
26F
100
AcDbEntity
  8
ASSI
100
AcDbLine
 62
7
  6
CONTINUOUS
 10
163.5087879311
 20
107.765752551
 11
163.029431346
 21
107.765752551
  0
LINE
  5
270
100
AcDbEntity
  8
ASSI
100
AcDbLine
 62
7
  6
CONTINUOUS
 10
155.0087879311
 20
107.765752551
 11
154.529431346
 21
107.765752551
  0
LINE
  5
271
100
AcDbEntity
  8
0
100
AcDbLine
 62
7
  6
CONTINUOUS
 10
149.8653061224
 20
108.665752551
 11
154.529431346
 21
108.665752551
  0
LINE
  5
272
100
AcDbEntity
  8
0
100
AcDbLine
 62
7
  6
CONTINUOUS
 10
158.3653061224
 20
108.665752551
 11
163.029431346
 21
108.665752551
  0
LINE
  5
273
100
AcDbEntity
  8
0
100
AcDbLine
 62
7
  6
CONTINUOUS
 10
166.8653061224
 20
108.665752551
 11
171.529431346
 21
108.665752551
  0
LINE
  5
274
100
AcDbEntity
  8
0
100
AcDbLine
 62
7
  6
CONTINUOUS
 10
175.3653061224
 20
108.665752551
 11
180.029431346
 21
108.665752551
  0
LINE
  5
275
100
AcDbEntity
  8
0
100
AcDbLine
 62
253
  6
CONTINUOUS
 10
154.5215001702
 20
109.265752551
 11
154.5605090204
 21
109.2631860094
  0
LWPOLYLINE
  5
276
100
AcDbEntity
  8
ASSI
100
AcDbPolyline
 62
7
  6
CONTINUOUS
 90
14
 70
0
 10
154.5469619169
 20
109.2651542886
 10
154.5813275642
 20
109.2611948769
 10
154.6149697548
 20
109.2531168658
 10
154.6479164509
 20
109.2410794431
 10
154.6788605507
 20
109.2255601722
 10
154.7077215399
 20
109.2064190657
 10
154.7345799327
 20
109.183796111
 10
154.7583701698
 20
109.1585888339
 10
154.7789688964
 20
109.130693332
 10
154.7964994672
 20
109.1002135076
 10
154.810266388
 20
109.068358594
 10
154.8200378272
 20
109.0355316689
 10
154.8260456164
 20
109.0013296546
 10
154.8282897554
 20
108.965752551
  0
LINE
  5
277
100
AcDbEntity
  8
ASSI
100
AcDbLine
 62
7
  6
CONTINUOUS
 10
170.3653061224
 20
96.465752551
 11
170.3653061224
 21
101.465752551
  0
LINE
  5
278
100
AcDbEntity
  8
ASSI
100
AcDbLine
 62
7
  6
CONTINUOUS
 10
171.3653061224
 20
95.9658873478
 11
171.3653061224
 21
101.9656177543
  0
LWPOLYLINE
  5
279
100
AcDbEntity
  8
0
100
AcDbPolyline
 62
7
  6
CONTINUOUS
 90
13
 70
0
 10
166.8653061224
 20
109.265752551
 10
166.8252487889
 20
109.2628289137
 10
166.7871260683
 20
109.255216867
 10
166.7509379605
 20
109.2429164108
 10
166.7161377705
 20
109.2255608597
 10
166.6832721933
 20
109.2035168992
 10
166.6539813145
 20
109.1778845854
 10
166.6284465394
 20
109.1484818203
 10
166.6064864628
 20
109.1154907019
 10
166.5891969549
 20
109.0805575807
 10
166.5769433056
 20
109.0442312403
 10
166.569360225
 20
109.005962897
 10
166.566447713
 20
108.965752551
  0
LWPOLYLINE
  5
27A
100
AcDbEntity
  8
0
100
AcDbPolyline
 62
7
  6
CONTINUOUS
 90
13
 70
0
 10
158.3653061224
 20
109.265752551
 10
158.3252487889
 20
109.2628289137
 10
158.2871260683
 20
109.255216867
 10
158.2509379605
 20
109.2429164108
 10
158.2161377705
 20
109.2255608597
 10
158.1832721933
 20
109.2035168992
 10
158.1539813145
 20
109.1778845854
 10
158.1284465394
 20
109.1484818203
 10
158.1064864628
 20
109.1154907019
 10
158.0891969549
 20
109.0805575807
 10
158.0769433056
 20
109.0442312403
 10
158.069360225
 20
109.005962897
 10
158.066447713
 20
108.965752551
  0
LWPOLYLINE
  5
27B
100
AcDbEntity
  8
0
100
AcDbPolyline
 62
253
  6
CONTINUOUS
 90
13
 70
0
 10
167.5367213778
 20
109.265752551
 10
167.4977125276
 20
109.2631860094
 10
167.4593711296
 20
109.2555302989
 10
167.4223532159
 20
109.2429164108
 10
167.3872921731
 20
109.2255601722
 10
167.3547879054
 20
109.2037585531
 10
167.3253965699
 20
109.1778845854
 10
167.2996210604
 20
109.1483809797
 10
167.2779024031
 20
109.115752551
 10
167.2606122102
 20
109.0805575807
 10
167.2480463217
 20
109.0433982646
 10
167.2404197435
 20
109.0049104087
 10
167.2378629684
 20
108.965752551
  0
LWPOLYLINE
  5
27C
100
AcDbEntity
  8
0
100
AcDbPolyline
 62
253
  6
CONTINUOUS
 90
13
 70
0
 10
159.0367213778
 20
109.265752551
 10
158.9977125276
 20
109.2631860094
 10
158.9593711296
 20
109.2555302989
 10
158.9223532159
 20
109.2429164108
 10
158.8872921731
 20
109.2255601722
 10
158.8547879054
 20
109.2037585531
 10
158.8253965699
 20
109.1778845854
 10
158.7996210604
 20
109.1483809797
 10
158.7779024031
 20
109.115752551
 10
158.7606122102
 20
109.0805575807
 10
158.7480463217
 20
109.0433982646
 10
158.7404197435
 20
109.0049104087
 10
158.7378629684
 20
108.965752551
  0
LINE
  5
27D
100
AcDbEntity
  8
0
100
AcDbLine
 62
7
  6
CONTINUOUS
 10
149.8653061224
 20
109.265752551
 11
154.529431346
 21
109.265752551
  0
LINE
  5
27E
100
AcDbEntity
  8
0
100
AcDbLine
 62
7
  6
CONTINUOUS
 10
158.3653061224
 20
109.265752551
 11
163.029431346
 21
109.265752551
  0
LINE
  5
27F
100
AcDbEntity
  8
0
100
AcDbLine
 62
7
  6
CONTINUOUS
 10
166.8653061224
 20
109.265752551
 11
171.529431346
 21
109.265752551
  0
LINE
  5
280
100
AcDbEntity
  8
0
100
AcDbLine
 62
7
  6
CONTINUOUS
 10
175.3653061224
 20
109.265752551
 11
180.029431346
 21
109.265752551
  0
LINE
  5
281
100
AcDbEntity
  8
ASSI
100
AcDbLine
 62
7
  6
CONTINUOUS
 10
154.529431346
 20
109.265649215
 11
154.5469619169
 21
109.2651542886
  0
LINE
  5
282
100
AcDbEntity
  8
ASSI
100
AcDbLine
 62
7
  6
CONTINUOUS
 10
163.029431346
 20
109.265649215
 11
163.0469619169
 21
109.2651542886
  0
LINE
  5
283
100
AcDbEntity
  8
ASSI
100
AcDbLine
 62
7
  6
CONTINUOUS
 10
171.529431346
 20
109.265649215
 11
171.5469619169
 21
109.2651542886
  0
LINE
  5
284
100
AcDbEntity
  8
ASSI
100
AcDbLine
 62
7
  6
CONTINUOUS
 10
180.029431346
 20
109.265649215
 11
180.0469619169
 21
109.2651542886
  0
LWPOLYLINE
  5
285
100
AcDbEntity
  8
ASSI
100
AcDbPolyline
 62
7
  6
CONTINUOUS
 90
19
 70
0
 10
154.529431346
 20
110.165752551
 10
154.6333459423
 20
110.1611061235
 10
154.7372605386
 20
110.1473732496
 10
154.8388323386
 20
110.1248635426
 10
154.9380081231
 20
110.0933776268
 10
155.0348411114
 20
110.0531148779
 10
155.1271481649
 20
110.0049830356
 10
155.2148264718
 20
109.9488033447
 10
155.297978844
 20
109.8847545605
 10
155.3747305777
 20
109.8142806884
 10
155.4449362754
 20
109.7372357756
 10
155.5087413346
 20
109.6537657749
 10
155.5647072448
 20
109.565752551
 10
155.6126559309
 20
109.4730928996
 10
155.6527654679
 20
109.3758900251
 10
155.6841315703
 20
109.2763354051
 10
155.7064528094
 20
109.1751595325
 10
155.7200306139
 20
109.0716319144
 10
155.7248649837
 20
108.965752551
  0
LWPOLYLINE
  5
286
100
AcDbEntity
  8
ASSI
100
AcDbPolyline
 62
7
  6
CONTINUOUS
 90
19
 70
0
 10
155.0087879311
 20
110.165752551
 10
155.1127025274
 20
110.1611061235
 10
155.2166171237
 20
110.1473732496
 10
155.3181889237
 20
110.1248635426
 10
155.4173647082
 20
110.0933776268
 10
155.5141976965
 20
110.0531148779
 10
155.60650475
 20
110.0049830356
 10
155.6941830569
 20
109.9488033447
 10
155.7773354291
 20
109.8847545605
 10
155.8540871628
 20
109.8142806884
 10
155.9242928605
 20
109.7372357756
 10
155.9880979197
 20
109.6537657749
 10
156.0440638299
 20
109.565752551
 10
156.092012516
 20
109.4730928996
 10
156.132122053
 20
109.3758900251
 10
156.1634881554
 20
109.2763354051
 10
156.1858093945
 20
109.1751595325
 10
156.199387199
 20
109.0716319144
 10
156.2042215688
 20
108.965752551
  0
LINE
  5
287
100
AcDbEntity
  8
0
100
AcDbLine
 62
253
  6
CONTINUOUS
 10
163.0215001702
 20
109.265752551
 11
163.0605090204
 21
109.2631860094
  0
LINE
  5
288
100
AcDbEntity
  8
0
100
AcDbLine
 62
253
  6
CONTINUOUS
 10
171.5215001702
 20
109.265752551
 11
171.5605090204
 21
109.2631860094
  0
LWPOLYLINE
  5
289
100
AcDbEntity
  8
ASSI
100
AcDbPolyline
 62
7
  6
CONTINUOUS
 90
14
 70
0
 10
163.0469619169
 20
109.2651542886
 10
163.0813275642
 20
109.2611948769
 10
163.1149697548
 20
109.2531168658
 10
163.1479164509
 20
109.2410794431
 10
163.1788605507
 20
109.2255601722
 10
163.2077215399
 20
109.2064190657
 10
163.2345799327
 20
109.183796111
 10
163.2583701698
 20
109.1585888339
 10
163.2789688964
 20
109.130693332
 10
163.2964994672
 20
109.1002135076
 10
163.310266388
 20
109.068358594
 10
163.3200378272
 20
109.0355316689
 10
163.3260456164
 20
109.0013296546
 10
163.3282897554
 20
108.965752551
  0
LWPOLYLINE
  5
28A
100
AcDbEntity
  8
0
100
AcDbPolyline
 62
253
  6
CONTINUOUS
 90
12
 70
0
 10
163.0605090204
 20
109.2631860094
 10
163.0988504183
 20
109.2555302989
 10
163.1358683321
 20
109.2429164108
 10
163.1709293749
 20
109.2255601722
 10
163.2034336426
 20
109.2037585531
 10
163.2328249781
 20
109.1778845854
 10
163.2586004876
 20
109.1483809797
 10
163.2803191449
 20
109.115752551
 10
163.2976093378
 20
109.0805575807
 10
163.3101752262
 20
109.0433982646
 10
163.3178018045
 20
109.0049104087
 10
163.3203585796
 20
108.965752551
  0
LWPOLYLINE
  5
28B
100
AcDbEntity
  8
ASSI
100
AcDbPolyline
 62
7
  6
CONTINUOUS
 90
17
 70
0
 10
170.3723963515
 20
108.665752551
 10
170.3747311217
 20
108.6551696969
 10
170.4060972241
 20
108.555615077
 10
170.4462067611
 20
108.4584122024
 10
170.4941554472
 20
108.365752551
 10
170.5501213574
 20
108.2777393272
 10
170.6139264167
 20
108.1942693265
 10
170.6841321143
 20
108.1172244136
 10
170.760883848
 20
108.0467505416
 10
170.8440362202
 20
107.9827017574
 10
170.9317145272
 20
107.9265220665
 10
171.0240215806
 20
107.8783902242
 10
171.1208545689
 20
107.8381274752
 10
171.2200303534
 20
107.8066415595
 10
171.3216021534
 20
107.7841318524
 10
171.4255167497
 20
107.7703989786
 10
171.529431346
 20
107.765752551
  0
LWPOLYLINE
  5
28C
100
AcDbEntity
  8
ASSI
100
AcDbPolyline
 62
7
  6
CONTINUOUS
 90
15
 70
0
 10
171.8282897554
 20
108.965752551
 10
171.8260456164
 20
108.9301754475
 10
171.8200378272
 20
108.8959734331
 10
171.810266388
 20
108.863146508
 10
171.7964994672
 20
108.8312915944
 10
171.7789688964
 20
108.8008117701
 10
171.7583701698
 20
108.7729162681
 10
171.7345799327
 20
108.747708991
 10
171.7077215399
 20
108.7250860364
 10
171.6788605507
 20
108.7059449299
 10
171.6479164509
 20
108.690425659
 10
171.6149697548
 20
108.6783882362
 10
171.5813275642
 20
108.6703102251
 10
171.5469619169
 20
108.6663508135
 10
171.529431346
 20
108.665855887
  0
LWPOLYLINE
  5
28D
100
AcDbEntity
  8
0
100
AcDbPolyline
 62
253
  6
CONTINUOUS
 90
13
 70
0
 10
171.8203585796
 20
108.965752551
 10
171.8178018045
 20
108.9265946934
 10
171.8101752262
 20
108.8881068375
 10
171.7976093378
 20
108.8509475213
 10
171.7803191449
 20
108.815752551
 10
171.7586004876
 20
108.7831241223
 10
171.7328249781
 20
108.7536205167
 10
171.7034336426
 20
108.7277465489
 10
171.6709293749
 20
108.7059449299
 10
171.6358683321
 20
108.6885886913
 10
171.5988504183
 20
108.6759748031
 10
171.5605090204
 20
108.6683190926
 10
171.5215001702
 20
108.665752551
  0
LWPOLYLINE
  5
28E
100
AcDbEntity
  8
0
100
AcDbPolyline
 62
7
  6
CONTINUOUS
 90
13
 70
0
 10
149.8653061224
 20
109.265752551
 10
149.8252487889
 20
109.2628289137
 10
149.7871260683
 20
109.255216867
 10
149.7509379605
 20
109.2429164108
 10
149.7161377705
 20
109.2255608597
 10
149.6832721933
 20
109.2035168992
 10
149.6539813145
 20
109.1778845854
 10
149.6284465394
 20
109.1484818203
 10
149.6064864628
 20
109.1154907019
 10
149.5891969549
 20
109.0805575807
 10
149.5769433056
 20
109.0442312403
 10
149.569360225
 20
109.005962897
 10
149.566447713
 20
108.965752551
  0
LWPOLYLINE
  5
28F
100
AcDbEntity
  8
0
100
AcDbPolyline
 62
253
  6
CONTINUOUS
 90
13
 70
0
 10
150.5367213778
 20
109.265752551
 10
150.4977125276
 20
109.2631860094
 10
150.4593711296
 20
109.2555302989
 10
150.4223532159
 20
109.2429164108
 10
150.3872921731
 20
109.2255601722
 10
150.3547879054
 20
109.2037585531
 10
150.3253965699
 20
109.1778845854
 10
150.2996210604
 20
109.1483809797
 10
150.2779024031
 20
109.115752551
 10
150.2606122102
 20
109.0805575807
 10
150.2480463217
 20
109.0433982646
 10
150.2404197435
 20
109.0049104087
 10
150.2378629684
 20
108.965752551
  0
LINE
  5
290
100
AcDbEntity
  8
ASSI
100
AcDbLine
 62
7
  6
CONTINUOUS
 10
180.5087879311
 20
110.165752551
 11
180.029431346
 21
110.165752551
  0
LINE
  5
291
100
AcDbEntity
  8
ASSI
100
AcDbLine
 62
7
  6
CONTINUOUS
 10
172.0087879311
 20
110.165752551
 11
171.529431346
 21
110.165752551
  0
LINE
  5
292
100
AcDbEntity
  8
ASSI
100
AcDbLine
 62
7
  6
CONTINUOUS
 10
163.5087879311
 20
110.165752551
 11
163.029431346
 21
110.165752551
  0
LINE
  5
293
100
AcDbEntity
  8
ASSI
100
AcDbLine
 62
7
  6
CONTINUOUS
 10
155.0087879311
 20
110.165752551
 11
154.529431346
 21
110.165752551
  0
LINE
  5
294
100
AcDbEntity
  8
0
100
AcDbLine
 62
7
  6
CONTINUOUS
 10
182.3653061224
 20
110.965752551
 11
147.3653061224
 21
110.965752551
  0
LWPOLYLINE
  5
295
100
AcDbEntity
  8
ASSI
100
AcDbPolyline
 62
7
  6
CONTINUOUS
 90
19
 70
0
 10
163.029431346
 20
110.165752551
 10
163.1333459423
 20
110.1611061235
 10
163.2372605386
 20
110.1473732496
 10
163.3388323386
 20
110.1248635426
 10
163.4380081231
 20
110.0933776268
 10
163.5348411114
 20
110.0531148779
 10
163.6271481649
 20
110.0049830356
 10
163.7148264718
 20
109.9488033447
 10
163.797978844
 20
109.8847545605
 10
163.8747305777
 20
109.8142806884
 10
163.9449362754
 20
109.7372357756
 10
164.0087413346
 20
109.6537657749
 10
164.0647072448
 20
109.565752551
 10
164.1126559309
 20
109.4730928996
 10
164.1527654679
 20
109.3758900251
 10
164.1841315703
 20
109.2763354051
 10
164.2064528094
 20
109.1751595325
 10
164.2200306139
 20
109.0716319144
 10
164.2248649837
 20
108.965752551
  0
LWPOLYLINE
  5
296
100
AcDbEntity
  8
ASSI
100
AcDbPolyline
 62
7
  6
CONTINUOUS
 90
19
 70
0
 10
163.5087879311
 20
110.165752551
 10
163.6127025274
 20
110.1611061235
 10
163.7166171237
 20
110.1473732496
 10
163.8181889237
 20
110.1248635426
 10
163.9173647082
 20
110.0933776268
 10
164.0141976965
 20
110.0531148779
 10
164.10650475
 20
110.0049830356
 10
164.1941830569
 20
109.9488033447
 10
164.2773354291
 20
109.8847545605
 10
164.3540871628
 20
109.8142806884
 10
164.4242928605
 20
109.7372357756
 10
164.4880979197
 20
109.6537657749
 10
164.5440638299
 20
109.565752551
 10
164.592012516
 20
109.4730928996
 10
164.632122053
 20
109.3758900251
 10
164.6634881554
 20
109.2763354051
 10
164.6858093945
 20
109.1751595325
 10
164.699387199
 20
109.0716319144
 10
164.7042215688
 20
108.965752551
  0
LWPOLYLINE
  5
297
100
AcDbEntity
  8
ASSI
100
AcDbPolyline
 62
7
  6
CONTINUOUS
 90
19
 70
0
 10
171.529431346
 20
110.165752551
 10
171.6333459423
 20
110.1611061235
 10
171.7372605386
 20
110.1473732496
 10
171.8388323386
 20
110.1248635426
 10
171.9380081231
 20
110.0933776268
 10
172.0348411114
 20
110.0531148779
 10
172.1271481649
 20
110.0049830356
 10
172.2148264718
 20
109.9488033447
 10
172.297978844
 20
109.8847545605
 10
172.3747305777
 20
109.8142806884
 10
172.4449362754
 20
109.7372357756
 10
172.5087413346
 20
109.6537657749
 10
172.5647072448
 20
109.565752551
 10
172.6126559309
 20
109.4730928996
 10
172.6527654679
 20
109.3758900251
 10
172.6841315703
 20
109.2763354051
 10
172.7064528094
 20
109.1751595325
 10
172.7200306139
 20
109.0716319144
 10
172.7248649837
 20
108.965752551
  0
LWPOLYLINE
  5
298
100
AcDbEntity
  8
ASSI
100
AcDbPolyline
 62
7
  6
CONTINUOUS
 90
19
 70
0
 10
172.0087879311
 20
110.165752551
 10
172.1127025274
 20
110.1611061235
 10
172.2166171237
 20
110.1473732496
 10
172.3181889237
 20
110.1248635426
 10
172.4173647082
 20
110.0933776268
 10
172.5141976965
 20
110.0531148779
 10
172.60650475
 20
110.0049830356
 10
172.6941830569
 20
109.9488033447
 10
172.7773354291
 20
109.8847545605
 10
172.8540871628
 20
109.8142806884
 10
172.9242928605
 20
109.7372357756
 10
172.9880979197
 20
109.6537657749
 10
173.0440638299
 20
109.565752551
 10
173.092012516
 20
109.4730928996
 10
173.132122053
 20
109.3758900251
 10
173.1634881554
 20
109.2763354051
 10
173.1858093945
 20
109.1751595325
 10
173.199387199
 20
109.0716319144
 10
173.2042215688
 20
108.965752551
  0
LWPOLYLINE
  5
299
100
AcDbEntity
  8
ASSI
100
AcDbPolyline
 62
7
  6
CONTINUOUS
 90
19
 70
0
 10
180.029431346
 20
110.165752551
 10
180.1333459423
 20
110.1611061235
 10
180.2372605386
 20
110.1473732496
 10
180.3388323386
 20
110.1248635426
 10
180.4380081231
 20
110.0933776268
 10
180.5348411114
 20
110.0531148779
 10
180.6271481649
 20
110.0049830356
 10
180.7148264718
 20
109.9488033447
 10
180.797978844
 20
109.8847545605
 10
180.8747305777
 20
109.8142806884
 10
180.9449362754
 20
109.7372357756
 10
181.0087413346
 20
109.6537657749
 10
181.0647072448
 20
109.565752551
 10
181.1126559309
 20
109.4730928996
 10
181.1527654679
 20
109.3758900251
 10
181.1841315703
 20
109.2763354051
 10
181.2064528094
 20
109.1751595325
 10
181.2200306139
 20
109.0716319144
 10
181.2248649837
 20
108.965752551
  0
LWPOLYLINE
  5
29A
100
AcDbEntity
  8
ASSI
100
AcDbPolyline
 62
7
  6
CONTINUOUS
 90
19
 70
0
 10
180.5087879311
 20
110.165752551
 10
180.6127025274
 20
110.1611061235
 10
180.7166171237
 20
110.1473732496
 10
180.8181889237
 20
110.1248635426
 10
180.9173647082
 20
110.0933776268
 10
181.0141976965
 20
110.0531148779
 10
181.10650475
 20
110.0049830356
 10
181.1941830569
 20
109.9488033447
 10
181.2773354291
 20
109.8847545605
 10
181.3540871628
 20
109.8142806884
 10
181.4242928605
 20
109.7372357756
 10
181.4880979197
 20
109.6537657749
 10
181.5440638299
 20
109.565752551
 10
181.592012516
 20
109.4730928996
 10
181.632122053
 20
109.3758900251
 10
181.6634881554
 20
109.2763354051
 10
181.6858093945
 20
109.1751595325
 10
181.699387199
 20
109.0716319144
 10
181.7042215688
 20
108.965752551
  0
LINE
  5
29B
100
AcDbEntity
  8
0
100
AcDbLine
 62
253
  6
CONTINUOUS
 10
180.0215001702
 20
109.265752551
 11
180.0605090204
 21
109.2631860094
  0
LWPOLYLINE
  5
29C
100
AcDbEntity
  8
ASSI
100
AcDbPolyline
 62
7
  6
CONTINUOUS
 90
14
 70
0
 10
171.5469619169
 20
109.2651542886
 10
171.5813275642
 20
109.2611948769
 10
171.6149697548
 20
109.2531168658
 10
171.6479164509
 20
109.2410794431
 10
171.6788605507
 20
109.2255601722
 10
171.7077215399
 20
109.2064190657
 10
171.7345799327
 20
109.183796111
 10
171.7583701698
 20
109.1585888339
 10
171.7789688964
 20
109.130693332
 10
171.7964994672
 20
109.1002135076
 10
171.810266388
 20
109.068358594
 10
171.8200378272
 20
109.0355316689
 10
171.8260456164
 20
109.0013296546
 10
171.8282897554
 20
108.965752551
  0
LWPOLYLINE
  5
29D
100
AcDbEntity
  8
ASSI
100
AcDbPolyline
 62
7
  6
CONTINUOUS
 90
14
 70
0
 10
180.0469619169
 20
109.2651542886
 10
180.0813275642
 20
109.2611948769
 10
180.1149697548
 20
109.2531168658
 10
180.1479164509
 20
109.2410794431
 10
180.1788605507
 20
109.2255601722
 10
180.2077215399
 20
109.2064190657
 10
180.2345799327
 20
109.183796111
 10
180.2583701698
 20
109.1585888339
 10
180.2789688964
 20
109.130693332
 10
180.2964994672
 20
109.1002135076
 10
180.310266388
 20
109.068358594
 10
180.3200378272
 20
109.0355316689
 10
180.3260456164
 20
109.0013296546
 10
180.3282897554
 20
108.965752551
  0
LWPOLYLINE
  5
29E
100
AcDbEntity
  8
0
100
AcDbPolyline
 62
253
  6
CONTINUOUS
 90
12
 70
0
 10
171.5605090204
 20
109.2631860094
 10
171.5988504183
 20
109.2555302989
 10
171.6358683321
 20
109.2429164108
 10
171.6709293749
 20
109.2255601722
 10
171.7034336426
 20
109.2037585531
 10
171.7328249781
 20
109.1778845854
 10
171.7586004876
 20
109.1483809797
 10
171.7803191449
 20
109.115752551
 10
171.7976093378
 20
109.0805575807
 10
171.8101752262
 20
109.0433982646
 10
171.8178018045
 20
109.0049104087
 10
171.8203585796
 20
108.965752551
  0
LWPOLYLINE
  5
29F
100
AcDbEntity
  8
0
100
AcDbPolyline
 62
253
  6
CONTINUOUS
 90
12
 70
0
 10
180.0605090204
 20
109.2631860094
 10
180.0988504183
 20
109.2555302989
 10
180.1358683321
 20
109.2429164108
 10
180.1709293749
 20
109.2255601722
 10
180.2034336426
 20
109.2037585531
 10
180.2328249781
 20
109.1778845854
 10
180.2586004876
 20
109.1483809797
 10
180.2803191449
 20
109.115752551
 10
180.2976093378
 20
109.0805575807
 10
180.3101752262
 20
109.0433982646
 10
180.3178018045
 20
109.0049104087
 10
180.3203585796
 20
108.965752551
  0
LWPOLYLINE
  5
2A0
100
AcDbEntity
  8
0
100
AcDbPolyline
 62
7
  6
CONTINUOUS
 90
13
 70
0
 10
175.066447713
 20
108.965752551
 10
175.069360225
 20
108.925542205
 10
175.0769433056
 20
108.8872738618
 10
175.0891969549
 20
108.8509475213
 10
175.1064864628
 20
108.8160144002
 10
175.1284465394
 20
108.7830232818
 10
175.1539813145
 20
108.7536205167
 10
175.1832721933
 20
108.7279882029
 10
175.2161377705
 20
108.7059442423
 10
175.2509379605
 20
108.6885886913
 10
175.2871260683
 20
108.6762882351
 10
175.3252487889
 20
108.6686761883
 10
175.3653061224
 20
108.665752551
  0
LWPOLYLINE
  5
2A1
100
AcDbEntity
  8
0
100
AcDbPolyline
 62
253
  6
CONTINUOUS
 90
13
 70
0
 10
175.7378629684
 20
108.965752551
 10
175.7404197435
 20
108.9265946934
 10
175.7480463217
 20
108.8881068375
 10
175.7606122102
 20
108.8509475213
 10
175.7779024031
 20
108.815752551
 10
175.7996210604
 20
108.7831241223
 10
175.8253965699
 20
108.7536205167
 10
175.8547879054
 20
108.7277465489
 10
175.8872921731
 20
108.7059449299
 10
175.9223532159
 20
108.6885886913
 10
175.9593711296
 20
108.6759748031
 10
175.9977125276
 20
108.6683190926
 10
176.0367213778
 20
108.665752551
  0
LINE
  5
2A2
100
AcDbEntity
  8
ASSI
100
AcDbLine
 62
7
  6
CONTINUOUS
 10
175.3653061224
 20
95.9658873478
 11
175.3653061224
 21
101.9656177543
  0
LINE
  5
2A3
100
AcDbEntity
  8
0
100
AcDbLine
 62
253
  6
CONTINUOUS
 10
176.3653061224
 20
99.265752551
 11
176.3653061224
 21
98.665752551
  0
LWPOLYLINE
  5
2A4
100
AcDbEntity
  8
ASSI
100
AcDbPolyline
 62
7
  6
CONTINUOUS
 90
17
 70
0
 10
178.8723963515
 20
109.265752551
 10
178.8747311217
 20
109.2763354051
 10
178.9060972241
 20
109.3758900251
 10
178.9462067611
 20
109.4730928996
 10
178.9941554472
 20
109.565752551
 10
179.0501213574
 20
109.6537657749
 10
179.1139264167
 20
109.7372357756
 10
179.1841321143
 20
109.8142806884
 10
179.260883848
 20
109.8847545605
 10
179.3440362202
 20
109.9488033447
 10
179.4317145272
 20
110.0049830356
 10
179.5240215806
 20
110.0531148779
 10
179.6208545689
 20
110.0933776268
 10
179.7200303534
 20
110.1248635426
 10
179.8216021534
 20
110.1473732496
 10
179.9255167497
 20
110.1611061235
 10
180.029431346
 20
110.165752551
  0
LWPOLYLINE
  5
2A5
100
AcDbEntity
  8
ASSI
100
AcDbPolyline
 62
7
  6
CONTINUOUS
 90
15
 70
0
 10
180.3282897554
 20
108.965752551
 10
180.3260456164
 20
108.9301754475
 10
180.3200378272
 20
108.8959734331
 10
180.310266388
 20
108.863146508
 10
180.2964994672
 20
108.8312915944
 10
180.2789688964
 20
108.8008117701
 10
180.2583701698
 20
108.7729162681
 10
180.2345799327
 20
108.747708991
 10
180.2077215399
 20
108.7250860364
 10
180.1788605507
 20
108.7059449299
 10
180.1479164509
 20
108.690425659
 10
180.1149697548
 20
108.6783882362
 10
180.0813275642
 20
108.6703102251
 10
180.0469619169
 20
108.6663508135
 10
180.029431346
 20
108.665855887
  0
LWPOLYLINE
  5
2A6
100
AcDbEntity
  8
0
100
AcDbPolyline
 62
253
  6
CONTINUOUS
 90
13
 70
0
 10
180.3203585796
 20
108.965752551
 10
180.3178018045
 20
108.9265946934
 10
180.3101752262
 20
108.8881068375
 10
180.2976093378
 20
108.8509475213
 10
180.2803191449
 20
108.815752551
 10
180.2586004876
 20
108.7831241223
 10
180.2328249781
 20
108.7536205167
 10
180.2034336426
 20
108.7277465489
 10
180.1709293749
 20
108.7059449299
 10
180.1358683321
 20
108.6885886913
 10
180.0988504183
 20
108.6759748031
 10
180.0605090204
 20
108.6683190926
 10
180.0215001702
 20
108.665752551
  0
LWPOLYLINE
  5
2A7
100
AcDbEntity
  8
ASSI
100
AcDbPolyline
 62
7
  6
CONTINUOUS
 90
17
 70
0
 10
178.8723963515
 20
108.665752551
 10
178.8747311217
 20
108.6551696969
 10
178.9060972241
 20
108.555615077
 10
178.9462067611
 20
108.4584122024
 10
178.9941554472
 20
108.365752551
 10
179.0501213574
 20
108.2777393272
 10
179.1139264167
 20
108.1942693265
 10
179.1841321143
 20
108.1172244136
 10
179.260883848
 20
108.0467505416
 10
179.3440362202
 20
107.9827017574
 10
179.4317145272
 20
107.9265220665
 10
179.5240215806
 20
107.8783902242
 10
179.6208545689
 20
107.8381274752
 10
179.7200303534
 20
107.8066415595
 10
179.8216021534
 20
107.7841318524
 10
179.9255167497
 20
107.7703989786
 10
180.029431346
 20
107.765752551
  0
LINE
  5
2A8
100
AcDbEntity
  8
0
100
AcDbLine
 62
7
  6
CONTINUOUS
 10
180.8653061224
 20
106.965752551
 11
180.8653061224
 21
99.965752551
  0
LINE
  5
2A9
100
AcDbEntity
  8
0
100
AcDbLine
 62
7
  6
CONTINUOUS
 10
182.3653061224
 20
95.965752551
 11
182.3653061224
 21
99.965752551
  0
LINE
  5
2AA
100
AcDbEntity
  8
0
100
AcDbLine
 62
7
  6
CONTINUOUS
 10
182.3653061224
 20
106.965752551
 11
182.3653061224
 21
110.965752551
  0
LWPOLYLINE
  5
2AB
100
AcDbEntity
  8
0
100
AcDbPolyline
 62
253
  6
CONTINUOUS
 90
7
 70
0
 10
110.8699415175
 20
109.2365102042
 10
110.8680062705
 20
109.2255601722
 10
110.8651625156
 20
109.2037585531
 10
110.8625911069
 20
109.1778845854
 10
110.860336042
 20
109.1483809797
 10
110.8584359057
 20
109.115752551
 10
110.8569232099
 20
109.0805575807
  0
LWPOLYLINE
  5
2AC
100
AcDbEntity
  8
0
100
AcDbPolyline
 62
253
  6
CONTINUOUS
 90
7
 70
0
 10
110.8569232099
 20
108.8509475213
 10
110.8584359057
 20
108.815752551
 10
110.860336042
 20
108.7831241223
 10
110.8625911069
 20
108.7536205167
 10
110.8651625156
 20
108.7277465489
 10
110.8680062705
 20
108.7059449299
 10
110.8699415175
 20
108.6949948978
  0
LINE
  5
2AD
100
AcDbEntity
  8
ASSI
100
AcDbLine
 62
7
  6
CONTINUOUS
 10
110.8707102072
 20
108.6551696969
 11
110.8687573518
 21
108.7563455696
  0
LWPOLYLINE
  5
2AE
100
AcDbEntity
  8
0
100
AcDbPolyline
 62
253
  6
CONTINUOUS
 90
3
 70
0
 10
110.8551565979
 20
108.9265946934
 10
110.8558238371
 20
108.8881068375
 10
110.8569232099
 20
108.8509475213
  0
LINE
  5
2AF
100
AcDbEntity
  8
ASSI
100
AcDbLine
 62
7
  6
CONTINUOUS
 10
110.8687573518
 20
108.7563455696
 11
110.8675694479
 21
108.8598731876
  0
LINE
  5
2B0
100
AcDbEntity
  8
0
100
AcDbLine
 62
253
  6
CONTINUOUS
 10
110.8549329091
 20
108.965752551
 11
110.8551565979
 21
108.9265946934
  0
LINE
  5
2B1
100
AcDbEntity
  8
ASSI
100
AcDbLine
 62
7
  6
CONTINUOUS
 10
110.8675694479
 20
108.8598731876
 11
110.8671464953
 21
108.965752551
  0
LINE
  5
2B2
100
AcDbEntity
  8
RACCORDO
100
AcDbLine
 62
253
  6
CONTINUOUS
 10
110.5553911174
 20
104.965752551
 11
110.5553911174
 21
101.965752551
  0
LINE
  5
2B3
100
AcDbEntity
  8
ASSI
100
AcDbLine
 62
7
  6
CONTINUOUS
 10
110.8675694479
 20
109.0716319144
 11
110.8671464953
 21
108.965752551
  0
LINE
  5
2B4
100
AcDbEntity
  8
ASSI
100
AcDbLine
 62
7
  6
CONTINUOUS
 10
110.8687573518
 20
109.1751595325
 11
110.8675694479
 21
109.0716319144
  0
LINE
  5
2B5
100
AcDbEntity
  8
ASSI
100
AcDbLine
 62
7
  6
CONTINUOUS
 10
110.8707102072
 20
109.2763354051
 11
110.8687573518
 21
109.1751595325
  0
LWPOLYLINE
  5
2B6
100
AcDbEntity
  8
0
100
AcDbPolyline
 62
253
  6
CONTINUOUS
 90
4
 70
0
 10
110.8569232099
 20
109.0805575807
 10
110.8558238371
 20
109.0433982646
 10
110.8551565979
 20
109.0049104087
 10
110.8549329091
 20
108.965752551
  0
LWPOLYLINE
  5
2B7
100
AcDbEntity
  8
ASSI
100
AcDbPolyline
 62
7
  6
CONTINUOUS
 90
16
 70
0
 10
110.9717333866
 20
110.165752551
 10
110.9626420375
 20
110.1611061235
 10
110.9535506883
 20
110.1473732496
 10
110.9446643073
 20
110.1248635426
 10
110.9359875504
 20
110.0933776268
 10
110.9275157617
 20
110.0531148779
 10
110.919439941
 20
110.0049830356
 10
110.9117690831
 20
109.9488033447
 10
110.9044941932
 20
109.8847545605
 10
110.8977792866
 20
109.8142806884
 10
110.8916370839
 20
109.7372357756
 10
110.8860548645
 20
109.6537657749
 10
110.8811584819
 20
109.565752551
 10
110.8769635154
 20
109.4730928996
 10
110.8734543856
 20
109.3758900251
 10
110.8707102072
 20
109.2763354051
  0
LINE
  5
2B8
100
AcDbEntity
  8
0
100
AcDbLine
 62
7
  6
CONTINUOUS
 10
113.0553911174
 20
101.9230334361
 11
113.0553911174
 21
105.4655934571
  0
LINE
  5
2B9
100
AcDbEntity
  8
0
100
AcDbLine
 62
253
  6
CONTINUOUS
 10
114.0553911174
 20
99.265752551
 11
114.0553911174
 21
98.665752551
  0
LINE
  5
2BA
100
AcDbEntity
  8
0
100
AcDbLine
 62
7
  6
CONTINUOUS
 10
114.0553911174
 20
101.9230334361
 11
114.0553911174
 21
105.4655934571
  0
LWPOLYLINE
  5
2BB
100
AcDbEntity
  8
ASSI
100
AcDbPolyline
 62
7
  6
CONTINUOUS
 90
19
 70
0
 10
116.4508042261
 20
110.165752551
 10
116.441712877
 20
110.1611061235
 10
116.4326215278
 20
110.1473732496
 10
116.4237351468
 20
110.1248635426
 10
116.4150583899
 20
110.0933776268
 10
116.4065866012
 20
110.0531148779
 10
116.3985107805
 20
110.0049830356
 10
116.3908399226
 20
109.9488033447
 10
116.3835650327
 20
109.8847545605
 10
116.3768501261
 20
109.8142806884
 10
116.3707079234
 20
109.7372357756
 10
116.365125704
 20
109.6537657749
 10
116.3602293214
 20
109.565752551
 10
116.3560343549
 20
109.4730928996
 10
116.3525252251
 20
109.3758900251
 10
116.3497810467
 20
109.2763354051
 10
116.3478281914
 20
109.1751595325
 10
116.3466402874
 20
109.0716319144
 10
116.3462173348
 20
108.965752551
  0
LWPOLYLINE
  5
2BC
100
AcDbEntity
  8
0
100
AcDbPolyline
 62
7
  6
CONTINUOUS
 90
13
 70
0
 10
118.5553911174
 20
109.265752551
 10
118.5518865549
 20
109.2628289137
 10
118.548551249
 20
109.255216867
 10
118.5453851998
 20
109.2429164108
 10
118.5423405777
 20
109.2255608597
 10
118.5394652122
 20
109.2035168992
 10
118.5369025924
 20
109.1778845854
 10
118.5346685891
 20
109.1484818203
 10
118.5327473313
 20
109.1154907019
 10
118.5312346954
 20
109.0805575807
 10
118.53016264
 20
109.0442312403
 10
118.5294992064
 20
109.005962897
 10
118.5292443946
 20
108.965752551
  0
LWPOLYLINE
  5
2BD
100
AcDbEntity
  8
ASSI
100
AcDbPolyline
 62
7
  6
CONTINUOUS
 90
15
 70
0
 10
116.4508042261
 20
109.265649215
 10
116.4492704999
 20
109.2651542886
 10
116.4462638954
 20
109.2611948769
 10
116.4433205851
 20
109.2531168658
 10
116.4404381227
 20
109.2410794431
 10
116.4377308647
 20
109.2255601722
 10
116.4352058553
 20
109.2064190657
 10
116.4328560505
 20
109.183796111
 10
116.4307746744
 20
109.1585888339
 10
116.4289725193
 20
109.130693332
 10
116.4274387931
 20
109.1002135076
 10
116.4262343436
 20
109.068358594
 10
116.4253794535
 20
109.0355316689
 10
116.42485384
 20
109.0013296546
 10
116.4246575033
 20
108.965752551
  0
LWPOLYLINE
  5
2BE
100
AcDbEntity
  8
ASSI
100
AcDbPolyline
 62
7
  6
CONTINUOUS
 90
16
 70
0
 10
116.5518274055
 20
109.2763354051
 10
116.5490832271
 20
109.3758900251
 10
116.5455740974
 20
109.4730928996
 10
116.5413791309
 20
109.565752551
 10
116.5364827482
 20
109.6537657749
 10
116.5309005288
 20
109.7372357756
 10
116.5247583262
 20
109.8142806884
 10
116.5180434196
 20
109.8847545605
 10
116.5107685297
 20
109.9488033447
 10
116.5030976718
 20
110.0049830356
 10
116.495021851
 20
110.0531148779
 10
116.4865500623
 20
110.0933776268
 10
116.4778733055
 20
110.1248635426
 10
116.4689869244
 20
110.1473732496
 10
116.4598955753
 20
110.1611061235
 10
116.4508042261
 20
110.165752551
  0
LINE
  5
2BF
100
AcDbEntity
  8
ASSI
100
AcDbLine
 62
7
  6
CONTINUOUS
 10
116.5520316715
 20
109.265752551
 11
116.5518274055
 21
109.2763354051
  0
LWPOLYLINE
  5
2C0
100
AcDbEntity
  8
ASSI
100
AcDbPolyline
 62
7
  6
CONTINUOUS
 90
15
 70
0
 10
116.4246575033
 20
108.965752551
 10
116.42485384
 20
108.9301754475
 10
116.4253794535
 20
108.8959734331
 10
116.4262343436
 20
108.863146508
 10
116.4274387931
 20
108.8312915944
 10
116.4289725193
 20
108.8008117701
 10
116.4307746744
 20
108.7729162681
 10
116.4328560505
 20
108.747708991
 10
116.4352058553
 20
108.7250860364
 10
116.4377308647
 20
108.7059449299
 10
116.4404381227
 20
108.690425659
 10
116.4433205851
 20
108.6783882362
 10
116.4462638954
 20
108.6703102251
 10
116.4492704999
 20
108.6663508135
 10
116.4508042261
 20
108.665855887
  0
LINE
  5
2C1
100
AcDbEntity
  8
ASSI
100
AcDbLine
 62
7
  6
CONTINUOUS
 10
116.5520316715
 20
108.665752551
 11
116.5518274055
 21
108.6551696969
  0
LWPOLYLINE
  5
2C2
100
AcDbEntity
  8
ASSI
100
AcDbPolyline
 62
7
  6
CONTINUOUS
 90
16
 70
0
 10
116.5518274055
 20
108.6551696969
 10
116.5490832271
 20
108.555615077
 10
116.5455740974
 20
108.4584122024
 10
116.5413791309
 20
108.365752551
 10
116.5364827482
 20
108.2777393272
 10
116.5309005288
 20
108.1942693265
 10
116.5247583262
 20
108.1172244136
 10
116.5180434196
 20
108.0467505416
 10
116.5107685297
 20
107.9827017574
 10
116.5030976718
 20
107.9265220665
 10
116.495021851
 20
107.8783902242
 10
116.4865500623
 20
107.8381274752
 10
116.4778733055
 20
107.8066415595
 10
116.4689869244
 20
107.7841318524
 10
116.4598955753
 20
107.7703989786
 10
116.4508042261
 20
107.765752551
  0
LINE
  5
2C3
100
AcDbEntity
  8
0
100
AcDbLine
 62
7
  6
CONTINUOUS
 10
120.1553911174
 20
95.965752551
 11
118.5553911174
 21
95.965752551
  0
LWPOLYLINE
  5
2C4
100
AcDbEntity
  8
0
100
AcDbPolyline
 62
7
  6
CONTINUOUS
 90
13
 70
0
 10
118.5292443946
 20
108.965752551
 10
118.5294992064
 20
108.925542205
 10
118.53016264
 20
108.8872738618
 10
118.5312346954
 20
108.8509475213
 10
118.5327473313
 20
108.8160144002
 10
118.5346685891
 20
108.7830232818
 10
118.5369025924
 20
108.7536205167
 10
118.5394652122
 20
108.7279882029
 10
118.5423405777
 20
108.7059442423
 10
118.5453851998
 20
108.6885886913
 10
118.548551249
 20
108.6762882351
 10
118.5518865549
 20
108.6686761883
 10
118.5553911174
 20
108.665752551
  0
LINE
  5
2C5
100
AcDbEntity
  8
0
100
AcDbLine
 62
7
  6
CONTINUOUS
 10
118.5553911174
 20
95.965752551
 11
118.5553911174
 21
110.965752551
  0
LINE
  5
2C6
100
AcDbEntity
  8
0
100
AcDbLine
 62
7
  6
CONTINUOUS
 10
113.5553911174
 20
98.665752551
 11
118.5553911174
 21
98.665752551
  0
LINE
  5
2C7
100
AcDbEntity
  8
ASSI
100
AcDbLine
 62
7
  6
CONTINUOUS
 10
120.1553911174
 20
98.965752551
 11
125.1576867903
 21
98.965752551
  0
LINE
  5
2C8
100
AcDbEntity
  8
0
100
AcDbLine
 62
7
  6
CONTINUOUS
 10
120.1553911174
 20
95.965752551
 11
120.1553911174
 21
110.965752551
  0
LINE
  5
2C9
100
AcDbEntity
  8
0
100
AcDbLine
 62
7
  6
CONTINUOUS
 10
113.5553911174
 20
99.265752551
 11
118.5553911174
 21
99.265752551
  0
LINE
  5
2CA
100
AcDbEntity
  8
0
100
AcDbLine
 62
7
  6
CONTINUOUS
 10
120.1553911174
 20
99.965752551
 11
118.5553911174
 21
99.965752551
  0
LINE
  5
2CB
100
AcDbEntity
  8
ASSI
100
AcDbLine
 62
7
  6
CONTINUOUS
 10
120.1553911174
 20
99.965752551
 11
124.5240824834
 21
99.965752551
  0
LINE
  5
2CC
100
AcDbEntity
  8
0
100
AcDbLine
 62
7
  6
CONTINUOUS
 10
113.0553911174
 20
101.965752551
 11
110.5553911174
 21
101.965752551
  0
LWPOLYLINE
  5
2CD
100
AcDbEntity
  8
ASSI
100
AcDbPolyline
 62
7
  6
CONTINUOUS
 90
16
 70
0
 10
110.9717333866
 20
107.765752551
 10
110.9626420375
 20
107.7703989786
 10
110.9535506883
 20
107.7841318524
 10
110.9446643073
 20
107.8066415595
 10
110.9359875504
 20
107.8381274752
 10
110.9275157617
 20
107.8783902242
 10
110.919439941
 20
107.9265220665
 10
110.9117690831
 20
107.9827017574
 10
110.9044941932
 20
108.0467505416
 10
110.8977792866
 20
108.1172244136
 10
110.8916370839
 20
108.1942693265
 10
110.8860548645
 20
108.2777393272
 10
110.8811584819
 20
108.365752551
 10
110.8769635154
 20
108.4584122024
 10
110.8734543856
 20
108.555615077
 10
110.8707102072
 20
108.6551696969
  0
LINE
  5
2CE
100
AcDbEntity
  8
SMUSSO
100
AcDbLine
 62
7
  6
CONTINUOUS
 10
120.1553911174
 20
103.065752551
 11
135.6058956335
 21
103.065752551
  0
LINE
  5
2CF
100
AcDbEntity
  8
ASSI
100
AcDbLine
 62
7
  6
CONTINUOUS
 10
118.5553911174
 20
103.215752551
 11
114.0553911174
 21
103.215752551
  0
LINE
  5
2D0
100
AcDbEntity
  8
ASSI
100
AcDbLine
 62
7
  6
CONTINUOUS
 10
118.5553911174
 20
103.715752551
 11
114.0553911174
 21
103.715752551
  0
LINE
  5
2D1
100
AcDbEntity
  8
SMUSSO
100
AcDbLine
 62
7
  6
CONTINUOUS
 10
120.1553911174
 20
103.865752551
 11
135.6058956335
 21
103.865752551
  0
LWPOLYLINE
  5
2D2
100
AcDbEntity
  8
ASSI
100
AcDbPolyline
 62
7
  6
CONTINUOUS
 90
19
 70
0
 10
116.4508042261
 20
107.765752551
 10
116.441712877
 20
107.7703989786
 10
116.4326215278
 20
107.7841318524
 10
116.4237351468
 20
107.8066415595
 10
116.4150583899
 20
107.8381274752
 10
116.4065866012
 20
107.8783902242
 10
116.3985107805
 20
107.9265220665
 10
116.3908399226
 20
107.9827017574
 10
116.3835650327
 20
108.0467505416
 10
116.3768501261
 20
108.1172244136
 10
116.3707079234
 20
108.1942693265
 10
116.365125704
 20
108.2777393272
 10
116.3602293214
 20
108.365752551
 10
116.3560343549
 20
108.4584122024
 10
116.3525252251
 20
108.555615077
 10
116.3497810467
 20
108.6551696969
 10
116.3478281914
 20
108.7563455696
 10
116.3466402874
 20
108.8598731876
 10
116.3462173348
 20
108.965752551
  0
LINE
  5
2D3
100
AcDbEntity
  8
0
100
AcDbLine
 62
7
  6
CONTINUOUS
 10
113.0553911174
 20
104.965752551
 11
110.5553911174
 21
104.965752551
  0
LINE
  5
2D4
100
AcDbEntity
  8
0
100
AcDbLine
 62
7
  6
CONTINUOUS
 10
114.0553911174
 20
105.465752551
 11
113.0553911174
 21
105.465752551
  0
LINE
  5
2D5
100
AcDbEntity
  8
SMUSSO
100
AcDbLine
 62
7
  6
CONTINUOUS
 10
136.1553911174
 20
103.265752551
 11
135.6058956335
 21
103.065752551
  0
LINE
  5
2D6
100
AcDbEntity
  8
0
100
AcDbLine
 62
7
  6
CONTINUOUS
 10
120.1553911174
 20
106.965752551
 11
118.5553911174
 21
106.965752551
  0
LINE
  5
2D7
100
AcDbEntity
  8
ASSI
100
AcDbLine
 62
7
  6
CONTINUOUS
 10
120.1553911174
 20
106.965752551
 11
131.1553911174
 21
106.965752551
  0
LINE
  5
2D8
100
AcDbEntity
  8
ASSI
100
AcDbLine
 62
7
  6
CONTINUOUS
 10
116.4508042261
 20
107.765752551
 11
110.9717333866
 21
107.765752551
  0
LINE
  5
2D9
100
AcDbEntity
  8
ASSI
100
AcDbLine
 62
7
  6
CONTINUOUS
 10
120.1553911174
 20
107.965752551
 11
131.1553911174
 21
107.965752551
  0
LINE
  5
2DA
100
AcDbEntity
  8
SMUSSO
100
AcDbLine
 62
7
  6
CONTINUOUS
 10
136.1553911174
 20
103.665752551
 11
135.6058956335
 21
103.865752551
  0
LINE
  5
2DB
100
AcDbEntity
  8
0
100
AcDbLine
 62
7
  6
CONTINUOUS
 10
109.0553911174
 20
108.665752551
 11
110.8705059413
 21
108.665752551
  0
LINE
  5
2DC
100
AcDbEntity
  8
0
100
AcDbLine
 62
7
  6
CONTINUOUS
 10
116.4508042261
 20
108.665752551
 11
118.5553911174
 21
108.665752551
  0
LINE
  5
2DD
100
AcDbEntity
  8
0
100
AcDbLine
 62
7
  6
CONTINUOUS
 10
109.0553911174
 20
109.265752551
 11
110.8705059413
 21
109.265752551
  0
LINE
  5
2DE
100
AcDbEntity
  8
0
100
AcDbLine
 62
7
  6
CONTINUOUS
 10
116.4508042261
 20
109.265752551
 11
118.5553911174
 21
109.265752551
  0
LINE
  5
2DF
100
AcDbEntity
  8
ASSI
100
AcDbLine
 62
7
  6
CONTINUOUS
 10
116.4508042261
 20
110.165752551
 11
110.9717333866
 21
110.165752551
  0
LINE
  5
2E0
100
AcDbEntity
  8
ASSI
100
AcDbLine
 62
7
  6
CONTINUOUS
 10
131.1553911174
 20
107.965752551
 11
131.1553911174
 21
106.965752551
  0
LINE
  5
2E1
100
AcDbEntity
  8
0
100
AcDbLine
 62
7
  6
CONTINUOUS
 10
120.1553911174
 20
110.965752551
 11
118.5553911174
 21
110.965752551
  0
LINE
  5
2E2
100
AcDbEntity
  8
SMUSSO
100
AcDbLine
 62
7
  6
CONTINUOUS
 10
135.4053911174
 20
103.865752551
 11
135.4053911174
 21
103.065752551
  0
LINE
  5
2E3
100
AcDbEntity
  8
SMUSSO
100
AcDbLine
 62
7
  6
CONTINUOUS
 10
136.1553911174
 20
103.665752551
 11
136.1553911174
 21
103.265752551
  0
CIRCLE
  5
2E4
100
AcDbEntity
  8
0
100
AcDbCircle
 62
7
  6
CONTINUOUS
 10
164.8653061224
 20
103.465752551
 40
2.0
  0
CIRCLE
  5
2E5
100
AcDbEntity
  8
RACCORDO
100
AcDbCircle
 62
7
  6
CONTINUOUS
 10
164.8653061224
 20
103.465752551
 40
1.5
  0
ARC
  5
2E6
100
AcDbEntity
  8
0
100
AcDbCircle
 62
7
  6
CONTINUOUS
 10
152.8653061224
 20
98.965752551
 40
0.3
100
AcDbArc
 50
90.0
 51
270.0
  0
ARC
  5
2E7
100
AcDbEntity
  8
0
100
AcDbCircle
 62
7
  6
CONTINUOUS
 10
176.8653061224
 20
98.965752551
 40
0.3
100
AcDbArc
 50
270.0
 51
90.0
  0
ARC
  5
2E8
100
AcDbEntity
  8
ASSI
100
AcDbCircle
 62
7
  6
CONTINUOUS
 10
113.5553911174
 20
98.965752551
 40
3.0
100
AcDbArc
 50
5.7465628644
 51
354.2534371356
  0
ARC
  5
2E9
100
AcDbEntity
  8
RACCORDO
100
AcDbCircle
 62
7
  6
CONTINUOUS
 10
110.5553911174
 20
103.465752551
 40
1.5
100
AcDbArc
 50
90.0
 51
270.0
  0
ARC
  5
2EA
100
AcDbEntity
  8
0
100
AcDbCircle
 62
7
  6
CONTINUOUS
 10
113.5553911174
 20
98.965752551
 40
0.3
100
AcDbArc
 50
90.0
 51
270.0
  0
ARC
  5
2EB
100
AcDbEntity
  8
0
100
AcDbCircle
 62
7
  6
CONTINUOUS
 10
109.0553911174
 20
108.965752551
 40
0.3
100
AcDbArc
 50
90.0
 51
270.0
  0
ARC
  5
2EC
100
AcDbEntity
  8
ASSI
100
AcDbCircle
 62
7
  6
CONTINUOUS
 10
131.1553911174
 20
103.465752551
 40
7.5
100
AcDbArc
 50
90.0
 51
143.1153168777
  0
ARC
  5
2ED
100
AcDbEntity
  8
ASSI
100
AcDbCircle
 62
7
  6
CONTINUOUS
 10
131.1553911174
 20
103.465752551
 40
7.5
100
AcDbArc
 50
152.1714610124
 51
176.9416193731
  0
ARC
  5
2EE
100
AcDbEntity
  8
ASSI
100
AcDbCircle
 62
7
  6
CONTINUOUS
 10
131.1553911174
 20
103.465752551
 40
7.5
100
AcDbArc
 50
183.0581984405
 51
270.0
  0
ARC
  5
2EF
100
AcDbEntity
  8
RACCORDO
100
AcDbCircle
 62
7
  6
CONTINUOUS
 10
131.1553911174
 20
103.465752551
 40
7.5
100
AcDbArc
 50
152.1785929444
 51
176.9418569901
  0
ARC
  5
2F0
100
AcDbEntity
  8
RACCORDO
100
AcDbCircle
 62
7
  6
CONTINUOUS
 10
131.1553911174
 20
103.465752551
 40
7.5
100
AcDbArc
 50
183.05798468
 51
212.2321653944
  0
ARC
  5
2F1
100
AcDbEntity
  8
RACCORDO
100
AcDbCircle
 62
7
  6
CONTINUOUS
 10
131.1553911174
 20
103.465752551
 40
7.5
100
AcDbArc
 50
269.9999999998
 51
143.1136919966
  0
ARC
  5
2F2
100
AcDbEntity
  8
ASSI
100
AcDbCircle
 62
253
  6
CONTINUOUS
 10
131.1553911174
 20
103.465752551
 40
7.0
100
AcDbArc
 50
150.0
 51
176.7242933361
  0
ARC
  5
2F3
100
AcDbEntity
  8
ASSI
100
AcDbCircle
 62
253
  6
CONTINUOUS
 10
131.1553911174
 20
103.465752551
 40
7.0
100
AcDbArc
 50
183.2775836689
 51
139.9947991151
  0
ENDSEC
  0
SECTION
  2
OBJECTS
  0
DICTIONARY
  5
C
100
AcDbDictionary
280
0
281
1
  3
ACAD_GROUP
350
D
  3
ACAD_MLINESTYLE
350
17
  3
ACAD_LAYOUT
350
1A
  3
ACAD_PLOTSETTINGS
350
19
  3
ACAD_PLOTSTYLENAME
350
E
  0
DICTIONARY
  5
D
102
{ACAD_REACTORS
330
C
102
}
100
AcDbDictionary
280
0
281
1
  0
ACDBDICTIONARYWDFLT
  5
E
102
{ACAD_REACTORS
330
C
102
}
100
AcDbDictionary
281
1
  3
Normal
350
F
100
AcDbDictionaryWithDefault
340
F
  0
DICTIONARY
  5
17
102
{ACAD_REACTORS
330
C
102
}
100
AcDbDictionary
280
0
281
1
  3
Standard
350
18
  0
DICTIONARY
  5
19
102
{ACAD_REACTORS
330
C
102
}
100
AcDbDictionary
281
1
  0
DICTIONARY
  5
1A
102
{ACAD_REACTORS
330
C
102
}
100
AcDbDictionary
281
1
  3
Model
350
2F4
  3
Layout1
350
2F5
  0
ACDBPLACEHOLDER
  5
F
102
{ACAD_REACTORS
330
E
102
}
  0
MLINESTYLE
  5
18
102
{ACAD_REACTORS
330
17
102
}
100
AcDbMlineStyle
  2
STANDARD
 70
0
  3

 62
256
 51
90.0
 52
90.0
 71
2
 49
0.5
 62
256
  6
BYLAYER
 49
-0.5
 62
256
  6
BYLAYER
  0
LAYOUT
  5
2F4
102
{ACAD_REACTORS
330
1A
102
}
100
AcDbPlotSettings
  1

  2
none_device
  4
ISO_A4_(297.00_x_210.00_MM)
  6

 40
0.0
 41
0.0
 42
0.0
 43
0.0
 44
297.0
 45
210.0
 46
0.0
 47
0.0
 48
0.0
 49
0.0
140
0.0
141
0.0
142
1.0
143
1.0
 70
1024
 72
1
 73
0
 74
0
  7

 75
0
147
1.0
148
0.0
149
0.0
100
AcDbLayout
  1
Model
 70
0
 71
0
 10
0.0
 20
0.0
 11
297.0
 21
210.0
 12
0.0
 22
0.0
 32
0.0
 14
0.0
 24
0.0
 34
0.0
 15
0.0
 25
0.0
 35
0.0
146
0.0
 13
0.0
 23
0.0
 33
0.0
 16
1.0
 26
0.0
 36
0.0
 17
0.0
 27
1.0
 37
0.0
 76
0
330
20E
345
0
346
0
  0
LAYOUT
  5
2F5
102
{ACAD_REACTORS
330
1A
102
}
100
AcDbPlotSettings
  1

  2
none_device
  4
ISO_A4_(297.00_x_210.00_MM)
  6

 40
0.0
 41
0.0
 42
0.0
 43
0.0
 44
297.0
 45
210.0
 46
0.0
 47
0.0
 48
0.0
 49
0.0
140
0.0
141
0.0
142
1.0
143
1.0
 70
0
 72
1
 73
0
 74
0
  7

 75
0
147
1.0
148
0.0
149
0.0
100
AcDbLayout
  1
Layout1
 70
0
 71
1
 10
0.0
 20
0.0
 11
297.0
 21
210.0
 12
0.0
 22
0.0
 32
0.0
 14
0.0
 24
0.0
 34
0.0
 15
0.0
 25
0.0
 35
0.0
146
0.0
 13
0.0
 23
0.0
 33
0.0
 16
1.0
 26
0.0
 36
0.0
 17
0.0
 27
1.0
 37
0.0
 76
0
330
20F
345
0
346
0
  0
ENDSEC
  0
EOF
