  0
SECTION
  2
HEADER
  9
$ACADVER
  1
AC1024
  9
$DWGCODEPAGE
  3
ANSI_1252
  9
$EXTMAX
 10
279.4
 20
215.9
 30
0.0
  9
$EXTMIN
 10
0.0
 20
0.0
 30
0.0
  9
$LIMMIN
 10
0.0
 20
0.0
  9
$LIMMAX
 10
279.4
 20
215.9
  9
$VIEWCTR
 10
139.7
 20
107.95
  9
$VIEWSIZE
 40
215.9
  9
$CLAYER
  8
0
  9
$LTSCALE
 40
15.367
  9
$CELTYPE
  6
BYLAYER
  9
$DIMSCALE
 40
1.0
  9
$DIMASZ
 40
3.0
  9
$DIMEXO
 40
0.5
  9
$DIMDLI
 40
10.6172
  9
$DIMEXE
 40
1.5
  9
$DIMCEN
 40
2.5146
  9
$DIMLFAC
 40
1.0
  9
$DIMBLK
  1
_FILLED
  9
$DIMALT
 70
0
  9
$DIMALTF
 40
0.0393700787
  9
$DIMTXT
 40
3.0
  9
$DIMTOL
 70
1
  9
$DIMLIM
 70
0
  9
$DIMTFAC
 40
1.0
  9
$DIMTP
 40
0.01
  9
$DIMTM
 40
0.01
  9
$DIMGAP
 40
0.625
  9
$DIMDSEP
 70
44
  9
$AUNITS
 70
0
  9
$PDMODE
 70
3
  9
$PDSIZE
 40
3.0
  9
$HANDSEED
  5
76A
  9
$TILEMODE
 70
1
  9
$MEASUREMENT
 70
1
  9
$INSUNITS
 70
4
  0
ENDSEC
  0
SECTION
  2
CLASSES
  0
CLASS
  1
ACDBDICTIONARYWDFLT
  2
AcDbDictionaryWithDefault
  3
AutoCAD 2000
 90
0
 91
1
280
0
281
0
  0
CLASS
  1
ACDBPLACEHOLDER
  2
AcDbPlaceHolder
  3
AutoCAD 2000
 90
0
 91
1
280
0
281
0
  0
CLASS
  1
LAYOUT
  2
AcDbLayout
  3
AutoCAD 2000
 90
0
 91
0
280
0
281
0
  0
ENDSEC
  0
SECTION
  2
TABLES
  0
TABLE
  2
VPORT
  5
8
100
AcDbSymbolTable
 70
2
  0
VPORT
  5
1F4
100
AcDbSymbolTableRecord
100
AcDbViewportTableRecord
  2
*ACTIVE
 70
0
 10
0.0
 20
0.0
 11
1.0
 21
1.0
 12
139.7
 22
107.95
 13
0.0
 23
0.0
 14
1.0
 24
1.0
 15
0.0
 25
0.0
 16
0.0
 26
0.0
 36
1.0
 17
0.0
 27
0.0
 37
0.0
 40
215.9
 41
1.2941176471
 42
50.0
 43
0.0
 44
0.0
 50
0.0
 51
0.0
 71
0
 72
100
 73
1
 74
1
 75
0
 76
0
 77
0
 78
0
  0
ENDTAB
  0
TABLE
  2
LTYPE
  5
5
100
AcDbSymbolTable
 70
6
  0
LTYPE
  5
14
100
AcDbSymbolTableRecord
100
AcDbLinetypeTableRecord
  2
BYBLOCK
 70
0
  3

 72
65
 73
0
 40
0.0
  0
LTYPE
  5
15
100
AcDbSymbolTableRecord
100
AcDbLinetypeTableRecord
  2
BYLAYER
 70
0
  3

 72
65
 73
0
 40
0.0
  0
LTYPE
  5
16
100
AcDbSymbolTableRecord
100
AcDbLinetypeTableRecord
  2
CONTINUOUS
 70
64
  3
Solid line
 72
65
 73
0
 40
0.0
  0
LTYPE
  5
1F5
100
AcDbSymbolTableRecord
100
AcDbLinetypeTableRecord
  2
CENTER
 70
64
  3
____ _ ____ _ ____ _ ____ _ ____ _ ____ _ ____
 72
65
 73
4
 40
0.6
 49
0.375
 74
0
 49
-0.075
 74
0
 49
0.075
 74
0
 49
-0.075
 74
0
  0
LTYPE
  5
1F6
100
AcDbSymbolTableRecord
100
AcDbLinetypeTableRecord
  2
HIDDEN
 70
64
  3
- - - - - - - - - - - - - - - - - - - -
 72
65
 73
2
 40
0.2
 49
0.1
 74
0
 49
-0.1
 74
0
  0
LTYPE
  5
1F7
100
AcDbSymbolTableRecord
100
AcDbLinetypeTableRecord
  2
PHANTOM
 70
64
  3
_____ _ _ _____ _ _ _____ _ _ _____
 72
65
 73
6
 40
0.8
 49
0.45
 74
0
 49
-0.05
 74
0
 49
0.1
 74
0
 49
-0.05
 74
0
 49
0.1
 74
0
 49
-0.05
 74
0
  0
LTYPE
  5
1F8
100
AcDbSymbolTableRecord
100
AcDbLinetypeTableRecord
  2
DOT
 70
64
  3
. . . . . . . . . . . . . . . . . . . .
 72
65
 73
2
 40
0.2
 49
0.1
 74
0
 49
-0.1
 74
0
  0
LTYPE
  5
1F9
100
AcDbSymbolTableRecord
100
AcDbLinetypeTableRecord
  2
DASHED
 70
64
  3
- - - - - - - - - - - - - - - - - - - -
 72
65
 73
2
 40
0.2
 49
0.1
 74
0
 49
-0.1
 74
0
  0
ENDTAB
  0
TABLE
  2
LAYER
  5
2
100
AcDbSymbolTable
 70
36
  0
LAYER
  5
10
100
AcDbSymbolTableRecord
100
AcDbLayerTableRecord
  2
0
 70
0
 62
7
  6
CONTINUOUS
370
-3
390
F
  0
LAYER
  5
1FA
100
AcDbSymbolTableRecord
100
AcDbLayerTableRecord
  2
DEFAULT_1
 70
0
 62
7
  6
CENTER
370
-3
390
F
  0
LAYER
  5
1FB
100
AcDbSymbolTableRecord
100
AcDbLayerTableRecord
  2
DEFAULT_2
 70
0
 62
7
  6
HIDDEN
370
-3
390
F
  0
LAYER
  5
1FC
100
AcDbSymbolTableRecord
100
AcDbLayerTableRecord
  2
DEFAULT_3
 70
0
 62
7
  6
PHANTOM
370
-3
390
F
  0
LAYER
  5
1FD
100
AcDbSymbolTableRecord
100
AcDbLayerTableRecord
  2
ASSI
 70
0
 62
7
  6
CONTINUOUS
370
-3
390
F
  0
LAYER
  5
1FE
100
AcDbSymbolTableRecord
100
AcDbLayerTableRecord
  2
COORDINATE
 70
0
 62
7
  6
CONTINUOUS
370
-3
390
F
  0
LAYER
  5
1FF
100
AcDbSymbolTableRecord
100
AcDbLayerTableRecord
  2
COORD_ORIGINE
 70
0
 62
7
  6
CONTINUOUS
370
-3
390
F
  0
LAYER
  5
200
100
AcDbSymbolTableRecord
100
AcDbLayerTableRecord
  2
COPY-PUBBLISH
 70
0
 62
7
  6
CONTINUOUS
370
-3
390
F
  0
LAYER
  5
201
100
AcDbSymbolTableRecord
100
AcDbLayerTableRecord
  2
COPY_PUBLISH
 70
0
 62
7
  6
CONTINUOUS
370
-3
390
F
  0
LAYER
  5
202
100
AcDbSymbolTableRecord
100
AcDbLayerTableRecord
  2
COSMETIC
 70
0
 62
7
  6
CONTINUOUS
370
-3
390
F
  0
LAYER
  5
203
100
AcDbSymbolTableRecord
100
AcDbLayerTableRecord
  2
COSMETICHE
 70
0
 62
7
  6
CONTINUOUS
370
-3
390
F
  0
LAYER
  5
204
100
AcDbSymbolTableRecord
100
AcDbLayerTableRecord
  2
CURVE
 70
0
 62
7
  6
CONTINUOUS
370
-3
390
F
  0
LAYER
  5
205
100
AcDbSymbolTableRecord
100
AcDbLayerTableRecord
  2
DRAFT
 70
0
 62
7
  6
CONTINUOUS
370
-3
390
F
  0
LAYER
  5
206
100
AcDbSymbolTableRecord
100
AcDbLayerTableRecord
  2
IMPORT_IGES
 70
0
 62
7
  6
CONTINUOUS
370
-3
390
F
  0
LAYER
  5
207
100
AcDbSymbolTableRecord
100
AcDbLayerTableRecord
  2
INTF_1
 70
0
 62
7
  6
CONTINUOUS
370
-3
390
F
  0
LAYER
  5
208
100
AcDbSymbolTableRecord
100
AcDbLayerTableRecord
  2
INTF_11
 70
0
 62
7
  6
CONTINUOUS
370
-3
390
F
  0
LAYER
  5
209
100
AcDbSymbolTableRecord
100
AcDbLayerTableRecord
  2
NOTE
 70
0
 62
7
  6
CONTINUOUS
370
-3
390
F
  0
LAYER
  5
20A
100
AcDbSymbolTableRecord
100
AcDbLayerTableRecord
  2
PIANI
 70
0
 62
7
  6
CONTINUOUS
370
-3
390
F
  0
LAYER
  5
20B
100
AcDbSymbolTableRecord
100
AcDbLayerTableRecord
  2
PIANI_ORIGINE
 70
0
 62
7
  6
CONTINUOUS
370
-3
390
F
  0
LAYER
  5
20C
100
AcDbSymbolTableRecord
100
AcDbLayerTableRecord
  2
PIANI_SFORMO
 70
0
 62
7
  6
CONTINUOUS
370
-3
390
F
  0
LAYER
  5
20D
100
AcDbSymbolTableRecord
100
AcDbLayerTableRecord
  2
PUNTI
 70
0
 62
7
  6
CONTINUOUS
370
-3
390
F
  0
LAYER
  5
20E
100
AcDbSymbolTableRecord
100
AcDbLayerTableRecord
  2
RACCORDO
 70
0
 62
7
  6
CONTINUOUS
370
-3
390
F
  0
LAYER
  5
20F
100
AcDbSymbolTableRecord
100
AcDbLayerTableRecord
  2
RGB____0____0____0__
 70
0
 62
7
  6
CONTINUOUS
370
-3
390
F
  0
LAYER
  5
210
100
AcDbSymbolTableRecord
100
AcDbLayerTableRecord
  2
SMUSSO
 70
0
 62
7
  6
CONTINUOUS
370
-3
390
F
  0
LAYER
  5
211
100
AcDbSymbolTableRecord
100
AcDbLayerTableRecord
  2
SNAPLINE
 70
0
 62
7
  6
CONTINUOUS
370
-3
390
F
  0
LAYER
  5
212
100
AcDbSymbolTableRecord
100
AcDbLayerTableRecord
  2
SUP-SCAVI-INCLINATI
 70
0
 62
7
  6
CONTINUOUS
370
-3
390
F
  0
LAYER
  5
213
100
AcDbSymbolTableRecord
100
AcDbLayerTableRecord
  2
SUP-SCAVI-INCLINATI-SUP
 70
0
 62
7
  6
CONTINUOUS
370
-3
390
F
  0
LAYER
  5
214
100
AcDbSymbolTableRecord
100
AcDbLayerTableRecord
  2
SUPERFICI
 70
0
 62
7
  6
CONTINUOUS
370
-3
390
F
  0
LAYER
  5
215
100
AcDbSymbolTableRecord
100
AcDbLayerTableRecord
  2
SUP_20000
 70
0
 62
7
  6
CONTINUOUS
370
-3
390
F
  0
LAYER
  5
216
100
AcDbSymbolTableRecord
100
AcDbLayerTableRecord
  2
TRASH
 70
0
 62
7
  6
CONTINUOUS
370
-3
390
F
  0
ENDTAB
  0
TABLE
  2
STYLE
  5
3
100
AcDbSymbolTable
 70
1
  0
STYLE
  5
11
100
AcDbSymbolTableRecord
100
AcDbTextStyleTableRecord
  2
STANDARD
 70
0
 40
0.0
 41
0.8
 50
0.0
 71
0
 42
0.2
  3
txt
  4

  0
STYLE
  5
217
100
AcDbSymbolTableRecord
100
AcDbTextStyleTableRecord
  2
TEXTSTYLE_1
 70
0
 40
0.0
 41
0.8
 50
0.0
 71
0
 42
0.2
  3
gdt
  4

  0
ENDTAB
  0
TABLE
  2
VIEW
  5
6
100
AcDbSymbolTable
 70
0
  0
ENDTAB
  0
TABLE
  2
UCS
  5
7
100
AcDbSymbolTable
 70
0
  0
ENDTAB
  0
TABLE
  2
APPID
  5
9
100
AcDbSymbolTable
 70
1
  0
APPID
  5
218
100
AcDbSymbolTableRecord
100
AcDbRegAppTableRecord
  2
ACAD
 70
0
  0
ENDTAB
  0
TABLE
  2
BLOCK_RECORD
  5
1
100
AcDbSymbolTable
 70
0
  0
BLOCK_RECORD
  5
219
100
AcDbSymbolTableRecord
100
AcDbBlockTableRecord
  2
*Model_Space
  0
BLOCK_RECORD
  5
21A
100
AcDbSymbolTableRecord
100
AcDbBlockTableRecord
  2
*Paper_Space
  0
BLOCK_RECORD
  5
21B
100
AcDbSymbolTableRecord
100
AcDbBlockTableRecord
  2
_FILLED
  0
BLOCK_RECORD
  5
21C
100
AcDbSymbolTableRecord
100
AcDbBlockTableRecord
  2
*D0
  0
BLOCK_RECORD
  5
21D
100
AcDbSymbolTableRecord
100
AcDbBlockTableRecord
  2
*D1
  0
BLOCK_RECORD
  5
21E
100
AcDbSymbolTableRecord
100
AcDbBlockTableRecord
  2
*D2
  0
BLOCK_RECORD
  5
21F
100
AcDbSymbolTableRecord
100
AcDbBlockTableRecord
  2
*D3
  0
ENDTAB
  0
TABLE
  2
DIMSTYLE
  5
A
100
AcDbSymbolTable
 70
1
100
AcDbDimStyleTable
 71
0
  0
DIMSTYLE
105
220
100
AcDbSymbolTableRecord
100
AcDbDimStyleTableRecord
  2
STANDARD
 70
0
  3

  4

 40
1.0
 41
3.0
 42
0.5
 43
0.38
 44
1.5
 45
0.0
 46
0.0
 47
0.01
 48
0.01
140
3.0
141
0.0
142
0.0
143
25.4
144
1.0
145
0.0
146
1.0
147
0.625
 71
1
 72
0
 73
0
 74
0
 75
0
 76
0
 77
1
 78
8
 79
2
170
0
171
1
172
0
173
0
174
0
175
0
176
0
177
0
178
0
270
2
179
2
271
2
272
2
273
2
274
2
275
0
280
0
281
0
282
0
283
1
284
8
285
0
286
0
287
3
288
0
340
11
278
44
341
21B
342
21B
343
21B
344
21B
  0
DIMSTYLE
105
221
100
AcDbSymbolTableRecord
100
AcDbDimStyleTableRecord
  2
DIMSTYLE_1
 70
0
  3

  4

 40
1.0
 41
3.0
 42
0.5
 43
0.38
 44
1.5
 45
0.0
 46
0.0
 47
0.0
 48
0.0
140
3.0
141
0.0
142
0.0
143
25.4
144
1.0
145
0.0
146
1.0
147
0.75
 71
0
 72
0
 73
0
 74
0
 75
0
 76
0
 77
1
 78
8
 79
2
170
0
171
1
172
0
173
0
174
0
175
0
176
0
177
0
178
0
270
2
179
2
271
2
272
2
273
2
274
2
275
0
280
0
281
0
282
0
283
1
284
8
285
0
286
0
287
3
288
0
340
11
278
44
341
21B
342
21B
343
21B
344
21B
  0
DIMSTYLE
105
222
100
AcDbSymbolTableRecord
100
AcDbDimStyleTableRecord
  2
DIMSTYLE_2
 70
0
  3

  4

 40
1.0
 41
3.0
 42
0.5
 43
0.38
 44
1.5
 45
0.0
 46
0.0
 47
0.0
 48
0.0
140
3.0
141
0.0
142
0.0
143
25.4
144
1.0
145
0.0
146
1.0
147
0.75
 71
0
 72
0
 73
0
 74
0
 75
0
 76
0
 77
1
 78
8
 79
2
170
0
171
1
172
0
173
0
174
0
175
0
176
0
177
0
178
0
270
2
179
2
271
1
272
2
273
2
274
2
275
0
280
0
281
0
282
0
283
1
284
8
285
0
286
0
287
3
288
0
340
11
278
44
341
21B
342
21B
343
21B
344
21B
  0
ENDTAB
  0
ENDSEC
  0
SECTION
  2
BLOCKS
  0
BLOCK
  5
20
100
AcDbEntity
  8
0
100
AcDbBlockBegin
  2
*Model_Space
 70
0
 10
0.0
 20
0.0
 30
0.0
  3
*Model_Space
  1

  0
ENDBLK
  5
21
100
AcDbEntity
  8
0
100
AcDbBlockEnd
  0
BLOCK
  5
1C
100
AcDbEntity
  8
0
100
AcDbBlockBegin
  2
*Paper_Space
 70
0
 10
0.0
 20
0.0
 30
0.0
  3
*Paper_Space
  1

  0
ENDBLK
  5
1D
100
AcDbEntity
  8
0
100
AcDbBlockEnd
  0
BLOCK
  5
223
100
AcDbEntity
  8
0
100
AcDbBlockBegin
  2
_FILLED
 70
64
 10
0.0
 20
0.0
 30
0.0
  3
_FILLED
  1

  0
SOLID
  5
224
100
AcDbEntity
  8
0
  6
BYBLOCK
 62
0
100
AcDbTrace
 10
0.0
 20
0.0
 30
0.0
 11
-1.0
 21
0.3166666667
 31
0.0
 12
-1.0
 22
-0.3166666667
 32
0.0
 13
-1.0
 23
-0.3166666667
 33
0.0
  0
ENDBLK
  5
225
100
AcDbEntity
  8
0
  6
BYBLOCK
 62
0
100
AcDbBlockEnd
  0
BLOCK
  5
226
100
AcDbEntity
  8
0
100
AcDbBlockBegin
 62
7
  6
CONTINUOUS
  2
*D0
 70
65
 10
0.0
 20
0.0
 30
0.0
  3
*D0
  1

  0
MTEXT
  5
227
100
AcDbEntity
  8
0
100
AcDbMText
 62
7
  6
CONTINUOUS
  7
STANDARD
 71
2
 72
1
 10
-16.3806237012
 20
46.6199634096
 30
0.0
 11
1.0
 21
0.0
 31
0.0
 73
2
 44
0.9
  1
{\ftxt;\W0.0001;\H0.0001;\~}{\ftxt;\W1.5714285714;\H3.0; }{\ftxt;\W0.0001;\H0.0001;\~}
 40
3.0
 41
7.0714285714
  0
LINE
  5
228
100
AcDbEntity
  8
0
100
AcDbLine
 62
7
  6
CONTINUOUS
 10
4.6193762988
 20
12.6075753938
 30
0.0
 11
4.6193762988
 21
44.3699634096
 31
0.0
  0
LINE
  5
229
100
AcDbEntity
  8
0
100
AcDbLine
 62
7
  6
CONTINUOUS
 10
-37.3806237012
 20
0.8699634096
 30
0.0
 11
-37.3806237012
 21
44.3699634096
 31
0.0
  0
LINE
  5
22A
100
AcDbEntity
  8
0
100
AcDbLine
 62
7
  6
CONTINUOUS
 10
4.6193762988
 20
42.8699634096
 30
0.0
 11
-16.3806237012
 21
42.8699634096
 31
0.0
  0
LINE
  5
22B
100
AcDbEntity
  8
0
100
AcDbLine
 62
7
  6
CONTINUOUS
 10
-37.3806237012
 20
42.8699634096
 30
0.0
 11
-16.3806237012
 21
42.8699634096
 31
0.0
  0
INSERT
  5
22C
100
AcDbEntity
  8
0
100
AcDbBlockReference
 62
7
  6
CONTINUOUS
  2
_FILLED
 10
4.6193762988
 20
42.8699634096
 30
0.0
 41
3.0
 42
3.0
 43
3.0
  0
INSERT
  5
22D
100
AcDbEntity
  8
0
100
AcDbBlockReference
 62
7
  6
CONTINUOUS
  2
_FILLED
 10
-37.3806237012
 20
42.8699634096
 30
0.0
 41
3.0
 42
3.0
 43
3.0
 50
180.0
  0
ENDBLK
  5
22E
100
AcDbEntity
  8
0
  6
BYBLOCK
 62
0
100
AcDbBlockEnd
  0
BLOCK
  5
22F
100
AcDbEntity
  8
0
100
AcDbBlockBegin
 62
7
  6
CONTINUOUS
  2
*D1
 70
65
 10
0.0
 20
0.0
 30
0.0
  3
*D1
  1

  0
MTEXT
  5
230
100
AcDbEntity
  8
0
100
AcDbMText
 62
7
  6
CONTINUOUS
  7
STANDARD
 71
2
 72
1
 10
25.1373317079
 20
36.6199634096
 30
0.0
 11
1.0
 21
0.0
 31
0.0
 73
2
 44
0.9
  1
{\ftxt;\W0.0001;\H0.0001;\~}{\ftxt;\W2.8571428571;\H3.0; }{\ftxt;\W0.0001;\H0.0001;\~}
 40
3.0
 41
12.8571428571
  0
LINE
  5
231
100
AcDbEntity
  8
0
100
AcDbLine
 62
7
  6
CONTINUOUS
 10
36.3045685679
 20
22.7699803326
 30
0.0
 11
36.3045685679
 21
34.3699634096
 31
0.0
  0
LINE
  5
232
100
AcDbEntity
  8
0
100
AcDbLine
 62
7
  6
CONTINUOUS
 10
13.9700948479
 20
19.0173094481
 30
0.0
 11
13.9700948479
 21
34.3699634096
 31
0.0
  0
LINE
  5
233
100
AcDbEntity
  8
0
100
AcDbLine
 62
7
  6
CONTINUOUS
 10
36.3045685679
 20
32.8699634096
 30
0.0
 11
25.1373317079
 21
32.8699634096
 31
0.0
  0
LINE
  5
234
100
AcDbEntity
  8
0
100
AcDbLine
 62
7
  6
CONTINUOUS
 10
13.9700948479
 20
32.8699634096
 30
0.0
 11
25.1373317079
 21
32.8699634096
 31
0.0
  0
INSERT
  5
235
100
AcDbEntity
  8
0
100
AcDbBlockReference
 62
7
  6
CONTINUOUS
  2
_FILLED
 10
36.3045685679
 20
32.8699634096
 30
0.0
 41
3.0
 42
3.0
 43
3.0
  0
INSERT
  5
236
100
AcDbEntity
  8
0
100
AcDbBlockReference
 62
7
  6
CONTINUOUS
  2
_FILLED
 10
13.9700948479
 20
32.8699634096
 30
0.0
 41
3.0
 42
3.0
 43
3.0
 50
180.0
  0
ENDBLK
  5
237
100
AcDbEntity
  8
0
  6
BYBLOCK
 62
0
100
AcDbBlockEnd
  0
BLOCK
  5
238
100
AcDbEntity
  8
0
100
AcDbBlockBegin
 62
7
  6
CONTINUOUS
  2
*D2
 70
65
 10
0.0
 20
0.0
 30
0.0
  3
*D2
  1

  0
MTEXT
  5
239
100
AcDbEntity
  8
0
100
AcDbMText
 62
7
  6
CONTINUOUS
  7
STANDARD
 71
2
 72
1
 10
40.5881696011
 20
0.3699634096
 30
0.0
 11
0.0
 21
1.0
 31
0.0
 73
2
 44
0.9
  1
{\ftxt;\W0.0001;\H0.0001;\~}{\ftxt;\W1.5714285714;\H3.0; }{\ftxt;\W0.0001;\H0.0001;\~}
 40
3.0
 41
7.0714285714
  0
LINE
  5
23A
100
AcDbEntity
  8
0
100
AcDbLine
 62
7
  6
CONTINUOUS
 10
35.5541364553
 20
24.8699634096
 30
0.0
 11
45.8381696011
 21
24.8699634096
 31
0.0
  0
LINE
  5
23B
100
AcDbEntity
  8
0
100
AcDbLine
 62
7
  6
CONTINUOUS
 10
35.5541364553
 20
-24.1300365904
 30
0.0
 11
45.8381696011
 21
-24.1300365904
 31
0.0
  0
LINE
  5
23C
100
AcDbEntity
  8
0
100
AcDbLine
 62
7
  6
CONTINUOUS
 10
44.3381696011
 20
24.8699634096
 30
0.0
 11
44.3381696011
 21
0.3699634096
 31
0.0
  0
LINE
  5
23D
100
AcDbEntity
  8
0
100
AcDbLine
 62
7
  6
CONTINUOUS
 10
44.3381696011
 20
-24.1300365904
 30
0.0
 11
44.3381696011
 21
0.3699634096
 31
0.0
  0
INSERT
  5
23E
100
AcDbEntity
  8
0
100
AcDbBlockReference
 62
7
  6
CONTINUOUS
  2
_FILLED
 10
44.3381696011
 20
24.8699634096
 30
0.0
 41
3.0
 42
3.0
 43
3.0
 50
90.0
  0
INSERT
  5
23F
100
AcDbEntity
  8
0
100
AcDbBlockReference
 62
7
  6
CONTINUOUS
  2
_FILLED
 10
44.3381696011
 20
-24.1300365904
 30
0.0
 41
3.0
 42
3.0
 43
3.0
 50
270.0
  0
ENDBLK
  5
240
100
AcDbEntity
  8
0
  6
BYBLOCK
 62
0
100
AcDbBlockEnd
  0
BLOCK
  5
241
100
AcDbEntity
  8
0
100
AcDbBlockBegin
 62
7
  6
CONTINUOUS
  2
*D3
 70
65
 10
0.0
 20
0.0
 30
0.0
  3
*D3
  1

  0
MTEXT
  5
242
100
AcDbEntity
  8
0
100
AcDbMText
 62
7
  6
CONTINUOUS
  7
STANDARD
 71
2
 72
1
 10
-11.6306237012
 20
36.6199634096
 30
0.0
 11
1.0
 21
0.0
 31
0.0
 73
2
 44
0.9
  1
{\ftxt;\W0.0001;\H0.0001;\~}{\ftxt;\W2.7857142857;\H3.0; }{\ftxt;\W0.0001;\H0.0001;\~}
 40
3.0
 41
12.5357142857
  0
LINE
  5
243
100
AcDbEntity
  8
0
100
AcDbLine
 62
7
  6
CONTINUOUS
 10
4.6193762988
 20
12.6075753938
 30
0.0
 11
4.6193762988
 21
34.3699634096
 31
0.0
  0
LINE
  5
244
100
AcDbEntity
  8
0
100
AcDbLine
 62
7
  6
CONTINUOUS
 10
-27.8806237012
 20
25.1155958063
 30
0.0
 11
-27.8806237012
 21
34.3699634096
 31
0.0
  0
LINE
  5
245
100
AcDbEntity
  8
0
100
AcDbLine
 62
7
  6
CONTINUOUS
 10
4.6193762988
 20
32.8699634096
 30
0.0
 11
-11.6306237012
 21
32.8699634096
 31
0.0
  0
LINE
  5
246
100
AcDbEntity
  8
0
100
AcDbLine
 62
7
  6
CONTINUOUS
 10
-27.8806237012
 20
32.8699634096
 30
0.0
 11
-11.6306237012
 21
32.8699634096
 31
0.0
  0
INSERT
  5
247
100
AcDbEntity
  8
0
100
AcDbBlockReference
 62
7
  6
CONTINUOUS
  2
_FILLED
 10
4.6193762988
 20
32.8699634096
 30
0.0
 41
3.0
 42
3.0
 43
3.0
  0
INSERT
  5
248
100
AcDbEntity
  8
0
100
AcDbBlockReference
 62
7
  6
CONTINUOUS
  2
_FILLED
 10
-27.8806237012
 20
32.8699634096
 30
0.0
 41
3.0
 42
3.0
 43
3.0
 50
180.0
  0
ENDBLK
  5
249
100
AcDbEntity
  8
0
  6
BYBLOCK
 62
0
100
AcDbBlockEnd
  0
ENDSEC
  0
SECTION
  2
ENTITIES
  0
DIMENSION
  5
24A
100
AcDbEntity
  8
0
100
AcDbDimension
 62
7
  6
CONTINUOUS
  2
*D0
 10
-37.3806237012
 20
42.8699634096
 30
0.0
 11
-16.8091947704
 21
42.8699634096
 31
0.0
 70
160
 71
2
 72
2
 41
0.9
 42
42.0
  1
{\ftxt;\W0.0001;\H0.0001;\~}{\ftxt;\W1.5714285714;\H3.0; }{\ftxt;\W0.0001;\H0.0001;\~}
  3
DIMSTYLE_1
100
AcDbAlignedDimension
 13
4.6193762988
 23
12.1075753938
 33
0.0
 14
-37.3806237012
 24
0.3699634096
 34
0.0
 50
180.0
100
AcDbRotatedDimension
  0
DIMENSION
  5
24B
100
AcDbEntity
  8
0
100
AcDbDimension
 62
7
  6
CONTINUOUS
  2
*D1
 10
13.9700948479
 20
32.8699634096
 30
0.0
 11
24.7087596344
 21
32.8699634096
 31
0.0
 70
160
 71
2
 72
2
 41
0.9
 42
22.33447372
  1
{\ftxt;\W0.0001;\H0.0001;\~}{\ftxt;\W2.8571428571;\H3.0; }{\ftxt;\W0.0001;\H0.0001;\~}
  3
DIMSTYLE_2
100
AcDbAlignedDimension
 13
36.3045685679
 23
22.2699803326
 33
0.0
 14
13.9700948479
 24
18.5173094481
 34
0.0
 50
180.0
100
AcDbRotatedDimension
  0
DIMENSION
  5
24C
100
AcDbEntity
  8
0
100
AcDbDimension
 62
7
  6
CONTINUOUS
  2
*D2
 10
44.3381696011
 20
-24.1300365904
 30
0.0
 11
44.3381696011
 21
-0.0586073785
 31
0.0
 70
160
 71
2
 72
2
 41
0.9
 42
49.0
  1
{\ftxt;\W0.0001;\H0.0001;\~}{\ftxt;\W1.5714285714;\H3.0; }{\ftxt;\W0.0001;\H0.0001;\~}
  3
DIMSTYLE_1
100
AcDbAlignedDimension
 13
35.0541364553
 23
24.8699634096
 33
0.0
 14
35.0541364553
 24
-24.1300365904
 34
0.0
 50
270.0
100
AcDbRotatedDimension
  0
DIMENSION
  5
24D
100
AcDbEntity
  8
0
100
AcDbDimension
 62
7
  6
CONTINUOUS
  2
*D3
 10
-27.8806237012
 20
32.8699634096
 30
0.0
 11
-12.0591951944
 21
32.8699634096
 31
0.0
 70
160
 71
2
 72
2
 41
0.9
 42
32.5
  1
{\ftxt;\W0.0001;\H0.0001;\~}{\ftxt;\W2.7857142857;\H3.0; }{\ftxt;\W0.0001;\H0.0001;\~}
  3
DIMSTYLE_1
100
AcDbAlignedDimension
 13
4.6193762988
 23
12.1075753938
 33
0.0
 14
-27.8806237012
 24
24.6155958063
 34
0.0
 50
180.0
100
AcDbRotatedDimension
  0
LWPOLYLINE
  5
24E
100
AcDbEntity
  8
0
100
AcDbPolyline
 62
7
  6
CONTINUOUS
 90
5
 70
0
 43
0.3500000087
 10
-14.9520524597
 20
35.3342486633
 10
-14.5949089493
 20
35.5485351959
 10
-14.5949089493
 20
36.1913905304
 10
-14.9520524597
 20
36.6199635956
 10
-15.8091953926
 20
36.6199635956
  0
LINE
  5
24F
100
AcDbEntity
  8
0
100
AcDbLine
 62
250
  6
CONTINUOUS
 10
-28.8806237012
 20
23.7804485578
 30
0.0
 11
-28.1291692684
 21
24.2143009769
 31
0.0
  0
LINE
  5
250
100
AcDbEntity
  8
0
100
AcDbLine
 62
7
  6
CONTINUOUS
 10
-28.8806237012
 20
23.4926131404
 30
0.0
 11
-28.0056237012
 21
23.9977946259
 31
0.0
  0
LINE
  5
251
100
AcDbEntity
  8
0
100
AcDbLine
 62
250
  6
CONTINUOUS
 10
-28.1291692684
 20
-23.4743741577
 30
0.0
 11
-28.8806237012
 21
-23.0405217387
 31
0.0
  0
LINE
  5
252
100
AcDbEntity
  8
0
100
AcDbLine
 62
7
  6
CONTINUOUS
 10
-28.0056237012
 20
-23.2578678068
 30
0.0
 11
-28.8806237012
 21
-22.7526863212
 31
0.0
  0
LINE
  5
253
100
AcDbEntity
  8
0
100
AcDbLine
 62
7
  6
CONTINUOUS
 10
-28.8806237012
 20
-24.1300365904
 30
0.0
 11
-28.1291692684
 21
-24.1256647564
 31
0.0
  0
LINE
  5
254
100
AcDbEntity
  8
0
100
AcDbLine
 62
250
  6
CONTINUOUS
 10
-28.8806237012
 20
-23.8800408212
 30
0.0
 11
-28.1291692684
 21
-23.8756689872
 31
0.0
  0
LINE
  5
255
100
AcDbEntity
  8
0
100
AcDbLine
 62
7
  6
CONTINUOUS
 10
-21.3777148356
 20
-23.5863859436
 30
0.0
 11
-27.8797519604
 21
-23.624213689
 31
0.0
  0
LINE
  5
256
100
AcDbEntity
  8
0
100
AcDbLine
 62
250
  6
CONTINUOUS
 10
-27.8806237012
 20
-23.8756689872
 30
0.0
 11
-28.1291692684
 21
-23.8756689872
 31
0.0
  0
LINE
  5
257
100
AcDbEntity
  8
0
100
AcDbLine
 62
250
  6
CONTINUOUS
 10
-31.3806237012
 20
-23.8669422425
 30
0.0
 11
-31.1320781341
 21
-23.8669422425
 31
0.0
  0
LINE
  5
258
100
AcDbEntity
  8
0
100
AcDbLine
 62
250
  6
CONTINUOUS
 10
-31.3806237012
 20
-23.4743741577
 30
0.0
 11
-31.1320781341
 21
-23.4743741577
 31
0.0
  0
LINE
  5
259
100
AcDbEntity
  8
0
100
AcDbLine
 62
250
  6
CONTINUOUS
 10
-27.8806237012
 20
-23.4743741577
 30
0.0
 11
-28.1291692684
 21
-23.4743741577
 31
0.0
  0
LINE
  5
25A
100
AcDbEntity
  8
0
100
AcDbLine
 62
7
  6
CONTINUOUS
 10
-31.1320781341
 20
-24.1169380117
 30
0.0
 11
-28.8806237012
 21
-24.1300365904
 31
0.0
  0
LINE
  5
25B
100
AcDbEntity
  8
0
100
AcDbLine
 62
250
  6
CONTINUOUS
 10
-31.1320781341
 20
-23.8669422425
 30
0.0
 11
-28.8806237012
 21
-23.8800408212
 31
0.0
  0
LINE
  5
25C
100
AcDbEntity
  8
0
100
AcDbLine
 62
7
  6
CONTINUOUS
 10
-28.880623526
 20
-22.0300365894
 30
0.0
 11
-27.8806237012
 21
-22.0242187606
 31
0.0
  0
LINE
  5
25D
100
AcDbEntity
  8
DRAFT
100
AcDbLine
 62
7
  6
CONTINUOUS
 10
-17.8748059699
 20
-21.9660066159
 30
0.0
 11
-27.8806237012
 21
-22.0242187606
 31
0.0
  0
LINE
  5
25E
100
AcDbEntity
  8
0
100
AcDbLine
 62
250
  6
CONTINUOUS
 10
-28.8806237012
 20
-21.5300535135
 30
0.0
 11
-27.8806237012
 21
-21.5242356837
 31
0.0
  0
LINE
  5
25F
100
AcDbEntity
  8
DRAFT
100
AcDbLine
 62
7
  6
CONTINUOUS
 10
-17.371897498
 20
-21.0837720176
 30
0.0
 11
-27.8806237012
 21
-21.0300365904
 31
0.0
  0
LINE
  5
260
100
AcDbEntity
  8
0
100
AcDbLine
 62
7
  6
CONTINUOUS
 10
-35.3638607703
 20
-21.6902645331
 30
0.0
 11
-28.8806237012
 21
-22.0300365904
 31
0.0
  0
LINE
  5
261
100
AcDbEntity
  8
0
100
AcDbLine
 62
250
  6
CONTINUOUS
 10
-35.3464189954
 20
-21.1909497657
 30
0.0
 11
-28.8806008578
 21
-21.5298089355
 31
0.0
  0
LINE
  5
262
100
AcDbEntity
  8
DRAFT
100
AcDbLine
 62
7
  6
CONTINUOUS
 10
-26.8806237012
 20
-20.4800365904
 30
0.0
 11
-16.8806237012
 21
-20.3054859412
 31
0.0
  0
LINE
  5
263
100
AcDbEntity
  8
ASSI
100
AcDbLine
 62
7
  6
CONTINUOUS
 10
-26.8806237012
 20
-20.4800365904
 30
0.0
 11
-16.8806237012
 21
-20.3054859412
 31
0.0
  0
LINE
  5
264
100
AcDbEntity
  8
0
100
AcDbLine
 62
7
  6
CONTINUOUS
 10
-16.8806237012
 20
-20.5300365904
 30
0.0
 11
-27.8806237012
 21
-20.5300365904
 31
0.0
  0
LINE
  5
265
100
AcDbEntity
  8
0
100
AcDbLine
 62
7
  6
CONTINUOUS
 10
-27.8806237012
 20
-19.1300365904
 30
0.0
 11
-26.8806237012
 21
-19.1300365904
 31
0.0
  0
LINE
  5
266
100
AcDbEntity
  8
RACCORDO
100
AcDbLine
 62
250
  6
CONTINUOUS
 10
-27.8806237012
 20
-19.6300324781
 30
0.0
 11
-26.8806237012
 21
-19.6352685137
 31
0.0
  0
LINE
  5
267
100
AcDbEntity
  8
RACCORDO
100
AcDbLine
 62
7
  6
CONTINUOUS
 10
-27.8816708797
 20
-19.3300311074
 30
0.0
 11
-26.8806237012
 21
-19.335272626
 31
0.0
  0
LINE
  5
268
100
AcDbEntity
  8
0
100
AcDbLine
 62
7
  6
CONTINUOUS
 10
-24.6096052907
 20
16.9146109757
 30
0.0
 11
-24.6069538568
 21
16.9172624096
 31
0.0
  0
LINE
  5
269
100
AcDbEntity
  8
0
100
AcDbLine
 62
7
  6
CONTINUOUS
 10
-24.6096052907
 20
16.6775322141
 30
0.0
 11
-24.3698750952
 21
16.9172624096
 31
0.0
  0
LINE
  5
26A
100
AcDbEntity
  8
0
100
AcDbLine
 62
7
  6
CONTINUOUS
 10
-24.6096052907
 20
16.4404534525
 30
0.0
 11
-24.1327963336
 21
16.9172624096
 31
0.0
  0
LINE
  5
26B
100
AcDbEntity
  8
0
100
AcDbLine
 62
7
  6
CONTINUOUS
 10
-24.4628952649
 20
16.3500847167
 30
0.0
 11
-23.895717572
 21
16.9172624096
 31
0.0
  0
LINE
  5
26C
100
AcDbEntity
  8
RACCORDO
100
AcDbLine
 62
250
  6
CONTINUOUS
 10
-26.8806237012
 20
-18.71573381
 30
0.0
 11
-16.8806237012
 21
-18.6434325637
 31
0.0
  0
LINE
  5
26D
100
AcDbEntity
  8
ASSI
100
AcDbLine
 62
250
  6
CONTINUOUS
 10
-26.8806237012
 20
-18.71573381
 30
0.0
 11
-16.8806237012
 21
-18.6434325637
 31
0.0
  0
LINE
  5
26E
100
AcDbEntity
  8
RACCORDO
100
AcDbLine
 62
250
  6
CONTINUOUS
 10
-26.8806237012
 20
-17.3017356392
 30
0.0
 11
-16.8806237012
 21
-17.2294343929
 31
0.0
  0
LINE
  5
26F
100
AcDbEntity
  8
ASSI
100
AcDbLine
 62
250
  6
CONTINUOUS
 10
-26.8806237012
 20
-17.3017356392
 30
0.0
 11
-16.8806237012
 21
-17.2294343929
 31
0.0
  0
LINE
  5
270
100
AcDbEntity
  8
0
100
AcDbLine
 62
7
  6
CONTINUOUS
 10
-27.8806237012
 20
-18.1383271148
 30
0.0
 11
-26.8806237012
 21
-18.1470539826
 31
0.0
  0
LINE
  5
271
100
AcDbEntity
  8
0
100
AcDbLine
 62
7
  6
CONTINUOUS
 10
-31.3806237012
 20
-23.8669422425
 30
0.0
 11
-31.3806237012
 21
-23.4743741577
 31
0.0
  0
LINE
  5
272
100
AcDbEntity
  8
0
100
AcDbLine
 62
7
  6
CONTINUOUS
 10
-31.3806237012
 20
24.2143009769
 30
0.0
 11
-31.3806237012
 21
24.6068690616
 31
0.0
  0
LINE
  5
273
100
AcDbEntity
  8
0
100
AcDbLine
 62
7
  6
CONTINUOUS
 10
-24.2258176229
 20
16.3500835971
 30
0.0
 11
-23.6586388104
 21
16.9172624096
 31
0.0
  0
LINE
  5
274
100
AcDbEntity
  8
0
100
AcDbLine
 62
7
  6
CONTINUOUS
 10
-23.9887399809
 20
16.3500824775
 30
0.0
 11
-23.4215600488
 21
16.9172624096
 31
0.0
  0
LINE
  5
275
100
AcDbEntity
  8
0
100
AcDbLine
 62
7
  6
CONTINUOUS
 10
-23.7516623389
 20
16.350081358
 30
0.0
 11
-23.1844812872
 21
16.9172624096
 31
0.0
  0
LINE
  5
276
100
AcDbEntity
  8
0
100
AcDbLine
 62
7
  6
CONTINUOUS
 10
-23.5145846968
 20
16.3500802384
 30
0.0
 11
-22.9474025256
 21
16.9172624096
 31
0.0
  0
LINE
  5
277
100
AcDbEntity
  8
0
100
AcDbLine
 62
7
  6
CONTINUOUS
 10
-23.2775070548
 20
16.3500791188
 30
0.0
 11
-22.710323764
 21
16.9172624096
 31
0.0
  0
LINE
  5
278
100
AcDbEntity
  8
0
100
AcDbLine
 62
7
  6
CONTINUOUS
 10
-24.6096052907
 20
14.7809021213
 30
0.0
 11
-24.4715924727
 21
14.9189149393
 31
0.0
  0
LINE
  5
279
100
AcDbEntity
  8
0
100
AcDbLine
 62
7
  6
CONTINUOUS
 10
-23.0404294128
 20
16.3500779992
 30
0.0
 11
-22.4732450025
 21
16.9172624096
 31
0.0
  0
LINE
  5
27A
100
AcDbEntity
  8
0
100
AcDbLine
 62
7
  6
CONTINUOUS
 10
-24.6096052907
 20
14.5438233597
 30
0.0
 11
-23.7881377588
 21
15.3652908916
 31
0.0
  0
LINE
  5
27B
100
AcDbEntity
  8
0
100
AcDbLine
 62
7
  6
CONTINUOUS
 10
-22.8033517708
 20
16.3500768796
 30
0.0
 11
-22.2361662409
 21
16.9172624096
 31
0.0
  0
LINE
  5
27C
100
AcDbEntity
  8
0
100
AcDbLine
 62
7
  6
CONTINUOUS
 10
-24.6096052907
 20
14.3067445981
 30
0.0
 11
-23.104683045
 21
15.8116668438
 31
0.0
  0
LINE
  5
27D
100
AcDbEntity
  8
0
100
AcDbLine
 62
7
  6
CONTINUOUS
 10
-22.5662741288
 20
16.35007576
 30
0.0
 11
-21.9990874793
 21
16.9172624096
 31
0.0
  0
LINE
  5
27E
100
AcDbEntity
  8
0
100
AcDbLine
 62
7
  6
CONTINUOUS
 10
-24.4261627177
 20
14.2531084096
 30
0.0
 11
-22.4212283312
 21
16.2580427961
 31
0.0
  0
LINE
  5
27F
100
AcDbEntity
  8
0
100
AcDbLine
 62
7
  6
CONTINUOUS
 10
-22.3291964868
 20
16.3500746404
 30
0.0
 11
-21.7620087177
 21
16.9172624096
 31
0.0
  0
LINE
  5
280
100
AcDbEntity
  8
0
100
AcDbLine
 62
7
  6
CONTINUOUS
 10
-24.1890839561
 20
14.2531084096
 30
0.0
 11
-23.613926434
 21
14.8282659316
 31
0.0
  0
LINE
  5
281
100
AcDbEntity
  8
0
100
AcDbLine
 62
7
  6
CONTINUOUS
 10
-23.6109632826
 20
14.8312290831
 30
0.0
 11
-21.5249299561
 21
16.9172624096
 31
0.0
  0
LINE
  5
282
100
AcDbEntity
  8
0
100
AcDbLine
 62
7
  6
CONTINUOUS
 10
-23.9520051945
 20
14.2531084096
 30
0.0
 11
-23.3776674496
 21
14.8274461545
 31
0.0
  0
LINE
  5
283
100
AcDbEntity
  8
0
100
AcDbLine
 62
7
  6
CONTINUOUS
 10
-22.9312672185
 20
15.2738463855
 30
0.0
 11
-21.3116421118
 21
16.8934714922
 31
0.0
  0
LINE
  5
284
100
AcDbEntity
  8
0
100
AcDbLine
 62
7
  6
CONTINUOUS
 10
-23.7149264329
 20
14.2531084096
 30
0.0
 11
-23.1414084651
 21
14.8266263773
 31
0.0
  0
LINE
  5
285
100
AcDbEntity
  8
0
100
AcDbLine
 62
7
  6
CONTINUOUS
 10
-22.2515711545
 20
15.7164636879
 30
0.0
 11
-21.3116421118
 21
16.6563927306
 31
0.0
  0
LINE
  5
286
100
AcDbEntity
  8
0
100
AcDbLine
 62
7
  6
CONTINUOUS
 10
-23.4778476713
 20
14.2531084096
 30
0.0
 11
-22.9051494807
 21
14.8258066001
 31
0.0
  0
LINE
  5
287
100
AcDbEntity
  8
0
100
AcDbLine
 62
7
  6
CONTINUOUS
 10
-21.5718750905
 20
16.1590809904
 30
0.0
 11
-21.3116421118
 21
16.419313969
 31
0.0
  0
LINE
  5
288
100
AcDbEntity
  8
0
100
AcDbLine
 62
7
  6
CONTINUOUS
 10
-24.6096052907
 20
14.8287764096
 30
0.0
 11
-22.2803169766
 21
16.3500744096
 31
0.0
  0
LINE
  5
289
100
AcDbEntity
  8
0
100
AcDbLine
 62
7
  6
CONTINUOUS
 10
-21.3116421118
 20
16.3285444096
 30
0.0
 11
-23.6155051724
 21
14.8282714096
 31
0.0
  0
LINE
  5
28A
100
AcDbEntity
  8
0
100
AcDbLine
 62
7
  6
CONTINUOUS
 10
-26.8806237012
 20
-17.777382629
 30
0.0
 11
-28.8806237012
 21
-18.1300365904
 31
0.0
  0
LINE
  5
28B
100
AcDbEntity
  8
RACCORDO
100
AcDbLine
 62
7
  6
CONTINUOUS
 10
-16.8806237012
 20
-15.8800365904
 30
0.0
 11
2.6368287052
 21
-15.5393581914
 31
0.0
  0
LINE
  5
28C
100
AcDbEntity
  8
ASSI
100
AcDbLine
 62
7
  6
CONTINUOUS
 10
-16.8806237012
 20
-15.8800365904
 30
0.0
 11
2.6368287052
 21
-15.5393581914
 31
0.0
  0
LINE
  5
28D
100
AcDbEntity
  8
RACCORDO
100
AcDbLine
 62
250
  6
CONTINUOUS
 10
-16.8806237012
 20
-14.8801888953
 30
0.0
 11
2.6368287052
 21
-14.5395104963
 31
0.0
  0
LINE
  5
28E
100
AcDbEntity
  8
ASSI
100
AcDbLine
 62
250
  6
CONTINUOUS
 10
-16.8806237012
 20
-14.8801888953
 30
0.0
 11
2.6368287052
 21
-14.5395104963
 31
0.0
  0
LINE
  5
28F
100
AcDbEntity
  8
RACCORDO
100
AcDbLine
 62
250
  6
CONTINUOUS
 10
2.6368287052
 20
-14.5395104963
 30
0.0
 11
3.6193762988
 21
-14.5395104963
 31
0.0
  0
LINE
  5
290
100
AcDbEntity
  8
ASSI
100
AcDbLine
 62
250
  6
CONTINUOUS
 10
2.6368287052
 20
-14.5395104963
 30
0.0
 11
3.6193762988
 21
-14.5395104963
 31
0.0
  0
LINE
  5
291
100
AcDbEntity
  8
0
100
AcDbLine
 62
250
  6
CONTINUOUS
 10
-22.4064437012
 20
-14.7559195904
 30
0.0
 11
-24.6776627012
 21
-14.1077415904
 31
0.0
  0
LINE
  5
292
100
AcDbEntity
  8
0
100
AcDbLine
 62
250
  6
CONTINUOUS
 10
-24.6776627012
 20
-13.4194555904
 30
0.0
 11
-21.3780597012
 21
-14.4800805904
 31
0.0
  0
LINE
  5
293
100
AcDbEntity
  8
0
100
AcDbLine
 62
250
  6
CONTINUOUS
 10
-31.1320781341
 20
-23.8669422425
 30
0.0
 11
-31.1320781341
 21
-23.4743741577
 31
0.0
  0
LINE
  5
294
100
AcDbEntity
  8
0
100
AcDbLine
 62
250
  6
CONTINUOUS
 10
-31.1320781341
 20
24.2143009769
 30
0.0
 11
-31.1320781341
 21
24.6068690616
 31
0.0
  0
LINE
  5
295
100
AcDbEntity
  8
0
100
AcDbLine
 62
7
  6
CONTINUOUS
 10
-30.3806237012
 20
-22.7526863212
 30
0.0
 11
-30.3806237012
 21
-21.9514249215
 31
0.0
  0
LINE
  5
296
100
AcDbEntity
  8
0
100
AcDbLine
 62
7
  6
CONTINUOUS
 10
-30.3806237012
 20
22.6913517406
 30
0.0
 11
-30.3806237012
 21
23.4926131404
 31
0.0
  0
LINE
  5
297
100
AcDbEntity
  8
0
100
AcDbLine
 62
250
  6
CONTINUOUS
 10
-30.1320781341
 20
-22.8970238885
 30
0.0
 11
-30.1320781341
 21
-21.9644506427
 31
0.0
  0
LINE
  5
298
100
AcDbEntity
  8
0
100
AcDbLine
 62
250
  6
CONTINUOUS
 10
-30.1320781341
 20
22.7043774619
 30
0.0
 11
-30.1320781341
 21
23.6369507077
 31
0.0
  0
LINE
  5
299
100
AcDbEntity
  8
0
100
AcDbLine
 62
7
  6
CONTINUOUS
 10
-23.2407689097
 20
14.2531084096
 30
0.0
 11
-22.6688904963
 21
14.824986823
 31
0.0
  0
LINE
  5
29A
100
AcDbEntity
  8
0
100
AcDbLine
 62
7
  6
CONTINUOUS
 10
-24.5807213734
 20
12.6760771842
 30
0.0
 11
-23.7327871972
 21
13.5240113605
 31
0.0
  0
LINE
  5
29B
100
AcDbEntity
  8
0
100
AcDbLine
 62
7
  6
CONTINUOUS
 10
-23.0036901481
 20
14.2531084096
 30
0.0
 11
-22.4326315118
 21
14.8241670458
 31
0.0
  0
LINE
  5
29C
100
AcDbEntity
  8
0
100
AcDbLine
 62
7
  6
CONTINUOUS
 10
-24.6625156661
 20
12.3572041299
 30
0.0
 11
-23.3919770615
 21
13.6277427346
 31
0.0
  0
LINE
  5
29D
100
AcDbEntity
  8
0
100
AcDbLine
 62
7
  6
CONTINUOUS
 10
-22.7666113865
 20
14.2531084096
 30
0.0
 11
-22.1963725274
 21
14.8233472686
 31
0.0
  0
LINE
  5
29E
100
AcDbEntity
  8
0
100
AcDbLine
 62
7
  6
CONTINUOUS
 10
-24.6830308096
 20
12.0996102248
 30
0.0
 11
-23.1152945423
 21
13.6673464921
 31
0.0
  0
LINE
  5
29F
100
AcDbEntity
  8
0
100
AcDbLine
 62
7
  6
CONTINUOUS
 10
-22.5295326249
 20
14.2531084096
 30
0.0
 11
-21.960113543
 21
14.8225274915
 31
0.0
  0
LINE
  5
2A0
100
AcDbEntity
  8
0
100
AcDbLine
 62
7
  6
CONTINUOUS
 10
-24.6709688178
 20
11.8745934551
 30
0.0
 11
-24.0949461284
 21
12.4506161445
 31
0.0
  0
LINE
  5
2A1
100
AcDbEntity
  8
0
100
AcDbLine
 62
7
  6
CONTINUOUS
 10
-23.5913439346
 20
12.9542183383
 30
0.0
 11
-22.8741803559
 21
13.6713819169
 31
0.0
  0
LINE
  5
2A2
100
AcDbEntity
  8
0
100
AcDbLine
 62
7
  6
CONTINUOUS
 10
-22.2924538633
 20
14.2531084096
 30
0.0
 11
-21.7238545585
 21
14.8217077143
 31
0.0
  0
LINE
  5
2A3
100
AcDbEntity
  8
0
100
AcDbLine
 62
7
  6
CONTINUOUS
 10
-24.6347628458
 20
11.6737206655
 30
0.0
 11
-24.1588451528
 21
12.1496383585
 31
0.0
  0
LINE
  5
2A4
100
AcDbEntity
  8
0
100
AcDbLine
 62
7
  6
CONTINUOUS
 10
-23.2533173008
 20
13.0551662105
 30
0.0
 11
-22.6578441927
 21
13.6506393185
 31
0.0
  0
LINE
  5
2A5
100
AcDbEntity
  8
0
100
AcDbLine
 62
7
  6
CONTINUOUS
 10
-22.0553751017
 20
14.2531084096
 30
0.0
 11
-21.4875955741
 21
14.8208879372
 31
0.0
  0
LINE
  5
2A6
100
AcDbEntity
  8
0
100
AcDbLine
 62
7
  6
CONTINUOUS
 10
-24.57881109
 20
11.4925936597
 30
0.0
 11
-24.1474006546
 21
11.9240040951
 31
0.0
  0
LINE
  5
2A7
100
AcDbEntity
  8
0
100
AcDbLine
 62
7
  6
CONTINUOUS
 10
-22.9916573576
 20
13.0797473921
 30
0.0
 11
-22.4596790647
 21
13.611725685
 31
0.0
  0
LINE
  5
2A8
100
AcDbEntity
  8
0
100
AcDbLine
 62
7
  6
CONTINUOUS
 10
-21.8182963401
 20
14.2531084096
 30
0.0
 11
-21.3116421118
 21
14.7597626379
 31
0.0
  0
LINE
  5
2A9
100
AcDbEntity
  8
0
100
AcDbLine
 62
7
  6
CONTINUOUS
 10
-24.506031053
 20
11.3282949351
 30
0.0
 11
-24.0987655318
 21
11.7355604562
 31
0.0
  0
LINE
  5
2AA
100
AcDbEntity
  8
0
100
AcDbLine
 62
7
  6
CONTINUOUS
 10
-22.7653906801
 20
13.068935308
 30
0.0
 11
-22.2771442535
 21
13.5571817346
 31
0.0
  0
LINE
  5
2AB
100
AcDbEntity
  8
0
100
AcDbLine
 62
7
  6
CONTINUOUS
 10
-21.5812175785
 20
14.2531084096
 30
0.0
 11
-21.3116421118
 21
14.5226838763
 31
0.0
  0
LINE
  5
2AC
100
AcDbEntity
  8
0
100
AcDbLine
 62
7
  6
CONTINUOUS
 10
-24.4166716794
 20
11.1805755471
 30
0.0
 11
-24.0214584366
 21
11.5757887899
 31
0.0
  0
LINE
  5
2AD
100
AcDbEntity
  8
0
100
AcDbLine
 62
7
  6
CONTINUOUS
 10
-22.5639561274
 20
13.033291099
 30
0.0
 11
-22.1082464845
 21
13.4890007419
 31
0.0
  0
LINE
  5
2AE
100
AcDbEntity
  8
0
100
AcDbLine
 62
7
  6
CONTINUOUS
 10
-21.3441388169
 20
14.2531084096
 30
0.0
 11
-21.3116421118
 21
14.2856051147
 31
0.0
  0
LINE
  5
2AF
100
AcDbEntity
  8
0
100
AcDbLine
 62
7
  6
CONTINUOUS
 10
-24.3124835712
 20
11.0476848937
 30
0.0
 11
-23.9183908488
 21
11.4417776161
 31
0.0
  0
LINE
  5
2B0
100
AcDbEntity
  8
0
100
AcDbLine
 62
7
  6
CONTINUOUS
 10
-22.3836385298
 20
12.9765299351
 30
0.0
 11
-21.9526163486
 21
13.4075521163
 31
0.0
  0
LINE
  5
2B1
100
AcDbEntity
  8
0
100
AcDbLine
 62
7
  6
CONTINUOUS
 10
-24.1937996954
 20
10.9292900079
 30
0.0
 11
-23.7911138441
 21
11.3319758592
 31
0.0
  0
LINE
  5
2B2
100
AcDbEntity
  8
0
100
AcDbLine
 62
7
  6
CONTINUOUS
 10
-22.2226719801
 20
12.9004177232
 30
0.0
 11
-21.8104893227
 21
13.3126003806
 31
0.0
  0
LINE
  5
2B3
100
AcDbEntity
  8
0
100
AcDbLine
 62
7
  6
CONTINUOUS
 10
-24.6096052907
 20
10.276405651
 30
0.0
 11
-24.5063994436
 21
10.379611498
 31
0.0
  0
LINE
  5
2B4
100
AcDbEntity
  8
0
100
AcDbLine
 62
7
  6
CONTINUOUS
 10
-24.060942995
 20
10.8250679466
 30
0.0
 11
-23.6425556608
 21
11.2434552809
 31
0.0
  0
LINE
  5
2B5
100
AcDbEntity
  8
0
100
AcDbLine
 62
7
  6
CONTINUOUS
 10
-22.0814823979
 20
12.8045285438
 30
0.0
 11
-21.6831232351
 21
13.2028877066
 31
0.0
  0
LINE
  5
2B6
100
AcDbEntity
  8
0
100
AcDbLine
 62
7
  6
CONTINUOUS
 10
-24.6096052907
 20
10.0393268894
 30
0.0
 11
-24.3904958578
 21
10.2584363223
 31
0.0
  0
LINE
  5
2B7
100
AcDbEntity
  8
0
100
AcDbLine
 62
7
  6
CONTINUOUS
 10
-23.9140778229
 20
10.7348543572
 30
0.0
 11
-23.4746134133
 21
11.1743187668
 31
0.0
  0
LINE
  5
2B8
100
AcDbEntity
  8
0
100
AcDbLine
 62
7
  6
CONTINUOUS
 10
-21.9626636497
 20
12.6862685304
 30
0.0
 11
-21.569762608
 21
13.0791695721
 31
0.0
  0
LINE
  5
2B9
100
AcDbEntity
  8
0
100
AcDbLine
 62
250
  6
CONTINUOUS
 10
-24.6776627012
 20
-15.3848835904
 30
0.0
 11
-22.4064437012
 21
-14.7559195904
 31
0.0
  0
LINE
  5
2BA
100
AcDbEntity
  8
DRAFT
100
AcDbLine
 62
7
  6
CONTINUOUS
 10
3.8932295762
 20
-11.7060775332
 30
0.0
 11
4.3455230216
 21
-11.6665069841
 31
0.0
  0
LINE
  5
2BB
100
AcDbEntity
  8
ASSI
100
AcDbLine
 62
7
  6
CONTINUOUS
 10
3.8932295762
 20
-11.7060775332
 30
0.0
 11
4.3455230216
 21
-11.6665069841
 31
0.0
  0
LINE
  5
2BC
100
AcDbEntity
  8
0
100
AcDbLine
 62
250
  6
CONTINUOUS
 10
-24.6778607012
 20
-13.1638565904
 30
0.0
 11
-21.3780597012
 21
-13.1638565904
 31
0.0
  0
LINE
  5
2BD
100
AcDbEntity
  8
0
100
AcDbLine
 62
250
  6
CONTINUOUS
 10
-5.1906237012
 20
-12.5043225904
 30
0.0
 11
-3.3906237012
 21
-12.5043225904
 31
0.0
  0
LINE
  5
2BE
100
AcDbEntity
  8
0
100
AcDbLine
 62
250
  6
CONTINUOUS
 10
-21.3780597012
 20
-12.4751005904
 30
0.0
 11
-24.6778607012
 21
-12.4751005904
 31
0.0
  0
LINE
  5
2BF
100
AcDbEntity
  8
0
100
AcDbLine
 62
250
  6
CONTINUOUS
 10
-21.3780597012
 20
-12.1043205904
 30
0.0
 11
-24.6776627012
 21
-11.8063855904
 31
0.0
  0
LINE
  5
2C0
100
AcDbEntity
  8
0
100
AcDbLine
 62
7
  6
CONTINUOUS
 10
-28.8806237012
 20
22.2699803326
 30
0.0
 11
-28.8806237012
 21
18.8699634096
 31
0.0
  0
LINE
  5
2C1
100
AcDbEntity
  8
0
100
AcDbLine
 62
7
  6
CONTINUOUS
 10
-28.8806237012
 20
-21.5300535135
 30
0.0
 11
-28.8806237012
 21
-18.1300365904
 31
0.0
  0
LINE
  5
2C2
100
AcDbEntity
  8
0
100
AcDbLine
 62
7
  6
CONTINUOUS
 10
-28.8806237012
 20
-22.0300365904
 30
0.0
 11
-28.8806237012
 21
-23.8800408212
 31
0.0
  0
LINE
  5
2C3
100
AcDbEntity
  8
0
100
AcDbLine
 62
7
  6
CONTINUOUS
 10
-28.8806237012
 20
22.7699634096
 30
0.0
 11
-28.8806237012
 21
24.6199676403
 31
0.0
  0
LINE
  5
2C4
100
AcDbEntity
  8
0
100
AcDbLine
 62
250
  6
CONTINUOUS
 10
-28.1291692684
 20
24.6155958063
 30
0.0
 11
-28.1291692684
 21
24.2143009769
 31
0.0
  0
LINE
  5
2C5
100
AcDbEntity
  8
0
100
AcDbLine
 62
250
  6
CONTINUOUS
 10
-28.1291692684
 20
-23.4743741577
 30
0.0
 11
-28.1291692684
 21
-23.8756689872
 31
0.0
  0
LINE
  5
2C6
100
AcDbEntity
  8
0
100
AcDbLine
 62
7
  6
CONTINUOUS
 10
-27.8806237012
 20
24.6155958063
 30
0.0
 11
-27.8806237012
 21
24.2143009769
 31
0.0
  0
LINE
  5
2C7
100
AcDbEntity
  8
0
100
AcDbLine
 62
7
  6
CONTINUOUS
 10
-27.8806237012
 20
22.7641455798
 30
0.0
 11
-27.8806237012
 21
18.878253934
 31
0.0
  0
LINE
  5
2C8
100
AcDbEntity
  8
0
100
AcDbLine
 62
7
  6
CONTINUOUS
 10
-27.8806237012
 20
-18.1383271148
 30
0.0
 11
-27.8806237012
 21
-22.0242187606
 31
0.0
  0
LINE
  5
2C9
100
AcDbEntity
  8
0
100
AcDbLine
 62
7
  6
CONTINUOUS
 10
-27.8806237012
 20
-23.4743741577
 30
0.0
 11
-27.8806237012
 21
-23.8756689872
 31
0.0
  0
LINE
  5
2CA
100
AcDbEntity
  8
RACCORDO
100
AcDbLine
 62
7
  6
CONTINUOUS
 10
-26.8806237012
 20
21.2199634096
 30
0.0
 11
-26.8806237012
 21
19.4556606291
 31
0.0
  0
LINE
  5
2CB
100
AcDbEntity
  8
ASSI
100
AcDbLine
 62
7
  6
CONTINUOUS
 10
-26.8806237012
 20
21.2199634096
 30
0.0
 11
-26.8806237012
 21
19.4556606291
 31
0.0
  0
LINE
  5
2CC
100
AcDbEntity
  8
0
100
AcDbLine
 62
7
  6
CONTINUOUS
 10
-26.8806237012
 20
19.8699634096
 30
0.0
 11
-26.8806237012
 21
-19.1300365904
 31
0.0
  0
LINE
  5
2CD
100
AcDbEntity
  8
RACCORDO
100
AcDbLine
 62
7
  6
CONTINUOUS
 10
-26.8806237012
 20
-18.71573381
 30
0.0
 11
-26.8806237012
 21
-20.4800365904
 31
0.0
  0
LINE
  5
2CE
100
AcDbEntity
  8
ASSI
100
AcDbLine
 62
7
  6
CONTINUOUS
 10
-26.8806237012
 20
-18.71573381
 30
0.0
 11
-26.8806237012
 21
-20.4800365904
 31
0.0
  0
LINE
  5
2CF
100
AcDbEntity
  8
0
100
AcDbLine
 62
7
  6
CONTINUOUS
 10
-24.6096052907
 20
9.8022481278
 30
0.0
 11
-24.274592272
 21
10.1372611465
 31
0.0
  0
LINE
  5
2D0
100
AcDbEntity
  8
0
100
AcDbLine
 62
7
  6
CONTINUOUS
 10
-23.7538370953
 20
10.6580163232
 30
0.0
 11
-23.2870355353
 21
11.1248178832
 31
0.0
  0
LINE
  5
2D1
100
AcDbEntity
  8
0
100
AcDbLine
 62
7
  6
CONTINUOUS
 10
-21.8685870673
 20
12.5432663512
 30
0.0
 11
-21.4706922518
 21
12.9411611667
 31
0.0
  0
LINE
  5
2D2
100
AcDbEntity
  8
0
100
AcDbLine
 62
7
  6
CONTINUOUS
 10
-24.5439796149
 20
9.630795042
 30
0.0
 11
-24.1586886861
 21
10.0160859708
 31
0.0
  0
LINE
  5
2D3
100
AcDbEntity
  8
0
100
AcDbLine
 62
7
  6
CONTINUOUS
 10
-23.5798600387
 20
10.5949146182
 30
0.0
 11
-23.0771800034
 21
11.0975946535
 31
0.0
  0
LINE
  5
2D4
100
AcDbEntity
  8
0
100
AcDbLine
 62
7
  6
CONTINUOUS
 10
-21.8007739965
 20
12.3740006604
 30
0.0
 11
-21.3876211332
 21
12.7871535237
 31
0.0
  0
LINE
  5
2D5
100
AcDbEntity
  8
0
100
AcDbLine
 62
7
  6
CONTINUOUS
 10
-24.4264464792
 20
9.5112494161
 30
0.0
 11
-24.0427851003
 21
9.894910795
 31
0.0
  0
LINE
  5
2D6
100
AcDbEntity
  8
0
100
AcDbLine
 62
7
  6
CONTINUOUS
 10
-23.3917999504
 20
10.5458959449
 30
0.0
 11
-22.8397926913
 21
11.097903204
 31
0.0
  0
LINE
  5
2D7
100
AcDbEntity
  8
0
100
AcDbLine
 62
7
  6
CONTINUOUS
 10
-21.7644164278
 20
12.1732794675
 30
0.0
 11
-21.3201381011
 21
12.6175577942
 31
0.0
  0
LINE
  5
2D8
100
AcDbEntity
  8
0
100
AcDbLine
 62
7
  6
CONTINUOUS
 10
-24.3089133434
 20
9.3917037903
 30
0.0
 11
-23.9268815144
 21
9.7737356193
 31
0.0
  0
LINE
  5
2D9
100
AcDbEntity
  8
0
100
AcDbLine
 62
7
  6
CONTINUOUS
 10
-23.1874807528
 20
10.5131363809
 30
0.0
 11
-22.5590188093
 21
11.1415983244
 31
0.0
  0
LINE
  5
2DA
100
AcDbEntity
  8
0
100
AcDbLine
 62
7
  6
CONTINUOUS
 10
-21.7734015465
 20
11.9272155872
 30
0.0
 11
-21.2714187558
 21
12.4291983779
 31
0.0
  0
LINE
  5
2DB
100
AcDbEntity
  8
0
100
AcDbLine
 62
7
  6
CONTINUOUS
 10
-24.1913802077
 20
9.2721581644
 30
0.0
 11
-23.8109779286
 21
9.6525604435
 31
0.0
  0
LINE
  5
2DC
100
AcDbEntity
  8
0
100
AcDbLine
 62
7
  6
CONTINUOUS
 10
-22.9631533151
 20
10.500385057
 30
0.0
 11
-22.1356126295
 21
11.3279257426
 31
0.0
  0
LINE
  5
2DD
100
AcDbEntity
  8
0
100
AcDbLine
 62
7
  6
CONTINUOUS
 10
-21.9224354156
 20
11.5411029565
 30
0.0
 11
-21.2437951106
 21
12.2197432615
 31
0.0
  0
LINE
  5
2DE
100
AcDbEntity
  8
0
100
AcDbLine
 62
7
  6
CONTINUOUS
 10
-24.0738470719
 20
9.1526125386
 30
0.0
 11
-23.6950743427
 21
9.5313852678
 31
0.0
  0
LINE
  5
2DF
100
AcDbEntity
  8
0
100
AcDbLine
 62
7
  6
CONTINUOUS
 10
-22.7107379261
 20
10.5157216844
 30
0.0
 11
-21.241503093
 21
11.9849565175
 31
0.0
  0
LINE
  5
2E0
100
AcDbEntity
  8
0
100
AcDbLine
 62
7
  6
CONTINUOUS
 10
-23.9563139362
 20
9.0330669127
 30
0.0
 11
-23.5791707569
 21
9.410210092
 31
0.0
  0
LINE
  5
2E1
100
AcDbEntity
  8
0
100
AcDbLine
 62
7
  6
CONTINUOUS
 10
-22.4161051527
 20
10.5732756962
 30
0.0
 11
-21.2790275337
 21
11.7103533152
 31
0.0
  0
LINE
  5
2E2
100
AcDbEntity
  8
0
100
AcDbLine
 62
7
  6
CONTINUOUS
 10
-24.6096052907
 20
8.1426967966
 30
0.0
 11
-24.5172854482
 21
8.2350166391
 31
0.0
  0
LINE
  5
2E3
100
AcDbEntity
  8
0
100
AcDbLine
 62
7
  6
CONTINUOUS
 10
-23.8387808005
 20
8.9135212869
 30
0.0
 11
-23.4632671711
 21
9.2890349163
 31
0.0
  0
LINE
  5
2E4
100
AcDbEntity
  8
0
100
AcDbLine
 62
7
  6
CONTINUOUS
 10
-22.0283561112
 20
10.7239459762
 30
0.0
 11
-21.4064148266
 21
11.3458872607
 31
0.0
  0
LINE
  5
2E5
100
AcDbEntity
  8
0
100
AcDbLine
 62
7
  6
CONTINUOUS
 10
-24.6096052907
 20
7.905618035
 30
0.0
 11
-24.2802086651
 21
8.2350146606
 31
0.0
  0
LINE
  5
2E6
100
AcDbEntity
  8
0
100
AcDbLine
 62
7
  6
CONTINUOUS
 10
-23.7212476647
 20
8.793975661
 30
0.0
 11
-23.3473635852
 21
9.1678597405
 31
0.0
  0
LINE
  5
2E7
100
AcDbEntity
  8
0
100
AcDbLine
 62
7
  6
CONTINUOUS
 10
-24.6096052907
 20
7.6685392734
 30
0.0
 11
-24.043131882
 21
8.2350126821
 31
0.0
  0
LINE
  5
2E8
100
AcDbEntity
  8
0
100
AcDbLine
 62
7
  6
CONTINUOUS
 10
-23.603714529
 20
8.6744300352
 30
0.0
 11
-23.0899198128
 21
9.1882247513
 31
0.0
  0
LINE
  5
2E9
100
AcDbEntity
  8
0
100
AcDbLine
 62
7
  6
CONTINUOUS
 10
-24.395207393
 20
7.6458584096
 30
0.0
 11
-23.8060550989
 21
8.2350107036
 31
0.0
  0
LINE
  5
2EA
100
AcDbEntity
  8
0
100
AcDbLine
 62
7
  6
CONTINUOUS
 10
-23.4861813932
 20
8.5548844093
 30
0.0
 11
-22.1952268774
 21
9.8458389251
 31
0.0
  0
LINE
  5
2EB
100
AcDbEntity
  8
0
100
AcDbLine
 62
7
  6
CONTINUOUS
 10
-24.1581286314
 20
7.6458584096
 30
0.0
 11
-23.5689783158
 21
8.2350087251
 31
0.0
  0
LINE
  5
2EC
100
AcDbEntity
  8
0
100
AcDbLine
 62
7
  6
CONTINUOUS
 10
-23.3686482575
 20
8.4353387835
 30
0.0
 11
-21.3116421118
 21
10.4923449291
 31
0.0
  0
LINE
  5
2ED
100
AcDbEntity
  8
0
100
AcDbLine
 62
7
  6
CONTINUOUS
 10
-23.9210498698
 20
7.6458584096
 30
0.0
 11
-23.3319015327
 21
8.2350067466
 31
0.0
  0
LINE
  5
2EE
100
AcDbEntity
  8
0
100
AcDbLine
 62
7
  6
CONTINUOUS
 10
-23.2511151217
 20
8.3157931576
 30
0.0
 11
-21.3116421118
 21
10.2552661675
 31
0.0
  0
LINE
  5
2EF
100
AcDbEntity
  8
0
100
AcDbLine
 62
7
  6
CONTINUOUS
 10
-23.252524765
 20
9.0687074096
 30
0.0
 11
-21.3116421118
 21
10.4952884096
 31
0.0
  0
LINE
  5
2F0
100
AcDbEntity
  8
0
100
AcDbLine
 62
7
  6
CONTINUOUS
 10
-21.3116421118
 20
9.7541504096
 30
0.0
 11
-22.8474141938
 21
8.6563184096
 31
0.0
  0
LINE
  5
2F1
100
AcDbEntity
  8
0
100
AcDbLine
 62
250
  6
CONTINUOUS
 10
-19.0806237012
 20
-12.0014651338
 30
0.0
 11
-16.8806237012
 21
-12.0014651338
 31
0.0
  0
LINE
  5
2F2
100
AcDbEntity
  8
0
100
AcDbLine
 62
250
  6
CONTINUOUS
 10
-17.5091951579
 20
-11.3728936771
 30
0.0
 11
-18.4520523101
 21
-11.3728936771
 31
0.0
  0
LINE
  5
2F3
100
AcDbEntity
  8
0
100
AcDbLine
 62
250
  6
CONTINUOUS
 10
-3.3906237012
 20
-10.7794575904
 30
0.0
 11
-5.1906237012
 21
-10.7794575904
 31
0.0
  0
LINE
  5
2F4
100
AcDbEntity
  8
0
100
AcDbLine
 62
250
  6
CONTINUOUS
 10
-18.4520523101
 20
-10.2728938082
 30
0.0
 11
-17.5091951579
 21
-10.2728938082
 31
0.0
  0
LINE
  5
2F5
100
AcDbEntity
  8
0
100
AcDbLine
 62
250
  6
CONTINUOUS
 10
-23.5326387012
 20
-11.2967715904
 30
0.0
 11
-21.3780597012
 21
-11.4454045904
 31
0.0
  0
LINE
  5
2F6
100
AcDbEntity
  8
0
100
AcDbLine
 62
250
  6
CONTINUOUS
 10
-22.8457127012
 20
-10.4367165904
 30
0.0
 11
-24.6776627012
 21
-9.7479595904
 31
0.0
  0
LINE
  5
2F7
100
AcDbEntity
  8
0
100
AcDbLine
 62
250
  6
CONTINUOUS
 10
-23.5236567012
 20
-9.5732465904
 30
0.0
 11
-21.3780597012
 21
-10.3921785904
 31
0.0
  0
LINE
  5
2F8
100
AcDbEntity
  8
0
100
AcDbLine
 62
250
  6
CONTINUOUS
 10
-18.4520523101
 20
-11.3728936771
 30
0.0
 11
-18.7663380057
 21
-11.2157508949
 31
0.0
  0
LINE
  5
2F9
100
AcDbEntity
  8
0
100
AcDbLine
 62
250
  6
CONTINUOUS
 10
-18.4520523101
 20
-12.6300365904
 30
0.0
 11
-19.0806237012
 21
-12.0014651338
 31
0.0
  0
LINE
  5
2FA
100
AcDbEntity
  8
0
100
AcDbLine
 62
7
  6
CONTINUOUS
 10
-24.6096052907
 20
6.720224227
 30
0.0
 11
-24.3846331082
 21
6.9451964096
 31
0.0
  0
LINE
  5
2FB
100
AcDbEntity
  8
0
100
AcDbLine
 62
7
  6
CONTINUOUS
 10
-23.6839711082
 20
7.6458584096
 30
0.0
 11
-22.7635075115
 21
8.5663220063
 31
0.0
  0
LINE
  5
2FC
100
AcDbEntity
  8
0
100
AcDbLine
 62
7
  6
CONTINUOUS
 10
-22.2375693432
 20
9.0922601746
 30
0.0
 11
-21.3116421118
 21
10.018187406
 31
0.0
  0
LINE
  5
2FD
100
AcDbEntity
  8
0
100
AcDbLine
 62
7
  6
CONTINUOUS
 10
-24.6096052907
 20
6.4831454654
 30
0.0
 11
-24.1475543466
 21
6.9451964096
 31
0.0
  0
LINE
  5
2FE
100
AcDbEntity
  8
0
100
AcDbLine
 62
7
  6
CONTINUOUS
 10
-23.4468923466
 20
7.6458584096
 30
0.0
 11
-22.6491191309
 21
8.4436316252
 31
0.0
  0
LINE
  5
2FF
100
AcDbEntity
  8
0
100
AcDbLine
 62
7
  6
CONTINUOUS
 10
-21.4061794836
 20
9.6865712725
 30
0.0
 11
-21.3116421118
 21
9.7811086444
 31
0.0
  0
LINE
  5
300
100
AcDbEntity
  8
0
100
AcDbLine
 62
7
  6
CONTINUOUS
 10
-24.499659585
 20
6.3560124096
 30
0.0
 11
-23.910475585
 21
6.9451964096
 31
0.0
  0
LINE
  5
301
100
AcDbEntity
  8
0
100
AcDbLine
 62
7
  6
CONTINUOUS
 10
-23.209813585
 20
7.6458584096
 30
0.0
 11
-22.5347307504
 21
8.3209412442
 31
0.0
  0
LINE
  5
302
100
AcDbEntity
  8
0
100
AcDbLine
 62
7
  6
CONTINUOUS
 10
-24.2625808234
 20
6.3560124096
 30
0.0
 11
-23.6733968234
 21
6.9451964096
 31
0.0
  0
LINE
  5
303
100
AcDbEntity
  8
0
100
AcDbLine
 62
7
  6
CONTINUOUS
 10
-22.9727348234
 20
7.6458584096
 30
0.0
 11
-22.3835870777
 21
8.2350061552
 31
0.0
  0
LINE
  5
304
100
AcDbEntity
  8
0
100
AcDbLine
 62
7
  6
CONTINUOUS
 10
-24.0255020618
 20
6.3560124096
 30
0.0
 11
-23.4363180618
 21
6.9451964096
 31
0.0
  0
LINE
  5
305
100
AcDbEntity
  8
0
100
AcDbLine
 62
7
  6
CONTINUOUS
 10
-22.7356560618
 20
7.6458584096
 30
0.0
 11
-22.146505827
 21
8.2350086443
 31
0.0
  0
LINE
  5
306
100
AcDbEntity
  8
0
100
AcDbLine
 62
7
  6
CONTINUOUS
 10
-24.6096052907
 20
5.5348304191
 30
0.0
 11
-24.5102423002
 21
5.6341934096
 31
0.0
  0
LINE
  5
307
100
AcDbEntity
  8
0
100
AcDbLine
 62
7
  6
CONTINUOUS
 10
-23.7884233002
 20
6.3560124096
 30
0.0
 11
-23.1992393002
 21
6.9451964096
 31
0.0
  0
LINE
  5
308
100
AcDbEntity
  8
0
100
AcDbLine
 62
7
  6
CONTINUOUS
 10
-22.4985773002
 20
7.6458584096
 30
0.0
 11
-21.9094245763
 21
8.2350111335
 31
0.0
  0
LINE
  5
309
100
AcDbEntity
  8
0
100
AcDbLine
 62
7
  6
CONTINUOUS
 10
-24.6096052907
 20
5.2977516575
 30
0.0
 11
-24.2731635386
 21
5.6341934096
 31
0.0
  0
LINE
  5
30A
100
AcDbEntity
  8
0
100
AcDbLine
 62
7
  6
CONTINUOUS
 10
-23.5513445386
 20
6.3560124096
 30
0.0
 11
-22.9621605386
 21
6.9451964096
 31
0.0
  0
LINE
  5
30B
100
AcDbEntity
  8
0
100
AcDbLine
 62
7
  6
CONTINUOUS
 10
-22.2614985386
 20
7.6458584096
 30
0.0
 11
-21.6723433256
 21
8.2350136226
 31
0.0
  0
LINE
  5
30C
100
AcDbEntity
  8
0
100
AcDbLine
 62
7
  6
CONTINUOUS
 10
-24.6096052907
 20
5.0606728959
 30
0.0
 11
-24.0861809398
 21
5.5840972468
 31
0.0
  0
LINE
  5
30D
100
AcDbEntity
  8
0
100
AcDbLine
 62
7
  6
CONTINUOUS
 10
-23.314265777
 20
6.3560124096
 30
0.0
 11
-22.725081777
 21
6.9451964096
 31
0.0
  0
LINE
  5
30E
100
AcDbEntity
  8
0
100
AcDbLine
 62
7
  6
CONTINUOUS
 10
-22.024419777
 20
7.6458584096
 30
0.0
 11
-21.4352620749
 21
8.2350161117
 31
0.0
  0
LINE
  5
30F
100
AcDbEntity
  8
0
100
AcDbLine
 62
250
  6
CONTINUOUS
 10
-17.8234808535
 20
11.6556778451
 30
0.0
 11
-18.1377666146
 21
11.3413917562
 31
0.0
  0
LINE
  5
310
100
AcDbEntity
  8
0
100
AcDbLine
 62
7
  6
CONTINUOUS
 10
-24.6096052907
 20
4.8235941343
 30
0.0
 11
-24.0861817559
 21
5.347017669
 31
0.0
  0
LINE
  5
311
100
AcDbEntity
  8
0
100
AcDbLine
 62
7
  6
CONTINUOUS
 10
-23.0771870154
 20
6.3560124096
 30
0.0
 11
-22.4880030154
 21
6.9451964096
 31
0.0
  0
LINE
  5
312
100
AcDbEntity
  8
0
100
AcDbLine
 62
7
  6
CONTINUOUS
 10
-21.7873410154
 20
7.6458584096
 30
0.0
 11
-21.3116421118
 21
8.1215573132
 31
0.0
  0
LINE
  5
313
100
AcDbEntity
  8
0
100
AcDbLine
 62
7
  6
CONTINUOUS
 10
-24.6096052907
 20
4.5865153727
 30
0.0
 11
-24.0861825721
 21
5.1099380913
 31
0.0
  0
LINE
  5
314
100
AcDbEntity
  8
0
100
AcDbLine
 62
7
  6
CONTINUOUS
 10
-22.8401082538
 20
6.3560124096
 30
0.0
 11
-22.2509242538
 21
6.9451964096
 31
0.0
  0
LINE
  5
315
100
AcDbEntity
  8
0
100
AcDbLine
 62
7
  6
CONTINUOUS
 10
-21.5502622538
 20
7.6458584096
 30
0.0
 11
-21.3116421118
 21
7.8844785516
 31
0.0
  0
LINE
  5
316
100
AcDbEntity
  8
0
100
AcDbLine
 62
7
  6
CONTINUOUS
 10
-24.6096052907
 20
4.3494366111
 30
0.0
 11
-24.0861833882
 21
4.8728585135
 31
0.0
  0
LINE
  5
317
100
AcDbEntity
  8
0
100
AcDbLine
 62
7
  6
CONTINUOUS
 10
-22.6030294922
 20
6.3560124096
 30
0.0
 11
-22.0138454922
 21
6.9451964096
 31
0.0
  0
LINE
  5
318
100
AcDbEntity
  8
0
100
AcDbLine
 62
7
  6
CONTINUOUS
 10
-21.3131834922
 20
7.6458584096
 30
0.0
 11
-21.3116421118
 21
7.64739979
 31
0.0
  0
LINE
  5
319
100
AcDbEntity
  8
0
100
AcDbLine
 62
7
  6
CONTINUOUS
 10
-24.6096052907
 20
4.1123578495
 30
0.0
 11
-24.0861842044
 21
4.6357789358
 31
0.0
  0
LINE
  5
31A
100
AcDbEntity
  8
0
100
AcDbLine
 62
7
  6
CONTINUOUS
 10
-23.2661250286
 20
5.4558381115
 30
0.0
 11
-23.2059847306
 21
5.5159784096
 31
0.0
  0
LINE
  5
31B
100
AcDbEntity
  8
0
100
AcDbLine
 62
7
  6
CONTINUOUS
 10
-22.3659507306
 20
6.3560124096
 30
0.0
 11
-21.7767667306
 21
6.9451964096
 31
0.0
  0
LINE
  5
31C
100
AcDbEntity
  8
0
100
AcDbLine
 62
250
  6
CONTINUOUS
 10
-18.7663380057
 20
9.9271061918
 30
0.0
 11
-19.0806237012
 21
9.6128206274
 31
0.0
  0
LINE
  5
31D
100
AcDbEntity
  8
0
100
AcDbLine
 62
250
  6
CONTINUOUS
 10
-24.6776627012
 20
-9.0665025904
 30
0.0
 11
-21.3780597012
 21
-8.7579525904
 31
0.0
  0
LINE
  5
31E
100
AcDbEntity
  8
0
100
AcDbLine
 62
250
  6
CONTINUOUS
 10
-21.3780597012
 20
-9.4317395904
 30
0.0
 11
-23.5236567012
 21
-9.5732465904
 31
0.0
  0
LINE
  5
31F
100
AcDbEntity
  8
0
100
AcDbLine
 62
250
  6
CONTINUOUS
 10
-36.7991820161
 20
-9.1205365904
 30
0.0
 11
-37.2903655523
 21
-9.1300365904
 31
0.0
  0
LINE
  5
320
100
AcDbEntity
  8
0
100
AcDbLine
 62
250
  6
CONTINUOUS
 10
-5.1906237012
 20
-8.7237595904
 30
0.0
 11
-3.3906237012
 21
-8.7237595904
 31
0.0
  0
LINE
  5
321
100
AcDbEntity
  8
0
100
AcDbLine
 62
250
  6
CONTINUOUS
 10
-23.7710157012
 20
-7.2946295904
 30
0.0
 11
-22.5464917012
 21
-7.6375725904
 31
0.0
  0
LINE
  5
322
100
AcDbEntity
  8
0
100
AcDbLine
 62
250
  6
CONTINUOUS
 10
-16.8806237012
 20
-9.6443224171
 30
0.0
 11
-19.0806237012
 21
-9.0157507638
 31
0.0
  0
LINE
  5
323
100
AcDbEntity
  8
0
100
AcDbLine
 62
250
  6
CONTINUOUS
 10
-22.0367777012
 20
-7.7784615904
 30
0.0
 11
-21.3780597012
 21
-7.9685155904
 31
0.0
  0
LINE
  5
324
100
AcDbEntity
  8
0
100
AcDbLine
 62
250
  6
CONTINUOUS
 10
-21.3780597012
 20
-8.6497995904
 30
0.0
 11
-24.6776627012
 21
-7.6148335904
 31
0.0
  0
LINE
  5
325
100
AcDbEntity
  8
0
100
AcDbLine
 62
250
  6
CONTINUOUS
 10
-17.5091951579
 20
-10.2728938082
 30
0.0
 11
-17.1949094296
 21
-10.4300365904
 31
0.0
  0
LINE
  5
326
100
AcDbEntity
  8
0
100
AcDbLine
 62
250
  6
CONTINUOUS
 10
-18.7663380057
 20
-11.2157508949
 30
0.0
 11
-19.0806237012
 21
-10.9014651993
 31
0.0
  0
LINE
  5
327
100
AcDbEntity
  8
0
100
AcDbLine
 62
250
  6
CONTINUOUS
 10
-24.6778607012
 20
-12.4751005904
 30
0.0
 11
-24.6778607012
 21
-13.1638565904
 31
0.0
  0
LINE
  5
328
100
AcDbEntity
  8
0
100
AcDbLine
 62
250
  6
CONTINUOUS
 10
-24.6776627012
 20
-16.1330855904
 30
0.0
 11
-24.6776627012
 21
-15.3848835904
 31
0.0
  0
LINE
  5
329
100
AcDbEntity
  8
0
100
AcDbLine
 62
250
  6
CONTINUOUS
 10
-24.6776627012
 20
-14.1077415904
 30
0.0
 11
-24.6776627012
 21
-13.4194555904
 31
0.0
  0
LINE
  5
32A
100
AcDbEntity
  8
0
100
AcDbLine
 62
250
  6
CONTINUOUS
 10
-24.6776627012
 20
-11.8063855904
 30
0.0
 11
-24.6776627012
 21
-11.1181985904
 31
0.0
  0
LINE
  5
32B
100
AcDbEntity
  8
0
100
AcDbLine
 62
250
  6
CONTINUOUS
 10
-24.6776627012
 20
-9.7479595904
 30
0.0
 11
-24.6776627012
 21
-9.0665025904
 31
0.0
  0
LINE
  5
32C
100
AcDbEntity
  8
0
100
AcDbLine
 62
250
  6
CONTINUOUS
 10
-24.6776627012
 20
-7.6148335904
 30
0.0
 11
-24.6776627012
 21
-6.9485445904
 31
0.0
  0
LINE
  5
32D
100
AcDbEntity
  8
0
100
AcDbLine
 62
7
  6
CONTINUOUS
 10
-24.6096052907
 20
3.3026644096
 30
0.0
 11
-24.6096052907
 21
5.6341934096
 31
0.0
  0
LINE
  5
32E
100
AcDbEntity
  8
0
100
AcDbLine
 62
7
  6
CONTINUOUS
 10
-24.6096052907
 20
6.3560124096
 30
0.0
 11
-24.6096052907
 21
6.9451964096
 31
0.0
  0
LINE
  5
32F
100
AcDbEntity
  8
0
100
AcDbLine
 62
7
  6
CONTINUOUS
 10
-24.6096052907
 20
7.6458584096
 30
0.0
 11
-24.6096052907
 21
8.2350174096
 31
0.0
  0
LINE
  5
330
100
AcDbEntity
  8
0
100
AcDbLine
 62
7
  6
CONTINUOUS
 10
-24.6096052907
 20
9.6975444096
 30
0.0
 11
-24.6096052907
 21
10.4875114096
 31
0.0
  0
LINE
  5
331
100
AcDbEntity
  8
0
100
AcDbLine
 62
7
  6
CONTINUOUS
 10
-24.6096052907
 20
14.2531084096
 30
0.0
 11
-24.6096052907
 21
14.8287764096
 31
0.0
  0
LINE
  5
332
100
AcDbEntity
  8
0
100
AcDbLine
 62
7
  6
CONTINUOUS
 10
-24.6096052907
 20
16.3500854096
 30
0.0
 11
-24.6096052907
 21
16.9172624096
 31
0.0
  0
LINE
  5
333
100
AcDbEntity
  8
0
100
AcDbLine
 62
7
  6
CONTINUOUS
 10
-24.0861807673
 20
5.6341934096
 30
0.0
 11
-24.0861867655
 21
3.8918154096
 31
0.0
  0
LINE
  5
334
100
AcDbEntity
  8
0
100
AcDbLine
 62
7
  6
CONTINUOUS
 10
-23.2661356181
 20
3.8918154096
 30
0.0
 11
-23.2661246214
 21
5.5159784096
 31
0.0
  0
LINE
  5
335
100
AcDbEntity
  8
0
100
AcDbLine
 62
250
  6
CONTINUOUS
 10
-23.2097375149
 20
-4.6771275237
 30
0.0
 11
-23.2097375149
 21
-5.0707450858
 31
0.0
  0
LINE
  5
336
100
AcDbEntity
  8
0
100
AcDbLine
 62
7
  6
CONTINUOUS
 10
-22.7426881017
 20
5.5159784096
 30
0.0
 11
-22.7426761054
 21
3.8918154096
 31
0.0
  0
LINE
  5
337
100
AcDbEntity
  8
0
100
AcDbLine
 62
250
  6
CONTINUOUS
 10
-22.66934227
 20
-5.0479069534
 30
0.0
 11
-22.66934227
 21
-4.678612126
 31
0.0
  0
LINE
  5
338
100
AcDbEntity
  8
0
100
AcDbLine
 62
250
  6
CONTINUOUS
 10
-22.5464917012
 20
-7.6375725904
 30
0.0
 11
-22.5464917012
 21
-6.9781375904
 31
0.0
  0
LINE
  5
339
100
AcDbEntity
  8
0
100
AcDbLine
 62
7
  6
CONTINUOUS
 10
-24.6096052907
 20
3.8752790879
 30
0.0
 11
-24.0861850205
 21
4.3986993581
 31
0.0
  0
LINE
  5
33A
100
AcDbEntity
  8
0
100
AcDbLine
 62
7
  6
CONTINUOUS
 10
-23.2661266338
 20
5.2187577448
 30
0.0
 11
-22.968905969
 21
5.5159784096
 31
0.0
  0
LINE
  5
33B
100
AcDbEntity
  8
0
100
AcDbLine
 62
7
  6
CONTINUOUS
 10
-22.128871969
 20
6.3560124096
 30
0.0
 11
-21.539687969
 21
6.9451964096
 31
0.0
  0
LINE
  5
33C
100
AcDbEntity
  8
0
100
AcDbLine
 62
7
  6
CONTINUOUS
 10
-24.6096052907
 20
3.6382003263
 30
0.0
 11
-24.0861858367
 21
4.1616197803
 31
0.0
  0
LINE
  5
33D
100
AcDbEntity
  8
0
100
AcDbLine
 62
7
  6
CONTINUOUS
 10
-23.266128239
 20
4.981677378
 30
0.0
 11
-22.7426880215
 21
5.5051175955
 31
0.0
  0
LINE
  5
33E
100
AcDbEntity
  8
0
100
AcDbLine
 62
7
  6
CONTINUOUS
 10
-21.8917932074
 20
6.3560124096
 30
0.0
 11
-21.3116421118
 21
6.9361635052
 31
0.0
  0
LINE
  5
33F
100
AcDbEntity
  8
0
100
AcDbLine
 62
7
  6
CONTINUOUS
 10
-24.6096052907
 20
3.4011215647
 30
0.0
 11
-24.0861866528
 21
3.9245402026
 31
0.0
  0
LINE
  5
340
100
AcDbEntity
  8
0
100
AcDbLine
 62
7
  6
CONTINUOUS
 10
-23.2661298442
 20
4.7445970112
 30
0.0
 11
-22.7426862704
 21
5.268040585
 31
0.0
  0
LINE
  5
341
100
AcDbEntity
  8
0
100
AcDbLine
 62
7
  6
CONTINUOUS
 10
-21.6547144458
 20
6.3560124096
 30
0.0
 11
-21.3116421118
 21
6.6990847436
 31
0.0
  0
LINE
  5
342
100
AcDbEntity
  8
0
100
AcDbLine
 62
7
  6
CONTINUOUS
 10
-24.4709836842
 20
3.3026644096
 30
0.0
 11
-23.8818326842
 21
3.8918154096
 31
0.0
  0
LINE
  5
343
100
AcDbEntity
  8
0
100
AcDbLine
 62
7
  6
CONTINUOUS
 10
-23.2661314494
 20
4.5075166444
 30
0.0
 11
-22.7426845193
 21
5.0309635745
 31
0.0
  0
LINE
  5
344
100
AcDbEntity
  8
0
100
AcDbLine
 62
7
  6
CONTINUOUS
 10
-21.4176356842
 20
6.3560124096
 30
0.0
 11
-21.3116421118
 21
6.462005982
 31
0.0
  0
LINE
  5
345
100
AcDbEntity
  8
0
100
AcDbLine
 62
250
  6
CONTINUOUS
 10
-17.1949094296
 20
10.5556778451
 30
0.0
 11
-16.8806237012
 21
10.8699634096
 31
0.0
  0
LINE
  5
346
100
AcDbEntity
  8
0
100
AcDbLine
 62
7
  6
CONTINUOUS
 10
-24.2339049226
 20
3.3026644096
 30
0.0
 11
-23.6447539226
 21
3.8918154096
 31
0.0
  0
LINE
  5
347
100
AcDbEntity
  8
0
100
AcDbLine
 62
7
  6
CONTINUOUS
 10
-23.2661330546
 20
4.2704362776
 30
0.0
 11
-22.7426827682
 21
4.793886564
 31
0.0
  0
LINE
  5
348
100
AcDbEntity
  8
0
100
AcDbLine
 62
7
  6
CONTINUOUS
 10
-23.996826161
 20
3.3026644096
 30
0.0
 11
-23.407675161
 21
3.8918154096
 31
0.0
  0
LINE
  5
349
100
AcDbEntity
  8
0
100
AcDbLine
 62
7
  6
CONTINUOUS
 10
-23.2661346598
 20
4.0333559108
 30
0.0
 11
-22.7426810171
 21
4.5568095535
 31
0.0
  0
LINE
  5
34A
100
AcDbEntity
  8
0
100
AcDbLine
 62
7
  6
CONTINUOUS
 10
-21.835064655
 20
5.4644259156
 30
0.0
 11
-21.652036161
 21
5.6474544096
 31
0.0
  0
LINE
  5
34B
100
AcDbEntity
  8
0
100
AcDbLine
 62
7
  6
CONTINUOUS
 10
-23.7597473994
 20
3.3026644096
 30
0.0
 11
-22.742679266
 21
4.319732543
 31
0.0
  0
LINE
  5
34C
100
AcDbEntity
  8
0
100
AcDbLine
 62
7
  6
CONTINUOUS
 10
-21.8350620901
 20
5.2273497189
 30
0.0
 11
-21.4149573994
 21
5.6474544096
 31
0.0
  0
LINE
  5
34D
100
AcDbEntity
  8
0
100
AcDbLine
 62
7
  6
CONTINUOUS
 10
-23.5226686379
 20
3.3026644096
 30
0.0
 11
-22.7426775149
 21
4.0826555325
 31
0.0
  0
LINE
  5
34E
100
AcDbEntity
  8
0
100
AcDbLine
 62
7
  6
CONTINUOUS
 10
-21.8350595252
 20
4.9902735223
 30
0.0
 11
-21.3116421118
 21
5.5136909356
 31
0.0
  0
LINE
  5
34F
100
AcDbEntity
  8
0
100
AcDbLine
 62
250
  6
CONTINUOUS
 10
-19.0806237012
 20
7.7271061918
 30
0.0
 11
-18.7663380057
 21
8.0413920185
 31
0.0
  0
LINE
  5
350
100
AcDbEntity
  8
0
100
AcDbLine
 62
7
  6
CONTINUOUS
 10
-23.2855898763
 20
3.3026644096
 30
0.0
 11
-22.6964388763
 21
3.8918154096
 31
0.0
  0
LINE
  5
351
100
AcDbEntity
  8
0
100
AcDbLine
 62
7
  6
CONTINUOUS
 10
-21.8350569602
 20
4.7531973256
 30
0.0
 11
-21.3116421118
 21
5.276612174
 31
0.0
  0
LINE
  5
352
100
AcDbEntity
  8
0
100
AcDbLine
 62
7
  6
CONTINUOUS
 10
-23.0485111147
 20
3.3026644096
 30
0.0
 11
-22.4593601147
 21
3.8918154096
 31
0.0
  0
LINE
  5
353
100
AcDbEntity
  8
0
100
AcDbLine
 62
7
  6
CONTINUOUS
 10
-21.8350543953
 20
4.5161211289
 30
0.0
 11
-21.3116421118
 21
5.0395334124
 31
0.0
  0
LINE
  5
354
100
AcDbEntity
  8
0
100
AcDbLine
 62
7
  6
CONTINUOUS
 10
-22.8114323531
 20
3.3026644096
 30
0.0
 11
-22.2222813531
 21
3.8918154096
 31
0.0
  0
LINE
  5
355
100
AcDbEntity
  8
0
100
AcDbLine
 62
7
  6
CONTINUOUS
 10
-21.8350518304
 20
4.2790449322
 30
0.0
 11
-21.3116421118
 21
4.8024546508
 31
0.0
  0
LINE
  5
356
100
AcDbEntity
  8
0
100
AcDbLine
 62
7
  6
CONTINUOUS
 10
-22.5743535915
 20
3.3026644096
 30
0.0
 11
-21.9852025915
 21
3.8918154096
 31
0.0
  0
LINE
  5
357
100
AcDbEntity
  8
0
100
AcDbLine
 62
7
  6
CONTINUOUS
 10
-21.8350492655
 20
4.0419687356
 30
0.0
 11
-21.3116421118
 21
4.5653758892
 31
0.0
  0
LINE
  5
358
100
AcDbEntity
  8
0
100
AcDbLine
 62
7
  6
CONTINUOUS
 10
-22.3372748299
 20
3.3026644096
 30
0.0
 11
-21.3116421118
 21
4.3282971276
 31
0.0
  0
LINE
  5
359
100
AcDbEntity
  8
0
100
AcDbLine
 62
250
  6
CONTINUOUS
 10
-18.7663380057
 20
8.0413920185
 30
0.0
 11
-18.4520523101
 21
8.1985348007
 31
0.0
  0
LINE
  5
35A
100
AcDbEntity
  8
0
100
AcDbLine
 62
250
  6
CONTINUOUS
 10
-17.1949094296
 20
7.255677714
 30
0.0
 11
-17.5091951579
 21
7.0985348007
 31
0.0
  0
LINE
  5
35B
100
AcDbEntity
  8
0
100
AcDbLine
 62
250
  6
CONTINUOUS
 10
-5.1906237012
 20
-6.9011225904
 30
0.0
 11
-3.3906237012
 21
-6.9011225904
 31
0.0
  0
LINE
  5
35C
100
AcDbEntity
  8
0
100
AcDbLine
 62
250
  6
CONTINUOUS
 10
-19.0806237012
 20
-5.715751026
 30
0.0
 11
-18.6091950924
 21
-6.0300365904
 31
0.0
  0
LINE
  5
35D
100
AcDbEntity
  8
0
100
AcDbLine
 62
250
  6
CONTINUOUS
 10
-17.1949094296
 20
-10.4300365904
 30
0.0
 11
-16.8806237012
 21
-10.744322286
 31
0.0
  0
LINE
  5
35E
100
AcDbEntity
  8
0
100
AcDbLine
 62
250
  6
CONTINUOUS
 10
-22.0367777012
 20
-6.8404895904
 30
0.0
 11
-22.0367777012
 21
-7.7784615904
 31
0.0
  0
LINE
  5
35F
100
AcDbEntity
  8
0
100
AcDbLine
 62
7
  6
CONTINUOUS
 10
-21.835047641
 20
3.8918154096
 30
0.0
 11
-21.8350666352
 21
5.6474544096
 31
0.0
  0
LINE
  5
360
100
AcDbEntity
  8
0
100
AcDbLine
 62
7
  6
CONTINUOUS
 10
-21.3806237012
 20
-23.0713550577
 30
0.0
 11
-21.3806237012
 21
-22.4887181231
 31
0.0
  0
LINE
  5
361
100
AcDbEntity
  8
0
100
AcDbLine
 62
7
  6
CONTINUOUS
 10
-21.3806237012
 20
23.2286449423
 30
0.0
 11
-21.3806237012
 21
23.8112818769
 31
0.0
  0
LINE
  5
362
100
AcDbEntity
  8
0
100
AcDbLine
 62
250
  6
CONTINUOUS
 10
-21.3780597012
 20
-5.9361445904
 30
0.0
 11
-21.3780597012
 21
-6.6620655904
 31
0.0
  0
LINE
  5
363
100
AcDbEntity
  8
0
100
AcDbLine
 62
250
  6
CONTINUOUS
 10
-21.3780597012
 20
-13.1638565904
 30
0.0
 11
-21.3780597012
 21
-12.4751005904
 31
0.0
  0
LINE
  5
364
100
AcDbEntity
  8
0
100
AcDbLine
 62
250
  6
CONTINUOUS
 10
-21.3780597012
 20
-7.9685155904
 30
0.0
 11
-21.3780597012
 21
-8.6497995904
 31
0.0
  0
LINE
  5
365
100
AcDbEntity
  8
0
100
AcDbLine
 62
250
  6
CONTINUOUS
 10
-21.3780597012
 20
-8.7579525904
 30
0.0
 11
-21.3780597012
 21
-9.4317395904
 31
0.0
  0
LINE
  5
366
100
AcDbEntity
  8
0
100
AcDbLine
 62
250
  6
CONTINUOUS
 10
-21.3780597012
 20
-10.3921785904
 30
0.0
 11
-21.3780597012
 21
-10.4887765904
 31
0.0
  0
LINE
  5
367
100
AcDbEntity
  8
0
100
AcDbLine
 62
250
  6
CONTINUOUS
 10
-21.3780597012
 20
-11.4454045904
 30
0.0
 11
-21.3780597012
 21
-12.1043205904
 31
0.0
  0
LINE
  5
368
100
AcDbEntity
  8
0
100
AcDbLine
 62
250
  6
CONTINUOUS
 10
-21.3780597012
 20
-14.4800805904
 30
0.0
 11
-21.3780597012
 21
-15.0870475904
 31
0.0
  0
LINE
  5
369
100
AcDbEntity
  8
0
100
AcDbLine
 62
250
  6
CONTINUOUS
 10
-21.3780599146
 20
-5.7338921992
 30
0.0
 11
-21.3780599146
 21
-5.0479069534
 31
0.0
  0
LINE
  5
36A
100
AcDbEntity
  8
0
100
AcDbLine
 62
250
  6
CONTINUOUS
 10
-21.3780599146
 20
-3.9931712344
 30
0.0
 11
-21.3780599146
 21
-3.3306674486
 31
0.0
  0
LINE
  5
36B
100
AcDbEntity
  8
0
100
AcDbLine
 62
250
  6
CONTINUOUS
 10
-21.3310307304
 20
-23.5839288635
 30
0.0
 11
-21.3310307304
 21
-21.9861143434
 31
0.0
  0
LINE
  5
36C
100
AcDbEntity
  8
0
100
AcDbLine
 62
250
  6
CONTINUOUS
 10
-21.3310307304
 20
22.7260411625
 30
0.0
 11
-21.3310307304
 21
24.3238556826
 31
0.0
  0
LINE
  5
36D
100
AcDbEntity
  8
0
100
AcDbLine
 62
7
  6
CONTINUOUS
 10
-21.3116421118
 20
16.9172624096
 30
0.0
 11
-21.3116421118
 21
16.3285444096
 31
0.0
  0
LINE
  5
36E
100
AcDbEntity
  8
0
100
AcDbLine
 62
7
  6
CONTINUOUS
 10
-21.3116421118
 20
14.8202774096
 30
0.0
 11
-21.3116421118
 21
14.2531084096
 31
0.0
  0
LINE
  5
36F
100
AcDbEntity
  8
0
100
AcDbLine
 62
7
  6
CONTINUOUS
 10
-21.3116421118
 20
10.4952884096
 30
0.0
 11
-21.3116421118
 21
9.7541504096
 31
0.0
  0
LINE
  5
370
100
AcDbEntity
  8
0
100
AcDbLine
 62
7
  6
CONTINUOUS
 10
-21.3116421118
 20
8.2350174096
 30
0.0
 11
-21.3116421118
 21
7.6458584096
 31
0.0
  0
LINE
  5
371
100
AcDbEntity
  8
0
100
AcDbLine
 62
7
  6
CONTINUOUS
 10
-21.3116421118
 20
6.9451964096
 30
0.0
 11
-21.3116421118
 21
6.3560124096
 31
0.0
  0
LINE
  5
372
100
AcDbEntity
  8
0
100
AcDbLine
 62
7
  6
CONTINUOUS
 10
-21.3116421118
 20
5.6474544096
 30
0.0
 11
-21.3116421118
 21
3.3026644096
 31
0.0
  0
LINE
  5
373
100
AcDbEntity
  8
0
100
AcDbLine
 62
7
  6
CONTINUOUS
 10
-20.8806237012
 20
-23.0863944051
 30
0.0
 11
-20.8806237012
 21
-21.9834991226
 31
0.0
  0
LINE
  5
374
100
AcDbEntity
  8
0
100
AcDbLine
 62
7
  6
CONTINUOUS
 10
-20.8806237012
 20
22.7234215374
 30
0.0
 11
-20.8806237012
 21
23.8263212243
 31
0.0
  0
LWPOLYLINE
  5
375
100
AcDbEntity
  8
0
100
AcDbPolyline
 62
7
  6
CONTINUOUS
 90
3
 70
0
 43
0.3500000087
 10
-10.5949093063
 20
33.9056788849
 10
-10.6663377953
 20
33.6913923523
 10
-10.8091947731
 20
33.4056783966
  0
LINE
  5
376
100
AcDbEntity
  8
0
100
AcDbLine
 62
7
  6
CONTINUOUS
 10
-22.1001960683
 20
3.3026644096
 30
0.0
 11
-21.3116421118
 21
4.091218366
 31
0.0
  0
LINE
  5
377
100
AcDbEntity
  8
0
100
AcDbLine
 62
250
  6
CONTINUOUS
 10
-18.7663380057
 20
6.4699634096
 30
0.0
 11
-19.0806237012
 21
6.155677714
 31
0.0
  0
LINE
  5
378
100
AcDbEntity
  8
0
100
AcDbLine
 62
7
  6
CONTINUOUS
 10
-21.8631173067
 20
3.3026644096
 30
0.0
 11
-21.3116421118
 21
3.8541396044
 31
0.0
  0
LINE
  5
379
100
AcDbEntity
  8
0
100
AcDbLine
 62
7
  6
CONTINUOUS
 10
-21.6260385451
 20
3.3026644096
 30
0.0
 11
-21.3116421118
 21
3.6170608429
 31
0.0
  0
LINE
  5
37A
100
AcDbEntity
  8
0
100
AcDbLine
 62
7
  6
CONTINUOUS
 10
-21.3889597835
 20
3.3026644096
 30
0.0
 11
-21.3116421118
 21
3.3799820813
 31
0.0
  0
LINE
  5
37B
100
AcDbEntity
  8
0
100
AcDbLine
 62
250
  6
CONTINUOUS
 10
-16.8806237012
 20
7.5699634096
 30
0.0
 11
-17.1949094296
 21
7.255677714
 31
0.0
  0
LINE
  5
37C
100
AcDbEntity
  8
0
100
AcDbLine
 62
250
  6
CONTINUOUS
 10
-21.3780597012
 20
-6.6620655904
 30
0.0
 11
-22.0367777012
 21
-6.8404895904
 31
0.0
  0
LINE
  5
37D
100
AcDbEntity
  8
0
100
AcDbLine
 62
250
  6
CONTINUOUS
 10
-22.5464917012
 20
-6.9781375904
 30
0.0
 11
-23.7710157012
 21
-7.2946295904
 31
0.0
  0
LINE
  5
37E
100
AcDbEntity
  8
DRAFT
100
AcDbLine
 62
7
  6
CONTINUOUS
 10
3.8932295763
 20
-2.1060775332
 30
0.0
 11
4.3455230216
 21
-2.0665069841
 31
0.0
  0
LINE
  5
37F
100
AcDbEntity
  8
ASSI
100
AcDbLine
 62
7
  6
CONTINUOUS
 10
3.8932295763
 20
-2.1060775332
 30
0.0
 11
4.3455230216
 21
-2.0665069841
 31
0.0
  0
LINE
  5
380
100
AcDbEntity
  8
0
100
AcDbLine
 62
250
  6
CONTINUOUS
 10
-24.6391126296
 20
-5.7338921992
 30
0.0
 11
-21.3780599146
 21
-5.7338921992
 31
0.0
  0
LINE
  5
381
100
AcDbEntity
  8
0
100
AcDbLine
 62
7
  6
CONTINUOUS
 10
3.6193762988
 20
-5.1300365904
 30
0.0
 11
3.8193762988
 21
-5.1300365904
 31
0.0
  0
LINE
  5
382
100
AcDbEntity
  8
ASSI
100
AcDbLine
 62
7
  6
CONTINUOUS
 10
3.6193762988
 20
-5.1300365904
 30
0.0
 11
3.8193762988
 21
-5.1300365904
 31
0.0
  0
LINE
  5
383
100
AcDbEntity
  8
0
100
AcDbLine
 62
250
  6
CONTINUOUS
 10
-23.2097375149
 20
-5.0707450858
 30
0.0
 11
-24.1155428777
 21
-5.0707450858
 31
0.0
  0
LINE
  5
384
100
AcDbEntity
  8
0
100
AcDbLine
 62
250
  6
CONTINUOUS
 10
-21.3780599146
 20
-5.0479069534
 30
0.0
 11
-22.66934227
 21
-5.0479069534
 31
0.0
  0
LINE
  5
385
100
AcDbEntity
  8
0
100
AcDbLine
 62
250
  6
CONTINUOUS
 10
-18.4520523101
 20
-4.9300365904
 30
0.0
 11
-18.7663380057
 21
-4.9300365904
 31
0.0
  0
LINE
  5
386
100
AcDbEntity
  8
0
100
AcDbLine
 62
250
  6
CONTINUOUS
 10
-5.1906237012
 20
-4.3977755904
 30
0.0
 11
-3.3906237012
 21
-4.3977755904
 31
0.0
  0
LINE
  5
387
100
AcDbEntity
  8
0
100
AcDbLine
 62
250
  6
CONTINUOUS
 10
-18.1377666146
 20
-4.3014649371
 30
0.0
 11
-19.0806237012
 21
-4.3014649371
 31
0.0
  0
LINE
  5
388
100
AcDbEntity
  8
0
100
AcDbLine
 62
250
  6
CONTINUOUS
 10
-22.9182853359
 20
-3.9631327808
 30
0.0
 11
-22.9377831131
 21
-3.9631327808
 31
0.0
  0
LINE
  5
389
100
AcDbEntity
  8
0
100
AcDbLine
 62
250
  6
CONTINUOUS
 10
-5.1906237012
 20
-3.8600905904
 30
0.0
 11
-3.3906237012
 21
-3.8600905904
 31
0.0
  0
LINE
  5
38A
100
AcDbEntity
  8
DRAFT
100
AcDbLine
 62
7
  6
CONTINUOUS
 10
3.8932295762
 20
-5.5539956477
 30
0.0
 11
4.3455230216
 21
-5.5935661967
 31
0.0
  0
LINE
  5
38B
100
AcDbEntity
  8
ASSI
100
AcDbLine
 62
7
  6
CONTINUOUS
 10
3.8932295762
 20
-5.5539956477
 30
0.0
 11
4.3455230216
 21
-5.5935661967
 31
0.0
  0
LINE
  5
38C
100
AcDbEntity
  8
0
100
AcDbLine
 62
250
  6
CONTINUOUS
 10
-5.1906237012
 20
-9.7490895904
 30
0.0
 11
-3.3906237012
 21
-10.5387825904
 31
0.0
  0
LINE
  5
38D
100
AcDbEntity
  8
0
100
AcDbLine
 62
250
  6
CONTINUOUS
 10
-5.1906237012
 20
-10.7794575904
 30
0.0
 11
-3.3906237012
 21
-11.6418885904
 31
0.0
  0
LINE
  5
38E
100
AcDbEntity
  8
0
100
AcDbLine
 62
250
  6
CONTINUOUS
 10
-16.8806237012
 20
-6.0300365904
 30
0.0
 11
-18.4520523101
 21
-4.9300365904
 31
0.0
  0
LINE
  5
38F
100
AcDbEntity
  8
0
100
AcDbLine
 62
250
  6
CONTINUOUS
 10
-19.0806237012
 20
9.6128206274
 30
0.0
 11
-19.0806237012
 21
9.1413920185
 31
0.0
  0
LINE
  5
390
100
AcDbEntity
  8
0
100
AcDbLine
 62
250
  6
CONTINUOUS
 10
-19.0806237012
 20
6.155677714
 30
0.0
 11
-19.0806237012
 21
5.6842491379
 31
0.0
  0
LINE
  5
391
100
AcDbEntity
  8
0
100
AcDbLine
 62
250
  6
CONTINUOUS
 10
-19.0806237012
 20
-5.2443221549
 30
0.0
 11
-19.0806237012
 21
-5.715751026
 31
0.0
  0
LINE
  5
392
100
AcDbEntity
  8
0
100
AcDbLine
 62
250
  6
CONTINUOUS
 10
-19.0806237012
 20
-10.9014651993
 30
0.0
 11
-19.0806237012
 21
-10.744322286
 31
0.0
  0
LINE
  5
393
100
AcDbEntity
  8
0
100
AcDbLine
 62
250
  6
CONTINUOUS
 10
-19.0806237012
 20
-4.3014649371
 30
0.0
 11
-19.0806237012
 21
-3.3586077193
 31
0.0
  0
LINE
  5
394
100
AcDbEntity
  8
0
100
AcDbLine
 62
250
  6
CONTINUOUS
 10
-19.0806237012
 20
-2.2586077193
 30
0.0
 11
-19.0806237012
 21
-2.1014654616
 31
0.0
  0
LINE
  5
395
100
AcDbEntity
  8
0
100
AcDbLine
 62
250
  6
CONTINUOUS
 10
-19.0806237012
 20
7.5699634096
 30
0.0
 11
-19.0806237012
 21
7.7271061918
 31
0.0
  0
LINE
  5
396
100
AcDbEntity
  8
0
100
AcDbLine
 62
250
  6
CONTINUOUS
 10
-17.1949094296
 20
-3.3586077193
 30
0.0
 11
-17.8234808535
 21
-3.3586077193
 31
0.0
  0
LINE
  5
397
100
AcDbEntity
  8
0
100
AcDbLine
 62
7
  6
CONTINUOUS
 10
3.6193762988
 20
-3.1252365904
 30
0.0
 11
3.8193762988
 21
-3.1252365904
 31
0.0
  0
LINE
  5
398
100
AcDbEntity
  8
ASSI
100
AcDbLine
 62
7
  6
CONTINUOUS
 10
3.6193762988
 20
-3.1252365904
 30
0.0
 11
3.8193762988
 21
-3.1252365904
 31
0.0
  0
LINE
  5
399
100
AcDbEntity
  8
0
100
AcDbLine
 62
250
  6
CONTINUOUS
 10
-17.5091951579
 20
-2.7300365904
 30
0.0
 11
-18.4520523101
 21
-2.7300365904
 31
0.0
  0
LINE
  5
39A
100
AcDbEntity
  8
0
100
AcDbLine
 62
250
  6
CONTINUOUS
 10
-5.1906237012
 20
-2.4309945904
 30
0.0
 11
-3.3906237012
 21
-2.4309945904
 31
0.0
  0
LINE
  5
39B
100
AcDbEntity
  8
0
100
AcDbLine
 62
250
  6
CONTINUOUS
 10
-18.4520523101
 20
-1.6300365904
 30
0.0
 11
-17.5091951579
 21
-1.6300365904
 31
0.0
  0
LINE
  5
39C
100
AcDbEntity
  8
0
100
AcDbLine
 62
250
  6
CONTINUOUS
 10
-18.4520523101
 20
-2.7300365904
 30
0.0
 11
-18.7663380057
 21
-2.5728932837
 31
0.0
  0
LINE
  5
39D
100
AcDbEntity
  8
0
100
AcDbLine
 62
250
  6
CONTINUOUS
 10
-17.5091951579
 20
-1.6300365904
 30
0.0
 11
-17.1949094296
 21
-1.7871798972
 31
0.0
  0
LINE
  5
39E
100
AcDbEntity
  8
0
100
AcDbLine
 62
250
  6
CONTINUOUS
 10
-18.7663380057
 20
-2.5728932837
 30
0.0
 11
-19.0806237012
 21
-2.2586077193
 31
0.0
  0
LINE
  5
39F
100
AcDbEntity
  8
0
100
AcDbLine
 62
250
  6
CONTINUOUS
 10
-16.8806237012
 20
-3.6728932837
 30
0.0
 11
-17.1949094296
 21
-3.3586077193
 31
0.0
  0
LINE
  5
3A0
100
AcDbEntity
  8
0
100
AcDbLine
 62
250
  6
CONTINUOUS
 10
-17.1949094296
 20
-1.7871798972
 30
0.0
 11
-16.8806237012
 21
-2.1014654616
 31
0.0
  0
LINE
  5
3A1
100
AcDbEntity
  8
0
100
AcDbLine
 62
250
  6
CONTINUOUS
 10
-18.1377666146
 20
11.3413917562
 30
0.0
 11
-18.1377666146
 21
10.6604393503
 31
0.0
  0
LINE
  5
3A2
100
AcDbEntity
  8
0
100
AcDbLine
 62
250
  6
CONTINUOUS
 10
-18.1377666146
 20
-3.6728932837
 30
0.0
 11
-18.1377666146
 21
-4.3014649371
 31
0.0
  0
LWPOLYLINE
  5
3A3
100
AcDbEntity
  8
0
100
AcDbPolyline
 62
7
  6
CONTINUOUS
 90
2
 70
0
 43
0.3500000087
 10
-17.7377667252
 20
43.6199619049
 10
-17.7377667252
 20
45.1199633698
  0
LINE
  5
3A4
100
AcDbEntity
  8
0
100
AcDbLine
 62
250
  6
CONTINUOUS
 10
-17.5091951579
 20
-9.4347986201
 30
0.0
 11
-17.5091951579
 21
-8.5967031697
 31
0.0
  0
LINE
  5
3A5
100
AcDbEntity
  8
DRAFT
100
AcDbLine
 62
250
  6
CONTINUOUS
 10
-17.371897498
 20
21.8236988367
 30
0.0
 11
-17.371897498
 21
21.2699634096
 31
0.0
  0
LINE
  5
3A6
100
AcDbEntity
  8
DRAFT
100
AcDbLine
 62
250
  6
CONTINUOUS
 10
-17.371897498
 20
-20.5300365904
 30
0.0
 11
-17.371897498
 21
-21.0837720176
 31
0.0
  0
LINE
  5
3A7
100
AcDbEntity
  8
0
100
AcDbLine
 62
250
  6
CONTINUOUS
 10
-17.3520522774
 20
13.384248974
 30
0.0
 11
-17.3520522774
 21
12.284248974
 31
0.0
  0
LINE
  5
3A8
100
AcDbEntity
  8
RACCORDO
100
AcDbLine
 62
250
  6
CONTINUOUS
 10
-17.1790529121
 20
-20.3106950424
 30
0.0
 11
-17.1790529121
 21
-20.5300365904
 31
0.0
  0
LINE
  5
3A9
100
AcDbEntity
  8
RACCORDO
100
AcDbLine
 62
250
  6
CONTINUOUS
 10
-17.1790529121
 20
21.0506218615
 30
0.0
 11
-17.1790529121
 21
21.2699634096
 31
0.0
  0
LINE
  5
3AA
100
AcDbEntity
  8
0
100
AcDbLine
 62
7
  6
CONTINUOUS
 10
-16.8806237012
 20
21.7059503582
 30
0.0
 11
-16.8806237012
 21
21.2699634096
 31
0.0
  0
LINE
  5
3AB
100
AcDbEntity
  8
0
100
AcDbLine
 62
250
  6
CONTINUOUS
 10
-16.8806237012
 20
9.9271061918
 30
0.0
 11
-16.8806237012
 21
8.8271061918
 31
0.0
  0
LINE
  5
3AC
100
AcDbEntity
  8
0
100
AcDbLine
 62
250
  6
CONTINUOUS
 10
-16.8806237012
 20
7.7271061918
 30
0.0
 11
-16.8806237012
 21
7.5699634096
 31
0.0
  0
LINE
  5
3AD
100
AcDbEntity
  8
0
100
AcDbLine
 62
250
  6
CONTINUOUS
 10
-16.8806237012
 20
6.4699634096
 30
0.0
 11
-16.8806237012
 21
5.3699634096
 31
0.0
  0
LINE
  5
3AE
100
AcDbEntity
  8
0
100
AcDbLine
 62
250
  6
CONTINUOUS
 10
-16.8806237012
 20
-2.1014654616
 30
0.0
 11
-16.8806237012
 21
-2.2586077193
 31
0.0
  0
LINE
  5
3AF
100
AcDbEntity
  8
0
100
AcDbLine
 62
250
  6
CONTINUOUS
 10
-16.8806237012
 20
-4.9300365904
 30
0.0
 11
-16.8806237012
 21
-6.0300365904
 31
0.0
  0
LINE
  5
3B0
100
AcDbEntity
  8
0
100
AcDbLine
 62
250
  6
CONTINUOUS
 10
-16.8806237012
 20
-10.744322286
 30
0.0
 11
-16.8806237012
 21
-10.9014651993
 31
0.0
  0
LINE
  5
3B1
100
AcDbEntity
  8
0
100
AcDbLine
 62
250
  6
CONTINUOUS
 10
-16.8806237012
 20
-4.3014649371
 30
0.0
 11
-16.8806237012
 21
-3.6728932837
 31
0.0
  0
LINE
  5
3B2
100
AcDbEntity
  8
ASSI
100
AcDbLine
 62
7
  6
CONTINUOUS
 10
-16.8806237012
 20
-14.8801888953
 30
0.0
 11
-16.8806237012
 21
-20.3054859412
 31
0.0
  0
LINE
  5
3B3
100
AcDbEntity
  8
0
100
AcDbLine
 62
7
  6
CONTINUOUS
 10
-16.8806237012
 20
-20.5300365904
 30
0.0
 11
-16.8806237012
 21
-20.9660235391
 31
0.0
  0
LINE
  5
3B4
100
AcDbEntity
  8
RACCORDO
100
AcDbLine
 62
7
  6
CONTINUOUS
 10
-16.8806237012
 20
-14.8801888953
 30
0.0
 11
-16.8806237012
 21
-20.5300365904
 31
0.0
  0
LINE
  5
3B5
100
AcDbEntity
  8
0
100
AcDbLine
 62
250
  6
CONTINUOUS
 10
-16.8806237012
 20
10.8699634096
 30
0.0
 11
-16.8806237012
 21
11.3413917562
 31
0.0
  0
LINE
  5
3B6
100
AcDbEntity
  8
RACCORDO
100
AcDbLine
 62
7
  6
CONTINUOUS
 10
-16.8806237012
 20
15.6201157144
 30
0.0
 11
-16.8806237012
 21
21.2699634096
 31
0.0
  0
LINE
  5
3B7
100
AcDbEntity
  8
ASSI
100
AcDbLine
 62
7
  6
CONTINUOUS
 10
-16.8806237012
 20
15.6201157144
 30
0.0
 11
-16.8806237012
 21
21.0454127603
 31
0.0
  0
LINE
  5
3B8
100
AcDbEntity
  8
0
100
AcDbLine
 62
250
  6
CONTINUOUS
 10
-17.718718955
 20
1.250915291
 30
0.0
 11
-17.4044332266
 21
1.6699634096
 31
0.0
  0
LINE
  5
3B9
100
AcDbEntity
  8
0
100
AcDbLine
 62
250
  6
CONTINUOUS
 10
-19.0806237012
 20
-2.1014654616
 30
0.0
 11
-18.7663380057
 21
-1.7871798972
 31
0.0
  0
LINE
  5
3BA
100
AcDbEntity
  8
ASSI
100
AcDbLine
 62
7
  6
CONTINUOUS
 10
3.6193762988
 20
-1.3834055904
 30
0.0
 11
3.8193762988
 21
-1.3834055904
 31
0.0
  0
LINE
  5
3BB
100
AcDbEntity
  8
0
100
AcDbLine
 62
250
  6
CONTINUOUS
 10
-5.1906237012
 20
-1.1937985904
 30
0.0
 11
-3.3906237012
 21
-1.1937985904
 31
0.0
  0
LINE
  5
3BC
100
AcDbEntity
  8
0
100
AcDbLine
 62
250
  6
CONTINUOUS
 10
-3.3906237012
 20
-0.0806505904
 30
0.0
 11
-5.1906237012
 21
-0.0806505904
 31
0.0
  0
LINE
  5
3BD
100
AcDbEntity
  8
0
100
AcDbLine
 62
250
  6
CONTINUOUS
 10
-16.8806237012
 20
-0.3728932837
 30
0.0
 11
-19.0806237012
 21
0.2556778451
 31
0.0
  0
LINE
  5
3BE
100
AcDbEntity
  8
0
100
AcDbLine
 62
250
  6
CONTINUOUS
 10
-17.5615761072
 20
0.884248974
 30
0.0
 11
-17.718718955
 21
1.250915291
 31
0.0
  0
LINE
  5
3BF
100
AcDbEntity
  8
0
100
AcDbLine
 62
250
  6
CONTINUOUS
 10
-17.4044332266
 20
1.6699634096
 30
0.0
 11
-17.5615761072
 21
2.0890115282
 31
0.0
  0
LINE
  5
3C0
100
AcDbEntity
  8
0
100
AcDbLine
 62
250
  6
CONTINUOUS
 10
-16.8806237012
 20
-2.2586077193
 30
0.0
 11
-17.1949094296
 21
-2.5728932837
 31
0.0
  0
LINE
  5
3C1
100
AcDbEntity
  8
0
100
AcDbLine
 62
250
  6
CONTINUOUS
 10
-17.8234808535
 20
-3.3586077193
 30
0.0
 11
-18.1377666146
 21
-3.6728932837
 31
0.0
  0
LINE
  5
3C2
100
AcDbEntity
  8
0
100
AcDbLine
 62
250
  6
CONTINUOUS
 10
-18.7663380057
 20
-4.9300365904
 30
0.0
 11
-19.0806237012
 21
-5.2443221549
 31
0.0
  0
LINE
  5
3C3
100
AcDbEntity
  8
0
100
AcDbLine
 62
250
  6
CONTINUOUS
 10
-18.7663380057
 20
-1.7871798972
 30
0.0
 11
-18.4520523101
 21
-1.6300365904
 31
0.0
  0
LINE
  5
3C4
100
AcDbEntity
  8
0
100
AcDbLine
 62
250
  6
CONTINUOUS
 10
-17.1949094296
 20
-2.5728932837
 30
0.0
 11
-17.5091951579
 21
-2.7300365904
 31
0.0
  0
LINE
  5
3C5
100
AcDbEntity
  8
0
100
AcDbLine
 62
250
  6
CONTINUOUS
 10
-19.0806237012
 20
-1.0014654616
 30
0.0
 11
-16.8806237012
 21
-0.3728932837
 31
0.0
  0
LINE
  5
3C6
100
AcDbEntity
  8
0
100
AcDbLine
 62
250
  6
CONTINUOUS
 10
-5.1906237012
 20
2.6695644096
 30
0.0
 11
-3.3906237012
 21
2.6695644096
 31
0.0
  0
LINE
  5
3C7
100
AcDbEntity
  8
0
100
AcDbLine
 62
7
  6
CONTINUOUS
 10
-23.1716873945
 20
8.2350054096
 30
0.0
 11
-24.6096052907
 21
9.6975444096
 31
0.0
  0
LINE
  5
3C8
100
AcDbEntity
  8
0
100
AcDbLine
 62
7
  6
CONTINUOUS
 10
-24.6096052907
 20
10.4875114096
 30
0.0
 11
-23.252524765
 21
9.0687074096
 31
0.0
  0
LINE
  5
3C9
100
AcDbEntity
  8
0
100
AcDbLine
 62
7
  6
CONTINUOUS
 10
-22.8474141938
 20
8.6563184096
 30
0.0
 11
-22.4546098732
 21
8.2350054096
 31
0.0
  0
LINE
  5
3CA
100
AcDbEntity
  8
0
100
AcDbLine
 62
250
  6
CONTINUOUS
 10
-4.0871337012
 20
4.5868224096
 30
0.0
 11
-5.1906237012
 21
3.9281084096
 31
0.0
  0
LINE
  5
3CB
100
AcDbEntity
  8
0
100
AcDbLine
 62
250
  6
CONTINUOUS
 10
-3.3906237012
 20
2.3248344096
 30
0.0
 11
-5.1906237012
 21
1.5351414096
 31
0.0
  0
LINE
  5
3CC
100
AcDbEntity
  8
0
100
AcDbLine
 62
250
  6
CONTINUOUS
 10
-24.6776627012
 20
-6.9485445904
 30
0.0
 11
-21.3780597012
 21
-5.9361445904
 31
0.0
  0
LINE
  5
3CD
100
AcDbEntity
  8
DRAFT
100
AcDbLine
 62
7
  6
CONTINUOUS
 10
3.8932295763
 20
6.2939224668
 30
0.0
 11
4.3455230216
 21
6.3334930159
 31
0.0
  0
LINE
  5
3CE
100
AcDbEntity
  8
ASSI
100
AcDbLine
 62
7
  6
CONTINUOUS
 10
3.8932295763
 20
6.2939224668
 30
0.0
 11
4.3455230216
 21
6.3334930159
 31
0.0
  0
LINE
  5
3CF
100
AcDbEntity
  8
ASSI
100
AcDbLine
 62
7
  6
CONTINUOUS
 10
3.6193762988
 20
3.1165584096
 30
0.0
 11
3.8193762988
 21
3.1165584096
 31
0.0
  0
LINE
  5
3D0
100
AcDbEntity
  8
0
100
AcDbLine
 62
7
  6
CONTINUOUS
 10
-21.3116421118
 20
3.3026644096
 30
0.0
 11
-24.6096052907
 21
3.3026644096
 31
0.0
  0
LINE
  5
3D1
100
AcDbEntity
  8
0
100
AcDbLine
 62
7
  6
CONTINUOUS
 10
-24.0861867655
 20
3.8918154096
 30
0.0
 11
-23.2661356181
 21
3.8918154096
 31
0.0
  0
LINE
  5
3D2
100
AcDbEntity
  8
0
100
AcDbLine
 62
7
  6
CONTINUOUS
 10
-22.7426761054
 20
3.8918154096
 30
0.0
 11
-21.835047641
 21
3.8918154096
 31
0.0
  0
LINE
  5
3D3
100
AcDbEntity
  8
0
100
AcDbLine
 62
250
  6
CONTINUOUS
 10
-3.3906237012
 20
4.5868224096
 30
0.0
 11
-4.0871337012
 21
4.5868224096
 31
0.0
  0
LINE
  5
3D4
100
AcDbEntity
  8
0
100
AcDbLine
 62
250
  6
CONTINUOUS
 10
-19.0806237012
 20
5.6842491379
 30
0.0
 11
-18.6091950924
 21
5.3699634096
 31
0.0
  0
LINE
  5
3D5
100
AcDbEntity
  8
0
100
AcDbLine
 62
250
  6
CONTINUOUS
 10
-16.8806237012
 20
5.3699634096
 30
0.0
 11
-18.4520523101
 21
6.4699634096
 31
0.0
  0
LINE
  5
3D6
100
AcDbEntity
  8
0
100
AcDbLine
 62
250
  6
CONTINUOUS
 10
-18.7663380057
 20
7.255677714
 30
0.0
 11
-19.0806237012
 21
7.5699634096
 31
0.0
  0
LINE
  5
3D7
100
AcDbEntity
  8
0
100
AcDbLine
 62
250
  6
CONTINUOUS
 10
-19.0806237012
 20
-10.744322286
 30
0.0
 11
-18.7663380057
 21
-10.4300365904
 31
0.0
  0
LINE
  5
3D8
100
AcDbEntity
  8
0
100
AcDbLine
 62
7
  6
CONTINUOUS
 10
-23.2661246214
 20
5.5159784096
 30
0.0
 11
-22.7426881017
 21
5.5159784096
 31
0.0
  0
LINE
  5
3D9
100
AcDbEntity
  8
0
100
AcDbLine
 62
7
  6
CONTINUOUS
 10
-24.6096052907
 20
5.6341934096
 30
0.0
 11
-24.0861807673
 21
5.6341934096
 31
0.0
  0
LINE
  5
3DA
100
AcDbEntity
  8
0
100
AcDbLine
 62
7
  6
CONTINUOUS
 10
-21.8350666352
 20
5.6474544096
 30
0.0
 11
-21.3116421118
 21
5.6474544096
 31
0.0
  0
LINE
  5
3DB
100
AcDbEntity
  8
0
100
AcDbLine
 62
7
  6
CONTINUOUS
 10
-21.3116421118
 20
6.3560124096
 30
0.0
 11
-24.6096052907
 21
6.3560124096
 31
0.0
  0
LINE
  5
3DC
100
AcDbEntity
  8
0
100
AcDbLine
 62
250
  6
CONTINUOUS
 10
-18.4520523101
 20
6.4699634096
 30
0.0
 11
-18.7663380057
 21
6.4699634096
 31
0.0
  0
LINE
  5
3DD
100
AcDbEntity
  8
0
100
AcDbLine
 62
7
  6
CONTINUOUS
 10
-24.6096052907
 20
6.9451964096
 30
0.0
 11
-21.3116421118
 21
6.9451964096
 31
0.0
  0
LINE
  5
3DE
100
AcDbEntity
  8
0
100
AcDbLine
 62
250
  6
CONTINUOUS
 10
-17.5091951579
 20
7.0985348007
 30
0.0
 11
-18.4520523101
 21
7.0985348007
 31
0.0
  0
LINE
  5
3DF
100
AcDbEntity
  8
DRAFT
100
AcDbLine
 62
7
  6
CONTINUOUS
 10
3.8932295763
 20
4.0460043523
 30
0.0
 11
4.3455230216
 21
4.0064338033
 31
0.0
  0
LINE
  5
3E0
100
AcDbEntity
  8
ASSI
100
AcDbLine
 62
7
  6
CONTINUOUS
 10
3.8932295763
 20
4.0460043523
 30
0.0
 11
4.3455230216
 21
4.0064338033
 31
0.0
  0
LINE
  5
3E1
100
AcDbEntity
  8
0
100
AcDbLine
 62
250
  6
CONTINUOUS
 10
-5.1906237012
 20
1.5351414096
 30
0.0
 11
-3.3906237012
 21
0.7454494096
 31
0.0
  0
LINE
  5
3E2
100
AcDbEntity
  8
0
100
AcDbLine
 62
250
  6
CONTINUOUS
 10
-18.4520523101
 20
7.0985348007
 30
0.0
 11
-18.7663380057
 21
7.255677714
 31
0.0
  0
LINE
  5
3E3
100
AcDbEntity
  8
0
100
AcDbLine
 62
250
  6
CONTINUOUS
 10
-17.5091951579
 20
8.1985348007
 30
0.0
 11
-17.1949094296
 21
8.0413920185
 31
0.0
  0
LINE
  5
3E4
100
AcDbEntity
  8
0
100
AcDbLine
 62
250
  6
CONTINUOUS
 10
-19.0806237012
 20
9.1413920185
 30
0.0
 11
-18.6091950924
 21
8.8271061918
 31
0.0
  0
LINE
  5
3E5
100
AcDbEntity
  8
0
100
AcDbLine
 62
250
  6
CONTINUOUS
 10
-16.8806237012
 20
8.8271061918
 30
0.0
 11
-18.4520523101
 21
9.9271061918
 31
0.0
  0
LINE
  5
3E6
100
AcDbEntity
  8
0
100
AcDbLine
 62
250
  6
CONTINUOUS
 10
-17.1949094296
 20
8.0413920185
 30
0.0
 11
-16.8806237012
 21
7.7271061918
 31
0.0
  0
LINE
  5
3E7
100
AcDbEntity
  8
0
100
AcDbLine
 62
250
  6
CONTINUOUS
 10
-19.0806237012
 20
11.3413917562
 30
0.0
 11
-18.6091950924
 21
10.8699634096
 31
0.0
  0
LINE
  5
3E8
100
AcDbEntity
  8
0
100
AcDbLine
 62
250
  6
CONTINUOUS
 10
-16.8806237012
 20
-10.9014651993
 30
0.0
 11
-17.1949094296
 21
-11.2157508949
 31
0.0
  0
LINE
  5
3E9
100
AcDbEntity
  8
0
100
AcDbLine
 62
250
  6
CONTINUOUS
 10
-18.7663380057
 20
-10.4300365904
 30
0.0
 11
-18.4520523101
 21
-10.2728938082
 31
0.0
  0
LINE
  5
3EA
100
AcDbEntity
  8
0
100
AcDbLine
 62
250
  6
CONTINUOUS
 10
-21.3780597012
 20
-10.4887765904
 30
0.0
 11
-23.5326387012
 21
-11.2967715904
 31
0.0
  0
LINE
  5
3EB
100
AcDbEntity
  8
0
100
AcDbLine
 62
250
  6
CONTINUOUS
 10
-24.6776627012
 20
-11.1181985904
 30
0.0
 11
-22.8457127012
 21
-10.4367165904
 31
0.0
  0
LINE
  5
3EC
100
AcDbEntity
  8
0
100
AcDbLine
 62
250
  6
CONTINUOUS
 10
-19.0806237012
 20
-9.0157507638
 30
0.0
 11
-16.8806237012
 21
-8.3871793726
 31
0.0
  0
LINE
  5
3ED
100
AcDbEntity
  8
0
100
AcDbLine
 62
7
  6
CONTINUOUS
 10
-21.3116421118
 20
7.6458584096
 30
0.0
 11
-24.6096052907
 21
7.6458584096
 31
0.0
  0
LINE
  5
3EE
100
AcDbEntity
  8
0
100
AcDbLine
 62
250
  6
CONTINUOUS
 10
-18.4520523101
 20
8.1985348007
 30
0.0
 11
-17.5091951579
 21
8.1985348007
 31
0.0
  0
LINE
  5
3EF
100
AcDbEntity
  8
0
100
AcDbLine
 62
7
  6
CONTINUOUS
 10
-24.6096052907
 20
8.2350174096
 30
0.0
 11
-23.1716873945
 21
8.2350054096
 31
0.0
  0
LINE
  5
3F0
100
AcDbEntity
  8
0
100
AcDbLine
 62
7
  6
CONTINUOUS
 10
-22.4546098732
 20
8.2350054096
 30
0.0
 11
-21.3116421118
 21
8.2350174096
 31
0.0
  0
LINE
  5
3F1
100
AcDbEntity
  8
0
100
AcDbLine
 62
250
  6
CONTINUOUS
 10
-18.6091950924
 20
10.8699634096
 30
0.0
 11
-17.9806237012
 21
10.5556778451
 31
0.0
  0
LINE
  5
3F2
100
AcDbEntity
  8
0
100
AcDbLine
 62
250
  6
CONTINUOUS
 10
-16.8806237012
 20
11.3413917562
 30
0.0
 11
-17.1949094296
 21
11.6556778451
 31
0.0
  0
LINE
  5
3F3
100
AcDbEntity
  8
0
100
AcDbLine
 62
250
  6
CONTINUOUS
 10
-3.3906237012
 20
-2.4309945904
 30
0.0
 11
-5.1906237012
 21
-3.8600905904
 31
0.0
  0
LINE
  5
3F4
100
AcDbEntity
  8
0
100
AcDbLine
 62
250
  6
CONTINUOUS
 10
-17.1949094296
 20
-11.2157508949
 30
0.0
 11
-17.5091951579
 21
-11.3728936771
 31
0.0
  0
LINE
  5
3F5
100
AcDbEntity
  8
0
100
AcDbLine
 62
250
  6
CONTINUOUS
 10
-18.4520523101
 20
9.9271061918
 30
0.0
 11
-18.7663380057
 21
9.9271061918
 31
0.0
  0
LINE
  5
3F6
100
AcDbEntity
  8
0
100
AcDbLine
 62
250
  6
CONTINUOUS
 10
-17.9806237012
 20
10.5556778451
 30
0.0
 11
-17.1949094296
 21
10.5556778451
 31
0.0
  0
LINE
  5
3F7
100
AcDbEntity
  8
0
100
AcDbLine
 62
250
  6
CONTINUOUS
 10
-36.7991820161
 20
9.8604634096
 30
0.0
 11
-37.2903655545
 21
9.8699634096
 31
0.0
  0
LINE
  5
3F8
100
AcDbEntity
  8
0
100
AcDbLine
 62
250
  6
CONTINUOUS
 10
-4.0871337012
 20
4.5868224096
 30
0.0
 11
-5.1906237012
 21
5.2455364096
 31
0.0
  0
LINE
  5
3F9
100
AcDbEntity
  8
0
100
AcDbLine
 62
250
  6
CONTINUOUS
 10
-5.1906237012
 20
-5.5899105904
 30
0.0
 11
-5.1906237012
 21
-6.9011225904
 31
0.0
  0
LINE
  5
3FA
100
AcDbEntity
  8
0
100
AcDbLine
 62
250
  6
CONTINUOUS
 10
-5.1906237012
 20
-8.1286015904
 30
0.0
 11
-5.1906237012
 21
-8.7237595904
 31
0.0
  0
LINE
  5
3FB
100
AcDbEntity
  8
0
100
AcDbLine
 62
250
  6
CONTINUOUS
 10
-5.1906237012
 20
-0.8114455904
 30
0.0
 11
-5.1906237012
 21
0.6501424096
 31
0.0
  0
LINE
  5
3FC
100
AcDbEntity
  8
0
100
AcDbLine
 62
250
  6
CONTINUOUS
 10
-4.2906237012
 20
-6.9011225904
 30
0.0
 11
-4.2906237012
 21
-5.6818425904
 31
0.0
  0
LINE
  5
3FD
100
AcDbEntity
  8
0
100
AcDbLine
 62
250
  6
CONTINUOUS
 10
-4.0439417012
 20
1.0320714096
 30
0.0
 11
-4.0439417012
 21
2.0382124096
 31
0.0
  0
LINE
  5
3FE
100
AcDbEntity
  8
0
100
AcDbLine
 62
250
  6
CONTINUOUS
 10
-4.0336397012
 20
-10.2566795904
 30
0.0
 11
-4.0336397012
 21
-9.2414995904
 31
0.0
  0
LINE
  5
3FF
100
AcDbEntity
  8
0
100
AcDbLine
 62
250
  6
CONTINUOUS
 10
-3.3906237012
 20
-8.7237595904
 30
0.0
 11
-3.3906237012
 21
-8.1286015904
 31
0.0
  0
LINE
  5
400
100
AcDbEntity
  8
0
100
AcDbLine
 62
250
  6
CONTINUOUS
 10
-3.3906237012
 20
-6.9011225904
 30
0.0
 11
-3.3906237012
 21
-5.5723395904
 31
0.0
  0
LINE
  5
401
100
AcDbEntity
  8
0
100
AcDbLine
 62
250
  6
CONTINUOUS
 10
-3.3906237012
 20
2.6695644096
 30
0.0
 11
-3.3906237012
 21
3.7037814096
 31
0.0
  0
LINE
  5
402
100
AcDbEntity
  8
0
100
AcDbLine
 62
7
  6
CONTINUOUS
 10
-30.3806237012
 20
-22.7526863212
 30
0.0
 11
-31.2556237012
 21
-23.2578678068
 31
0.0
  0
LINE
  5
403
100
AcDbEntity
  8
0
100
AcDbLine
 62
250
  6
CONTINUOUS
 10
-17.1949094296
 20
11.6556778451
 30
0.0
 11
-17.8234808535
 21
11.6556778451
 31
0.0
  0
LINE
  5
404
100
AcDbEntity
  8
0
100
AcDbLine
 62
250
  6
CONTINUOUS
 10
-16.8806237012
 20
13.017582657
 30
0.0
 11
-17.9806237012
 21
13.017582657
 31
0.0
  0
LINE
  5
405
100
AcDbEntity
  8
0
100
AcDbLine
 62
250
  6
CONTINUOUS
 10
-17.3520522774
 20
12.284248974
 30
0.0
 11
-19.0806237012
 21
12.7556778451
 31
0.0
  0
LINE
  5
406
100
AcDbEntity
  8
0
100
AcDbLine
 62
7
  6
CONTINUOUS
 10
-31.2556237012
 20
23.9977946259
 30
0.0
 11
-30.3806237012
 21
23.4926131404
 31
0.0
  0
LINE
  5
407
100
AcDbEntity
  8
0
100
AcDbLine
 62
250
  6
CONTINUOUS
 10
-30.1320781341
 20
-22.8970238885
 30
0.0
 11
-31.1320781341
 21
-23.4743741577
 31
0.0
  0
LINE
  5
408
100
AcDbEntity
  8
0
100
AcDbLine
 62
250
  6
CONTINUOUS
 10
-3.3906237012
 20
-8.9593975904
 30
0.0
 11
-5.1906237012
 21
-9.7490895904
 31
0.0
  0
LINE
  5
409
100
AcDbEntity
  8
0
100
AcDbLine
 62
250
  6
CONTINUOUS
 10
-21.3780597012
 20
-15.0870475904
 30
0.0
 11
-24.6776627012
 21
-16.1330855904
 31
0.0
  0
LINE
  5
40A
100
AcDbEntity
  8
0
100
AcDbLine
 62
7
  6
CONTINUOUS
 10
-21.3116421118
 20
14.2531084096
 30
0.0
 11
-24.6096052907
 21
14.2531084096
 31
0.0
  0
LINE
  5
40B
100
AcDbEntity
  8
RACCORDO
100
AcDbLine
 62
250
  6
CONTINUOUS
 10
3.6193762988
 20
15.2794373154
 30
0.0
 11
2.6368287052
 21
15.2794373154
 31
0.0
  0
LINE
  5
40C
100
AcDbEntity
  8
ASSI
100
AcDbLine
 62
250
  6
CONTINUOUS
 10
3.6193762988
 20
15.2794373154
 30
0.0
 11
2.6368287052
 21
15.2794373154
 31
0.0
  0
LINE
  5
40D
100
AcDbEntity
  8
0
100
AcDbLine
 62
7
  6
CONTINUOUS
 10
-23.6155051724
 20
14.8282714096
 30
0.0
 11
-21.3116421118
 21
14.8202774096
 31
0.0
  0
LINE
  5
40E
100
AcDbEntity
  8
RACCORDO
100
AcDbLine
 62
250
  6
CONTINUOUS
 10
2.6368287052
 20
15.2794373154
 30
0.0
 11
-16.8806237012
 21
15.6201157144
 31
0.0
  0
LINE
  5
40F
100
AcDbEntity
  8
ASSI
100
AcDbLine
 62
250
  6
CONTINUOUS
 10
2.6368287052
 20
15.2794373154
 30
0.0
 11
-16.8806237012
 21
15.6201157144
 31
0.0
  0
LINE
  5
410
100
AcDbEntity
  8
DRAFT
100
AcDbLine
 62
7
  6
CONTINUOUS
 10
3.8932295763
 20
12.4460043523
 30
0.0
 11
4.3455230216
 21
12.4064338033
 31
0.0
  0
LINE
  5
411
100
AcDbEntity
  8
ASSI
100
AcDbLine
 62
7
  6
CONTINUOUS
 10
3.8932295763
 20
12.4460043523
 30
0.0
 11
4.3455230216
 21
12.4064338033
 31
0.0
  0
LINE
  5
412
100
AcDbEntity
  8
0
100
AcDbLine
 62
250
  6
CONTINUOUS
 10
-31.1320781341
 20
24.2143009769
 30
0.0
 11
-30.1320781341
 21
23.6369507077
 31
0.0
  0
LINE
  5
413
100
AcDbEntity
  8
0
100
AcDbLine
 62
250
  6
CONTINUOUS
 10
-3.3906237012
 20
-11.6418885904
 30
0.0
 11
-5.1906237012
 21
-12.5043225904
 31
0.0
  0
LINE
  5
414
100
AcDbEntity
  8
0
100
AcDbLine
 62
7
  6
CONTINUOUS
 10
-22.2803169766
 20
16.3500744096
 30
0.0
 11
-24.6096052907
 21
16.3500854096
 31
0.0
  0
LINE
  5
415
100
AcDbEntity
  8
0
100
AcDbLine
 62
7
  6
CONTINUOUS
 10
-24.6096052907
 20
16.9172624096
 30
0.0
 11
-21.3116421118
 21
16.9172624096
 31
0.0
  0
LINE
  5
416
100
AcDbEntity
  8
RACCORDO
100
AcDbLine
 62
7
  6
CONTINUOUS
 10
2.6368287052
 20
16.2792850106
 30
0.0
 11
-16.8806237012
 21
16.6199634096
 31
0.0
  0
LINE
  5
417
100
AcDbEntity
  8
ASSI
100
AcDbLine
 62
7
  6
CONTINUOUS
 10
2.6368287052
 20
16.2792850106
 30
0.0
 11
-16.8806237012
 21
16.6199634096
 31
0.0
  0
LINE
  5
418
100
AcDbEntity
  8
0
100
AcDbLine
 62
7
  6
CONTINUOUS
 10
-26.8806237012
 20
18.5173094481
 30
0.0
 11
-28.8806237012
 21
18.8699634096
 31
0.0
  0
LINE
  5
419
100
AcDbEntity
  8
RACCORDO
100
AcDbLine
 62
250
  6
CONTINUOUS
 10
2.6368287052
 20
-14.5395104963
 30
0.0
 11
2.6368287052
 21
15.2794373154
 31
0.0
  0
LINE
  5
41A
100
AcDbEntity
  8
ASSI
100
AcDbLine
 62
250
  6
CONTINUOUS
 10
2.6368287052
 20
-14.5395104963
 30
0.0
 11
2.6368287052
 21
15.2794373154
 31
0.0
  0
LINE
  5
41B
100
AcDbEntity
  8
0
100
AcDbLine
 62
7
  6
CONTINUOUS
 10
-27.8806237012
 20
18.878253934
 30
0.0
 11
-26.8806237012
 21
18.8869808018
 31
0.0
  0
LINE
  5
41C
100
AcDbEntity
  8
0
100
AcDbLine
 62
7
  6
CONTINUOUS
 10
-27.8806237012
 20
19.8699634096
 30
0.0
 11
-26.8806237012
 21
19.8699634096
 31
0.0
  0
LINE
  5
41D
100
AcDbEntity
  8
RACCORDO
100
AcDbLine
 62
250
  6
CONTINUOUS
 10
-16.8806237012
 20
17.969361212
 30
0.0
 11
-26.8806237012
 21
18.0416624583
 31
0.0
  0
LINE
  5
41E
100
AcDbEntity
  8
ASSI
100
AcDbLine
 62
250
  6
CONTINUOUS
 10
-16.8806237012
 20
17.969361212
 30
0.0
 11
-26.8806237012
 21
18.0416624583
 31
0.0
  0
LINE
  5
41F
100
AcDbEntity
  8
RACCORDO
100
AcDbLine
 62
250
  6
CONTINUOUS
 10
-16.8806237012
 20
19.3833593828
 30
0.0
 11
-26.8806237012
 21
19.4556606291
 31
0.0
  0
LINE
  5
420
100
AcDbEntity
  8
ASSI
100
AcDbLine
 62
250
  6
CONTINUOUS
 10
-16.8806237012
 20
19.3833593828
 30
0.0
 11
-26.8806237012
 21
19.4556606291
 31
0.0
  0
LINE
  5
421
100
AcDbEntity
  8
RACCORDO
100
AcDbLine
 62
7
  6
CONTINUOUS
 10
3.6193762988
 20
15.2794373154
 30
0.0
 11
3.6193762988
 21
-6.2421321691
 31
0.0
  0
LINE
  5
422
100
AcDbEntity
  8
ASSI
100
AcDbLine
 62
7
  6
CONTINUOUS
 10
3.6193762988
 20
15.2794373154
 30
0.0
 11
3.6193762988
 21
-6.2421321691
 31
0.0
  0
LINE
  5
423
100
AcDbEntity
  8
RACCORDO
100
AcDbLine
 62
7
  6
CONTINUOUS
 10
3.6193762988
 20
-11.0179408385
 30
0.0
 11
3.6193762988
 21
-14.5395104963
 31
0.0
  0
LINE
  5
424
100
AcDbEntity
  8
ASSI
100
AcDbLine
 62
7
  6
CONTINUOUS
 10
3.6193762988
 20
-11.017941015
 30
0.0
 11
3.6193762988
 21
-14.5395104963
 31
0.0
  0
LINE
  5
425
100
AcDbEntity
  8
ASSI
100
AcDbLine
 62
7
  6
CONTINUOUS
 10
3.8193762988
 20
3.1165584096
 30
0.0
 11
3.8193762988
 21
-1.3834055904
 31
0.0
  0
LINE
  5
426
100
AcDbEntity
  8
0
100
AcDbLine
 62
7
  6
CONTINUOUS
 10
3.8193762988
 20
-3.1252365904
 30
0.0
 11
3.8193762988
 21
-5.1300365904
 31
0.0
  0
LINE
  5
427
100
AcDbEntity
  8
ASSI
100
AcDbLine
 62
7
  6
CONTINUOUS
 10
3.8193762988
 20
-3.1252365904
 30
0.0
 11
3.8193762988
 21
-5.1300365904
 31
0.0
  0
LINE
  5
428
100
AcDbEntity
  8
RACCORDO
100
AcDbLine
 62
250
  6
CONTINUOUS
 10
3.8932295763
 20
12.4460043523
 30
0.0
 11
3.8932295763
 21
6.2939224668
 31
0.0
  0
LINE
  5
429
100
AcDbEntity
  8
ASSI
100
AcDbLine
 62
250
  6
CONTINUOUS
 10
3.8932295763
 20
12.4460043523
 30
0.0
 11
3.8932295763
 21
6.2939224668
 31
0.0
  0
LINE
  5
42A
100
AcDbEntity
  8
RACCORDO
100
AcDbLine
 62
250
  6
CONTINUOUS
 10
3.8932295763
 20
4.0460043523
 30
0.0
 11
3.8932295763
 21
-2.1060775332
 31
0.0
  0
LINE
  5
42B
100
AcDbEntity
  8
ASSI
100
AcDbLine
 62
250
  6
CONTINUOUS
 10
3.8932295763
 20
4.0460043523
 30
0.0
 11
3.8932295763
 21
-2.1060775332
 31
0.0
  0
LINE
  5
42C
100
AcDbEntity
  8
RACCORDO
100
AcDbLine
 62
250
  6
CONTINUOUS
 10
3.8932295762
 20
-5.5539956477
 30
0.0
 11
3.8932295759
 21
-6.4535890974
 31
0.0
  0
LINE
  5
42D
100
AcDbEntity
  8
ASSI
100
AcDbLine
 62
250
  6
CONTINUOUS
 10
3.8932295762
 20
-5.5539956477
 30
0.0
 11
3.8932295759
 21
-6.4535890974
 31
0.0
  0
LINE
  5
42E
100
AcDbEntity
  8
RACCORDO
100
AcDbLine
 62
250
  6
CONTINUOUS
 10
3.8932295759
 20
-10.8064840835
 30
0.0
 11
3.8932295762
 21
-11.7060775332
 31
0.0
  0
LINE
  5
42F
100
AcDbEntity
  8
ASSI
100
AcDbLine
 62
250
  6
CONTINUOUS
 10
3.8932295759
 20
-10.8064840835
 30
0.0
 11
3.8932295762
 21
-11.7060775332
 31
0.0
  0
LINE
  5
430
100
AcDbEntity
  8
RACCORDO
100
AcDbLine
 62
250
  6
CONTINUOUS
 10
4.3455230216
 20
12.4064338033
 30
0.0
 11
4.3455230216
 21
6.3334930159
 31
0.0
  0
LINE
  5
431
100
AcDbEntity
  8
ASSI
100
AcDbLine
 62
250
  6
CONTINUOUS
 10
4.3455230216
 20
12.4064338033
 30
0.0
 11
4.3455230216
 21
6.3334930159
 31
0.0
  0
LINE
  5
432
100
AcDbEntity
  8
RACCORDO
100
AcDbLine
 62
250
  6
CONTINUOUS
 10
4.3455230216
 20
4.0064338033
 30
0.0
 11
4.3455230216
 21
-2.0665069841
 31
0.0
  0
LINE
  5
433
100
AcDbEntity
  8
ASSI
100
AcDbLine
 62
250
  6
CONTINUOUS
 10
4.3455230216
 20
4.0064338033
 30
0.0
 11
4.3455230216
 21
-2.0665069841
 31
0.0
  0
LINE
  5
434
100
AcDbEntity
  8
RACCORDO
100
AcDbLine
 62
250
  6
CONTINUOUS
 10
4.3455230216
 20
-5.5935661967
 30
0.0
 11
4.3455230216
 21
-11.6665069841
 31
0.0
  0
LINE
  5
435
100
AcDbEntity
  8
ASSI
100
AcDbLine
 62
250
  6
CONTINUOUS
 10
4.3455230216
 20
-5.5935661967
 30
0.0
 11
4.3455230216
 21
-11.6665069841
 31
0.0
  0
LINE
  5
436
100
AcDbEntity
  8
RACCORDO
100
AcDbLine
 62
7
  6
CONTINUOUS
 10
4.6193762988
 20
12.1075557506
 30
0.0
 11
4.6193762988
 21
6.6323710696
 31
0.0
  0
LINE
  5
437
100
AcDbEntity
  8
ASSI
100
AcDbLine
 62
7
  6
CONTINUOUS
 10
4.6193762988
 20
12.1075557506
 30
0.0
 11
4.6193762988
 21
6.6323710696
 31
0.0
  0
LINE
  5
438
100
AcDbEntity
  8
RACCORDO
100
AcDbLine
 62
7
  6
CONTINUOUS
 10
4.6193762988
 20
3.7075557508
 30
0.0
 11
4.6193762988
 21
-1.7676289328
 31
0.0
  0
LINE
  5
439
100
AcDbEntity
  8
ASSI
100
AcDbLine
 62
7
  6
CONTINUOUS
 10
4.6193762988
 20
3.7075557508
 30
0.0
 11
4.6193762988
 21
-1.7676289328
 31
0.0
  0
LINE
  5
43A
100
AcDbEntity
  8
RACCORDO
100
AcDbLine
 62
7
  6
CONTINUOUS
 10
4.6193762988
 20
-5.8924442494
 30
0.0
 11
4.6193762988
 21
-11.3676289304
 31
0.0
  0
LINE
  5
43B
100
AcDbEntity
  8
ASSI
100
AcDbLine
 62
7
  6
CONTINUOUS
 10
4.6193762988
 20
-5.8924442494
 30
0.0
 11
4.6193762988
 21
-11.3676289304
 31
0.0
  0
LINE
  5
43C
100
AcDbEntity
  8
RACCORDO
100
AcDbLine
 62
7
  6
CONTINUOUS
 10
-27.8816708797
 20
20.0699579265
 30
0.0
 11
-26.8806237012
 21
20.0751994452
 31
0.0
  0
LINE
  5
43D
100
AcDbEntity
  8
RACCORDO
100
AcDbLine
 62
250
  6
CONTINUOUS
 10
-27.8806237012
 20
20.3699592972
 30
0.0
 11
-26.8806237012
 21
20.3751953328
 31
0.0
  0
LINE
  5
43E
100
AcDbEntity
  8
DRAFT
100
AcDbLine
 62
7
  6
CONTINUOUS
 10
-17.371897498
 20
21.8236988367
 30
0.0
 11
-27.8806237012
 21
21.7699634096
 31
0.0
  0
LINE
  5
43F
100
AcDbEntity
  8
0
100
AcDbLine
 62
7
  6
CONTINUOUS
 10
-16.8806237012
 20
21.2699634096
 30
0.0
 11
-27.8806237012
 21
21.2699634096
 31
0.0
  0
LINE
  5
440
100
AcDbEntity
  8
DRAFT
100
AcDbLine
 62
7
  6
CONTINUOUS
 10
-26.8806237012
 20
21.2199634096
 30
0.0
 11
-16.8806237012
 21
21.0454127603
 31
0.0
  0
LINE
  5
441
100
AcDbEntity
  8
ASSI
100
AcDbLine
 62
7
  6
CONTINUOUS
 10
-26.8806237012
 20
21.2199634096
 30
0.0
 11
-16.8806237012
 21
21.0454127603
 31
0.0
  0
LWPOLYLINE
  5
442
100
AcDbEntity
  8
0
100
AcDbPolyline
 62
7
  6
CONTINUOUS
 90
10
 70
0
 43
0.3500000087
 10
-10.6663377953
 20
34.1199654175
 10
-10.5949093063
 20
33.977106308
 10
-10.5949093063
 20
33.9056788849
 10
-10.7377662842
 20
33.7628197754
 10
-10.8091947731
 20
33.7628197754
 10
-10.880623262
 20
33.8342471985
 10
-10.880623262
 20
33.9056788849
 10
-10.8091947731
 20
34.0485337311
 10
-10.7377662842
 20
34.1199654175
 10
-10.6663377953
 20
34.1199654175
  0
LINE
  5
443
100
AcDbEntity
  8
0
100
AcDbLine
 62
250
  6
CONTINUOUS
 10
-28.8806008578
 20
22.2697357547
 30
0.0
 11
-35.3464409026
 21
21.9308754367
 31
0.0
  0
LINE
  5
444
100
AcDbEntity
  8
0
100
AcDbLine
 62
7
  6
CONTINUOUS
 10
-28.8806237012
 20
22.7699634096
 30
0.0
 11
-35.3638607703
 21
22.4301913522
 31
0.0
  0
LINE
  5
445
100
AcDbEntity
  8
0
100
AcDbLine
 62
250
  6
CONTINUOUS
 10
-31.3806237012
 20
24.2143009769
 30
0.0
 11
-31.1320781341
 21
24.2143009769
 31
0.0
  0
LINE
  5
446
100
AcDbEntity
  8
0
100
AcDbLine
 62
250
  6
CONTINUOUS
 10
-27.8806237012
 20
24.2143009769
 30
0.0
 11
-28.1291692684
 21
24.2143009769
 31
0.0
  0
LINE
  5
447
100
AcDbEntity
  8
0
100
AcDbLine
 62
250
  6
CONTINUOUS
 10
-27.8806237012
 20
22.2641625028
 30
0.0
 11
-28.8806237012
 21
22.2699803326
 31
0.0
  0
LINE
  5
448
100
AcDbEntity
  8
DRAFT
100
AcDbLine
 62
7
  6
CONTINUOUS
 10
-17.8748059699
 20
22.7059334351
 30
0.0
 11
-27.8806237012
 21
22.7641455798
 31
0.0
  0
LINE
  5
449
100
AcDbEntity
  8
0
100
AcDbLine
 62
7
  6
CONTINUOUS
 10
-27.8806237012
 20
22.7641455798
 30
0.0
 11
-28.880623526
 21
22.7699634085
 31
0.0
  0
LINE
  5
44A
100
AcDbEntity
  8
0
100
AcDbLine
 62
7
  6
CONTINUOUS
 10
-21.3777148356
 20
24.3263127627
 30
0.0
 11
-27.8797519604
 21
24.3641405081
 31
0.0
  0
LINE
  5
44B
100
AcDbEntity
  8
0
100
AcDbLine
 62
250
  6
CONTINUOUS
 10
-31.1320781341
 20
24.6068690616
 30
0.0
 11
-28.8806237012
 21
24.6199676403
 31
0.0
  0
LINE
  5
44C
100
AcDbEntity
  8
0
100
AcDbLine
 62
7
  6
CONTINUOUS
 10
-31.1320781341
 20
24.8568648308
 30
0.0
 11
-28.8806237012
 21
24.8699634096
 31
0.0
  0
LINE
  5
44D
100
AcDbEntity
  8
0
100
AcDbLine
 62
250
  6
CONTINUOUS
 10
-31.3806237012
 20
24.6068690616
 30
0.0
 11
-31.1320781341
 21
24.6068690616
 31
0.0
  0
LINE
  5
44E
100
AcDbEntity
  8
0
100
AcDbLine
 62
250
  6
CONTINUOUS
 10
-27.8806237012
 20
24.6155958063
 30
0.0
 11
-28.1291692684
 21
24.6155958063
 31
0.0
  0
LINE
  5
44F
100
AcDbEntity
  8
0
100
AcDbLine
 62
250
  6
CONTINUOUS
 10
-28.8806237012
 20
24.6199676403
 30
0.0
 11
-28.1291692684
 21
24.6155958063
 31
0.0
  0
LINE
  5
450
100
AcDbEntity
  8
0
100
AcDbLine
 62
7
  6
CONTINUOUS
 10
-28.8806237012
 20
24.8699634096
 30
0.0
 11
-28.1291692684
 21
24.8655915756
 31
0.0
  0
LWPOLYLINE
  5
451
100
AcDbEntity
  8
0
100
AcDbPolyline
 62
7
  6
CONTINUOUS
 90
6
 70
0
 43
0.3500000087
 10
-15.8091953926
 20
33.6199649292
 10
-14.737766993
 20
33.6199649292
 10
-14.5234804604
 20
33.8342471985
 10
-14.5234804604
 20
34.9056755981
 10
-14.9520524597
 20
35.3342486633
 10
-15.3806233932
 20
35.3342486633
  0
LWPOLYLINE
  5
452
100
AcDbEntity
  8
0
100
AcDbPolyline
 62
7
  6
CONTINUOUS
 90
8
 70
0
 43
0.3500000087
 10
-9.5949093956
 20
33.6199649292
 10
-8.7377664627
 20
33.6199649292
 10
-8.3091949963
 20
34.0485337311
 10
-8.3091949963
 20
34.9056755981
 10
-8.7377664627
 20
35.3342486633
 10
-9.5949093956
 20
35.3342486633
 10
-9.5949093956
 20
36.6199635956
 10
-8.3091949963
 20
36.6199635956
  0
LWPOLYLINE
  5
453
100
AcDbEntity
  8
0
100
AcDbPolyline
 62
7
  6
CONTINUOUS
 90
7
 70
0
 43
0.3500000087
 10
-12.1663381943
 20
33.6199649292
 10
-13.6663375275
 20
33.6199649292
 10
-12.1663381943
 20
35.7628217285
 10
-12.1663381943
 20
36.1913905304
 10
-12.5949091278
 20
36.6199635956
 10
-13.2377665939
 20
36.6199635956
 10
-13.6663375275
 20
35.9771082611
  0
LWPOLYLINE
  5
454
100
AcDbEntity
  8
0
100
AcDbPolyline
 62
7
  6
CONTINUOUS
 90
7
 70
0
 43
0.3500000087
 10
-14.8806239708
 20
43.6199619049
 10
-16.380623304
 20
43.6199619049
 10
-14.8806239708
 20
45.7628187042
 10
-14.8806239708
 20
46.1913917694
 10
-15.3091949043
 20
46.6199648346
 10
-15.9520523705
 20
46.6199648346
 10
-16.380623304
 20
45.9771052368
  0
LWPOLYLINE
  5
455
100
AcDbEntity
  8
0
100
AcDbPolyline
 62
7
  6
CONTINUOUS
 90
3
 70
0
 43
0.3500000087
 10
-17.2377662369
 20
44.2628215027
 10
-18.7377655701
 20
44.2628215027
 10
-18.0949102356
 20
46.6199648346
  0
LWPOLYLINE
  5
456
100
AcDbEntity
  8
0
100
AcDbPolyline
 62
7
  6
CONTINUOUS
 90
5
 70
0
 43
0.3500000087
 10
28.137331366
 20
35.3342486633
 10
28.4944748764
 20
35.5485351959
 10
28.4944748764
 20
36.1913905304
 10
28.137331366
 20
36.6199635956
 10
27.2801894989
 20
36.6199635956
  0
LINE
  5
457
100
AcDbEntity
  8
0
100
AcDbLine
 62
7
  6
CONTINUOUS
 10
15.2672265725
 20
-24.1169380117
 30
0.0
 11
17.6410378766
 21
-24.1169380117
 31
0.0
  0
LINE
  5
458
100
AcDbEntity
  8
0
100
AcDbLine
 62
7
  6
CONTINUOUS
 10
32.6672265725
 20
-24.1169380117
 30
0.0
 11
35.0410378766
 21
-24.1169380117
 31
0.0
  0
LINE
  5
459
100
AcDbEntity
  8
0
100
AcDbLine
 62
250
  6
CONTINUOUS
 10
15.0172308032
 20
-23.8669422425
 30
0.0
 11
17.8910336458
 21
-23.8669422425
 31
0.0
  0
LINE
  5
45A
100
AcDbEntity
  8
0
100
AcDbLine
 62
250
  6
CONTINUOUS
 10
32.4172308032
 20
-23.8669422425
 30
0.0
 11
35.2910336458
 21
-23.8669422425
 31
0.0
  0
LINE
  5
45B
100
AcDbEntity
  8
0
100
AcDbLine
 62
7
  6
CONTINUOUS
 10
21.6541322245
 20
-23.6282844722
 30
0.0
 11
23.9541322245
 21
-23.6282844722
 31
0.0
  0
LINE
  5
45C
100
AcDbEntity
  8
0
100
AcDbLine
 62
7
  6
CONTINUOUS
 10
26.3541322245
 20
-23.6282844722
 30
0.0
 11
28.6541322245
 21
-23.6282844722
 31
0.0
  0
LINE
  5
45D
100
AcDbEntity
  8
0
100
AcDbLine
 62
7
  6
CONTINUOUS
 10
29.5954054798
 20
-23.6213098457
 30
0.0
 11
28.6541322245
 21
-23.6213098457
 31
0.0
  0
LINE
  5
45E
100
AcDbEntity
  8
0
100
AcDbLine
 62
7
  6
CONTINUOUS
 10
21.6541322245
 20
-23.6213098457
 30
0.0
 11
20.7128589692
 21
-23.6213098457
 31
0.0
  0
LINE
  5
45F
100
AcDbEntity
  8
0
100
AcDbLine
 62
250
  6
CONTINUOUS
 10
15.0172308032
 20
-23.4743741577
 30
0.0
 11
17.8910336458
 21
-23.4743741577
 31
0.0
  0
LINE
  5
460
100
AcDbEntity
  8
0
100
AcDbLine
 62
250
  6
CONTINUOUS
 10
32.4172308032
 20
-23.4743741577
 30
0.0
 11
35.2910336458
 21
-23.4743741577
 31
0.0
  0
LINE
  5
461
100
AcDbEntity
  8
0
100
AcDbLine
 62
250
  6
CONTINUOUS
 10
21.6541322245
 20
-23.4282878568
 30
0.0
 11
24.1541322245
 21
-23.4282878568
 31
0.0
  0
LINE
  5
462
100
AcDbEntity
  8
0
100
AcDbLine
 62
250
  6
CONTINUOUS
 10
26.1541322245
 20
-23.4282878568
 30
0.0
 11
28.6541322245
 21
-23.4282878568
 31
0.0
  0
LINE
  5
463
100
AcDbEntity
  8
0
100
AcDbLine
 62
250
  6
CONTINUOUS
 10
35.0410378766
 20
-23.2578678068
 30
0.0
 11
32.6672265725
 21
-23.2578678068
 31
0.0
  0
LINE
  5
464
100
AcDbEntity
  8
0
100
AcDbLine
 62
250
  6
CONTINUOUS
 10
17.6410378766
 20
-23.2578678068
 30
0.0
 11
15.2672265725
 21
-23.2578678068
 31
0.0
  0
LINE
  5
465
100
AcDbEntity
  8
0
100
AcDbLine
 62
7
  6
CONTINUOUS
 10
35.0468557064
 20
-22.7526863212
 30
0.0
 11
32.6614087427
 21
-22.7526863212
 31
0.0
  0
LINE
  5
466
100
AcDbEntity
  8
0
100
AcDbLine
 62
7
  6
CONTINUOUS
 10
15.2614087427
 20
-22.7526863212
 30
0.0
 11
17.6468557064
 21
-22.7526863212
 31
0.0
  0
LINE
  5
467
100
AcDbEntity
  8
0
100
AcDbLine
 62
7
  6
CONTINUOUS
 10
35.803640071
 20
-22.0300365904
 30
0.0
 11
35.3041322245
 21
-22.0300365904
 31
0.0
  0
LINE
  5
468
100
AcDbEntity
  8
0
100
AcDbLine
 62
7
  6
CONTINUOUS
 10
32.4041322245
 20
-22.0300365904
 30
0.0
 11
29.6041322245
 21
-22.0300365904
 31
0.0
  0
LINE
  5
469
100
AcDbEntity
  8
0
100
AcDbLine
 62
7
  6
CONTINUOUS
 10
20.7041322245
 20
-22.0300365904
 30
0.0
 11
17.9041322245
 21
-22.0300365904
 31
0.0
  0
LINE
  5
46A
100
AcDbEntity
  8
0
100
AcDbLine
 62
7
  6
CONTINUOUS
 10
15.0041322245
 20
-22.0300365904
 30
0.0
 11
14.504624378
 21
-22.0300365904
 31
0.0
  0
LINE
  5
46B
100
AcDbEntity
  8
0
100
AcDbLine
 62
7
  6
CONTINUOUS
 10
24.1541322245
 20
-22.0300365904
 30
0.0
 11
26.1541322245
 21
-22.0300365904
 31
0.0
  0
LINE
  5
46C
100
AcDbEntity
  8
0
100
AcDbLine
 62
7
  6
CONTINUOUS
 10
28.6541322245
 20
-22.0038327008
 30
0.0
 11
26.3541322245
 21
-22.0038327008
 31
0.0
  0
LINE
  5
46D
100
AcDbEntity
  8
0
100
AcDbLine
 62
7
  6
CONTINUOUS
 10
23.9541322245
 20
-22.0038327008
 30
0.0
 11
21.6541322245
 21
-22.0038327008
 31
0.0
  0
LINE
  5
46E
100
AcDbEntity
  8
0
100
AcDbLine
 62
7
  6
CONTINUOUS
 10
15.2614087427
 20
-21.9514249215
 30
0.0
 11
17.6468557064
 21
-21.9514249215
 31
0.0
  0
LINE
  5
46F
100
AcDbEntity
  8
0
100
AcDbLine
 62
7
  6
CONTINUOUS
 10
20.7128589692
 20
-21.9514249215
 30
0.0
 11
21.6541322245
 21
-21.9514249215
 31
0.0
  0
LINE
  5
470
100
AcDbEntity
  8
0
100
AcDbLine
 62
7
  6
CONTINUOUS
 10
28.6541322245
 20
-21.9514249215
 30
0.0
 11
29.5954054798
 21
-21.9514249215
 31
0.0
  0
LINE
  5
471
100
AcDbEntity
  8
0
100
AcDbLine
 62
7
  6
CONTINUOUS
 10
32.6614087427
 20
-21.9514249215
 30
0.0
 11
35.0468557064
 21
-21.9514249215
 31
0.0
  0
LINE
  5
472
100
AcDbEntity
  8
0
100
AcDbLine
 62
250
  6
CONTINUOUS
 10
35.690474747
 20
-21.6902645331
 30
0.0
 11
14.617789702
 21
-21.6902645331
 31
0.0
  0
LINE
  5
473
100
AcDbEntity
  8
0
100
AcDbLine
 62
250
  6
CONTINUOUS
 10
35.6823015587
 20
-20.8407540816
 30
0.0
 11
14.6259628903
 21
-20.8407540816
 31
0.0
  0
LINE
  5
474
100
AcDbEntity
  8
0
100
AcDbLine
 62
7
  6
CONTINUOUS
 10
13.9700948479
 20
-17.777382629
 30
0.0
 11
14.0041322245
 21
-18.1212202414
 31
0.0
  0
LINE
  5
475
100
AcDbEntity
  8
0
100
AcDbLine
 62
7
  6
CONTINUOUS
 10
13.9700948479
 20
18.5173094481
 30
0.0
 11
14.0041322245
 21
18.8611470605
 31
0.0
  0
LINE
  5
476
100
AcDbEntity
  8
RACCORDO
100
AcDbLine
 62
250
  6
CONTINUOUS
 10
17.2668058388
 20
12.218192531
 30
0.0
 11
22.9683349863
 21
17.9197216785
 31
0.0
  0
LINE
  5
477
100
AcDbEntity
  8
0
100
AcDbLine
 62
7
  6
CONTINUOUS
 10
29.6041322245
 20
24.3699634096
 30
0.0
 11
29.5954054798
 21
24.3612366648
 31
0.0
  0
LINE
  5
478
100
AcDbEntity
  8
RACCORDO
100
AcDbLine
 62
250
  6
CONTINUOUS
 10
17.4789055644
 20
12.0060928054
 30
0.0
 11
23.1804347119
 21
17.7076219529
 31
0.0
  0
LINE
  5
479
100
AcDbEntity
  8
RACCORDO
100
AcDbLine
 62
250
  6
CONTINUOUS
 10
22.968339346
 20
-17.1797992191
 30
0.0
 11
17.2668058388
 21
-11.4782657119
 31
0.0
  0
LINE
  5
47A
100
AcDbEntity
  8
0
100
AcDbLine
 62
7
  6
CONTINUOUS
 10
29.6041322245
 20
-23.6300365904
 30
0.0
 11
29.5954054798
 21
-23.6213098457
 31
0.0
  0
LINE
  5
47B
100
AcDbEntity
  8
RACCORDO
100
AcDbLine
 62
250
  6
CONTINUOUS
 10
23.1804347119
 20
-16.9676951337
 30
0.0
 11
17.4789055644
 21
-11.2661659863
 31
0.0
  0
LINE
  5
47C
100
AcDbEntity
  8
0
100
AcDbLine
 62
7
  6
CONTINUOUS
 10
13.9700948479
 20
-17.777382629
 30
0.0
 11
13.9700948479
 21
18.5173094481
 31
0.0
  0
LINE
  5
47D
100
AcDbEntity
  8
0
100
AcDbLine
 62
7
  6
CONTINUOUS
 10
14.0036958811
 20
22.2699803326
 30
0.0
 11
14.0036958811
 21
18.8699634096
 31
0.0
  0
LINE
  5
47E
100
AcDbEntity
  8
0
100
AcDbLine
 62
7
  6
CONTINUOUS
 10
14.0036958811
 20
-21.5300535135
 30
0.0
 11
14.0036958811
 21
-18.1300365904
 31
0.0
  0
LINE
  5
47F
100
AcDbEntity
  8
RACCORDO
100
AcDbLine
 62
250
  6
CONTINUOUS
 10
27.3399251171
 20
17.9197260242
 30
0.0
 11
27.4342781596
 21
18.0145328262
 31
0.0
  0
LINE
  5
480
100
AcDbEntity
  8
RACCORDO
100
AcDbLine
 62
250
  6
CONTINUOUS
 10
27.1278297372
 20
17.7076219529
 30
0.0
 11
27.3399294628
 21
17.9197216785
 31
0.0
  0
LINE
  5
481
100
AcDbEntity
  8
0
100
AcDbLine
 62
7
  6
CONTINUOUS
 10
26.7884625763
 20
-10.4400365904
 30
0.0
 11
25.8541322245
 21
-10.4400365904
 31
0.0
  0
LINE
  5
482
100
AcDbEntity
  8
0
100
AcDbLine
 62
7
  6
CONTINUOUS
 10
26.7889751072
 20
-10.4300365904
 30
0.0
 11
26.0541322245
 21
-10.4300365904
 31
0.0
  0
LINE
  5
483
100
AcDbEntity
  8
0
100
AcDbLine
 62
7
  6
CONTINUOUS
 10
26.7884625763
 20
-10.4200365904
 30
0.0
 11
25.8541322245
 21
-10.4200365904
 31
0.0
  0
LINE
  5
484
100
AcDbEntity
  8
RACCORDO
100
AcDbLine
 62
250
  6
CONTINUOUS
 10
27.1278297372
 20
-16.9676951337
 30
0.0
 11
27.3399294628
 21
-17.1797948594
 31
0.0
  0
LINE
  5
485
100
AcDbEntity
  8
RACCORDO
100
AcDbLine
 62
250
  6
CONTINUOUS
 10
27.3399294628
 20
-17.1797948594
 30
0.0
 11
27.434479263
 21
-17.2744054138
 31
0.0
  0
LINE
  5
486
100
AcDbEntity
  8
0
100
AcDbLine
 62
7
  6
CONTINUOUS
 10
14.0036958811
 20
18.8699634096
 30
0.0
 11
14.0041322245
 21
18.8611470605
 31
0.0
  0
LINE
  5
487
100
AcDbEntity
  8
0
100
AcDbLine
 62
250
  6
CONTINUOUS
 10
15.0172308032
 20
-23.4743741577
 30
0.0
 11
15.0114129734
 21
-22.8970238885
 31
0.0
  0
LINE
  5
488
100
AcDbEntity
  8
0
100
AcDbLine
 62
250
  6
CONTINUOUS
 10
15.2672265725
 20
-23.2578678068
 30
0.0
 11
15.2621359714
 21
-22.7526863212
 31
0.0
  0
LINE
  5
489
100
AcDbEntity
  8
0
100
AcDbLine
 62
250
  6
CONTINUOUS
 10
14.6431477749
 20
9.8699634096
 30
0.0
 11
14.6259628903
 21
21.5806809007
 31
0.0
  0
LINE
  5
48A
100
AcDbEntity
  8
0
100
AcDbLine
 62
250
  6
CONTINUOUS
 10
14.6431477749
 20
-9.1300365904
 30
0.0
 11
14.6431477749
 21
9.8699634096
 31
0.0
  0
LINE
  5
48B
100
AcDbEntity
  8
0
100
AcDbLine
 62
7
  6
CONTINUOUS
 10
15.0041322245
 20
-22.8970238885
 30
0.0
 11
15.0041322245
 21
-23.4743741577
 31
0.0
  0
LINE
  5
48C
100
AcDbEntity
  8
0
100
AcDbLine
 62
7
  6
CONTINUOUS
 10
15.0041322245
 20
23.6369507077
 30
0.0
 11
15.0041322245
 21
24.2143009769
 31
0.0
  0
LINE
  5
48D
100
AcDbEntity
  8
0
100
AcDbLine
 62
7
  6
CONTINUOUS
 10
15.0114129734
 20
23.6369507077
 30
0.0
 11
15.0114129734
 21
22.7043774619
 31
0.0
  0
LINE
  5
48E
100
AcDbEntity
  8
0
100
AcDbLine
 62
7
  6
CONTINUOUS
 10
15.0114129734
 20
-21.9644506427
 30
0.0
 11
15.0114129734
 21
-22.8970238885
 31
0.0
  0
LINE
  5
48F
100
AcDbEntity
  8
0
100
AcDbLine
 62
7
  6
CONTINUOUS
 10
15.0172308032
 20
24.6068690616
 30
0.0
 11
15.0172308032
 21
24.2143009769
 31
0.0
  0
LINE
  5
490
100
AcDbEntity
  8
0
100
AcDbLine
 62
7
  6
CONTINUOUS
 10
15.0172308032
 20
-23.4743741577
 30
0.0
 11
15.0172308032
 21
-23.8669422425
 31
0.0
  0
LINE
  5
491
100
AcDbEntity
  8
0
100
AcDbLine
 62
250
  6
CONTINUOUS
 10
15.2614087427
 20
23.4926131404
 30
0.0
 11
15.2614087427
 21
22.6913517406
 31
0.0
  0
LINE
  5
492
100
AcDbEntity
  8
0
100
AcDbLine
 62
250
  6
CONTINUOUS
 10
15.2614087427
 20
-21.9514249215
 30
0.0
 11
15.2614087427
 21
-22.7526863212
 31
0.0
  0
LINE
  5
493
100
AcDbEntity
  8
0
100
AcDbLine
 62
250
  6
CONTINUOUS
 10
15.2672265725
 20
-23.2578678068
 30
0.0
 11
15.2672265725
 21
-24.1169380117
 31
0.0
  0
LINE
  5
494
100
AcDbEntity
  8
0
100
AcDbLine
 62
250
  6
CONTINUOUS
 10
15.2672265725
 20
23.9977946259
 30
0.0
 11
15.2672265725
 21
24.8568648308
 31
0.0
  0
LINE
  5
495
100
AcDbEntity
  8
RACCORDO
100
AcDbLine
 62
250
  6
CONTINUOUS
 10
15.4052880684
 20
-8.3633037617
 30
0.0
 11
15.4052880684
 21
9.1032305809
 31
0.0
  0
LINE
  5
496
100
AcDbEntity
  8
RACCORDO
100
AcDbLine
 62
250
  6
CONTINUOUS
 10
15.9489870949
 20
-8.2967698276
 30
0.0
 11
15.9489870949
 21
9.0366966468
 31
0.0
  0
LINE
  5
497
100
AcDbEntity
  8
RACCORDO
100
AcDbLine
 62
250
  6
CONTINUOUS
 10
16.2489414035
 20
-8.2967698276
 30
0.0
 11
16.2489414035
 21
9.0366966467
 31
0.0
  0
LINE
  5
498
100
AcDbEntity
  8
0
100
AcDbLine
 62
250
  6
CONTINUOUS
 10
14.6259628903
 20
-20.8407540816
 30
0.0
 11
14.6431477749
 21
-9.1300365904
 31
0.0
  0
LINE
  5
499
100
AcDbEntity
  8
0
100
AcDbLine
 62
250
  6
CONTINUOUS
 10
15.0114129734
 20
23.6369507077
 30
0.0
 11
15.0172308032
 21
24.2143009769
 31
0.0
  0
LINE
  5
49A
100
AcDbEntity
  8
0
100
AcDbLine
 62
250
  6
CONTINUOUS
 10
15.2621359714
 20
23.4926131404
 30
0.0
 11
15.2672265725
 21
23.9977946259
 31
0.0
  0
LINE
  5
49B
100
AcDbEntity
  8
0
100
AcDbLine
 62
7
  6
CONTINUOUS
 10
14.0041322245
 20
-18.1212202414
 30
0.0
 11
14.0036958811
 21
-18.1300365904
 31
0.0
  0
LWPOLYLINE
  5
49C
100
AcDbEntity
  8
0
100
AcDbPolyline
 62
7
  6
CONTINUOUS
 90
3
 70
0
 43
0.3500000087
 10
26.2801885223
 20
33.9056788849
 10
26.2087610992
 20
33.6913923523
 10
26.0659041214
 20
33.4056783966
  0
LINE
  5
49D
100
AcDbEntity
  8
RACCORDO
100
AcDbLine
 62
250
  6
CONTINUOUS
 10
35.6651166742
 20
-9.1300365904
 30
0.0
 11
34.8424249424
 21
-9.1302224997
 31
0.0
  0
LINE
  5
49E
100
AcDbEntity
  8
0
100
AcDbLine
 62
7
  6
CONTINUOUS
 10
24.6541322245
 20
-9.9300365904
 30
0.0
 11
25.8541322245
 21
-9.9300365904
 31
0.0
  0
LINE
  5
49F
100
AcDbEntity
  8
0
100
AcDbLine
 62
250
  6
CONTINUOUS
 10
25.8541322245
 20
-9.8700365904
 30
0.0
 11
26.7884625763
 21
-9.8700365904
 31
0.0
  0
LINE
  5
4A0
100
AcDbEntity
  8
0
100
AcDbLine
 62
250
  6
CONTINUOUS
 10
25.8541322245
 20
-9.8300365904
 30
0.0
 11
24.6541322245
 21
-9.8300365904
 31
0.0
  0
LINE
  5
4A1
100
AcDbEntity
  8
RACCORDO
100
AcDbLine
 62
250
  6
CONTINUOUS
 10
15.465839583
 20
-9.130223238
 30
0.0
 11
14.6431477749
 21
-9.1300365904
 31
0.0
  0
LINE
  5
4A2
100
AcDbEntity
  8
0
100
AcDbLine
 62
250
  6
CONTINUOUS
 10
17.6410378766
 20
23.9977946259
 30
0.0
 11
17.6461284777
 21
23.4926131404
 31
0.0
  0
LINE
  5
4A3
100
AcDbEntity
  8
0
100
AcDbLine
 62
250
  6
CONTINUOUS
 10
17.8910336458
 20
24.2143009769
 30
0.0
 11
17.8968514756
 21
23.6369507077
 31
0.0
  0
LINE
  5
4A4
100
AcDbEntity
  8
0
100
AcDbLine
 62
250
  6
CONTINUOUS
 10
17.6410378766
 20
-23.2578678068
 30
0.0
 11
17.6410378766
 21
-24.1169380117
 31
0.0
  0
LINE
  5
4A5
100
AcDbEntity
  8
0
100
AcDbLine
 62
250
  6
CONTINUOUS
 10
17.6410378766
 20
23.9977946259
 30
0.0
 11
17.6410378766
 21
24.8568648308
 31
0.0
  0
LINE
  5
4A6
100
AcDbEntity
  8
0
100
AcDbLine
 62
250
  6
CONTINUOUS
 10
17.6468557064
 20
-22.7526863212
 30
0.0
 11
17.6468557064
 21
-21.9514249215
 31
0.0
  0
LINE
  5
4A7
100
AcDbEntity
  8
0
100
AcDbLine
 62
250
  6
CONTINUOUS
 10
17.6468557064
 20
22.6913517406
 30
0.0
 11
17.6468557064
 21
23.4926131404
 31
0.0
  0
LINE
  5
4A8
100
AcDbEntity
  8
0
100
AcDbLine
 62
7
  6
CONTINUOUS
 10
17.8910336458
 20
-23.8669422425
 30
0.0
 11
17.8910336458
 21
-23.4743741577
 31
0.0
  0
LINE
  5
4A9
100
AcDbEntity
  8
0
100
AcDbLine
 62
7
  6
CONTINUOUS
 10
17.8910336458
 20
24.2143009769
 30
0.0
 11
17.8910336458
 21
24.6068690616
 31
0.0
  0
LINE
  5
4AA
100
AcDbEntity
  8
0
100
AcDbLine
 62
7
  6
CONTINUOUS
 10
17.8968514756
 20
-22.8970238885
 30
0.0
 11
17.8968514756
 21
-21.9644506427
 31
0.0
  0
LINE
  5
4AB
100
AcDbEntity
  8
0
100
AcDbLine
 62
7
  6
CONTINUOUS
 10
17.8968514756
 20
22.7043774619
 30
0.0
 11
17.8968514756
 21
23.6369507077
 31
0.0
  0
LINE
  5
4AC
100
AcDbEntity
  8
0
100
AcDbLine
 62
7
  6
CONTINUOUS
 10
17.9041322245
 20
-22.8970238885
 30
0.0
 11
17.9041322245
 21
-23.4743741577
 31
0.0
  0
LINE
  5
4AD
100
AcDbEntity
  8
0
100
AcDbLine
 62
7
  6
CONTINUOUS
 10
17.9041322245
 20
23.6369507077
 30
0.0
 11
17.9041322245
 21
24.2143009769
 31
0.0
  0
LINE
  5
4AE
100
AcDbEntity
  8
0
100
AcDbLine
 62
250
  6
CONTINUOUS
 10
17.6461284777
 20
-22.7526863212
 30
0.0
 11
17.6410378766
 21
-23.2578678068
 31
0.0
  0
LINE
  5
4AF
100
AcDbEntity
  8
0
100
AcDbLine
 62
250
  6
CONTINUOUS
 10
17.8968514756
 20
-22.8970238885
 30
0.0
 11
17.8910336458
 21
-23.4743741577
 31
0.0
  0
LINE
  5
4B0
100
AcDbEntity
  8
DRAFT
100
AcDbLine
 62
7
  6
CONTINUOUS
 10
25.6497687906
 20
10.7655999757
 30
0.0
 11
25.5712269805
 21
10.6870581656
 31
0.0
  0
LINE
  5
4B1
100
AcDbEntity
  8
ASSI
100
AcDbLine
 62
7
  6
CONTINUOUS
 10
25.6497687906
 20
10.7655999757
 30
0.0
 11
25.5712269805
 21
10.6870581656
 31
0.0
  0
LINE
  5
4B2
100
AcDbEntity
  8
RACCORDO
100
AcDbLine
 62
250
  6
CONTINUOUS
 10
33.0414586102
 20
12.218192531
 30
0.0
 11
33.1833702674
 21
12.2769742641
 31
0.0
  0
LINE
  5
4B3
100
AcDbEntity
  8
0
100
AcDbLine
 62
250
  6
CONTINUOUS
 10
27.3426868628
 20
9.6751601573
 30
0.0
 11
27.2659376659
 21
9.6532967429
 31
0.0
  0
LINE
  5
4B4
100
AcDbEntity
  8
0
100
AcDbLine
 62
250
  6
CONTINUOUS
 10
23.0230058369
 20
-8.8570993274
 30
0.0
 11
23.1007633561
 21
-8.8351459064
 31
0.0
  0
LINE
  5
4B5
100
AcDbEntity
  8
RACCORDO
100
AcDbLine
 62
250
  6
CONTINUOUS
 10
16.2489414035
 20
-8.2967698276
 30
0.0
 11
15.9489870949
 21
-8.2967698276
 31
0.0
  0
LINE
  5
4B6
100
AcDbEntity
  8
RACCORDO
100
AcDbLine
 62
250
  6
CONTINUOUS
 10
34.0593230456
 20
-8.2967698276
 30
0.0
 11
34.3592773541
 21
-8.2967698276
 31
0.0
  0
LINE
  5
4B7
100
AcDbEntity
  8
0
100
AcDbLine
 62
250
  6
CONTINUOUS
 10
27.2357936046
 20
-8.7875741694
 30
0.0
 11
27.1444303475
 21
-8.7571010323
 31
0.0
  0
LINE
  5
4B8
100
AcDbEntity
  8
0
100
AcDbLine
 62
250
  6
CONTINUOUS
 10
27.3471061449
 20
-8.9407984135
 30
0.0
 11
27.2659376659
 21
-8.9133699238
 31
0.0
  0
LINE
  5
4B9
100
AcDbEntity
  8
RACCORDO
100
AcDbLine
 62
250
  6
CONTINUOUS
 10
33.0414586102
 20
-11.4782657119
 30
0.0
 11
33.1833702674
 21
-11.537047445
 31
0.0
  0
LINE
  5
4BA
100
AcDbEntity
  8
0
100
AcDbLine
 62
7
  6
CONTINUOUS
 10
20.7128589692
 20
24.3612366648
 30
0.0
 11
20.7128589692
 21
22.6913517406
 31
0.0
  0
LINE
  5
4BB
100
AcDbEntity
  8
0
100
AcDbLine
 62
7
  6
CONTINUOUS
 10
20.7128589692
 20
-21.9514249215
 30
0.0
 11
20.7128589692
 21
-23.6213098457
 31
0.0
  0
LINE
  5
4BC
100
AcDbEntity
  8
0
100
AcDbLine
 62
7
  6
CONTINUOUS
 10
20.8701328267
 20
-0.3200365904
 30
0.0
 11
20.8701328267
 21
-0.8200365904
 31
0.0
  0
LINE
  5
4BD
100
AcDbEntity
  8
0
100
AcDbLine
 62
7
  6
CONTINUOUS
 10
21.6541322245
 20
-23.6213098457
 30
0.0
 11
21.6541322245
 21
-21.9514249215
 31
0.0
  0
LINE
  5
4BE
100
AcDbEntity
  8
0
100
AcDbLine
 62
7
  6
CONTINUOUS
 10
21.6541322245
 20
22.6913517406
 30
0.0
 11
21.6541322245
 21
24.3612366648
 31
0.0
  0
LINE
  5
4BF
100
AcDbEntity
  8
0
100
AcDbLine
 62
250
  6
CONTINUOUS
 10
14.005004579
 20
-21.5298089355
 30
0.0
 11
14.1178658545
 21
-21.1909497657
 31
0.0
  0
LINE
  5
4C0
100
AcDbEntity
  8
RACCORDO
100
AcDbLine
 62
250
  6
CONTINUOUS
 10
34.3592773541
 20
9.0366966468
 30
0.0
 11
34.5030372937
 21
9.0962879111
 31
0.0
  0
LINE
  5
4C1
100
AcDbEntity
  8
RACCORDO
100
AcDbLine
 62
250
  6
CONTINUOUS
 10
34.3592773541
 20
-8.2967698276
 30
0.0
 11
34.5030372922
 21
-8.3563683666
 31
0.0
  0
LINE
  5
4C2
100
AcDbEntity
  8
0
100
AcDbLine
 62
250
  6
CONTINUOUS
 10
14.1178611856
 20
21.9308906028
 30
0.0
 11
14.005004579
 21
22.2697357547
 31
0.0
  0
LINE
  5
4C3
100
AcDbEntity
  8
0
100
AcDbLine
 62
250
  6
CONTINUOUS
 10
22.2164543535
 20
-1.8291672459
 30
0.0
 11
22.2106186058
 21
-1.44421491
 31
0.0
  0
LINE
  5
4C4
100
AcDbEntity
  8
0
100
AcDbLine
 62
7
  6
CONTINUOUS
 10
22.7041322245
 20
-0.9884954726
 30
0.0
 11
22.7041322245
 21
-1.0194880747
 31
0.0
  0
LINE
  5
4C5
100
AcDbEntity
  8
0
100
AcDbLine
 62
250
  6
CONTINUOUS
 10
23.5198018727
 20
11.1908654511
 30
0.0
 11
23.5198018727
 21
11.1799634096
 31
0.0
  0
LINE
  5
4C6
100
AcDbEntity
  8
0
100
AcDbLine
 62
250
  6
CONTINUOUS
 10
23.5198018727
 20
11.1699634096
 30
0.0
 11
23.5198018727
 21
11.1799005322
 31
0.0
  0
LINE
  5
4C7
100
AcDbEntity
  8
0
100
AcDbLine
 62
250
  6
CONTINUOUS
 10
23.5198018727
 20
10.6099634096
 30
0.0
 11
23.5198018727
 21
11.1599634096
 31
0.0
  0
LINE
  5
4C8
100
AcDbEntity
  8
0
100
AcDbLine
 62
250
  6
CONTINUOUS
 10
22.2164867603
 20
2.5712317627
 30
0.0
 11
22.2106186058
 21
2.1841417291
 31
0.0
  0
LINE
  5
4C9
100
AcDbEntity
  8
0
100
AcDbLine
 62
7
  6
CONTINUOUS
 10
20.7041322245
 20
-22.0300365904
 30
0.0
 11
20.7128589692
 21
-21.9514249215
 31
0.0
  0
LINE
  5
4CA
100
AcDbEntity
  8
0
100
AcDbLine
 62
250
  6
CONTINUOUS
 10
14.504624378
 20
-22.0300365904
 30
0.0
 11
14.617789702
 21
-21.6902645331
 31
0.0
  0
LINE
  5
4CB
100
AcDbEntity
  8
RACCORDO
100
AcDbLine
 62
250
  6
CONTINUOUS
 10
32.8293588846
 20
12.0060928054
 30
0.0
 11
33.0414586102
 21
12.218192531
 31
0.0
  0
LINE
  5
4CC
100
AcDbEntity
  8
0
100
AcDbLine
 62
250
  6
CONTINUOUS
 10
19.989256632
 20
0.0082230009
 30
0.0
 11
19.9834718629
 21
0.0046444886
 31
0.0
  0
LINE
  5
4CD
100
AcDbEntity
  8
0
100
AcDbLine
 62
7
  6
CONTINUOUS
 10
22.2609106824
 20
-1.2249825565
 30
0.0
 11
22.2044156103
 21
-1.2255555793
 31
0.0
  0
LWPOLYLINE
  5
4CE
100
AcDbEntity
  8
0
100
AcDbPolyline
 62
7
  6
CONTINUOUS
 90
4
 70
0
 10
22.2044087414
 20
-1.2255558998
 10
22.1753947441
 20
-1.2253794891
 10
22.1253477857
 20
-1.224357197
 10
22.0813366951
 20
-1.2226949534
  0
LINE
  5
4CF
100
AcDbEntity
  8
0
100
AcDbLine
 62
7
  6
CONTINUOUS
 10
22.0813366951
 20
-1.2226949534
 30
0.0
 11
22.0421952445
 21
-1.2205968426
 31
0.0
  0
LWPOLYLINE
  5
4D0
100
AcDbEntity
  8
0
100
AcDbPolyline
 62
7
  6
CONTINUOUS
 90
4
 70
0
 10
22.0421952445
 20
-1.2205968426
 10
22.0049532023
 20
-1.2180470318
 10
21.9695895177
 20
-1.2151194141
 10
21.9359369147
 20
-1.2118723151
  0
LINE
  5
4D1
100
AcDbEntity
  8
0
100
AcDbLine
 62
7
  6
CONTINUOUS
 10
21.9359369147
 20
-1.2118723151
 30
0.0
 11
21.9009642603
 21
-1.2080212561
 31
0.0
  0
LWPOLYLINE
  5
4D2
100
AcDbEntity
  8
0
100
AcDbPolyline
 62
7
  6
CONTINUOUS
 90
4
 70
0
 10
21.9009642603
 20
-1.2080212561
 10
21.8638014141
 20
-1.2034002057
 10
21.8252393054
 20
-1.1980364754
 10
21.7848353814
 20
-1.1917967969
  0
LWPOLYLINE
  5
4D3
100
AcDbEntity
  8
0
100
AcDbPolyline
 62
7
  6
CONTINUOUS
 90
4
 70
0
 10
21.7848353814
 20
-1.1917967969
 10
21.7421956638
 20
-1.1845187559
 10
21.6978295678
 20
-1.1761816988
 10
21.6526929561
 20
-1.1668870985
  0
LWPOLYLINE
  5
4D4
100
AcDbEntity
  8
0
100
AcDbPolyline
 62
7
  6
CONTINUOUS
 90
4
 70
0
 10
21.6526929561
 20
-1.1668870985
 10
21.607252014
 20
-1.1566846495
 10
21.5611867174
 20
-1.1454542555
 10
21.5367364393
 20
-1.1391214607
  0
LINE
  5
4D5
100
AcDbEntity
  8
0
100
AcDbLine
 62
250
  6
CONTINUOUS
 10
19.989256632
 20
0.7317038182
 30
0.0
 11
19.983520625
 21
0.7352521658
 31
0.0
  0
LINE
  5
4D6
100
AcDbEntity
  8
RACCORDO
100
AcDbLine
 62
250
  6
CONTINUOUS
 10
32.8293588846
 20
-11.2661659863
 30
0.0
 11
33.0414586102
 21
-11.4782657119
 31
0.0
  0
LINE
  5
4D7
100
AcDbEntity
  8
0
100
AcDbLine
 62
7
  6
CONTINUOUS
 10
22.7931676942
 20
-0.92522433
 30
0.0
 11
22.7965405431
 21
-0.9331057275
 31
0.0
  0
LINE
  5
4D8
100
AcDbEntity
  8
0
100
AcDbLine
 62
250
  6
CONTINUOUS
 10
14.617789702
 20
22.4301913522
 30
0.0
 11
14.504624378
 21
22.7699634096
 31
0.0
  0
LINE
  5
4D9
100
AcDbEntity
  8
0
100
AcDbLine
 62
7
  6
CONTINUOUS
 10
22.9307704506
 20
-0.8567253018
 30
0.0
 11
22.9484114289
 21
-0.9288871923
 31
0.0
  0
LINE
  5
4DA
100
AcDbEntity
  8
0
100
AcDbLine
 62
7
  6
CONTINUOUS
 10
23.2714751138
 20
-0.8274274759
 30
0.0
 11
23.2766612864
 21
-0.8486419469
 31
0.0
  0
LINE
  5
4DB
100
AcDbEntity
  8
0
100
AcDbLine
 62
7
  6
CONTINUOUS
 10
23.2885348333
 20
-0.8972116791
 30
0.0
 11
23.2837854146
 21
-0.8777837862
 31
0.0
  0
LINE
  5
4DC
100
AcDbEntity
  8
0
100
AcDbLine
 62
250
  6
CONTINUOUS
 10
23.3086958938
 20
-0.9796821756
 30
0.0
 11
23.2885348333
 21
-0.8972116791
 31
0.0
  0
LINE
  5
4DD
100
AcDbEntity
  8
0
100
AcDbLine
 62
7
  6
CONTINUOUS
 10
20.7128589692
 20
22.6913517406
 30
0.0
 11
20.7041322245
 21
22.7699634096
 31
0.0
  0
LINE
  5
4DE
100
AcDbEntity
  8
0
100
AcDbLine
 62
7
  6
CONTINUOUS
 10
23.6541322245
 20
-0.7839516283
 30
0.0
 11
23.6541322245
 21
0.0699634096
 31
0.0
  0
LINE
  5
4DF
100
AcDbEntity
  8
0
100
AcDbLine
 62
7
  6
CONTINUOUS
 10
23.7646873521
 20
-0.3200365904
 30
0.0
 11
23.7646873521
 21
-0.7055427076
 31
0.0
  0
LINE
  5
4E0
100
AcDbEntity
  8
DRAFT
100
AcDbLine
 62
7
  6
CONTINUOUS
 10
23.9041322245
 20
0.0699634096
 30
0.0
 11
23.9041322245
 21
-0.0300365904
 31
0.0
  0
LINE
  5
4E1
100
AcDbEntity
  8
ASSI
100
AcDbLine
 62
7
  6
CONTINUOUS
 10
23.9041322245
 20
0.0699634096
 30
0.0
 11
23.9041322245
 21
-0.0300365904
 31
0.0
  0
LINE
  5
4E2
100
AcDbEntity
  8
0
100
AcDbLine
 62
250
  6
CONTINUOUS
 10
23.9541322245
 20
-22.0038327008
 30
0.0
 11
23.9541322245
 21
-23.6282844722
 31
0.0
  0
LINE
  5
4E3
100
AcDbEntity
  8
0
100
AcDbLine
 62
250
  6
CONTINUOUS
 10
23.9541322245
 20
22.7437595199
 30
0.0
 11
23.9541322245
 21
24.3682112913
 31
0.0
  0
LINE
  5
4E4
100
AcDbEntity
  8
SMUSSO
100
AcDbLine
 62
7
  6
CONTINUOUS
 10
23.9826742008
 20
0.0485053858
 30
0.0
 11
23.9826742008
 21
0.0699634096
 31
0.0
  0
LINE
  5
4E5
100
AcDbEntity
  8
ASSI
100
AcDbLine
 62
7
  6
CONTINUOUS
 10
23.9826742008
 20
0.0485053858
 30
0.0
 11
23.9826742008
 21
0.0699634096
 31
0.0
  0
LINE
  5
4E6
100
AcDbEntity
  8
0
100
AcDbLine
 62
7
  6
CONTINUOUS
 10
24.1541322245
 20
-23.4282878568
 30
0.0
 11
24.1541322245
 21
-22.0143142567
 31
0.0
  0
LINE
  5
4E7
100
AcDbEntity
  8
0
100
AcDbLine
 62
7
  6
CONTINUOUS
 10
24.1541322245
 20
22.7542410758
 30
0.0
 11
24.1541322245
 21
24.1682146759
 31
0.0
  0
LINE
  5
4E8
100
AcDbEntity
  8
0
100
AcDbLine
 62
7
  6
CONTINUOUS
 10
24.4541322245
 20
11.6727964407
 30
0.0
 11
24.4541322245
 21
11.1799634096
 31
0.0
  0
LINE
  5
4E9
100
AcDbEntity
  8
0
100
AcDbLine
 62
250
  6
CONTINUOUS
 10
24.4541322245
 20
10.6099634096
 30
0.0
 11
24.4541322245
 21
10.5699634096
 31
0.0
  0
LINE
  5
4EA
100
AcDbEntity
  8
0
100
AcDbLine
 62
7
  6
CONTINUOUS
 10
24.4541322245
 20
10.6099634096
 30
0.0
 11
24.4541322245
 21
11.1599634096
 31
0.0
  0
LINE
  5
4EB
100
AcDbEntity
  8
DRAFT
100
AcDbLine
 62
7
  6
CONTINUOUS
 10
24.5584956584
 20
10.6699634096
 30
0.0
 11
24.5584956584
 21
11.6996180318
 31
0.0
  0
LINE
  5
4EC
100
AcDbEntity
  8
ASSI
100
AcDbLine
 62
7
  6
CONTINUOUS
 10
24.5584956584
 20
10.6699634096
 30
0.0
 11
24.5584956584
 21
11.6996180318
 31
0.0
  0
LINE
  5
4ED
100
AcDbEntity
  8
SMUSSO
100
AcDbLine
 62
7
  6
CONTINUOUS
 10
24.6326742008
 20
11.7160315185
 30
0.0
 11
24.6326742008
 21
10.6699634096
 31
0.0
  0
LINE
  5
4EE
100
AcDbEntity
  8
ASSI
100
AcDbLine
 62
7
  6
CONTINUOUS
 10
24.6326742008
 20
11.7160315185
 30
0.0
 11
24.6326742008
 21
10.6699634096
 31
0.0
  0
LINE
  5
4EF
100
AcDbEntity
  8
0
100
AcDbLine
 62
7
  6
CONTINUOUS
 10
24.6541322245
 20
-9.9300365904
 30
0.0
 11
24.6541322245
 21
-10.981197232
 31
0.0
  0
LINE
  5
4F0
100
AcDbEntity
  8
0
100
AcDbLine
 62
250
  6
CONTINUOUS
 10
24.6541322245
 20
-9.8300365904
 30
0.0
 11
24.6541322245
 21
-9.9300365904
 31
0.0
  0
LINE
  5
4F1
100
AcDbEntity
  8
SMUSSO
100
AcDbLine
 62
7
  6
CONTINUOUS
 10
25.1370374685
 20
11.7694230527
 30
0.0
 11
25.1370374685
 21
10.6699634096
 31
0.0
  0
LINE
  5
4F2
100
AcDbEntity
  8
ASSI
100
AcDbLine
 62
7
  6
CONTINUOUS
 10
25.1370374685
 20
11.7694230527
 30
0.0
 11
25.1370374685
 21
10.6699634096
 31
0.0
  0
LINE
  5
4F3
100
AcDbEntity
  8
0
100
AcDbLine
 62
250
  6
CONTINUOUS
 10
25.1541322245
 20
12.0699634096
 30
0.0
 11
25.1541322245
 21
11.7699634096
 31
0.0
  0
LINE
  5
4F4
100
AcDbEntity
  8
0
100
AcDbLine
 62
250
  6
CONTINUOUS
 10
25.1541322245
 20
-11.3300365904
 30
0.0
 11
25.1541322245
 21
-11.0300365904
 31
0.0
  0
LINE
  5
4F5
100
AcDbEntity
  8
0
100
AcDbLine
 62
250
  6
CONTINUOUS
 10
25.1541322245
 20
-7.8300365904
 30
0.0
 11
25.1541322245
 21
-6.9300365904
 31
0.0
  0
LINE
  5
4F6
100
AcDbEntity
  8
0
100
AcDbLine
 62
250
  6
CONTINUOUS
 10
25.1541322245
 20
7.6699634096
 30
0.0
 11
25.1541322245
 21
8.5699634096
 31
0.0
  0
LINE
  5
4F7
100
AcDbEntity
  8
SMUSSO
100
AcDbLine
 62
7
  6
CONTINUOUS
 10
25.1712269805
 20
-11.0294962335
 30
0.0
 11
25.1712269805
 21
-9.9300365904
 31
0.0
  0
LINE
  5
4F8
100
AcDbEntity
  8
ASSI
100
AcDbLine
 62
7
  6
CONTINUOUS
 10
25.1712269805
 20
-11.0294962335
 30
0.0
 11
25.1712269805
 21
-9.9300365904
 31
0.0
  0
LINE
  5
4F9
100
AcDbEntity
  8
SMUSSO
100
AcDbLine
 62
7
  6
CONTINUOUS
 10
23.9041322245
 20
-0.0300365904
 30
0.0
 11
24.0041322245
 21
0.0699634096
 31
0.0
  0
LINE
  5
4FA
100
AcDbEntity
  8
ASSI
100
AcDbLine
 62
7
  6
CONTINUOUS
 10
23.9041322245
 20
-0.0300365904
 30
0.0
 11
24.0041322245
 21
0.0699634096
 31
0.0
  0
LINE
  5
4FB
100
AcDbEntity
  8
0
100
AcDbLine
 62
7
  6
CONTINUOUS
 10
21.9834223749
 20
-1.2162645809
 30
0.0
 11
23.2885348333
 21
-0.8972116791
 31
0.0
  0
LINE
  5
4FC
100
AcDbEntity
  8
0
100
AcDbLine
 62
7
  6
CONTINUOUS
 10
23.2837854146
 20
-0.8777837862
 30
0.0
 11
22.7041322245
 21
-1.0194880747
 31
0.0
  0
LINE
  5
4FD
100
AcDbEntity
  8
0
100
AcDbLine
 62
7
  6
CONTINUOUS
 10
21.8393852323
 20
-1.2000040788
 30
0.0
 11
23.2766612864
 21
-0.8486419469
 31
0.0
  0
LINE
  5
4FE
100
AcDbEntity
  8
0
100
AcDbLine
 62
7
  6
CONTINUOUS
 10
22.7008579786
 20
-1.1782826227
 30
0.0
 11
22.6452401304
 21
-1.1884562784
 31
0.0
  0
LINE
  5
4FF
100
AcDbEntity
  8
0
100
AcDbLine
 62
7
  6
CONTINUOUS
 10
23.423931923
 20
-0.8518071139
 30
0.0
 11
23.4222289437
 21
-0.852088991
 31
0.0
  0
LINE
  5
500
100
AcDbEntity
  8
0
100
AcDbLine
 62
7
  6
CONTINUOUS
 10
22.6452401304
 20
-1.1884562784
 30
0.0
 11
22.5196645858
 21
-1.206784381
 31
0.0
  0
LINE
  5
501
100
AcDbEntity
  8
0
100
AcDbLine
 62
7
  6
CONTINUOUS
 10
22.5196645858
 20
-1.206784381
 30
0.0
 11
22.3914080584
 21
-1.2190362991
 31
0.0
  0
LINE
  5
502
100
AcDbEntity
  8
0
100
AcDbLine
 62
7
  6
CONTINUOUS
 10
22.3914080584
 20
-1.2190362991
 30
0.0
 11
22.2609106824
 21
-1.2249825565
 31
0.0
  0
LWPOLYLINE
  5
503
100
AcDbEntity
  8
0
100
AcDbPolyline
 62
7
  6
CONTINUOUS
 90
2
 70
0
 43
0.3500000087
 10
43.5881692719
 20
-0.9871795208
 10
42.088167807
 20
-0.9871795208
  0
LINE
  5
504
100
AcDbEntity
  8
0
100
AcDbLine
 62
7
  6
CONTINUOUS
 10
23.5998102181
 20
-0.8200365904
 30
0.0
 11
20.8701328267
 21
-0.8200365904
 31
0.0
  0
LINE
  5
505
100
AcDbEntity
  8
ASSI
100
AcDbLine
 62
7
  6
CONTINUOUS
 10
20.8701328267
 20
-0.8200365904
 30
0.0
 11
20.8083673927
 21
-0.8200365904
 31
0.0
  0
LINE
  5
506
100
AcDbEntity
  8
0
100
AcDbLine
 62
7
  6
CONTINUOUS
 10
20.904106533
 20
-0.3200365904
 30
0.0
 11
20.8701328267
 21
-0.3200365904
 31
0.0
  0
LINE
  5
507
100
AcDbEntity
  8
ASSI
100
AcDbLine
 62
7
  6
CONTINUOUS
 10
20.8701328267
 20
-0.3200365904
 30
0.0
 11
20.23059784
 21
-0.3200365904
 31
0.0
  0
LINE
  5
508
100
AcDbEntity
  8
0
100
AcDbLine
 62
7
  6
CONTINUOUS
 10
23.6541322245
 20
-0.3200365904
 30
0.0
 11
24.1773786026
 21
-0.3200365904
 31
0.0
  0
LINE
  5
509
100
AcDbEntity
  8
0
100
AcDbLine
 62
250
  6
CONTINUOUS
 10
23.6541322245
 20
-0.3100365904
 30
0.0
 11
20.904106533
 21
-0.3100365904
 31
0.0
  0
LINE
  5
50A
100
AcDbEntity
  8
DRAFT
100
AcDbLine
 62
7
  6
CONTINUOUS
 10
23.9041322245
 20
-0.0300365904
 30
0.0
 11
24.3196032752
 21
-0.0300365904
 31
0.0
  0
LINE
  5
50B
100
AcDbEntity
  8
ASSI
100
AcDbLine
 62
7
  6
CONTINUOUS
 10
23.9041322245
 20
-0.0300365904
 30
0.0
 11
24.3196032752
 21
-0.0300365904
 31
0.0
  0
LINE
  5
50C
100
AcDbEntity
  8
SMUSSO
100
AcDbLine
 62
7
  6
CONTINUOUS
 10
23.9826742008
 20
0.0485053858
 30
0.0
 11
24.3312349203
 21
0.0485053858
 31
0.0
  0
LINE
  5
50D
100
AcDbEntity
  8
ASSI
100
AcDbLine
 62
7
  6
CONTINUOUS
 10
23.9826742008
 20
0.0485053858
 30
0.0
 11
24.3312349203
 21
0.0485053858
 31
0.0
  0
LINE
  5
50E
100
AcDbEntity
  8
0
100
AcDbLine
 62
7
  6
CONTINUOUS
 10
24.3344127384
 20
0.0699634096
 30
0.0
 11
23.6541322245
 21
0.0699634096
 31
0.0
  0
LINE
  5
50F
100
AcDbEntity
  8
0
100
AcDbLine
 62
7
  6
CONTINUOUS
 10
20.5061385027
 20
0.4799634096
 30
0.0
 11
19.9558142483
 21
0.4799634096
 31
0.0
  0
LINE
  5
510
100
AcDbEntity
  8
DRAFT
100
AcDbLine
 62
7
  6
CONTINUOUS
 10
25.5712269805
 20
11.734988486
 30
0.0
 11
25.5712269805
 21
10.6870581656
 31
0.0
  0
LINE
  5
511
100
AcDbEntity
  8
ASSI
100
AcDbLine
 62
7
  6
CONTINUOUS
 10
25.5712269805
 20
11.734988486
 30
0.0
 11
25.5712269805
 21
10.6870581656
 31
0.0
  0
LINE
  5
512
100
AcDbEntity
  8
DRAFT
100
AcDbLine
 62
7
  6
CONTINUOUS
 10
25.6497687906
 20
10.7655999757
 30
0.0
 11
25.6497687906
 21
11.7214513093
 31
0.0
  0
LINE
  5
513
100
AcDbEntity
  8
ASSI
100
AcDbLine
 62
7
  6
CONTINUOUS
 10
25.6497687906
 20
10.7655999757
 30
0.0
 11
25.6497687906
 21
11.7214513093
 31
0.0
  0
LINE
  5
514
100
AcDbEntity
  8
0
100
AcDbLine
 62
250
  6
CONTINUOUS
 10
25.6541322245
 20
10.5699634096
 30
0.0
 11
25.6541322245
 21
10.6699634096
 31
0.0
  0
LINE
  5
515
100
AcDbEntity
  8
0
100
AcDbLine
 62
7
  6
CONTINUOUS
 10
25.6541322245
 20
10.6699634096
 30
0.0
 11
25.6541322245
 21
11.7211240511
 31
0.0
  0
LINE
  5
516
100
AcDbEntity
  8
SMUSSO
100
AcDbLine
 62
7
  6
CONTINUOUS
 10
25.6755902483
 20
-10.9761046994
 30
0.0
 11
25.6755902483
 21
-9.9300365904
 31
0.0
  0
LINE
  5
517
100
AcDbEntity
  8
ASSI
100
AcDbLine
 62
7
  6
CONTINUOUS
 10
25.6755902483
 20
-10.9761046994
 30
0.0
 11
25.6755902483
 21
-9.9300365904
 31
0.0
  0
LINE
  5
518
100
AcDbEntity
  8
DRAFT
100
AcDbLine
 62
7
  6
CONTINUOUS
 10
25.7497687906
 20
-9.9300365904
 30
0.0
 11
25.7497687906
 21
-10.9596912126
 31
0.0
  0
LINE
  5
519
100
AcDbEntity
  8
ASSI
100
AcDbLine
 62
7
  6
CONTINUOUS
 10
25.7497687906
 20
-9.9300365904
 30
0.0
 11
25.7497687906
 21
-10.9596912126
 31
0.0
  0
LINE
  5
51A
100
AcDbEntity
  8
0
100
AcDbLine
 62
7
  6
CONTINUOUS
 10
25.8541322245
 20
-10.9328696216
 30
0.0
 11
25.8541322245
 21
-10.4400365904
 31
0.0
  0
LINE
  5
51B
100
AcDbEntity
  8
0
100
AcDbLine
 62
7
  6
CONTINUOUS
 10
25.8541322245
 20
-10.4200365904
 30
0.0
 11
25.8541322245
 21
-9.8700365904
 31
0.0
  0
LINE
  5
51C
100
AcDbEntity
  8
0
100
AcDbLine
 62
250
  6
CONTINUOUS
 10
25.8541322245
 20
-9.8700365904
 30
0.0
 11
25.8541322245
 21
-9.8300365904
 31
0.0
  0
LINE
  5
51D
100
AcDbEntity
  8
0
100
AcDbLine
 62
7
  6
CONTINUOUS
 10
26.1541322245
 20
24.1682146759
 30
0.0
 11
26.1541322245
 21
22.7542410758
 31
0.0
  0
LINE
  5
51E
100
AcDbEntity
  8
0
100
AcDbLine
 62
7
  6
CONTINUOUS
 10
26.1541322245
 20
-22.0143142567
 30
0.0
 11
26.1541322245
 21
-23.4282878568
 31
0.0
  0
LINE
  5
51F
100
AcDbEntity
  8
0
100
AcDbLine
 62
250
  6
CONTINUOUS
 10
26.3541322245
 20
-22.0038327008
 30
0.0
 11
26.3541322245
 21
-23.6282844722
 31
0.0
  0
LINE
  5
520
100
AcDbEntity
  8
0
100
AcDbLine
 62
250
  6
CONTINUOUS
 10
26.3541322245
 20
22.7437595199
 30
0.0
 11
26.3541322245
 21
24.3682112913
 31
0.0
  0
LINE
  5
521
100
AcDbEntity
  8
0
100
AcDbLine
 62
250
  6
CONTINUOUS
 10
26.7884625763
 20
-10.450938632
 30
0.0
 11
26.7884625763
 21
-10.4400365904
 31
0.0
  0
LINE
  5
522
100
AcDbEntity
  8
0
100
AcDbLine
 62
250
  6
CONTINUOUS
 10
26.7884625763
 20
-9.8700365904
 30
0.0
 11
26.7884625763
 21
-10.4200365904
 31
0.0
  0
LINE
  5
523
100
AcDbEntity
  8
0
100
AcDbLine
 62
250
  6
CONTINUOUS
 10
26.7884625763
 20
-10.4300365904
 30
0.0
 11
26.7884625763
 21
-10.4399737131
 31
0.0
  0
LINE
  5
524
100
AcDbEntity
  8
0
100
AcDbLine
 62
7
  6
CONTINUOUS
 10
29.6041322245
 20
22.7699634096
 30
0.0
 11
29.5954054798
 21
22.6913517406
 31
0.0
  0
LINE
  5
525
100
AcDbEntity
  8
0
100
AcDbLine
 62
7
  6
CONTINUOUS
 10
21.8638014141
 20
1.9433270249
 30
0.0
 11
21.9009642603
 21
1.9479480752
 31
0.0
  0
LWPOLYLINE
  5
526
100
AcDbEntity
  8
0
100
AcDbPolyline
 62
7
  6
CONTINUOUS
 90
4
 70
0
 10
21.9009642603
 20
1.9479480752
 10
21.9359369147
 20
1.9517991342
 10
21.9695895177
 20
1.9550462332
 10
22.0049532023
 20
1.957973851
  0
LINE
  5
527
100
AcDbEntity
  8
0
100
AcDbLine
 62
7
  6
CONTINUOUS
 10
22.0049532023
 20
1.957973851
 30
0.0
 11
22.0421952445
 21
1.9605236617
 31
0.0
  0
LWPOLYLINE
  5
528
100
AcDbEntity
  8
0
100
AcDbPolyline
 62
7
  6
CONTINUOUS
 90
4
 70
0
 10
22.0421952445
 20
1.9605236617
 10
22.0813366951
 20
1.9626217726
 10
22.1253477857
 20
1.9642840162
 10
22.1753947441
 20
1.9653063082
  0
LINE
  5
529
100
AcDbEntity
  8
0
100
AcDbLine
 62
7
  6
CONTINUOUS
 10
22.1753947441
 20
1.9653063082
 30
0.0
 11
22.2044087414
 21
1.965482719
 31
0.0
  0
LINE
  5
52A
100
AcDbEntity
  8
0
100
AcDbLine
 62
7
  6
CONTINUOUS
 10
22.2044156103
 20
1.9654823985
 30
0.0
 11
22.2609106824
 21
1.9649093756
 31
0.0
  0
LINE
  5
52B
100
AcDbEntity
  8
0
100
AcDbLine
 62
7
  6
CONTINUOUS
 10
22.2609106824
 20
1.9649093756
 30
0.0
 11
22.3914080584
 21
1.9589631182
 31
0.0
  0
LINE
  5
52C
100
AcDbEntity
  8
0
100
AcDbLine
 62
7
  6
CONTINUOUS
 10
22.3914080584
 20
1.9589631182
 30
0.0
 11
22.5196645858
 21
1.9467112001
 31
0.0
  0
LWPOLYLINE
  5
52D
100
AcDbEntity
  8
0
100
AcDbPolyline
 62
7
  6
CONTINUOUS
 90
3
 70
0
 10
22.5196645858
 20
1.9467112001
 10
22.6452401304
 20
1.9283830975
 10
22.7008579786
 20
1.9182094419
  0
LINE
  5
52E
100
AcDbEntity
  8
0
100
AcDbLine
 62
7
  6
CONTINUOUS
 10
29.5954054798
 20
-21.9514249215
 30
0.0
 11
29.6041322245
 21
-22.0300365904
 31
0.0
  0
LINE
  5
52F
100
AcDbEntity
  8
0
100
AcDbLine
 62
7
  6
CONTINUOUS
 10
28.6541322245
 20
24.3612366648
 30
0.0
 11
28.6541322245
 21
22.6913517406
 31
0.0
  0
LINE
  5
530
100
AcDbEntity
  8
0
100
AcDbLine
 62
7
  6
CONTINUOUS
 10
28.6541322245
 20
-21.9514249215
 30
0.0
 11
28.6541322245
 21
-23.6213098457
 31
0.0
  0
LINE
  5
531
100
AcDbEntity
  8
0
100
AcDbLine
 62
250
  6
CONTINUOUS
 10
35.803640071
 20
22.7699634096
 30
0.0
 11
35.690474747
 21
22.4301913522
 31
0.0
  0
LINE
  5
532
100
AcDbEntity
  8
0
100
AcDbLine
 62
250
  6
CONTINUOUS
 10
36.30325987
 20
22.2697357547
 30
0.0
 11
36.1903982122
 21
21.9308754367
 31
0.0
  0
LINE
  5
533
100
AcDbEntity
  8
RACCORDO
100
AcDbLine
 62
250
  6
CONTINUOUS
 10
17.4789055644
 20
-11.2661659863
 30
0.0
 11
17.2668058388
 21
-11.4782657119
 31
0.0
  0
LWPOLYLINE
  5
534
100
AcDbEntity
  8
0
100
AcDbPolyline
 62
7
  6
CONTINUOUS
 90
3
 70
0
 10
21.5367364393
 20
1.8790482798
 10
21.5611867174
 20
1.8853810746
 10
21.607252014
 20
1.8966114686
  0
LWPOLYLINE
  5
535
100
AcDbEntity
  8
0
100
AcDbPolyline
 62
7
  6
CONTINUOUS
 90
4
 70
0
 10
21.607252014
 20
1.8966114686
 10
21.6526929561
 20
1.9068139176
 10
21.6978295678
 20
1.9161085179
 10
21.7421956638
 20
1.9244455751
  0
LWPOLYLINE
  5
536
100
AcDbEntity
  8
0
100
AcDbPolyline
 62
7
  6
CONTINUOUS
 90
4
 70
0
 10
21.7421956638
 20
1.9244455751
 10
21.7848353814
 20
1.9317236161
 10
21.8252393054
 20
1.9379632945
 10
21.8638014141
 20
1.9433270249
  0
LINE
  5
537
100
AcDbEntity
  8
RACCORDO
100
AcDbLine
 62
250
  6
CONTINUOUS
 10
17.4789055644
 20
12.0060928054
 30
0.0
 11
17.2668058388
 21
12.218192531
 31
0.0
  0
LINE
  5
538
100
AcDbEntity
  8
0
100
AcDbLine
 62
250
  6
CONTINUOUS
 10
35.690474747
 20
-21.6902645331
 30
0.0
 11
35.803640071
 21
-22.0300365904
 31
0.0
  0
LINE
  5
539
100
AcDbEntity
  8
0
100
AcDbLine
 62
250
  6
CONTINUOUS
 10
36.1903985946
 20
-21.1909497657
 30
0.0
 11
36.30325987
 21
-21.5298089355
 31
0.0
  0
LINE
  5
53A
100
AcDbEntity
  8
0
100
AcDbLine
 62
7
  6
CONTINUOUS
 10
29.5954054798
 20
-23.6213098457
 30
0.0
 11
29.5954054798
 21
-21.9514249215
 31
0.0
  0
LINE
  5
53B
100
AcDbEntity
  8
0
100
AcDbLine
 62
7
  6
CONTINUOUS
 10
29.5954054798
 20
22.6913517406
 30
0.0
 11
29.5954054798
 21
24.3612366648
 31
0.0
  0
LINE
  5
53C
100
AcDbEntity
  8
RACCORDO
100
AcDbLine
 62
250
  6
CONTINUOUS
 10
15.9489870949
 20
-8.2967698276
 30
0.0
 11
15.8052271556
 21
-8.3563622766
 31
0.0
  0
LINE
  5
53D
100
AcDbEntity
  8
RACCORDO
100
AcDbLine
 62
250
  6
CONTINUOUS
 10
15.9489870949
 20
9.0366966468
 30
0.0
 11
15.8052271552
 21
9.0962869243
 31
0.0
  0
LINE
  5
53E
100
AcDbEntity
  8
0
100
AcDbLine
 62
250
  6
CONTINUOUS
 10
32.4172308032
 20
-23.4743741577
 30
0.0
 11
32.4114129734
 21
-22.8970238885
 31
0.0
  0
LINE
  5
53F
100
AcDbEntity
  8
0
100
AcDbLine
 62
250
  6
CONTINUOUS
 10
32.6672265725
 20
-23.2578678068
 30
0.0
 11
32.6621359714
 21
-22.7526863212
 31
0.0
  0
LINE
  5
540
100
AcDbEntity
  8
0
100
AcDbLine
 62
7
  6
CONTINUOUS
 10
32.4041322245
 20
-22.8970238885
 30
0.0
 11
32.4041322245
 21
-23.4743741577
 31
0.0
  0
LINE
  5
541
100
AcDbEntity
  8
0
100
AcDbLine
 62
7
  6
CONTINUOUS
 10
32.4041322245
 20
23.6369507077
 30
0.0
 11
32.4041322245
 21
24.2143009769
 31
0.0
  0
LINE
  5
542
100
AcDbEntity
  8
0
100
AcDbLine
 62
7
  6
CONTINUOUS
 10
32.4114129734
 20
23.6369507077
 30
0.0
 11
32.4114129734
 21
22.7043774619
 31
0.0
  0
LINE
  5
543
100
AcDbEntity
  8
0
100
AcDbLine
 62
7
  6
CONTINUOUS
 10
32.4114129734
 20
-21.9644506427
 30
0.0
 11
32.4114129734
 21
-22.8970238885
 31
0.0
  0
LINE
  5
544
100
AcDbEntity
  8
0
100
AcDbLine
 62
7
  6
CONTINUOUS
 10
32.4172308032
 20
24.6068690616
 30
0.0
 11
32.4172308032
 21
24.2143009769
 31
0.0
  0
LINE
  5
545
100
AcDbEntity
  8
0
100
AcDbLine
 62
7
  6
CONTINUOUS
 10
32.4172308032
 20
-23.4743741577
 30
0.0
 11
32.4172308032
 21
-23.8669422425
 31
0.0
  0
LINE
  5
546
100
AcDbEntity
  8
0
100
AcDbLine
 62
250
  6
CONTINUOUS
 10
32.4114129734
 20
23.6369507077
 30
0.0
 11
32.4172308032
 21
24.2143009769
 31
0.0
  0
LINE
  5
547
100
AcDbEntity
  8
0
100
AcDbLine
 62
250
  6
CONTINUOUS
 10
32.6621359714
 20
23.4926131404
 30
0.0
 11
32.6672265725
 21
23.9977946259
 31
0.0
  0
LINE
  5
548
100
AcDbEntity
  8
0
100
AcDbLine
 62
250
  6
CONTINUOUS
 10
32.6614087427
 20
23.4926131404
 30
0.0
 11
32.6614087427
 21
22.6913517406
 31
0.0
  0
LINE
  5
549
100
AcDbEntity
  8
0
100
AcDbLine
 62
250
  6
CONTINUOUS
 10
32.6614087427
 20
-21.9514249215
 30
0.0
 11
32.6614087427
 21
-22.7526863212
 31
0.0
  0
LINE
  5
54A
100
AcDbEntity
  8
0
100
AcDbLine
 62
250
  6
CONTINUOUS
 10
32.6672265725
 20
-23.2578678068
 30
0.0
 11
32.6672265725
 21
-24.1169380117
 31
0.0
  0
LINE
  5
54B
100
AcDbEntity
  8
0
100
AcDbLine
 62
250
  6
CONTINUOUS
 10
32.6672265725
 20
23.9977946259
 30
0.0
 11
32.6672265725
 21
24.8568648308
 31
0.0
  0
LINE
  5
54C
100
AcDbEntity
  8
RACCORDO
100
AcDbLine
 62
250
  6
CONTINUOUS
 10
34.0593230456
 20
9.0366966467
 30
0.0
 11
34.0593230456
 21
-8.2967698276
 31
0.0
  0
LINE
  5
54D
100
AcDbEntity
  8
RACCORDO
100
AcDbLine
 62
250
  6
CONTINUOUS
 10
34.3592773541
 20
9.0366966468
 30
0.0
 11
34.3592773541
 21
-8.2967698276
 31
0.0
  0
LINE
  5
54E
100
AcDbEntity
  8
RACCORDO
100
AcDbLine
 62
250
  6
CONTINUOUS
 10
17.2668058388
 20
-11.4782657119
 30
0.0
 11
17.1248941816
 21
-11.537047445
 31
0.0
  0
LINE
  5
54F
100
AcDbEntity
  8
0
100
AcDbLine
 62
250
  6
CONTINUOUS
 10
22.9655775862
 20
-8.9352333382
 30
0.0
 11
23.0423267832
 21
-8.9133699238
 31
0.0
  0
LINE
  5
550
100
AcDbEntity
  8
0
100
AcDbLine
 62
250
  6
CONTINUOUS
 10
27.2852586122
 20
9.5970261465
 30
0.0
 11
27.207501093
 21
9.5750727255
 31
0.0
  0
LINE
  5
551
100
AcDbEntity
  8
RACCORDO
100
AcDbLine
 62
250
  6
CONTINUOUS
 10
16.2489414035
 20
9.0366966467
 30
0.0
 11
15.9489870949
 21
9.0366966467
 31
0.0
  0
LINE
  5
552
100
AcDbEntity
  8
RACCORDO
100
AcDbLine
 62
250
  6
CONTINUOUS
 10
34.0593230456
 20
9.0366966467
 30
0.0
 11
34.3592773541
 21
9.0366966467
 31
0.0
  0
LINE
  5
553
100
AcDbEntity
  8
0
100
AcDbLine
 62
250
  6
CONTINUOUS
 10
23.0724708445
 20
9.5275009885
 30
0.0
 11
23.1638341016
 21
9.4970278514
 31
0.0
  0
LINE
  5
554
100
AcDbEntity
  8
0
100
AcDbLine
 62
250
  6
CONTINUOUS
 10
22.9611583041
 20
9.6807252326
 30
0.0
 11
23.0423267831
 21
9.6532967429
 31
0.0
  0
LINE
  5
555
100
AcDbEntity
  8
RACCORDO
100
AcDbLine
 62
250
  6
CONTINUOUS
 10
17.2668058388
 20
12.218192531
 30
0.0
 11
17.1248941816
 21
12.2769742641
 31
0.0
  0
LINE
  5
556
100
AcDbEntity
  8
0
100
AcDbLine
 62
7
  6
CONTINUOUS
 10
36.3041322245
 20
-18.1212202414
 30
0.0
 11
36.3045685679
 21
-18.1300365904
 31
0.0
  0
LINE
  5
557
100
AcDbEntity
  8
0
100
AcDbLine
 62
250
  6
CONTINUOUS
 10
35.0410378766
 20
23.9977946259
 30
0.0
 11
35.0461284777
 21
23.4926131404
 31
0.0
  0
LINE
  5
558
100
AcDbEntity
  8
0
100
AcDbLine
 62
250
  6
CONTINUOUS
 10
35.2910336458
 20
24.2143009769
 30
0.0
 11
35.2968514756
 21
23.6369507077
 31
0.0
  0
LINE
  5
559
100
AcDbEntity
  8
0
100
AcDbLine
 62
250
  6
CONTINUOUS
 10
35.6651166742
 20
-9.1300365904
 30
0.0
 11
35.6823015587
 21
-20.8407540816
 31
0.0
  0
LINE
  5
55A
100
AcDbEntity
  8
RACCORDO
100
AcDbLine
 62
250
  6
CONTINUOUS
 10
34.9029763807
 20
9.1032305809
 30
0.0
 11
34.9029763807
 21
-8.3633037617
 31
0.0
  0
LINE
  5
55B
100
AcDbEntity
  8
0
100
AcDbLine
 62
250
  6
CONTINUOUS
 10
35.0410378766
 20
-23.2578678068
 30
0.0
 11
35.0410378766
 21
-24.1169380117
 31
0.0
  0
LINE
  5
55C
100
AcDbEntity
  8
0
100
AcDbLine
 62
250
  6
CONTINUOUS
 10
35.0410378766
 20
23.9977946259
 30
0.0
 11
35.0410378766
 21
24.8568648308
 31
0.0
  0
LINE
  5
55D
100
AcDbEntity
  8
0
100
AcDbLine
 62
250
  6
CONTINUOUS
 10
35.0468557064
 20
-22.7526863212
 30
0.0
 11
35.0468557064
 21
-21.9514249215
 31
0.0
  0
LINE
  5
55E
100
AcDbEntity
  8
0
100
AcDbLine
 62
250
  6
CONTINUOUS
 10
35.0468557064
 20
22.6913517406
 30
0.0
 11
35.0468557064
 21
23.4926131404
 31
0.0
  0
LINE
  5
55F
100
AcDbEntity
  8
0
100
AcDbLine
 62
7
  6
CONTINUOUS
 10
35.2910336458
 20
-23.8669422425
 30
0.0
 11
35.2910336458
 21
-23.4743741577
 31
0.0
  0
LINE
  5
560
100
AcDbEntity
  8
0
100
AcDbLine
 62
7
  6
CONTINUOUS
 10
35.2910336458
 20
24.2143009769
 30
0.0
 11
35.2910336458
 21
24.6068690616
 31
0.0
  0
LINE
  5
561
100
AcDbEntity
  8
0
100
AcDbLine
 62
7
  6
CONTINUOUS
 10
35.2968514756
 20
-22.8970238885
 30
0.0
 11
35.2968514756
 21
-21.9644506427
 31
0.0
  0
LINE
  5
562
100
AcDbEntity
  8
0
100
AcDbLine
 62
7
  6
CONTINUOUS
 10
35.2968514756
 20
22.7043774619
 30
0.0
 11
35.2968514756
 21
23.6369507077
 31
0.0
  0
LINE
  5
563
100
AcDbEntity
  8
0
100
AcDbLine
 62
7
  6
CONTINUOUS
 10
35.3041322245
 20
-22.8970238885
 30
0.0
 11
35.3041322245
 21
-23.4743741577
 31
0.0
  0
LINE
  5
564
100
AcDbEntity
  8
0
100
AcDbLine
 62
7
  6
CONTINUOUS
 10
35.3041322245
 20
23.6369507077
 30
0.0
 11
35.3041322245
 21
24.2143009769
 31
0.0
  0
LINE
  5
565
100
AcDbEntity
  8
0
100
AcDbLine
 62
250
  6
CONTINUOUS
 10
35.6651166742
 20
9.8699634096
 30
0.0
 11
35.6651166742
 21
-9.1300365904
 31
0.0
  0
LINE
  5
566
100
AcDbEntity
  8
0
100
AcDbLine
 62
250
  6
CONTINUOUS
 10
35.6823015587
 20
21.5806809007
 30
0.0
 11
35.6651166742
 21
9.8699634096
 31
0.0
  0
LINE
  5
567
100
AcDbEntity
  8
0
100
AcDbLine
 62
250
  6
CONTINUOUS
 10
35.0461284777
 20
-22.7526863212
 30
0.0
 11
35.0410378766
 21
-23.2578678068
 31
0.0
  0
LINE
  5
568
100
AcDbEntity
  8
0
100
AcDbLine
 62
250
  6
CONTINUOUS
 10
35.2968514756
 20
-22.8970238885
 30
0.0
 11
35.2910336458
 21
-23.4743741577
 31
0.0
  0
LINE
  5
569
100
AcDbEntity
  8
0
100
AcDbLine
 62
7
  6
CONTINUOUS
 10
36.3045685679
 20
18.8699634096
 30
0.0
 11
36.3041322245
 21
18.8611470605
 31
0.0
  0
LINE
  5
56A
100
AcDbEntity
  8
RACCORDO
100
AcDbLine
 62
250
  6
CONTINUOUS
 10
22.968339346
 20
-17.1797992191
 30
0.0
 11
22.8739862894
 21
-17.2746060071
 31
0.0
  0
LINE
  5
56B
100
AcDbEntity
  8
RACCORDO
100
AcDbLine
 62
250
  6
CONTINUOUS
 10
23.1804347119
 20
-16.9676951337
 30
0.0
 11
22.9683349863
 21
-17.1797948594
 31
0.0
  0
LINE
  5
56C
100
AcDbEntity
  8
RACCORDO
100
AcDbLine
 62
250
  6
CONTINUOUS
 10
15.465851248
 20
9.8700898601
 30
0.0
 11
14.6431477749
 21
9.8699634096
 31
0.0
  0
LINE
  5
56D
100
AcDbEntity
  8
0
100
AcDbLine
 62
250
  6
CONTINUOUS
 10
24.4541322245
 20
10.5699634096
 30
0.0
 11
25.6541322245
 21
10.5699634096
 31
0.0
  0
LINE
  5
56E
100
AcDbEntity
  8
0
100
AcDbLine
 62
250
  6
CONTINUOUS
 10
24.4541322245
 20
10.6099634096
 30
0.0
 11
23.5198018727
 21
10.6099634096
 31
0.0
  0
LINE
  5
56F
100
AcDbEntity
  8
0
100
AcDbLine
 62
7
  6
CONTINUOUS
 10
25.6541322245
 20
10.6699634096
 30
0.0
 11
24.4541322245
 21
10.6699634096
 31
0.0
  0
LINE
  5
570
100
AcDbEntity
  8
DRAFT
100
AcDbLine
 62
7
  6
CONTINUOUS
 10
25.6541322245
 20
10.6870581656
 30
0.0
 11
25.5712269805
 21
10.6870581656
 31
0.0
  0
LINE
  5
571
100
AcDbEntity
  8
ASSI
100
AcDbLine
 62
7
  6
CONTINUOUS
 10
25.6541322245
 20
10.6870581656
 30
0.0
 11
25.5712269805
 21
10.6870581656
 31
0.0
  0
LINE
  5
572
100
AcDbEntity
  8
0
100
AcDbLine
 62
7
  6
CONTINUOUS
 10
23.5198018727
 20
11.1599634096
 30
0.0
 11
24.4541322245
 21
11.1599634096
 31
0.0
  0
LINE
  5
573
100
AcDbEntity
  8
0
100
AcDbLine
 62
7
  6
CONTINUOUS
 10
23.5192893418
 20
11.1699634096
 30
0.0
 11
24.2541322245
 21
11.1699634096
 31
0.0
  0
LINE
  5
574
100
AcDbEntity
  8
0
100
AcDbLine
 62
7
  6
CONTINUOUS
 10
23.5198018727
 20
11.1799634096
 30
0.0
 11
24.4541322245
 21
11.1799634096
 31
0.0
  0
LINE
  5
575
100
AcDbEntity
  8
RACCORDO
100
AcDbLine
 62
250
  6
CONTINUOUS
 10
35.6651166742
 20
9.8699634096
 30
0.0
 11
34.8424078165
 21
9.8701099899
 31
0.0
  0
LINE
  5
576
100
AcDbEntity
  8
RACCORDO
100
AcDbLine
 62
250
  6
CONTINUOUS
 10
23.1804347119
 20
17.7076219529
 30
0.0
 11
22.9683349863
 21
17.9197216785
 31
0.0
  0
LINE
  5
577
100
AcDbEntity
  8
RACCORDO
100
AcDbLine
 62
250
  6
CONTINUOUS
 10
22.9683349863
 20
17.9197216785
 30
0.0
 11
22.8737851861
 21
18.0143322329
 31
0.0
  0
LINE
  5
578
100
AcDbEntity
  8
0
100
AcDbLine
 62
7
  6
CONTINUOUS
 10
36.3045685679
 20
22.2699803326
 30
0.0
 11
36.3045685679
 21
18.8699634096
 31
0.0
  0
LINE
  5
579
100
AcDbEntity
  8
0
100
AcDbLine
 62
7
  6
CONTINUOUS
 10
36.3045685679
 20
-21.5300535135
 30
0.0
 11
36.3045685679
 21
-18.1300365904
 31
0.0
  0
LINE
  5
57A
100
AcDbEntity
  8
0
100
AcDbLine
 62
7
  6
CONTINUOUS
 10
36.3381696011
 20
18.5173094481
 30
0.0
 11
36.3381696011
 21
-17.777382629
 31
0.0
  0
LINE
  5
57B
100
AcDbEntity
  8
0
100
AcDbLine
 62
7
  6
CONTINUOUS
 10
36.3381696011
 20
18.5173094481
 30
0.0
 11
36.3041322245
 21
18.8611470605
 31
0.0
  0
LINE
  5
57C
100
AcDbEntity
  8
0
100
AcDbLine
 62
7
  6
CONTINUOUS
 10
36.3381696011
 20
-17.777382629
 30
0.0
 11
36.3041322245
 21
-18.1212202414
 31
0.0
  0
LINE
  5
57D
100
AcDbEntity
  8
RACCORDO
100
AcDbLine
 62
250
  6
CONTINUOUS
 10
32.8293588846
 20
-11.2661659863
 30
0.0
 11
27.1278297372
 21
-16.9676951337
 31
0.0
  0
LINE
  5
57E
100
AcDbEntity
  8
0
100
AcDbLine
 62
7
  6
CONTINUOUS
 10
20.7128589692
 20
-23.6213098457
 30
0.0
 11
20.7041322245
 21
-23.6300365904
 31
0.0
  0
LINE
  5
57F
100
AcDbEntity
  8
RACCORDO
100
AcDbLine
 62
250
  6
CONTINUOUS
 10
33.0414586102
 20
-11.4782657119
 30
0.0
 11
27.3399294628
 21
-17.1797948594
 31
0.0
  0
LWPOLYLINE
  5
580
100
AcDbEntity
  8
0
100
AcDbPolyline
 62
7
  6
CONTINUOUS
 90
10
 70
0
 43
0.3500000087
 10
43.5881692719
 20
0.7985353668
 10
42.7310274048
 20
1.6556772339
 10
41.8738855377
 20
1.8699637665
 10
41.0167394073
 20
1.8699637665
 10
40.5881706055
 20
1.4413917671
 10
40.5881706055
 20
0.7985353668
 10
41.0167394073
 20
0.3699633675
 10
41.8738855377
 20
0.3699633675
 10
42.3024543396
 20
0.7985353668
 10
42.3024543396
 20
1.7271067886
  0
LINE
  5
581
100
AcDbEntity
  8
RACCORDO
100
AcDbLine
 62
250
  6
CONTINUOUS
 10
27.1278297372
 20
17.7076219529
 30
0.0
 11
32.8293588846
 21
12.0060928054
 31
0.0
  0
LINE
  5
582
100
AcDbEntity
  8
0
100
AcDbLine
 62
7
  6
CONTINUOUS
 10
20.7041322245
 20
24.3699634096
 30
0.0
 11
20.7128589692
 21
24.3612366648
 31
0.0
  0
LINE
  5
583
100
AcDbEntity
  8
RACCORDO
100
AcDbLine
 62
250
  6
CONTINUOUS
 10
27.3399251171
 20
17.9197260242
 30
0.0
 11
33.0414586102
 21
12.218192531
 31
0.0
  0
LWPOLYLINE
  5
584
100
AcDbEntity
  8
0
100
AcDbPolyline
 62
7
  6
CONTINUOUS
 90
10
 70
0
 43
0.3500000087
 10
26.2087610992
 20
34.1199654175
 10
26.2801885223
 20
33.977106308
 10
26.2801885223
 20
33.9056788849
 10
26.1373315445
 20
33.7628197754
 10
26.0659041214
 20
33.7628197754
 10
25.9944745667
 20
33.8342471985
 10
25.9944745667
 20
33.9056788849
 10
26.0659041214
 20
34.0485337311
 10
26.1373315445
 20
34.1199654175
 10
26.2087610992
 20
34.1199654175
  0
LWPOLYLINE
  5
585
100
AcDbEntity
  8
0
100
AcDbPolyline
 62
7
  6
CONTINUOUS
 90
3
 70
0
 43
0.3500000087
 10
42.9453139374
 20
-0.4871795654
 10
42.9453139374
 20
-1.9871794315
 10
40.5881706055
 20
-1.3443224983
  0
LINE
  5
586
100
AcDbEntity
  8
0
100
AcDbLine
 62
250
  6
CONTINUOUS
 10
14.6259628903
 20
21.5806809007
 30
0.0
 11
35.6823015587
 21
21.5806809007
 31
0.0
  0
LINE
  5
587
100
AcDbEntity
  8
0
100
AcDbLine
 62
250
  6
CONTINUOUS
 10
14.617789702
 20
22.4301913522
 30
0.0
 11
35.690474747
 21
22.4301913522
 31
0.0
  0
LINE
  5
588
100
AcDbEntity
  8
0
100
AcDbLine
 62
7
  6
CONTINUOUS
 10
15.2614087427
 20
22.6913517406
 30
0.0
 11
17.6468557064
 21
22.6913517406
 31
0.0
  0
LINE
  5
589
100
AcDbEntity
  8
0
100
AcDbLine
 62
7
  6
CONTINUOUS
 10
20.7128589692
 20
22.6913517406
 30
0.0
 11
21.6541322245
 21
22.6913517406
 31
0.0
  0
LINE
  5
58A
100
AcDbEntity
  8
0
100
AcDbLine
 62
7
  6
CONTINUOUS
 10
28.6541322245
 20
22.6913517406
 30
0.0
 11
29.5954054798
 21
22.6913517406
 31
0.0
  0
LINE
  5
58B
100
AcDbEntity
  8
0
100
AcDbLine
 62
7
  6
CONTINUOUS
 10
32.6614087427
 20
22.6913517406
 30
0.0
 11
35.0468557064
 21
22.6913517406
 31
0.0
  0
LINE
  5
58C
100
AcDbEntity
  8
0
100
AcDbLine
 62
7
  6
CONTINUOUS
 10
28.6541322245
 20
22.7437595199
 30
0.0
 11
26.3541322245
 21
22.7437595199
 31
0.0
  0
LINE
  5
58D
100
AcDbEntity
  8
0
100
AcDbLine
 62
7
  6
CONTINUOUS
 10
23.9541322245
 20
22.7437595199
 30
0.0
 11
21.6541322245
 21
22.7437595199
 31
0.0
  0
LINE
  5
58E
100
AcDbEntity
  8
0
100
AcDbLine
 62
7
  6
CONTINUOUS
 10
35.804574914
 20
22.7699634096
 30
0.0
 11
35.3041322245
 21
22.7699634096
 31
0.0
  0
LINE
  5
58F
100
AcDbEntity
  8
0
100
AcDbLine
 62
7
  6
CONTINUOUS
 10
32.4041322245
 20
22.7699634096
 30
0.0
 11
29.6041322245
 21
22.7699634096
 31
0.0
  0
LINE
  5
590
100
AcDbEntity
  8
0
100
AcDbLine
 62
7
  6
CONTINUOUS
 10
20.7041322245
 20
22.7699634096
 30
0.0
 11
17.9041322245
 21
22.7699634096
 31
0.0
  0
LINE
  5
591
100
AcDbEntity
  8
0
100
AcDbLine
 62
7
  6
CONTINUOUS
 10
15.0041322245
 20
22.7699634096
 30
0.0
 11
14.503689535
 21
22.7699634096
 31
0.0
  0
LINE
  5
592
100
AcDbEntity
  8
0
100
AcDbLine
 62
7
  6
CONTINUOUS
 10
24.1541322245
 20
22.7699634096
 30
0.0
 11
26.1541322245
 21
22.7699634096
 31
0.0
  0
LINE
  5
593
100
AcDbEntity
  8
0
100
AcDbLine
 62
7
  6
CONTINUOUS
 10
35.0468557064
 20
23.4926131404
 30
0.0
 11
32.6614087427
 21
23.4926131404
 31
0.0
  0
LINE
  5
594
100
AcDbEntity
  8
0
100
AcDbLine
 62
7
  6
CONTINUOUS
 10
15.2614087427
 20
23.4926131404
 30
0.0
 11
17.6468557064
 21
23.4926131404
 31
0.0
  0
LINE
  5
595
100
AcDbEntity
  8
0
100
AcDbLine
 62
250
  6
CONTINUOUS
 10
15.2672265725
 20
23.9977946259
 30
0.0
 11
17.6410378766
 21
23.9977946259
 31
0.0
  0
LINE
  5
596
100
AcDbEntity
  8
0
100
AcDbLine
 62
250
  6
CONTINUOUS
 10
32.6672265725
 20
23.9977946259
 30
0.0
 11
35.0410378766
 21
23.9977946259
 31
0.0
  0
LINE
  5
597
100
AcDbEntity
  8
0
100
AcDbLine
 62
250
  6
CONTINUOUS
 10
28.6541322245
 20
24.1682146759
 30
0.0
 11
26.1541322245
 21
24.1682146759
 31
0.0
  0
LINE
  5
598
100
AcDbEntity
  8
0
100
AcDbLine
 62
250
  6
CONTINUOUS
 10
21.6541322245
 20
24.1682146759
 30
0.0
 11
24.1541322245
 21
24.1682146759
 31
0.0
  0
LINE
  5
599
100
AcDbEntity
  8
0
100
AcDbLine
 62
250
  6
CONTINUOUS
 10
15.0172308032
 20
24.2143009769
 30
0.0
 11
17.8910336458
 21
24.2143009769
 31
0.0
  0
LINE
  5
59A
100
AcDbEntity
  8
0
100
AcDbLine
 62
250
  6
CONTINUOUS
 10
32.4172308032
 20
24.2143009769
 30
0.0
 11
35.2910336458
 21
24.2143009769
 31
0.0
  0
LINE
  5
59B
100
AcDbEntity
  8
0
100
AcDbLine
 62
7
  6
CONTINUOUS
 10
20.7128589692
 20
24.3612366648
 30
0.0
 11
21.6541322245
 21
24.3612366648
 31
0.0
  0
LINE
  5
59C
100
AcDbEntity
  8
0
100
AcDbLine
 62
7
  6
CONTINUOUS
 10
28.6541322245
 20
24.3612366648
 30
0.0
 11
29.5954054798
 21
24.3612366648
 31
0.0
  0
LINE
  5
59D
100
AcDbEntity
  8
0
100
AcDbLine
 62
7
  6
CONTINUOUS
 10
28.6541322245
 20
24.3682112913
 30
0.0
 11
26.3541322245
 21
24.3682112913
 31
0.0
  0
LINE
  5
59E
100
AcDbEntity
  8
0
100
AcDbLine
 62
7
  6
CONTINUOUS
 10
23.9541322245
 20
24.3682112913
 30
0.0
 11
21.6541322245
 21
24.3682112913
 31
0.0
  0
LINE
  5
59F
100
AcDbEntity
  8
0
100
AcDbLine
 62
250
  6
CONTINUOUS
 10
15.0172308032
 20
24.6068690616
 30
0.0
 11
17.8910336458
 21
24.6068690616
 31
0.0
  0
LINE
  5
5A0
100
AcDbEntity
  8
0
100
AcDbLine
 62
250
  6
CONTINUOUS
 10
32.4172308032
 20
24.6068690616
 30
0.0
 11
35.2910336458
 21
24.6068690616
 31
0.0
  0
LINE
  5
5A1
100
AcDbEntity
  8
0
100
AcDbLine
 62
7
  6
CONTINUOUS
 10
35.0410378766
 20
24.8568648308
 30
0.0
 11
32.6672265725
 21
24.8568648308
 31
0.0
  0
LINE
  5
5A2
100
AcDbEntity
  8
0
100
AcDbLine
 62
7
  6
CONTINUOUS
 10
17.6410378766
 20
24.8568648308
 30
0.0
 11
15.2672265725
 21
24.8568648308
 31
0.0
  0
LWPOLYLINE
  5
5A3
100
AcDbEntity
  8
0
100
AcDbPolyline
 62
7
  6
CONTINUOUS
 90
7
 70
0
 43
0.3500000087
 10
24.7087596344
 20
33.6199649292
 10
23.2087603012
 20
33.6199649292
 10
24.7087596344
 20
35.7628217285
 10
24.7087596344
 20
36.1913905304
 10
24.2801887009
 20
36.6199635956
 10
23.6373312347
 20
36.6199635956
 10
23.2087603012
 20
35.9771082611
  0
LWPOLYLINE
  5
5A4
100
AcDbEntity
  8
0
100
AcDbPolyline
 62
7
  6
CONTINUOUS
 90
7
 70
0
 43
0.3500000087
 10
22.3516184341
 20
33.6199649292
 10
20.8516169693
 20
33.6199649292
 10
22.3516184341
 20
35.7628217285
 10
22.3516184341
 20
36.1913905304
 10
21.923045369
 20
36.6199635956
 10
21.2801879028
 20
36.6199635956
 10
20.8516169693
 20
35.9771082611
  0
LWPOLYLINE
  5
5A5
100
AcDbEntity
  8
0
100
AcDbPolyline
 62
7
  6
CONTINUOUS
 90
6
 70
0
 43
0.3500000087
 10
27.2801894989
 20
33.6199649292
 10
28.3516178986
 20
33.6199649292
 10
28.5659022995
 20
33.8342471985
 10
28.5659022995
 20
34.9056755981
 10
28.137331366
 20
35.3342486633
 10
27.7087604324
 20
35.3342486633
  0
ARC
  5
5A6
100
AcDbEntity
  8
0
100
AcDbCircle
 62
7
  6
CONTINUOUS
 10
-31.1306237012
 20
-23.8669422425
 30
0.0
 40
0.25
100
AcDbArc
 50
180.0
 51
269.6666666667
  0
ARC
  5
5A7
100
AcDbEntity
  8
0
100
AcDbCircle
 62
7
  6
CONTINUOUS
 10
-28.1306237012
 20
-23.8756689872
 30
0.0
 40
0.25
100
AcDbArc
 50
270.3333333333
 51
360.0
  0
ARC
  5
5A8
100
AcDbEntity
  8
0
100
AcDbCircle
 62
7
  6
CONTINUOUS
 10
-28.1306237012
 20
-23.4743741577
 30
0.0
 40
0.25
100
AcDbArc
 50
0.0
 51
60.0
  0
ARC
  5
5A9
100
AcDbEntity
  8
0
100
AcDbCircle
 62
7
  6
CONTINUOUS
 10
-31.1306237012
 20
-23.4743741577
 30
0.0
 40
0.25
100
AcDbArc
 50
120.0
 51
180.0
  0
ARC
  5
5AA
100
AcDbEntity
  8
0
100
AcDbCircle
 62
7
  6
CONTINUOUS
 10
-35.3115248141
 20
-20.6916349983
 30
0.0
 40
1.0
100
AcDbArc
 50
188.5758796048
 51
267.0
  0
ARC
  5
5AB
100
AcDbEntity
  8
0
100
AcDbCircle
 62
250
  6
CONTINUOUS
 10
-35.3202510112
 20
-20.6916349916
 30
0.0
 40
0.500000007
100
AcDbArc
 50
188.5758802639
 51
266.9999993409
  0
ARC
  5
5AC
100
AcDbEntity
  8
0
100
AcDbCircle
 62
7
  6
CONTINUOUS
 10
-21.3806237012
 20
-23.0863944051
 30
0.0
 40
0.5
100
AcDbArc
 50
270.3333333333
 51
360.0
  0
ARC
  5
5AD
100
AcDbEntity
  8
DRAFT
100
AcDbCircle
 62
7
  6
CONTINUOUS
 10
-17.8806237012
 20
-20.9660235391
 30
0.0
 40
1.0
100
AcDbArc
 50
270.3333333333
 51
360.0
  0
ARC
  5
5AE
100
AcDbEntity
  8
0
100
AcDbCircle
 62
7
  6
CONTINUOUS
 10
-7.7654534212
 20
-15.1639633285
 30
0.0
 40
44.7858999138
100
AcDbArc
 50
119.9611189427
 51
120.3288190334
  0
ARC
  5
5AF
100
AcDbEntity
  8
RACCORDO
100
AcDbCircle
 62
7
  6
CONTINUOUS
 10
2.6193762988
 20
-14.5395104963
 30
0.0
 40
1.0
100
AcDbArc
 50
271.0
 51
360.0
  0
ARC
  5
5B0
100
AcDbEntity
  8
ASSI
100
AcDbCircle
 62
7
  6
CONTINUOUS
 10
2.6193762988
 20
-14.5395104963
 30
0.0
 40
1.0
100
AcDbArc
 50
271.0
 51
360.0
  0
ARC
  5
5B1
100
AcDbEntity
  8
RACCORDO
100
AcDbCircle
 62
7
  6
CONTINUOUS
 10
3.9193762988
 20
-2.4049359426
 30
0.0
 40
0.3
100
AcDbArc
 50
94.9999999245
 51
179.9999991202
  0
ARC
  5
5B2
100
AcDbEntity
  8
RACCORDO
100
AcDbCircle
 62
7
  6
CONTINUOUS
 10
3.9193762988
 20
-5.2551372382
 30
0.0
 40
0.3
100
AcDbArc
 50
180.0000005141
 51
265.0000000441
  0
ARC
  5
5B3
100
AcDbEntity
  8
RACCORDO
100
AcDbCircle
 62
7
  6
CONTINUOUS
 10
3.9193762988
 20
-12.0049359426
 30
0.0
 40
0.3
100
AcDbArc
 50
94.9999999542
 51
179.9999994669
  0
ARC
  5
5B4
100
AcDbEntity
  8
RACCORDO
100
AcDbCircle
 62
7
  6
CONTINUOUS
 10
4.3193762988
 20
-1.7676485747
 30
0.0
 40
0.3
100
AcDbArc
 50
275.0
 51
360.0
  0
ARC
  5
5B5
100
AcDbEntity
  8
RACCORDO
100
AcDbCircle
 62
7
  6
CONTINUOUS
 10
4.3193762988
 20
-5.8924246062
 30
0.0
 40
0.3
100
AcDbArc
 50
0.0
 51
85.0
  0
ARC
  5
5B6
100
AcDbEntity
  8
RACCORDO
100
AcDbCircle
 62
7
  6
CONTINUOUS
 10
4.3193762988
 20
-11.3676485747
 30
0.0
 40
0.3
100
AcDbArc
 50
275.0
 51
360.0
  0
ARC
  5
5B7
100
AcDbEntity
  8
ASSI
100
AcDbCircle
 62
7
  6
CONTINUOUS
 10
3.9193762988
 20
-2.4049359426
 30
0.0
 40
0.3
100
AcDbArc
 50
94.9999999245
 51
179.9999991202
  0
ARC
  5
5B8
100
AcDbEntity
  8
ASSI
100
AcDbCircle
 62
7
  6
CONTINUOUS
 10
3.9193762988
 20
-5.2551372382
 30
0.0
 40
0.3
100
AcDbArc
 50
180.0000005141
 51
265.0000000441
  0
ARC
  5
5B9
100
AcDbEntity
  8
ASSI
100
AcDbCircle
 62
7
  6
CONTINUOUS
 10
3.9193762988
 20
-12.0049359426
 30
0.0
 40
0.3
100
AcDbArc
 50
94.9999999542
 51
179.9999994669
  0
ARC
  5
5BA
100
AcDbEntity
  8
ASSI
100
AcDbCircle
 62
7
  6
CONTINUOUS
 10
4.3193762988
 20
-1.7676485747
 30
0.0
 40
0.3
100
AcDbArc
 50
275.0
 51
360.0
  0
ARC
  5
5BB
100
AcDbEntity
  8
ASSI
100
AcDbCircle
 62
7
  6
CONTINUOUS
 10
4.3193762988
 20
-5.8924246062
 30
0.0
 40
0.3
100
AcDbArc
 50
0.0
 51
85.0
  0
ARC
  5
5BC
100
AcDbEntity
  8
ASSI
100
AcDbCircle
 62
7
  6
CONTINUOUS
 10
4.3193762988
 20
-11.3676485747
 30
0.0
 40
0.3
100
AcDbArc
 50
275.0
 51
360.0
  0
ARC
  5
5BD
100
AcDbEntity
  8
0
100
AcDbCircle
 62
7
  6
CONTINUOUS
 10
52.6933879789
 20
-7.4200365904
 30
0.0
 40
90.0
100
AcDbArc
 50
181.08868532
 51
188.5758796048
  0
ARC
  5
5BE
100
AcDbEntity
  8
RACCORDO
100
AcDbCircle
 62
7
  6
CONTINUOUS
 10
52.6933879789
 20
-7.4200365904
 30
0.0
 40
90.0
100
AcDbArc
 50
181.088804169
 51
187.178720542
  0
ARC
  5
5BF
100
AcDbEntity
  8
0
100
AcDbCircle
 62
250
  6
CONTINUOUS
 10
52.6846291823
 20
-7.4200393459
 30
0.0
 40
89.4999673602
100
AcDbArc
 50
181.0886839528
 51
188.575880972
  0
ARC
  5
5C0
100
AcDbEntity
  8
RACCORDO
100
AcDbCircle
 62
7
  6
CONTINUOUS
 10
3.9193762988
 20
4.3448627618
 30
0.0
 40
0.3
100
AcDbArc
 50
180.0000008434
 51
265.0000000724
  0
ARC
  5
5C1
100
AcDbEntity
  8
RACCORDO
100
AcDbCircle
 62
7
  6
CONTINUOUS
 10
3.9193762988
 20
12.7448627618
 30
0.0
 40
0.3
100
AcDbArc
 50
180.0000008434
 51
265.0000000724
  0
ARC
  5
5C2
100
AcDbEntity
  8
RACCORDO
100
AcDbCircle
 62
7
  6
CONTINUOUS
 10
3.9193762988
 20
5.9950640574
 30
0.0
 40
0.3
100
AcDbArc
 50
94.9999999245
 51
179.9999991202
  0
ARC
  5
5C3
100
AcDbEntity
  8
RACCORDO
100
AcDbCircle
 62
7
  6
CONTINUOUS
 10
4.3193762988
 20
12.1075753938
 30
0.0
 40
0.3
100
AcDbArc
 50
0.0
 51
85.0
  0
ARC
  5
5C4
100
AcDbEntity
  8
RACCORDO
100
AcDbCircle
 62
7
  6
CONTINUOUS
 10
4.3193762988
 20
6.6323514253
 30
0.0
 40
0.3
100
AcDbArc
 50
275.0
 51
360.0
  0
ARC
  5
5C5
100
AcDbEntity
  8
RACCORDO
100
AcDbCircle
 62
7
  6
CONTINUOUS
 10
4.3193762988
 20
3.7075753938
 30
0.0
 40
0.3
100
AcDbArc
 50
0.0
 51
85.0
  0
ARC
  5
5C6
100
AcDbEntity
  8
ASSI
100
AcDbCircle
 62
7
  6
CONTINUOUS
 10
3.9193762988
 20
4.3448627618
 30
0.0
 40
0.3
100
AcDbArc
 50
180.0000008434
 51
265.0000000724
  0
ARC
  5
5C7
100
AcDbEntity
  8
ASSI
100
AcDbCircle
 62
7
  6
CONTINUOUS
 10
3.9193762988
 20
12.7448627618
 30
0.0
 40
0.3
100
AcDbArc
 50
180.0000008434
 51
265.0000000724
  0
ARC
  5
5C8
100
AcDbEntity
  8
ASSI
100
AcDbCircle
 62
7
  6
CONTINUOUS
 10
3.9193762988
 20
5.9950640574
 30
0.0
 40
0.3
100
AcDbArc
 50
94.9999999245
 51
179.9999991202
  0
ARC
  5
5C9
100
AcDbEntity
  8
ASSI
100
AcDbCircle
 62
7
  6
CONTINUOUS
 10
4.3193762988
 20
12.1075753938
 30
0.0
 40
0.3
100
AcDbArc
 50
0.0
 51
85.0
  0
ARC
  5
5CA
100
AcDbEntity
  8
ASSI
100
AcDbCircle
 62
7
  6
CONTINUOUS
 10
4.3193762988
 20
6.6323514253
 30
0.0
 40
0.3
100
AcDbArc
 50
275.0
 51
360.0
  0
ARC
  5
5CB
100
AcDbEntity
  8
ASSI
100
AcDbCircle
 62
7
  6
CONTINUOUS
 10
4.3193762988
 20
3.7075753938
 30
0.0
 40
0.3
100
AcDbArc
 50
0.0
 51
85.0
  0
ARC
  5
5CC
100
AcDbEntity
  8
0
100
AcDbCircle
 62
7
  6
CONTINUOUS
 10
-35.3115248141
 20
21.4315618175
 30
0.0
 40
1.0
100
AcDbArc
 50
93.0
 51
171.4241203952
  0
ARC
  5
5CD
100
AcDbEntity
  8
0
100
AcDbCircle
 62
250
  6
CONTINUOUS
 10
-35.3202510146
 20
21.4315618151
 30
0.0
 40
0.500000003
100
AcDbArc
 50
93.0025141175
 51
171.4241201727
  0
ARC
  5
5CE
100
AcDbEntity
  8
0
100
AcDbCircle
 62
7
  6
CONTINUOUS
 10
-31.1306237012
 20
24.2143009769
 30
0.0
 40
0.25
100
AcDbArc
 50
180.0
 51
240.0
  0
ARC
  5
5CF
100
AcDbEntity
  8
0
100
AcDbCircle
 62
7
  6
CONTINUOUS
 10
-31.1306237012
 20
24.6068690616
 30
0.0
 40
0.25
100
AcDbArc
 50
90.3333333333
 51
180.0
  0
ARC
  5
5D0
100
AcDbEntity
  8
0
100
AcDbCircle
 62
7
  6
CONTINUOUS
 10
-28.1306237012
 20
24.2143009769
 30
0.0
 40
0.25
100
AcDbArc
 50
300.0
 51
360.0
  0
ARC
  5
5D1
100
AcDbEntity
  8
0
100
AcDbCircle
 62
7
  6
CONTINUOUS
 10
-28.1306237012
 20
24.6155958063
 30
0.0
 40
0.25
100
AcDbArc
 50
0.0
 51
89.6666666667
  0
ARC
  5
5D2
100
AcDbEntity
  8
DRAFT
100
AcDbCircle
 62
7
  6
CONTINUOUS
 10
-17.8806237012
 20
21.7059503582
 30
0.0
 40
1.0
100
AcDbArc
 50
0.0
 51
89.6666666667
  0
ARC
  5
5D3
100
AcDbEntity
  8
0
100
AcDbCircle
 62
7
  6
CONTINUOUS
 10
-21.3806237012
 20
23.8263212243
 30
0.0
 40
0.5
100
AcDbArc
 50
0.0
 51
89.6666666667
  0
ARC
  5
5D4
100
AcDbEntity
  8
0
100
AcDbCircle
 62
7
  6
CONTINUOUS
 10
-7.7654534202
 20
15.9038901493
 30
0.0
 40
44.7858999157
100
AcDbArc
 50
239.6711809666
 51
240.0388810573
  0
ARC
  5
5D5
100
AcDbEntity
  8
RACCORDO
100
AcDbCircle
 62
7
  6
CONTINUOUS
 10
2.6193762988
 20
15.2794373154
 30
0.0
 40
1.0
100
AcDbArc
 50
0.0
 51
89.0
  0
ARC
  5
5D6
100
AcDbEntity
  8
ASSI
100
AcDbCircle
 62
7
  6
CONTINUOUS
 10
2.6193762988
 20
15.2794373154
 30
0.0
 40
1.0
100
AcDbArc
 50
0.0
 51
89.0
  0
ARC
  5
5D7
100
AcDbEntity
  8
0
100
AcDbCircle
 62
7
  6
CONTINUOUS
 10
52.6933879789
 20
8.1599634096
 30
0.0
 40
90.0
100
AcDbArc
 50
171.4241203952
 51
178.91131468
  0
ARC
  5
5D8
100
AcDbEntity
  8
RACCORDO
100
AcDbCircle
 62
7
  6
CONTINUOUS
 10
52.6933879789
 20
8.1599634096
 30
0.0
 40
90.0
100
AcDbArc
 50
172.821279458
 51
178.9112213472
  0
ARC
  5
5D9
100
AcDbEntity
  8
0
100
AcDbCircle
 62
250
  6
CONTINUOUS
 10
52.6846291828
 20
8.159966165
 30
0.0
 40
89.4999673607
100
AcDbArc
 50
171.424119028
 51
178.9113160472
  0
ARC
  5
5DA
100
AcDbEntity
  8
0
100
AcDbCircle
 62
7
  6
CONTINUOUS
 10
462.6193762988
 20
0.3699634096
 30
0.0
 40
500.0
100
AcDbArc
 50
178.91131468
 51
181.08868532
  0
ARC
  5
5DB
100
AcDbEntity
  8
0
100
AcDbCircle
 62
250
  6
CONTINUOUS
 10
462.6559440076
 20
0.3699634096
 30
0.0
 40
499.5452857366
100
AcDbArc
 50
178.9114133854
 51
181.0885866146
  0
ARC
  5
5DC
100
AcDbEntity
  8
0
100
AcDbCircle
 62
250
  6
CONTINUOUS
 10
-5038.044609497
 20
-7.4881305457
 30
0.0
 40
5052.1880971466
100
AcDbArc
 50
359.8494161563
 51
359.9814872335
  0
ARC
  5
5DD
100
AcDbEntity
  8
0
100
AcDbCircle
 62
7
  6
CONTINUOUS
 10
21.1541322245
 20
-22.7800365904
 30
0.0
 40
0.5
100
AcDbArc
 50
154.1580672368
 51
205.8419327632
  0
ARC
  5
5DE
100
AcDbEntity
  8
0
100
AcDbCircle
 62
7
  6
CONTINUOUS
 10
15.2682976275
 20
-23.8667931287
 30
0.0
 40
0.2510668685
100
AcDbArc
 50
180.034029157
 51
194.9710875867
  0
ARC
  5
5DF
100
AcDbEntity
  8
0
100
AcDbCircle
 62
7
  6
CONTINUOUS
 10
17.6408887628
 20
-23.8658711875
 30
0.0
 40
0.2510668685
100
AcDbArc
 50
270.034029157
 51
284.9710875867
  0
ARC
  5
5E0
100
AcDbEntity
  8
0
100
AcDbCircle
 62
7
  6
CONTINUOUS
 10
15.2672376993
 20
-23.8669305557
 30
0.0
 40
0.2500074563
100
AcDbArc
 50
195.0034130597
 51
269.9974499901
  0
ARC
  5
5E1
100
AcDbEntity
  8
0
100
AcDbCircle
 62
7
  6
CONTINUOUS
 10
17.6410261898
 20
-23.8669311157
 30
0.0
 40
0.2500074563
100
AcDbArc
 50
285.0034130597
 51
359.9974499901
  0
ARC
  5
5E2
100
AcDbEntity
  8
0
100
AcDbCircle
 62
7
  6
CONTINUOUS
 10
15.2541268759
 20
-23.8800419391
 30
0.0
 40
0.2499946513
100
AcDbArc
 50
179.9997437926
 51
270.0002562074
  0
ARC
  5
5E3
100
AcDbEntity
  8
0
100
AcDbCircle
 62
7
  6
CONTINUOUS
 10
17.6541375732
 20
-23.8800419391
 30
0.0
 40
0.2499946513
100
AcDbArc
 50
269.9997437926
 51
0.0002562074
  0
ARC
  5
5E4
100
AcDbEntity
  8
0
100
AcDbCircle
 62
7
  6
CONTINUOUS
 10
23.9541305322
 20
-23.4300348981
 30
0.0
 40
0.2000016924
100
AcDbArc
 50
270.0004848234
 51
0.0004848094
  0
ARC
  5
5E5
100
AcDbEntity
  8
0
100
AcDbCircle
 62
7
  6
CONTINUOUS
 10
23.954133409
 20
-23.4282856566
 30
0.0
 40
0.1999988155
100
AcDbArc
 50
269.9996606734
 51
359.9993696938
  0
ARC
  5
5E6
100
AcDbEntity
  8
RACCORDO
100
AcDbCircle
 62
250
  6
CONTINUOUS
 10
20.3310628812
 20
-8.3630216758
 30
0.0
 40
4.9253147837
100
AcDbArc
 50
188.9612831499
 51
224.8971709492
  0
ARC
  5
5E7
100
AcDbEntity
  8
RACCORDO
100
AcDbCircle
 62
250
  6
CONTINUOUS
 10
20.3181753312
 20
-8.3612608086
 30
0.0
 40
4.9128876876
100
AcDbArc
 50
180.0238256204
 51
189.0049294263
  0
ARC
  5
5E8
100
AcDbEntity
  8
RACCORDO
100
AcDbCircle
 62
250
  6
CONTINUOUS
 10
20.3090125044
 20
-8.354377586
 30
0.0
 40
4.5037857797
100
AcDbArc
 50
180.0252485925
 51
189.0124390055
  0
ARC
  5
5E9
100
AcDbEntity
  8
RACCORDO
100
AcDbCircle
 62
250
  6
CONTINUOUS
 10
20.4474580916
 20
-8.2971192712
 30
0.0
 40
4.4984710103
100
AcDbArc
 50
179.9955492337
 51
225.0044507664
  0
ARC
  5
5EA
100
AcDbEntity
  8
RACCORDO
100
AcDbCircle
 62
250
  6
CONTINUOUS
 10
20.3018329891
 20
-8.3547936534
 30
0.0
 40
4.4966297802
100
AcDbArc
 50
189.0215333382
 51
225.047887539
  0
ARC
  5
5EB
100
AcDbEntity
  8
RACCORDO
100
AcDbCircle
 62
250
  6
CONTINUOUS
 10
20.4465780869
 20
-8.2974837811
 30
0.0
 40
4.1976367441
100
AcDbArc
 50
179.9902548682
 51
225.0097451318
  0
ARC
  5
5EC
100
AcDbEntity
  8
0
100
AcDbCircle
 62
7
  6
CONTINUOUS
 10
22.2300939211
 20
-8.3300365904
 30
0.0
 40
1.0
100
AcDbArc
 50
316.5523631417
 51
324.3146652873
  0
ARC
  5
5ED
100
AcDbEntity
  8
0
100
AcDbCircle
 62
250
  6
CONTINUOUS
 10
22.2240603826
 20
-8.3927421918
 30
0.0
 40
0.9187733166
100
AcDbArc
 50
323.3412788015
 51
323.810940534
  0
ARC
  5
5EE
100
AcDbEntity
  8
0
100
AcDbCircle
 62
7
  6
CONTINUOUS
 10
22.1884546025
 20
-0.6519461781
 30
0.0
 40
2.625181464
100
AcDbArc
 50
40.6150543162
 51
41.2940133374
  0
ARC
  5
5EF
100
AcDbEntity
  8
0
100
AcDbCircle
 62
7
  6
CONTINUOUS
 10
22.2003106559
 20
-0.6560749518
 30
0.0
 40
2.6224964751
100
AcDbArc
 50
77.4152291043
 51
78.9966302039
  0
ARC
  5
5F0
100
AcDbEntity
  8
0
100
AcDbCircle
 62
7
  6
CONTINUOUS
 10
22.2120439905
 20
-0.6442991257
 30
0.0
 40
2.6142585175
100
AcDbArc
 50
142.6764718103
 51
143.4236457823
  0
ARC
  5
5F1
100
AcDbEntity
  8
0
100
AcDbCircle
 62
7
  6
CONTINUOUS
 10
22.2104979204
 20
-0.6427243615
 30
0.0
 40
2.612080719
100
AcDbArc
 50
145.0165825578
 51
148.2521942159
  0
ARC
  5
5F2
100
AcDbEntity
  8
0
100
AcDbCircle
 62
7
  6
CONTINUOUS
 10
22.2019258853
 20
-0.6401564922
 30
0.0
 40
2.6072833696
100
AcDbArc
 50
37.0266271457
 51
37.4296859958
  0
ARC
  5
5F3
100
AcDbEntity
  8
0
100
AcDbCircle
 62
7
  6
CONTINUOUS
 10
22.202381439
 20
-0.6398061921
 30
0.0
 40
2.6067087066
100
AcDbArc
 50
37.4296575656
 51
38.7958720768
  0
ARC
  5
5F4
100
AcDbEntity
  8
0
100
AcDbCircle
 62
7
  6
CONTINUOUS
 10
22.2041812391
 20
-0.6384692498
 30
0.0
 40
2.6044702439
100
AcDbArc
 50
36.9781312381
 51
80.4021276682
  0
ARC
  5
5F5
100
AcDbEntity
  8
0
100
AcDbCircle
 62
7
  6
CONTINUOUS
 10
22.2041812391
 20
-0.6384692498
 30
0.0
 40
2.6044702439
100
AcDbArc
 50
89.3622107937
 51
90.5168281416
  0
ARC
  5
5F6
100
AcDbEntity
  8
0
100
AcDbCircle
 62
7
  6
CONTINUOUS
 10
22.2041812391
 20
-0.6384692498
 30
0.0
 40
2.6044702439
100
AcDbArc
 50
103.0564256728
 51
148.2586775336
  0
ARC
  5
5F7
100
AcDbEntity
  8
0
100
AcDbCircle
 62
7
  6
CONTINUOUS
 10
22.2045497728
 20
-0.6378515263
 30
0.0
 40
2.603787243
100
AcDbArc
 50
41.2947130341
 51
77.4188968854
  0
ARC
  5
5F8
100
AcDbEntity
  8
0
100
AcDbCircle
 62
7
  6
CONTINUOUS
 10
22.2054811178
 20
-0.6373108756
 30
0.0
 40
2.6027294345
100
AcDbArc
 50
38.7958123964
 51
40.6144852853
  0
ARC
  5
5F9
100
AcDbEntity
  8
0
100
AcDbCircle
 62
7
  6
CONTINUOUS
 10
22.1977296816
 20
-0.633619484
 30
0.0
 40
2.5963992902
100
AcDbArc
 50
143.4246747054
 51
145.0196555896
  0
ARC
  5
5FA
100
AcDbEntity
  8
0
100
AcDbCircle
 62
7
  6
CONTINUOUS
 10
22.1989760061
 20
-0.6261326896
 30
0.0
 40
2.5912338631
100
AcDbArc
 50
104.8073155652
 51
105.5508091004
  0
ARC
  5
5FB
100
AcDbEntity
  8
ASSI
100
AcDbCircle
 62
7
  6
CONTINUOUS
 10
19.9041322245
 20
-0.3172047374
 30
0.0
 40
1.0
100
AcDbArc
 50
0.4107080832
 51
85.9095881594
  0
ARC
  5
5FC
100
AcDbEntity
  8
0
100
AcDbCircle
 62
7
  6
CONTINUOUS
 10
19.3865207302
 20
-0.3646308847
 30
0.0
 40
0.7087387299
100
AcDbArc
 50
31.7410352276
 51
32.9591718315
  0
ARC
  5
5FD
100
AcDbEntity
  8
0
100
AcDbCircle
 62
7
  6
CONTINUOUS
 10
19.3939542942
 20
-0.3600365904
 30
0.0
 40
0.7
100
AcDbArc
 50
31.7413224664
 51
32.980245924
  0
ARC
  5
5FE
100
AcDbEntity
  8
0
100
AcDbCircle
 62
250
  6
CONTINUOUS
 10
19.8266678765
 20
-0.4276216233
 30
0.0
 40
0.4651834475
100
AcDbArc
 50
69.5423253694
 51
70.430092594
  0
ARC
  5
5FF
100
AcDbEntity
  8
0
100
AcDbCircle
 62
250
  6
CONTINUOUS
 10
19.9887478137
 20
-0.47707429
 30
0.0
 40
0.3280423877
100
AcDbArc
 50
84.6630657294
 51
85.3695420756
  0
ARC
  5
600
100
AcDbEntity
  8
0
100
AcDbCircle
 62
7
  6
CONTINUOUS
 10
23.6452697065
 20
-8.8620756196
 30
0.0
 40
8.045192311
100
AcDbArc
 50
92.5963836991
 51
93.0315626884
  0
ARC
  5
601
100
AcDbEntity
  8
0
100
AcDbCircle
 62
7
  6
CONTINUOUS
 10
25.1534611814
 20
-9.6825605644
 30
0.0
 40
2.7025240573
100
AcDbArc
 50
68.3071575938
 51
89.9857733228
  0
ARC
  5
602
100
AcDbEntity
  8
0
100
AcDbCircle
 62
7
  6
CONTINUOUS
 10
25.1521583952
 20
-8.4284605784
 30
0.0
 40
2.6025245
100
AcDbArc
 50
318.1417199585
 51
318.7270359376
  0
ARC
  5
603
100
AcDbEntity
  8
0
100
AcDbCircle
 62
7
  6
CONTINUOUS
 10
25.1537408956
 20
-10.4296408563
 30
0.0
 40
2.5994439361
100
AcDbArc
 50
96.6490187146
 51
142.1644630731
  0
ARC
  5
604
100
AcDbEntity
  8
0
100
AcDbCircle
 62
7
  6
CONTINUOUS
 10
25.1445868549
 20
-10.422929224
 30
0.0
 40
2.5880992663
100
AcDbArc
 50
142.5229496767
 51
144.3191970663
  0
ARC
  5
605
100
AcDbEntity
  8
0
100
AcDbCircle
 62
7
  6
CONTINUOUS
 10
24.9696986963
 20
-8.555728664
 30
0.0
 40
2.4263008894
100
AcDbArc
 50
226.3592512835
 51
227.2582841018
  0
ARC
  5
606
100
AcDbEntity
  8
0
100
AcDbCircle
 62
250
  6
CONTINUOUS
 10
24.9162025021
 20
-9.947100385
 30
0.0
 40
2.402883782
100
AcDbArc
 50
139.5941207745
 51
139.9493984399
  0
ARC
  5
607
100
AcDbEntity
  8
0
100
AcDbCircle
 62
250
  6
CONTINUOUS
 10
22.9136930794
 20
-8.7531147947
 30
0.0
 40
0.1893651656
100
AcDbArc
 50
284.5402031626
 51
285.9019423842
  0
ARC
  5
608
100
AcDbEntity
  8
0
100
AcDbCircle
 62
250
  6
CONTINUOUS
 10
22.9773306457
 20
-8.6936053724
 30
0.0
 40
0.1698619465
100
AcDbArc
 50
267.1909510845
 51
269.7501862519
  0
ARC
  5
609
100
AcDbEntity
  8
0
100
AcDbCircle
 62
250
  6
CONTINUOUS
 10
22.3470527098
 20
-0.2750083298
 30
0.0
 40
2.4308059944
100
AcDbArc
 50
44.1602214092
 51
44.6571840052
  0
ARC
  5
60A
100
AcDbEntity
  8
0
100
AcDbCircle
 62
7
  6
CONTINUOUS
 10
23.5141322245
 20
-1.8200365904
 30
0.0
 40
1.0
100
AcDbArc
 50
92.9994964232
 51
103.7373210113
  0
ARC
  5
60B
100
AcDbEntity
  8
0
100
AcDbCircle
 62
7
  6
CONTINUOUS
 10
23.5141322245
 20
-1.8200365904
 30
0.0
 40
0.97
100
AcDbArc
 50
95.3223160482
 51
103.7373210113
  0
ARC
  5
60C
100
AcDbEntity
  8
0
100
AcDbCircle
 62
7
  6
CONTINUOUS
 10
23.5141322245
 20
-1.8200365904
 30
0.0
 40
0.95
100
AcDbArc
 50
90.0
 51
103.7373210113
  0
ARC
  5
60D
100
AcDbEntity
  8
0
100
AcDbCircle
 62
250
  6
CONTINUOUS
 10
24.4258937031
 20
-0.8284801635
 30
0.0
 40
0.5669389225
100
AcDbArc
 50
108.5662349046
 51
115.5660337415
  0
ARC
  5
60E
100
AcDbEntity
  8
0
100
AcDbCircle
 62
250
  6
CONTINUOUS
 10
24.4232449177
 20
-0.8209032157
 30
0.0
 40
0.5589129413
100
AcDbArc
 50
107.6093655854
 51
108.5561448801
  0
ARC
  5
60F
100
AcDbEntity
  8
0
100
AcDbCircle
 62
250
  6
CONTINUOUS
 10
-5066.0524788329
 20
8.1867276261
 30
0.0
 40
5080.1959784771
100
AcDbArc
 50
0.0188768305
 51
0.1502197797
  0
ARC
  5
610
100
AcDbEntity
  8
0
100
AcDbCircle
 62
7
  6
CONTINUOUS
 10
22.1884546025
 20
1.3918729972
 30
0.0
 40
2.625181464
100
AcDbArc
 50
318.7059866626
 51
319.3849456838
  0
ARC
  5
611
100
AcDbEntity
  8
0
100
AcDbCircle
 62
7
  6
CONTINUOUS
 10
22.2003106559
 20
1.3960017709
 30
0.0
 40
2.622496475
100
AcDbArc
 50
281.0033697961
 51
282.5847708957
  0
ARC
  5
612
100
AcDbEntity
  8
0
100
AcDbCircle
 62
7
  6
CONTINUOUS
 10
22.2120439906
 20
1.3842259448
 30
0.0
 40
2.6142585175
100
AcDbArc
 50
216.5763542177
 51
217.3235281897
  0
ARC
  5
613
100
AcDbEntity
  8
0
100
AcDbCircle
 62
7
  6
CONTINUOUS
 10
22.2104979204
 20
1.3826511806
 30
0.0
 40
2.612080719
100
AcDbArc
 50
211.7478057841
 51
214.9834174422
  0
ARC
  5
614
100
AcDbEntity
  8
0
100
AcDbCircle
 62
7
  6
CONTINUOUS
 10
22.2019278658
 20
1.3800818048
 30
0.0
 40
2.6072808813
100
AcDbArc
 50
322.5703138415
 51
322.9473202388
  0
ARC
  5
615
100
AcDbEntity
  8
0
100
AcDbCircle
 62
7
  6
CONTINUOUS
 10
22.202381439
 20
1.3797330113
 30
0.0
 40
2.6067087066
100
AcDbArc
 50
321.2041279232
 51
322.5703424344
  0
ARC
  5
616
100
AcDbEntity
  8
0
100
AcDbCircle
 62
7
  6
CONTINUOUS
 10
22.2041812391
 20
1.378396069
 30
0.0
 40
2.6044702439
100
AcDbArc
 50
279.5978723318
 51
322.9949285306
  0
ARC
  5
617
100
AcDbEntity
  8
0
100
AcDbCircle
 62
7
  6
CONTINUOUS
 10
22.2041812391
 20
1.378396069
 30
0.0
 40
2.6044702439
100
AcDbArc
 50
269.4831718584
 51
270.6377892063
  0
ARC
  5
618
100
AcDbEntity
  8
0
100
AcDbCircle
 62
7
  6
CONTINUOUS
 10
22.2041812391
 20
1.378396069
 30
0.0
 40
2.6044702439
100
AcDbArc
 50
211.7413224664
 51
256.9435743272
  0
ARC
  5
619
100
AcDbEntity
  8
0
100
AcDbCircle
 62
7
  6
CONTINUOUS
 10
22.2045497728
 20
1.3777783454
 30
0.0
 40
2.603787243
100
AcDbArc
 50
282.5811031146
 51
318.7052869659
  0
ARC
  5
61A
100
AcDbEntity
  8
0
100
AcDbCircle
 62
7
  6
CONTINUOUS
 10
22.2054811178
 20
1.3772376947
 30
0.0
 40
2.6027294345
100
AcDbArc
 50
319.3855147147
 51
321.2041876036
  0
CIRCLE
  5
61B
100
AcDbEntity
  8
RACCORDO
100
AcDbCircle
 62
250
  6
CONTINUOUS
 10
22.1541322245
 20
0.3699634096
 30
0.0
 40
2.6026070982
  0
ARC
  5
61C
100
AcDbEntity
  8
0
100
AcDbCircle
 62
7
  6
CONTINUOUS
 10
22.1977296816
 20
1.3735463031
 30
0.0
 40
2.5963992902
100
AcDbArc
 50
214.9803444103
 51
216.5753252946
  0
ARC
  5
61D
100
AcDbEntity
  8
0
100
AcDbCircle
 62
7
  6
CONTINUOUS
 10
22.1989760061
 20
1.3660595089
 30
0.0
 40
2.5912338632
100
AcDbArc
 50
254.4491908996
 51
255.1926844348
  0
CIRCLE
  5
61E
100
AcDbEntity
  8
RACCORDO
100
AcDbCircle
 62
7
  6
CONTINUOUS
 10
22.1541322245
 20
0.3699634096
 30
0.0
 40
2.2026485205
  0
CIRCLE
  5
61F
100
AcDbEntity
  8
DRAFT
100
AcDbCircle
 62
7
  6
CONTINUOUS
 10
22.1541322245
 20
0.3699634096
 30
0.0
 40
2.2
  0
ARC
  5
620
100
AcDbEntity
  8
0
100
AcDbCircle
 62
7
  6
CONTINUOUS
 10
19.3864731736
 20
1.1045875532
 30
0.0
 40
0.7087948769
100
AcDbArc
 50
327.1083022498
 51
328.2589351565
  0
ARC
  5
621
100
AcDbEntity
  8
0
100
AcDbCircle
 62
7
  6
CONTINUOUS
 10
19.3939542942
 20
1.0999634096
 30
0.0
 40
0.7
100
AcDbArc
 50
327.0879723869
 51
328.2586775336
  0
ARC
  5
622
100
AcDbEntity
  8
0
100
AcDbCircle
 62
250
  6
CONTINUOUS
 10
19.8266587308
 20
1.1675733321
 30
0.0
 40
0.4652099639
100
AcDbArc
 50
289.5932453391
 51
290.4576585667
  0
ARC
  5
623
100
AcDbEntity
  8
0
100
AcDbCircle
 62
250
  6
CONTINUOUS
 10
19.9887628936
 20
1.2168327892
 30
0.0
 40
0.3278733948
100
AcDbArc
 50
274.7578784853
 51
275.3370463321
  0
ARC
  5
624
100
AcDbEntity
  8
RACCORDO
100
AcDbCircle
 62
250
  6
CONTINUOUS
 10
20.331086307
 20
9.1029247119
 30
0.0
 40
4.9253481648
100
AcDbArc
 50
135.1028254155
 51
171.0392069909
  0
ARC
  5
625
100
AcDbEntity
  8
RACCORDO
100
AcDbCircle
 62
250
  6
CONTINUOUS
 10
20.3180035277
 20
9.1011859623
 30
0.0
 40
4.9127158848
100
AcDbArc
 50
170.995444235
 51
179.9761541229
  0
ARC
  5
626
100
AcDbEntity
  8
RACCORDO
100
AcDbCircle
 62
250
  6
CONTINUOUS
 10
20.309118848
 20
9.0942960018
 30
0.0
 40
4.5038921267
100
AcDbArc
 50
170.9876673327
 51
179.9746727228
  0
ARC
  5
627
100
AcDbEntity
  8
RACCORDO
100
AcDbCircle
 62
250
  6
CONTINUOUS
 10
20.4474587058
 20
9.037045836
 30
0.0
 40
4.4984716244
100
AcDbArc
 50
134.9955524742
 51
180.0044475256
  0
ARC
  5
628
100
AcDbEntity
  8
RACCORDO
100
AcDbCircle
 62
250
  6
CONTINUOUS
 10
20.3018163433
 20
9.0947289667
 30
0.0
 40
4.4966120084
100
AcDbArc
 50
134.9520388259
 51
170.9785402969
  0
ARC
  5
629
100
AcDbEntity
  8
RACCORDO
100
AcDbCircle
 62
250
  6
CONTINUOUS
 10
20.4465785266
 20
9.0374104181
 30
0.0
 40
4.1976371838
100
AcDbArc
 50
134.9902573552
 51
180.0097426448
  0
ARC
  5
62A
100
AcDbEntity
  8
0
100
AcDbCircle
 62
7
  6
CONTINUOUS
 10
22.2300939211
 20
9.0699634096
 30
0.0
 40
1.0
100
AcDbArc
 50
35.6853347127
 51
43.5551787703
  0
ARC
  5
62B
100
AcDbEntity
  8
0
100
AcDbCircle
 62
250
  6
CONTINUOUS
 10
22.3472364888
 20
1.0147544828
 30
0.0
 40
2.4305482842
100
AcDbArc
 50
315.3428004565
 51
315.7016654925
  0
ARC
  5
62C
100
AcDbEntity
  8
0
100
AcDbCircle
 62
250
  6
CONTINUOUS
 10
24.4258937031
 20
1.5684069826
 30
0.0
 40
0.5669389225
100
AcDbArc
 50
244.4339662585
 51
251.4337650954
  0
ARC
  5
62D
100
AcDbEntity
  8
0
100
AcDbCircle
 62
250
  6
CONTINUOUS
 10
24.4232358265
 20
1.5608025117
 30
0.0
 40
0.5588839559
100
AcDbArc
 50
251.4438407468
 51
252.4714186969
  0
ARC
  5
62E
100
AcDbEntity
  8
0
100
AcDbCircle
 62
7
  6
CONTINUOUS
 10
25.1394407185
 20
8.8056632692
 30
0.0
 40
2.9643365468
100
AcDbArc
 50
86.358281052
 51
89.7160360436
  0
ARC
  5
62F
100
AcDbEntity
  8
0
100
AcDbCircle
 62
7
  6
CONTINUOUS
 10
25.1394421875
 20
11.5341933399
 30
0.0
 40
2.9642663304
100
AcDbArc
 50
270.2839422892
 51
273.7126448875
  0
ARC
  5
630
100
AcDbEntity
  8
0
100
AcDbCircle
 62
7
  6
CONTINUOUS
 10
25.1397766743
 20
8.8116236619
 30
0.0
 40
2.9583668509
100
AcDbArc
 50
86.0431897204
 51
86.3574422503
  0
ARC
  5
631
100
AcDbEntity
  8
0
100
AcDbCircle
 62
7
  6
CONTINUOUS
 10
25.139873747
 20
11.5268919996
 30
0.0
 40
2.9569523588
100
AcDbArc
 50
273.933209988
 51
274.1780387519
  0
ARC
  5
632
100
AcDbEntity
  8
0
100
AcDbCircle
 62
7
  6
CONTINUOUS
 10
25.1398786176
 20
8.8131027681
 30
0.0
 40
2.9568842359
100
AcDbArc
 50
85.8219594504
 51
86.0431826537
  0
ARC
  5
633
100
AcDbEntity
  8
0
100
AcDbCircle
 62
7
  6
CONTINUOUS
 10
25.1402288978
 20
11.5222152274
 30
0.0
 40
2.9522621404
100
AcDbArc
 50
274.1777772089
 51
275.3681063852
  0
ARC
  5
634
100
AcDbEntity
  8
0
100
AcDbCircle
 62
7
  6
CONTINUOUS
 10
25.1409625461
 20
11.5143211029
 30
0.0
 40
2.9443340021
100
AcDbArc
 50
275.3682639553
 51
276.1339471153
  0
ARC
  5
635
100
AcDbEntity
  8
0
100
AcDbCircle
 62
7
  6
CONTINUOUS
 10
25.1518491251
 20
10.4240193304
 30
0.0
 40
2.7045744872
100
AcDbArc
 50
291.6786189951
 51
292.2233470405
  0
ARC
  5
636
100
AcDbEntity
  8
0
100
AcDbCircle
 62
7
  6
CONTINUOUS
 10
25.1536508607
 20
10.4219426117
 30
0.0
 40
2.7019792451
100
AcDbArc
 50
270.0102073759
 51
291.659382566
  0
ARC
  5
637
100
AcDbEntity
  8
0
100
AcDbCircle
 62
7
  6
CONTINUOUS
 10
25.137300191
 20
11.1830599056
 30
0.0
 40
2.6213252083
100
AcDbArc
 50
322.1624726578
 51
322.5232870546
  0
ARC
  5
638
100
AcDbEntity
  8
0
100
AcDbCircle
 62
7
  6
CONTINUOUS
 10
25.151945764
 20
11.1797825205
 30
0.0
 40
2.6098905808
100
AcDbArc
 50
275.8157483972
 51
276.6792639309
  0
ARC
  5
639
100
AcDbEntity
  8
0
100
AcDbCircle
 62
7
  6
CONTINUOUS
 10
25.1524457877
 20
11.1747902261
 30
0.0
 40
2.604873315
100
AcDbArc
 50
274.4668183587
 51
275.8159335548
  0
ARC
  5
63A
100
AcDbEntity
  8
0
100
AcDbCircle
 62
7
  6
CONTINUOUS
 10
25.1523968864
 20
9.1675342518
 30
0.0
 40
2.6024830739
100
AcDbArc
 50
82.9073742293
 51
85.5284690855
  0
ARC
  5
63B
100
AcDbEntity
  8
0
100
AcDbCircle
 62
7
  6
CONTINUOUS
 10
25.1528274094
 20
11.1700869712
 30
0.0
 40
2.6001546244
100
AcDbArc
 50
274.1767982409
 51
274.4665062271
  0
ARC
  5
63C
100
AcDbEntity
  8
0
100
AcDbCircle
 62
7
  6
CONTINUOUS
 10
25.1530519641
 20
9.1752199812
 30
0.0
 40
2.5947696666
100
AcDbArc
 50
85.5296587258
 51
85.8213925515
  0
ARC
  5
63D
100
AcDbEntity
  8
0
100
AcDbCircle
 62
7
  6
CONTINUOUS
 10
25.1438676464
 20
11.1619611259
 30
0.0
 40
2.5869815556
100
AcDbArc
 50
215.6739940251
 51
220.0591730305
  0
ARC
  5
63E
100
AcDbEntity
  8
0
100
AcDbCircle
 62
250
  6
CONTINUOUS
 10
24.9397156525
 20
9.3579121831
 30
0.0
 40
2.3670691291
100
AcDbArc
 50
132.6328885449
 51
133.4119464079
  0
ARC
  5
63F
100
AcDbEntity
  8
0
100
AcDbCircle
 62
250
  6
CONTINUOUS
 10
24.9026807115
 20
10.639696027
 30
0.0
 40
2.3658835567
100
AcDbArc
 50
219.5157368635
 51
219.9776382095
  0
ARC
  5
640
100
AcDbEntity
  8
0
100
AcDbCircle
 62
250
  6
CONTINUOUS
 10
23.5198018727
 20
12.1599634096
 30
0.0
 40
1.55
100
AcDbArc
 50
254.419256451
 51
270.0
  0
ARC
  5
641
100
AcDbEntity
  8
0
100
AcDbCircle
 62
7
  6
CONTINUOUS
 10
23.5198018727
 20
12.1599634096
 30
0.0
 40
1.0
100
AcDbArc
 50
267.8444995847
 51
270.0
  0
ARC
  5
642
100
AcDbEntity
  8
0
100
AcDbCircle
 62
7
  6
CONTINUOUS
 10
23.5198018727
 20
12.1599634096
 30
0.0
 40
0.9900694014
100
AcDbArc
 50
268.4813282345
 51
269.9703375206
  0
ARC
  5
643
100
AcDbEntity
  8
0
100
AcDbCircle
 62
7
  6
CONTINUOUS
 10
23.5198018727
 20
12.1599634096
 30
0.0
 40
0.98
100
AcDbArc
 50
269.1997057247
 51
270.0
  0
ARC
  5
644
100
AcDbEntity
  8
0
100
AcDbCircle
 62
250
  6
CONTINUOUS
 10
22.9739234756
 20
9.2282024492
 30
0.0
 40
0.3153405626
100
AcDbArc
 50
87.9200174742
 51
89.4354717767
  0
ARC
  5
645
100
AcDbEntity
  8
0
100
AcDbCircle
 62
250
  6
CONTINUOUS
 10
2.781748738
 20
27.6672001482
 30
0.0
 40
30.4459058759
100
AcDbArc
 50
323.5929891705
 51
323.7754734521
  0
ARC
  5
646
100
AcDbEntity
  8
0
100
AcDbCircle
 62
7
  6
CONTINUOUS
 10
21.1541322245
 20
23.5199634096
 30
0.0
 40
0.5
100
AcDbArc
 50
154.1580672368
 51
205.8419327632
  0
ARC
  5
647
100
AcDbEntity
  8
0
100
AcDbCircle
 62
7
  6
CONTINUOUS
 10
17.6399668216
 20
24.6067199478
 30
0.0
 40
0.2510668685
100
AcDbArc
 50
0.0340291569
 51
14.9710875867
  0
ARC
  5
648
100
AcDbEntity
  8
0
100
AcDbCircle
 62
7
  6
CONTINUOUS
 10
15.2673756863
 20
24.6057980066
 30
0.0
 40
0.2510668685
100
AcDbArc
 50
90.034029157
 51
104.9710875867
  0
ARC
  5
649
100
AcDbEntity
  8
0
100
AcDbCircle
 62
7
  6
CONTINUOUS
 10
17.6410267498
 20
24.6068573748
 30
0.0
 40
0.2500074563
100
AcDbArc
 50
15.0034130597
 51
89.9974499901
  0
ARC
  5
64A
100
AcDbEntity
  8
0
100
AcDbCircle
 62
7
  6
CONTINUOUS
 10
15.2672382593
 20
24.6068579348
 30
0.0
 40
0.2500074563
100
AcDbArc
 50
105.0034130597
 51
179.9974499901
  0
ARC
  5
64B
100
AcDbEntity
  8
0
100
AcDbCircle
 62
7
  6
CONTINUOUS
 10
17.6541375732
 20
24.6199687582
 30
0.0
 40
0.2499946513
100
AcDbArc
 50
359.9997437926
 51
90.0002562074
  0
ARC
  5
64C
100
AcDbEntity
  8
0
100
AcDbCircle
 62
7
  6
CONTINUOUS
 10
15.2541268759
 20
24.6199687582
 30
0.0
 40
0.2499946513
100
AcDbArc
 50
89.9997437926
 51
180.0002562074
  0
ARC
  5
64D
100
AcDbEntity
  8
0
100
AcDbCircle
 62
7
  6
CONTINUOUS
 10
23.9541305322
 20
24.1699617172
 30
0.0
 40
0.2000016924
100
AcDbArc
 50
359.9995151906
 51
89.9995151766
  0
ARC
  5
64E
100
AcDbEntity
  8
0
100
AcDbCircle
 62
250
  6
CONTINUOUS
 10
23.9541334094
 20
24.1682124762
 30
0.0
 40
0.1999988151
100
AcDbArc
 50
0.0006301927
 51
90.0003394401
  0
ARC
  5
64F
100
AcDbEntity
  8
0
100
AcDbCircle
 62
250
  6
CONTINUOUS
 10
47.5265157112
 20
-26.9272733292
 30
0.0
 40
30.4459058761
100
AcDbArc
 50
143.5929891705
 51
143.7754734521
  0
ARC
  5
650
100
AcDbEntity
  8
0
100
AcDbCircle
 62
7
  6
CONTINUOUS
 10
29.1541322245
 20
-22.7800365904
 30
0.0
 40
0.5
100
AcDbArc
 50
334.1580672368
 51
25.8419327632
  0
ARC
  5
651
100
AcDbEntity
  8
0
100
AcDbCircle
 62
7
  6
CONTINUOUS
 10
32.6682979275
 20
-23.8667930692
 30
0.0
 40
0.2510671686
100
AcDbArc
 50
180.0340426917
 51
194.9731859015
  0
ARC
  5
652
100
AcDbEntity
  8
0
100
AcDbCircle
 62
7
  6
CONTINUOUS
 10
35.0408890103
 20
-23.8658723998
 30
0.0
 40
0.2510656561
100
AcDbArc
 50
270.0339728338
 51
284.9614933414
  0
ARC
  5
653
100
AcDbEntity
  8
0
100
AcDbCircle
 62
7
  6
CONTINUOUS
 10
32.6672376985
 20
-23.8669305567
 30
0.0
 40
0.2500074552
100
AcDbArc
 50
195.0055246822
 51
269.9974501856
  0
ARC
  5
654
100
AcDbEntity
  8
0
100
AcDbCircle
 62
7
  6
CONTINUOUS
 10
35.0410261917
 20
-23.866931116
 30
0.0
 40
0.2500074544
100
AcDbArc
 50
284.9937608317
 51
359.9974500682
  0
ARC
  5
655
100
AcDbEntity
  8
0
100
AcDbCircle
 62
7
  6
CONTINUOUS
 10
35.0541375732
 20
-23.8800419391
 30
0.0
 40
0.2499946513
100
AcDbArc
 50
269.9997437926
 51
0.0002562074
  0
ARC
  5
656
100
AcDbEntity
  8
0
100
AcDbCircle
 62
7
  6
CONTINUOUS
 10
32.6541268759
 20
-23.8800419391
 30
0.0
 40
0.2499946513
100
AcDbArc
 50
179.9997437926
 51
270.0002562074
  0
ARC
  5
657
100
AcDbEntity
  8
0
100
AcDbCircle
 62
7
  6
CONTINUOUS
 10
26.3541339169
 20
-23.4300348981
 30
0.0
 40
0.2000016924
100
AcDbArc
 50
179.9995151906
 51
269.9995151766
  0
ARC
  5
658
100
AcDbEntity
  8
0
100
AcDbCircle
 62
250
  6
CONTINUOUS
 10
26.3541310397
 20
-23.428285657
 30
0.0
 40
0.1999988151
100
AcDbArc
 50
180.0006301927
 51
270.0003394401
  0
ARC
  5
659
100
AcDbEntity
  8
RACCORDO
100
AcDbCircle
 62
250
  6
CONTINUOUS
 10
25.1541322245
 20
-14.9939976211
 30
0.0
 40
3.0911840974
100
AcDbArc
 50
225.0001142798
 51
315.0
  0
ARC
  5
65A
100
AcDbEntity
  8
RACCORDO
100
AcDbCircle
 62
250
  6
CONTINUOUS
 10
25.1541322245
 20
-14.9939976211
 30
0.0
 40
2.79122578
100
AcDbArc
 50
225.0
 51
315.0
  0
ARC
  5
65B
100
AcDbEntity
  8
0
100
AcDbCircle
 62
7
  6
CONTINUOUS
 10
25.1688237305
 20
-8.0657364501
 30
0.0
 40
2.9643365468
100
AcDbArc
 50
266.358281052
 51
269.7160360436
  0
ARC
  5
65C
100
AcDbEntity
  8
0
100
AcDbCircle
 62
7
  6
CONTINUOUS
 10
25.1688222616
 20
-10.7942665208
 30
0.0
 40
2.9642663304
100
AcDbArc
 50
90.2839422892
 51
93.7126448875
  0
ARC
  5
65D
100
AcDbEntity
  8
0
100
AcDbCircle
 62
7
  6
CONTINUOUS
 10
25.1684877747
 20
-8.071696843
 30
0.0
 40
2.9583668508
100
AcDbArc
 50
266.0431897204
 51
266.3574422503
  0
ARC
  5
65E
100
AcDbEntity
  8
0
100
AcDbCircle
 62
7
  6
CONTINUOUS
 10
25.1683907022
 20
-10.7869651818
 30
0.0
 40
2.95695236
100
AcDbArc
 50
93.9332099881
 51
94.1780387519
  0
ARC
  5
65F
100
AcDbEntity
  8
0
100
AcDbCircle
 62
7
  6
CONTINUOUS
 10
25.1683858316
 20
-8.0731759476
 30
0.0
 40
2.9568842373
100
AcDbArc
 50
265.8219594504
 51
266.0431826537
  0
ARC
  5
660
100
AcDbEntity
  8
0
100
AcDbCircle
 62
7
  6
CONTINUOUS
 10
25.1680355513
 20
-10.7822884083
 30
0.0
 40
2.9522621404
100
AcDbArc
 50
94.1777772089
 51
95.3681063852
  0
ARC
  5
661
100
AcDbEntity
  8
0
100
AcDbCircle
 62
7
  6
CONTINUOUS
 10
25.167301903
 20
-10.7743942838
 30
0.0
 40
2.9443340022
100
AcDbArc
 50
95.3682639553
 51
96.1339471153
  0
ARC
  5
662
100
AcDbEntity
  8
0
100
AcDbCircle
 62
7
  6
CONTINUOUS
 10
25.1564153241
 20
-9.6840925113
 30
0.0
 40
2.7045744874
100
AcDbArc
 50
111.6786189951
 51
112.2233470405
  0
ARC
  5
663
100
AcDbEntity
  8
0
100
AcDbCircle
 62
7
  6
CONTINUOUS
 10
25.1546135884
 20
-9.6820157926
 30
0.0
 40
2.7019792451
100
AcDbArc
 50
90.0102073759
 51
111.659382566
  0
ARC
  5
664
100
AcDbEntity
  8
0
100
AcDbCircle
 62
7
  6
CONTINUOUS
 10
25.1709642583
 20
-10.4431330866
 30
0.0
 40
2.6213252085
100
AcDbArc
 50
142.1624726578
 51
142.5232870546
  0
ARC
  5
665
100
AcDbEntity
  8
0
100
AcDbCircle
 62
7
  6
CONTINUOUS
 10
25.156318685
 20
-10.4398557014
 30
0.0
 40
2.6098905808
100
AcDbArc
 50
95.8157483971
 51
96.6792639309
  0
ARC
  5
666
100
AcDbEntity
  8
0
100
AcDbCircle
 62
7
  6
CONTINUOUS
 10
25.1558186614
 20
-10.434863407
 30
0.0
 40
2.604873315
100
AcDbArc
 50
94.4668183587
 51
95.8159335548
  0
CIRCLE
  5
667
100
AcDbEntity
  8
RACCORDO
100
AcDbCircle
 62
250
  6
CONTINUOUS
 10
25.1541322245
 20
-9.1300365904
 30
0.0
 40
2.6026070982
  0
ARC
  5
668
100
AcDbEntity
  8
0
100
AcDbCircle
 62
7
  6
CONTINUOUS
 10
25.1558675627
 20
-8.4276074327
 30
0.0
 40
2.6024830739
100
AcDbArc
 50
262.9073742293
 51
265.5284690855
  0
ARC
  5
669
100
AcDbEntity
  8
0
100
AcDbCircle
 62
7
  6
CONTINUOUS
 10
25.1554370396
 20
-10.4301601516
 30
0.0
 40
2.600154624
100
AcDbArc
 50
94.1767982409
 51
94.4665062272
  0
ARC
  5
66A
100
AcDbEntity
  8
0
100
AcDbCircle
 62
7
  6
CONTINUOUS
 10
25.1541141072
 20
-10.4300423135
 30
0.0
 40
2.6000057231
100
AcDbArc
 50
40.0484069309
 51
89.9996007507
  0
ARC
  5
66B
100
AcDbEntity
  8
0
100
AcDbCircle
 62
7
  6
CONTINUOUS
 10
25.1541322245
 20
-8.4300365904
 30
0.0
 40
2.6
100
AcDbArc
 50
270.0
 51
318.7528986445
  0
ARC
  5
66C
100
AcDbEntity
  8
0
100
AcDbCircle
 62
7
  6
CONTINUOUS
 10
25.1541322245
 20
-8.4300365904
 30
0.0
 40
2.6
100
AcDbArc
 50
221.8612783872
 51
265.5623795422
  0
ARC
  5
66D
100
AcDbEntity
  8
0
100
AcDbCircle
 62
7
  6
CONTINUOUS
 10
25.1552124849
 20
-8.4352931631
 30
0.0
 40
2.5947696656
100
AcDbArc
 50
265.5296587257
 51
265.8213925515
  0
ARC
  5
66E
100
AcDbEntity
  8
0
100
AcDbCircle
 62
7
  6
CONTINUOUS
 10
25.1643968027
 20
-10.4220343068
 30
0.0
 40
2.5869815556
100
AcDbArc
 50
35.6739940251
 51
40.0591730305
  0
ARC
  5
66F
100
AcDbEntity
  8
0
100
AcDbCircle
 62
250
  6
CONTINUOUS
 10
25.3685487965
 20
-8.6179853638
 30
0.0
 40
2.3670691293
100
AcDbArc
 50
312.632888545
 51
313.4119464078
  0
ARC
  5
670
100
AcDbEntity
  8
0
100
AcDbCircle
 62
250
  6
CONTINUOUS
 10
25.4055837373
 20
-9.8997692081
 30
0.0
 40
2.365883557
100
AcDbArc
 50
39.5157368635
 51
39.9776382095
  0
CIRCLE
  5
671
100
AcDbEntity
  8
RACCORDO
100
AcDbCircle
 62
7
  6
CONTINUOUS
 10
25.1541322245
 20
-9.1300365904
 30
0.0
 40
2.2026485205
  0
CIRCLE
  5
672
100
AcDbEntity
  8
DRAFT
100
AcDbCircle
 62
7
  6
CONTINUOUS
 10
25.1541322245
 20
-9.1300365904
 30
0.0
 40
2.2
  0
ARC
  5
673
100
AcDbEntity
  8
0
100
AcDbCircle
 62
250
  6
CONTINUOUS
 10
26.7884625763
 20
-11.4200365904
 30
0.0
 40
1.55
100
AcDbArc
 50
74.419256451
 51
90.0
  0
ARC
  5
674
100
AcDbEntity
  8
0
100
AcDbCircle
 62
7
  6
CONTINUOUS
 10
26.7884625763
 20
-11.4200365904
 30
0.0
 40
1.0
100
AcDbArc
 50
87.8444995847
 51
90.0
  0
ARC
  5
675
100
AcDbEntity
  8
0
100
AcDbCircle
 62
7
  6
CONTINUOUS
 10
26.7884625763
 20
-11.4200365904
 30
0.0
 40
0.9900694014
100
AcDbArc
 50
88.4813282345
 51
89.9703375206
  0
ARC
  5
676
100
AcDbEntity
  8
0
100
AcDbCircle
 62
7
  6
CONTINUOUS
 10
26.7884625763
 20
-11.4200365904
 30
0.0
 40
0.98
100
AcDbArc
 50
89.1997057247
 51
90.0
  0
ARC
  5
677
100
AcDbEntity
  8
0
100
AcDbCircle
 62
250
  6
CONTINUOUS
 10
27.3343409735
 20
-8.4882756301
 30
0.0
 40
0.3153405625
100
AcDbArc
 50
267.9200174741
 51
269.4354717767
  0
ARC
  5
678
100
AcDbEntity
  8
RACCORDO
100
AcDbCircle
 62
250
  6
CONTINUOUS
 10
29.9772058519
 20
-8.3630236982
 30
0.0
 40
4.9253103215
100
AcDbArc
 50
315.1028105402
 51
351.038741177
  0
ARC
  5
679
100
AcDbEntity
  8
RACCORDO
100
AcDbCircle
 62
250
  6
CONTINUOUS
 10
29.9901798568
 20
-8.3612677157
 30
0.0
 40
4.9127969458
100
AcDbArc
 50
350.9949931428
 51
359.9762544939
  0
ARC
  5
67A
100
AcDbEntity
  8
RACCORDO
100
AcDbCircle
 62
250
  6
CONTINUOUS
 10
29.9993108363
 20
-8.3543822369
 30
0.0
 40
4.5037268865
100
AcDbArc
 50
350.9875020692
 51
359.974732774
  0
ARC
  5
67B
100
AcDbEntity
  8
RACCORDO
100
AcDbCircle
 62
250
  6
CONTINUOUS
 10
29.8608057433
 20
-8.2971190168
 30
0.0
 40
4.4984716244
100
AcDbArc
 50
314.9955524742
 51
0.0044475256
  0
ARC
  5
67C
100
AcDbEntity
  8
RACCORDO
100
AcDbCircle
 62
250
  6
CONTINUOUS
 10
30.0064490627
 20
-8.3548026359
 30
0.0
 40
4.4966109867
100
AcDbArc
 50
314.9520345926
 51
350.9785445302
  0
ARC
  5
67D
100
AcDbEntity
  8
RACCORDO
100
AcDbCircle
 62
250
  6
CONTINUOUS
 10
29.8616859225
 20
-8.297483599
 30
0.0
 40
4.1976371838
100
AcDbArc
 50
314.9902573552
 51
0.0097426448
  0
ARC
  5
67E
100
AcDbEntity
  8
0
100
AcDbCircle
 62
7
  6
CONTINUOUS
 10
28.078170528
 20
-8.3300365904
 30
0.0
 40
1.0
100
AcDbArc
 50
215.6853347127
 51
223.5551787703
  0
ARC
  5
67F
100
AcDbEntity
  8
0
100
AcDbCircle
 62
250
  6
CONTINUOUS
 10
5116.3606966717
 20
-7.4468008757
 30
0.0
 40
5080.1959318668
100
AcDbArc
 50
180.0188768298
 51
180.1502197803
  0
ARC
  5
680
100
AcDbEntity
  8
RACCORDO
100
AcDbCircle
 62
250
  6
CONTINUOUS
 10
29.9772211574
 20
9.1029505317
 30
0.0
 40
4.9252994693
100
AcDbArc
 50
8.9608153233
 51
44.8973150149
  0
ARC
  5
681
100
AcDbEntity
  8
RACCORDO
100
AcDbCircle
 62
250
  6
CONTINUOUS
 10
29.9902028315
 20
9.1011864955
 30
0.0
 40
4.9127739744
100
AcDbArc
 50
0.023839376
 51
9.004679795
  0
ARC
  5
682
100
AcDbEntity
  8
RACCORDO
100
AcDbCircle
 62
250
  6
CONTINUOUS
 10
29.9991818554
 20
9.0942988665
 30
0.0
 40
4.5038558712
100
AcDbArc
 50
0.0253035903
 51
9.0123689211
  0
ARC
  5
683
100
AcDbEntity
  8
RACCORDO
100
AcDbCircle
 62
250
  6
CONTINUOUS
 10
29.8608063574
 20
9.0370460903
 30
0.0
 40
4.4984710103
100
AcDbArc
 50
359.9955492337
 51
45.0044507664
  0
ARC
  5
684
100
AcDbEntity
  8
RACCORDO
100
AcDbCircle
 62
250
  6
CONTINUOUS
 10
30.0064314803
 20
9.094720483
 30
0.0
 40
4.4966297585
100
AcDbArc
 50
9.021533248
 51
45.0478876292
  0
ARC
  5
685
100
AcDbEntity
  8
RACCORDO
100
AcDbCircle
 62
250
  6
CONTINUOUS
 10
29.8616863622
 20
9.0374106003
 30
0.0
 40
4.1976367441
100
AcDbArc
 50
359.9902548682
 51
45.0097451318
  0
ARC
  5
686
100
AcDbEntity
  8
RACCORDO
100
AcDbCircle
 62
250
  6
CONTINUOUS
 10
25.1541322245
 20
15.7339244402
 30
0.0
 40
3.0911840974
100
AcDbArc
 50
45.0001139122
 51
135.0
  0
ARC
  5
687
100
AcDbEntity
  8
RACCORDO
100
AcDbCircle
 62
250
  6
CONTINUOUS
 10
25.1541322245
 20
15.7339244402
 30
0.0
 40
2.79122578
100
AcDbArc
 50
45.0
 51
135.0
  0
ARC
  5
688
100
AcDbEntity
  8
0
100
AcDbCircle
 62
7
  6
CONTINUOUS
 10
25.1548032676
 20
10.4224873835
 30
0.0
 40
2.7025240573
100
AcDbArc
 50
248.3071575938
 51
269.9857733228
  0
CIRCLE
  5
689
100
AcDbEntity
  8
RACCORDO
100
AcDbCircle
 62
250
  6
CONTINUOUS
 10
25.1541322245
 20
9.8699634096
 30
0.0
 40
2.6026070982
  0
ARC
  5
68A
100
AcDbEntity
  8
0
100
AcDbCircle
 62
7
  6
CONTINUOUS
 10
25.1561060536
 20
9.1683873977
 30
0.0
 40
2.6025244997
100
AcDbArc
 50
138.1417199584
 51
138.7270359376
  0
ARC
  5
68B
100
AcDbEntity
  8
0
100
AcDbCircle
 62
7
  6
CONTINUOUS
 10
25.1541503419
 20
11.1699691326
 30
0.0
 40
2.6000057231
100
AcDbArc
 50
220.0484069309
 51
269.9996007507
  0
ARC
  5
68C
100
AcDbEntity
  8
0
100
AcDbCircle
 62
7
  6
CONTINUOUS
 10
25.1541322245
 20
9.1699634096
 30
0.0
 40
2.6
100
AcDbArc
 50
90.0
 51
138.7528986445
  0
ARC
  5
68D
100
AcDbEntity
  8
0
100
AcDbCircle
 62
7
  6
CONTINUOUS
 10
25.1541322245
 20
9.1699634096
 30
0.0
 40
2.6
100
AcDbArc
 50
41.8612783872
 51
85.5623795422
  0
ARC
  5
68E
100
AcDbEntity
  8
0
100
AcDbCircle
 62
7
  6
CONTINUOUS
 10
25.1545235705
 20
11.169567645
 30
0.0
 40
2.5994439361
100
AcDbArc
 50
276.6490184174
 51
322.1644633703
  0
ARC
  5
68F
100
AcDbEntity
  8
0
100
AcDbCircle
 62
7
  6
CONTINUOUS
 10
25.1636775942
 20
11.1628560431
 30
0.0
 40
2.5880992662
100
AcDbArc
 50
322.5229496767
 51
324.3191970663
  0
ARC
  5
690
100
AcDbEntity
  8
0
100
AcDbCircle
 62
7
  6
CONTINUOUS
 10
25.3385657528
 20
9.2956554831
 30
0.0
 40
2.4263008894
100
AcDbArc
 50
46.3592512835
 51
47.2582841018
  0
ARC
  5
691
100
AcDbEntity
  8
0
100
AcDbCircle
 62
250
  6
CONTINUOUS
 10
25.3920619474
 20
10.6870272038
 30
0.0
 40
2.4028837814
100
AcDbArc
 50
319.5941207744
 51
319.94939844
  0
CIRCLE
  5
692
100
AcDbEntity
  8
RACCORDO
100
AcDbCircle
 62
7
  6
CONTINUOUS
 10
25.1541322245
 20
9.8699634096
 30
0.0
 40
2.2026485205
  0
CIRCLE
  5
693
100
AcDbEntity
  8
DRAFT
100
AcDbCircle
 62
7
  6
CONTINUOUS
 10
25.1541322245
 20
9.8699634096
 30
0.0
 40
2.2
  0
ARC
  5
694
100
AcDbEntity
  8
0
100
AcDbCircle
 62
7
  6
CONTINUOUS
 10
28.078170528
 20
9.0699634096
 30
0.0
 40
1.0
100
AcDbArc
 50
136.5523631417
 51
144.3146652873
  0
ARC
  5
695
100
AcDbEntity
  8
0
100
AcDbCircle
 62
250
  6
CONTINUOUS
 10
28.0842040666
 20
9.1326690108
 30
0.0
 40
0.9187733168
100
AcDbArc
 50
143.3412788016
 51
143.810940534
  0
ARC
  5
696
100
AcDbEntity
  8
0
100
AcDbCircle
 62
250
  6
CONTINUOUS
 10
27.3945713697
 20
9.4930416139
 30
0.0
 40
0.1893651656
100
AcDbArc
 50
104.5402031626
 51
105.9019423842
  0
ARC
  5
697
100
AcDbEntity
  8
0
100
AcDbCircle
 62
250
  6
CONTINUOUS
 10
27.3309338034
 20
9.4335321916
 30
0.0
 40
0.1698619466
100
AcDbArc
 50
87.1909510845
 51
89.7501862519
  0
ARC
  5
698
100
AcDbEntity
  8
0
100
AcDbCircle
 62
7
  6
CONTINUOUS
 10
29.1541322245
 20
23.5199634096
 30
0.0
 40
0.5
100
AcDbArc
 50
334.1580672368
 51
25.8419327632
  0
ARC
  5
699
100
AcDbEntity
  8
0
100
AcDbCircle
 62
7
  6
CONTINUOUS
 10
35.0399665215
 20
24.6067198883
 30
0.0
 40
0.2510671686
100
AcDbArc
 50
0.0340426917
 51
14.9731859015
  0
ARC
  5
69A
100
AcDbEntity
  8
0
100
AcDbCircle
 62
7
  6
CONTINUOUS
 10
32.6673756863
 20
24.6057980066
 30
0.0
 40
0.2510668685
100
AcDbArc
 50
90.034029157
 51
104.9710875867
  0
ARC
  5
69B
100
AcDbEntity
  8
0
100
AcDbCircle
 62
7
  6
CONTINUOUS
 10
32.6672382593
 20
24.6068579348
 30
0.0
 40
0.2500074563
100
AcDbArc
 50
105.0034130597
 51
179.9974499901
  0
ARC
  5
69C
100
AcDbEntity
  8
0
100
AcDbCircle
 62
7
  6
CONTINUOUS
 10
35.0410267506
 20
24.6068573759
 30
0.0
 40
0.2500074552
100
AcDbArc
 50
15.0055246822
 51
89.9974501856
  0
ARC
  5
69D
100
AcDbEntity
  8
0
100
AcDbCircle
 62
7
  6
CONTINUOUS
 10
35.0541375732
 20
24.6199687582
 30
0.0
 40
0.2499946513
100
AcDbArc
 50
359.9997437926
 51
90.0002562074
  0
ARC
  5
69E
100
AcDbEntity
  8
0
100
AcDbCircle
 62
7
  6
CONTINUOUS
 10
32.6541268759
 20
24.6199687582
 30
0.0
 40
0.2499946513
100
AcDbArc
 50
89.9997437926
 51
180.0002562074
  0
ARC
  5
69F
100
AcDbEntity
  8
0
100
AcDbCircle
 62
7
  6
CONTINUOUS
 10
26.3541339169
 20
24.1699617172
 30
0.0
 40
0.2000016924
100
AcDbArc
 50
90.0004848234
 51
180.0004848094
  0
ARC
  5
6A0
100
AcDbEntity
  8
0
100
AcDbCircle
 62
7
  6
CONTINUOUS
 10
26.3541310401
 20
24.1682124758
 30
0.0
 40
0.1999988155
100
AcDbArc
 50
89.9996606734
 51
179.9993696938
  0
ARC
  5
6A1
100
AcDbEntity
  8
0
100
AcDbCircle
 62
250
  6
CONTINUOUS
 10
5088.3528273599
 20
8.2280574336
 30
0.0
 40
5052.1880505604
100
AcDbArc
 50
179.8494161557
 51
179.9814872341
  0
SPLINE
  5
6A2
100
AcDbEntity
  8
0
100
AcDbSpline
 62
250
  6
CONTINUOUS
 70
0
 71
3
 72
16
 73
12
 74
0
 42
0.0000001
 43
0.0000001
 44
0.0000000001
 40
0.0
 40
0.0
 40
0.0
 40
0.0
 40
0.0048493085
 40
0.0192588409
 40
0.0431075046
 40
0.0761706945
 40
0.1685787705
 40
0.2929362791
 40
0.4444633969
 40
0.6173402012
 40
1.0
 40
1.0
 40
1.0
 40
1.0
 10
-28.1291692684
 20
24.8655915756
 30
0.0
 10
-28.1287651528
 20
24.8655892245
 30
0.0
 10
-28.1294281989
 20
24.8630297358
 30
0.0
 10
-28.1286063309
 20
24.8603553923
 30
0.0
 10
-28.1289179447
 20
24.8538980584
 30
0.0
 10
-28.1285548168
 20
24.841761303
 30
0.0
 10
-28.1286436176
 20
24.8207200817
 30
0.0
 10
-28.1285325442
 20
24.7901297137
 30
0.0
 10
-28.1286063212
 20
24.7526950698
 30
0.0
 10
-28.1287581932
 20
24.6937867922
 30
0.0
 10
-28.1289837509
 20
24.647484638
 30
0.0
 10
-28.1291692684
 20
24.6155958063
 30
0.0
  0
LINE
  5
6A3
100
AcDbEntity
  8
0
100
AcDbLine
 62
7
  6
CONTINUOUS
 10
-28.8806237012
 20
24.8699634096
 30
0.0
 11
-28.8806237012
 21
24.6199676403
 31
0.0
  0
LINE
  5
6A4
100
AcDbEntity
  8
0
100
AcDbLine
 62
7
  6
CONTINUOUS
 10
-28.8806237012
 20
22.7699634096
 30
0.0
 11
-28.8806237012
 21
22.2697345575
 31
0.0
  0
SPLINE
  5
6A5
100
AcDbEntity
  8
0
100
AcDbSpline
 62
250
  6
CONTINUOUS
 70
0
 71
3
 72
16
 73
12
 74
0
 42
0.0000001
 43
0.0000001
 44
0.0000000001
 40
0.0
 40
0.0
 40
0.0
 40
0.0
 40
0.3826597988
 40
0.5555366031
 40
0.7070637209
 40
0.8314212295
 40
0.9238293055
 40
0.9568924954
 40
0.9807411591
 40
0.9951506915
 40
1.0
 40
1.0
 40
1.0
 40
1.0
 10
-28.1291692684
 20
-23.8756689872
 30
0.0
 10
-28.1289837509
 20
-23.9075578189
 30
0.0
 10
-28.1287581932
 20
-23.9538599731
 30
0.0
 10
-28.1286063212
 20
-24.0127682506
 30
0.0
 10
-28.1285325442
 20
-24.0502028946
 30
0.0
 10
-28.1286436176
 20
-24.0807932626
 30
0.0
 10
-28.1285548168
 20
-24.1018344839
 30
0.0
 10
-28.1289179447
 20
-24.1139712392
 30
0.0
 10
-28.1286063309
 20
-24.1204285732
 30
0.0
 10
-28.1294281989
 20
-24.1231029167
 30
0.0
 10
-28.1287651528
 20
-24.1256624054
 30
0.0
 10
-28.1291692684
 20
-24.1256647564
 30
0.0
  0
LINE
  5
6A6
100
AcDbEntity
  8
0
100
AcDbLine
 62
7
  6
CONTINUOUS
 10
-28.8806237012
 20
-23.8800408212
 30
0.0
 11
-28.8806237012
 21
-24.1300365904
 31
0.0
  0
SPLINE
  5
6A7
100
AcDbEntity
  8
0
100
AcDbSpline
 62
250
  6
CONTINUOUS
 70
0
 71
3
 72
16
 73
12
 74
0
 42
0.0000001
 43
0.0000001
 44
0.0000000001
 40
0.0
 40
0.0
 40
0.0
 40
0.0
 40
0.3826597988
 40
0.5555366031
 40
0.7070637209
 40
0.8314212295
 40
0.9238293055
 40
0.9568924954
 40
0.9807411591
 40
0.9951506915
 40
1.0
 40
1.0
 40
1.0
 40
1.0
 10
-31.1320781341
 20
-23.8669422425
 30
0.0
 10
-31.1322636516
 20
-23.8988310742
 30
0.0
 10
-31.1324892093
 20
-23.9451332284
 30
0.0
 10
-31.1326410813
 20
-24.0040415059
 30
0.0
 10
-31.1327148583
 20
-24.0414761499
 30
0.0
 10
-31.1326037849
 20
-24.0720665179
 30
0.0
 10
-31.1326925857
 20
-24.0931077391
 30
0.0
 10
-31.1323294578
 20
-24.1052444945
 30
0.0
 10
-31.1326410716
 20
-24.1117018284
 30
0.0
 10
-31.1318192036
 20
-24.1143761719
 30
0.0
 10
-31.1324822497
 20
-24.1169356606
 30
0.0
 10
-31.1320781341
 20
-24.1169380117
 30
0.0
  0
SPLINE
  5
6A8
100
AcDbEntity
  8
0
100
AcDbSpline
 62
250
  6
CONTINUOUS
 70
0
 71
3
 72
16
 73
12
 74
0
 42
0.0000001
 43
0.0000001
 44
0.0000000001
 40
0.0
 40
0.0
 40
0.0
 40
0.0
 40
0.3828828995
 40
0.5557613231
 40
0.7072486826
 40
0.8315476456
 40
0.9238977787
 40
0.9569369789
 40
0.9807666881
 40
0.9951626558
 40
1.0
 40
1.0
 40
1.0
 40
1.0
 10
-31.1320781341
 20
24.2143009769
 30
0.0
 10
-31.1479855795
 20
24.1867475407
 30
0.0
 10
-31.1710468029
 20
24.1467292202
 30
0.0
 10
-31.2002781682
 20
24.0957636341
 30
0.0
 10
-31.2188335925
 20
24.0633850091
 30
0.0
 10
-31.2338488847
 20
24.0368501732
 30
0.0
 10
-31.2443345269
 20
24.0186899461
 30
0.0
 10
-31.250019041
 20
24.0080115077
 30
0.0
 10
-31.2535032024
 20
24.0025890607
 30
0.0
 10
-31.254097148
 20
23.9998660616
 30
0.0
 10
-31.2559718085
 20
23.9979956057
 30
0.0
 10
-31.2556237012
 20
23.9977946259
 30
0.0
  0
SPLINE
  5
6A9
100
AcDbEntity
  8
0
100
AcDbSpline
 62
250
  6
CONTINUOUS
 70
0
 71
3
 72
16
 73
12
 74
0
 42
0.0000001
 43
0.0000001
 44
0.0000000001
 40
0.0
 40
0.0
 40
0.0
 40
0.0
 40
0.3828830346
 40
0.5557614317
 40
0.7072487564
 40
0.8315476875
 40
0.9238977984
 40
0.956936989
 40
0.9807666927
 40
0.9951626574
 40
1.0
 40
1.0
 40
1.0
 40
1.0
 10
-28.1291692684
 20
24.2143009769
 30
0.0
 10
-28.1132618174
 20
24.1867475309
 30
0.0
 10
-28.0902005895
 20
24.1467292027
 30
0.0
 10
-28.0609692212
 20
24.0957636112
 30
0.0
 10
-28.0424138007
 20
24.063384993
 30
0.0
 10
-28.0273985123
 20
24.0368501634
 30
0.0
 10
-28.0169128727
 20
24.0186899409
 30
0.0
 10
-28.0112283601
 20
24.0080115052
 30
0.0
 10
-28.0077441995
 20
24.0025890595
 30
0.0
 10
-28.0071502541
 20
23.9998660611
 30
0.0
 10
-28.0052755941
 20
23.9979956057
 30
0.0
 10
-28.0056237012
 20
23.9977946259
 30
0.0
  0
SPLINE
  5
6AA
100
AcDbEntity
  8
0
100
AcDbSpline
 62
250
  6
CONTINUOUS
 70
0
 71
3
 72
17
 73
13
 74
0
 42
0.0000001
 43
0.0000001
 44
0.0000000001
 40
0.0
 40
0.0
 40
0.0
 40
0.0
 40
0.3825252458
 40
0.555315435
 40
0.706763104
 40
0.8310609523
 40
0.8814943248
 40
0.9234471308
 40
0.9565200537
 40
0.9804033903
 40
0.994891182
 40
1.0
 40
1.0
 40
1.0
 40
1.0
 10
-35.3464581958
 20
21.9308745304
 30
0.0
 10
-35.3497932606
 20
21.9945214187
 30
0.0
 10
-35.3543417299
 20
22.086931112
 30
0.0
 10
-35.3594374092
 20
22.204585371
 30
0.0
 10
-35.362297185
 20
22.2792460582
 30
0.0
 10
-35.36405734
 20
22.333606983
 30
0.0
 10
-35.3648807094
 20
22.369633013
 30
0.0
 10
-35.3652872124
 20
22.3906786232
 30
0.0
 10
-35.3651964478
 20
22.4067777089
 30
0.0
 10
-35.3654525043
 20
22.4195561133
 30
0.0
 10
-35.3643768035
 20
22.425232871
 30
0.0
 10
-35.3647108063
 20
22.4301468037
 30
0.0
 10
-35.3638607703
 20
22.4301913522
 30
0.0
  0
SPLINE
  5
6AB
100
AcDbEntity
  8
0
100
AcDbSpline
 62
250
  6
CONTINUOUS
 70
0
 71
3
 72
18
 73
14
 74
0
 42
0.0000001
 43
0.0000001
 44
0.0000000001
 40
0.0
 40
0.0
 40
0.0
 40
0.0
 40
0.1960044919
 40
0.3839733216
 40
0.556850953
 40
0.7081363303
 40
0.832140312
 40
0.8824109122
 40
0.9242038802
 40
0.9571246768
 40
0.9808641946
 40
0.9951999345
 40
1.0
 40
1.0
 40
1.0
 40
1.0
 10
-35.8146606397
 20
21.5061213591
 30
0.0
 10
-35.8464055815
 20
21.5109101199
 30
0.0
 10
-35.908592233
 20
21.5203063954
 30
0.0
 10
-35.9987671464
 20
21.5339821465
 30
0.0
 10
-36.0817027295
 20
21.5466016159
 30
0.0
 10
-36.1542422275
 20
21.5577166025
 30
0.0
 10
-36.2070017649
 20
21.5657931524
 30
0.0
 10
-36.2418842151
 20
21.5712800694
 30
0.0
 10
-36.2623028561
 20
21.5743160824
 30
0.0
 10
-36.2777243598
 20
21.5771663438
 30
0.0
 10
-36.290366556
 20
21.5782503741
 30
0.0
 10
-36.2952409836
 20
21.5807505769
 30
0.0
 10
-36.3004612964
 20
21.5799034751
 30
0.0
 10
-36.3003440566
 20
21.5806809003
 30
0.0
  0
SPLINE
  5
6AC
100
AcDbEntity
  8
0
100
AcDbSpline
 62
250
  6
CONTINUOUS
 70
0
 71
3
 72
16
 73
12
 74
0
 42
0.0000001
 43
0.0000001
 44
0.0000000001
 40
0.0
 40
0.0
 40
0.0
 40
0.0
 40
0.3828830467
 40
0.5557614492
 40
0.7072487762
 40
0.8315477067
 40
0.9238978152
 40
0.9569370018
 40
0.9807667016
 40
0.9951626628
 40
1.0
 40
1.0
 40
1.0
 40
1.0
 10
-28.1291692684
 20
-23.4743741577
 30
0.0
 10
-28.1132618169
 20
-23.4468207109
 30
0.0
 10
-28.0902005883
 20
-23.4068023814
 30
0.0
 10
-28.0609692191
 20
-23.3558367885
 30
0.0
 10
-28.0424137984
 20
-23.3234581697
 30
0.0
 10
-28.02739851
 20
-23.2969233403
 30
0.0
 10
-28.0169128707
 20
-23.2787631182
 30
0.0
 10
-28.0112283585
 20
-23.2680846833
 30
0.0
 10
-28.0077441986
 20
-23.2626622384
 30
0.0
 10
-28.0071502532
 20
-23.2599392409
 30
0.0
 10
-28.0052755945
 20
-23.2580687863
 30
0.0
 10
-28.0056237012
 20
-23.2578678068
 30
0.0
  0
SPLINE
  5
6AD
100
AcDbEntity
  8
0
100
AcDbSpline
 62
250
  6
CONTINUOUS
 70
0
 71
3
 72
18
 73
14
 74
0
 42
0.0000001
 43
0.0000001
 44
0.0000000001
 40
0.0
 40
0.0
 40
0.0
 40
0.0
 40
0.1960045271
 40
0.3839733777
 40
0.5568510153
 40
0.7081363858
 40
0.8321403521
 40
0.8824109432
 40
0.9242039022
 40
0.9571246905
 40
0.9808642017
 40
0.9951999368
 40
1.0
 40
1.0
 40
1.0
 40
1.0
 10
-35.8146606397
 20
-20.7661945399
 30
0.0
 10
-35.8464055712
 20
-20.7709832993
 30
0.0
 10
-35.9085922005
 20
-20.7803795715
 30
0.0
 10
-35.9987670786
 20
-20.7940553174
 30
0.0
 10
-36.0817026232
 20
-20.8066747811
 30
0.0
 10
-36.154242082
 20
-20.8177897618
 30
0.0
 10
-36.207001588
 20
-20.825866307
 30
0.0
 10
-36.2418840149
 20
-20.8313532204
 30
0.0
 10
-36.2623026421
 20
-20.8343892314
 30
0.0
 10
-36.2777241322
 20
-20.8372394903
 30
0.0
 10
-36.2903663232
 20
-20.8383235206
 30
0.0
 10
-36.2952407386
 20
-20.84082372
 30
0.0
 10
-36.3004610552
 20
-20.8399766204
 30
0.0
 10
-36.3003438121
 20
-20.8407540443
 30
0.0
  0
SPLINE
  5
6AE
100
AcDbEntity
  8
0
100
AcDbSpline
 62
250
  6
CONTINUOUS
 70
0
 71
3
 72
17
 73
13
 74
0
 42
0.0000001
 43
0.0000001
 44
0.0000000001
 40
0.0
 40
0.0
 40
0.0
 40
0.0
 40
0.3825277505
 40
0.5553190312
 40
0.7067675514
 40
0.8310659339
 40
0.8814994141
 40
0.9234521874
 40
0.9565248922
 40
0.9804077325
 40
0.9948944822
 40
1.0
 40
1.0
 40
1.0
 40
1.0
 10
-35.3464189954
 20
-21.1909497657
 30
0.0
 10
-35.3497535729
 20
-21.2545966806
 30
0.0
 10
-35.3543006354
 20
-21.3470064278
 30
0.0
 10
-35.3593984651
 20
-21.4646605722
 30
0.0
 10
-35.3622629888
 20
-21.5393209641
 30
0.0
 10
-35.3640286596
 20
-21.5936816776
 30
0.0
 10
-35.3648570741
 20
-21.629707325
 30
0.0
 10
-35.365268176
 20
-21.6507529642
 30
0.0
 10
-35.3651801402
 20
-21.6668511132
 30
0.0
 10
-35.3654440042
 20
-21.6796307206
 30
0.0
 10
-35.3643663423
 20
-21.685304229
 30
0.0
 10
-35.3647102516
 20
-21.6902200137
 30
0.0
 10
-35.3638607703
 20
-21.6902645331
 30
0.0
  0
LINE
  5
6AF
100
AcDbEntity
  8
0
100
AcDbLine
 62
7
  6
CONTINUOUS
 10
-28.8806237012
 20
-21.5298077384
 30
0.0
 11
-28.880623701
 21
-22.0300365904
 31
0.0
  0
SPLINE
  5
6B0
100
AcDbEntity
  8
0
100
AcDbSpline
 62
250
  6
CONTINUOUS
 70
0
 71
3
 72
16
 73
12
 74
0
 42
0.0000001
 43
0.0000001
 44
0.0000000001
 40
0.0
 40
0.0
 40
0.0
 40
0.0
 40
0.3828830346
 40
0.5557614317
 40
0.7072487564
 40
0.8315476875
 40
0.9238977984
 40
0.956936989
 40
0.9807666927
 40
0.9951626574
 40
1.0
 40
1.0
 40
1.0
 40
1.0
 10
-31.1320781341
 20
-23.4743741577
 30
0.0
 10
-31.1479855851
 20
-23.4468207118
 30
0.0
 10
-31.171046813
 20
-23.4068023835
 30
0.0
 10
-31.2002781813
 20
-23.3558367921
 30
0.0
 10
-31.2188336018
 20
-23.3234581738
 30
0.0
 10
-31.2338488902
 20
-23.2969233443
 30
0.0
 10
-31.2443345298
 20
-23.2787631218
 30
0.0
 10
-31.2500190424
 20
-23.268084686
 30
0.0
 10
-31.253503203
 20
-23.2626622404
 30
0.0
 10
-31.2540971484
 20
-23.2599392419
 30
0.0
 10
-31.2559718084
 20
-23.2580687866
 30
0.0
 10
-31.2556237012
 20
-23.2578678068
 30
0.0
  0
SPLINE
  5
6B1
100
AcDbEntity
  8
0
100
AcDbSpline
 62
250
  6
CONTINUOUS
 70
0
 71
3
 72
16
 73
12
 74
0
 42
0.0000001
 43
0.0000001
 44
0.0000000001
 40
0.0
 40
0.0
 40
0.0
 40
0.0
 40
0.0048493085
 40
0.0192588409
 40
0.0431075046
 40
0.0761706945
 40
0.1685787705
 40
0.2929362791
 40
0.4444633969
 40
0.6173402012
 40
1.0
 40
1.0
 40
1.0
 40
1.0
 10
-31.1320781341
 20
24.8568648308
 30
0.0
 10
-31.1324822497
 20
24.8568624798
 30
0.0
 10
-31.1318192036
 20
24.8543029911
 30
0.0
 10
-31.1326410716
 20
24.8516286476
 30
0.0
 10
-31.1323294578
 20
24.8451713136
 30
0.0
 10
-31.1326925857
 20
24.8330345583
 30
0.0
 10
-31.1326037849
 20
24.811993337
 30
0.0
 10
-31.1327148583
 20
24.781402969
 30
0.0
 10
-31.1326410813
 20
24.743968325
 30
0.0
 10
-31.1324892093
 20
24.6850600475
 30
0.0
 10
-31.1322636516
 20
24.6387578933
 30
0.0
 10
-31.1320781341
 20
24.6068690616
 30
0.0
  0
SPLINE
  5
6B2
100
AcDbEntity
  8
RACCORDO
100
AcDbSpline
 62
250
  6
CONTINUOUS
 70
0
 71
3
 72
35
 73
31
 74
0
 42
0.0000001
 43
0.0000001
 44
0.0000000001
 40
0.0
 40
0.0
 40
0.0
 40
0.0
 40
0.0979551268
 40
0.1949646878
 40
0.2900949837
 40
0.3824305578
 40
0.471082867
 40
0.5551988543
 40
0.633969213
 40
0.7066362005
 40
0.772500964
 40
0.8026819482
 40
0.8309304573
 40
0.8571786515
 40
0.8813635527
 40
0.9034272237
 40
0.9233169357
 40
0.9409853396
 40
0.9563906684
 40
0.9694970066
 40
0.9802747377
 40
0.9887014737
 40
0.992028966
 40
0.994765227
 40
0.9969120285
 40
0.9977661284
 40
0.9984758575
 40
0.9990441185
 40
0.999476815
 40
1.0
 40
1.0
 40
1.0
 40
1.0
 10
2.6368287052
 20
-14.5395104963
 30
0.0
 10
2.6373986245
 20
-14.572171099
 30
0.0
 10
2.6384775141
 20
-14.6371780116
 30
0.0
 10
2.6399162311
 20
-14.7339067511
 30
0.0
 10
2.6411589198
 20
-14.8287640762
 30
0.0
 10
2.6421937442
 20
-14.9208367961
 30
0.0
 10
2.6430109494
 20
-15.0092385663
 30
0.0
 10
2.6436029487
 20
-15.0931183753
 30
0.0
 10
2.6439645467
 20
-15.1716687571
 30
0.0
 10
2.644092723
 20
-15.2441335446
 30
0.0
 10
2.6440029574
 20
-15.3003950862
 30
0.0
 10
2.6438025779
 20
-15.3418436477
 30
0.0
 10
2.6435982398
 20
-15.3700808218
 30
0.0
 10
2.6433361872
 20
-15.3963178906
 30
0.0
 10
2.6430171571
 20
-15.4204916848
 30
0.0
 10
2.6426421483
 20
-15.4425440179
 30
0.0
 10
2.642212351
 20
-15.4624218233
 30
0.0
 10
2.6417293589
 20
-15.480077328
 30
0.0
 10
2.6411948763
 20
-15.4954680931
 30
0.0
 10
2.6406122361
 20
-15.5085575258
 30
0.0
 10
2.6399833391
 20
-15.5193142611
 30
0.0
 10
2.6393921177
 20
-15.5268060788
 30
0.0
 10
2.6388706017
 20
-15.5316104344
 30
0.0
 10
2.6385008225
 20
-15.5343239092
 30
0.0
 10
2.6381683786
 20
-15.5362085443
 30
0.0
 10
2.6378837883
 20
-15.5374142232
 30
0.0
 10
2.6376874583
 20
-15.5380956073
 30
0.0
 10
2.6374829876
 20
-15.5386359658
 30
0.0
 10
2.6372637383
 20
-15.5390746296
 30
0.0
 10
2.6370031477
 20
-15.5393551465
 30
0.0
 10
2.6368287052
 20
-15.5393581914
 30
0.0
  0
SPLINE
  5
6B3
100
AcDbEntity
  8
RACCORDO
100
AcDbSpline
 62
250
  6
CONTINUOUS
 70
0
 71
3
 72
35
 73
31
 74
0
 42
0.0000001
 43
0.0000001
 44
0.0000000001
 40
0.0
 40
0.0
 40
0.0
 40
0.0
 40
0.0979551268
 40
0.1949646878
 40
0.2900949837
 40
0.3824305578
 40
0.471082867
 40
0.5551988542
 40
0.6339692129
 40
0.7066362004
 40
0.772500964
 40
0.8026819482
 40
0.8309304572
 40
0.8571786515
 40
0.8813635526
 40
0.9034272236
 40
0.9233169357
 40
0.9409853396
 40
0.9563906684
 40
0.9694970066
 40
0.9802747377
 40
0.9887014737
 40
0.992028966
 40
0.994765227
 40
0.9969120285
 40
0.9977661284
 40
0.9984758575
 40
0.9990441185
 40
0.999476815
 40
1.0
 40
1.0
 40
1.0
 40
1.0
 10
2.6368287052
 20
15.2794373154
 30
0.0
 10
2.6373986245
 20
15.3120979182
 30
0.0
 10
2.6384775141
 20
15.3771048307
 30
0.0
 10
2.6399162311
 20
15.4738335702
 30
0.0
 10
2.6411589198
 20
15.5686908953
 30
0.0
 10
2.6421937442
 20
15.6607636152
 30
0.0
 10
2.6430109494
 20
15.7491653854
 30
0.0
 10
2.6436029487
 20
15.8330451944
 30
0.0
 10
2.6439645467
 20
15.9115955762
 30
0.0
 10
2.644092723
 20
15.9840603637
 30
0.0
 10
2.6440029574
 20
16.0403219053
 30
0.0
 10
2.6438025779
 20
16.0817704668
 30
0.0
 10
2.6435982398
 20
16.1100076409
 30
0.0
 10
2.6433361872
 20
16.1362447097
 30
0.0
 10
2.6430171571
 20
16.1604185039
 30
0.0
 10
2.6426421483
 20
16.182470837
 30
0.0
 10
2.642212351
 20
16.2023486424
 30
0.0
 10
2.6417293589
 20
16.2200041472
 30
0.0
 10
2.6411948763
 20
16.2353949122
 30
0.0
 10
2.6406122361
 20
16.2484843449
 30
0.0
 10
2.6399833391
 20
16.2592410802
 30
0.0
 10
2.6393921177
 20
16.2667328979
 30
0.0
 10
2.6388706017
 20
16.2715372535
 30
0.0
 10
2.6385008225
 20
16.2742507283
 30
0.0
 10
2.6381683786
 20
16.2761353635
 30
0.0
 10
2.6378837883
 20
16.2773410423
 30
0.0
 10
2.6376874583
 20
16.2780224265
 30
0.0
 10
2.6374829876
 20
16.2785627849
 30
0.0
 10
2.6372637383
 20
16.2790014487
 30
0.0
 10
2.6370031477
 20
16.2792819657
 30
0.0
 10
2.6368287052
 20
16.2792850106
 30
0.0
  0
SPLINE
  5
6B4
100
AcDbEntity
  8
RACCORDO
100
AcDbSpline
 62
250
  6
CONTINUOUS
 70
0
 71
3
 72
39
 73
35
 74
0
 42
0.0000001
 43
0.0000001
 44
0.0000000001
 40
0.0
 40
0.0
 40
0.0
 40
0.0
 40
0.026972512
 40
0.0548464136
 40
0.0835502463
 40
0.1130012743
 40
0.143116218
 40
0.1738164428
 40
0.20503002
 40
0.2366921891
 40
0.2687448752
 40
0.301135789
 40
0.3338171555
 40
0.3667441243
 40
0.3998727964
 40
0.4331579905
 40
0.4665512502
 40
0.4999999936
 40
0.533448737
 40
0.5668419969
 40
0.6001271912
 40
0.6332558636
 40
0.6661828328
 40
0.6988641998
 40
0.7312551143
 40
0.7633078011
 40
0.794969971
 40
0.8261835492
 40
0.856883775
 40
0.8869987198
 40
0.9164497491
 40
0.9451535832
 40
0.9730274863
 40
1.0
 40
1.0
 40
1.0
 40
1.0
 10
3.6193762988
 20
-6.2421321057
 30
0.0
 10
3.6193762957
 20
-6.2857578417
 30
0.0
 10
3.6159543772
 20
-6.3744827507
 30
0.0
 10
3.6028268752
 20
-6.5090313723
 30
0.0
 10
3.5830598487
 20
-6.6468024085
 30
0.0
 10
3.5579140394
 20
-6.7873600991
 30
0.0
 10
3.5285102596
 20
-6.930378157
 30
0.0
 10
3.4958707916
 20
-7.0756095437
 30
0.0
 10
3.4609599284
 20
-7.2228811102
 30
0.0
 10
3.4247245158
 20
-7.3720826676
 30
0.0
 10
3.3881362006
 20
-7.5231582885
 30
0.0
 10
3.3522338803
 20
-7.6760946672
 30
0.0
 10
3.3181656759
 20
-7.8309037683
 30
0.0
 10
3.2872182808
 20
-7.9875927722
 30
0.0
 10
3.2608173817
 20
-8.1461158946
 30
0.0
 10
3.2404606238
 20
-8.3063062741
 30
0.0
 10
3.2275495223
 20
-8.4678056774
 30
0.0
 10
3.2231171512
 20
-8.6300364439
 30
0.0
 10
3.2275495064
 20
-8.792267211
 30
0.0
 10
3.2404605933
 20
-8.9537666161
 30
0.0
 10
3.260817339
 20
-9.1139569983
 30
0.0
 10
3.2872182286
 20
-9.2724801241
 30
0.0
 10
3.3181656168
 20
-9.4291691314
 30
0.0
 10
3.3522338169
 20
-9.5839782362
 30
0.0
 10
3.388136135
 20
-9.7369146186
 30
0.0
 10
3.42472445
 20
-9.8879902432
 30
0.0
 10
3.4609598642
 20
-10.0371918043
 30
0.0
 10
3.4958707306
 20
-10.1844633745
 30
0.0
 10
3.5285102036
 20
-10.3296947651
 30
0.0
 10
3.5579139902
 20
-10.4727128272
 30
0.0
 10
3.5830598081
 20
-10.6132705225
 30
0.0
 10
3.6028268452
 20
-10.7510415641
 30
0.0
 10
3.6159543606
 20
-10.8855901919
 30
0.0
 10
3.6193762896
 20
-10.9743151056
 30
0.0
 10
3.6193762988
 20
-11.0179408443
 30
0.0
  0
SPLINE
  5
6B5
100
AcDbEntity
  8
RACCORDO
100
AcDbSpline
 62
250
  6
CONTINUOUS
 70
0
 71
3
 72
43
 73
39
 74
0
 42
0.0000001
 43
0.0000001
 44
0.0000000001
 40
0.0
 40
0.0
 40
0.0
 40
0.0
 40
0.0251197506
 40
0.0513798843
 40
0.0787568596
 40
0.1071845446
 40
0.1365767032
 40
0.1668407284
 40
0.1978853898
 40
0.2296247435
 40
0.2619796798
 40
0.294878082
 40
0.3282538015
 40
0.3620444202
 40
0.3961875514
 40
0.4306151742
 40
0.4479139096
 40
0.4652528841
 40
0.4826194268
 40
0.4999999997
 40
0.5173805727
 40
0.5347471154
 40
0.5520860899
 40
0.5693848253
 40
0.603812448
 40
0.6379555792
 40
0.671746198
 40
0.7051219176
 40
0.73802032
 40
0.7703752564
 40
0.8021146102
 40
0.8331592716
 40
0.8634232968
 40
0.8928154554
 40
0.9212431404
 40
0.9486201157
 40
0.9748802494
 40
1.0
 40
1.0
 40
1.0
 40
1.0
 10
3.8932295759
 20
-6.4535890974
 30
0.0
 10
3.8932295696
 20
-6.4912117919
 30
0.0
 10
3.8892142005
 20
-6.5681907033
 30
0.0
 10
3.8735902723
 20
-6.6851967976
 30
0.0
 10
3.8496984242
 20
-6.8058292238
 30
0.0
 10
3.8188866949
 20
-6.9296926672
 30
0.0
 10
3.7824070793
 20
-7.0564968427
 30
0.0
 10
3.7414382214
 20
-7.1860282428
 30
0.0
 10
3.6971171856
 20
-7.3181578366
 30
0.0
 10
3.6505803254
 20
-7.4528375088
 30
0.0
 10
3.6030119742
 20
-7.5900977792
 30
0.0
 10
3.5557078239
 20
-7.7300424748
 30
0.0
 10
3.5101441748
 20
-7.8728309751
 30
0.0
 10
3.4680579176
 20
-8.0186424348
 30
0.0
 10
3.4314959648
 20
-8.1675829154
 30
0.0
 10
3.4076081221
 20
-8.2940459617
 30
0.0
 10
3.393562675
 20
-8.3965489785
 30
0.0
 10
3.3858149225
 20
-8.4740702639
 30
0.0
 10
3.3810774489
 20
-8.5519578434
 30
0.0
 10
3.379482717
 20
-8.6300365892
 30
0.0
 10
3.3810774489
 20
-8.708115335
 30
0.0
 10
3.3858149223
 20
-8.7860029146
 30
0.0
 10
3.3935626747
 20
-8.8635242
 30
0.0
 10
3.4076081218
 20
-8.9660272168
 30
0.0
 10
3.4314959643
 20
-9.0924902631
 30
0.0
 10
3.468057917
 20
-9.2414307437
 30
0.0
 10
3.5101441741
 20
-9.3872422037
 30
0.0
 10
3.5557078234
 20
-9.5300307044
 30
0.0
 10
3.6030119739
 20
-9.6699754006
 30
0.0
 10
3.6505803252
 20
-9.8072356715
 30
0.0
 10
3.6971171855
 20
-9.941915344
 30
0.0
 10
3.7414382214
 20
-10.074044938
 30
0.0
 10
3.7824070793
 20
-10.2035763383
 30
0.0
 10
3.8188866949
 20
-10.3303805138
 30
0.0
 10
3.8496984242
 20
-10.4542439572
 30
0.0
 10
3.8735902723
 20
-10.5748763834
 30
0.0
 10
3.8892142006
 20
-10.6918824776
 30
0.0
 10
3.8932295694
 20
-10.768861389
 30
0.0
 10
3.8932295759
 20
-10.8064840835
 30
0.0
  0
SPLINE
  5
6B6
100
AcDbEntity
  8
RACCORDO
100
AcDbSpline
 62
250
  6
CONTINUOUS
 70
0
 71
3
 72
17
 73
13
 74
0
 42
0.0000001
 43
0.0000001
 44
0.0000000001
 40
0.0
 40
0.0
 40
0.0
 40
0.0
 40
0.052004877
 40
0.1044494522
 40
0.1577484358
 40
0.2122681696
 40
0.3259353524
 40
0.4471667223
 40
0.5762815267
 40
0.7125628926
 40
0.8544936372
 40
1.0
 40
1.0
 40
1.0
 40
1.0
 10
3.6193762988
 20
-6.2421323424
 30
0.0
 10
3.6193762988
 20
-6.2486974638
 30
0.0
 10
3.6202453026
 20
-6.2618993477
 30
0.0
 10
3.6241366575
 20
-6.2814829643
 30
0.0
 10
3.6305806833
 20
-6.3007184267
 30
0.0
 10
3.6426485281
 20
-6.326006225
 30
0.0
 10
3.6641185103
 20
-6.3559698183
 30
0.0
 10
3.698125863
 20
-6.3872744985
 30
0.0
 10
3.739539066
 20
-6.413540576
 30
0.0
 10
3.7869532605
 20
-6.4339428381
 30
0.0
 10
3.8387765354
 20
-6.4478459081
 30
0.0
 10
3.8748958738
 20
-6.4524541962
 30
0.0
 10
3.8932295759
 20
-6.4535890974
 30
0.0
  0
SPLINE
  5
6B7
100
AcDbEntity
  8
RACCORDO
100
AcDbSpline
 62
250
  6
CONTINUOUS
 70
0
 71
3
 72
17
 73
13
 74
0
 42
0.0000001
 43
0.0000001
 44
0.0000000001
 40
0.0
 40
0.0
 40
0.0
 40
0.0
 40
0.052004877
 40
0.1044494522
 40
0.1577484358
 40
0.2122681695
 40
0.3259353524
 40
0.4471667223
 40
0.5762815267
 40
0.7125628926
 40
0.8544936372
 40
1.0
 40
1.0
 40
1.0
 40
1.0
 10
3.6193762988
 20
-11.0179408385
 30
0.0
 10
3.6193762988
 20
-11.0113757171
 30
0.0
 10
3.6202453026
 20
-10.9981738332
 30
0.0
 10
3.6241366575
 20
-10.9785902166
 30
0.0
 10
3.6305806833
 20
-10.9593547541
 30
0.0
 10
3.6426485281
 20
-10.9340669559
 30
0.0
 10
3.6641185103
 20
-10.9041033626
 30
0.0
 10
3.698125863
 20
-10.8727986824
 30
0.0
 10
3.739539066
 20
-10.8465326049
 30
0.0
 10
3.7869532605
 20
-10.8261303427
 30
0.0
 10
3.8387765354
 20
-10.8122272728
 30
0.0
 10
3.8748958738
 20
-10.8076189846
 30
0.0
 10
3.8932295759
 20
-10.8064840835
 30
0.0
  0
SPLINE
  5
6B8
100
AcDbEntity
  8
ASSI
100
AcDbSpline
 62
250
  6
CONTINUOUS
 70
0
 71
3
 72
17
 73
13
 74
0
 42
0.0000001
 43
0.0000001
 44
0.0000000001
 40
0.0
 40
0.0
 40
0.0
 40
0.0
 40
0.052004877
 40
0.1044494522
 40
0.1577484358
 40
0.2122681696
 40
0.3259353524
 40
0.4471667223
 40
0.5762815267
 40
0.7125628926
 40
0.8544936372
 40
1.0
 40
1.0
 40
1.0
 40
1.0
 10
3.6193762988
 20
-6.2421323424
 30
0.0
 10
3.6193762988
 20
-6.2486974638
 30
0.0
 10
3.6202453026
 20
-6.2618993477
 30
0.0
 10
3.6241366575
 20
-6.2814829643
 30
0.0
 10
3.6305806833
 20
-6.3007184267
 30
0.0
 10
3.6426485281
 20
-6.326006225
 30
0.0
 10
3.6641185103
 20
-6.3559698183
 30
0.0
 10
3.698125863
 20
-6.3872744985
 30
0.0
 10
3.739539066
 20
-6.413540576
 30
0.0
 10
3.7869532605
 20
-6.4339428381
 30
0.0
 10
3.8387765354
 20
-6.4478459081
 30
0.0
 10
3.8748958738
 20
-6.4524541962
 30
0.0
 10
3.8932295759
 20
-6.4535890974
 30
0.0
  0
SPLINE
  5
6B9
100
AcDbEntity
  8
ASSI
100
AcDbSpline
 62
250
  6
CONTINUOUS
 70
0
 71
3
 72
17
 73
13
 74
0
 42
0.0000001
 43
0.0000001
 44
0.0000000001
 40
0.0
 40
0.0
 40
0.0
 40
0.0
 40
0.052004877
 40
0.1044494522
 40
0.1577484358
 40
0.2122681695
 40
0.3259353524
 40
0.4471667223
 40
0.5762815267
 40
0.7125628926
 40
0.8544936372
 40
1.0
 40
1.0
 40
1.0
 40
1.0
 10
3.6193762988
 20
-11.0179408385
 30
0.0
 10
3.6193762988
 20
-11.0113757171
 30
0.0
 10
3.6202453026
 20
-10.9981738332
 30
0.0
 10
3.6241366575
 20
-10.9785902166
 30
0.0
 10
3.6305806833
 20
-10.9593547541
 30
0.0
 10
3.6426485281
 20
-10.9340669559
 30
0.0
 10
3.6641185103
 20
-10.9041033626
 30
0.0
 10
3.698125863
 20
-10.8727986824
 30
0.0
 10
3.739539066
 20
-10.8465326049
 30
0.0
 10
3.7869532605
 20
-10.8261303427
 30
0.0
 10
3.8387765354
 20
-10.8122272728
 30
0.0
 10
3.8748958738
 20
-10.8076189846
 30
0.0
 10
3.8932295759
 20
-10.8064840835
 30
0.0
  0
SPLINE
  5
6BA
100
AcDbEntity
  8
ASSI
100
AcDbSpline
 62
250
  6
CONTINUOUS
 70
0
 71
3
 72
43
 73
39
 74
0
 42
0.0000001
 43
0.0000001
 44
0.0000000001
 40
0.0
 40
0.0
 40
0.0
 40
0.0
 40
0.0251197506
 40
0.0513798843
 40
0.0787568596
 40
0.1071845446
 40
0.1365767032
 40
0.1668407284
 40
0.1978853898
 40
0.2296247435
 40
0.2619796798
 40
0.294878082
 40
0.3282538015
 40
0.3620444202
 40
0.3961875514
 40
0.4306151742
 40
0.4479139096
 40
0.4652528841
 40
0.4826194268
 40
0.4999999997
 40
0.5173805727
 40
0.5347471154
 40
0.5520860899
 40
0.5693848253
 40
0.603812448
 40
0.6379555792
 40
0.671746198
 40
0.7051219176
 40
0.73802032
 40
0.7703752564
 40
0.8021146102
 40
0.8331592716
 40
0.8634232968
 40
0.8928154554
 40
0.9212431404
 40
0.9486201157
 40
0.9748802494
 40
1.0
 40
1.0
 40
1.0
 40
1.0
 10
3.8932295759
 20
-6.4535890974
 30
0.0
 10
3.8932295696
 20
-6.4912117919
 30
0.0
 10
3.8892142005
 20
-6.5681907033
 30
0.0
 10
3.8735902723
 20
-6.6851967976
 30
0.0
 10
3.8496984242
 20
-6.8058292238
 30
0.0
 10
3.8188866949
 20
-6.9296926672
 30
0.0
 10
3.7824070793
 20
-7.0564968427
 30
0.0
 10
3.7414382214
 20
-7.1860282428
 30
0.0
 10
3.6971171856
 20
-7.3181578366
 30
0.0
 10
3.6505803254
 20
-7.4528375088
 30
0.0
 10
3.6030119742
 20
-7.5900977792
 30
0.0
 10
3.5557078239
 20
-7.7300424748
 30
0.0
 10
3.5101441748
 20
-7.8728309751
 30
0.0
 10
3.4680579176
 20
-8.0186424348
 30
0.0
 10
3.4314959648
 20
-8.1675829154
 30
0.0
 10
3.4076081221
 20
-8.2940459617
 30
0.0
 10
3.393562675
 20
-8.3965489785
 30
0.0
 10
3.3858149225
 20
-8.4740702639
 30
0.0
 10
3.3810774489
 20
-8.5519578434
 30
0.0
 10
3.379482717
 20
-8.6300365892
 30
0.0
 10
3.3810774489
 20
-8.708115335
 30
0.0
 10
3.3858149223
 20
-8.7860029146
 30
0.0
 10
3.3935626747
 20
-8.8635242
 30
0.0
 10
3.4076081218
 20
-8.9660272168
 30
0.0
 10
3.4314959643
 20
-9.0924902631
 30
0.0
 10
3.468057917
 20
-9.2414307437
 30
0.0
 10
3.5101441741
 20
-9.3872422037
 30
0.0
 10
3.5557078234
 20
-9.5300307044
 30
0.0
 10
3.6030119739
 20
-9.6699754006
 30
0.0
 10
3.6505803252
 20
-9.8072356715
 30
0.0
 10
3.6971171855
 20
-9.941915344
 30
0.0
 10
3.7414382214
 20
-10.074044938
 30
0.0
 10
3.7824070793
 20
-10.2035763383
 30
0.0
 10
3.8188866949
 20
-10.3303805138
 30
0.0
 10
3.8496984242
 20
-10.4542439572
 30
0.0
 10
3.8735902723
 20
-10.5748763834
 30
0.0
 10
3.8892142006
 20
-10.6918824776
 30
0.0
 10
3.8932295694
 20
-10.768861389
 30
0.0
 10
3.8932295759
 20
-10.8064840835
 30
0.0
  0
SPLINE
  5
6BB
100
AcDbEntity
  8
ASSI
100
AcDbSpline
 62
250
  6
CONTINUOUS
 70
0
 71
3
 72
35
 73
31
 74
0
 42
0.0000001
 43
0.0000001
 44
0.0000000001
 40
0.0
 40
0.0
 40
0.0
 40
0.0
 40
0.000523185
 40
0.0009558815
 40
0.0015241425
 40
0.0022338716
 40
0.0030879715
 40
0.005234773
 40
0.007971034
 40
0.0112985263
 40
0.0197252623
 40
0.0305029934
 40
0.0436093316
 40
0.0590146604
 40
0.0766830643
 40
0.0965727763
 40
0.1186364473
 40
0.1428213485
 40
0.1690695427
 40
0.1973180518
 40
0.227499036
 40
0.2933637995
 40
0.366030787
 40
0.4448011457
 40
0.528917133
 40
0.6175694422
 40
0.7099050163
 40
0.8050353122
 40
0.9020448732
 40
1.0
 40
1.0
 40
1.0
 40
1.0
 10
2.6368287052
 20
-15.5393581914
 30
0.0
 10
2.6370031477
 20
-15.5393551465
 30
0.0
 10
2.6372637383
 20
-15.5390746296
 30
0.0
 10
2.6374829876
 20
-15.5386359658
 30
0.0
 10
2.6376874583
 20
-15.5380956073
 30
0.0
 10
2.6378837883
 20
-15.5374142232
 30
0.0
 10
2.6381683786
 20
-15.5362085443
 30
0.0
 10
2.6385008225
 20
-15.5343239092
 30
0.0
 10
2.6388706017
 20
-15.5316104344
 30
0.0
 10
2.6393921177
 20
-15.5268060788
 30
0.0
 10
2.6399833391
 20
-15.5193142611
 30
0.0
 10
2.6406122361
 20
-15.5085575258
 30
0.0
 10
2.6411948763
 20
-15.4954680931
 30
0.0
 10
2.6417293589
 20
-15.480077328
 30
0.0
 10
2.642212351
 20
-15.4624218233
 30
0.0
 10
2.6426421483
 20
-15.4425440179
 30
0.0
 10
2.6430171571
 20
-15.4204916848
 30
0.0
 10
2.6433361872
 20
-15.3963178906
 30
0.0
 10
2.6435982398
 20
-15.3700808218
 30
0.0
 10
2.6438025779
 20
-15.3418436477
 30
0.0
 10
2.6440029574
 20
-15.3003950862
 30
0.0
 10
2.644092723
 20
-15.2441335446
 30
0.0
 10
2.6439645467
 20
-15.1716687571
 30
0.0
 10
2.6436029487
 20
-15.0931183753
 30
0.0
 10
2.6430109494
 20
-15.0092385663
 30
0.0
 10
2.6421937442
 20
-14.9208367961
 30
0.0
 10
2.6411589198
 20
-14.8287640762
 30
0.0
 10
2.6399162311
 20
-14.7339067511
 30
0.0
 10
2.6384775141
 20
-14.6371780116
 30
0.0
 10
2.6373986245
 20
-14.572171099
 30
0.0
 10
2.6368287052
 20
-14.5395104963
 30
0.0
  0
SPLINE
  5
6BC
100
AcDbEntity
  8
ASSI
100
AcDbSpline
 62
250
  6
CONTINUOUS
 70
0
 71
3
 72
35
 73
31
 74
0
 42
0.0000001
 43
0.0000001
 44
0.0000000001
 40
0.0
 40
0.0
 40
0.0
 40
0.0
 40
0.0979551268
 40
0.1949646878
 40
0.2900949837
 40
0.3824305578
 40
0.471082867
 40
0.5551988542
 40
0.6339692129
 40
0.7066362004
 40
0.772500964
 40
0.8026819482
 40
0.8309304572
 40
0.8571786515
 40
0.8813635526
 40
0.9034272236
 40
0.9233169357
 40
0.9409853396
 40
0.9563906684
 40
0.9694970066
 40
0.9802747377
 40
0.9887014737
 40
0.992028966
 40
0.994765227
 40
0.9969120285
 40
0.9977661284
 40
0.9984758575
 40
0.9990441185
 40
0.999476815
 40
1.0
 40
1.0
 40
1.0
 40
1.0
 10
2.6368287052
 20
15.2794373154
 30
0.0
 10
2.6373986245
 20
15.3120979182
 30
0.0
 10
2.6384775141
 20
15.3771048307
 30
0.0
 10
2.6399162311
 20
15.4738335702
 30
0.0
 10
2.6411589198
 20
15.5686908953
 30
0.0
 10
2.6421937442
 20
15.6607636152
 30
0.0
 10
2.6430109494
 20
15.7491653854
 30
0.0
 10
2.6436029487
 20
15.8330451944
 30
0.0
 10
2.6439645467
 20
15.9115955762
 30
0.0
 10
2.644092723
 20
15.9840603637
 30
0.0
 10
2.6440029574
 20
16.0403219053
 30
0.0
 10
2.6438025779
 20
16.0817704668
 30
0.0
 10
2.6435982398
 20
16.1100076409
 30
0.0
 10
2.6433361872
 20
16.1362447097
 30
0.0
 10
2.6430171571
 20
16.1604185039
 30
0.0
 10
2.6426421483
 20
16.182470837
 30
0.0
 10
2.642212351
 20
16.2023486424
 30
0.0
 10
2.6417293589
 20
16.2200041472
 30
0.0
 10
2.6411948763
 20
16.2353949122
 30
0.0
 10
2.6406122361
 20
16.2484843449
 30
0.0
 10
2.6399833391
 20
16.2592410802
 30
0.0
 10
2.6393921177
 20
16.2667328979
 30
0.0
 10
2.6388706017
 20
16.2715372535
 30
0.0
 10
2.6385008225
 20
16.2742507283
 30
0.0
 10
2.6381683786
 20
16.2761353635
 30
0.0
 10
2.6378837883
 20
16.2773410423
 30
0.0
 10
2.6376874583
 20
16.2780224265
 30
0.0
 10
2.6374829876
 20
16.2785627849
 30
0.0
 10
2.6372637383
 20
16.2790014487
 30
0.0
 10
2.6370031477
 20
16.2792819657
 30
0.0
 10
2.6368287052
 20
16.2792850106
 30
0.0
  0
SPLINE
  5
6BD
100
AcDbEntity
  8
ASSI
100
AcDbSpline
 62
250
  6
CONTINUOUS
 70
0
 71
3
 72
39
 73
35
 74
0
 42
0.0000001
 43
0.0000001
 44
0.0000000001
 40
0.0
 40
0.0
 40
0.0
 40
0.0
 40
0.026972512
 40
0.0548464136
 40
0.0835502463
 40
0.1130012743
 40
0.143116218
 40
0.1738164428
 40
0.20503002
 40
0.2366921891
 40
0.2687448752
 40
0.301135789
 40
0.3338171555
 40
0.3667441243
 40
0.3998727964
 40
0.4331579905
 40
0.4665512502
 40
0.4999999936
 40
0.533448737
 40
0.5668419969
 40
0.6001271912
 40
0.6332558636
 40
0.6661828328
 40
0.6988641998
 40
0.7312551143
 40
0.7633078011
 40
0.794969971
 40
0.8261835492
 40
0.856883775
 40
0.8869987198
 40
0.9164497491
 40
0.9451535832
 40
0.9730274863
 40
1.0
 40
1.0
 40
1.0
 40
1.0
 10
3.6193762988
 20
-6.2421321057
 30
0.0
 10
3.6193762957
 20
-6.2857578417
 30
0.0
 10
3.6159543772
 20
-6.3744827507
 30
0.0
 10
3.6028268752
 20
-6.5090313723
 30
0.0
 10
3.5830598487
 20
-6.6468024085
 30
0.0
 10
3.5579140394
 20
-6.7873600991
 30
0.0
 10
3.5285102596
 20
-6.930378157
 30
0.0
 10
3.4958707916
 20
-7.0756095437
 30
0.0
 10
3.4609599284
 20
-7.2228811102
 30
0.0
 10
3.4247245158
 20
-7.3720826676
 30
0.0
 10
3.3881362006
 20
-7.5231582885
 30
0.0
 10
3.3522338803
 20
-7.6760946672
 30
0.0
 10
3.3181656759
 20
-7.8309037683
 30
0.0
 10
3.2872182808
 20
-7.9875927722
 30
0.0
 10
3.2608173817
 20
-8.1461158946
 30
0.0
 10
3.2404606238
 20
-8.3063062741
 30
0.0
 10
3.2275495223
 20
-8.4678056774
 30
0.0
 10
3.2231171512
 20
-8.6300364439
 30
0.0
 10
3.2275495064
 20
-8.792267211
 30
0.0
 10
3.2404605933
 20
-8.9537666161
 30
0.0
 10
3.260817339
 20
-9.1139569983
 30
0.0
 10
3.2872182286
 20
-9.2724801241
 30
0.0
 10
3.3181656168
 20
-9.4291691314
 30
0.0
 10
3.3522338169
 20
-9.5839782362
 30
0.0
 10
3.388136135
 20
-9.7369146186
 30
0.0
 10
3.42472445
 20
-9.8879902432
 30
0.0
 10
3.4609598642
 20
-10.0371918043
 30
0.0
 10
3.4958707306
 20
-10.1844633745
 30
0.0
 10
3.5285102036
 20
-10.3296947651
 30
0.0
 10
3.5579139902
 20
-10.4727128272
 30
0.0
 10
3.5830598081
 20
-10.6132705225
 30
0.0
 10
3.6028268452
 20
-10.7510415641
 30
0.0
 10
3.6159543606
 20
-10.8855901919
 30
0.0
 10
3.6193762896
 20
-10.9743151056
 30
0.0
 10
3.6193762988
 20
-11.0179408443
 30
0.0
  0
SPLINE
  5
6BE
100
AcDbEntity
  8
0
100
AcDbSpline
 62
7
  6
CONTINUOUS
 70
0
 71
3
 72
15
 73
11
 74
0
 42
0.0000001
 43
0.0000001
 44
0.0000000001
 40
0.0
 40
0.0
 40
0.0
 40
0.0
 40
0.1247743866
 40
0.250098219
 40
0.3757652956
 40
0.5012228238
 40
0.6260158466
 40
0.7505859986
 40
0.8753149595
 40
1.0
 40
1.0
 40
1.0
 40
1.0
 10
-24.175719235
 20
10.9126073379
 30
0.0
 10
-24.1343023613
 20
10.8773350024
 30
0.0
 10
-24.0469986972
 20
10.8115411406
 30
0.0
 10
-23.9061559804
 20
10.7273459957
 30
0.0
 10
-23.7576355645
 20
10.6569526607
 30
0.0
 10
-23.6038052286
 20
10.5998677889
 30
0.0
 10
-23.4463285253
 20
10.5555775699
 30
0.0
 10
-23.2861545784
 20
10.5239851875
 30
0.0
 10
-23.1240981737
 20
10.5047265295
 30
0.0
 10
-23.0153142714
 20
10.5003409963
 30
0.0
 10
-22.960955465
 20
10.5003409963
 30
0.0
  0
SPLINE
  5
6BF
100
AcDbEntity
  8
0
100
AcDbSpline
 62
7
  6
CONTINUOUS
 70
0
 71
3
 72
11
 73
7
 74
0
 42
0.0000001
 43
0.0000001
 44
0.0000000001
 40
0.0
 40
0.0
 40
0.0
 40
0.0
 40
0.2500197177
 40
0.500021903
 40
0.7500041932
 40
1.0
 40
1.0
 40
1.0
 40
1.0
 10
-24.6834031584
 20
12.0869313588
 30
0.0
 10
-24.6834031584
 20
11.9770392155
 30
0.0
 10
-24.6642901201
 20
11.7566480984
 30
0.0
 10
-24.5714536478
 20
11.4378653845
 30
0.0
 10
-24.4103447184
 20
11.1469558406
 30
0.0
 10
-24.2593691152
 20
10.9838431365
 30
0.0
 10
-24.175719235
 20
10.9126073379
 30
0.0
  0
SPLINE
  5
6C0
100
AcDbEntity
  8
0
100
AcDbSpline
 62
7
  6
CONTINUOUS
 70
0
 71
3
 72
11
 73
7
 74
0
 42
0.0000001
 43
0.0000001
 44
0.0000000001
 40
0.0
 40
0.0
 40
0.0
 40
0.0
 40
0.2499958468
 40
0.4999780875
 40
0.7499802347
 40
1.0
 40
1.0
 40
1.0
 40
1.0
 10
-24.175719235
 20
13.2610807546
 30
0.0
 10
-24.2593576295
 20
13.1898519152
 30
0.0
 10
-24.4103252714
 20
13.0267719286
 30
0.0
 10
-24.5714492311
 20
12.7359157897
 30
0.0
 10
-24.6642931816
 20
12.4171752386
 30
0.0
 10
-24.6834031584
 20
12.1968102461
 30
0.0
 10
-24.6834031584
 20
12.0869313588
 30
0.0
  0
SPLINE
  5
6C1
100
AcDbEntity
  8
0
100
AcDbSpline
 62
7
  6
CONTINUOUS
 70
0
 71
3
 72
15
 73
11
 74
0
 42
0.0000001
 43
0.0000001
 44
0.0000000001
 40
0.0
 40
0.0
 40
0.0
 40
0.0
 40
0.1246850282
 40
0.2494139457
 40
0.3739841114
 40
0.4987771094
 40
0.6242345737
 40
0.7499016467
 40
0.8752255518
 40
1.0
 40
1.0
 40
1.0
 40
1.0
 10
-22.960955465
 20
13.6733296338
 30
0.0
 10
-23.0153140669
 20
13.6733296338
 30
0.0
 10
-23.1240975351
 20
13.6689451157
 30
0.0
 10
-23.2861536849
 20
13.6496897436
 30
0.0
 10
-23.4463277537
 20
13.618101222
 30
0.0
 10
-23.6038048227
 20
13.5738145439
 30
0.0
 10
-23.7576353418
 20
13.5167319047
 30
0.0
 10
-23.90615576
 20
13.4463399314
 30
0.0
 10
-24.0469984511
 20
13.3621457934
 30
0.0
 10
-24.1343022231
 20
13.2963526618
 30
0.0
 10
-24.175719235
 20
13.2610807546
 30
0.0
  0
SPLINE
  5
6C2
100
AcDbEntity
  8
0
100
AcDbSpline
 62
250
  6
CONTINUOUS
 70
0
 71
3
 72
39
 73
35
 74
0
 42
0.0000001
 43
0.0000001
 44
0.0000000001
 40
0.0
 40
0.0
 40
0.0
 40
0.0
 40
0.03125
 40
0.0625
 40
0.09375
 40
0.125
 40
0.15625
 40
0.1875
 40
0.21875
 40
0.25
 40
0.28125
 40
0.3125
 40
0.34375
 40
0.375
 40
0.40625
 40
0.4375
 40
0.46875
 40
0.5
 40
0.53125
 40
0.5625
 40
0.59375
 40
0.625
 40
0.65625
 40
0.6875
 40
0.71875
 40
0.75
 40
0.78125
 40
0.8125
 40
0.84375
 40
0.875
 40
0.90625
 40
0.9375
 40
0.96875
 40
1.0
 40
1.0
 40
1.0
 40
1.0
 10
-23.7224944132
 20
-4.1421015906
 30
0.0
 10
-23.7101486416
 20
-4.1419110916
 30
0.0
 10
-23.686330677
 20
-4.1420735399
 30
0.0
 10
-23.6533798903
 20
-4.1437638827
 30
0.0
 10
-23.6227494838
 20
-4.1467341392
 30
0.0
 10
-23.5941670678
 20
-4.1508511775
 30
0.0
 10
-23.5673118685
 20
-4.1560232027
 30
0.0
 10
-23.5421597765
 20
-4.1621367646
 30
0.0
 10
-23.5185525241
 20
-4.169115564
 30
0.0
 10
-23.4963606593
 20
-4.1768971839
 30
0.0
 10
-23.4753814567
 20
-4.1854729833
 30
0.0
 10
-23.4554339779
 20
-4.1948531239
 30
0.0
 10
-23.4364306519
 20
-4.205016096
 30
0.0
 10
-23.4184634485
 20
-4.2158572235
 30
0.0
 10
-23.401416354
 20
-4.227392213
 30
0.0
 10
-23.3851939739
 20
-4.2396732528
 30
0.0
 10
-23.3696556015
 20
-4.2527895486
 30
0.0
 10
-23.3546783792
 20
-4.2668406345
 30
0.0
 10
-23.3403346987
 20
-4.2817891729
 30
0.0
 10
-23.3266896871
 20
-4.2975860008
 30
0.0
 10
-23.3136804364
 20
-4.3143588309
 30
0.0
 10
-23.3012415048
 20
-4.3322430771
 30
0.0
 10
-23.2893711134
 20
-4.3513190468
 30
0.0
 10
-23.2780689723
 20
-4.3717108467
 30
0.0
 10
-23.2674132758
 20
-4.3934404828
 30
0.0
 10
-23.2574204664
 20
-4.4166562109
 30
0.0
 10
-23.2481067444
 20
-4.4415554612
 30
0.0
 10
-23.2395221561
 20
-4.4683376931
 30
0.0
 10
-23.2317712201
 20
-4.4970725628
 30
0.0
 10
-23.22494883
 20
-4.5279530842
 30
0.0
 10
-23.2191801703
 20
-4.5610951695
 30
0.0
 10
-23.2145650126
 20
-4.5967633538
 30
0.0
 10
-23.211262202
 20
-4.6351603777
 30
0.0
 10
-23.2100573318
 20
-4.662808902
 30
0.0
 10
-23.2097375149
 20
-4.6771275237
 30
0.0
  0
SPLINE
  5
6C3
100
AcDbEntity
  8
0
100
AcDbSpline
 62
250
  6
CONTINUOUS
 70
0
 71
3
 72
35
 73
31
 74
0
 42
0.0000001
 43
0.0000001
 44
0.0000000001
 40
0.0
 40
0.0
 40
0.0
 40
0.0
 40
0.0357142857
 40
0.0714285714
 40
0.1071428571
 40
0.1428571429
 40
0.1785714286
 40
0.2142857143
 40
0.25
 40
0.2857142857
 40
0.3214285714
 40
0.3571428571
 40
0.3928571429
 40
0.4285714286
 40
0.4642857143
 40
0.5
 40
0.5357142857
 40
0.5714285714
 40
0.6071428571
 40
0.6428571429
 40
0.6785714286
 40
0.7142857143
 40
0.75
 40
0.7857142857
 40
0.8214285714
 40
0.8571428571
 40
0.8928571429
 40
0.9285714286
 40
0.9642857143
 40
1.0
 40
1.0
 40
1.0
 40
1.0
 10
-24.1349664248
 20
-4.5311663722
 30
0.0
 10
-24.1340126025
 20
-4.522950833
 30
0.0
 10
-24.1317081617
 20
-4.5066439426
 30
0.0
 10
-24.127066034
 20
-4.4824883973
 30
0.0
 10
-24.1212874352
 20
-4.4588335508
 30
0.0
 10
-24.1144276034
 20
-4.435802919
 30
0.0
 10
-24.1065589653
 20
-4.4135284576
 30
0.0
 10
-24.0977211779
 20
-4.3920208457
 30
0.0
 10
-24.0879421698
 20
-4.3712896468
 30
0.0
 10
-24.077239541
 20
-4.3513165607
 30
0.0
 10
-24.0656309314
 20
-4.3320789391
 30
0.0
 10
-24.0531786441
 20
-4.3136479292
 30
0.0
 10
-24.0399508991
 20
-4.2960861944
 30
0.0
 10
-24.026010829
 20
-4.2794413441
 30
0.0
 10
-24.0114238106
 20
-4.263752098
 30
0.0
 10
-23.9961682739
 20
-4.2489744691
 30
0.0
 10
-23.9802172313
 20
-4.2350670395
 30
0.0
 10
-23.9635855227
 20
-4.2220239631
 30
0.0
 10
-23.9462769374
 20
-4.2098511
 30
0.0
 10
-23.9284218573
 20
-4.1986418847
 30
0.0
 10
-23.9101633615
 20
-4.1884675831
 30
0.0
 10
-23.8914805245
 20
-4.1793003572
 30
0.0
 10
-23.8723406322
 20
-4.1711327772
 30
0.0
 10
-23.8526258321
 20
-4.1639300593
 30
0.0
 10
-23.8322214881
 20
-4.1576600826
 30
0.0
 10
-23.8111718711
 20
-4.1523682425
 30
0.0
 10
-23.7895287218
 20
-4.1480991235
 30
0.0
 10
-23.767437618
 20
-4.1449093201
 30
0.0
 10
-23.7450327734
 20
-4.1428380396
 30
0.0
 10
-23.7300265811
 20
-4.1422193974
 30
0.0
 10
-23.7224944132
 20
-4.1421015906
 30
0.0
  0
SPLINE
  5
6C4
100
AcDbEntity
  8
0
100
AcDbSpline
 62
250
  6
CONTINUOUS
 70
0
 71
3
 72
15
 73
11
 74
0
 42
0.0000001
 43
0.0000001
 44
0.0000000001
 40
0.0
 40
0.0
 40
0.0
 40
0.0
 40
0.125
 40
0.25
 40
0.375
 40
0.5
 40
0.625
 40
0.75
 40
0.875
 40
1.0
 40
1.0
 40
1.0
 40
1.0
 10
-24.1155428777
 20
-5.0707450858
 30
0.0
 10
-24.1206074392
 20
-5.0410643165
 30
0.0
 10
-24.1293198857
 20
-4.9848730364
 30
0.0
 10
-24.1382663859
 20
-4.9113309486
 30
0.0
 10
-24.1440122676
 20
-4.8450534682
 30
0.0
 10
-24.1470591249
 20
-4.7838241938
 30
0.0
 10
-24.1477491003
 20
-4.725060483
 30
0.0
 10
-24.1462878219
 20
-4.6656213998
 30
0.0
 10
-24.1424178029
 20
-4.6027585281
 30
0.0
 10
-24.1378165509
 20
-4.555721051
 30
0.0
 10
-24.1349664248
 20
-4.5311663722
 30
0.0
  0
SPLINE
  5
6C5
100
AcDbEntity
  8
0
100
AcDbSpline
 62
250
  6
CONTINUOUS
 70
0
 71
3
 72
11
 73
7
 74
0
 42
0.0000001
 43
0.0000001
 44
0.0000000001
 40
0.0
 40
0.0
 40
0.0
 40
0.0
 40
0.25
 40
0.5
 40
0.75
 40
1.0
 40
1.0
 40
1.0
 40
1.0
 10
-21.3780599146
 20
-3.3306674486
 30
0.0
 10
-21.442031394
 20
-3.3480419213
 30
0.0
 10
-21.5758985945
 20
-3.3830587129
 30
0.0
 10
-21.7950789674
 20
-3.4404123891
 30
0.0
 10
-22.0278927741
 20
-3.501396223
 30
0.0
 10
-22.1890114498
 20
-3.5437546716
 30
0.0
 10
-22.2711224408
 20
-3.5661253768
 30
0.0
  0
SPLINE
  5
6C6
100
AcDbEntity
  8
0
100
AcDbSpline
 62
250
  6
CONTINUOUS
 70
0
 71
3
 72
29
 73
25
 74
0
 42
0.0000001
 43
0.0000001
 44
0.0000000001
 40
0.0
 40
0.0
 40
0.0
 40
0.0
 40
0.0454545455
 40
0.0909090909
 40
0.1363636364
 40
0.1818181818
 40
0.2272727273
 40
0.2727272727
 40
0.3181818182
 40
0.3636363636
 40
0.4090909091
 40
0.4545454545
 40
0.5
 40
0.5454545455
 40
0.5909090909
 40
0.6363636364
 40
0.6818181818
 40
0.7272727273
 40
0.7727272727
 40
0.8181818182
 40
0.8636363636
 40
0.9090909091
 40
0.9545454545
 40
1.0
 40
1.0
 40
1.0
 40
1.0
 10
-22.3786076488
 20
-4.2943475586
 30
0.0
 10
-22.3703152207
 20
-4.2912322082
 30
0.0
 10
-22.3536181071
 20
-4.2852176206
 30
0.0
 10
-22.3282435938
 20
-4.2766495482
 30
0.0
 10
-22.3027786705
 20
-4.2684181937
 30
0.0
 10
-22.2774268746
 20
-4.2603587349
 30
0.0
 10
-22.2522315535
 20
-4.2523944164
 30
0.0
 10
-22.2263892835
 20
-4.2442885907
 30
0.0
 10
-22.1991801489
 20
-4.2358147605
 30
0.0
 10
-22.1698814572
 20
-4.2267574691
 30
0.0
 10
-22.1376876552
 20
-4.2168815007
 30
0.0
 10
-22.1024168398
 20
-4.2061443182
 30
0.0
 10
-22.064083404
 20
-4.1945570374
 30
0.0
 10
-22.0226475698
 20
-4.1821097863
 30
0.0
 10
-21.9781112197
 20
-4.1687952423
 30
0.0
 10
-21.9301755452
 20
-4.1545179565
 30
0.0
 10
-21.878494699
 20
-4.1391860914
 30
0.0
 10
-21.8227440022
 20
-4.1227118378
 30
0.0
 10
-21.7625534192
 20
-4.1049950046
 30
0.0
 10
-21.697464805
 20
-4.0859102486
 30
0.0
 10
-21.6270394375
 20
-4.065336898
 30
0.0
 10
-21.5508178981
 20
-4.0431507111
 30
0.0
 10
-21.4684054017
 20
-4.0192303687
 30
0.0
 10
-21.4089148666
 20
-4.002042157
 30
0.0
 10
-21.3780599146
 20
-3.9931712344
 30
0.0
  0
SPLINE
  5
6C7
100
AcDbEntity
  8
0
100
AcDbSpline
 62
250
  6
CONTINUOUS
 70
0
 71
3
 72
31
 73
27
 74
0
 42
0.0000001
 43
0.0000001
 44
0.0000000001
 40
0.0
 40
0.0
 40
0.0
 40
0.0
 40
0.0416666667
 40
0.0833333333
 40
0.125
 40
0.1666666667
 40
0.2083333333
 40
0.25
 40
0.2916666667
 40
0.3333333333
 40
0.375
 40
0.4166666667
 40
0.4583333333
 40
0.5
 40
0.5416666667
 40
0.5833333333
 40
0.625
 40
0.6666666667
 40
0.7083333333
 40
0.75
 40
0.7916666667
 40
0.8333333333
 40
0.875
 40
0.9166666667
 40
0.9583333333
 40
1.0
 40
1.0
 40
1.0
 40
1.0
 10
-22.66934227
 20
-4.678612126
 30
0.0
 10
-22.66934227
 20
-4.6717975412
 30
0.0
 10
-22.668994356
 20
-4.658154929
 30
0.0
 10
-22.667419322
 20
-4.6375816012
 30
0.0
 10
-22.6647967749
 20
-4.6171061095
 30
0.0
 10
-22.6611474823
 20
-4.5968607591
 30
0.0
 10
-22.6565072339
 20
-4.5769933333
 30
0.0
 10
-22.6509278386
 20
-4.5576454906
 30
0.0
 10
-22.6444783666
 20
-4.5389498076
 30
0.0
 10
-22.6371905434
 20
-4.5209079755
 30
0.0
 10
-22.6290852586
 20
-4.503517265
 30
0.0
 10
-22.6200979192
 20
-4.486642683
 30
0.0
 10
-22.6101665578
 20
-4.4701423344
 30
0.0
 10
-22.5992579642
 20
-4.4539803475
 30
0.0
 10
-22.5873247988
 20
-4.4381347049
 30
0.0
 10
-22.5744316642
 20
-4.4227395766
 30
0.0
 10
-22.560667139
 20
-4.4079169759
 30
0.0
 10
-22.5459632052
 20
-4.3936163731
 30
0.0
 10
-22.5302324229
 20
-4.3798169976
 30
0.0
 10
-22.5132860966
 20
-4.3664049615
 30
0.0
 10
-22.494922447
 20
-4.3533013438
 30
0.0
 10
-22.475045346
 20
-4.3405422365
 30
0.0
 10
-22.4535723657
 20
-4.3281809469
 30
0.0
 10
-22.4304307817
 20
-4.3162856183
 30
0.0
 10
-22.4055685014
 20
-4.3049399075
 30
0.0
 10
-22.3877969718
 20
-4.2977962
 30
0.0
 10
-22.3786076488
 20
-4.2943475586
 30
0.0
  0
SPLINE
  5
6C8
100
AcDbEntity
  8
0
100
AcDbSpline
 62
250
  6
CONTINUOUS
 70
0
 71
3
 72
23
 73
19
 74
0
 42
0.0000001
 43
0.0000001
 44
0.0000000001
 40
0.0
 40
0.0
 40
0.0
 40
0.0
 40
0.0625
 40
0.125
 40
0.1875
 40
0.25
 40
0.3125
 40
0.375
 40
0.4375
 40
0.5
 40
0.5625
 40
0.625
 40
0.6875
 40
0.75
 40
0.8125
 40
0.875
 40
0.9375
 40
1.0
 40
1.0
 40
1.0
 40
1.0
 10
-24.6043729353
 20
-4.0341462585
 30
0.0
 10
-24.6112850378
 20
-4.0532786693
 30
0.0
 10
-24.6241781528
 20
-4.0910403919
 30
0.0
 10
-24.6401359256
 20
-4.1448617892
 30
0.0
 10
-24.6542075567
 20
-4.1998953489
 30
0.0
 10
-24.6671264121
 20
-4.2588206344
 30
0.0
 10
-24.6792475969
 20
-4.3248275024
 30
0.0
 10
-24.6901867457
 20
-4.3981891376
 30
0.0
 10
-24.6995698167
 20
-4.4791374415
 30
0.0
 10
-24.7071031279
 20
-4.5686234916
 30
0.0
 10
-24.7124314441
 20
-4.6675493322
 30
0.0
 10
-24.7150907231
 20
-4.7775625945
 30
0.0
 10
-24.7145504885
 20
-4.900241216
 30
0.0
 10
-24.7101542641
 20
-5.0358287604
 30
0.0
 10
-24.7014569081
 20
-5.1844698392
 30
0.0
 10
-24.6875767432
 20
-5.3484084571
 30
0.0
 10
-24.6675845851
 20
-5.5295002977
 30
0.0
 10
-24.649446838
 20
-5.6636473843
 30
0.0
 10
-24.6391126296
 20
-5.7338921992
 30
0.0
  0
SPLINE
  5
6C9
100
AcDbEntity
  8
0
100
AcDbSpline
 62
250
  6
CONTINUOUS
 70
0
 71
3
 72
75
 73
71
 74
0
 42
0.0000001
 43
0.0000001
 44
0.0000000001
 40
0.0
 40
0.0
 40
0.0
 40
0.0
 40
0.0147058824
 40
0.0294117647
 40
0.0441176471
 40
0.0588235294
 40
0.0735294118
 40
0.0882352941
 40
0.1029411765
 40
0.1176470588
 40
0.1323529412
 40
0.1470588235
 40
0.1617647059
 40
0.1764705882
 40
0.1911764706
 40
0.2058823529
 40
0.2205882353
 40
0.2352941176
 40
0.25
 40
0.2647058824
 40
0.2794117647
 40
0.2941176471
 40
0.3088235294
 40
0.3235294118
 40
0.3382352941
 40
0.3529411765
 40
0.3676470588
 40
0.3823529412
 40
0.3970588235
 40
0.4117647059
 40
0.4264705882
 40
0.4411764706
 40
0.4558823529
 40
0.4705882353
 40
0.4852941176
 40
0.5
 40
0.5147058824
 40
0.5294117647
 40
0.5441176471
 40
0.5588235294
 40
0.5735294118
 40
0.5882352941
 40
0.6029411765
 40
0.6176470588
 40
0.6323529412
 40
0.6470588235
 40
0.6617647059
 40
0.6764705882
 40
0.6911764706
 40
0.7058823529
 40
0.7205882353
 40
0.7352941176
 40
0.75
 40
0.7647058824
 40
0.7794117647
 40
0.7941176471
 40
0.8088235294
 40
0.8235294118
 40
0.8382352941
 40
0.8529411765
 40
0.8676470588
 40
0.8823529412
 40
0.8970588235
 40
0.9117647059
 40
0.9264705882
 40
0.9411764706
 40
0.9558823529
 40
0.9705882353
 40
0.9852941176
 40
1.0
 40
1.0
 40
1.0
 40
1.0
 10
-22.9377831131
 20
-3.9631327808
 30
0.0
 10
-22.9379197607
 20
-3.962073762
 30
0.0
 10
-22.9383144301
 20
-3.9598326654
 30
0.0
 10
-22.9393301183
 20
-3.9560934037
 30
0.0
 10
-22.9407682789
 20
-3.9520243326
 30
0.0
 10
-22.9425706487
 20
-3.947599028
 30
0.0
 10
-22.9446433307
 20
-3.9427846909
 30
0.0
 10
-22.9470512614
 20
-3.9375292478
 30
0.0
 10
-22.9498419293
 20
-3.9317875105
 30
0.0
 10
-22.9530661768
 20
-3.925518693
 30
0.0
 10
-22.9567734931
 20
-3.9186778313
 30
0.0
 10
-22.9610267799
 20
-3.9112164929
 30
0.0
 10
-22.9658914306
 20
-3.903082636
 30
0.0
 10
-22.9714326242
 20
-3.8942138494
 30
0.0
 10
-22.9777272336
 20
-3.8845370699
 30
0.0
 10
-22.9848987467
 20
-3.8739692478
 30
0.0
 10
-22.9930825454
 20
-3.8624227492
 30
0.0
 10
-23.0024303692
 20
-3.8498061747
 30
0.0
 10
-23.0131353147
 20
-3.8360144524
 30
0.0
 10
-23.0254334526
 20
-3.8209224471
 30
0.0
 10
-23.0396045738
 20
-3.8043966748
 30
0.0
 10
-23.0559672881
 20
-3.7863417537
 30
0.0
 10
-23.074962831
 20
-3.7665880436
 30
0.0
 10
-23.0973906545
 20
-3.7447604137
 30
0.0
 10
-23.1234598739
 20
-3.7212327344
 30
0.0
 10
-23.1525766029
 20
-3.6970440544
 30
0.0
 10
-23.1840203421
 20
-3.67314106
 30
0.0
 10
-23.2163528928
 20
-3.6507258687
 30
0.0
 10
-23.2492317196
 20
-3.6299589258
 30
0.0
 10
-23.283000015
 20
-3.6105966995
 30
0.0
 10
-23.3176999575
 20
-3.5926424365
 30
0.0
 10
-23.353199875
 20
-3.5761688454
 30
0.0
 10
-23.3895409079
 20
-3.561165837
 30
0.0
 10
-23.4267218071
 20
-3.5476467752
 30
0.0
 10
-23.4647944476
 20
-3.5356241076
 30
0.0
 10
-23.5037430834
 20
-3.5251260231
 30
0.0
 10
-23.5436640433
 20
-3.5161657528
 30
0.0
 10
-23.5846246424
 20
-3.5087737586
 30
0.0
 10
-23.6266028718
 20
-3.503005958
 30
0.0
 10
-23.6695170627
 20
-3.4989186945
 30
0.0
 10
-23.713949422
 20
-3.4965177158
 30
0.0
 10
-23.7604473826
 20
-3.4959398194
 30
0.0
 10
-23.8074830555
 20
-3.497299983
 30
0.0
 10
-23.8536951495
 20
-3.5004584574
 30
0.0
 10
-23.8980814103
 20
-3.5054107378
 30
0.0
 10
-23.9400428246
 20
-3.5118799057
 30
0.0
 10
-23.980524001
 20
-3.5198517069
 30
0.0
 10
-24.0200904437
 20
-3.5293937682
 30
0.0
 10
-24.0585021095
 20
-3.5404116294
 30
0.0
 10
-24.0957804456
 20
-3.5528548888
 30
0.0
 10
-24.1320139438
 20
-3.5667068625
 30
0.0
 10
-24.1673117326
 20
-3.5819798717
 30
0.0
 10
-24.2016310912
 20
-3.5986290547
 30
0.0
 10
-24.2350408467
 20
-3.6166650265
 30
0.0
 10
-24.2675424619
 20
-3.6360781066
 30
0.0
 10
-24.2991845042
 20
-3.6568997731
 30
0.0
 10
-24.3299165264
 20
-3.679092297
 30
0.0
 10
-24.3597382146
 20
-3.7026564432
 30
0.0
 10
-24.3885487196
 20
-3.7275237183
 30
0.0
 10
-24.4163180137
 20
-3.7536773309
 30
0.0
 10
-24.4429679074
 20
-3.7810475176
 30
0.0
 10
-24.4684004358
 20
-3.8095316933
 30
0.0
 10
-24.4924599186
 20
-3.8389406856
 30
0.0
 10
-24.5149596705
 20
-3.86902909
 30
0.0
 10
-24.5357206266
 20
-3.8994747616
 30
0.0
 10
-24.5543990027
 20
-3.9296346862
 30
0.0
 10
-24.5706389729
 20
-3.9586851235
 30
0.0
 10
-24.5844681668
 20
-3.9861335181
 30
0.0
 10
-24.595842151
 20
-4.0116213222
 30
0.0
 10
-24.6017638838
 20
-4.0269140312
 30
0.0
 10
-24.6043729353
 20
-4.0341462585
 30
0.0
  0
SPLINE
  5
6CA
100
AcDbEntity
  8
0
100
AcDbSpline
 62
7
  6
CONTINUOUS
 70
0
 71
3
 72
15
 73
11
 74
0
 42
0.0000001
 43
0.0000001
 44
0.0000000001
 40
0.0
 40
0.0
 40
0.0
 40
0.0
 40
0.1247745128
 40
0.2500983222
 40
0.3757651797
 40
0.501222508
 40
0.626015575
 40
0.7505858596
 40
0.8753148937
 40
1.0
 40
1.0
 40
1.0
 40
1.0
 10
-21.7461975141
 20
13.2610807546
 30
0.0
 10
-21.7876157397
 20
13.296350689
 30
0.0
 10
-21.8749208988
 20
13.3621405252
 30
0.0
 10
-22.015763715
 20
13.446331848
 30
0.0
 10
-22.164283014
 20
13.5167228907
 30
0.0
 10
-22.3181118371
 20
13.5738063029
 30
0.0
 10
-22.4755870677
 20
13.6180952553
 30
0.0
 10
-22.6357595464
 20
13.6496866095
 30
0.0
 10
-22.797814415
 20
13.6689443787
 30
0.0
 10
-22.9065972116
 20
13.6733296338
 30
0.0
 10
-22.960955465
 20
13.6733296338
 30
0.0
  0
SPLINE
  5
6CB
100
AcDbEntity
  8
0
100
AcDbSpline
 62
7
  6
CONTINUOUS
 70
0
 71
3
 72
11
 73
7
 74
0
 42
0.0000001
 43
0.0000001
 44
0.0000000001
 40
0.0
 40
0.0
 40
0.0
 40
0.0
 40
0.2500197582
 40
0.5000219157
 40
0.7500041642
 40
1.0
 40
1.0
 40
1.0
 40
1.0
 10
-21.2385077716
 20
12.0869313588
 30
0.0
 10
-21.2385077716
 20
12.1968106202
 30
0.0
 10
-21.2576186758
 20
12.4171763016
 30
0.0
 10
-21.3504620702
 20
12.7359179898
 30
0.0
 10
-21.511584665
 20
13.0267763045
 30
0.0
 10
-21.6625558398
 20
13.1898551933
 30
0.0
 10
-21.7461975141
 20
13.2610807546
 30
0.0
  0
SPLINE
  5
6CC
100
AcDbEntity
  8
0
100
AcDbSpline
 62
250
  6
CONTINUOUS
 70
0
 71
3
 72
29
 73
25
 74
0
 42
0.0000001
 43
0.0000001
 44
0.0000000001
 40
0.0
 40
0.0
 40
0.0
 40
0.0
 40
0.0454545455
 40
0.0909090909
 40
0.1363636364
 40
0.1818181818
 40
0.2272727273
 40
0.2727272727
 40
0.3181818182
 40
0.3636363636
 40
0.4090909091
 40
0.4545454545
 40
0.5
 40
0.5454545455
 40
0.5909090909
 40
0.6363636364
 40
0.6818181818
 40
0.7272727273
 40
0.7727272727
 40
0.8181818182
 40
0.8636363636
 40
0.9090909091
 40
0.9545454545
 40
1.0
 40
1.0
 40
1.0
 40
1.0
 10
-22.2711224408
 20
-3.5661253768
 30
0.0
 10
-22.2971115764
 20
-3.5732056
 30
0.0
 10
-22.3468695609
 20
-3.5866619762
 30
0.0
 10
-22.4144806336
 20
-3.6058975107
 30
0.0
 10
-22.4750533885
 20
-3.6247965571
 30
0.0
 10
-22.5285730379
 20
-3.6434616764
 30
0.0
 10
-22.5751798158
 20
-3.6616868928
 30
0.0
 10
-22.6159489304
 20
-3.6794999344
 30
0.0
 10
-22.651993367
 20
-3.6969974021
 30
0.0
 10
-22.6840665118
 20
-3.7142255216
 30
0.0
 10
-22.7129003999
 20
-3.7313476329
 30
0.0
 10
-22.7389023302
 20
-3.7483819332
 30
0.0
 10
-22.762482527
 20
-3.7653948292
 30
0.0
 10
-22.7839243766
 20
-3.782420092
 30
0.0
 10
-22.8035096342
 20
-3.7995334316
 30
0.0
 10
-22.8214049914
 20
-3.8167538985
 30
0.0
 10
-22.837780516
 20
-3.8341141325
 30
0.0
 10
-22.8527456046
 20
-3.8516237085
 30
0.0
 10
-22.866404895
 20
-3.8693118992
 30
0.0
 10
-22.8788930691
 20
-3.8873012388
 30
0.0
 10
-22.8903422924
 20
-3.9057183796
 30
0.0
 10
-22.9007552257
 20
-3.9245152515
 30
0.0
 10
-22.9101314855
 20
-3.9436544026
 30
0.0
 10
-22.9156828592
 20
-3.9566061934
 30
0.0
 10
-22.9182853359
 20
-3.9631327808
 30
0.0
  0
SPLINE
  5
6CD
100
AcDbEntity
  8
0
100
AcDbSpline
 62
7
  6
CONTINUOUS
 70
0
 71
3
 72
11
 73
7
 74
0
 42
0.0000001
 43
0.0000001
 44
0.0000000001
 40
0.0
 40
0.0
 40
0.0
 40
0.0
 40
0.2499958048
 40
0.4999781115
 40
0.7499802926
 40
1.0
 40
1.0
 40
1.0
 40
1.0
 10
-21.7461975141
 20
10.9126073379
 30
0.0
 10
-21.6625510848
 20
10.983846795
 30
0.0
 10
-21.5115812405
 20
11.1469630509
 30
0.0
 10
-21.3504702473
 20
11.4378696394
 30
0.0
 10
-21.2576247535
 20
11.7566487995
 30
0.0
 10
-21.2385077716
 20
11.9770394752
 30
0.0
 10
-21.2385077716
 20
12.0869313588
 30
0.0
  0
SPLINE
  5
6CE
100
AcDbEntity
  8
0
100
AcDbSpline
 62
7
  6
CONTINUOUS
 70
0
 71
3
 72
15
 73
11
 74
0
 42
0.0000001
 43
0.0000001
 44
0.0000000001
 40
0.0
 40
0.0
 40
0.0
 40
0.0
 40
0.1246850065
 40
0.2494139271
 40
0.3739839988
 40
0.4987770082
 40
0.624234673
 40
0.7499018759
 40
0.8752257005
 40
1.0
 40
1.0
 40
1.0
 40
1.0
 10
-22.960955465
 20
10.5003409963
 30
0.0
 10
-22.9065968858
 20
10.5003409963
 30
0.0
 10
-22.7978134402
 20
10.5047266896
 30
0.0
 10
-22.6357577867
 20
10.5239856672
 30
0.0
 10
-22.4755845614
 20
10.5555780741
 30
0.0
 10
-22.3181084285
 20
10.5998679861
 30
0.0
 10
-22.1642783827
 20
10.6569520853
 30
0.0
 10
-22.0157582029
 20
10.7273447131
 30
0.0
 10
-21.8749161353
 20
10.8115397903
 30
0.0
 10
-21.7876135441
 20
10.8773343978
 30
0.0
 10
-21.7461975141
 20
10.9126073379
 30
0.0
  0
SPLINE
  5
6CF
100
AcDbEntity
  8
0
100
AcDbSpline
 62
7
  6
CONTINUOUS
 70
0
 71
3
 72
12
 73
8
 74
0
 42
0.0000001
 43
0.0000001
 44
0.0000000001
 40
0.0
 40
0.0
 40
0.0
 40
0.0
 40
0.2493308264
 40
0.374122108
 40
0.4990459863
 40
0.7496381375
 40
1.0
 40
1.0
 40
1.0
 40
1.0
 10
-23.8788133169
 20
11.4024770296
 30
0.0
 10
-23.9255150529
 20
11.4452718137
 30
0.0
 10
-23.9881042441
 20
11.5183155827
 30
0.0
 10
-24.0531703025
 20
11.6273357741
 30
0.0
 10
-24.1061536242
 20
11.7431460475
 30
0.0
 10
-24.1493383125
 20
11.8973038139
 30
0.0
 10
-24.1606304114
 20
12.0248569829
 30
0.0
 10
-24.1606304114
 20
12.0884680588
 30
0.0
  0
SPLINE
  5
6D0
100
AcDbEntity
  8
0
100
AcDbSpline
 62
7
  6
CONTINUOUS
 70
0
 71
3
 72
14
 73
10
 74
0
 42
0.0000001
 43
0.0000001
 44
0.0000000001
 40
0.0
 40
0.0
 40
0.0
 40
0.0
 40
0.2491840443
 40
0.3736804966
 40
0.4984012322
 40
0.623976418
 40
0.7498728119
 40
0.8752873999
 40
1.0
 40
1.0
 40
1.0
 40
1.0
 10
-22.9606354167
 20
11.0931870504
 30
0.0
 10
-23.0428390415
 20
11.0931870504
 30
0.0
 10
-23.1663652687
 20
11.1019426487
 30
0.0
 10
-23.3282142918
 20
11.1315363221
 30
0.0
 10
-23.4478233559
 20
11.1634409624
 30
0.0
 10
-23.5647353996
 20
11.2055465332
 30
0.0
 10
-23.6774443875
 20
11.2585458607
 30
0.0
 10
-23.7836128331
 20
11.3232006148
 30
0.0
 10
-23.8484795249
 20
11.3746790646
 30
0.0
 10
-23.8788133169
 20
11.4024770296
 30
0.0
  0
SPLINE
  5
6D1
100
AcDbEntity
  8
0
100
AcDbSpline
 62
7
  6
CONTINUOUS
 70
0
 71
3
 72
14
 73
10
 74
0
 42
0.0000001
 43
0.0000001
 44
0.0000000001
 40
0.0
 40
0.0
 40
0.0
 40
0.0
 40
0.1247127201
 40
0.2501271846
 40
0.3760232544
 40
0.5015982547
 40
0.6263191069
 40
0.7508157371
 40
1.0
 40
1.0
 40
1.0
 40
1.0
 10
-22.0424749737
 20
11.4024770296
 30
0.0
 10
-22.0728095174
 20
11.3746810589
 30
0.0
 10
-22.1376765324
 20
11.3232058967
 30
0.0
 10
-22.243843392
 20
11.2585537394
 30
0.0
 10
-22.3565496042
 20
11.2055550566
 30
0.0
 10
-22.4734584359
 20
11.1634484812
 30
0.0
 10
-22.5930643197
 20
11.1315415414
 30
0.0
 10
-22.7549094895
 20
11.1019443826
 30
0.0
 10
-22.8784333828
 20
11.0931870504
 30
0.0
 10
-22.9606354167
 20
11.0931870504
 30
0.0
  0
SPLINE
  5
6D2
100
AcDbEntity
  8
0
100
AcDbSpline
 62
7
  6
CONTINUOUS
 70
0
 71
3
 72
12
 73
8
 74
0
 42
0.0000001
 43
0.0000001
 44
0.0000000001
 40
0.0
 40
0.0
 40
0.0
 40
0.0
 40
0.2503619237
 40
0.5009539645
 40
0.6258778453
 40
0.7506691581
 40
1.0
 40
1.0
 40
1.0
 40
1.0
 10
-21.7606578792
 20
12.0884680588
 30
0.0
 10
-21.7606578792
 20
12.0248568796
 30
0.0
 10
-21.7719492733
 20
11.8973035524
 30
0.0
 10
-21.8151328572
 20
11.7431452171
 30
0.0
 10
-21.8681159506
 20
11.6273346452
 30
0.0
 10
-21.9331823319
 20
11.5183144043
 30
0.0
 10
-21.9957725109
 20
11.4452711556
 30
0.0
 10
-22.0424749737
 20
11.4024770296
 30
0.0
  0
SPLINE
  5
6D3
100
AcDbEntity
  8
0
100
AcDbSpline
 62
7
  6
CONTINUOUS
 70
0
 71
3
 72
11
 73
7
 74
0
 42
0.0000001
 43
0.0000001
 44
0.0000000001
 40
0.0
 40
0.0
 40
0.0
 40
0.0
 40
0.2499867524
 40
0.4999726726
 40
0.7499803859
 40
1.0
 40
1.0
 40
1.0
 40
1.0
 10
-22.0424749737
 20
12.7711994213
 30
0.0
 10
-21.9958502884
 20
12.7284713899
 30
0.0
 10
-21.9123783593
 20
12.6316383999
 30
0.0
 10
-21.8235243912
 20
12.4623399504
 30
0.0
 10
-21.7716454153
 20
12.2785538775
 30
0.0
 10
-21.7606578792
 20
12.1517235725
 30
0.0
 10
-21.7606578792
 20
12.0884680588
 30
0.0
  0
SPLINE
  5
6D4
100
AcDbEntity
  8
0
100
AcDbSpline
 62
7
  6
CONTINUOUS
 70
0
 71
3
 72
14
 73
10
 74
0
 42
0.0000001
 43
0.0000001
 44
0.0000000001
 40
0.0
 40
0.0
 40
0.0
 40
0.0
 40
0.2491839833
 40
0.373680349
 40
0.4984010697
 40
0.6239764147
 40
0.7498729524
 40
0.8752875128
 40
1.0
 40
1.0
 40
1.0
 40
1.0
 10
-22.9606354167
 20
13.0804835796
 30
0.0
 10
-22.8784333911
 20
13.0804835796
 30
0.0
 10
-22.7549096002
 20
13.0717275404
 30
0.0
 10
-22.5930638588
 20
13.0421338633
 30
0.0
 10
-22.4734571159
 20
13.0102297319
 30
0.0
 10
-22.3565470322
 20
12.9681255418
 30
0.0
 10
-22.2438397228
 20
12.9151280484
 30
0.0
 10
-22.1376730165
 20
12.8504749792
 30
0.0
 10
-22.0728078153
 20
12.7989971984
 30
0.0
 10
-22.0424749737
 20
12.7711994213
 30
0.0
  0
SPLINE
  5
6D5
100
AcDbEntity
  8
0
100
AcDbSpline
 62
7
  6
CONTINUOUS
 70
0
 71
3
 72
14
 73
10
 74
0
 42
0.0000001
 43
0.0000001
 44
0.0000000001
 40
0.0
 40
0.0
 40
0.0
 40
0.0
 40
0.1247125745
 40
0.2501271556
 40
0.376023582
 40
0.5015987949
 40
0.6263195216
 40
0.7508159568
 40
1.0
 40
1.0
 40
1.0
 40
1.0
 10
-23.8788133169
 20
12.7711994213
 30
0.0
 10
-23.8484794814
 20
12.7989971841
 30
0.0
 10
-23.7836126167
 20
12.8504751102
 30
0.0
 10
-23.6774438624
 20
12.9151288107
 30
0.0
 10
-23.564734636
 20
12.9681269876
 30
0.0
 10
-23.447822509
 20
13.0102315026
 30
0.0
 10
-23.3282135317
 20
13.0421353216
 30
0.0
 10
-23.1663647696
 20
13.0717282092
 30
0.0
 10
-23.0428388494
 20
13.0804835796
 30
0.0
 10
-22.9606354167
 20
13.0804835796
 30
0.0
  0
SPLINE
  5
6D6
100
AcDbEntity
  8
0
100
AcDbSpline
 62
7
  6
CONTINUOUS
 70
0
 71
3
 72
11
 73
7
 74
0
 42
0.0000001
 43
0.0000001
 44
0.0000000001
 40
0.0
 40
0.0
 40
0.0
 40
0.0
 40
0.2500196171
 40
0.5000273385
 40
0.7500132584
 40
1.0
 40
1.0
 40
1.0
 40
1.0
 10
-24.1606304114
 20
12.0884680588
 30
0.0
 10
-24.1606304114
 20
12.1517236124
 30
0.0
 10
-24.1496428513
 20
12.2785539798
 30
0.0
 10
-24.0977644918
 20
12.4623403047
 30
0.0
 10
-24.0089112863
 20
12.631639313
 30
0.0
 10
-23.9254387371
 20
12.7284721383
 30
0.0
 10
-23.8788133169
 20
12.7711994213
 30
0.0
  0
SPLINE
  5
6D7
100
AcDbEntity
  8
0
100
AcDbSpline
 62
7
  6
CONTINUOUS
 70
0
 71
3
 72
12
 73
8
 74
0
 42
0.0000001
 43
0.0000001
 44
0.0000000001
 40
0.0
 40
0.0
 40
0.0
 40
0.0
 40
0.0452981494
 40
0.1240924844
 40
0.2888392398
 40
0.5713501021
 40
1.0
 40
1.0
 40
1.0
 40
1.0
 10
23.4236586661
 20
-0.8519989018
 30
0.0
 10
23.4236755037
 20
-0.8522730638
 30
0.0
 10
23.4243991579
 20
-0.8527833826
 30
0.0
 10
23.425707976
 20
-0.853788203
 30
0.0
 10
23.4284835587
 20
-0.855506551
 30
0.0
 10
23.4331219496
 20
-0.858005317
 30
0.0
 10
23.4373900339
 20
-0.8592172752
 30
0.0
 10
23.4399839595
 20
-0.8593834717
 30
0.0
  0
SPLINE
  5
6D8
100
AcDbEntity
  8
0
100
AcDbSpline
 62
7
  6
CONTINUOUS
 70
0
 71
3
 72
9
 73
5
 74
0
 42
0.0000001
 43
0.0000001
 44
0.0000000001
 40
0.0
 40
0.0
 40
0.0
 40
0.0
 40
0.2632029849
 40
1.0
 40
1.0
 40
1.0
 40
1.0
 10
23.4399839595
 20
-0.8593834717
 30
0.0
 10
23.4411201825
 20
-0.8594562711
 30
0.0
 10
23.445478779
 20
-0.8593373158
 30
0.0
 10
23.4496063571
 20
-0.8578500795
 30
0.0
 10
23.452700118
 20
-0.8570839664
 30
0.0
  0
SPLINE
  5
6D9
100
AcDbEntity
  8
0
100
AcDbSpline
 62
7
  6
CONTINUOUS
 70
0
 71
3
 72
9
 73
5
 74
0
 42
0.0000001
 43
0.0000001
 44
0.0000000001
 40
0.0
 40
0.0
 40
0.0
 40
0.0
 40
0.2364052014
 40
1.0
 40
1.0
 40
1.0
 40
1.0
 10
23.452700118
 20
-0.8570839664
 30
0.0
 10
23.4539828526
 20
-0.8567663206
 30
0.0
 10
23.4594693119
 20
-0.8556639189
 30
0.0
 10
23.4650862557
 20
-0.8553617997
 30
0.0
 10
23.4693546393
 20
-0.855346485
 30
0.0
  0
SPLINE
  5
6DA
100
AcDbEntity
  8
0
100
AcDbSpline
 62
7
  6
CONTINUOUS
 70
0
 71
3
 72
9
 73
5
 74
0
 42
0.0000001
 43
0.0000001
 44
0.0000000001
 40
0.0
 40
0.0
 40
0.0
 40
0.0
 40
0.2445620099
 40
1.0
 40
1.0
 40
1.0
 40
1.0
 10
23.4693546393
 20
-0.855346485
 30
0.0
 10
23.4730140795
 20
-0.8553333551
 30
0.0
 10
23.4879772525
 20
-0.8559486987
 30
0.0
 10
23.5028386366
 20
-0.857915178
 30
0.0
 10
23.5141322245
 20
-0.8583972738
 30
0.0
  0
SPLINE
  5
6DB
100
AcDbEntity
  8
0
100
AcDbSpline
 62
7
  6
CONTINUOUS
 70
0
 71
3
 72
13
 73
9
 74
0
 42
0.0000001
 43
0.0000001
 44
0.0000000001
 40
0.0
 40
0.0
 40
0.0
 40
0.0
 40
0.3767154712
 40
0.703244153
 40
0.8264801267
 40
0.9124225274
 40
0.9699481683
 40
1.0
 40
1.0
 40
1.0
 40
1.0
 10
22.7041322245
 20
-1.0143453157
 30
0.0
 10
22.7041322245
 20
-1.0110964009
 30
0.0
 10
22.7041455797
 20
-1.0050469502
 30
0.0
 10
22.7041132674
 20
-0.9978691606
 30
0.0
 10
22.704233935
 20
-0.9933223433
 30
0.0
 10
22.7042015643
 20
-0.990898748
 30
0.0
 10
22.7045255696
 20
-0.9896580787
 30
0.0
 10
22.7043270328
 20
-0.9885570195
 30
0.0
 10
22.7045787956
 20
-0.9884954726
 30
0.0
  0
LINE
  5
6DC
100
AcDbEntity
  8
0
100
AcDbLine
 62
7
  6
CONTINUOUS
 10
20.904106533
 20
-0.3100365904
 30
0.0
 11
20.9041248088
 21
-0.3200366055
 31
0.0
  0
LINE
  5
6DD
100
AcDbEntity
  8
0
100
AcDbLine
 62
7
  6
CONTINUOUS
 10
20.9041248088
 20
-0.3200366055
 30
0.0
 11
20.9041322245
 21
-0.3316419945
 31
0.0
  0
SPLINE
  5
6DE
100
AcDbEntity
  8
0
100
AcDbSpline
 62
7
  6
CONTINUOUS
 70
0
 71
3
 72
15
 73
11
 74
0
 42
0.0000001
 43
0.0000001
 44
0.0000000001
 40
0.0
 40
0.0
 40
0.0
 40
0.0
 40
0.2424172403
 40
0.4348321307
 40
0.5960938428
 40
0.7358635083
 40
0.8429592151
 40
0.8842215317
 40
0.9179377806
 40
1.0
 40
1.0
 40
1.0
 40
1.0
 10
23.2197911337
 20
-0.8281421306
 30
0.0
 10
23.1833662484
 20
-0.8300742551
 30
0.0
 10
23.1180508914
 20
-0.8339150298
 30
0.0
 10
23.0286555032
 20
-0.8416321757
 30
0.0
 10
22.9550876996
 20
-0.8516819279
 30
0.0
 10
22.894672661
 20
-0.8633907947
 30
0.0
 10
22.8532137056
 20
-0.8758819216
 30
0.0
 10
22.8278335208
 20
-0.8870437776
 30
0.0
 10
22.8077581334
 20
-0.8975601267
 30
0.0
 10
22.7903911562
 20
-0.9132082239
 30
0.0
 10
22.7925228554
 20
-0.9253705822
 30
0.0
  0
SPLINE
  5
6DF
100
AcDbEntity
  8
0
100
AcDbSpline
 62
7
  6
CONTINUOUS
 70
0
 71
3
 72
9
 73
5
 74
0
 42
0.0000001
 43
0.0000001
 44
0.0000000001
 40
0.0
 40
0.0
 40
0.0
 40
0.0
 40
0.3783167614
 40
1.0
 40
1.0
 40
1.0
 40
1.0
 10
22.7965405431
 20
-0.9331057275
 30
0.0
 10
22.8020746438
 20
-0.9389310663
 30
0.0
 10
22.8237246425
 20
-0.9461999279
 30
0.0
 10
22.8447725205
 20
-0.9457783099
 30
0.0
 10
22.8579487569
 20
-0.944925952
 30
0.0
  0
SPLINE
  5
6E0
100
AcDbEntity
  8
0
100
AcDbSpline
 62
7
  6
CONTINUOUS
 70
0
 71
3
 72
9
 73
5
 74
0
 42
0.0000001
 43
0.0000001
 44
0.0000000001
 40
0.0
 40
0.0
 40
0.0
 40
0.0
 40
0.2171809161
 40
1.0
 40
1.0
 40
1.0
 40
1.0
 10
22.8579487569
 20
-0.944925952
 30
0.0
 10
22.8645914292
 20
-0.944496244
 30
0.0
 10
22.895107907
 20
-0.9413733849
 30
0.0
 10
22.925104499
 20
-0.9345848957
 30
0.0
 10
22.9484114289
 20
-0.9288871923
 30
0.0
  0
SPLINE
  5
6E1
100
AcDbEntity
  8
0
100
AcDbSpline
 62
7
  6
CONTINUOUS
 70
0
 71
3
 72
17
 73
13
 74
0
 42
0.0000001
 43
0.0000001
 44
0.0000000001
 40
0.0
 40
0.0
 40
0.0
 40
0.0
 40
0.1974443421
 40
0.3857586472
 40
0.557776481
 40
0.7073159543
 40
0.8289001819
 40
0.9188471613
 40
0.951105317
 40
0.9748531995
 40
0.9905324577
 40
1.0
 40
1.0
 40
1.0
 40
1.0
 10
20.9041322245
 20
-0.3316419945
 30
0.0
 10
20.9041322245
 20
-0.3641200721
 30
0.0
 10
20.9037953648
 20
-0.4275748934
 30
0.0
 10
20.9022626765
 20
-0.5193147077
 30
0.0
 10
20.8997113582
 20
-0.6031477735
 30
0.0
 10
20.8961871901
 20
-0.6759654785
 30
0.0
 10
20.8917006354
 20
-0.7351892945
 30
0.0
 10
20.8869180885
 20
-0.7750485718
 30
0.0
 10
20.8822325331
 20
-0.798606374
 30
0.0
 10
20.8787135702
 20
-0.8099128594
 30
0.0
 10
20.8754556383
 20
-0.8172344191
 30
0.0
 10
20.8716901647
 20
-0.8200365904
 30
0.0
 10
20.8701328267
 20
-0.8200365904
 30
0.0
  0
LINE
  5
6E2
100
AcDbEntity
  8
0
100
AcDbLine
 62
7
  6
CONTINUOUS
 10
25.3389669269
 20
8.5766035721
 30
0.0
 11
25.3422079334
 21
8.5768382195
 31
0.0
  0
LINE
  5
6E3
100
AcDbEntity
  8
0
100
AcDbLine
 62
7
  6
CONTINUOUS
 10
25.3313859663
 20
8.5761479611
 30
0.0
 11
25.33894333
 21
8.5766481858
 31
0.0
  0
LINE
  5
6E4
100
AcDbEntity
  8
0
100
AcDbLine
 62
7
  6
CONTINUOUS
 10
25.33894333
 20
8.5766481858
 30
0.0
 11
25.3427016378
 21
8.5769041863
 31
0.0
  0
SPLINE
  5
6E5
100
AcDbEntity
  8
0
100
AcDbSpline
 62
7
  6
CONTINUOUS
 70
0
 71
3
 72
12
 73
8
 74
0
 42
0.0000001
 43
0.0000001
 44
0.0000000001
 40
0.0
 40
0.0
 40
0.0
 40
0.0
 40
0.2534429224
 40
0.5045911699
 40
0.6293316825
 40
0.7534425334
 40
1.0
 40
1.0
 40
1.0
 40
1.0
 10
25.4555740174
 20
8.5868439743
 30
0.0
 10
25.6360076162
 20
8.6062353884
 30
0.0
 10
25.9926027646
 20
8.678210404
 30
0.0
 10
26.4114839314
 20
8.852972347
 30
0.0
 10
26.7167397497
 20
9.041267071
 30
0.0
 10
26.9977079057
 20
9.2585343212
 30
0.0
 10
27.1805084821
 20
9.4549183048
 30
0.0
 10
27.2852586122
 20
9.5970261465
 30
0.0
  0
SPLINE
  5
6E6
100
AcDbEntity
  8
0
100
AcDbSpline
 62
7
  6
CONTINUOUS
 70
0
 71
3
 72
11
 73
7
 74
0
 42
0.0000001
 43
0.0000001
 44
0.0000000001
 40
0.0
 40
0.0
 40
0.0
 40
0.0
 40
0.2527809846
 40
0.5040238912
 40
0.7530779946
 40
1.0
 40
1.0
 40
1.0
 40
1.0
 10
25.3553052463
 20
11.7621290061
 30
0.0
 10
25.5065393832
 20
11.7510813174
 30
0.0
 10
25.8069338773
 20
11.7057974976
 30
0.0
 10
26.2391751537
 20
11.5677851353
 30
0.0
 10
26.6389806141
 20
11.3604040846
 30
0.0
 10
26.8764992736
 20
11.1781113816
 30
0.0
 10
26.9852829832
 20
11.0775809499
 30
0.0
  0
SPLINE
  5
6E7
100
AcDbEntity
  8
0
100
AcDbSpline
 62
7
  6
CONTINUOUS
 70
0
 71
3
 72
11
 73
7
 74
0
 42
0.0000001
 43
0.0000001
 44
0.0000000001
 40
0.0
 40
0.0
 40
0.0
 40
0.0
 40
0.2473637231
 40
0.4961896069
 40
0.746995784
 40
1.0
 40
1.0
 40
1.0
 40
1.0
 10
25.4737352518
 20
11.750102703
 30
0.0
 10
25.6259475403
 20
11.7311658798
 30
0.0
 10
25.9285839622
 20
11.6661225297
 30
0.0
 10
26.3594110876
 20
11.4895389117
 30
0.0
 10
26.7544505049
 20
11.2365161537
 30
0.0
 10
26.9848456015
 20
11.0225970868
 30
0.0
 10
27.0896639802
 20
10.905868863
 30
0.0
  0
SPLINE
  5
6E8
100
AcDbEntity
  8
0
100
AcDbSpline
 62
250
  6
CONTINUOUS
 70
0
 71
3
 72
11
 73
7
 74
0
 42
0.0000001
 43
0.0000001
 44
0.0000000001
 40
0.0
 40
0.0
 40
0.0
 40
0.0
 40
0.2560500076
 40
0.5090721435
 40
0.7571957706
 40
1.0
 40
1.0
 40
1.0
 40
1.0
 10
25.1541322245
 20
8.2127510192
 30
0.0
 10
25.3528423774
 20
8.2138561874
 30
0.0
 10
25.7488724924
 20
8.2550750267
 30
0.0
 10
26.312923916
 20
8.4342090285
 30
0.0
 10
26.8173029554
 20
8.7242899564
 30
0.0
 10
27.0996479995
 20
8.985995748
 30
0.0
 10
27.2217901827
 20
9.1294826451
 30
0.0
  0
SPLINE
  5
6E9
100
AcDbEntity
  8
0
100
AcDbSpline
 62
250
  6
CONTINUOUS
 70
0
 71
3
 72
9
 73
5
 74
0
 42
0.0000001
 43
0.0000001
 44
0.0000000001
 40
0.0
 40
0.0
 40
0.0
 40
0.0
 40
0.2473389777
 40
1.0
 40
1.0
 40
1.0
 40
1.0
 10
27.3316744114
 20
9.6033925236
 30
0.0
 10
27.3278046802
 20
9.6034091418
 30
0.0
 10
27.3121605472
 20
9.602940989
 30
0.0
 10
27.2965914286
 20
9.6002257611
 30
0.0
 10
27.2852586122
 20
9.5970261465
 30
0.0
  0
LINE
  5
6EA
100
AcDbEntity
  8
0
100
AcDbLine
 62
250
  6
CONTINUOUS
 10
22.9621080588
 20
9.6703905093
 30
0.0
 11
22.9679413767
 21
9.6627509084
 31
0.0
  0
SPLINE
  5
6EB
100
AcDbEntity
  8
0
100
AcDbSpline
 62
250
  6
CONTINUOUS
 70
0
 71
3
 72
9
 73
5
 74
0
 42
0.0000001
 43
0.0000001
 44
0.0000000001
 40
0.0
 40
0.0
 40
0.0
 40
0.0
 40
0.2556319686
 40
1.0
 40
1.0
 40
1.0
 40
1.0
 10
22.9679413767
 20
9.6627509084
 30
0.0
 10
22.9767861426
 20
9.6511782853
 30
0.0
 10
23.0114775274
 20
9.6059777176
 30
0.0
 10
23.0464488463
 20
9.5609931356
 30
0.0
 10
23.0724708445
 20
9.5275009885
 30
0.0
  0
SPLINE
  5
6EC
100
AcDbEntity
  8
0
100
AcDbSpline
 62
250
  6
CONTINUOUS
 70
0
 71
3
 72
9
 73
5
 74
0
 42
0.0000001
 43
0.0000001
 44
0.0000000001
 40
0.0
 40
0.0
 40
0.0
 40
0.0
 40
0.2461246105
 40
1.0
 40
1.0
 40
1.0
 40
1.0
 10
22.9853686258
 20
9.5433352449
 30
0.0
 10
22.9926408849
 20
9.5430709424
 30
0.0
 10
23.0221435544
 20
9.5409766186
 30
0.0
 10
23.0513264595
 20
9.5345534488
 30
0.0
 10
23.0724708445
 20
9.5275009885
 30
0.0
  0
SPLINE
  5
6ED
100
AcDbEntity
  8
0
100
AcDbSpline
 62
250
  6
CONTINUOUS
 70
0
 71
3
 72
11
 73
7
 74
0
 42
0.0000001
 43
0.0000001
 44
0.0000000001
 40
0.0
 40
0.0
 40
0.0
 40
0.0
 40
0.2454934123
 40
0.49282479
 40
0.7440583263
 40
1.0
 40
1.0
 40
1.0
 40
1.0
 10
23.3365035477
 20
11.0993848958
 30
0.0
 10
23.4557416461
 20
11.209156766
 30
0.0
 10
23.7186064736
 20
11.4053155784
 30
0.0
 10
24.1649960704
 20
11.6171975735
 30
0.0
 10
24.6494204134
 20
11.7441868979
 30
0.0
 10
24.9851636582
 20
11.7708012322
 30
0.0
 10
25.1541322245
 20
11.7699634096
 30
0.0
  0
SPLINE
  5
6EE
100
AcDbEntity
  8
0
100
AcDbSpline
 62
250
  6
CONTINUOUS
 70
0
 71
3
 72
13
 73
9
 74
0
 42
0.0000001
 43
0.0000001
 44
0.0000000001
 40
0.0
 40
0.0
 40
0.0
 40
0.0
 40
0.1208924283
 40
0.2432022079
 40
0.3669220127
 40
0.4919956154
 40
0.7450086448
 40
1.0
 40
1.0
 40
1.0
 40
1.0
 10
23.089715365
 20
9.1196428515
 30
0.0
 10
23.1499459269
 20
9.0478059075
 30
0.0
 10
23.2798769683
 20
8.9103897978
 30
0.0
 10
23.4988368905
 20
8.7277472601
 30
0.0
 10
23.7400477197
 20
8.5696027787
 30
0.0
 10
24.0883202171
 20
8.3944345965
 30
0.0
 10
24.561092264
 20
8.2480108078
 30
0.0
 10
24.9564028176
 20
8.2116513057
 30
0.0
 10
25.1541322245
 20
8.2127510192
 30
0.0
  0
SPLINE
  5
6EF
100
AcDbEntity
  8
0
100
AcDbSpline
 62
250
  6
CONTINUOUS
 70
0
 71
3
 72
13
 73
9
 74
0
 42
0.0000001
 43
0.0000001
 44
0.0000000001
 40
0.0
 40
0.0
 40
0.0
 40
0.0
 40
0.1238183401
 40
0.2469663865
 40
0.3701255649
 40
0.4938506601
 40
0.7441534451
 40
1.0
 40
1.0
 40
1.0
 40
1.0
 10
23.0724708445
 20
9.5275009885
 30
0.0
 10
23.1325061018
 20
9.4502313779
 30
0.0
 10
23.2621030101
 20
9.3034852769
 30
0.0
 10
23.4819606659
 20
9.1095029746
 30
0.0
 10
23.7237225928
 20
8.9436895404
 30
0.0
 10
24.0723660407
 20
8.7608062465
 30
0.0
 10
24.5504712054
 20
8.6073842969
 30
0.0
 10
24.9519445506
 20
8.5689608715
 30
0.0
 10
25.1541322245
 20
8.5699634096
 30
0.0
  0
LINE
  5
6F0
100
AcDbEntity
  8
0
100
AcDbLine
 62
7
  6
CONTINUOUS
 10
24.9692975221
 20
-7.836676753
 30
0.0
 11
24.9660565157
 21
-7.8369114004
 31
0.0
  0
LINE
  5
6F1
100
AcDbEntity
  8
0
100
AcDbLine
 62
7
  6
CONTINUOUS
 10
24.9768784827
 20
-7.836221142
 30
0.0
 11
24.9693211191
 21
-7.8367213667
 31
0.0
  0
LINE
  5
6F2
100
AcDbEntity
  8
0
100
AcDbLine
 62
7
  6
CONTINUOUS
 10
24.9693211191
 20
-7.8367213667
 30
0.0
 11
24.9655628113
 21
-7.8369773672
 31
0.0
  0
SPLINE
  5
6F3
100
AcDbEntity
  8
0
100
AcDbSpline
 62
7
  6
CONTINUOUS
 70
0
 71
3
 72
12
 73
8
 74
0
 42
0.0000001
 43
0.0000001
 44
0.0000000001
 40
0.0
 40
0.0
 40
0.0
 40
0.0
 40
0.2534429224
 40
0.5045911699
 40
0.6293316825
 40
0.7534425334
 40
1.0
 40
1.0
 40
1.0
 40
1.0
 10
24.8526904316
 20
-7.8469171552
 30
0.0
 10
24.6722568329
 20
-7.8663085693
 30
0.0
 10
24.3156616845
 20
-7.9382835849
 30
0.0
 10
23.8967805176
 20
-8.1130455278
 30
0.0
 10
23.5915246994
 20
-8.3013402519
 30
0.0
 10
23.3105565433
 20
-8.518607502
 30
0.0
 10
23.127755967
 20
-8.7149914857
 30
0.0
 10
23.0230058369
 20
-8.8570993274
 30
0.0
  0
SPLINE
  5
6F4
100
AcDbEntity
  8
0
100
AcDbSpline
 62
7
  6
CONTINUOUS
 70
0
 71
3
 72
11
 73
7
 74
0
 42
0.0000001
 43
0.0000001
 44
0.0000000001
 40
0.0
 40
0.0
 40
0.0
 40
0.0
 40
0.2527809846
 40
0.5040238912
 40
0.7530779946
 40
1.0
 40
1.0
 40
1.0
 40
1.0
 10
24.9529592028
 20
-11.0222021869
 30
0.0
 10
24.8017250659
 20
-11.0111544983
 30
0.0
 10
24.5013305718
 20
-10.9658706785
 30
0.0
 10
24.0690892954
 20
-10.8278583162
 30
0.0
 10
23.669283835
 20
-10.6204772655
 30
0.0
 10
23.4317651755
 20
-10.4381845624
 30
0.0
 10
23.3229814659
 20
-10.3376541307
 30
0.0
  0
SPLINE
  5
6F5
100
AcDbEntity
  8
0
100
AcDbSpline
 62
7
  6
CONTINUOUS
 70
0
 71
3
 72
11
 73
7
 74
0
 42
0.0000001
 43
0.0000001
 44
0.0000000001
 40
0.0
 40
0.0
 40
0.0
 40
0.0
 40
0.2473637231
 40
0.4961896069
 40
0.746995784
 40
1.0
 40
1.0
 40
1.0
 40
1.0
 10
24.8345291973
 20
-11.0101758838
 30
0.0
 10
24.6823169088
 20
-10.9912390607
 30
0.0
 10
24.3796804869
 20
-10.9261957106
 30
0.0
 10
23.9488533615
 20
-10.7496120925
 30
0.0
 10
23.5538139442
 20
-10.4965893346
 30
0.0
 10
23.3234188475
 20
-10.2826702677
 30
0.0
 10
23.2186004688
 20
-10.1659420439
 30
0.0
  0
SPLINE
  5
6F6
100
AcDbEntity
  8
0
100
AcDbSpline
 62
250
  6
CONTINUOUS
 70
0
 71
3
 72
11
 73
7
 74
0
 42
0.0000001
 43
0.0000001
 44
0.0000000001
 40
0.0
 40
0.0
 40
0.0
 40
0.0
 40
0.2560500076
 40
0.5090721435
 40
0.7571957706
 40
1.0
 40
1.0
 40
1.0
 40
1.0
 10
25.1541322245
 20
-7.4728242001
 30
0.0
 10
24.9554220716
 20
-7.4739293683
 30
0.0
 10
24.5593919566
 20
-7.5151482075
 30
0.0
 10
23.995340533
 20
-7.6942822094
 30
0.0
 10
23.4909614937
 20
-7.9843631373
 30
0.0
 10
23.2086164495
 20
-8.2460689289
 30
0.0
 10
23.0864742664
 20
-8.389555826
 30
0.0
  0
SPLINE
  5
6F7
100
AcDbEntity
  8
0
100
AcDbSpline
 62
250
  6
CONTINUOUS
 70
0
 71
3
 72
9
 73
5
 74
0
 42
0.0000001
 43
0.0000001
 44
0.0000000001
 40
0.0
 40
0.0
 40
0.0
 40
0.0
 40
0.2473389777
 40
1.0
 40
1.0
 40
1.0
 40
1.0
 10
22.9765900376
 20
-8.8634657044
 30
0.0
 10
22.9804597688
 20
-8.8634823227
 30
0.0
 10
22.9961039019
 20
-8.8630141699
 30
0.0
 10
23.0116730204
 20
-8.860298942
 30
0.0
 10
23.0230058369
 20
-8.8570993274
 30
0.0
  0
LINE
  5
6F8
100
AcDbEntity
  8
0
100
AcDbLine
 62
250
  6
CONTINUOUS
 10
27.3461563902
 20
-8.9304636902
 30
0.0
 11
27.3403230724
 21
-8.9228240892
 31
0.0
  0
SPLINE
  5
6F9
100
AcDbEntity
  8
0
100
AcDbSpline
 62
250
  6
CONTINUOUS
 70
0
 71
3
 72
9
 73
5
 74
0
 42
0.0000001
 43
0.0000001
 44
0.0000000001
 40
0.0
 40
0.0
 40
0.0
 40
0.0
 40
0.2556319686
 40
1.0
 40
1.0
 40
1.0
 40
1.0
 10
27.3403230724
 20
-8.9228240892
 30
0.0
 10
27.3314783065
 20
-8.9112514662
 30
0.0
 10
27.2967869216
 20
-8.8660508985
 30
0.0
 10
27.2618156027
 20
-8.8210663164
 30
0.0
 10
27.2357936046
 20
-8.7875741694
 30
0.0
  0
SPLINE
  5
6FA
100
AcDbEntity
  8
0
100
AcDbSpline
 62
250
  6
CONTINUOUS
 70
0
 71
3
 72
9
 73
5
 74
0
 42
0.0000001
 43
0.0000001
 44
0.0000000001
 40
0.0
 40
0.0
 40
0.0
 40
0.0
 40
0.2461246105
 40
1.0
 40
1.0
 40
1.0
 40
1.0
 10
27.3228958232
 20
-8.8034084258
 30
0.0
 10
27.3156235642
 20
-8.8031441232
 30
0.0
 10
27.2861208947
 20
-8.8010497995
 30
0.0
 10
27.2569379895
 20
-8.7946266296
 30
0.0
 10
27.2357936046
 20
-8.7875741694
 30
0.0
  0
SPLINE
  5
6FB
100
AcDbEntity
  8
0
100
AcDbSpline
 62
250
  6
CONTINUOUS
 70
0
 71
3
 72
11
 73
7
 74
0
 42
0.0000001
 43
0.0000001
 44
0.0000000001
 40
0.0
 40
0.0
 40
0.0
 40
0.0
 40
0.2454934123
 40
0.49282479
 40
0.7440583263
 40
1.0
 40
1.0
 40
1.0
 40
1.0
 10
26.9717609014
 20
-10.3594580766
 30
0.0
 10
26.8525228029
 20
-10.4692299469
 30
0.0
 10
26.5896579754
 20
-10.6653887593
 30
0.0
 10
26.1432683787
 20
-10.8772707544
 30
0.0
 10
25.6588440357
 20
-11.0042600788
 30
0.0
 10
25.3231007908
 20
-11.0308744131
 30
0.0
 10
25.1541322245
 20
-11.0300365904
 30
0.0
  0
SPLINE
  5
6FC
100
AcDbEntity
  8
0
100
AcDbSpline
 62
250
  6
CONTINUOUS
 70
0
 71
3
 72
13
 73
9
 74
0
 42
0.0000001
 43
0.0000001
 44
0.0000000001
 40
0.0
 40
0.0
 40
0.0
 40
0.0
 40
0.1208924283
 40
0.2432022079
 40
0.3669220127
 40
0.4919956154
 40
0.7450086448
 40
1.0
 40
1.0
 40
1.0
 40
1.0
 10
27.2185490841
 20
-8.3797160324
 30
0.0
 10
27.1583185221
 20
-8.3078790884
 30
0.0
 10
27.0283874808
 20
-8.1704629787
 30
0.0
 10
26.8094275586
 20
-7.987820441
 30
0.0
 10
26.5682167294
 20
-7.8296759595
 30
0.0
 10
26.219944232
 20
-7.6545077774
 30
0.0
 10
25.7471721851
 20
-7.5080839886
 30
0.0
 10
25.3518616315
 20
-7.4717244866
 30
0.0
 10
25.1541322245
 20
-7.4728242001
 30
0.0
  0
SPLINE
  5
6FD
100
AcDbEntity
  8
0
100
AcDbSpline
 62
250
  6
CONTINUOUS
 70
0
 71
3
 72
13
 73
9
 74
0
 42
0.0000001
 43
0.0000001
 44
0.0000000001
 40
0.0
 40
0.0
 40
0.0
 40
0.0
 40
0.1238183401
 40
0.2469663865
 40
0.3701255649
 40
0.4938506601
 40
0.7441534451
 40
1.0
 40
1.0
 40
1.0
 40
1.0
 10
27.2357936046
 20
-8.7875741694
 30
0.0
 10
27.1757583473
 20
-8.7103045587
 30
0.0
 10
27.0461614389
 20
-8.5635584577
 30
0.0
 10
26.8263037832
 20
-8.3695761554
 30
0.0
 10
26.5845418563
 20
-8.2037627212
 30
0.0
 10
26.2358984083
 20
-8.0208794273
 30
0.0
 10
25.7577932436
 20
-7.8674574778
 30
0.0
 10
25.3563198985
 20
-7.8290340524
 30
0.0
 10
25.1541322245
 20
-7.8300365904
 30
0.0
  0
SPLINE
  5
6FE
100
AcDbEntity
  8
0
100
AcDbSpline
 62
7
  6
CONTINUOUS
 70
0
 71
3
 72
11
 73
7
 74
0
 42
0.0000001
 43
0.0000001
 44
0.0000000001
 40
0.0
 40
0.0
 40
0.0
 40
0.0
 40
0.2499958773
 40
0.49999264
 40
0.7499937313
 40
1.0
 40
1.0
 40
1.0
 40
1.0
 10
35.803640071
 20
22.7699634096
 30
0.0
 10
35.8686618952
 20
22.7699637391
 30
0.0
 10
36.0001346664
 20
22.7439174799
 30
0.0
 10
36.1662280991
 20
22.6325159869
 30
0.0
 10
36.2773172183
 20
22.466227586
 30
0.0
 10
36.3032597657
 20
22.3347590844
 30
0.0
 10
36.3032594713
 20
22.2697345575
 30
0.0
  0
SPLINE
  5
6FF
100
AcDbEntity
  8
0
100
AcDbSpline
 62
7
  6
CONTINUOUS
 70
0
 71
3
 72
11
 73
7
 74
0
 42
0.0000001
 43
0.0000001
 44
0.0000000001
 40
0.0
 40
0.0
 40
0.0
 40
0.0
 40
0.2500062687
 40
0.50000736
 40
0.7500041227
 40
1.0
 40
1.0
 40
1.0
 40
1.0
 10
36.3032594713
 20
-21.5298077384
 30
0.0
 10
36.3032597657
 20
-21.5948322653
 30
0.0
 10
36.2773172183
 20
-21.7263007668
 30
0.0
 10
36.1662280991
 20
-21.8925891678
 30
0.0
 10
36.0001346664
 20
-22.0039906608
 30
0.0
 10
35.8686618952
 20
-22.03003692
 30
0.0
 10
35.803640071
 20
-22.0300365904
 30
0.0
  0
SPLINE
  5
700
100
AcDbEntity
  8
0
100
AcDbSpline
 62
7
  6
CONTINUOUS
 70
0
 71
3
 72
11
 73
7
 74
0
 42
0.0000001
 43
0.0000001
 44
0.0000000001
 40
0.0
 40
0.0
 40
0.0
 40
0.0
 40
0.2500062687
 40
0.50000736
 40
0.7500041227
 40
1.0
 40
1.0
 40
1.0
 40
1.0
 10
14.0050049778
 20
22.2697345575
 30
0.0
 10
14.0050046834
 20
22.3347590844
 30
0.0
 10
14.0309472308
 20
22.466227586
 30
0.0
 10
14.1420363499
 20
22.6325159869
 30
0.0
 10
14.3081297827
 20
22.7439174799
 30
0.0
 10
14.4396025538
 20
22.7699637391
 30
0.0
 10
14.504624378
 20
22.7699634096
 30
0.0
  0
SPLINE
  5
701
100
AcDbEntity
  8
0
100
AcDbSpline
 62
7
  6
CONTINUOUS
 70
0
 71
3
 72
11
 73
7
 74
0
 42
0.0000001
 43
0.0000001
 44
0.0000000001
 40
0.0
 40
0.0
 40
0.0
 40
0.0
 40
0.2499958773
 40
0.49999264
 40
0.7499937313
 40
1.0
 40
1.0
 40
1.0
 40
1.0
 10
14.504624378
 20
-22.0300365904
 30
0.0
 10
14.4396025538
 20
-22.03003692
 30
0.0
 10
14.3081297827
 20
-22.0039906608
 30
0.0
 10
14.1420363499
 20
-21.8925891678
 30
0.0
 10
14.0309472308
 20
-21.7263007668
 30
0.0
 10
14.0050046834
 20
-21.5948322653
 30
0.0
 10
14.0050049778
 20
-21.5298077384
 30
0.0
  0
SPLINE
  5
702
100
AcDbEntity
  8
RACCORDO
100
AcDbSpline
 62
250
  6
CONTINUOUS
 70
0
 71
3
 72
16
 73
12
 74
0
 42
0.0000001
 43
0.0000001
 44
0.0000000001
 40
0.0
 40
0.0
 40
0.0
 40
0.0
 40
0.3780406203
 40
0.5500433748
 40
0.7007815682
 40
0.8251651567
 40
0.9184184851
 40
0.9523150041
 40
0.9773664265
 40
0.9933203809
 40
1.0
 40
1.0
 40
1.0
 40
1.0
 10
34.9029763807
 20
-8.3633037614
 30
0.0
 10
34.8525535668
 20
-8.3632883911
 30
0.0
 10
34.7791866959
 20
-8.3630325854
 30
0.0
 10
34.6857256939
 20
-8.3621658871
 30
0.0
 10
34.6260820277
 20
-8.3613454157
 30
0.0
 10
34.5769917359
 20
-8.3603056481
 30
0.0
 10
34.5433823637
 20
-8.3593980486
 30
0.0
 10
34.5232055016
 20
-8.3583499205
 30
0.0
 10
34.5130534218
 20
-8.3579445965
 30
0.0
 10
34.5070648907
 20
-8.3569483997
 30
0.0
 10
34.5036668051
 20
-8.3569474766
 30
0.0
 10
34.503037178
 20
-8.356317148
 30
0.0
  0
SPLINE
  5
703
100
AcDbEntity
  8
RACCORDO
100
AcDbSpline
 62
250
  6
CONTINUOUS
 70
0
 71
3
 72
15
 73
11
 74
0
 42
0.0000001
 43
0.0000001
 44
0.0000000001
 40
0.0
 40
0.0
 40
0.0
 40
0.0
 40
0.3775892686
 40
0.5495188237
 40
0.7002654706
 40
0.8247233042
 40
0.9181014711
 40
0.9520756056
 40
0.9772135222
 40
1.0
 40
1.0
 40
1.0
 40
1.0
 10
34.8424469996
 20
-9.1300361334
 30
0.0
 10
34.7925486139
 20
-9.1221206281
 30
0.0
 10
34.7199765149
 20
-9.1103410124
 30
0.0
 10
34.6275629448
 20
-9.0947970942
 30
0.0
 10
34.568660971
 20
-9.0845068469
 30
0.0
 10
34.5200097212
 20
-9.0758713997
 30
0.0
 10
34.4871795323
 20
-9.0692446609
 30
0.0
 10
34.4668320772
 20
-9.0655011543
 30
0.0
 10
34.4568597275
 20
-9.0622578756
 30
0.0
 10
34.4491222016
 20
-9.0623621616
 30
0.0
 10
34.4473548017
 20
-9.0598778133
 30
0.0
  0
SPLINE
  5
704
100
AcDbEntity
  8
RACCORDO
100
AcDbSpline
 62
250
  6
CONTINUOUS
 70
0
 71
3
 72
16
 73
12
 74
0
 42
0.0000001
 43
0.0000001
 44
0.0000000001
 40
0.0
 40
0.0
 40
0.0
 40
0.0
 40
0.3749575773
 40
0.5467837775
 40
0.6978678249
 40
0.8228787187
 40
0.9168215119
 40
0.9510490139
 40
0.9764231881
 40
0.9927255271
 40
1.0
 40
1.0
 40
1.0
 40
1.0
 10
33.4661699016
 20
-11.8394890907
 30
0.0
 10
33.4295066544
 20
-11.8028698611
 30
0.0
 10
33.376389905
 20
-11.7491149836
 30
0.0
 10
33.3093877058
 20
-11.679753793
 30
0.0
 10
33.2667846271
 20
-11.6348192924
 30
0.0
 10
33.2321164884
 20
-11.5972883778
 30
0.0
 10
33.208729545
 20
-11.5711186002
 30
0.0
 10
33.1952537361
 20
-11.5549082066
 30
0.0
 10
33.1885234061
 20
-11.5465406845
 30
0.0
 10
33.1851584714
 20
-11.5411970933
 30
0.0
 10
33.1830540693
 20
-11.538001745
 30
0.0
 10
33.1833702674
 20
-11.537047445
 30
0.0
  0
SPLINE
  5
705
100
AcDbEntity
  8
RACCORDO
100
AcDbSpline
 62
250
  6
CONTINUOUS
 70
0
 71
3
 72
14
 73
10
 74
0
 42
0.0000001
 43
0.0000001
 44
0.0000000001
 40
0.0
 40
0.0
 40
0.0
 40
0.0
 40
0.3692032213
 40
0.54010835
 40
0.6911589891
 40
0.8167757602
 40
0.9117888071
 40
0.9730219417
 40
1.0
 40
1.0
 40
1.0
 40
1.0
 10
27.7173093128
 20
-17.6024297764
 30
0.0
 10
27.6792272559
 20
-17.5647295085
 30
0.0
 10
27.6243616128
 20
-17.5086646107
 30
0.0
 10
27.5561397743
 20
-17.4352212295
 30
0.0
 10
27.5128274154
 20
-17.3865363907
 30
0.0
 10
27.4785235491
 20
-17.345601995
 30
0.0
 10
27.452540354
 20
-17.3122638106
 30
0.0
 10
27.4399494879
 20
-17.2917355519
 30
0.0
 10
27.4323907793
 20
-17.2776677629
 30
0.0
 10
27.4345093494
 20
-17.274374746
 30
0.0
  0
SPLINE
  5
706
100
AcDbEntity
  8
RACCORDO
100
AcDbSpline
 62
250
  6
CONTINUOUS
 70
0
 71
3
 72
14
 73
10
 74
0
 42
0.0000001
 43
0.0000001
 44
0.0000000001
 40
0.0
 40
0.0
 40
0.0
 40
0.0
 40
0.3692033341
 40
0.540108463
 40
0.6911590789
 40
0.8167758156
 40
0.9117888293
 40
0.973021942
 40
1.0
 40
1.0
 40
1.0
 40
1.0
 10
22.5909551362
 20
-17.6024297914
 30
0.0
 10
22.6290371617
 20
-17.5647295474
 30
0.0
 10
22.6839027547
 20
-17.5086646917
 30
0.0
 10
22.7521245258
 20
-17.4352213717
 30
0.0
 10
22.79543683
 20
-17.3865365864
 30
0.0
 10
22.8297406497
 20
-17.3456022398
 30
0.0
 10
22.855723802
 20
-17.3122640972
 30
0.0
 10
22.8683146517
 20
-17.2917358621
 30
0.0
 10
22.8758733384
 20
-17.2776680886
 30
0.0
 10
22.8737547704
 20
-17.2743750753
 30
0.0
  0
SPLINE
  5
707
100
AcDbEntity
  8
RACCORDO
100
AcDbSpline
 62
250
  6
CONTINUOUS
 70
0
 71
3
 72
16
 73
12
 74
0
 42
0.0000001
 43
0.0000001
 44
0.0000000001
 40
0.0
 40
0.0
 40
0.0
 40
0.0
 40
0.3749265046
 40
0.5467524599
 40
0.697842414
 40
0.8228621757
 40
0.9168136645
 40
0.9510446811
 40
0.9764215142
 40
0.9927254123
 40
1.0
 40
1.0
 40
1.0
 40
1.0
 10
16.8420945541
 20
-11.8394879083
 30
0.0
 10
16.8787668546
 20
-11.8028602187
 30
0.0
 10
16.9318980596
 20
-11.7490915154
 30
0.0
 10
16.99892007
 20
-11.6797111893
 30
0.0
 10
17.0415387916
 20
-11.6347612813
 30
0.0
 10
17.0762208489
 20
-11.5972164391
 30
0.0
 10
17.0996178553
 20
-11.5710365513
 30
0.0
 10
17.1130997242
 20
-11.5548197664
 30
0.0
 10
17.1198333623
 20
-11.5464489833
 30
0.0
 10
17.1231997561
 20
-11.5411033793
 30
0.0
 10
17.1253055543
 20
-11.5379070036
 30
0.0
 10
17.1249892874
 20
-11.5369523688
 30
0.0
  0
SPLINE
  5
708
100
AcDbEntity
  8
RACCORDO
100
AcDbSpline
 62
250
  6
CONTINUOUS
 70
0
 71
3
 72
15
 73
11
 74
0
 42
0.0000001
 43
0.0000001
 44
0.0000000001
 40
0.0
 40
0.0
 40
0.0
 40
0.0
 40
0.3776141113
 40
0.5495462301
 40
0.7002907162
 40
0.8247432676
 40
0.9181146232
 40
0.9520851996
 40
0.977219638
 40
1.0
 40
1.0
 40
1.0
 40
1.0
 10
15.4658174445
 20
-9.1300365819
 30
0.0
 10
15.5157092376
 20
-9.122121964
 30
0.0
 10
15.58827058
 20
-9.1103438686
 30
0.0
 10
15.6806692184
 20
-9.0948021465
 30
0.0
 10
15.7395587908
 20
-9.0845137377
 30
0.0
 10
15.7881987487
 20
-9.0758802003
 30
0.0
 10
15.8210198388
 20
-9.0692546219
 30
0.0
 10
15.841362124
 20
-9.0655123831
 30
0.0
 10
15.8513294489
 20
-9.0622692589
 30
0.0
 10
15.8590667773
 20
-9.0623749396
 30
0.0
 10
15.8608312486
 20
-9.0598902519
 30
0.0
  0
SPLINE
  5
709
100
AcDbEntity
  8
RACCORDO
100
AcDbSpline
 62
250
  6
CONTINUOUS
 70
0
 71
3
 72
16
 73
12
 74
0
 42
0.0000001
 43
0.0000001
 44
0.0000000001
 40
0.0
 40
0.0
 40
0.0
 40
0.0
 40
0.378040647
 40
0.5500434011
 40
0.7007815888
 40
0.8251651692
 40
0.9184184902
 40
0.9523150064
 40
0.9773664269
 40
0.9933203805
 40
1.0
 40
1.0
 40
1.0
 40
1.0
 10
15.4052880684
 20
-8.3633037616
 30
0.0
 10
15.4557108702
 20
-8.3632883911
 30
0.0
 10
15.5290777217
 20
-8.3630325851
 30
0.0
 10
15.6225386973
 20
-8.3621658865
 30
0.0
 10
15.682182343
 20
-8.361345415
 30
0.0
 10
15.7312726167
 20
-8.3603056475
 30
0.0
 10
15.7648819759
 20
-8.359398048
 30
0.0
 10
15.7850588303
 20
-8.3583499202
 30
0.0
 10
15.7952109059
 20
-8.3579445961
 30
0.0
 10
15.8011994352
 20
-8.3569483998
 30
0.0
 10
15.8045975194
 20
-8.3569474763
 30
0.0
 10
15.8052271465
 20
-8.356317148
 30
0.0
  0
SPLINE
  5
70A
100
AcDbEntity
  8
RACCORDO
100
AcDbSpline
 62
250
  6
CONTINUOUS
 70
0
 71
3
 72
16
 73
12
 74
0
 42
0.0000001
 43
0.0000001
 44
0.0000000001
 40
0.0
 40
0.0
 40
0.0
 40
0.0
 40
0.3780406721
 40
0.5500434283
 40
0.7007816133
 40
0.8251651879
 40
0.9184185021
 40
0.9523150148
 40
0.977366432
 40
0.9933203828
 40
1.0
 40
1.0
 40
1.0
 40
1.0
 10
15.4052880684
 20
9.1032305811
 30
0.0
 10
15.4557108627
 20
9.1032152104
 30
0.0
 10
15.5290777022
 20
9.1029594041
 30
0.0
 10
15.6225386611
 20
9.1020927053
 30
0.0
 10
15.6821822931
 20
9.1012722338
 30
0.0
 10
15.7312725542
 20
9.1002324663
 30
0.0
 10
15.7648819042
 20
9.0993248669
 30
0.0
 10
15.7850587522
 20
9.0982767391
 30
0.0
 10
15.7952108248
 20
9.0978714152
 30
0.0
 10
15.801199351
 20
9.0968752187
 30
0.0
 10
15.8045974344
 20
9.0968742955
 30
0.0
 10
15.8052270607
 20
9.0962439671
 30
0.0
  0
SPLINE
  5
70B
100
AcDbEntity
  8
RACCORDO
100
AcDbSpline
 62
250
  6
CONTINUOUS
 70
0
 71
3
 72
15
 73
11
 74
0
 42
0.0000001
 43
0.0000001
 44
0.0000000001
 40
0.0
 40
0.0
 40
0.0
 40
0.0
 40
0.3775858258
 40
0.5495150185
 40
0.7002619637
 40
0.8247205325
 40
0.9180996485
 40
0.9520742781
 40
0.9772126778
 40
1.0
 40
1.0
 40
1.0
 40
1.0
 10
15.465817451
 20
9.8699628883
 30
0.0
 10
15.5157167223
 20
9.8620472663
 30
0.0
 10
15.5882902704
 20
9.8502674484
 30
0.0
 10
15.6807058567
 20
9.8347232352
 30
0.0
 10
15.7396095151
 20
9.8244327384
 30
0.0
 10
15.7882623037
 20
9.8157970303
 30
0.0
 10
15.8210937353
 20
9.8091701327
 30
0.0
 10
15.8414418978
 20
9.8054264522
 30
0.0
 10
15.8514149355
 20
9.802183152
 30
0.0
 10
15.8591524895
 20
9.8022872467
 30
0.0
 10
15.8609202901
 20
9.7998029446
 30
0.0
  0
SPLINE
  5
70C
100
AcDbEntity
  8
RACCORDO
100
AcDbSpline
 62
250
  6
CONTINUOUS
 70
0
 71
3
 72
16
 73
12
 74
0
 42
0.0000001
 43
0.0000001
 44
0.0000000001
 40
0.0
 40
0.0
 40
0.0
 40
0.0
 40
0.3749575772
 40
0.5467837774
 40
0.6978678248
 40
0.8228787184
 40
0.9168215116
 40
0.9510490137
 40
0.9764231879
 40
0.992725527
 40
1.0
 40
1.0
 40
1.0
 40
1.0
 10
16.8420945475
 20
12.5794159099
 30
0.0
 10
16.8787577947
 20
12.5427966802
 30
0.0
 10
16.931874544
 20
12.4890418027
 30
0.0
 10
16.9988767434
 20
12.4196806122
 30
0.0
 10
17.0414798222
 20
12.3747461118
 30
0.0
 10
17.076147961
 20
12.3372151973
 30
0.0
 10
17.0995349044
 20
12.3110454197
 30
0.0
 10
17.1130107132
 20
12.294835026
 30
0.0
 10
17.1197410432
 20
12.2864675038
 30
0.0
 10
17.1231059778
 20
12.2811239126
 30
0.0
 10
17.1252103798
 20
12.2779285641
 30
0.0
 10
17.1248941816
 20
12.2769742641
 30
0.0
  0
SPLINE
  5
70D
100
AcDbEntity
  8
RACCORDO
100
AcDbSpline
 62
250
  6
CONTINUOUS
 70
0
 71
3
 72
14
 73
10
 74
0
 42
0.0000001
 43
0.0000001
 44
0.0000000001
 40
0.0
 40
0.0
 40
0.0
 40
0.0
 40
0.3692032213
 40
0.54010835
 40
0.6911589891
 40
0.8167757602
 40
0.9117888071
 40
0.9730219417
 40
1.0
 40
1.0
 40
1.0
 40
1.0
 10
22.5909551362
 20
18.3423565955
 30
0.0
 10
22.6290371932
 20
18.3046563276
 30
0.0
 10
22.6839028363
 20
18.2485914299
 30
0.0
 10
22.7521246748
 20
18.1751480486
 30
0.0
 10
22.7954370336
 20
18.1264632098
 30
0.0
 10
22.8297409
 20
18.0855288141
 30
0.0
 10
22.855724095
 20
18.0521906298
 30
0.0
 10
22.8683149611
 20
18.031662371
 30
0.0
 10
22.8758736697
 20
18.017594582
 30
0.0
 10
22.8737550996
 20
18.0143015651
 30
0.0
  0
SPLINE
  5
70E
100
AcDbEntity
  8
RACCORDO
100
AcDbSpline
 62
250
  6
CONTINUOUS
 70
0
 71
3
 72
14
 73
10
 74
0
 42
0.0000001
 43
0.0000001
 44
0.0000000001
 40
0.0
 40
0.0
 40
0.0
 40
0.0
 40
0.3692033341
 40
0.540108463
 40
0.6911590789
 40
0.8167758156
 40
0.9117888293
 40
0.973021942
 40
1.0
 40
1.0
 40
1.0
 40
1.0
 10
27.7173093128
 20
18.3423566105
 30
0.0
 10
27.6792272874
 20
18.3046563666
 30
0.0
 10
27.6243616944
 20
18.2485915108
 30
0.0
 10
27.5561399233
 20
18.1751481909
 30
0.0
 10
27.5128276191
 20
18.1264634055
 30
0.0
 10
27.4785237994
 20
18.0855290589
 30
0.0
 10
27.4525406471
 20
18.0521909163
 30
0.0
 10
27.4399497973
 20
18.0316626812
 30
0.0
 10
27.4323911106
 20
18.0175949077
 30
0.0
 10
27.4345096787
 20
18.0143018944
 30
0.0
  0
SPLINE
  5
70F
100
AcDbEntity
  8
RACCORDO
100
AcDbSpline
 62
250
  6
CONTINUOUS
 70
0
 71
3
 72
16
 73
12
 74
0
 42
0.0000001
 43
0.0000001
 44
0.0000000001
 40
0.0
 40
0.0
 40
0.0
 40
0.0
 40
0.3749256543
 40
0.5467515995
 40
0.697841711
 40
0.8228617121
 40
0.9168134382
 40
0.9510445522
 40
0.9764214603
 40
0.9927254046
 40
1.0
 40
1.0
 40
1.0
 40
1.0
 10
33.4661698946
 20
12.5794146947
 30
0.0
 10
33.4294973491
 20
12.542786776
 30
0.0
 10
33.3763657526
 20
12.4890176983
 30
0.0
 10
33.3093432054
 20
12.4196368541
 30
0.0
 10
33.2667240596
 20
12.3746865288
 30
0.0
 10
33.2320416243
 20
12.337141309
 30
0.0
 10
33.2086443445
 20
12.3109611469
 30
0.0
 10
33.1951623101
 20
12.2947441877
 30
0.0
 10
33.1884285817
 20
12.2863733157
 30
0.0
 10
33.1850621463
 20
12.281027655
 30
0.0
 10
33.1829563103
 20
12.2778312516
 30
0.0
 10
33.1832725779
 20
12.2768766067
 30
0.0
  0
SPLINE
  5
710
100
AcDbEntity
  8
RACCORDO
100
AcDbSpline
 62
250
  6
CONTINUOUS
 70
0
 71
3
 72
15
 73
11
 74
0
 42
0.0000001
 43
0.0000001
 44
0.0000000001
 40
0.0
 40
0.0
 40
0.0
 40
0.0
 40
0.3776140646
 40
0.5495461812
 40
0.7002906743
 40
0.8247432377
 40
0.9181146063
 40
0.9520851885
 40
0.9772196319
 40
1.0
 40
1.0
 40
1.0
 40
1.0
 10
34.8424470046
 20
9.8699634003
 30
0.0
 10
34.7925551949
 20
9.8620487803
 30
0.0
 10
34.719993826
 20
9.8502706813
 30
0.0
 10
34.6275951513
 20
9.8347289535
 30
0.0
 10
34.5687055499
 20
9.8244405398
 30
0.0
 10
34.5200655659
 20
9.8158069978
 30
0.0
 10
34.4872444564
 20
9.8091814162
 30
0.0
 10
34.4669021594
 20
9.8054391754
 30
0.0
 10
34.4569348264
 20
9.8021960501
 30
0.0
 10
34.4491974954
 20
9.8023017305
 30
0.0
 10
34.4474330207
 20
9.7998170426
 30
0.0
  0
SPLINE
  5
711
100
AcDbEntity
  8
RACCORDO
100
AcDbSpline
 62
250
  6
CONTINUOUS
 70
0
 71
3
 72
16
 73
12
 74
0
 42
0.0000001
 43
0.0000001
 44
0.0000000001
 40
0.0
 40
0.0
 40
0.0
 40
0.0
 40
0.378040647
 40
0.5500434011
 40
0.7007815888
 40
0.8251651692
 40
0.9184184902
 40
0.9523150064
 40
0.9773664269
 40
0.9933203805
 40
1.0
 40
1.0
 40
1.0
 40
1.0
 10
34.9029763807
 20
9.1032305807
 30
0.0
 10
34.8525535789
 20
9.1032152102
 30
0.0
 10
34.7791867274
 20
9.1029594042
 30
0.0
 10
34.6857257517
 20
9.1020927056
 30
0.0
 10
34.6260821061
 20
9.1012722341
 30
0.0
 10
34.5769918323
 20
9.1002324667
 30
0.0
 10
34.5433824731
 20
9.0993248672
 30
0.0
 10
34.5232056188
 20
9.0982767393
 30
0.0
 10
34.5130535431
 20
9.0978714152
 30
0.0
 10
34.5070650139
 20
9.096875219
 30
0.0
 10
34.5036669297
 20
9.0968742954
 30
0.0
 10
34.5030373026
 20
9.0962439671
 30
0.0
  0
SPLINE
  5
712
100
AcDbEntity
  8
0
100
AcDbSpline
 62
250
  6
CONTINUOUS
 70
0
 71
3
 72
11
 73
7
 74
0
 42
0.0000001
 43
0.0000001
 44
0.0000000001
 40
0.0
 40
0.0
 40
0.0
 40
0.0
 40
0.2498284625
 40
0.4998011457
 40
0.7498902871
 40
1.0
 40
1.0
 40
1.0
 40
1.0
 10
36.1903979104
 20
21.9308745304
 30
0.0
 10
36.1903385339
 20
21.9957926466
 30
0.0
 10
36.1642110584
 20
22.1270612373
 30
0.0
 10
36.0529127408
 20
22.2929402241
 30
0.0
 10
35.8868343516
 20
22.4040575259
 30
0.0
 10
35.7554659462
 20
22.4301317132
 30
0.0
 10
35.690474747
 20
22.4301913522
 30
0.0
  0
SPLINE
  5
713
100
AcDbEntity
  8
0
100
AcDbSpline
 62
250
  6
CONTINUOUS
 70
0
 71
3
 72
13
 73
9
 74
0
 42
0.0000001
 43
0.0000001
 44
0.0000000001
 40
0.0
 40
0.0
 40
0.0
 40
0.0
 40
0.0277044658
 40
0.0888931314
 40
0.1818022289
 40
0.3037245907
 40
0.6196339208
 40
1.0
 40
1.0
 40
1.0
 40
1.0
 10
35.6904745627
 20
22.4301913522
 30
0.0
 10
35.6891854754
 20
22.4224520548
 30
0.0
 10
35.6890044884
 20
22.3971513066
 30
0.0
 10
35.6870529691
 20
22.3457942803
 30
0.0
 10
35.6861728043
 20
22.2675771324
 30
0.0
 10
35.684330591
 20
22.1173105808
 30
0.0
 10
35.6830282946
 20
21.885579156
 30
0.0
 10
35.6824433697
 20
21.6884006997
 30
0.0
 10
35.6823015587
 20
21.5806809007
 30
0.0
  0
SPLINE
  5
714
100
AcDbEntity
  8
0
100
AcDbSpline
 62
250
  6
CONTINUOUS
 70
0
 71
3
 72
13
 73
9
 74
0
 42
0.0000001
 43
0.0000001
 44
0.0000000001
 40
0.0
 40
0.0
 40
0.0
 40
0.0
 40
0.0278639912
 40
0.0891014976
 40
0.1820164548
 40
0.3039190784
 40
0.6197444364
 40
1.0
 40
1.0
 40
1.0
 40
1.0
 10
36.1903982122
 20
21.9308754367
 30
0.0
 10
36.1891527725
 20
21.9271302843
 30
0.0
 10
36.1888845249
 20
21.9142808489
 30
0.0
 10
36.1870018657
 20
21.8887386529
 30
0.0
 10
36.1860864375
 20
21.849550284
 30
0.0
 10
36.1842632464
 20
21.7744609601
 30
0.0
 10
36.1829481174
 20
21.6585661767
 30
0.0
 10
36.1823671872
 20
21.5599826377
 30
0.0
 10
36.1822254063
 20
21.5061213591
 30
0.0
  0
SPLINE
  5
715
100
AcDbEntity
  8
0
100
AcDbSpline
 62
250
  6
CONTINUOUS
 70
0
 71
3
 72
12
 73
8
 74
0
 42
0.0000001
 43
0.0000001
 44
0.0000000001
 40
0.0
 40
0.0
 40
0.0
 40
0.0
 40
0.035337833
 40
0.0986771222
 40
0.3158607303
 40
0.6311765984
 40
1.0
 40
1.0
 40
1.0
 40
1.0
 10
36.1822254063
 20
21.5061213591
 30
0.0
 10
36.1815299615
 20
21.5121315696
 30
0.0
 10
36.1672633825
 20
21.5251017242
 30
0.0
 10
36.1178900321
 20
21.5439213541
 30
0.0
 10
36.015856771
 20
21.56299927
 30
0.0
 10
35.8628196023
 20
21.5769677998
 30
0.0
 10
35.7454488724
 20
21.580518373
 30
0.0
 10
35.6823015587
 20
21.5806809003
 30
0.0
  0
SPLINE
  5
716
100
AcDbEntity
  8
0
100
AcDbSpline
 62
250
  6
CONTINUOUS
 70
0
 71
3
 72
16
 73
12
 74
0
 42
0.0000001
 43
0.0000001
 44
0.0000000001
 40
0.0
 40
0.0
 40
0.0
 40
0.0
 40
0.0066567318
 40
0.022511406
 40
0.0475277168
 40
0.0814932703
 40
0.1749404591
 40
0.2993684892
 40
0.4501138512
 40
0.621514847
 40
1.0
 40
1.0
 40
1.0
 40
1.0
 10
36.1650405218
 20
9.8604634096
 30
0.0
 10
36.1642898045
 20
9.8612809688
 30
0.0
 10
36.1600403381
 20
9.8613808683
 30
0.0
 10
36.1526122905
 20
9.8626608782
 30
0.0
 10
36.1399212566
 20
9.8632480447
 30
0.0
 10
36.1146730155
 20
9.8646441241
 30
0.0
 10
36.0726025114
 20
9.8658878566
 30
0.0
 10
36.0111979883
 20
9.8672986761
 30
0.0
 10
35.936728137
 20
9.8684135174
 30
0.0
 10
35.8199169872
 20
9.8696021644
 30
0.0
 10
35.7282254138
 20
9.8699424836
 30
0.0
 10
35.6651166742
 20
9.8699634096
 30
0.0
  0
SPLINE
  5
717
100
AcDbEntity
  8
0
100
AcDbSpline
 62
250
  6
CONTINUOUS
 70
0
 71
3
 72
8
 73
4
 74
0
 42
0.0000001
 43
0.0000001
 44
0.0000000001
 40
0.0
 40
0.0
 40
0.0
 40
0.0
 40
1.0
 40
1.0
 40
1.0
 40
1.0
 10
36.1650405218
 20
9.8604634096
 30
0.0
 10
36.1629418182
 20
3.5334637576
 30
0.0
 10
36.1629418182
 20
-2.7935369385
 30
0.0
 10
36.1650405218
 20
-9.1205365904
 30
0.0
  0
SPLINE
  5
718
100
AcDbEntity
  8
0
100
AcDbSpline
 62
250
  6
CONTINUOUS
 70
0
 71
3
 72
16
 73
12
 74
0
 42
0.0000001
 43
0.0000001
 44
0.0000000001
 40
0.0
 40
0.0
 40
0.0
 40
0.0
 40
0.0066567321
 40
0.0225114067
 40
0.0475277178
 40
0.0814932716
 40
0.1749404606
 40
0.2993684907
 40
0.4501138526
 40
0.621514848
 40
1.0
 40
1.0
 40
1.0
 40
1.0
 10
36.1650405218
 20
-9.1205365904
 30
0.0
 10
36.1642898044
 20
-9.1213541496
 30
0.0
 10
36.160040338
 20
-9.1214540492
 30
0.0
 10
36.15261229
 20
-9.122734059
 30
0.0
 10
36.1399212561
 20
-9.1233212255
 30
0.0
 10
36.1146730148
 20
-9.124717305
 30
0.0
 10
36.0726025107
 20
-9.1259610374
 30
0.0
 10
36.0111979876
 20
-9.1273718569
 30
0.0
 10
35.9367281363
 20
-9.1284866982
 30
0.0
 10
35.8199169868
 20
-9.1296753452
 30
0.0
 10
35.7282254136
 20
-9.1300156644
 30
0.0
 10
35.6651166742
 20
-9.1300365904
 30
0.0
  0
SPLINE
  5
719
100
AcDbEntity
  8
0
100
AcDbSpline
 62
250
  6
CONTINUOUS
 70
0
 71
3
 72
12
 73
8
 74
0
 42
0.0000001
 43
0.0000001
 44
0.0000000001
 40
0.0
 40
0.0
 40
0.0
 40
0.0
 40
0.0353378601
 40
0.0986771862
 40
0.3158608368
 40
0.631176679
 40
1.0
 40
1.0
 40
1.0
 40
1.0
 10
36.1822254063
 20
-20.7661945399
 30
0.0
 10
36.1815299488
 20
-20.7722047534
 30
0.0
 10
36.1672633493
 20
-20.7851748936
 30
0.0
 10
36.1178899822
 20
-20.8039945223
 30
0.0
 10
36.0158567133
 20
-20.8230724226
 30
0.0
 10
35.8628195625
 20
-20.8370409473
 30
0.0
 10
35.7454488558
 20
-20.8405915172
 30
0.0
 10
35.6823015587
 20
-20.8407540443
 30
0.0
  0
SPLINE
  5
71A
100
AcDbEntity
  8
0
100
AcDbSpline
 62
250
  6
CONTINUOUS
 70
0
 71
3
 72
13
 73
9
 74
0
 42
0.0000001
 43
0.0000001
 44
0.0000000001
 40
0.0
 40
0.0
 40
0.0
 40
0.0
 40
0.3803660742
 40
0.6962753994
 40
0.8181977596
 40
0.9111068573
 40
0.9722955359
 40
1.0
 40
1.0
 40
1.0
 40
1.0
 10
35.6823015587
 20
-20.8407540816
 30
0.0
 10
35.682443372
 20
-20.9484738808
 30
0.0
 10
35.6830282158
 20
-21.145652348
 30
0.0
 10
35.6843307654
 20
-21.3773837392
 30
0.0
 10
35.6861725891
 20
-21.5276503417
 30
0.0
 10
35.6870534018
 20
-21.605867401
 30
0.0
 10
35.6890036081
 20
-21.6572246189
 30
0.0
 10
35.6891862829
 20
-21.6825251322
 30
0.0
 10
35.690474747
 20
-21.6902645331
 30
0.0
  0
SPLINE
  5
71B
100
AcDbEntity
  8
0
100
AcDbSpline
 62
250
  6
CONTINUOUS
 70
0
 71
3
 72
13
 73
9
 74
0
 42
0.0000001
 43
0.0000001
 44
0.0000000001
 40
0.0
 40
0.0
 40
0.0
 40
0.0
 40
0.3802658863
 40
0.6960963076
 40
0.817998613
 40
0.9109110252
 40
0.9721435383
 40
1.0
 40
1.0
 40
1.0
 40
1.0
 10
36.1822254063
 20
-20.7661945399
 30
0.0
 10
36.1823672069
 20
-20.8200574318
 30
0.0
 10
36.1829482331
 20
-20.9186433879
 30
0.0
 10
36.1842631328
 20
-21.0345407509
 30
0.0
 10
36.1860868609
 20
-21.1096304171
 30
0.0
 10
36.1870015095
 20
-21.1488181089
 30
0.0
 10
36.1888857975
 20
-21.1743575959
 30
0.0
 10
36.1891521164
 20
-21.1872060712
 30
0.0
 10
36.1903985946
 20
-21.1909497657
 30
0.0
  0
SPLINE
  5
71C
100
AcDbEntity
  8
RACCORDO
100
AcDbSpline
 62
250
  6
CONTINUOUS
 70
0
 71
3
 72
9
 73
5
 74
0
 42
0.0000001
 43
0.0000001
 44
0.0000000001
 40
0.0
 40
0.0
 40
0.0
 40
0.0
 40
0.2502288752
 40
1.0
 40
1.0
 40
1.0
 40
1.0
 10
33.1833702674
 20
-11.537047445
 30
0.0
 10
32.7040477394
 20
-12.0157889581
 30
0.0
 10
30.7883215661
 20
-13.9288134852
 30
0.0
 10
28.8718360153
 20
-15.841077566
 30
0.0
 10
27.434479263
 20
-17.2744054138
 30
0.0
  0
SPLINE
  5
71D
100
AcDbEntity
  8
0
100
AcDbSpline
 62
250
  6
CONTINUOUS
 70
0
 71
3
 72
11
 73
7
 74
0
 42
0.0000001
 43
0.0000001
 44
0.0000000001
 40
0.0
 40
0.0
 40
0.0
 40
0.0
 40
0.2498286056
 40
0.4998010791
 40
0.749890035
 40
1.0
 40
1.0
 40
1.0
 40
1.0
 10
36.1903985946
 20
-21.1909497657
 30
0.0
 10
36.1903392268
 20
-21.2558678971
 30
0.0
 10
36.1642118554
 20
-21.3871364564
 30
0.0
 10
36.0529133531
 20
-21.5530152459
 30
0.0
 10
35.8868345279
 20
-21.6641318163
 30
0.0
 10
35.75546599
 20
-21.6902052432
 30
0.0
 10
35.690474747
 20
-21.6902645331
 30
0.0
  0
SPLINE
  5
71E
100
AcDbEntity
  8
RACCORDO
100
AcDbSpline
 62
250
  6
CONTINUOUS
 70
0
 71
3
 72
8
 73
4
 74
0
 42
0.0000001
 43
0.0000001
 44
0.0000000001
 40
0.0
 40
0.0
 40
0.0
 40
0.0
 40
1.0
 40
1.0
 40
1.0
 40
1.0
 10
34.5030372937
 20
9.0962879111
 30
0.0
 10
34.5048112143
 20
3.278736089
 30
0.0
 10
34.5048112132
 20
-2.5388165445
 30
0.0
 10
34.5030372922
 20
-8.3563683666
 30
0.0
  0
SPLINE
  5
71F
100
AcDbEntity
  8
0
100
AcDbSpline
 62
250
  6
CONTINUOUS
 70
0
 71
3
 72
12
 73
8
 74
0
 42
0.0000001
 43
0.0000001
 44
0.0000000001
 40
0.0
 40
0.0
 40
0.0
 40
0.0
 40
0.03533786
 40
0.0986771909
 40
0.3158608543
 40
0.6311766965
 40
1.0
 40
1.0
 40
1.0
 40
1.0
 10
14.1260390428
 20
21.5061213591
 30
0.0
 10
14.1267345003
 20
21.5121315725
 30
0.0
 10
14.1410011022
 20
21.525101712
 30
0.0
 10
14.1903744721
 20
21.5439213381
 30
0.0
 10
14.2924077445
 20
21.5629992358
 30
0.0
 10
14.4454448936
 20
21.5769677578
 30
0.0
 10
14.5628155966
 20
21.5805183269
 30
0.0
 10
14.6259628903
 20
21.580680854
 30
0.0
  0
SPLINE
  5
720
100
AcDbEntity
  8
RACCORDO
100
AcDbSpline
 62
250
  6
CONTINUOUS
 70
0
 71
3
 72
9
 73
5
 74
0
 42
0.0000001
 43
0.0000001
 44
0.0000000001
 40
0.0
 40
0.0
 40
0.0
 40
0.0
 40
0.2497380806
 40
1.0
 40
1.0
 40
1.0
 40
1.0
 10
27.4342781596
 20
18.0145328262
 30
0.0
 10
27.9130579609
 20
17.5370950426
 30
0.0
 10
29.8299939597
 20
15.6251487388
 30
0.0
 10
31.7461659629
 20
13.7124364486
 30
0.0
 10
33.1833702674
 20
12.2769742641
 30
0.0
  0
SPLINE
  5
721
100
AcDbEntity
  8
0
100
AcDbSpline
 62
250
  6
CONTINUOUS
 70
0
 71
3
 72
13
 73
9
 74
0
 42
0.0000001
 43
0.0000001
 44
0.0000000001
 40
0.0
 40
0.0
 40
0.0
 40
0.0
 40
0.3803660792
 40
0.6962754093
 40
0.8181977711
 40
0.9111068686
 40
0.9722955342
 40
1.0
 40
1.0
 40
1.0
 40
1.0
 10
14.6259628903
 20
21.5806809007
 30
0.0
 10
14.6258210793
 20
21.6884006997
 30
0.0
 10
14.6252361545
 20
21.885579156
 30
0.0
 10
14.6239338581
 20
22.1173105808
 30
0.0
 10
14.6220916448
 20
22.2675771324
 30
0.0
 10
14.62121148
 20
22.3457942803
 30
0.0
 10
14.6192599606
 20
22.3971513066
 30
0.0
 10
14.6190789736
 20
22.4224520548
 30
0.0
 10
14.6177898863
 20
22.4301913522
 30
0.0
  0
SPLINE
  5
722
100
AcDbEntity
  8
0
100
AcDbSpline
 62
250
  6
CONTINUOUS
 70
0
 71
3
 72
11
 73
7
 74
0
 42
0.0000001
 43
0.0000001
 44
0.0000000001
 40
0.0
 40
0.0
 40
0.0
 40
0.0
 40
0.2498295346
 40
0.4998006954
 40
0.7498884679
 40
1.0
 40
1.0
 40
1.0
 40
1.0
 10
14.1178615206
 20
21.9308895969
 30
0.0
 10
14.1179208334
 20
21.9958078303
 30
0.0
 10
14.1440475502
 20
22.1270762014
 30
0.0
 10
14.2553472351
 20
22.2929537428
 30
0.0
 10
14.4214288226
 20
22.4040656682
 30
0.0
 10
14.5527981895
 20
22.4301342732
 30
0.0
 10
14.617789702
 20
22.4301913522
 30
0.0
  0
SPLINE
  5
723
100
AcDbEntity
  8
0
100
AcDbSpline
 62
250
  6
CONTINUOUS
 70
0
 71
3
 72
13
 73
9
 74
0
 42
0.0000001
 43
0.0000001
 44
0.0000000001
 40
0.0
 40
0.0
 40
0.0
 40
0.0
 40
0.380391771
 40
0.6962842489
 40
0.8181817149
 40
0.9110614463
 40
0.9722324774
 40
1.0
 40
1.0
 40
1.0
 40
1.0
 10
14.1260390428
 20
21.5061213591
 30
0.0
 10
14.1258972059
 20
21.560003926
 30
0.0
 10
14.1253151911
 20
21.6586195745
 30
0.0
 10
14.1240016358
 20
21.7745477782
 30
0.0
 10
14.1221737105
 20
21.8496420847
 30
0.0
 10
14.121264152
 20
21.8888195947
 30
0.0
 10
14.1193688642
 20
21.9143291066
 30
0.0
 10
14.1191147623
 20
21.9271624258
 30
0.0
 10
14.1178611856
 20
21.9308906028
 30
0.0
  0
SPLINE
  5
724
100
AcDbEntity
  8
RACCORDO
100
AcDbSpline
 62
250
  6
CONTINUOUS
 70
0
 71
3
 72
11
 73
7
 74
0
 42
0.0000001
 43
0.0000001
 44
0.0000000001
 40
0.0
 40
0.0
 40
0.0
 40
0.0
 40
0.2496058414
 40
0.4998062533
 40
0.7501128267
 40
1.0
 40
1.0
 40
1.0
 40
1.0
 10
22.8737851934
 20
18.0143322256
 30
0.0
 10
23.1702219512
 20
18.3098390952
 30
0.0
 10
23.8882242175
 20
18.7896163151
 30
0.0
 10
25.15314998
 20
19.0400727136
 30
0.0
 10
26.4187054493
 20
18.7902934806
 30
0.0
 10
27.1375177532
 20
18.310383262
 30
0.0
 10
27.4342781099
 20
18.0145327763
 30
0.0
  0
SPLINE
  5
725
100
AcDbEntity
  8
0
100
AcDbSpline
 62
250
  6
CONTINUOUS
 70
0
 71
3
 72
16
 73
12
 74
0
 42
0.0000001
 43
0.0000001
 44
0.0000000001
 40
0.0
 40
0.0
 40
0.0
 40
0.0
 40
0.006656732
 40
0.0225114064
 40
0.0475277175
 40
0.0814932712
 40
0.1749404601
 40
0.2993684902
 40
0.4501138521
 40
0.6215148476
 40
1.0
 40
1.0
 40
1.0
 40
1.0
 10
14.1432239273
 20
9.8604634096
 30
0.0
 10
14.1439746447
 20
9.8612809688
 30
0.0
 10
14.148224111
 20
9.8613808683
 30
0.0
 10
14.1556521589
 20
9.8626608781
 30
0.0
 10
14.1683431928
 20
9.8632480447
 30
0.0
 10
14.193591434
 20
9.8646441241
 30
0.0
 10
14.2356619381
 20
9.8658878566
 30
0.0
 10
14.2970664612
 20
9.867298676
 30
0.0
 10
14.3715363125
 20
9.8684135173
 30
0.0
 10
14.4883474622
 20
9.8696021644
 30
0.0
 10
14.5800390354
 20
9.8699424835
 30
0.0
 10
14.6431477749
 20
9.8699634095
 30
0.0
  0
SPLINE
  5
726
100
AcDbEntity
  8
RACCORDO
100
AcDbSpline
 62
250
  6
CONTINUOUS
 70
0
 71
3
 72
9
 73
5
 74
0
 42
0.0000001
 43
0.0000001
 44
0.0000000001
 40
0.0
 40
0.0
 40
0.0
 40
0.0
 40
0.2502288752
 40
1.0
 40
1.0
 40
1.0
 40
1.0
 10
17.1248941816
 20
12.2769742641
 30
0.0
 10
17.6042167097
 20
12.7557157772
 30
0.0
 10
19.519942883
 20
14.6687403044
 30
0.0
 10
21.4364284338
 20
16.5810043851
 30
0.0
 10
22.8737851861
 20
18.0143322329
 30
0.0
  0
SPLINE
  5
727
100
AcDbEntity
  8
0
100
AcDbSpline
 62
250
  6
CONTINUOUS
 70
0
 71
3
 72
16
 73
12
 74
0
 42
0.0000001
 43
0.0000001
 44
0.0000000001
 40
0.0
 40
0.0
 40
0.0
 40
0.0
 40
0.0066567318
 40
0.0225114059
 40
0.0475277168
 40
0.0814932703
 40
0.174940459
 40
0.2993684892
 40
0.4501138512
 40
0.621514847
 40
1.0
 40
1.0
 40
1.0
 40
1.0
 10
14.1432239273
 20
-9.1205365904
 30
0.0
 10
14.1439746446
 20
-9.1213541497
 30
0.0
 10
14.1482241109
 20
-9.1214540492
 30
0.0
 10
14.1556521586
 20
-9.122734059
 30
0.0
 10
14.1683431925
 20
-9.1233212255
 30
0.0
 10
14.1935914336
 20
-9.124717305
 30
0.0
 10
14.2356619376
 20
-9.1259610375
 30
0.0
 10
14.2970664607
 20
-9.1273718569
 30
0.0
 10
14.3715363121
 20
-9.1284866982
 30
0.0
 10
14.4883474619
 20
-9.1296753453
 30
0.0
 10
14.5800390353
 20
-9.1300156644
 30
0.0
 10
14.6431477749
 20
-9.1300365904
 30
0.0
  0
SPLINE
  5
728
100
AcDbEntity
  8
0
100
AcDbSpline
 62
250
  6
CONTINUOUS
 70
0
 71
3
 72
8
 73
4
 74
0
 42
0.0000001
 43
0.0000001
 44
0.0000000001
 40
0.0
 40
0.0
 40
0.0
 40
0.0
 40
1.0
 40
1.0
 40
1.0
 40
1.0
 10
14.1432239273
 20
-9.1205365904
 30
0.0
 10
14.1453226309
 20
-2.7935369385
 30
0.0
 10
14.1453226309
 20
3.5334637576
 30
0.0
 10
14.1432239273
 20
9.8604634096
 30
0.0
  0
SPLINE
  5
729
100
AcDbEntity
  8
0
100
AcDbSpline
 62
250
  6
CONTINUOUS
 70
0
 71
3
 72
12
 73
8
 74
0
 42
0.0000001
 43
0.0000001
 44
0.0000000001
 40
0.0
 40
0.0
 40
0.0
 40
0.0
 40
0.0353378329
 40
0.0986771219
 40
0.3158607299
 40
0.6311765982
 40
1.0
 40
1.0
 40
1.0
 40
1.0
 10
14.1260390428
 20
-20.7661945399
 30
0.0
 10
14.1267344875
 20
-20.7722047505
 30
0.0
 10
14.1410010664
 20
-20.7851749051
 30
0.0
 10
14.1903744168
 20
-20.803994535
 30
0.0
 10
14.2924076778
 20
-20.823072451
 30
0.0
 10
14.4454448466
 20
-20.8370409808
 30
0.0
 10
14.5628155766
 20
-20.840591554
 30
0.0
 10
14.6259628903
 20
-20.8407540813
 30
0.0
  0
SPLINE
  5
72A
100
AcDbEntity
  8
RACCORDO
100
AcDbSpline
 62
250
  6
CONTINUOUS
 70
0
 71
3
 72
8
 73
4
 74
0
 42
0.0000001
 43
0.0000001
 44
0.0000000001
 40
0.0
 40
0.0
 40
0.0
 40
0.0
 40
1.0
 40
1.0
 40
1.0
 40
1.0
 10
15.8052271556
 20
-8.3563622766
 30
0.0
 10
15.8034532358
 20
-2.5388128134
 30
0.0
 10
15.8034532349
 20
3.2787374612
 30
0.0
 10
15.8052271552
 20
9.0962869243
 30
0.0
  0
SPLINE
  5
72B
100
AcDbEntity
  8
0
100
AcDbSpline
 62
250
  6
CONTINUOUS
 70
0
 71
3
 72
11
 73
7
 74
0
 42
0.0000001
 43
0.0000001
 44
0.0000000001
 40
0.0
 40
0.0
 40
0.0
 40
0.0
 40
0.2498286056
 40
0.4998010791
 40
0.7498900349
 40
1.0
 40
1.0
 40
1.0
 40
1.0
 10
14.1178658545
 20
-21.1909497657
 30
0.0
 10
14.1179252222
 20
-21.2558678971
 30
0.0
 10
14.1440525937
 20
-21.3871364564
 30
0.0
 10
14.2553510959
 20
-21.5530152459
 30
0.0
 10
14.4214299212
 20
-21.6641318163
 30
0.0
 10
14.5527984591
 20
-21.6902052432
 30
0.0
 10
14.617789702
 20
-21.6902645331
 30
0.0
  0
SPLINE
  5
72C
100
AcDbEntity
  8
0
100
AcDbSpline
 62
250
  6
CONTINUOUS
 70
0
 71
3
 72
13
 73
9
 74
0
 42
0.0000001
 43
0.0000001
 44
0.0000000001
 40
0.0
 40
0.0
 40
0.0
 40
0.0
 40
0.0277044641
 40
0.0888931427
 40
0.1818022404
 40
0.3037246006
 40
0.6196339258
 40
1.0
 40
1.0
 40
1.0
 40
1.0
 10
14.617789702
 20
-21.6902645331
 30
0.0
 10
14.6190781662
 20
-21.6825251322
 30
0.0
 10
14.619260841
 20
-21.6572246189
 30
0.0
 10
14.6212110473
 20
-21.605867401
 30
0.0
 10
14.6220918599
 20
-21.5276503417
 30
0.0
 10
14.6239336836
 20
-21.3773837392
 30
0.0
 10
14.6252362332
 20
-21.145652348
 30
0.0
 10
14.6258210771
 20
-20.9484738808
 30
0.0
 10
14.6259628903
 20
-20.8407540816
 30
0.0
  0
SPLINE
  5
72D
100
AcDbEntity
  8
0
100
AcDbSpline
 62
250
  6
CONTINUOUS
 70
0
 71
3
 72
13
 73
9
 74
0
 42
0.0000001
 43
0.0000001
 44
0.0000000001
 40
0.0
 40
0.0
 40
0.0
 40
0.0
 40
0.0278564617
 40
0.0890889748
 40
0.182001387
 40
0.3039036924
 40
0.6197341137
 40
1.0
 40
1.0
 40
1.0
 40
1.0
 10
14.1178658545
 20
-21.1909497657
 30
0.0
 10
14.1191123327
 20
-21.1872060712
 30
0.0
 10
14.1193786516
 20
-21.1743575959
 30
0.0
 10
14.1212629396
 20
-21.1488181089
 30
0.0
 10
14.1221775881
 20
-21.1096304171
 30
0.0
 10
14.1240013163
 20
-21.0345407509
 30
0.0
 10
14.1253162159
 20
-20.9186433879
 30
0.0
 10
14.1258972421
 20
-20.8200574318
 30
0.0
 10
14.1260390428
 20
-20.7661945399
 30
0.0
  0
SPLINE
  5
72E
100
AcDbEntity
  8
RACCORDO
100
AcDbSpline
 62
250
  6
CONTINUOUS
 70
0
 71
3
 72
9
 73
5
 74
0
 42
0.0000001
 43
0.0000001
 44
0.0000000001
 40
0.0
 40
0.0
 40
0.0
 40
0.0
 40
0.2497380806
 40
1.0
 40
1.0
 40
1.0
 40
1.0
 10
22.8739862894
 20
-17.2746060071
 30
0.0
 10
22.3952064882
 20
-16.7971682235
 30
0.0
 10
20.4782704893
 20
-14.8852219197
 30
0.0
 10
18.5620984861
 20
-12.9725096294
 30
0.0
 10
17.1248941816
 20
-11.537047445
 30
0.0
  0
SPLINE
  5
72F
100
AcDbEntity
  8
RACCORDO
100
AcDbSpline
 62
250
  6
CONTINUOUS
 70
0
 71
3
 72
11
 73
7
 74
0
 42
0.0000001
 43
0.0000001
 44
0.0000000001
 40
0.0
 40
0.0
 40
0.0
 40
0.0
 40
0.2496058414
 40
0.4998062533
 40
0.7501128267
 40
1.0
 40
1.0
 40
1.0
 40
1.0
 10
27.4344792557
 20
-17.2744054065
 30
0.0
 10
27.1380424979
 20
-17.5699122761
 30
0.0
 10
26.4200402316
 20
-18.0496894959
 30
0.0
 10
25.1551144691
 20
-18.3001458944
 30
0.0
 10
23.8895589998
 20
-18.0503666614
 30
0.0
 10
23.1707466959
 20
-17.5704564428
 30
0.0
 10
22.8739863392
 20
-17.2746059572
 30
0.0
  0
SPLINE
  5
730
100
AcDbEntity
  8
0
100
AcDbSpline
 62
7
  6
CONTINUOUS
 70
0
 71
3
 72
11
 73
7
 74
0
 42
0.0000001
 43
0.0000001
 44
0.0000000001
 40
0.0
 40
0.0
 40
0.0
 40
0.0
 40
0.327069379
 40
0.6069908884
 40
0.8253215288
 40
1.0
 40
1.0
 40
1.0
 40
1.0
 10
17.6468557064
 20
23.4926131404
 30
0.0
 10
17.6809661454
 20
23.4926131404
 30
0.0
 10
17.7445916682
 20
23.5003008452
 30
0.0
 10
17.8257263276
 20
23.5318113263
 30
0.0
 10
17.881297946
 20
23.5777227103
 30
0.0
 10
17.8966679168
 20
23.6187342153
 30
0.0
 10
17.8968514756
 20
23.6369507077
 30
0.0
  0
SPLINE
  5
731
100
AcDbEntity
  8
RACCORDO
100
AcDbSpline
 62
250
  6
CONTINUOUS
 70
0
 71
3
 72
9
 73
5
 74
0
 42
0.0000001
 43
0.0000001
 44
0.0000000001
 40
0.0
 40
0.0
 40
0.0
 40
0.0
 40
0.2502298938
 40
1.0
 40
1.0
 40
1.0
 40
1.0
 10
16.8420945475
 20
12.5794159094
 30
0.0
 10
17.3214156428
 20
13.0602932234
 30
0.0
 10
19.2371291373
 20
14.9818453196
 30
0.0
 10
21.1536053838
 20
16.9026369848
 30
0.0
 10
22.5909551362
 20
18.3423566094
 30
0.0
  0
SPLINE
  5
732
100
AcDbEntity
  8
RACCORDO
100
AcDbSpline
 62
250
  6
CONTINUOUS
 70
0
 71
3
 72
11
 73
7
 74
0
 42
0.0000001
 43
0.0000001
 44
0.0000000001
 40
0.0
 40
0.0
 40
0.0
 40
0.0
 40
0.2496680113
 40
0.4998060101
 40
0.7500503584
 40
1.0
 40
1.0
 40
1.0
 40
1.0
 10
22.5909551362
 20
18.3423566094
 30
0.0
 10
22.9237278284
 20
18.6756953725
 30
0.0
 10
23.7301641867
 20
19.2175881634
 30
0.0
 10
25.1531896391
 20
19.5009678033
 30
0.0
 10
26.5768784715
 20
19.2181970887
 30
0.0
 10
27.384213596
 20
18.6761236371
 30
0.0
 10
27.7173093128
 20
18.3423566094
 30
0.0
  0
SPLINE
  5
733
100
AcDbEntity
  8
RACCORDO
100
AcDbSpline
 62
250
  6
CONTINUOUS
 70
0
 71
3
 72
9
 73
5
 74
0
 42
0.0000001
 43
0.0000001
 44
0.0000000001
 40
0.0
 40
0.0
 40
0.0
 40
0.0
 40
0.2497369153
 40
1.0
 40
1.0
 40
1.0
 40
1.0
 10
27.7173093128
 20
18.3423566094
 30
0.0
 10
28.1960684557
 20
17.8628080984
 30
0.0
 10
30.1129298088
 20
15.9424010559
 30
0.0
 10
32.0290237713
 20
14.0212280426
 30
0.0
 10
33.4661699016
 20
12.5794159094
 30
0.0
  0
SPLINE
  5
734
100
AcDbEntity
  8
RACCORDO
100
AcDbSpline
 62
250
  6
CONTINUOUS
 70
0
 71
3
 72
9
 73
5
 74
0
 42
0.0000001
 43
0.0000001
 44
0.0000000001
 40
0.0
 40
0.0
 40
0.0
 40
0.0
 40
0.2502298938
 40
1.0
 40
1.0
 40
1.0
 40
1.0
 10
33.4661699016
 20
-11.8394890903
 30
0.0
 10
32.9868488063
 20
-12.3203664043
 30
0.0
 10
31.0711353118
 20
-14.2419185004
 30
0.0
 10
29.1546590652
 20
-16.1627101657
 30
0.0
 10
27.7173093128
 20
-17.6024297903
 30
0.0
  0
SPLINE
  5
735
100
AcDbEntity
  8
RACCORDO
100
AcDbSpline
 62
250
  6
CONTINUOUS
 70
0
 71
3
 72
11
 73
7
 74
0
 42
0.0000001
 43
0.0000001
 44
0.0000000001
 40
0.0
 40
0.0
 40
0.0
 40
0.0
 40
0.2496680113
 40
0.4998060101
 40
0.7500503584
 40
1.0
 40
1.0
 40
1.0
 40
1.0
 10
27.7173093128
 20
-17.6024297903
 30
0.0
 10
27.3845366207
 20
-17.9357685534
 30
0.0
 10
26.5781002624
 20
-18.4776613442
 30
0.0
 10
25.15507481
 20
-18.7610409842
 30
0.0
 10
23.7313859776
 20
-18.4782702696
 30
0.0
 10
22.924050853
 20
-17.9361968179
 30
0.0
 10
22.5909551362
 20
-17.6024297903
 30
0.0
  0
SPLINE
  5
736
100
AcDbEntity
  8
RACCORDO
100
AcDbSpline
 62
250
  6
CONTINUOUS
 70
0
 71
3
 72
9
 73
5
 74
0
 42
0.0000001
 43
0.0000001
 44
0.0000000001
 40
0.0
 40
0.0
 40
0.0
 40
0.0
 40
0.2497369153
 40
1.0
 40
1.0
 40
1.0
 40
1.0
 10
22.5909551362
 20
-17.6024297903
 30
0.0
 10
22.1121959934
 20
-17.1228812793
 30
0.0
 10
20.1953346403
 20
-15.2024742368
 30
0.0
 10
18.2792406778
 20
-13.2813012235
 30
0.0
 10
16.8420945475
 20
-11.8394890903
 30
0.0
  0
SPLINE
  5
737
100
AcDbEntity
  8
0
100
AcDbSpline
 62
250
  6
CONTINUOUS
 70
0
 71
3
 72
10
 73
6
 74
0
 42
0.0000001
 43
0.0000001
 44
0.0000000001
 40
0.0
 40
0.0
 40
0.0
 40
0.0
 40
0.2350699996
 40
0.4805706163
 40
1.0
 40
1.0
 40
1.0
 40
1.0
 10
15.0172308032
 20
-23.4743741577
 30
0.0
 10
15.017325875
 20
-23.4460689729
 30
0.0
 10
15.031368923
 20
-23.3875115903
 30
0.0
 10
15.1075963071
 20
-23.2907396533
 30
0.0
 10
15.2046810285
 20
-23.2580253712
 30
0.0
 10
15.2672265725
 20
-23.2578678068
 30
0.0
  0
SPLINE
  5
738
100
AcDbEntity
  8
0
100
AcDbSpline
 62
7
  6
CONTINUOUS
 70
0
 71
3
 72
11
 73
7
 74
0
 42
0.0000001
 43
0.0000001
 44
0.0000000001
 40
0.0
 40
0.0
 40
0.0
 40
0.0
 40
0.327069379
 40
0.6069908884
 40
0.8253215288
 40
1.0
 40
1.0
 40
1.0
 40
1.0
 10
15.2614087427
 20
-22.7526863212
 30
0.0
 10
15.2272983037
 20
-22.7526863212
 30
0.0
 10
15.1636727808
 20
-22.7603740261
 30
0.0
 10
15.0825381214
 20
-22.7918845071
 30
0.0
 10
15.0269665031
 20
-22.8377958912
 30
0.0
 10
15.0115965323
 20
-22.8788073961
 30
0.0
 10
15.0114129734
 20
-22.8970238885
 30
0.0
  0
SPLINE
  5
739
100
AcDbEntity
  8
0
100
AcDbSpline
 62
7
  6
CONTINUOUS
 70
0
 71
3
 72
11
 73
7
 74
0
 42
0.0000001
 43
0.0000001
 44
0.0000000001
 40
0.0
 40
0.0
 40
0.0
 40
0.0
 40
0.1745970712
 40
0.3929474236
 40
0.672962312
 40
1.0
 40
1.0
 40
1.0
 40
1.0
 10
17.8968514756
 20
-22.8970238885
 30
0.0
 10
17.8966675808
 20
-22.8787740571
 30
0.0
 10
17.8812341284
 20
-22.8376768723
 30
0.0
 10
17.8254742924
 20
-22.7917301058
 30
0.0
 10
17.7441055223
 20
-22.7602183212
 30
0.0
 10
17.6803139633
 20
-22.7526863212
 30
0.0
 10
17.6461284777
 20
-22.7526863212
 30
0.0
  0
SPLINE
  5
73A
100
AcDbEntity
  8
0
100
AcDbSpline
 62
250
  6
CONTINUOUS
 70
0
 71
3
 72
10
 73
6
 74
0
 42
0.0000001
 43
0.0000001
 44
0.0000000001
 40
0.0
 40
0.0
 40
0.0
 40
0.0
 40
0.2350700073
 40
0.4805706337
 40
1.0
 40
1.0
 40
1.0
 40
1.0
 10
15.0172308032
 20
24.2143009769
 30
0.0
 10
15.017325875
 20
24.1859957911
 30
0.0
 10
15.0313689242
 20
24.1274384063
 30
0.0
 10
15.1075963105
 20
24.0306664708
 30
0.0
 10
15.2046810305
 20
23.9979521903
 30
0.0
 10
15.2672265725
 20
23.9977946259
 30
0.0
  0
SPLINE
  5
73B
100
AcDbEntity
  8
0
100
AcDbSpline
 62
7
  6
CONTINUOUS
 70
0
 71
3
 72
11
 73
7
 74
0
 42
0.0000001
 43
0.0000001
 44
0.0000000001
 40
0.0
 40
0.0
 40
0.0
 40
0.0
 40
0.1745970712
 40
0.3929474236
 40
0.672962312
 40
1.0
 40
1.0
 40
1.0
 40
1.0
 10
15.0114129734
 20
23.6369507077
 30
0.0
 10
15.0115968682
 20
23.6187008762
 30
0.0
 10
15.0270303207
 20
23.5776036914
 30
0.0
 10
15.0827901567
 20
23.5316569249
 30
0.0
 10
15.1641589268
 20
23.5001451404
 30
0.0
 10
15.2279504857
 20
23.4926131404
 30
0.0
 10
15.2621359714
 20
23.4926131404
 30
0.0
  0
SPLINE
  5
73C
100
AcDbEntity
  8
0
100
AcDbSpline
 62
250
  6
CONTINUOUS
 70
0
 71
3
 72
10
 73
6
 74
0
 42
0.0000001
 43
0.0000001
 44
0.0000000001
 40
0.0
 40
0.0
 40
0.0
 40
0.0
 40
0.2350699996
 40
0.4805706163
 40
1.0
 40
1.0
 40
1.0
 40
1.0
 10
17.8910336458
 20
24.2143009769
 30
0.0
 10
17.890938574
 20
24.185995792
 30
0.0
 10
17.876895526
 20
24.1274384094
 30
0.0
 10
17.8006681419
 20
24.0306664724
 30
0.0
 10
17.7035834206
 20
23.9979521903
 30
0.0
 10
17.6410378766
 20
23.9977946259
 30
0.0
  0
SPLINE
  5
73D
100
AcDbEntity
  8
0
100
AcDbSpline
 62
250
  6
CONTINUOUS
 70
0
 71
3
 72
10
 73
6
 74
0
 42
0.0000001
 43
0.0000001
 44
0.0000000001
 40
0.0
 40
0.0
 40
0.0
 40
0.0
 40
0.2350699996
 40
0.4805706163
 40
1.0
 40
1.0
 40
1.0
 40
1.0
 10
17.8910336458
 20
-23.4743741577
 30
0.0
 10
17.890938574
 20
-23.4460689729
 30
0.0
 10
17.876895526
 20
-23.3875115903
 30
0.0
 10
17.8006681419
 20
-23.2907396533
 30
0.0
 10
17.7035834206
 20
-23.2580253712
 30
0.0
 10
17.6410378766
 20
-23.2578678068
 30
0.0
  0
SPLINE
  5
73E
100
AcDbEntity
  8
0
100
AcDbSpline
 62
250
  6
CONTINUOUS
 70
0
 71
3
 72
10
 73
6
 74
0
 42
0.0000001
 43
0.0000001
 44
0.0000000001
 40
0.0
 40
0.0
 40
0.0
 40
0.0
 40
0.2350699118
 40
0.4805705526
 40
1.0
 40
1.0
 40
1.0
 40
1.0
 10
32.4172308032
 20
-23.4743741577
 30
0.0
 10
32.417325875
 20
-23.4460689835
 30
0.0
 10
32.4313689137
 20
-23.3875116087
 30
0.0
 10
32.5075962881
 20
-23.2907396623
 30
0.0
 10
32.6046810209
 20
-23.2580253712
 30
0.0
 10
32.6672265725
 20
-23.2578678068
 30
0.0
  0
SPLINE
  5
73F
100
AcDbEntity
  8
0
100
AcDbSpline
 62
250
  6
CONTINUOUS
 70
0
 71
3
 72
10
 73
6
 74
0
 42
0.0000001
 43
0.0000001
 44
0.0000000001
 40
0.0
 40
0.0
 40
0.0
 40
0.0
 40
0.2350699996
 40
0.4805706163
 40
1.0
 40
1.0
 40
1.0
 40
1.0
 10
32.4172308032
 20
24.2143009769
 30
0.0
 10
32.417325875
 20
24.185995792
 30
0.0
 10
32.431368923
 20
24.1274384094
 30
0.0
 10
32.5075963071
 20
24.0306664724
 30
0.0
 10
32.6046810285
 20
23.9979521903
 30
0.0
 10
32.6672265725
 20
23.9977946259
 30
0.0
  0
SPLINE
  5
740
100
AcDbEntity
  8
0
100
AcDbSpline
 62
7
  6
CONTINUOUS
 70
0
 71
3
 72
11
 73
7
 74
0
 42
0.0000001
 43
0.0000001
 44
0.0000000001
 40
0.0
 40
0.0
 40
0.0
 40
0.0
 40
0.1745970712
 40
0.3929474236
 40
0.672962312
 40
1.0
 40
1.0
 40
1.0
 40
1.0
 10
32.4114129734
 20
23.6369507077
 30
0.0
 10
32.4115968682
 20
23.6187008762
 30
0.0
 10
32.4270303207
 20
23.5776036914
 30
0.0
 10
32.4827901567
 20
23.5316569249
 30
0.0
 10
32.5641589268
 20
23.5001451404
 30
0.0
 10
32.6279504857
 20
23.4926131404
 30
0.0
 10
32.6621359714
 20
23.4926131404
 30
0.0
  0
SPLINE
  5
741
100
AcDbEntity
  8
0
100
AcDbSpline
 62
7
  6
CONTINUOUS
 70
0
 71
3
 72
11
 73
7
 74
0
 42
0.0000001
 43
0.0000001
 44
0.0000000001
 40
0.0
 40
0.0
 40
0.0
 40
0.0
 40
0.1745970712
 40
0.3929474236
 40
0.672962312
 40
1.0
 40
1.0
 40
1.0
 40
1.0
 10
35.2968514756
 20
23.6369507077
 30
0.0
 10
35.2966675808
 20
23.6187008762
 30
0.0
 10
35.2812341284
 20
23.5776036914
 30
0.0
 10
35.2254742924
 20
23.5316569249
 30
0.0
 10
35.1441055223
 20
23.5001451404
 30
0.0
 10
35.0803139633
 20
23.4926131404
 30
0.0
 10
35.0461284777
 20
23.4926131404
 30
0.0
  0
SPLINE
  5
742
100
AcDbEntity
  8
0
100
AcDbSpline
 62
250
  6
CONTINUOUS
 70
0
 71
3
 72
10
 73
6
 74
0
 42
0.0000001
 43
0.0000001
 44
0.0000000001
 40
0.0
 40
0.0
 40
0.0
 40
0.0
 40
0.2350699118
 40
0.4805705526
 40
1.0
 40
1.0
 40
1.0
 40
1.0
 10
35.2910336458
 20
24.2143009769
 30
0.0
 10
35.2909385741
 20
24.1859958026
 30
0.0
 10
35.2768955354
 20
24.1274384279
 30
0.0
 10
35.200668161
 20
24.0306664815
 30
0.0
 10
35.1035834281
 20
23.9979521903
 30
0.0
 10
35.0410378766
 20
23.9977946259
 30
0.0
  0
SPLINE
  5
743
100
AcDbEntity
  8
0
100
AcDbSpline
 62
7
  6
CONTINUOUS
 70
0
 71
3
 72
11
 73
7
 74
0
 42
0.0000001
 43
0.0000001
 44
0.0000000001
 40
0.0
 40
0.0
 40
0.0
 40
0.0
 40
0.1745970712
 40
0.3929474236
 40
0.672962312
 40
1.0
 40
1.0
 40
1.0
 40
1.0
 10
32.4114129734
 20
-22.8970238885
 30
0.0
 10
32.4115968682
 20
-22.8787740571
 30
0.0
 10
32.4270303207
 20
-22.8376768723
 30
0.0
 10
32.4827901567
 20
-22.7917301058
 30
0.0
 10
32.5641589268
 20
-22.7602183212
 30
0.0
 10
32.6279504857
 20
-22.7526863212
 30
0.0
 10
32.6621359714
 20
-22.7526863212
 30
0.0
  0
SPLINE
  5
744
100
AcDbEntity
  8
0
100
AcDbSpline
 62
7
  6
CONTINUOUS
 70
0
 71
3
 72
11
 73
7
 74
0
 42
0.0000001
 43
0.0000001
 44
0.0000000001
 40
0.0
 40
0.0
 40
0.0
 40
0.0
 40
0.1745970712
 40
0.3929474236
 40
0.672962312
 40
1.0
 40
1.0
 40
1.0
 40
1.0
 10
35.2968514756
 20
-22.8970238885
 30
0.0
 10
35.2966675808
 20
-22.8787740571
 30
0.0
 10
35.2812341284
 20
-22.8376768723
 30
0.0
 10
35.2254742924
 20
-22.7917301058
 30
0.0
 10
35.1441055223
 20
-22.7602183212
 30
0.0
 10
35.0803139633
 20
-22.7526863212
 30
0.0
 10
35.0461284777
 20
-22.7526863212
 30
0.0
  0
SPLINE
  5
745
100
AcDbEntity
  8
0
100
AcDbSpline
 62
250
  6
CONTINUOUS
 70
0
 71
3
 72
10
 73
6
 74
0
 42
0.0000001
 43
0.0000001
 44
0.0000000001
 40
0.0
 40
0.0
 40
0.0
 40
0.0
 40
0.2350699996
 40
0.4805706163
 40
1.0
 40
1.0
 40
1.0
 40
1.0
 10
35.2910336458
 20
-23.4743741577
 30
0.0
 10
35.290938574
 20
-23.4460689729
 30
0.0
 10
35.276895526
 20
-23.3875115903
 30
0.0
 10
35.2006681419
 20
-23.2907396533
 30
0.0
 10
35.1035834206
 20
-23.2580253712
 30
0.0
 10
35.0410378766
 20
-23.2578678068
 30
0.0
  0
SPLINE
  5
746
100
AcDbEntity
  8
0
100
AcDbSpline
 62
7
  6
CONTINUOUS
 70
0
 71
3
 72
12
 73
8
 74
0
 42
0.0000001
 43
0.0000001
 44
0.0000000001
 40
0.0
 40
0.0
 40
0.0
 40
0.0
 40
0.127774183
 40
0.250865099
 40
0.3752225259
 40
0.4987212248
 40
1.0
 40
1.0
 40
1.0
 40
1.0
 10
20.9043992567
 20
-0.3100365904
 30
0.0
 10
20.9038558468
 20
-0.3115414489
 30
0.0
 10
20.9022813073
 20
-0.3144607878
 30
0.0
 10
20.8979459023
 20
-0.3166613453
 30
0.0
 10
20.8934917303
 20
-0.3179093025
 30
0.0
 10
20.884294107
 20
-0.3198517714
 30
0.0
 10
20.8764097545
 20
-0.3200365904
 30
0.0
 10
20.8701328267
 20
-0.3200365904
 30
0.0
  0
SPLINE
  5
747
100
AcDbEntity
  8
0
100
AcDbSpline
 62
7
  6
CONTINUOUS
 70
0
 71
3
 72
11
 73
7
 74
0
 42
0.0000001
 43
0.0000001
 44
0.0000000001
 40
0.0
 40
0.0
 40
0.0
 40
0.0
 40
0.2468136691
 40
0.4938769015
 40
0.744093436
 40
1.0
 40
1.0
 40
1.0
 40
1.0
 10
21.5042848514
 20
1.8702441115
 30
0.0
 10
21.3708168169
 20
1.8331024015
 30
0.0
 10
21.1092927804
 20
1.7369856315
 30
0.0
 10
20.7437129179
 20
1.5314959315
 30
0.0
 10
20.4115703463
 20
1.2670601774
 30
0.0
 10
20.220214812
 20
1.0549938009
 30
0.0
 10
20.1331213901
 20
0.9407650427
 30
0.0
  0
SPLINE
  5
748
100
AcDbEntity
  8
0
100
AcDbSpline
 62
7
  6
CONTINUOUS
 70
0
 71
3
 72
11
 73
7
 74
0
 42
0.0000001
 43
0.0000001
 44
0.0000000001
 40
0.0
 40
0.0
 40
0.0
 40
0.0
 40
0.2468136691
 40
0.4938769015
 40
0.744093436
 40
1.0
 40
1.0
 40
1.0
 40
1.0
 10
21.5042848514
 20
-1.1303172923
 30
0.0
 10
21.3708168169
 20
-1.0931755824
 30
0.0
 10
21.1092927804
 20
-0.9970588124
 30
0.0
 10
20.7437129179
 20
-0.7915691123
 30
0.0
 10
20.4115703463
 20
-0.5271333582
 30
0.0
 10
20.220214812
 20
-0.3150669817
 30
0.0
 10
20.1331213901
 20
-0.2008382236
 30
0.0
  0
SPLINE
  5
749
100
AcDbEntity
  8
0
100
AcDbSpline
 62
250
  6
CONTINUOUS
 70
0
 71
3
 72
11
 73
7
 74
0
 42
0.0000001
 43
0.0000001
 44
0.0000000001
 40
0.0
 40
0.0
 40
0.0
 40
0.0
 40
0.2448474774
 40
0.4932165748
 40
0.7452590957
 40
1.0
 40
1.0
 40
1.0
 40
1.0
 10
24.0761455606
 20
1.4335160907
 30
0.0
 10
23.9578886102
 20
1.5531965683
 30
0.0
 10
23.6936897056
 20
1.7700267842
 30
0.0
 10
23.236609268
 20
2.0084757952
 30
0.0
 10
22.7348855511
 20
2.1531496653
 30
0.0
 10
22.3856670622
 20
2.1843488298
 30
0.0
 10
22.2106186058
 20
2.1841417291
 30
0.0
  0
SPLINE
  5
74A
100
AcDbEntity
  8
0
100
AcDbSpline
 62
250
  6
CONTINUOUS
 70
0
 71
3
 72
14
 73
10
 74
0
 42
0.0000001
 43
0.0000001
 44
0.0000000001
 40
0.0
 40
0.0
 40
0.0
 40
0.0
 40
0.4043492707
 40
0.5712405316
 40
0.7128417135
 40
0.8278285926
 40
0.9148803741
 40
0.9726870846
 40
1.0
 40
1.0
 40
1.0
 40
1.0
 10
22.2106186058
 20
2.1841417291
 30
0.0
 10
22.2101725232
 20
2.1547161041
 30
0.0
 10
22.209498311
 20
2.1131448241
 30
0.0
 10
22.2084462411
 20
2.0612763613
 30
0.0
 10
22.2077365125
 20
2.030457951
 30
0.0
 10
22.2069686841
 20
2.0054729739
 30
0.0
 10
22.2063857759
 20
1.9865360947
 30
0.0
 10
22.2054825994
 20
1.974098176
 30
0.0
 10
22.2052483051
 20
1.9678253025
 30
0.0
 10
22.2046779312
 20
1.9659210224
 30
0.0
  0
LINE
  5
74B
100
AcDbEntity
  8
0
100
AcDbLine
 62
250
  6
CONTINUOUS
 10
22.2046779312
 20
1.9659210224
 30
0.0
 11
22.2044156103
 21
1.9654823985
 31
0.0
  0
SPLINE
  5
74C
100
AcDbEntity
  8
0
100
AcDbSpline
 62
250
  6
CONTINUOUS
 70
0
 71
3
 72
11
 73
7
 74
0
 42
0.0000001
 43
0.0000001
 44
0.0000000001
 40
0.0
 40
0.0
 40
0.0
 40
0.0
 40
0.2549443406
 40
0.5070960372
 40
0.7552771889
 40
1.0
 40
1.0
 40
1.0
 40
1.0
 10
22.2106186058
 20
2.1841417291
 30
0.0
 10
22.0077720786
 20
2.1839017405
 30
0.0
 10
21.6029539548
 20
2.1414319799
 30
0.0
 10
21.0283811707
 20
1.9493552164
 30
0.0
 10
20.518934659
 20
1.6361534918
 30
0.0
 10
20.239603144
 20
1.3545428317
 30
0.0
 10
20.1202326789
 20
1.2007111207
 30
0.0
  0
SPLINE
  5
74D
100
AcDbEntity
  8
0
100
AcDbSpline
 62
250
  6
CONTINUOUS
 70
0
 71
3
 72
9
 73
5
 74
0
 42
0.0000001
 43
0.0000001
 44
0.0000000001
 40
0.0
 40
0.0
 40
0.0
 40
0.0
 40
0.2441982841
 40
1.0
 40
1.0
 40
1.0
 40
1.0
 10
20.0192598355
 20
0.8903808026
 30
0.0
 10
20.0270721921
 20
0.8911106586
 30
0.0
 10
20.0589492
 20
0.8952399742
 30
0.0
 10
20.0901752887
 20
0.9042682407
 30
0.0
 10
20.1126284821
 20
0.9135205427
 30
0.0
  0
SPLINE
  5
74E
100
AcDbEntity
  8
0
100
AcDbSpline
 62
250
  6
CONTINUOUS
 70
0
 71
3
 72
11
 73
7
 74
0
 42
0.0000001
 43
0.0000001
 44
0.0000000001
 40
0.0
 40
0.0
 40
0.0
 40
0.0
 40
0.2448474774
 40
0.4932165748
 40
0.7452590957
 40
1.0
 40
1.0
 40
1.0
 40
1.0
 10
24.0761455606
 20
-0.6935892716
 30
0.0
 10
23.9578886102
 20
-0.8132697491
 30
0.0
 10
23.6936897056
 20
-1.030099965
 30
0.0
 10
23.236609268
 20
-1.2685489761
 30
0.0
 10
22.7348855511
 20
-1.4132228461
 30
0.0
 10
22.3856670622
 20
-1.4444220107
 30
0.0
 10
22.2106186058
 20
-1.44421491
 30
0.0
  0
SPLINE
  5
74F
100
AcDbEntity
  8
0
100
AcDbSpline
 62
250
  6
CONTINUOUS
 70
0
 71
3
 72
14
 73
10
 74
0
 42
0.0000001
 43
0.0000001
 44
0.0000000001
 40
0.0
 40
0.0
 40
0.0
 40
0.0
 40
0.4043492707
 40
0.5712405316
 40
0.7128417135
 40
0.8278285926
 40
0.9148803741
 40
0.9726870846
 40
1.0
 40
1.0
 40
1.0
 40
1.0
 10
22.2106186058
 20
-1.44421491
 30
0.0
 10
22.2101725232
 20
-1.414789285
 30
0.0
 10
22.209498311
 20
-1.373218005
 30
0.0
 10
22.2084462411
 20
-1.3213495422
 30
0.0
 10
22.2077365125
 20
-1.2905311319
 30
0.0
 10
22.2069686841
 20
-1.2655461547
 30
0.0
 10
22.2063857759
 20
-1.2466092755
 30
0.0
 10
22.2054825994
 20
-1.2341713568
 30
0.0
 10
22.2052483051
 20
-1.2278984834
 30
0.0
 10
22.2046779312
 20
-1.2259942033
 30
0.0
  0
LINE
  5
750
100
AcDbEntity
  8
0
100
AcDbLine
 62
250
  6
CONTINUOUS
 10
22.2046779312
 20
-1.2259942033
 30
0.0
 11
22.2044156103
 21
-1.2255555793
 31
0.0
  0
SPLINE
  5
751
100
AcDbEntity
  8
0
100
AcDbSpline
 62
250
  6
CONTINUOUS
 70
0
 71
3
 72
11
 73
7
 74
0
 42
0.0000001
 43
0.0000001
 44
0.0000000001
 40
0.0
 40
0.0
 40
0.0
 40
0.0
 40
0.2549443406
 40
0.5070960372
 40
0.7552771889
 40
1.0
 40
1.0
 40
1.0
 40
1.0
 10
22.2106186058
 20
-1.44421491
 30
0.0
 10
22.0077720786
 20
-1.4439749213
 30
0.0
 10
21.6029539548
 20
-1.4015051608
 30
0.0
 10
21.0283811707
 20
-1.2094283972
 30
0.0
 10
20.518934659
 20
-0.8962266727
 30
0.0
 10
20.239603144
 20
-0.6146160126
 30
0.0
 10
20.1202326789
 20
-0.4607843016
 30
0.0
  0
SPLINE
  5
752
100
AcDbEntity
  8
0
100
AcDbSpline
 62
250
  6
CONTINUOUS
 70
0
 71
3
 72
9
 73
5
 74
0
 42
0.0000001
 43
0.0000001
 44
0.0000000001
 40
0.0
 40
0.0
 40
0.0
 40
0.0
 40
0.2441982841
 40
1.0
 40
1.0
 40
1.0
 40
1.0
 10
20.0192598355
 20
-0.1504539835
 30
0.0
 10
20.0270721921
 20
-0.1511838395
 30
0.0
 10
20.0589492
 20
-0.1553131551
 30
0.0
 10
20.0901752887
 20
-0.1643414216
 30
0.0
 10
20.1126284821
 20
-0.1735937236
 30
0.0
  0
ELLIPSE
  5
753
100
AcDbEntity
  8
DRAFT
100
AcDbEllipse
 62
7
  6
CONTINUOUS
 10
-17.3806237012
 20
22.3237303801
 30
0.0
 11
-0.3546425507
 21
0.3568377408
 31
0.0
 40
0.9877342685
 41
-3.912622899
 42
-2.8852845239
  0
ELLIPSE
  5
754
100
AcDbEntity
  8
DRAFT
100
AcDbEllipse
 62
7
  6
CONTINUOUS
 10
-17.3806237012
 20
-21.5838035609
 30
0.0
 11
0.3546425507
 21
0.3568377408
 31
0.0
 40
0.9877342685
 41
6.0268771775
 42
7.0542155526
  0
ELLIPSE
  5
755
100
AcDbEntity
  8
0
100
AcDbEllipse
 62
7
  6
CONTINUOUS
 10
48.4678059748
 20
23.5199634096
 30
0.0
 11
85.9426996401
 21
-0.0
 31
0.0
 40
0.0058178298
 41
2.5196231925
 42
2.6791261215
  0
ELLIPSE
  5
756
100
AcDbEntity
  8
0
100
AcDbEllipse
 62
7
  6
CONTINUOUS
 10
48.4678059748
 20
23.5199634096
 30
0.0
 11
85.9426996401
 21
-0.0
 31
0.0
 40
0.0058178298
 41
-2.6905658418
 42
-2.5196231925
  0
ELLIPSE
  5
757
100
AcDbEntity
  8
0
100
AcDbEllipse
 62
7
  6
CONTINUOUS
 10
48.4678059748
 20
-22.7800365904
 30
0.0
 11
85.9426996401
 21
-0.0
 31
0.0
 40
0.0058178298
 41
2.5196231925
 42
2.6905658418
  0
ELLIPSE
  5
758
100
AcDbEntity
  8
0
100
AcDbEllipse
 62
7
  6
CONTINUOUS
 10
48.4678059748
 20
-22.7800365904
 30
0.0
 11
85.9426996401
 21
-0.0
 31
0.0
 40
0.0058178298
 41
-2.6791261215
 42
-2.5196231925
  0
ELLIPSE
  5
759
100
AcDbEntity
  8
0
100
AcDbEllipse
 62
250
  6
CONTINUOUS
 10
-4.2906237012
 20
-8.1286015904
 30
0.0
 11
0.9
 21
-0.0
 31
0.0
 40
1.0
 41
0.0
 42
3.1415926536
  0
ELLIPSE
  5
75A
100
AcDbEntity
  8
0
100
AcDbEllipse
 62
7
  6
CONTINUOUS
 10
26.3541322245
 20
22.7542410758
 30
0.0
 11
0.2
 21
-0.0
 31
0.0
 40
0.0524077793
 41
-3.1415926536
 42
-1.5707963268
  0
ELLIPSE
  5
75B
100
AcDbEntity
  8
0
100
AcDbEllipse
 62
7
  6
CONTINUOUS
 10
23.9541322245
 20
22.7542410758
 30
0.0
 11
0.2
 21
0.0
 31
0.0
 40
0.0524077793
 41
-1.5707963268
 42
0.0
  0
ELLIPSE
  5
75C
100
AcDbEntity
  8
0
100
AcDbEllipse
 62
7
  6
CONTINUOUS
 10
26.3541322245
 20
-22.0143142567
 30
0.0
 11
0.2
 21
0.0
 31
0.0
 40
0.0524077793
 41
1.5707963268
 42
3.1415926536
  0
ELLIPSE
  5
75D
100
AcDbEntity
  8
0
100
AcDbEllipse
 62
7
  6
CONTINUOUS
 10
23.9541322245
 20
-22.0143142567
 30
0.0
 11
0.2
 21
-0.0
 31
0.0
 40
0.0524077793
 41
0.0
 42
1.5707963268
  0
ELLIPSE
  5
75E
100
AcDbEntity
  8
0
100
AcDbEllipse
 62
7
  6
CONTINUOUS
 10
35.0468557064
 20
22.7044536855
 30
0.0
 11
0.25
 21
0.0
 31
0.0
 40
0.0524077793
 41
-1.5707963268
 42
-0.0058177642
  0
ELLIPSE
  5
75F
100
AcDbEntity
  8
0
100
AcDbEllipse
 62
7
  6
CONTINUOUS
 10
32.6614087427
 20
22.7044536855
 30
0.0
 11
0.25
 21
0.0
 31
0.0
 40
0.0524077793
 41
-3.1357748894
 42
-1.5707963268
  0
ELLIPSE
  5
760
100
AcDbEntity
  8
0
100
AcDbEllipse
 62
7
  6
CONTINUOUS
 10
15.2614087427
 20
22.7044536855
 30
0.0
 11
0.25
 21
-0.0
 31
0.0
 40
0.0524077793
 41
-3.1357748894
 42
-1.5707963268
  0
ELLIPSE
  5
761
100
AcDbEntity
  8
0
100
AcDbEllipse
 62
7
  6
CONTINUOUS
 10
17.6468557064
 20
22.7044536855
 30
0.0
 11
0.25
 21
-0.0
 31
0.0
 40
0.0524077793
 41
-1.5707963268
 42
-0.0058177642
  0
ELLIPSE
  5
762
100
AcDbEntity
  8
0
100
AcDbEllipse
 62
7
  6
CONTINUOUS
 10
15.2614087427
 20
-21.9645268663
 30
0.0
 11
0.25
 21
0.0
 31
0.0
 40
0.0524077793
 41
1.5707963268
 42
3.1357748894
  0
ELLIPSE
  5
763
100
AcDbEntity
  8
0
100
AcDbEllipse
 62
7
  6
CONTINUOUS
 10
17.6468557064
 20
-21.9645268663
 30
0.0
 11
0.25
 21
0.0
 31
0.0
 40
0.0524077793
 41
0.0058177642
 42
1.5707963268
  0
ELLIPSE
  5
764
100
AcDbEntity
  8
0
100
AcDbEllipse
 62
7
  6
CONTINUOUS
 10
32.6614087427
 20
-21.9645268663
 30
0.0
 11
0.25
 21
-0.0
 31
0.0
 40
0.0524077793
 41
1.5707963268
 42
3.1357748894
  0
ELLIPSE
  5
765
100
AcDbEntity
  8
0
100
AcDbEllipse
 62
7
  6
CONTINUOUS
 10
35.0468557064
 20
-21.9645268663
 30
0.0
 11
0.25
 21
-0.0
 31
0.0
 40
0.0524077793
 41
0.0058177642
 42
1.5707963268
  0
ELLIPSE
  5
766
100
AcDbEntity
  8
0
100
AcDbEllipse
 62
7
  6
CONTINUOUS
 10
24.2641322245
 20
11.1699634096
 30
0.0
 11
0.01
 21
0.0
 31
0.0
 40
1.0
 41
1.5707963268
 42
3.1415926536
  0
ELLIPSE
  5
767
100
AcDbEntity
  8
0
100
AcDbEllipse
 62
7
  6
CONTINUOUS
 10
26.0441322245
 20
-10.4300365904
 30
0.0
 11
0.0
 21
0.01
 31
0.0
 40
1.0
 41
-3.1415926536
 42
-1.5707963268
  0
ENDSEC
  0
SECTION
  2
OBJECTS
  0
DICTIONARY
  5
C
100
AcDbDictionary
280
0
281
1
  3
ACAD_GROUP
350
D
  3
ACAD_MLINESTYLE
350
17
  3
ACAD_LAYOUT
350
1A
  3
ACAD_PLOTSETTINGS
350
19
  3
ACAD_PLOTSTYLENAME
350
E
  0
DICTIONARY
  5
D
102
{ACAD_REACTORS
330
C
102
}
100
AcDbDictionary
280
0
281
1
  0
ACDBDICTIONARYWDFLT
  5
E
102
{ACAD_REACTORS
330
C
102
}
100
AcDbDictionary
281
1
  3
Normal
350
F
100
AcDbDictionaryWithDefault
340
F
  0
DICTIONARY
  5
17
102
{ACAD_REACTORS
330
C
102
}
100
AcDbDictionary
280
0
281
1
  3
Standard
350
18
  0
DICTIONARY
  5
19
102
{ACAD_REACTORS
330
C
102
}
100
AcDbDictionary
281
1
  0
DICTIONARY
  5
1A
102
{ACAD_REACTORS
330
C
102
}
100
AcDbDictionary
281
1
  3
Model
350
768
  3
Layout1
350
769
  0
ACDBPLACEHOLDER
  5
F
102
{ACAD_REACTORS
330
E
102
}
  0
MLINESTYLE
  5
18
102
{ACAD_REACTORS
330
17
102
}
100
AcDbMlineStyle
  2
STANDARD
 70
0
  3

 62
256
 51
90.0
 52
90.0
 71
2
 49
0.5
 62
256
  6
BYLAYER
 49
-0.5
 62
256
  6
BYLAYER
  0
LAYOUT
  5
768
102
{ACAD_REACTORS
330
1A
102
}
100
AcDbPlotSettings
  1

  2
none_device
  4
ANSI_A_(11.00_x_8.50_Inches)
  6

 40
0.0
 41
0.0
 42
0.0
 43
0.0
 44
279.4
 45
215.9
 46
0.0
 47
0.0
 48
0.0
 49
0.0
140
0.0
141
0.0
142
1.0
143
1.0
 70
1024
 72
1
 73
0
 74
0
  7

 75
0
147
1.0
148
0.0
149
0.0
100
AcDbLayout
  1
Model
 70
0
 71
0
 10
0.0
 20
0.0
 11
279.4
 21
215.9
 12
0.0
 22
0.0
 32
0.0
 14
0.0
 24
0.0
 34
0.0
 15
0.0
 25
0.0
 35
0.0
146
0.0
 13
0.0
 23
0.0
 33
0.0
 16
1.0
 26
0.0
 36
0.0
 17
0.0
 27
1.0
 37
0.0
 76
0
330
219
345
0
346
0
  0
LAYOUT
  5
769
102
{ACAD_REACTORS
330
1A
102
}
100
AcDbPlotSettings
  1

  2
none_device
  4
ANSI_A_(11.00_x_8.50_Inches)
  6

 40
0.0
 41
0.0
 42
0.0
 43
0.0
 44
279.4
 45
215.9
 46
0.0
 47
0.0
 48
0.0
 49
0.0
140
0.0
141
0.0
142
1.0
143
1.0
 70
0
 72
1
 73
0
 74
0
  7

 75
0
147
1.0
148
0.0
149
0.0
100
AcDbLayout
  1
Layout1
 70
0
 71
1
 10
0.0
 20
0.0
 11
279.4
 21
215.9
 12
0.0
 22
0.0
 32
0.0
 14
0.0
 24
0.0
 34
0.0
 15
0.0
 25
0.0
 35
0.0
146
0.0
 13
0.0
 23
0.0
 33
0.0
 16
1.0
 26
0.0
 36
0.0
 17
0.0
 27
1.0
 37
0.0
 76
0
330
21A
345
0
346
0
  0
ENDSEC
  0
EOF
